  0
SECTION
  2
HEADER
  9
$ACADVER
  1
AC1015
  9
$ACADMAINTVER
 70
     6
  9
$DWGCODEPAGE
  3
ANSI_949
  9
$INSBASE
 10
0.0
 20
0.0
 30
0.0
  9
$EXTMIN
 10
-74.00077283782721
 20
-49.97073246008787
 30
0.0
  9
$EXTMAX
 10
82.85089147959948
 20
49.9645
 30
0.0
  9
$LIMMIN
 10
0.0
 20
0.0
  9
$LIMMAX
 10
420.0
 20
297.0
  9
$ORTHOMODE
 70
     1
  9
$REGENMODE
 70
     1
  9
$FILLMODE
 70
     1
  9
$QTEXTMODE
 70
     0
  9
$MIRRTEXT
 70
     1
  9
$LTSCALE
 40
1.0
  9
$ATTMODE
 70
     1
  9
$TEXTSIZE
 40
3.5
  9
$TRACEWID
 40
1.0
  9
$TEXTSTYLE
  7
Standard
  9
$CLAYER
  8
0
  9
$CELTYPE
  6
ByLayer
  9
$CECOLOR
 62
   256
  9
$CELTSCALE
 40
1.0
  9
$DISPSILH
 70
     0
  9
$DIMSCALE
 40
1.0
  9
$DIMASZ
 40
3.302
  9
$DIMEXO
 40
1.0
  9
$DIMDLI
 40
3.75
  9
$DIMRND
 40
0.0
  9
$DIMDLE
 40
0.0
  9
$DIMEXE
 40
1.0
  9
$DIMTP
 40
0.0
  9
$DIMTM
 40
0.0
  9
$DIMTXT
 40
3.5
  9
$DIMCEN
 40
2.5
  9
$DIMTSZ
 40
0.0
  9
$DIMTOL
 70
     0
  9
$DIMLIM
 70
     0
  9
$DIMTIH
 70
     1
  9
$DIMTOH
 70
     1
  9
$DIMSE1
 70
     0
  9
$DIMSE2
 70
     0
  9
$DIMTAD
 70
     1
  9
$DIMZIN
 70
     0
  9
$DIMBLK
  1

  9
$DIMASO
 70
     1
  9
$DIMSHO
 70
     1
  9
$DIMPOST
  1

  9
$DIMAPOST
  1

  9
$DIMALT
 70
     0
  9
$DIMALTD
 70
     3
  9
$DIMALTF
 40
0.0393700787401575
  9
$DIMLFAC
 40
1.0
  9
$DIMTOFL
 70
     1
  9
$DIMTVP
 40
0.0
  9
$DIMTIX
 70
     0
  9
$DIMSOXD
 70
     0
  9
$DIMSAH
 70
     0
  9
$DIMBLK1
  1

  9
$DIMBLK2
  1

  9
$DIMSTYLE
  2
ISO-25
  9
$DIMCLRD
 70
     0
  9
$DIMCLRE
 70
     0
  9
$DIMCLRT
 70
     0
  9
$DIMTFAC
 40
1.0
  9
$DIMGAP
 40
1.524
  9
$DIMJUST
 70
     0
  9
$DIMSD1
 70
     0
  9
$DIMSD2
 70
     0
  9
$DIMTOLJ
 70
     0
  9
$DIMTZIN
 70
     0
  9
$DIMALTZ
 70
     0
  9
$DIMALTTZ
 70
     0
  9
$DIMUPT
 70
     0
  9
$DIMDEC
 70
     2
  9
$DIMTDEC
 70
     2
  9
$DIMALTU
 70
     2
  9
$DIMALTTD
 70
     3
  9
$DIMTXSTY
  7
Standard
  9
$DIMAUNIT
 70
     0
  9
$DIMADEC
 70
     2
  9
$DIMALTRND
 40
0.0
  9
$DIMAZIN
 70
     0
  9
$DIMDSEP
 70
    44
  9
$DIMATFIT
 70
     3
  9
$DIMFRAC
 70
     0
  9
$DIMLDRBLK
  1

  9
$DIMLUNIT
 70
     2
  9
$DIMLWD
 70
    -2
  9
$DIMLWE
 70
    -2
  9
$DIMTMOVE
 70
     0
  9
$LUNITS
 70
     2
  9
$LUPREC
 70
     2
  9
$SKETCHINC
 40
1.0
  9
$FILLETRAD
 40
10.0
  9
$AUNITS
 70
     0
  9
$AUPREC
 70
     2
  9
$MENU
  1
.
  9
$ELEVATION
 40
0.0
  9
$PELEVATION
 40
0.0
  9
$THICKNESS
 40
0.0
  9
$LIMCHECK
 70
     0
  9
$CHAMFERA
 40
0.0
  9
$CHAMFERB
 40
0.0
  9
$CHAMFERC
 40
0.0
  9
$CHAMFERD
 40
0.0
  9
$SKPOLY
 70
     0
  9
$TDCREATE
 40
2458312.754785463
  9
$TDUCREATE
 40
2458312.379785463
  9
$TDUPDATE
 40
2458319.664680197
  9
$TDUUPDATE
 40
2458319.289680197
  9
$TDINDWG
 40
0.0023322801
  9
$TDUSRTIMER
 40
2458319.289639225
  9
$USRTIMER
 70
     1
  9
$ANGBASE
 50
0.0
  9
$ANGDIR
 70
     0
  9
$PDMODE
 70
     0
  9
$PDSIZE
 40
-1.0
  9
$PLINEWID
 40
0.0
  9
$SPLFRAME
 70
     0
  9
$SPLINETYPE
 70
     6
  9
$SPLINESEGS
 70
     8
  9
$HANDSEED
  5
2B9
  9
$SURFTAB1
 70
     6
  9
$SURFTAB2
 70
     6
  9
$SURFTYPE
 70
     6
  9
$SURFU
 70
     6
  9
$SURFV
 70
     6
  9
$UCSBASE
  2

  9
$UCSNAME
  2

  9
$UCSORG
 10
0.0
 20
0.0
 30
0.0
  9
$UCSXDIR
 10
1.0
 20
0.0
 30
0.0
  9
$UCSYDIR
 10
0.0
 20
1.0
 30
0.0
  9
$UCSORTHOREF
  2

  9
$UCSORTHOVIEW
 70
     0
  9
$UCSORGTOP
 10
0.0
 20
0.0
 30
0.0
  9
$UCSORGBOTTOM
 10
0.0
 20
0.0
 30
0.0
  9
$UCSORGLEFT
 10
0.0
 20
0.0
 30
0.0
  9
$UCSORGRIGHT
 10
0.0
 20
0.0
 30
0.0
  9
$UCSORGFRONT
 10
0.0
 20
0.0
 30
0.0
  9
$UCSORGBACK
 10
0.0
 20
0.0
 30
0.0
  9
$PUCSBASE
  2

  9
$PUCSNAME
  2

  9
$PUCSORG
 10
0.0
 20
0.0
 30
0.0
  9
$PUCSXDIR
 10
1.0
 20
0.0
 30
0.0
  9
$PUCSYDIR
 10
0.0
 20
1.0
 30
0.0
  9
$PUCSORTHOREF
  2

  9
$PUCSORTHOVIEW
 70
     0
  9
$PUCSORGTOP
 10
0.0
 20
0.0
 30
0.0
  9
$PUCSORGBOTTOM
 10
0.0
 20
0.0
 30
0.0
  9
$PUCSORGLEFT
 10
0.0
 20
0.0
 30
0.0
  9
$PUCSORGRIGHT
 10
0.0
 20
0.0
 30
0.0
  9
$PUCSORGFRONT
 10
0.0
 20
0.0
 30
0.0
  9
$PUCSORGBACK
 10
0.0
 20
0.0
 30
0.0
  9
$USERI1
 70
     0
  9
$USERI2
 70
     0
  9
$USERI3
 70
     0
  9
$USERI4
 70
     0
  9
$USERI5
 70
     0
  9
$USERR1
 40
0.0
  9
$USERR2
 40
0.0
  9
$USERR3
 40
0.0
  9
$USERR4
 40
0.0
  9
$USERR5
 40
0.0
  9
$WORLDVIEW
 70
     1
  9
$SHADEDGE
 70
     3
  9
$SHADEDIF
 70
    70
  9
$TILEMODE
 70
     1
  9
$MAXACTVP
 70
    64
  9
$PINSBASE
 10
0.0
 20
0.0
 30
0.0
  9
$PLIMCHECK
 70
     0
  9
$PEXTMIN
 10
1.000000000000000E+20
 20
1.000000000000000E+20
 30
1.000000000000000E+20
  9
$PEXTMAX
 10
-1.000000000000000E+20
 20
-1.000000000000000E+20
 30
-1.000000000000000E+20
  9
$PLIMMIN
 10
0.0
 20
0.0
  9
$PLIMMAX
 10
0.0
 20
0.0
  9
$UNITMODE
 70
     0
  9
$VISRETAIN
 70
     1
  9
$PLINEGEN
 70
     0
  9
$PSLTSCALE
 70
     1
  9
$TREEDEPTH
 70
  3020
  9
$CMLSTYLE
  2
Standard
  9
$CMLJUST
 70
     0
  9
$CMLSCALE
 40
20.0
  9
$PROXYGRAPHICS
 70
     1
  9
$MEASUREMENT
 70
     1
  9
$CELWEIGHT
370
    -1
  9
$ENDCAPS
280
     0
  9
$JOINSTYLE
280
     0
  9
$LWDISPLAY
290
     1
  9
$INSUNITS
 70
     4
  9
$HYPERLINKBASE
  1

  9
$STYLESHEET
  1

  9
$XEDIT
290
     1
  9
$CEPSNTYPE
380
     0
  9
$PSTYLEMODE
290
     1
  9
$FINGERPRINTGUID
  2
{3859DEC8-DBCF-4486-BC33-00FDF981FEEF}
  9
$VERSIONGUID
  2
{FAEB1C32-E019-11D5-929B-00C0DF256EC4}
  9
$EXTNAMES
290
     1
  9
$PSVPSCALE
 40
0.0
  9
$OLESTARTUP
290
     0
  0
ENDSEC
  0
SECTION
  2
CLASSES
  0
CLASS
  1
ACDBDICTIONARYWDFLT
  2
AcDbDictionaryWithDefault
  3
ObjectDBX Classes
 90
        0
280
     0
281
     0
  0
CLASS
  1
VISUALSTYLE
  2
AcDbVisualStyle
  3
ObjectDBX Classes
 90
     4095
280
     0
281
     0
  0
CLASS
  1
MATERIAL
  2
AcDbMaterial
  3
ObjectDBX Classes
 90
     1153
280
     0
281
     0
  0
CLASS
  1
SCALE
  2
AcDbScale
  3
ObjectDBX Classes
 90
     1153
280
     0
281
     0
  0
CLASS
  1
SUN
  2
AcDbSun
  3
SCENEOE
 90
     1153
280
     0
281
     0
  0
CLASS
  1
ACDBPLACEHOLDER
  2
AcDbPlaceHolder
  3
ObjectDBX Classes
 90
        0
280
     0
281
     0
  0
CLASS
  1
LAYOUT
  2
AcDbLayout
  3
ObjectDBX Classes
 90
        0
280
     0
281
     0
  0
CLASS
  1
TABLESTYLE
  2
AcDbTableStyle
  3
ObjectDBX Classes
 90
     4095
280
     0
281
     0
  0
CLASS
  1
MLEADERSTYLE
  2
AcDbMLeaderStyle
  3
ACDB_MLEADERSTYLE_CLASS
 90
     4095
280
     0
281
     0
  0
CLASS
  1
RASTERVARIABLES
  2
AcDbRasterVariables
  3
ISM
 90
        0
280
     0
281
     0
  0
CLASS
  1
DIMASSOC
  2
AcDbDimAssoc
  3
"AcDbDimAssoc|Product Desc:     AcDim ARX App For Dimension|Company:          Autodesk, Inc.|WEB Address:      www.autodesk.com"
 90
        0
280
     0
281
     0
  0
ENDSEC
  0
SECTION
  2
TABLES
  0
TABLE
  2
VPORT
  5
8
330
0
100
AcDbSymbolTable
 70
     1
  0
VPORT
  5
29
330
8
100
AcDbSymbolTableRecord
100
AcDbViewportTableRecord
  2
*Active
 70
     0
 10
0.0
 20
0.0
 11
1.0
 21
1.0
 12
5.403169423476214
 22
-0.4233936131290612
 13
0.0
 23
0.0
 14
10.0
 24
10.0
 15
10.0
 25
10.0
 16
0.0
 26
0.0
 36
1.0
 17
0.0
 27
0.0
 37
0.0
 40
145.8568672765936
 41
1.673114119922631
 42
50.0
 43
0.0
 44
0.0
 50
0.0
 51
0.0
 71
    16
 72
  2000
 73
     1
 74
     3
 75
     0
 76
     0
 77
     0
 78
     0
281
     0
 65
     1
110
0.0
120
0.0
130
0.0
111
1.0
121
0.0
131
0.0
112
0.0
122
1.0
132
0.0
 79
     0
146
0.0
  0
ENDTAB
  0
TABLE
  2
LTYPE
  5
5
330
0
100
AcDbSymbolTable
 70
     6
  0
LTYPE
  5
14
330
5
100
AcDbSymbolTableRecord
100
AcDbLinetypeTableRecord
  2
ByBlock
 70
     0
  3

 72
    65
 73
     0
 40
0.0
  0
LTYPE
  5
15
330
5
100
AcDbSymbolTableRecord
100
AcDbLinetypeTableRecord
  2
ByLayer
 70
     0
  3

 72
    65
 73
     0
 40
0.0
  0
LTYPE
  5
16
330
5
100
AcDbSymbolTableRecord
100
AcDbLinetypeTableRecord
  2
Continuous
 70
     0
  3
Solid line
 72
    65
 73
     0
 40
0.0
  0
LTYPE
  5
6A
330
5
100
AcDbSymbolTableRecord
100
AcDbLinetypeTableRecord
  2
HIDDEN
 70
     0
  3
Hidden __ __ __ __ __ __ __ __ __ __ __ __ __ __
 72
    65
 73
     2
 40
1.905
 49
1.27
 74
     0
 49
-0.635
 74
     0
  0
LTYPE
  5
6B
330
5
100
AcDbSymbolTableRecord
100
AcDbLinetypeTableRecord
  2
PHANTOM
 70
     0
  3
Phantom ______  __  __  ______  __  __  ______
 72
    65
 73
     6
 40
12.7
 49
6.35
 74
     0
 49
-1.27
 74
     0
 49
1.27
 74
     0
 49
-1.27
 74
     0
 49
1.27
 74
     0
 49
-1.27
 74
     0
  0
LTYPE
  5
6C
330
5
100
AcDbSymbolTableRecord
100
AcDbLinetypeTableRecord
  2
CENTER
 70
     0
  3
Center ____ _ ____ _ ____ _ ____ _ ____ _ ____
 72
    65
 73
     4
 40
10.16
 49
6.35
 74
     0
 49
-1.27
 74
     0
 49
1.27
 74
     0
 49
-1.27
 74
     0
  0
LTYPE
  5
6D
330
5
100
AcDbSymbolTableRecord
100
AcDbLinetypeTableRecord
  2
CENTERX2
 70
     0
  3
Center (2x) ________  __  ________  __  _____
 72
    65
 73
     4
 40
20.32
 49
12.7
 74
     0
 49
-2.54
 74
     0
 49
2.54
 74
     0
 49
-2.54
 74
     0
  0
LTYPE
  5
6E
330
5
100
AcDbSymbolTableRecord
100
AcDbLinetypeTableRecord
  2
DOT2
 70
     0
  3
Dot (.5x) ........................................
 72
    65
 73
     2
 40
0.635
 49
0.0
 74
     0
 49
-0.635
 74
     0
  0
ENDTAB
  0
TABLE
  2
LAYER
  5
2
102
{ACAD_XDICTIONARY
360
153
102
}
330
0
100
AcDbSymbolTable
 70
    18
  0
LAYER
  5
10
330
2
100
AcDbSymbolTableRecord
100
AcDbLayerTableRecord
  2
0
 70
     0
 62
     7
  6
Continuous
370
    -3
390
F
  0
LAYER
  5
6F
330
2
100
AcDbSymbolTableRecord
100
AcDbLayerTableRecord
  2
FORMAT
 70
     0
 62
     2
  6
Continuous
370
    -3
390
F
  0
LAYER
  5
70
330
2
100
AcDbSymbolTableRecord
100
AcDbLayerTableRecord
  2
외형선
 70
     0
 62
     4
  6
Continuous
370
    30
390
F
  0
LAYER
  5
71
330
2
100
AcDbSymbolTableRecord
100
AcDbLayerTableRecord
  2
숨은선
 70
     0
 62
     2
  6
HIDDEN
370
    15
390
F
  0
LAYER
  5
72
330
2
100
AcDbSymbolTableRecord
100
AcDbLayerTableRecord
  2
중심선
 70
     0
 62
     1
  6
CENTERX2
370
    -3
390
F
  0
LAYER
  5
73
330
2
100
AcDbSymbolTableRecord
100
AcDbLayerTableRecord
  2
파단선
 70
     0
 62
     4
  6
Continuous
370
    -3
390
F
  0
LAYER
  5
74
330
2
100
AcDbSymbolTableRecord
100
AcDbLayerTableRecord
  2
해칭선
 70
     0
 62
   100
  6
Continuous
370
    -3
390
F
  0
LAYER
  5
75
330
2
100
AcDbSymbolTableRecord
100
AcDbLayerTableRecord
  2
가는실선
 70
     0
 62
     4
  6
Continuous
370
    -3
390
F
  0
LAYER
  5
76
330
2
100
AcDbSymbolTableRecord
100
AcDbLayerTableRecord
  2
치수_보조선
 70
     0
 62
     4
  6
Continuous
370
    -3
390
F
  0
LAYER
  5
77
330
2
100
AcDbSymbolTableRecord
100
AcDbLayerTableRecord
  2
치수문자_일반주서
 70
     0
 62
     7
  6
Continuous
370
    15
390
F
  0
LAYER
  5
78
330
2
100
AcDbSymbolTableRecord
100
AcDbLayerTableRecord
  2
개별주서
 70
     0
 62
   100
  6
Continuous
370
    30
390
F
  0
LAYER
  5
79
330
2
100
AcDbSymbolTableRecord
100
AcDbLayerTableRecord
  2
중간선
 70
     0
 62
     2
  6
Continuous
370
    15
390
F
  0
LAYER
  5
7A
330
2
100
AcDbSymbolTableRecord
100
AcDbLayerTableRecord
  2
윤곽선
 70
     0
 62
     3
  6
Continuous
370
    40
390
F
  0
LAYER
  5
7B
330
2
100
AcDbSymbolTableRecord
100
AcDbLayerTableRecord
  2
중심마크
 70
     0
 62
   100
  6
Continuous
370
    30
390
F
  0
LAYER
  5
7C
330
2
100
AcDbSymbolTableRecord
100
AcDbLayerTableRecord
  2
가상선
 70
     0
 62
     4
  6
PHANTOM
370
    -3
390
F
  0
LAYER
  5
7D
330
2
100
AcDbSymbolTableRecord
100
AcDbLayerTableRecord
  2
특수지정선
 70
     0
 62
     5
  6
CENTERX2
370
    60
390
F
  0
LAYER
  5
7E
330
2
100
AcDbSymbolTableRecord
100
AcDbLayerTableRecord
  2
참조1
 70
     0
 62
    -4
  6
Continuous
370
    -3
390
F
  0
LAYER
  5
157
330
2
100
AcDbSymbolTableRecord
100
AcDbLayerTableRecord
  2
Defpoints
 70
     0
 62
     7
  6
Continuous
290
     0
370
    -3
390
F
  0
ENDTAB
  0
TABLE
  2
STYLE
  5
3
330
0
100
AcDbSymbolTable
 70
     2
  0
STYLE
  5
11
330
3
100
AcDbSymbolTableRecord
100
AcDbTextStyleTableRecord
  2
Standard
 70
     0
 40
0.0
 41
1.0
 50
0.0
 71
     0
 42
3.5
  3
txt
  4

  0
STYLE
  5
94
330
3
100
AcDbSymbolTableRecord
100
AcDbTextStyleTableRecord
  2
SLDTEXTSTYLE0
 70
     0
 40
0.0
 41
0.75
 50
0.0
 71
     0
 42
3.5
  3
TXT
  4

  0
ENDTAB
  0
TABLE
  2
VIEW
  5
6
330
0
100
AcDbSymbolTable
 70
     0
  0
ENDTAB
  0
TABLE
  2
UCS
  5
7
330
0
100
AcDbSymbolTable
 70
     0
  0
ENDTAB
  0
TABLE
  2
APPID
  5
9
330
0
100
AcDbSymbolTable
 70
     2
  0
APPID
  5
12
330
9
100
AcDbSymbolTableRecord
100
AcDbRegAppTableRecord
  2
ACAD
 70
     0
  0
APPID
  5
287
330
9
100
AcDbSymbolTableRecord
100
AcDbRegAppTableRecord
  2
PE_DIMMEASUREMENT
 70
     0
  0
ENDTAB
  0
TABLE
  2
DIMSTYLE
  5
A
330
0
100
AcDbSymbolTable
 70
     3
100
AcDbDimStyleTable
  0
DIMSTYLE
105
27
330
A
100
AcDbSymbolTableRecord
100
AcDbDimStyleTableRecord
  2
ISO-25
 70
     0
 41
2.5
 42
0.625
 43
3.75
 44
1.25
 73
     0
 74
     0
 77
     1
 78
     8
140
2.5
141
2.5
143
0.03937007874016
147
0.625
171
     3
172
     1
178
     0
271
     2
272
     2
274
     3
278
    44
283
     0
284
     8
340
11
  0
DIMSTYLE
105
A8
102
{ACAD_REACTORS
330
238
330
239
330
277
102
}
330
A
100
AcDbSymbolTableRecord
100
AcDbDimStyleTableRecord
  2
SLDDIMSTYLE0
 70
     0
 41
3.302
 44
0.0
 45
0.000000001
 73
     0
 74
     0
 77
     1
 78
    12
 79
     3
140
3.5
143
0.0393700787401575
147
0.875
148
0.000000001
170
     1
173
     1
178
     0
271
     2
272
     2
276
     2
284
    12
340
94
  0
DIMSTYLE
105
E2
102
{ACAD_REACTORS
330
23A
102
}
330
A
100
AcDbSymbolTableRecord
100
AcDbDimStyleTableRecord
  2
SLDDIMSTYLE1
 70
     0
 41
3.302
 44
0.0
 45
0.000000001
 73
     0
 74
     0
 77
     1
 78
     4
 79
     1
140
3.5
143
0.0393700787401575
147
0.875
148
0.000000001
170
     1
172
     1
173
     1
178
     0
271
     2
272
     2
276
     2
284
    12
289
     0
340
94
  0
ENDTAB
  0
TABLE
  2
BLOCK_RECORD
  5
1
330
0
100
AcDbSymbolTable
 70
    16
  0
BLOCK_RECORD
  5
1F
330
1
100
AcDbSymbolTableRecord
100
AcDbBlockTableRecord
  2
*Model_Space
340
22
  0
BLOCK_RECORD
  5
1B
330
1
100
AcDbSymbolTableRecord
100
AcDbBlockTableRecord
  2
*Paper_Space
340
1E
  0
BLOCK_RECORD
  5
23
330
1
100
AcDbSymbolTableRecord
100
AcDbBlockTableRecord
  2
*Paper_Space0
340
26
  0
BLOCK_RECORD
  5
7F
330
1
100
AcDbSymbolTableRecord
100
AcDbBlockTableRecord
  2
블럭10
340
0
102
{BLKREFS
331
A0
102
}
  0
BLOCK_RECORD
  5
A9
330
1
100
AcDbSymbolTableRecord
100
AcDbBlockTableRecord
  2
_D
340
0
  0
BLOCK_RECORD
  5
BC
330
1
100
AcDbSymbolTableRecord
100
AcDbBlockTableRecord
  2
_D_1
340
0
  0
BLOCK_RECORD
  5
CF
330
1
100
AcDbSymbolTableRecord
100
AcDbBlockTableRecord
  2
_D_2
340
0
  0
BLOCK_RECORD
  5
E3
330
1
100
AcDbSymbolTableRecord
100
AcDbBlockTableRecord
  2
_D_3
340
0
  0
BLOCK_RECORD
  5
FD
330
1
100
AcDbSymbolTableRecord
100
AcDbBlockTableRecord
  2
SW_DOWELSYMBOL_0
340
0
102
{BLKREFS
331
23B
102
}
  0
BLOCK_RECORD
  5
1D8
330
1
100
AcDbSymbolTableRecord
100
AcDbBlockTableRecord
  2
*D7
340
0
  0
BLOCK_RECORD
  5
1ED
330
1
100
AcDbSymbolTableRecord
100
AcDbBlockTableRecord
  2
*D8
340
0
  0
BLOCK_RECORD
  5
1F9
330
1
100
AcDbSymbolTableRecord
100
AcDbBlockTableRecord
  2
*D9
340
0
  0
BLOCK_RECORD
  5
205
330
1
100
AcDbSymbolTableRecord
100
AcDbBlockTableRecord
  2
*D10
340
0
  0
BLOCK_RECORD
  5
245
330
1
100
AcDbSymbolTableRecord
100
AcDbBlockTableRecord
  2
*D11
340
0
  0
BLOCK_RECORD
  5
251
330
1
100
AcDbSymbolTableRecord
100
AcDbBlockTableRecord
  2
*D12
340
0
  0
BLOCK_RECORD
  5
25D
330
1
100
AcDbSymbolTableRecord
100
AcDbBlockTableRecord
  2
*D13
340
0
  0
BLOCK_RECORD
  5
269
330
1
100
AcDbSymbolTableRecord
100
AcDbBlockTableRecord
  2
*D14
340
0
  0
BLOCK_RECORD
  5
27A
330
1
100
AcDbSymbolTableRecord
100
AcDbBlockTableRecord
  2
*D15
340
0
  0
ENDTAB
  0
ENDSEC
  0
SECTION
  2
BLOCKS
  0
BLOCK
  5
20
330
1F
100
AcDbEntity
  8
0
100
AcDbBlockBegin
  2
*Model_Space
 70
     0
 10
0.0
 20
0.0
 30
0.0
  3
*Model_Space
  1
*Model_Space
  0
ENDBLK
  5
21
330
1F
100
AcDbEntity
  8
0
100
AcDbBlockEnd
  0
BLOCK
  5
1C
330
1B
100
AcDbEntity
 67
     1
  8
0
100
AcDbBlockBegin
  2
*Paper_Space
 70
     0
 10
0.0
 20
0.0
 30
0.0
  3
*Paper_Space
  1
*Paper_Space
  0
ENDBLK
  5
1D
330
1B
100
AcDbEntity
 67
     1
  8
0
100
AcDbBlockEnd
  0
BLOCK
  5
24
330
23
100
AcDbEntity
  8
0
100
AcDbBlockBegin
  2
*Paper_Space0
 70
     0
 10
0.0
 20
0.0
 30
0.0
  3
*Paper_Space0
  1
*Paper_Space0
  0
ENDBLK
  5
25
330
23
100
AcDbEntity
  8
0
100
AcDbBlockEnd
  0
BLOCK
  5
80
330
7F
100
AcDbEntity
  8
0
100
AcDbBlockBegin
  2
블럭10
 70
     2
 10
0.0
 20
0.0
 30
0.0
  3
블럭10
  1
블럭10
  0
ELLIPSE
  5
82
330
7F
100
AcDbEntity
  8
중심선
100
AcDbEllipse
 10
20.54032771741204
 20
12.0471743016438
 30
0.0
 11
6.600054785286829
 21
-1.261213355974178E-13
 31
0.0
210
0.0
220
0.0
230
1.0
 40
0.636358354079598
 41
0.9219305317359503
 42
6.513795318482858
  0
ELLIPSE
  5
83
330
7F
100
AcDbEntity
  8
중심선
100
AcDbEllipse
 10
20.54032771746488
 20
12.04717430159265
 30
0.0
 11
3.960054785062283
 21
1.540847449632565E-10
 31
0.0
210
0.0
220
0.0
230
1.0
 40
0.3939339440162632
 41
1.131841032648279
 42
5.62031148352944
  0
LINE
  5
84
330
7F
100
AcDbEntity
  8
중심선
100
AcDbLine
 10
2.268634060543552
 20
16.24717430164393
 30
0.0
 11
5.714909304380834
 21
16.24717430164393
 31
0.0
  0
LINE
  5
85
330
7F
100
AcDbEntity
  8
중심선
100
AcDbLine
 10
5.245725140726316
 20
7.84717430164391
 30
0.0
 11
8.692000384563599
 21
7.84717430164391
 31
0.0
  0
LINE
  5
86
330
7F
100
AcDbEntity
  8
중심선
100
AcDbLine
 10
15.74043728645272
 20
16.24717430164393
 30
0.0
 11
8.692000384563599
 21
7.84717430164391
 31
0.0
  0
LINE
  5
87
330
7F
100
AcDbEntity
  8
중심선
100
AcDbLine
 10
0.1404042013395286
 20
13.71084872107135
 30
0.0
 11
3.58671253028996
 21
13.71088815037384
 31
0.0
  0
LINE
  5
88
330
7F
100
AcDbEntity
  8
중심선
100
AcDbLine
 10
2.750260043222114
 20
10.84717430164391
 30
0.0
 11
6.196535287059397
 21
10.84717430164391
 31
0.0
  0
LINE
  5
89
330
7F
100
AcDbEntity
  8
중심선
100
AcDbLine
 10
12.29416204261559
 20
16.24717430164393
 30
0.0
 11
5.245725140726316
 21
7.84717430164391
 31
0.0
  0
LINE
  5
8A
330
7F
100
AcDbEntity
  8
중심선
100
AcDbLine
 10
10.72767329541681
 20
16.24717430164393
 30
0.0
 11
6.196535287059397
 21
10.84717430164391
 31
0.0
  0
LINE
  5
8B
330
7F
100
AcDbEntity
  8
중심선
100
AcDbLine
 10
7.28139805157953
 20
16.24717430164393
 30
0.0
 11
2.750260043222114
 21
10.84717430164391
 31
0.0
  0
LINE
  5
8C
330
7F
100
AcDbEntity
  8
중심선
100
AcDbLine
 10
5.714909304380834
 20
16.24717430164393
 30
0.0
 11
3.58671253028996
 21
13.71088815037384
 31
0.0
  0
LINE
  5
8D
330
7F
100
AcDbEntity
  8
중심선
100
AcDbLine
 10
2.268634060543552
 20
16.24717430164393
 30
0.0
 11
0.1404042013395286
 21
13.71084872107135
 31
0.0
  0
LINE
  5
8E
330
7F
100
AcDbEntity
  8
중심선
100
AcDbLine
 10
7.28139805157953
 20
16.24717430164393
 30
0.0
 11
10.72767329541681
 21
16.24717430164393
 31
0.0
  0
LINE
  5
8F
330
7F
100
AcDbEntity
  8
중심선
100
AcDbLine
 10
12.29416204261559
 20
16.24717430164393
 30
0.0
 11
15.74043728645272
 21
16.24717430164393
 31
0.0
  0
LINE
  5
90
330
7F
100
AcDbEntity
  8
중심선
100
AcDbLine
 10
19.22036997980202
 20
11.08717430171403
 30
0.0
 11
23.66174974927406
 21
11.08717430171406
 31
0.0
  0
LINE
  5
91
330
7F
100
AcDbEntity
  8
중심선
100
AcDbLine
 10
19.22039502424796
 20
13.00717430171391
 30
0.0
 11
19.22036997980202
 21
11.08717430171403
 31
0.0
  0
LINE
  5
92
330
7F
100
AcDbEntity
  8
중심선
100
AcDbLine
 10
19.22039502424796
 20
13.00717430171391
 30
0.0
 11
26.96566020931264
 21
13.00717430171391
 31
0.0
  0
LINE
  5
93
330
7F
100
AcDbEntity
  8
중심선
100
AcDbLine
 10
22.22332737316547
 20
13.45928029700563
 30
0.0
 11
24.52862924686651
 21
15.39360700705356
 31
0.0
  0
ATTDEF
  5
95
330
7F
100
AcDbEntity
  8
FORMAT
 62
     2
100
AcDbText
 10
4.408487351596664
 20
2.075366912832191
 30
0.0
 40
4.233333333333333
  1
E2039108
 41
0.75
  7
SLDTEXTSTYLE0
 11
4.408487351596664
 21
-0.0412997538344756
 31
0.0
100
AcDbAttributeDefinition
  3

  2
AUTOATTR0
 70
     0
 74
     1
  0
ENDBLK
  5
81
330
7F
100
AcDbEntity
  8
0
100
AcDbBlockEnd
  0
BLOCK
  5
AA
330
A9
100
AcDbEntity
  8
0
100
AcDbBlockBegin
  2
_D
 70
     0
 10
0.0
 20
0.0
 30
0.0
  3
_D
  1
_D
  0
SOLID
  5
AC
330
A9
100
AcDbEntity
  8
치수문자_일반주서
100
AcDbTrace
 10
56.67052760992014
 20
5.218258589704694
 30
0.0
 11
56.16252760992013
 21
1.916258589704695
 31
0.0
 12
57.17852760992014
 22
1.916258589704695
 32
0.0
 13
57.17852760992014
 23
1.916258589704695
 33
0.0
  0
SOLID
  5
AD
330
A9
100
AcDbEntity
  8
치수문자_일반주서
100
AcDbTrace
 10
56.67052760992014
 20
-5.100491410295311
 30
0.0
 11
57.17852760992014
 21
-1.798491410295311
 31
0.0
 12
56.16252760992013
 22
-1.798491410295311
 32
0.0
 13
56.16252760992013
 23
-1.798491410295311
 33
0.0
  0
LINE
  5
AE
330
A9
100
AcDbEntity
  8
치수문자_일반주서
100
AcDbLine
 10
45.87764589387741
 20
10.23472747827019
 30
0.0
 11
45.87764589387741
 21
9.52378999270569
 31
0.0
  0
LINE
  5
AF
330
A9
100
AcDbEntity
  8
치수문자_일반주서
100
AcDbLine
 10
45.87764589387741
 20
9.52378999270569
 30
0.0
 11
51.43389588493672
 21
9.523789992705732
 31
0.0
  0
LINE
  5
B0
330
A9
100
AcDbEntity
  8
치수문자_일반주서
100
AcDbLine
 10
51.43389588493672
 20
9.523789992705732
 30
0.0
 11
51.43389588493671
 21
10.23472747827023
 31
0.0
  0
LINE
  5
B1
330
A9
100
AcDbEntity
  8
치수문자_일반주서
100
AcDbLine
 10
45.87764589387734
 20
21.06346034040745
 30
0.0
 11
45.87764589387733
 21
21.77439782597195
 31
0.0
  0
LINE
  5
B2
330
A9
100
AcDbEntity
  8
치수문자_일반주서
100
AcDbLine
 10
45.87764589387733
 20
21.77439782597195
 30
0.0
 11
51.43389588493663
 21
21.77439782597199
 31
0.0
  0
LINE
  5
B3
330
A9
100
AcDbEntity
  8
치수문자_일반주서
100
AcDbLine
 10
51.43389588493663
 20
21.77439782597199
 30
0.0
 11
51.43389588493664
 21
21.06346034040749
 31
0.0
  0
LINE
  5
B4
330
A9
100
AcDbEntity
  8
치수문자_일반주서
100
AcDbLine
 10
56.2811576642539
 20
5.218258589704698
 30
0.0
 11
57.67052760992014
 21
5.218258589704694
 31
0.0
  0
LINE
  5
B5
330
A9
100
AcDbEntity
  8
치수문자_일반주서
100
AcDbLine
 10
56.2811576642539
 20
-5.100491410295311
 30
0.0
 11
57.67052760992014
 21
-5.100491410295311
 31
0.0
  0
LINE
  5
B6
330
A9
100
AcDbEntity
  8
치수문자_일반주서
100
AcDbLine
 10
56.67052760992014
 20
5.218258589704694
 30
0.0
 11
56.67052760992014
 21
24.10706285215991
 31
0.0
  0
LINE
  5
B7
330
A9
100
AcDbEntity
  8
치수문자_일반주서
100
AcDbLine
 10
56.67052760992014
 20
5.218258589704694
 30
0.0
 11
56.67052760992014
 21
-5.100491410295311
 31
0.0
  0
MTEXT
  5
B8
330
A9
100
AcDbEntity
  8
치수문자_일반주서
100
AcDbMText
 10
46.92215897035781
 20
11.12339937888157
 30
0.0
 40
3.5
 41
0.0
 71
     1
 72
     1
  1
0.41
  7
SLDTEXTSTYLE0
 11
-7.044195017643634E-15
 21
1.0
 31
0.0
 73
     1
 44
1.0
  0
MTEXT
  5
B9
330
A9
100
AcDbEntity
  8
치수문자_일반주서
100
AcDbMText
 10
52.15879052071831
 20
7.191124966517838
 30
0.0
 40
3.5
 41
0.0
 71
     1
 72
     1
  1
%%c
  7
SLDTEXTSTYLE0
 11
-7.044195017643634E-15
 21
1.0
 31
0.0
 73
     1
 44
1.0
  0
MTEXT
  5
BA
330
A9
100
AcDbEntity
  8
치수문자_일반주서
100
AcDbMText
 10
52.15879052071828
 20
12.46956236489192
 30
0.0
 40
3.5
 41
0.0
 71
     1
 72
     1
  1
10.32
  7
SLDTEXTSTYLE0
 11
-7.044195017643634E-15
 21
1.0
 31
0.0
 73
     1
 44
1.0
  0
ENDBLK
  5
AB
330
A9
100
AcDbEntity
  8
0
100
AcDbBlockEnd
  0
BLOCK
  5
BD
330
BC
100
AcDbEntity
  8
0
100
AcDbBlockBegin
  2
_D_1
 70
     0
 10
0.0
 20
0.0
 30
0.0
  3
_D_1
  1
_D_1
  0
SOLID
  5
BF
330
BC
100
AcDbEntity
  8
치수문자_일반주서
100
AcDbTrace
 10
47.34365766425389
 20
16.63113254955809
 30
0.0
 11
44.04165766425389
 21
17.13913254955809
 31
0.0
 12
44.04165766425389
 22
16.12313254955809
 32
0.0
 13
44.04165766425389
 23
16.12313254955809
 33
0.0
  0
SOLID
  5
C0
330
BC
100
AcDbEntity
  8
치수문자_일반주서
100
AcDbTrace
 10
12.4186576642539
 20
16.63113254955814
 30
0.0
 11
15.7206576642539
 21
16.12313254955814
 31
0.0
 12
15.7206576642539
 22
17.13913254955813
 32
0.0
 13
15.7206576642539
 23
17.13913254955813
 33
0.0
  0
LINE
  5
C1
330
BC
100
AcDbEntity
  8
치수문자_일반주서
100
AcDbLine
 10
24.46679158243119
 20
27.42401426560085
 30
0.0
 11
23.75585409686669
 21
27.42401426560086
 31
0.0
  0
LINE
  5
C2
330
BC
100
AcDbEntity
  8
치수문자_일반주서
100
AcDbLine
 10
23.75585409686669
 20
27.42401426560086
 30
0.0
 11
23.75585409686664
 21
21.86776427454155
 31
0.0
  0
LINE
  5
C3
330
BC
100
AcDbEntity
  8
치수문자_일반주서
100
AcDbLine
 10
23.75585409686664
 20
21.86776427454155
 30
0.0
 11
24.46679158243114
 21
21.86776427454155
 31
0.0
  0
LINE
  5
C4
330
BC
100
AcDbEntity
  8
치수문자_일반주서
100
AcDbLine
 10
35.29552444456844
 20
27.42401426560076
 30
0.0
 11
36.00646193013294
 21
27.42401426560075
 31
0.0
  0
LINE
  5
C5
330
BC
100
AcDbEntity
  8
치수문자_일반주서
100
AcDbLine
 10
36.00646193013294
 20
27.42401426560075
 30
0.0
 11
36.0064619301329
 21
21.86776427454145
 31
0.0
  0
LINE
  5
C6
330
BC
100
AcDbEntity
  8
치수문자_일반주서
100
AcDbLine
 10
36.0064619301329
 20
21.86776427454145
 30
0.0
 11
35.2955244445684
 21
21.86776427454146
 31
0.0
  0
LINE
  5
C7
330
BC
100
AcDbEntity
  8
치수문자_일반주서
100
AcDbLine
 10
47.34365766425388
 20
7.583239810165953
 30
0.0
 11
47.34365766425389
 21
17.63113254955809
 31
0.0
  0
LINE
  5
C8
330
BC
100
AcDbEntity
  8
치수문자_일반주서
100
AcDbLine
 10
12.41865766425388
 20
7.605538961946342
 30
0.0
 11
12.4186576642539
 21
17.63113254955814
 31
0.0
  0
LINE
  5
C9
330
BC
100
AcDbEntity
  8
치수문자_일반주서
100
AcDbLine
 10
47.34365766425389
 20
16.63113254955809
 30
0.0
 11
12.4186576642539
 21
16.63113254955814
 31
0.0
  0
MTEXT
  5
CA
330
BC
100
AcDbEntity
  8
치수문자_일반주서
100
AcDbMText
 10
23.24209537137995
 20
21.19634181541983
 30
0.0
 40
3.5
 41
0.0
 71
     1
 72
     1
  1

  7
SLDTEXTSTYLE0
 73
     1
 44
1.0
  0
MTEXT
  5
CB
330
BC
100
AcDbEntity
  8
치수문자_일반주서
100
AcDbMText
 10
25.35546348304256
 20
26.37950118912043
 30
0.0
 40
3.5
 41
0.0
 71
     1
 72
     1
  1
1.38
  7
SLDTEXTSTYLE0
 73
     1
 44
1.0
  0
MTEXT
  5
CC
330
BC
100
AcDbEntity
  8
치수문자_일반주서
100
AcDbMText
 10
24.06240776986578
 20
21.14286963875997
 30
0.0
 40
3.5
 41
0.0
 71
     1
 72
     1
  1
34.93
  7
SLDTEXTSTYLE0
 73
     1
 44
1.0
  0
MTEXT
  5
CD
330
BC
100
AcDbEntity
  8
치수문자_일반주서
100
AcDbMText
 10
37.85216517527351
 20
21.19634181541971
 30
0.0
 40
3.5
 41
0.0
 71
     1
 72
     1
  1

  7
SLDTEXTSTYLE0
 73
     1
 44
1.0
  0
ENDBLK
  5
BE
330
BC
100
AcDbEntity
  8
0
100
AcDbBlockEnd
  0
BLOCK
  5
D0
330
CF
100
AcDbEntity
  8
0
100
AcDbBlockBegin
  2
_D_2
 70
     0
 10
0.0
 20
0.0
 30
0.0
  3
_D_2
  1
_D_2
  0
SOLID
  5
D2
330
CF
100
AcDbEntity
  8
치수문자_일반주서
100
AcDbTrace
 10
47.34365766425388
 20
28.63113254955805
 30
0.0
 11
44.04165766425388
 21
29.13913254955805
 31
0.0
 12
44.04165766425388
 22
28.12313254955805
 32
0.0
 13
44.04165766425388
 23
28.12313254955805
 33
0.0
  0
SOLID
  5
D3
330
CF
100
AcDbEntity
  8
치수문자_일반주서
100
AcDbTrace
 10
-38.38134233574612
 20
28.63113254955804
 30
0.0
 11
-35.07934233574612
 21
28.12313254955804
 31
0.0
 12
-35.07934233574612
 22
29.13913254955804
 32
0.0
 13
-35.07934233574612
 23
29.13913254955804
 33
0.0
  0
LINE
  5
D4
330
CF
100
AcDbEntity
  8
치수문자_일반주서
100
AcDbLine
 10
0.2373901932149428
 20
39.42401426560077
 30
0.0
 11
-0.4735472923495573
 21
39.42401426560077
 31
0.0
  0
LINE
  5
D5
330
CF
100
AcDbEntity
  8
치수문자_일반주서
100
AcDbLine
 10
-0.4735472923495573
 20
39.42401426560077
 30
0.0
 11
-0.4735472923495967
 21
33.86776427454147
 31
0.0
  0
LINE
  5
D6
330
CF
100
AcDbEntity
  8
치수문자_일반주서
100
AcDbLine
 10
-0.4735472923495967
 20
33.86776427454147
 30
0.0
 11
0.2373901932149033
 21
33.86776427454146
 31
0.0
  0
LINE
  5
D7
330
CF
100
AcDbEntity
  8
치수문자_일반주서
100
AcDbLine
 10
11.0661230553522
 20
39.4240142656007
 30
0.0
 11
11.7770605409167
 21
39.42401426560069
 31
0.0
  0
LINE
  5
D8
330
CF
100
AcDbEntity
  8
치수문자_일반주서
100
AcDbLine
 10
11.7770605409167
 20
39.42401426560069
 30
0.0
 11
11.77706054091666
 21
33.86776427454139
 31
0.0
  0
LINE
  5
D9
330
CF
100
AcDbEntity
  8
치수문자_일반주서
100
AcDbLine
 10
11.77706054091666
 20
33.86776427454139
 30
0.0
 11
11.06612305535216
 21
33.86776427454139
 31
0.0
  0
LINE
  5
DA
330
CF
100
AcDbEntity
  8
치수문자_일반주서
100
AcDbLine
 10
47.34365766425388
 20
7.583239810165953
 30
0.0
 11
47.34365766425388
 21
29.63113254955805
 31
0.0
  0
LINE
  5
DB
330
CF
100
AcDbEntity
  8
치수문자_일반주서
100
AcDbLine
 10
-38.38134233574612
 20
6.138883589704698
 30
0.0
 11
-38.38134233574612
 21
29.63113254955804
 31
0.0
  0
LINE
  5
DC
330
CF
100
AcDbEntity
  8
치수문자_일반주서
100
AcDbLine
 10
47.34365766425388
 20
28.63113254955805
 30
0.0
 11
-38.38134233574612
 21
28.63113254955804
 31
0.0
  0
MTEXT
  5
DD
330
CF
100
AcDbEntity
  8
치수문자_일반주서
100
AcDbMText
 10
-0.9873060178362975
 20
33.19634181541976
 30
0.0
 40
3.5
 41
0.0
 71
     1
 72
     1
  1

  7
SLDTEXTSTYLE0
 73
     1
 44
1.0
  0
MTEXT
  5
DE
330
CF
100
AcDbEntity
  8
치수문자_일반주서
100
AcDbMText
 10
1.126062093826306
 20
38.37950118912036
 30
0.0
 40
3.5
 41
0.0
 71
     1
 72
     1
  1
3.38
  7
SLDTEXTSTYLE0
 73
     1
 44
1.0
  0
MTEXT
  5
DF
330
CF
100
AcDbEntity
  8
치수문자_일반주서
100
AcDbMText
 10
-0.166993619350458
 20
33.1428696387599
 30
0.0
 40
3.5
 41
0.0
 71
     1
 72
     1
  1
85.73
  7
SLDTEXTSTYLE0
 73
     1
 44
1.0
  0
MTEXT
  5
E0
330
CF
100
AcDbEntity
  8
치수문자_일반주서
100
AcDbMText
 10
13.62276378605727
 20
33.19634181541966
 30
0.0
 40
3.5
 41
0.0
 71
     1
 72
     1
  1

  7
SLDTEXTSTYLE0
 73
     1
 44
1.0
  0
ENDBLK
  5
D1
330
CF
100
AcDbEntity
  8
0
100
AcDbBlockEnd
  0
BLOCK
  5
E4
330
E3
100
AcDbEntity
  8
0
100
AcDbBlockBegin
  2
_D_3
 70
     0
 10
0.0
 20
0.0
 30
0.0
  3
_D_3
  1
_D_3
  0
SOLID
  5
E6
330
E3
100
AcDbEntity
  8
치수문자_일반주서
100
AcDbTrace
 10
-51.06384233574614
 20
6.408883589704687
 30
0.0
 11
-50.55584233574614
 21
9.710883589704686
 31
0.0
 12
-51.57184233574614
 22
9.710883589704686
 32
0.0
 13
-51.57184233574614
 23
9.710883589704686
 33
0.0
  0
SOLID
  5
E7
330
E3
100
AcDbEntity
  8
치수문자_일반주서
100
AcDbTrace
 10
-51.06384233574614
 20
-6.291116410295301
 30
0.0
 11
-51.57184233574614
 21
-9.593116410295302
 31
0.0
 12
-50.55584233574614
 22
-9.593116410295302
 32
0.0
 13
-50.55584233574614
 23
-9.593116410295302
 33
0.0
  0
LINE
  5
E8
330
E3
100
AcDbEntity
  8
치수문자_일반주서
100
AcDbLine
 10
-61.85672405178885
 20
-5.35548284136401
 30
0.0
 11
-61.85672405178885
 21
-6.06642032692851
 31
0.0
  0
LINE
  5
E9
330
E3
100
AcDbEntity
  8
치수문자_일반주서
100
AcDbLine
 10
-61.85672405178885
 20
-6.06642032692851
 30
0.0
 11
-56.30047406072954
 21
-6.066420326928471
 31
0.0
  0
LINE
  5
EA
330
E3
100
AcDbEntity
  8
치수문자_일반주서
100
AcDbLine
 10
-56.30047406072954
 20
-6.066420326928471
 30
0.0
 11
-56.30047406072955
 21
-5.355482841363971
 31
0.0
  0
LINE
  5
EB
330
E3
100
AcDbEntity
  8
치수문자_일반주서
100
AcDbLine
 10
-61.85672405178892
 20
5.473250020773248
 30
0.0
 11
-61.85672405178893
 21
6.184187506337748
 31
0.0
  0
LINE
  5
EC
330
E3
100
AcDbEntity
  8
치수문자_일반주서
100
AcDbLine
 10
-61.85672405178893
 20
6.184187506337748
 30
0.0
 11
-56.30047406072963
 21
6.184187506337787
 31
0.0
  0
LINE
  5
ED
330
E3
100
AcDbEntity
  8
치수문자_일반주서
100
AcDbLine
 10
-56.30047406072963
 20
6.184187506337787
 30
0.0
 11
-56.30047406072962
 21
5.473250020773287
 31
0.0
  0
LINE
  5
EE
330
E3
100
AcDbEntity
  8
치수문자_일반주서
100
AcDbLine
 10
-38.11134233574612
 20
6.408883589704688
 30
0.0
 11
-52.06384233574614
 21
6.408883589704687
 31
0.0
  0
LINE
  5
EF
330
E3
100
AcDbEntity
  8
치수문자_일반주서
100
AcDbLine
 10
-38.11134233574612
 20
-6.291116410295301
 30
0.0
 11
-52.06384233574614
 21
-6.291116410295301
 31
0.0
  0
LINE
  5
F0
330
E3
100
AcDbEntity
  8
치수문자_일반주서
100
AcDbLine
 10
-51.06384233574614
 20
6.408883589704687
 30
0.0
 11
-51.06384233574614
 21
12.75888358970469
 31
0.0
  0
LINE
  5
F1
330
E3
100
AcDbEntity
  8
치수문자_일반주서
100
AcDbLine
 10
-51.06384233574614
 20
6.408883589704687
 30
0.0
 11
-51.06384233574614
 21
-6.291116410295301
 31
0.0
  0
LINE
  5
F2
330
E3
100
AcDbEntity
  8
치수문자_일반주서
100
AcDbLine
 10
-51.06384233574614
 20
-6.291116410295301
 30
0.0
 11
-51.06384233574614
 21
-12.6411164102953
 31
0.0
  0
MTEXT
  5
F3
330
E3
100
AcDbEntity
  8
치수문자_일반주서
100
AcDbMText
 10
-60.81221097530845
 20
-4.466810940752632
 30
0.0
 40
3.5
 41
0.0
 71
     1
 72
     1
  1
0.50
  7
SLDTEXTSTYLE0
 11
-7.044195017643634E-15
 21
1.0
 31
0.0
 73
     1
 44
1.0
  0
MTEXT
  5
F4
330
E3
100
AcDbEntity
  8
치수문자_일반주서
100
AcDbMText
 10
-55.57557942494794
 20
-8.399085353116362
 30
0.0
 40
3.5
 41
0.0
 71
     1
 72
     1
  1
%%c
  7
SLDTEXTSTYLE0
 11
-7.044195017643634E-15
 21
1.0
 31
0.0
 73
     1
 44
1.0
  0
MTEXT
  5
F5
330
E3
100
AcDbEntity
  8
치수문자_일반주서
100
AcDbMText
 10
-55.57557942494797
 20
-3.120647954742283
 30
0.0
 40
3.5
 41
0.0
 71
     1
 72
     1
  1
12.70
  7
SLDTEXTSTYLE0
 11
-7.044195017643634E-15
 21
1.0
 31
0.0
 73
     1
 44
1.0
  0
ENDBLK
  5
E5
330
E3
100
AcDbEntity
  8
0
100
AcDbBlockEnd
  0
BLOCK
  5
FE
330
FD
100
AcDbEntity
  8
0
100
AcDbBlockBegin
  2
SW_DOWELSYMBOL_0
 70
     0
 10
0.0
 20
0.0
 30
0.0
  3
SW_DOWELSYMBOL_0
  1
SW_DOWELSYMBOL_0
  0
CIRCLE
  5
100
330
FD
100
AcDbEntity
  8
해칭선
 62
     0
100
AcDbCircle
 10
0.0
 20
0.0
 30
0.0
 40
3.0
  0
HATCH
  5
101
330
FD
100
AcDbEntity
  8
0
  6
Continuous
 62
     0
370
     0
100
AcDbHatch
 10
0.0
 20
0.0
 30
0.0
210
0.0
220
0.0
230
1.0
  2
SOLID
 70
     1
 71
     0
 91
        1
 92
        0
 93
        3
 72
     2
 10
0.0
 20
0.0
 40
3.0
 50
0.0
 51
90.0
 73
     1
 72
     1
 10
0.0
 20
3.0
 11
0.0
 21
0.0
 72
     1
 10
0.0
 20
0.0
 11
2.999999999999999
 21
0.0
 97
        0
 75
     0
 76
     1
 98
        1
 10
0.0
 20
0.0
  0
HATCH
  5
102
330
FD
100
AcDbEntity
  8
0
  6
Continuous
 62
     0
370
     0
100
AcDbHatch
 10
0.0
 20
0.0
 30
0.0
210
0.0
220
0.0
230
1.0
  2
SOLID
 70
     1
 71
     0
 91
        1
 92
        0
 93
        3
 72
     2
 10
0.0
 20
0.0
 40
3.0
 50
180.0
 51
270.0000000000007
 73
     1
 72
     1
 10
0.0
 20
-3.0
 11
0.0
 21
0.0
 72
     1
 10
0.0
 20
0.0
 11
-2.999999999999999
 21
0.0
 97
        0
 75
     0
 76
     1
 98
        1
 10
0.0
 20
0.0
  0
ENDBLK
  5
FF
330
FD
100
AcDbEntity
  8
0
100
AcDbBlockEnd
  0
BLOCK
  5
1D9
330
1D8
100
AcDbEntity
  8
0
100
AcDbBlockBegin
  2
*D7
 70
     1
 10
0.0
 20
0.0
 30
0.0
  3
*D7
  1
*D7
  0
LINE
  5
1DA
330
1D8
100
AcDbEntity
  8
치수문자_일반주서
 62
     0
370
    -2
100
AcDbLine
 10
128.4507728378272
 20
25.43895685466505
 30
0.0
 11
145.3402527703562
 21
25.43895685466505
 31
0.0
  0
LINE
  5
1DB
330
1D8
100
AcDbEntity
  8
치수문자_일반주서
 62
     0
370
    -2
100
AcDbLine
 10
128.4507728378272
 20
0.0389568546650487
 30
0.0
 11
145.3402527703562
 21
0.0389568546650477
 31
0.0
  0
LINE
  5
1DC
330
1D8
100
AcDbEntity
  8
치수문자_일반주서
 62
     0
370
    -2
100
AcDbLine
 10
145.3402527703562
 20
22.13695685466505
 30
0.0
 11
145.3402527703562
 21
3.340956854665047
 31
0.0
  0
SOLID
  5
1DD
330
1D8
100
AcDbEntity
  8
치수문자_일반주서
 62
     0
100
AcDbTrace
 10
145.8905861036895
 20
22.13695685466505
 30
0.0
 11
144.7899194370228
 21
22.13695685466505
 31
0.0
 12
145.3402527703562
 22
25.43895685466505
 32
0.0
 13
145.3402527703562
 23
25.43895685466505
 33
0.0
  0
SOLID
  5
1DE
330
1D8
100
AcDbEntity
  8
치수문자_일반주서
 62
     0
100
AcDbTrace
 10
144.7899194370228
 20
3.340956854665047
 30
0.0
 11
145.8905861036895
 21
3.340956854665047
 31
0.0
 12
145.3402527703562
 22
0.0389568546650477
 32
0.0
 13
145.3402527703562
 23
0.0389568546650477
 33
0.0
  0
MTEXT
  5
1DF
330
1D8
100
AcDbEntity
  8
치수문자_일반주서
 62
     0
100
AcDbMText
 10
142.7152527703562
 20
12.73895685466505
 30
0.0
 40
3.5
 41
0.0
 71
     5
 72
     1
  1
\A1;{%%C25.4 [1]}
  7
SLDTEXTSTYLE0
 11
0.0
 21
1.0
 31
0.0
 73
     1
 44
1.0
  0
POINT
  5
1E0
330
1D8
100
AcDbEntity
  8
Defpoints
 62
     0
100
AcDbPoint
 10
128.3882728378272
 20
25.43895685466505
 30
0.0
  0
POINT
  5
1E1
330
1D8
100
AcDbEntity
  8
Defpoints
 62
     0
100
AcDbPoint
 10
128.3882728378272
 20
0.0389568546650487
 30
0.0
  0
POINT
  5
1E2
330
1D8
100
AcDbEntity
  8
Defpoints
 62
     0
100
AcDbPoint
 10
145.3402527703562
 20
0.0389568546650477
 30
0.0
  0
ENDBLK
  5
1E3
330
1D8
100
AcDbEntity
  8
0
100
AcDbBlockEnd
  0
BLOCK
  5
1EE
330
1ED
100
AcDbEntity
  8
0
100
AcDbBlockBegin
  2
*D8
 70
     1
 10
0.0
 20
0.0
 30
0.0
  3
*D8
  1
*D10
  0
LINE
  5
1F0
330
1ED
100
AcDbEntity
  8
치수문자_일반주서
 62
     0
370
    -2
100
AcDbLine
 10
128.3882728378272
 20
25.45475376707475
 30
0.0
 11
128.3882728378272
 21
38.57309165302355
 31
0.0
  0
LINE
  5
1F1
330
1ED
100
AcDbEntity
  8
치수문자_일반주서
 62
     0
370
    -2
100
AcDbLine
 10
77.58827283782725
 20
24.52648927958224
 30
0.0
 11
77.58827283782725
 21
38.57309165302355
 31
0.0
  0
LINE
  5
1F2
330
1ED
100
AcDbEntity
  8
치수문자_일반주서
 62
     0
370
    -2
100
AcDbLine
 10
125.0862728378272
 20
38.57309165302355
 30
0.0
 11
80.89027283782724
 21
38.57309165302355
 31
0.0
  0
SOLID
  5
1F3
330
1ED
100
AcDbEntity
  8
치수문자_일반주서
 62
     0
100
AcDbTrace
 10
125.0862728378272
 20
38.02275831969021
 30
0.0
 11
125.0862728378272
 21
39.12342498635688
 31
0.0
 12
128.3882728378272
 22
38.57309165302355
 32
0.0
 13
128.3882728378272
 23
38.57309165302355
 33
0.0
  0
SOLID
  5
1F4
330
1ED
100
AcDbEntity
  8
치수문자_일반주서
 62
     0
100
AcDbTrace
 10
80.89027283782724
 20
39.12342498635688
 30
0.0
 11
80.89027283782724
 21
38.02275831969021
 31
0.0
 12
77.58827283782725
 22
38.57309165302355
 32
0.0
 13
77.58827283782725
 23
38.57309165302355
 33
0.0
  0
MTEXT
  5
1F5
330
1ED
100
AcDbEntity
  8
치수문자_일반주서
 62
     0
100
AcDbMText
 10
102.9882728378273
 20
42.94809165302355
 30
0.0
 40
3.5
 41
0.0
 71
     2
 72
     1
  1
\A1;50.8 [2]
  7
SLDTEXTSTYLE0
 73
     1
 44
1.0
  0
POINT
  5
1F6
330
1ED
100
AcDbEntity
  8
Defpoints
 62
     0
100
AcDbPoint
 10
128.3882728378272
 20
25.39225376707475
 30
0.0
  0
POINT
  5
1F7
330
1ED
100
AcDbEntity
  8
Defpoints
 62
     0
100
AcDbPoint
 10
77.58827283782725
 20
24.46398927958224
 30
0.0
  0
POINT
  5
1F8
330
1ED
100
AcDbEntity
  8
Defpoints
 62
     0
100
AcDbPoint
 10
77.58827283782725
 20
38.57309165302355
 30
0.0
  0
ENDBLK
  5
1EF
330
1ED
100
AcDbEntity
  8
0
100
AcDbBlockEnd
  0
BLOCK
  5
1FA
330
1F9
100
AcDbEntity
  8
0
100
AcDbBlockBegin
  2
*D9
 70
     1
 10
0.0
 20
0.0
 30
0.0
  3
*D9
  1
*D11
  0
LINE
  5
1FC
330
1F9
100
AcDbEntity
  8
치수문자_일반주서
 62
     0
370
    -2
100
AcDbLine
 10
128.3882728378272
 20
25.45475376707475
 30
0.0
 11
128.3882728378272
 21
54.29429685082633
 31
0.0
  0
LINE
  5
1FD
330
1F9
100
AcDbEntity
  8
치수문자_일반주서
 62
     0
370
    -2
100
AcDbLine
 10
14.08827283782726
 20
22.96145685466504
 30
0.0
 11
14.08827283782726
 21
54.29429685082633
 31
0.0
  0
LINE
  5
1FE
330
1F9
100
AcDbEntity
  8
치수문자_일반주서
 62
     0
370
    -2
100
AcDbLine
 10
125.0862728378272
 20
54.29429685082633
 30
0.0
 11
17.39027283782726
 21
54.29429685082633
 31
0.0
  0
SOLID
  5
1FF
330
1F9
100
AcDbEntity
  8
치수문자_일반주서
 62
     0
100
AcDbTrace
 10
125.0862728378272
 20
53.74396351749299
 30
0.0
 11
125.0862728378272
 21
54.84463018415966
 31
0.0
 12
128.3882728378272
 22
54.29429685082633
 32
0.0
 13
128.3882728378272
 23
54.29429685082633
 33
0.0
  0
SOLID
  5
200
330
1F9
100
AcDbEntity
  8
치수문자_일반주서
 62
     0
100
AcDbTrace
 10
17.39027283782726
 20
54.84463018415966
 30
0.0
 11
17.39027283782726
 21
53.74396351749299
 31
0.0
 12
14.08827283782726
 22
54.29429685082633
 32
0.0
 13
14.08827283782726
 23
54.29429685082633
 33
0.0
  0
MTEXT
  5
201
330
1F9
100
AcDbEntity
  8
치수문자_일반주서
 62
     0
100
AcDbMText
 10
71.23827283782724
 20
58.66929685082633
 30
0.0
 40
3.5
 41
0.0
 71
     2
 72
     1
  1
\A1;114.3 [4 1/2]
  7
SLDTEXTSTYLE0
 73
     1
 44
1.0
  0
POINT
  5
202
330
1F9
100
AcDbEntity
  8
Defpoints
 62
     0
100
AcDbPoint
 10
128.3882728378272
 20
25.39225376707475
 30
0.0
  0
POINT
  5
203
330
1F9
100
AcDbEntity
  8
Defpoints
 62
     0
100
AcDbPoint
 10
14.08827283782726
 20
22.89895685466504
 30
0.0
  0
POINT
  5
204
330
1F9
100
AcDbEntity
  8
Defpoints
 62
     0
100
AcDbPoint
 10
14.08827283782726
 20
54.29429685082633
 30
0.0
  0
ENDBLK
  5
1FB
330
1F9
100
AcDbEntity
  8
0
100
AcDbBlockEnd
  0
BLOCK
  5
206
330
205
100
AcDbEntity
  8
0
100
AcDbBlockBegin
  2
*D10
 70
     1
 10
0.0
 20
0.0
 30
0.0
  3
*D10
  1
*D12
  0
LINE
  5
208
330
205
100
AcDbEntity
  8
치수문자_일반주서
 62
     0
370
    -2
100
AcDbLine
 10
16.56577283782724
 20
25.43895685466503
 30
0.0
 11
4.374999999999991
 21
25.43895685466498
 31
0.0
  0
LINE
  5
209
330
205
100
AcDbEntity
  8
치수문자_일반주서
 62
     0
370
    -2
100
AcDbLine
 10
16.56577283782724
 20
0.0389568546650485
 30
0.0
 11
4.37500000000008
 21
0.0389568546650025
 31
0.0
  0
LINE
  5
20A
330
205
100
AcDbEntity
  8
치수문자_일반주서
 62
     0
370
    -2
100
AcDbLine
 10
4.375000000000003
 20
22.13695685466498
 30
0.0
 11
4.375000000000068
 21
3.340956854665002
 31
0.0
  0
SOLID
  5
20B
330
205
100
AcDbEntity
  8
치수문자_일반주서
 62
     0
100
AcDbTrace
 10
4.925333333333336
 20
22.13695685466499
 30
0.0
 11
3.82466666666667
 21
22.13695685466498
 31
0.0
 12
4.374999999999991
 22
25.43895685466498
 32
0.0
 13
4.374999999999991
 23
25.43895685466498
 33
0.0
  0
SOLID
  5
20C
330
205
100
AcDbEntity
  8
치수문자_일반주서
 62
     0
100
AcDbTrace
 10
3.824666666666735
 20
3.340956854665
 30
0.0
 11
4.925333333333402
 21
3.340956854665004
 31
0.0
 12
4.37500000000008
 22
0.0389568546650025
 32
0.0
 13
4.37500000000008
 23
0.0389568546650025
 33
0.0
  0
MTEXT
  5
20D
330
205
100
AcDbEntity
  8
치수문자_일반주서
 62
     0
100
AcDbMText
 10
0.0000000000000355
 20
12.73895685466501
 30
0.0
 40
3.5
 41
0.0
 71
     2
 72
     1
  1
\A1;%%c25.40 [1]
  7
SLDTEXTSTYLE0
 11
-3.496765431890259E-15
 21
1.0
 31
0.0
 73
     1
 44
1.0
  0
POINT
  5
20E
330
205
100
AcDbEntity
  8
Defpoints
 62
     0
100
AcDbPoint
 10
16.62827283782724
 20
25.43895685466503
 30
0.0
  0
POINT
  5
20F
330
205
100
AcDbEntity
  8
Defpoints
 62
     0
100
AcDbPoint
 10
16.62827283782724
 20
0.0389568546650487
 30
0.0
  0
POINT
  5
210
330
205
100
AcDbEntity
  8
Defpoints
 62
     0
100
AcDbPoint
 10
4.375000000000092
 20
0.0389568546650029
 30
0.0
  0
ENDBLK
  5
207
330
205
100
AcDbEntity
  8
0
100
AcDbBlockEnd
  0
BLOCK
  5
246
330
245
100
AcDbEntity
  8
0
100
AcDbBlockBegin
  2
*D11
 70
     1
 10
0.0
 20
0.0
 30
0.0
  3
*D11
  1
*D13
  0
LINE
  5
248
330
245
100
AcDbEntity
  8
치수문자_일반주서
 62
     0
370
    -2
100
AcDbLine
 10
54.38750000000001
 20
12.7157969124097
 30
0.0
 11
54.38750000000001
 21
25.83413479835849
 31
0.0
  0
LINE
  5
249
330
245
100
AcDbEntity
  8
치수문자_일반주서
 62
     0
370
    -2
100
AcDbLine
 10
3.587500000000013
 20
14.35
 30
0.0
 11
3.587500000000013
 21
25.83413479835849
 31
0.0
  0
LINE
  5
24A
330
245
100
AcDbEntity
  8
치수문자_일반주서
 62
     0
370
    -2
100
AcDbLine
 10
51.08550000000001
 20
25.83413479835849
 30
0.0
 11
6.889500000000012
 21
25.83413479835849
 31
0.0
  0
SOLID
  5
24B
330
245
100
AcDbEntity
  8
치수문자_일반주서
 62
     0
100
AcDbTrace
 10
51.08550000000001
 20
25.28380146502516
 30
0.0
 11
51.08550000000001
 21
26.38446813169183
 31
0.0
 12
54.38750000000001
 22
25.83413479835849
 32
0.0
 13
54.38750000000001
 23
25.83413479835849
 33
0.0
  0
SOLID
  5
24C
330
245
100
AcDbEntity
  8
치수문자_일반주서
 62
     0
100
AcDbTrace
 10
6.889500000000012
 20
26.38446813169183
 30
0.0
 11
6.889500000000012
 21
25.28380146502516
 31
0.0
 12
3.587500000000013
 22
25.83413479835849
 32
0.0
 13
3.587500000000013
 23
25.83413479835849
 33
0.0
  0
MTEXT
  5
24D
330
245
100
AcDbEntity
  8
치수문자_일반주서
 62
     0
100
AcDbMText
 10
28.98750000000003
 20
30.20913479835849
 30
0.0
 40
3.5
 41
0.0
 71
     2
 72
     1
  1
\A1;50.8 [2]
  7
SLDTEXTSTYLE0
 73
     1
 44
1.0
  0
POINT
  5
24E
330
245
100
AcDbEntity
  8
Defpoints
 62
     0
100
AcDbPoint
 10
54.38750000000001
 20
12.6532969124097
 30
0.0
  0
POINT
  5
24F
330
245
100
AcDbEntity
  8
Defpoints
 62
     0
100
AcDbPoint
 10
3.587500000000013
 20
14.2875
 30
0.0
  0
POINT
  5
250
330
245
100
AcDbEntity
  8
Defpoints
 62
     0
100
AcDbPoint
 10
3.587500000000013
 20
25.83413479835849
 30
0.0
  0
ENDBLK
  5
247
330
245
100
AcDbEntity
  8
0
100
AcDbBlockEnd
  0
BLOCK
  5
252
330
251
100
AcDbEntity
  8
0
100
AcDbBlockBegin
  2
*D12
 70
     1
 10
0.0
 20
0.0
 30
0.0
  3
*D12
  1
*D14
  0
LINE
  5
254
330
251
100
AcDbEntity
  8
치수문자_일반주서
 62
     0
370
    -2
100
AcDbLine
 10
54.38750000000001
 20
12.7157969124097
 30
0.0
 11
54.38750000000001
 21
41.55533999616128
 31
0.0
  0
LINE
  5
255
330
251
100
AcDbEntity
  8
치수문자_일반주서
 62
     0
370
    -2
100
AcDbLine
 10
-59.91249999999996
 20
10.22249999999999
 30
0.0
 11
-59.91249999999996
 21
41.55533999616128
 31
0.0
  0
LINE
  5
256
330
251
100
AcDbEntity
  8
치수문자_일반주서
 62
     0
370
    -2
100
AcDbLine
 10
51.08550000000001
 20
41.55533999616128
 30
0.0
 11
-56.61049999999996
 21
41.55533999616128
 31
0.0
  0
SOLID
  5
257
330
251
100
AcDbEntity
  8
치수문자_일반주서
 62
     0
100
AcDbTrace
 10
51.08550000000001
 20
41.00500666282795
 30
0.0
 11
51.08550000000001
 21
42.10567332949461
 31
0.0
 12
54.38750000000001
 22
41.55533999616128
 32
0.0
 13
54.38750000000001
 23
41.55533999616128
 33
0.0
  0
SOLID
  5
258
330
251
100
AcDbEntity
  8
치수문자_일반주서
 62
     0
100
AcDbTrace
 10
-56.61049999999996
 20
42.10567332949461
 30
0.0
 11
-56.61049999999996
 21
41.00500666282795
 31
0.0
 12
-59.91249999999996
 22
41.55533999616128
 32
0.0
 13
-59.91249999999996
 23
41.55533999616128
 33
0.0
  0
MTEXT
  5
259
330
251
100
AcDbEntity
  8
치수문자_일반주서
 62
     0
100
AcDbMText
 10
-2.762499999999982
 20
45.93033999616128
 30
0.0
 40
3.5
 41
0.0
 71
     2
 72
     1
  1
\A1;114.3 [4 1/2]
  7
SLDTEXTSTYLE0
 73
     1
 44
1.0
  0
POINT
  5
25A
330
251
100
AcDbEntity
  8
Defpoints
 62
     0
100
AcDbPoint
 10
54.38750000000001
 20
12.6532969124097
 30
0.0
  0
POINT
  5
25B
330
251
100
AcDbEntity
  8
Defpoints
 62
     0
100
AcDbPoint
 10
-59.91249999999996
 20
10.15999999999999
 30
0.0
  0
POINT
  5
25C
330
251
100
AcDbEntity
  8
Defpoints
 62
     0
100
AcDbPoint
 10
-59.91249999999996
 20
41.55533999616128
 30
0.0
  0
ENDBLK
  5
253
330
251
100
AcDbEntity
  8
0
100
AcDbBlockEnd
  0
BLOCK
  5
25E
330
25D
100
AcDbEntity
  8
0
100
AcDbBlockBegin
  2
*D13
 70
     1
 10
0.0
 20
0.0
 30
0.0
  3
*D13
  1
*D15
  0
LINE
  5
260
330
25D
100
AcDbEntity
  8
치수문자_일반주서
 62
     0
370
    -2
100
AcDbLine
 10
-57.43499999999998
 20
12.69999999999998
 30
0.0
 11
-69.62577283782723
 21
12.69999999999993
 31
0.0
  0
LINE
  5
261
330
25D
100
AcDbEntity
  8
치수문자_일반주서
 62
     0
370
    -2
100
AcDbLine
 10
-57.43499999999998
 20
-12.7
 30
0.0
 11
-69.62577283782714
 21
-12.70000000000005
 31
0.0
  0
LINE
  5
262
330
25D
100
AcDbEntity
  8
치수문자_일반주서
 62
     0
370
    -2
100
AcDbLine
 10
-69.62577283782721
 20
9.397999999999934
 30
0.0
 11
-69.62577283782716
 21
-9.398000000000048
 31
0.0
  0
SOLID
  5
263
330
25D
100
AcDbEntity
  8
치수문자_일반주서
 62
     0
100
AcDbTrace
 10
-69.07543950449389
 20
9.397999999999936
 30
0.0
 11
-70.17610617116054
 21
9.397999999999932
 31
0.0
 12
-69.62577283782723
 22
12.69999999999993
 32
0.0
 13
-69.62577283782723
 23
12.69999999999993
 33
0.0
  0
SOLID
  5
264
330
25D
100
AcDbEntity
  8
치수문자_일반주서
 62
     0
100
AcDbTrace
 10
-70.17610617116048
 20
-9.39800000000005
 30
0.0
 11
-69.07543950449383
 21
-9.398000000000046
 31
0.0
 12
-69.62577283782714
 22
-12.70000000000005
 32
0.0
 13
-69.62577283782714
 23
-12.70000000000005
 33
0.0
  0
MTEXT
  5
265
330
25D
100
AcDbEntity
  8
치수문자_일반주서
 62
     0
100
AcDbMText
 10
-74.00077283782718
 20
-0.0000000000000376
 30
0.0
 40
3.5
 41
0.0
 71
     2
 72
     1
  1
\A1;%%c25.40 [1]
  7
SLDTEXTSTYLE0
 11
-3.356894814614649E-15
 21
1.0
 31
0.0
 73
     1
 44
1.0
  0
POINT
  5
266
330
25D
100
AcDbEntity
  8
Defpoints
 62
     0
100
AcDbPoint
 10
-57.37249999999998
 20
12.69999999999998
 30
0.0
  0
POINT
  5
267
330
25D
100
AcDbEntity
  8
Defpoints
 62
     0
100
AcDbPoint
 10
-57.37249999999998
 20
-12.7
 30
0.0
  0
POINT
  5
268
330
25D
100
AcDbEntity
  8
Defpoints
 62
     0
100
AcDbPoint
 10
-69.62577283782716
 20
-12.70000000000005
 30
0.0
  0
ENDBLK
  5
25F
330
25D
100
AcDbEntity
  8
0
100
AcDbBlockEnd
  0
BLOCK
  5
26A
330
269
100
AcDbEntity
  8
0
100
AcDbBlockBegin
  2
*D14
 70
     1
 10
0.0
 20
0.0
 30
0.0
  3
*D14
  1
*D16
  0
LINE
  5
26C
330
269
100
AcDbEntity
  8
치수문자_일반주서
 62
     0
370
    -2
100
AcDbLine
 10
62.86250000000001
 20
14.28750000000001
 30
0.0
 11
79.75197993252894
 21
14.28750000000001
 31
0.0
  0
LINE
  5
26D
330
269
100
AcDbEntity
  8
치수문자_일반주서
 62
     0
370
    -2
100
AcDbLine
 10
62.86250000000001
 20
-12.69999999999999
 30
0.0
 11
79.75197993252894
 21
-12.69999999999999
 31
0.0
  0
LINE
  5
26E
330
269
100
AcDbEntity
  8
치수문자_일반주서
 62
     0
370
    -2
100
AcDbLine
 10
79.75197993252894
 20
-12.69999999999999
 30
0.0
 11
79.75197993252894
 21
-50.127
 31
0.0
  0
LINE
  5
26F
330
269
100
AcDbEntity
  8
치수문자_일반주서
 62
     0
370
    -2
100
AcDbLine
 10
79.75197993252894
 20
10.98550000000001
 30
0.0
 11
79.75197993252894
 21
-9.397999999999993
 31
0.0
  0
SOLID
  5
270
330
269
100
AcDbEntity
  8
치수문자_일반주서
 62
     0
100
AcDbTrace
 10
80.30231326586227
 20
10.98550000000001
 30
0.0
 11
79.20164659919561
 21
10.98550000000001
 31
0.0
 12
79.75197993252894
 22
14.28750000000001
 32
0.0
 13
79.75197993252894
 23
14.28750000000001
 33
0.0
  0
SOLID
  5
271
330
269
100
AcDbEntity
  8
치수문자_일반주서
 62
     0
100
AcDbTrace
 10
79.20164659919561
 20
-9.397999999999993
 30
0.0
 11
80.30231326586227
 21
-9.397999999999993
 31
0.0
 12
79.75197993252894
 22
-12.69999999999999
 32
0.0
 13
79.75197993252894
 23
-12.69999999999999
 33
0.0
  0
MTEXT
  5
272
330
269
100
AcDbEntity
  8
치수문자_일반주서
 62
     0
100
AcDbMText
 10
77.12697993252894
 20
-33.0645
 30
0.0
 40
3.5
 41
0.0
 71
     5
 72
     1
  1
\A1;{%%C26.99 [1 1/16]}
  7
SLDTEXTSTYLE0
 11
0.0
 21
1.0
 31
0.0
 73
     1
 44
1.0
  0
POINT
  5
273
330
269
100
AcDbEntity
  8
Defpoints
 62
     0
100
AcDbPoint
 10
62.80000000000001
 20
14.28750000000001
 30
0.0
  0
POINT
  5
274
330
269
100
AcDbEntity
  8
Defpoints
 62
     0
100
AcDbPoint
 10
62.80000000000001
 20
-12.69999999999999
 30
0.0
  0
POINT
  5
276
330
269
100
AcDbEntity
  8
Defpoints
 62
     0
100
AcDbPoint
 10
79.75197993252894
 20
-12.69999999999999
 30
0.0
  0
ENDBLK
  5
26B
330
269
100
AcDbEntity
  8
0
100
AcDbBlockEnd
  0
BLOCK
  5
27B
330
27A
100
AcDbEntity
  8
0
100
AcDbBlockBegin
  2
*D15
 70
     1
 10
0.0
 20
0.0
 30
0.0
  3
*D15
  1
*D17
  0
LINE
  5
27D
330
27A
100
AcDbEntity
  8
치수문자_일반주서
 62
     0
370
    -2
100
AcDbLine
 10
54.45000000000001
 20
14.2875
 30
0.0
 11
69.76414041177674
 21
14.2875
 31
0.0
  0
LINE
  5
27E
330
27A
100
AcDbEntity
  8
치수문자_일반주서
 62
     0
370
    -2
100
AcDbLine
 10
54.45000000000001
 20
-14.2875
 30
0.0
 11
69.76414041177674
 21
-14.2875
 31
0.0
  0
LINE
  5
27F
330
27A
100
AcDbEntity
  8
치수문자_일반주서
 62
     0
370
    -2
100
AcDbLine
 10
69.76414041177674
 20
14.2875
 30
0.0
 11
69.76414041177674
 21
49.9645
 31
0.0
  0
LINE
  5
280
330
27A
100
AcDbEntity
  8
치수문자_일반주서
 62
     0
370
    -2
100
AcDbLine
 10
69.76414041177674
 20
10.9855
 30
0.0
 11
69.76414041177674
 21
-10.9855
 31
0.0
  0
SOLID
  5
281
330
27A
100
AcDbEntity
  8
치수문자_일반주서
 62
     0
100
AcDbTrace
 10
70.31447374511006
 20
10.9855
 30
0.0
 11
69.21380707844341
 21
10.9855
 31
0.0
 12
69.76414041177674
 22
14.2875
 32
0.0
 13
69.76414041177674
 23
14.2875
 33
0.0
  0
SOLID
  5
282
330
27A
100
AcDbEntity
  8
치수문자_일반주서
 62
     0
100
AcDbTrace
 10
69.21380707844341
 20
-10.9855
 30
0.0
 11
70.31447374511006
 21
-10.9855
 31
0.0
 12
69.76414041177674
 22
-14.2875
 32
0.0
 13
69.76414041177674
 23
-14.2875
 33
0.0
  0
MTEXT
  5
283
330
27A
100
AcDbEntity
  8
치수문자_일반주서
 62
     0
100
AcDbMText
 10
67.13914041177674
 20
33.777
 30
0.0
 40
3.5
 41
0.0
 71
     5
 72
     1
  1
\A1;{%%C28.58 [1 1/8]}
  7
SLDTEXTSTYLE0
 11
0.0
 21
1.0
 31
0.0
 73
     1
 44
1.0
  0
POINT
  5
284
330
27A
100
AcDbEntity
  8
Defpoints
 62
     0
100
AcDbPoint
 10
54.38750000000001
 20
14.2875
 30
0.0
  0
POINT
  5
285
330
27A
100
AcDbEntity
  8
Defpoints
 62
     0
100
AcDbPoint
 10
54.38750000000001
 20
-14.2875
 30
0.0
  0
POINT
  5
286
330
27A
100
AcDbEntity
  8
Defpoints
 62
     0
100
AcDbPoint
 10
69.76414041177674
 20
-14.2875
 30
0.0
  0
ENDBLK
  5
27C
330
27A
100
AcDbEntity
  8
0
100
AcDbBlockEnd
  0
ENDSEC
  0
SECTION
  2
ENTITIES
  0
LINE
  5
9D
330
1F
100
AcDbEntity
  8
참조1
100
AcDbLine
 10
-1.550092335746113
 20
0.0010749287238785
 30
0.0
 11
-1.550092335746108
 21
-39.99892507127612
 31
0.0
  0
LINE
  5
9E
330
1F
100
AcDbEntity
  8
참조1
100
AcDbLine
 10
-1.550092335746108
 20
-39.99892507127612
 30
0.0
 11
-27.82144915005479
 21
-39.99892507127612
 31
0.0
  0
INSERT
  5
A0
330
1F
100
AcDbEntity
  8
0
  6
Continuous
 62
     7
100
AcDbBlockReference
 66
     1
  2
블럭10
 10
-15.49036526787132
 20
-52.04609937292005
 30
0.0
  0
ATTRIB
  5
A1
330
A0
100
AcDbEntity
  8
FORMAT
 62
     2
100
AcDbText
 10
-24.6716605566126
 20
-49.97073246008787
 30
0.0
 40
4.233333333333333
  1
E1039108 [ 4 FLUTE ]
 41
0.75
  7
SLDTEXTSTYLE0
 11
-24.6716605566126
 21
-52.08739912675453
 31
0.0
100
AcDbAttribute
  2
AUTOATTR0
 70
     0
 74
     1
  0
SEQEND
  5
A2
330
A0
100
AcDbEntity
  8
0
  6
Continuous
 62
     7
  0
HATCH
  5
A3
330
1F
100
AcDbEntity
  8
중심선
100
AcDbHatch
 10
0.0
 20
0.0
 30
0.0
210
0.0
220
0.0
230
1.0
  2
SOLID
 70
     1
 71
     0
 91
        1
 92
        0
 93
        4
 72
     1
 10
-9.775455963490483
 20
-35.79892507127612
 11
-13.22173120732777
 21
-35.79892507127612
 72
     1
 10
-13.22173120732776
 20
-35.79892507127612
 11
-15.34996106653179
 21
-38.33525065184872
 72
     1
 10
-15.34996106653179
 20
-38.33525065184871
 11
-11.90365273758136
 21
-38.33521122254622
 72
     1
 10
-11.90365273758136
 20
-38.33521122254622
 11
-9.775455963490483
 21
-35.79892507127611
 97
        0
 75
     0
 76
     1
 98
        1
 10
-8.412500000000001
 20
-0.0000000000000107
  0
HATCH
  5
A4
330
1F
100
AcDbEntity
  8
중심선
100
AcDbHatch
 10
0.0
 20
0.0
 30
0.0
210
0.0
220
0.0
230
1.0
  2
SOLID
 70
     1
 71
     0
 91
        1
 92
        0
 93
        4
 72
     1
 10
-4.762691972454503
 20
-35.79892507127612
 11
-8.208967216291786
 21
-35.79892507127612
 72
     1
 10
-8.208967216291786
 20
-35.79892507127612
 11
-12.7401052246492
 21
-41.19892507127614
 72
     1
 10
-12.7401052246492
 20
-41.19892507127614
 11
-9.29382998081192
 21
-41.19892507127614
 72
     1
 10
-9.29382998081192
 20
-41.19892507127614
 11
-4.762691972454503
 21
-35.79892507127612
 97
        0
 75
     0
 76
     1
 98
        1
 10
-8.412500000000001
 20
-0.0000000000000107
  0
HATCH
  5
A5
330
1F
100
AcDbEntity
  8
중심선
100
AcDbHatch
 10
0.0
 20
0.0
 30
0.0
210
0.0
220
0.0
230
1.0
  2
SOLID
 70
     1
 71
     0
 91
        1
 92
        0
 93
        4
 72
     1
 10
0.2500720185814203
 20
-35.79892507127609
 11
-3.196203225255724
 21
-35.79892507127611
 72
     1
 10
-3.196203225255724
 20
-35.79892507127612
 11
-10.244640127145
 21
-44.19892507127614
 72
     1
 10
-10.244640127145
 20
-44.19892507127614
 11
-6.798364883307718
 21
-44.19892507127614
 72
     1
 10
-6.798364883307718
 20
-44.19892507127614
 11
0.2500720185814203
 21
-35.79892507127609
 97
        0
 75
     0
 76
     1
 98
        1
 10
-8.412500000000001
 20
-0.0000000000000107
  0
HATCH
  5
A6
330
1F
100
AcDbEntity
  8
중심선
100
AcDbHatch
 10
0.0
 20
0.0
 30
0.0
210
0.0
220
0.0
230
1.0
  2
SOLID
 70
     1
 71
     0
 91
        1
 92
        0
 93
        6
 72
     3
 10
5.049962449593563
 20
-39.99892507132739
 11
3.960054785062285
 21
1.540882976769353E-10
 40
0.3939339440162626
 50
17.09539180608436
 51
320.0019657685078
 73
     0
 72
     1
 10
6.73296210529416
 20
-38.58681907591442
 11
9.038263978995225
 21
-36.65249236586647
 72
     3
 10
5.049962449540716
 20
-39.99892507127626
 11
6.600054785286828
 21
-1.278976924368180E-13
 40
0.6363583540795982
 50
39.99873849337406
 51
368.4976242363724
 73
     1
 72
     1
 10
11.47529494144133
 20
-39.03892507120614
 11
3.73002975637664
 21
-39.03892507120614
 72
     1
 10
3.73002975637664
 20
-39.03892507120614
 11
3.730004711930706
 21
-40.95892507120602
 72
     1
 10
3.730004711930706
 20
-40.95892507120602
 11
8.171384481402743
 21
-40.958925071206
 97
        0
 75
     0
 76
     1
 98
        1
 10
-8.412500000000001
 20
-0.0000000000000107
  0
LINE
  5
F6
330
1F
100
AcDbEntity
  8
참조1
100
AcDbLine
 10
70.1508914795995
 20
7.441074928723885
 30
0.0
 11
70.1508914795995
 21
-7.438925071276119
 31
0.0
  0
LINE
  5
F7
330
1F
100
AcDbEntity
  8
참조1
100
AcDbLine
 10
82.85089147959948
 20
5.441074928723885
 30
0.0
 11
70.1508914795995
 21
5.441074928723885
 31
0.0
  0
SOLID
  5
F8
330
1F
100
AcDbEntity
  8
참조1
100
AcDbTrace
 10
70.1508914795995
 20
5.441074928723885
 30
0.0
 11
76.50089147959949
 21
4.425074928723885
 31
0.0
 12
76.50089147959949
 22
6.457074928723885
 32
0.0
 13
76.50089147959949
 23
6.457074928723885
 33
0.0
  0
LINE
  5
F9
330
1F
100
AcDbEntity
  8
참조1
100
AcDbLine
 10
82.85089147959948
 20
-5.438925071276119
 30
0.0
 11
70.1508914795995
 21
-5.438925071276119
 31
0.0
  0
SOLID
  5
FA
330
1F
100
AcDbEntity
  8
참조1
100
AcDbTrace
 10
70.1508914795995
 20
-5.438925071276119
 30
0.0
 11
76.50089147959949
 21
-6.454925071276119
 31
0.0
 12
76.50089147959949
 22
-4.422925071276119
 32
0.0
 13
76.50089147959949
 23
-4.422925071276119
 33
0.0
  0
MTEXT
  5
FB
330
1F
100
AcDbEntity
  8
참조1
100
AcDbMText
 10
79.53524161222546
 20
11.01136670591221
 30
0.0
 40
3.5
 41
0.0
 71
     1
 72
     1
  1
A
  7
SLDTEXTSTYLE0
 73
     1
 44
1.0
  0
MTEXT
  5
FC
330
1F
100
AcDbEntity
  8
참조1
100
AcDbMText
 10
79.53524161222546
 20
0.1313667059122086
 30
0.0
 40
3.5
 41
0.0
 71
     1
 72
     1
  1
A
  7
SLDTEXTSTYLE0
 73
     1
 44
1.0
  0
LINE
  5
212
330
1F
100
AcDbEntity
  8
외형선
  6
Continuous
370
    15
100
AcDbLine
 10
-57.37249999999998
 20
-12.70000000000001
 30
0.0
 11
2.000000000000007
 21
-12.70000000000001
 31
0.0
  0
LINE
  5
213
330
1F
100
AcDbEntity
  8
외형선
  6
Continuous
370
    15
100
AcDbLine
 10
2.0
 20
12.69999999999999
 30
0.0
 11
-22.48242499999996
 21
12.69999999999999
 31
0.0
  0
LINE
  5
214
330
1F
100
AcDbEntity
  8
외형선
  6
Continuous
370
    15
100
AcDbLine
 10
-59.91249999999996
 20
-10.16000000000002
 30
0.0
 11
-57.37249999999998
 21
-12.70000000000001
 31
0.0
  0
LINE
  5
215
330
1F
100
AcDbEntity
  8
외형선
  6
Continuous
 62
     1
370
    15
100
AcDbLine
 10
49.06305789725956
 20
4.236502464564703
 30
0.0
 11
48.97100255015763
 21
4.286259961847367
 31
0.0
  0
LINE
  5
216
330
1F
100
AcDbEntity
  8
외형선
  6
Continuous
 62
     1
370
    15
100
AcDbLine
 10
26.34953999665581
 20
14.28749999999999
 30
0.0
 11
17.63829212142682
 21
14.28749999999999
 31
0.0
  0
LINE
  5
217
330
1F
100
AcDbEntity
  8
외형선
  6
Continuous
 62
     1
370
    15
100
AcDbLine
 10
17.63829212142662
 20
-14.28750000000002
 30
0.0
 11
26.34953999665582
 21
-14.28750000000002
 31
0.0
  0
LINE
  5
222
330
1F
100
AcDbEntity
  8
외형선
  6
Continuous
370
    15
100
AcDbLine
 10
-57.37249999999998
 20
-0.0000000000000142
 30
0.0
 11
-57.37249999999998
 21
10.79499999999998
 31
0.0
  0
LINE
  5
223
330
1F
100
AcDbEntity
  8
외형선
  6
Continuous
370
    15
100
AcDbLine
 10
-57.37249999999998
 20
-12.70000000000001
 30
0.0
 11
-57.37249999999998
 21
-0.0000000000000142
 31
0.0
  0
LINE
  5
224
330
1F
100
AcDbEntity
  8
외형선
  6
Continuous
370
    15
100
AcDbLine
 10
-59.91249999999996
 20
-0.0000000000000142
 30
0.0
 11
-59.91249999999997
 21
10.79499999999998
 31
0.0
  0
LINE
  5
225
330
1F
100
AcDbEntity
  8
외형선
  6
Continuous
370
    15
100
AcDbLine
 10
-59.91249999999996
 20
-10.16000000000002
 30
0.0
 11
-59.91249999999996
 21
-0.0000000000000142
 31
0.0
  0
LINE
  5
228
330
1F
100
AcDbEntity
  8
외형선
  6
Continuous
 62
     1
370
    15
100
AcDbLine
 10
54.38750000000001
 20
-12.93992227749148
 30
0.0
 11
54.38750000000001
 21
1.224172277491625
 31
0.0
  0
SPLINE
  5
229
330
1F
100
AcDbEntity
  8
외형선
  6
Continuous
 62
     1
370
    15
100
AcDbSpline
210
0.0
220
0.0
230
1.0
 70
     8
 71
     3
 72
    52
 73
    48
 74
     0
 42
0.000000001
 43
0.00000001
 40
0.0
 40
0.0
 40
0.0
 40
0.0
 40
0.0625000000000003
 40
0.0625000000000003
 40
0.0937500000000002
 40
0.0937500000000002
 40
0.125
 40
0.125
 40
0.1562499999999998
 40
0.1562499999999998
 40
0.1874999999999996
 40
0.1874999999999996
 40
0.2499999999999992
 40
0.2499999999999992
 40
0.3124999999999988
 40
0.3124999999999988
 40
0.3437499999999986
 40
0.3437499999999986
 40
0.3749999999999984
 40
0.3749999999999984
 40
0.4062499999999983
 40
0.4062499999999983
 40
0.4374999999999981
 40
0.4374999999999981
 40
0.4999999999999977
 40
0.4999999999999977
 40
0.5624999999999973
 40
0.5624999999999973
 40
0.5937499999999971
 40
0.5937499999999971
 40
0.624999999999997
 40
0.624999999999997
 40
0.6562499999999968
 40
0.6562499999999968
 40
0.6874999999999967
 40
0.6874999999999967
 40
0.7499999999999969
 40
0.7499999999999969
 40
0.7812499999999972
 40
0.7812499999999972
 40
0.8124999999999977
 40
0.8124999999999977
 40
0.843749999999998
 40
0.843749999999998
 40
0.8749999999999984
 40
0.8749999999999984
 40
0.8889054662139922
 40
0.8889054662139922
 40
0.8889054662139922
 40
0.8889054662139922
 10
54.38750000000001
 20
-12.93992227749148
 30
0.0
 10
53.20095026242065
 20
-12.64882356352422
 30
0.0
 10
52.00374742515799
 20
-12.31179813705807
 30
0.0
 10
50.21986728776857
 20
-11.7450793053285
 30
0.0
 10
49.62674865886817
 20
-11.54599305076854
 30
0.0
 10
48.43498469294793
 20
-11.12750176139755
 30
0.0
 10
47.83808497895873
 20
-10.90827734120379
 30
0.0
 10
46.64691085222606
 20
-10.45159220975484
 30
0.0
 10
46.05429548322217
 20
-10.21437072686467
 30
0.0
 10
44.86411029959822
 20
-9.721971449574083
 30
0.0
 10
44.2673226369693
 20
-9.466876316814481
 30
0.0
 10
42.4788612204186
 20
-8.67784727168047
 30
0.0
 10
41.29281373885812
 20
-8.12078283880295
 30
0.0
 10
38.90751098594009
 20
-6.952133089439114
 30
0.0
 10
37.72133807461687
 20
-6.342686038767782
 30
0.0
 10
35.93303107889746
 20
-5.397159577829317
 30
0.0
 10
35.33620636051795
 20
-5.07688785594774
 30
0.0
 10
34.14577096809914
 20
-4.428665939088431
 30
0.0
 10
33.55322115848645
 20
-4.100920505026126
 30
0.0
 10
32.36225269889191
 20
-3.437806218679675
 30
0.0
 10
31.7653675817812
 20
-3.10271257756789
 30
0.0
 10
30.57345595744768
 20
-2.428064308556253
 30
0.0
 10
29.98010142507677
 20
-2.088831562588915
 30
0.0
 10
28.19668318793873
 20
-1.065950941454915
 30
0.0
 10
26.99943498853244
 20
-0.3763631566391876
 30
0.0
 10
24.62554284201124
 20
0.9967055849883466
 30
0.0
 10
23.42918188929616
 20
1.683963772639422
 30
0.0
 10
21.64485978267924
 20
2.700579474980784
 30
0.0
 10
21.0519378046505
 20
3.037054173567224
 30
0.0
 10
19.86033487841176
 20
3.705232571251495
 30
0.0
 10
19.263427296308
 20
4.036596351315685
 30
0.0
 10
18.07206086161789
 20
4.691286935209463
 30
0.0
 10
17.47934066182096
 20
5.014305366518116
 30
0.0
 10
16.28941900916996
 20
5.651900404772517
 30
0.0
 10
15.69267512684016
 20
5.966382466351384
 30
0.0
 10
13.9040793919146
 20
6.893168417939538
 30
0.0
 10
12.71812466760028
 20
7.488116841737222
 30
0.0
 10
10.92916772469766
 20
8.340157132347164
 30
0.0
 10
10.33271782716493
 20
8.61718065262642
 30
0.0
 10
9.144205294694089
 20
9.155137278175138
 30
0.0
 10
8.55047357542242
 20
9.41633727732389
 30
0.0
 10
7.358385256609893
 20
9.922602593616512
 30
0.0
 10
6.76153020842213
 20
10.16743828659427
 30
0.0
 10
5.570857938744837
 20
10.63862479784873
 30
0.0
 10
4.978334414672013
 20
10.86483182730734
 30
0.0
 10
4.118032876252087
 20
11.17831795447361
 30
0.0
 10
3.852811218167938
 20
11.27298335893281
 30
0.0
 10
3.587500000000009
 20
11.36570490341475
 30
0.0
  0
SPLINE
  5
22A
330
1F
100
AcDbEntity
  8
외형선
  6
Continuous
 62
     1
370
    15
100
AcDbSpline
210
0.0
220
0.0
230
1.0
 70
     8
 71
     3
 72
    18
 73
    14
 74
     0
 42
0.000000001
 43
0.00000001
 40
0.0
 40
0.0
 40
0.0
 40
0.0
 40
0.0691775896771731
 40
0.1383395883936429
 40
0.2074911200577623
 40
0.2766373294002107
 40
0.3457833717514782
 40
0.4136995222226249
 40
0.48162934661527
 40
0.5495781220457667
 40
0.6175163413847785
 40
0.6868243734554202
 40
0.7027857332932931
 40
0.7027857332932931
 40
0.7027857332932931
 40
0.7027857332932931
 10
54.38750000000001
 20
1.224172277491627
 30
0.0
 10
53.19229974634718
 20
1.909032677729437
 30
0.0
 10
50.80216860836003
 20
3.278599127184191
 30
0.0
 10
47.21750660640686
 20
5.257601269960555
 30
0.0
 10
43.63347869573577
 20
7.128185324946649
 30
0.0
 10
40.04979033096588
 20
8.848950794787456
 30
0.0
 10
36.48742746535849
 20
10.3753927252424
 30
0.0
 10
32.94609011713498
 20
11.67977078410832
 30
0.0
 10
29.42529881099021
 20
12.74039472626146
 30
0.0
 10
25.90381348231596
 20
13.54348662072567
 30
0.0
 10
22.35872832346863
 20
14.07659299598543
 30
0.0
 10
19.71190666948383
 20
14.25889302378061
 30
0.0
 10
18.23880997605318
 20
14.28412028082017
 30
0.0
 10
17.96306540665025
 20
14.28618227186062
 30
0.0
  0
LINE
  5
22B
330
1F
100
AcDbEntity
  8
외형선
  6
Continuous
 62
     1
370
    15
100
AcDbLine
 10
54.38750000000001
 20
-14.23495902646095
 30
0.0
 11
54.38750000000001
 21
-12.93992227749148
 31
0.0
  0
SPLINE
  5
22C
330
1F
100
AcDbEntity
  8
외형선
  6
Continuous
 62
     1
370
    15
100
AcDbSpline
210
0.0
220
0.0
230
1.0
 70
     8
 71
     3
 72
    52
 73
    48
 74
     0
 42
0.000000001
 43
0.00000001
 40
0.0
 40
0.0
 40
0.0
 40
0.0
 40
0.0625000000000007
 40
0.0625000000000007
 40
0.0937500000000007
 40
0.0937500000000007
 40
0.1250000000000007
 40
0.1250000000000007
 40
0.1562500000000007
 40
0.1562500000000007
 40
0.1875000000000008
 40
0.1875000000000008
 40
0.2500000000000008
 40
0.2500000000000008
 40
0.3125000000000008
 40
0.3125000000000008
 40
0.3437500000000009
 40
0.3437500000000009
 40
0.3750000000000009
 40
0.3750000000000009
 40
0.4062500000000009
 40
0.4062500000000009
 40
0.4375000000000009
 40
0.4375000000000009
 40
0.5000000000000009
 40
0.5000000000000009
 40
0.562500000000001
 40
0.562500000000001
 40
0.5937500000000007
 40
0.5937500000000007
 40
0.6250000000000003
 40
0.6250000000000003
 40
0.6562500000000001
 40
0.6562500000000001
 40
0.6874999999999998
 40
0.6874999999999998
 40
0.7499999999999992
 40
0.7499999999999992
 40
0.7812499999999992
 40
0.7812499999999992
 40
0.8124999999999992
 40
0.8124999999999992
 40
0.8437499999999992
 40
0.8437499999999992
 40
0.8749999999999992
 40
0.8749999999999992
 40
0.8889054662139927
 40
0.8889054662139927
 40
0.8889054662139927
 40
0.8889054662139927
 10
54.38750000000001
 20
-14.23495902646095
 30
0.0
 10
53.20095026242075
 20
-14.17612851119581
 30
0.0
 10
52.00374742515809
 20
-14.06755227592932
 30
0.0
 10
50.21986728776857
 20
-13.83243426765147
 30
0.0
 10
49.62674865886813
 20
-13.74207572956733
 30
0.0
 10
48.43498469294797
 20
-13.53737452082204
 30
0.0
 10
47.83808497895873
 20
-13.4231028771489
 30
0.0
 10
46.64691085222613
 20
-13.17162136643278
 30
0.0
 10
46.05429548322211
 20
-13.03456192841985
 30
0.0
 10
44.86411029959819
 20
-12.73770128674957
 30
0.0
 10
44.26732263696928
 20
-12.57793259176812
 30
0.0
 10
42.47886122041857
 20
-12.06642370804232
 30
0.0
 10
41.29281373885807
 20
-11.68292217342249
 30
0.0
 10
38.90751098594006
 20
-10.8361266525969
 30
0.0
 10
37.72133807461685
 20
-10.37438071493413
 30
0.0
 10
35.93303107889746
 20
-9.629044290499657
 30
0.0
 10
35.33620636051788
 20
-9.371905970670145
 30
0.0
 10
34.14577096809909
 20
-8.842275702877611
 30
0.0
 10
33.55322115848647
 20
-8.569964478471649
 30
0.0
 10
32.36225269889187
 20
-8.010051327323094
 30
0.0
 10
31.76536758178115
 20
-7.722668653866791
 30
0.0
 10
30.57345595744766
 20
-7.13528427233361
 30
0.0
 10
29.98010142507677
 20
-6.835572657625642
 30
0.0
 10
28.19668318793875
 20
-5.918892010872602
 30
0.0
 10
26.99943498853244
 20
-5.283592286169609
 30
0.0
 10
24.62554284201114
 20
-3.984445040684689
 30
0.0
 10
23.42918188929621
 20
-3.317031216544031
 30
0.0
 10
21.64485978267937
 20
-2.304008019377026
 30
0.0
 10
21.0519378046505
 20
-1.96439480220392
 30
0.0
 10
19.86033487841176
 20
-1.281252056461378
 30
0.0
 10
19.26342729630802
 20
-0.9380584577737376
 30
0.0
 10
18.07206086161788
 20
-0.2511070352750409
 30
0.0
 10
17.47934066182101
 20
0.0923145900144717
 30
0.0
 10
16.28941900916996
 20
0.7792639267182777
 30
0.0
 10
15.69267512684013
 20
1.12270273120845
 30
0.0
 10
13.9040793919146
 20
2.148884872883064
 30
0.0
 10
12.7181246676003
 20
2.826685776623518
 30
0.0
 10
10.9291677246977
 20
3.827055085206965
 30
0.0
 10
10.3327178271649
 20
4.157495242816353
 30
0.0
 10
9.144205294694057
 20
4.80978868080058
 30
0.0
 10
8.550473575422401
 20
5.131955061282291
 30
0.0
 10
7.358385256609925
 20
5.767647918941819
 30
0.0
 10
6.761530208422116
 20
6.080897276238154
 30
0.0
 10
5.570857938744851
 20
6.69576824685066
 30
0.0
 10
4.978334414672045
 20
6.997183611142171
 30
0.0
 10
4.118032876252078
 20
7.424270116501312
 30
0.0
 10
3.852811218167925
 20
7.554583452918481
 30
0.0
 10
3.587500000000004
 20
7.683590134224506
 30
0.0
  0
SPLINE
  5
22D
330
1F
100
AcDbEntity
  8
외형선
  6
Continuous
 62
     1
370
    15
100
AcDbSpline
210
0.0
220
0.0
230
1.0
 70
     8
 71
     3
 72
    19
 73
    15
 74
     0
 42
0.000000001
 43
0.00000001
 40
0.143682403806928
 40
0.143682403806928
 40
0.143682403806928
 40
0.143682403806928
 40
0.1622512250185782
 40
0.2433538775755048
 40
0.3244486756578991
 40
0.4055416632245812
 40
0.4851902508376895
 40
0.5648528351145009
 40
0.6445379511573459
 40
0.7242209199663945
 40
0.8055079719358661
 40
0.8867840441542105
 40
0.9680548975153221
 40
1.0
 40
1.0
 40
1.0
 40
1.0
 10
3.587500000000013
 20
-8.658009305405157
 30
0.0
 10
3.861036919592834
 20
-8.78339234776389
 30
0.0
 10
5.329289014629889
 20
-9.447869081847514
 30
0.0
 10
7.992090818504614
 20
-10.57020387598918
 30
0.0
 10
11.57583612718031
 20
-11.85725947695784
 30
0.0
 10
15.13816599105399
 20
-12.89039135769821
 30
0.0
 10
18.679366940342
 20
-13.65276889380913
 30
0.0
 10
22.19995317855034
 20
-14.13471768399939
 30
0.0
 10
25.7213256707899
 20
-14.33132646149818
 30
0.0
 10
29.26658045288375
 20
-14.23670513765561
 30
0.0
 10
32.83506986970928
 20
-13.85096066049677
 30
0.0
 10
36.42687042148341
 20
-13.15587843806254
 30
0.0
 10
39.29179306036182
 20
-12.42660656565837
 30
0.0
 10
40.95950616410445
 20
-11.84935826283024
 30
0.0
 10
41.4300693953743
 20
-11.68648143106929
 30
0.0
  0
SPLINE
  5
22F
330
1F
100
AcDbEntity
  8
외형선
  6
Continuous
 62
     1
370
    15
100
AcDbSpline
210
0.0
220
0.0
230
1.0
 70
     8
 71
     3
 72
    15
 73
    11
 74
     0
 42
0.000000001
 43
0.00000001
 40
0.0
 40
0.0
 40
0.0
 40
0.0
 40
0.103189974260182
 40
0.2313121825998095
 40
0.3594170849856921
 40
0.4875137615656505
 40
0.6156113083732392
 40
0.7437188197609343
 40
0.8718453708401903
 40
1.0
 40
1.0
 40
1.0
 40
1.0
 10
26.34953999665582
 20
14.26632666287694
 30
0.0
 10
27.31400758692259
 20
14.25600444931458
 30
0.0
 10
29.47597249631269
 20
14.23286602171545
 30
0.0
 10
32.83506855328752
 20
13.84302711720956
 30
0.0
 10
36.42686969438501
 20
13.16696456352103
 30
0.0
 10
40.01838769330949
 20
12.20524171341412
 30
0.0
 10
43.60993570807548
 20
10.98975410533173
 30
0.0
 10
47.20182234667249
 20
9.540013756097608
 30
0.0
 10
50.79433451698696
 20
7.898788765740635
 30
0.0
 10
53.18969069418797
 20
6.671184568758301
 30
0.0
 10
54.38750000000001
 20
6.057315222314122
 30
0.0
  0
LINE
  5
230
330
1F
100
AcDbEntity
  8
외형선
  6
Continuous
 62
     1
370
    15
100
AcDbLine
 10
54.38750000000001
 20
1.224172277491627
 30
0.0
 11
54.38750000000001
 21
6.057315222314122
 31
0.0
  0
SPLINE
  5
231
330
1F
100
AcDbEntity
  8
외형선
  6
Continuous
 62
     1
370
    15
100
AcDbSpline
210
0.0
220
0.0
230
1.0
 70
     8
 71
     3
 72
    12
 73
     8
 74
     0
 42
0.000000001
 43
0.00000001
 40
0.0
 40
0.0
 40
0.0
 40
0.0
 40
0.119586889687062
 40
0.2956361376781952
 40
0.4716899720998234
 40
0.6477608870216934
 40
0.6887532476123782
 40
0.6887532476123782
 40
0.6887532476123782
 40
0.6887532476123782
 10
17.63829212142662
 20
-14.25472761669217
 30
0.0
 10
16.82508870593457
 20
-14.25432749743385
 30
0.0
 10
14.81473190568758
 20
-14.25333834458901
 30
0.0
 10
11.60723986509504
 20
-13.90670150541622
 30
0.0
 10
8.015629347099079
 20
-13.26977558230572
 30
0.0
 10
5.34236069269077
 20
-12.57659155153666
 30
0.0
 10
3.86626215182617
 20
-12.13261526132417
 30
0.0
 10
3.587500000000011
 20
-12.04648533719387
 30
0.0
  0
SPLINE
  5
232
330
1F
100
AcDbEntity
  8
외형선
  6
Continuous
 62
     1
370
    15
100
AcDbSpline
210
0.0
220
0.0
230
1.0
 70
     8
 71
     3
 72
    11
 73
     7
 74
     0
 42
0.000000001
 43
0.00000001
 40
0.0
 40
0.0
 40
0.0
 40
0.0
 40
0.2767052879046528
 40
0.5533482131093292
 40
0.8299492708718522
 40
0.9999999999999999
 40
0.9999999999999999
 40
0.9999999999999999
 40
0.9999999999999999
 10
54.38750000000001
 20
14.23495902646091
 30
0.0
 10
53.19229970528863
 20
14.14761080228455
 30
0.0
 10
50.80216848519365
 20
13.97293404011543
 30
0.0
 10
47.21750709891175
 20
13.32847526911201
 30
0.0
 10
44.09357852747836
 20
12.57651647399371
 30
0.0
 10
42.16451048842789
 20
11.93190139299185
 30
0.0
 10
41.43006939537428
 20
11.68648143106925
 30
0.0
  0
LINE
  5
233
330
1F
100
AcDbEntity
  8
외형선
  6
Continuous
 62
     1
370
    15
100
AcDbLine
 10
54.38750000000001
 20
6.040763716100383
 30
0.0
 11
54.38750000000001
 21
14.23495902646091
 31
0.0
  0
LINE
  5
236
330
1F
100
AcDbEntity
  8
중심선
 62
     1
100
AcDbLine
 10
-62.91249999999997
 20
-0.0000000000000178
 30
0.0
 11
57.38750000000001
 21
-0.0000000000000036
 31
0.0
  0
CIRCLE
  5
237
330
1F
100
AcDbEntity
  8
해칭선
100
AcDbCircle
 10
0.0
 20
0.0
 30
0.0
 40
3.0
  0
DIMENSION
  5
238
330
1F
100
AcDbEntity
  8
치수문자_일반주서
100
AcDbDimension
  2
*D11
 10
3.587500000000013
 20
25.83413479835849
 30
0.0
 11
28.98750000000003
 21
25.83413479835849
 31
0.0
 70
   160
  1
<>
 71
     2
 42
50.8
  3
SLDDIMSTYLE0
100
AcDbAlignedDimension
 13
54.38750000000001
 23
12.6532969124097
 33
0.0
 14
3.587500000000013
 24
14.2875
 34
0.0
 50
0.000000000000008
100
AcDbRotatedDimension
1001
ACAD
1000
DSTYLE
1002
{
1070
   171
1070
     6
1070
   273
1070
     7
1002
}
  0
DIMENSION
  5
239
330
1F
100
AcDbEntity
  8
치수문자_일반주서
100
AcDbDimension
  2
*D12
 10
-59.91249999999996
 20
41.55533999616128
 30
0.0
 11
-2.762499999999982
 21
41.55533999616128
 31
0.0
 70
   160
  1
<>
 71
     2
 42
114.3
  3
SLDDIMSTYLE0
100
AcDbAlignedDimension
 13
54.38750000000001
 23
12.6532969124097
 33
0.0
 14
-59.91249999999996
 24
10.15999999999999
 34
0.0
 50
0.0000000000000036
100
AcDbRotatedDimension
1001
ACAD
1000
DSTYLE
1002
{
1070
   171
1070
     6
1070
   273
1070
     7
1002
}
  0
DIMENSION
  5
23A
330
1F
100
AcDbEntity
  8
치수문자_일반주서
100
AcDbDimension
  2
*D13
 10
-69.62577283782714
 20
-12.70000000000005
 30
0.0
 11
-69.62577283782718
 21
-0.0000000000000231
 31
0.0
 70
   160
  1
%%c<>
 71
     2
 42
25.39999999999998
 52
-270.0
  3
SLDDIMSTYLE1
100
AcDbAlignedDimension
 13
-57.37249999999998
 23
12.69999999999998
 33
0.0
 14
-57.37249999999998
 24
-12.7
 34
0.0
 50
90.0000000000002
100
AcDbRotatedDimension
1001
ACAD
1000
DSTYLE
1002
{
1070
   171
1070
     6
1070
   273
1070
     7
1002
}
  0
INSERT
  5
23B
330
1F
100
AcDbEntity
  8
해칭선
100
AcDbBlockReference
  2
SW_DOWELSYMBOL_0
 10
0.0
 20
0.0
 30
0.0
  0
LINE
  5
23C
330
1F
100
AcDbEntity
  8
0
 62
     1
100
AcDbLine
 10
54.38750000000001
 20
14.2875
 30
0.0
 11
54.38750000000001
 21
-14.2875
 31
0.0
  0
LINE
  5
23E
330
1F
100
AcDbEntity
  8
외형선
  6
Continuous
370
    15
100
AcDbLine
 10
-45.30749999999998
 20
12.69999999999999
 30
0.0
 11
-39.39882499999985
 21
12.69999999999999
 31
0.0
  0
LINE
  5
23F
330
1F
100
AcDbEntity
  8
외형선
  6
Continuous
370
    15
100
AcDbLine
 10
-37.49382499999988
 20
10.79499999999998
 30
0.0
 11
-24.38742499999998
 21
10.79499999999998
 31
0.0
  0
LINE
  5
240
330
1F
100
AcDbEntity
  8
외형선
  6
Continuous
370
    15
100
AcDbLine
 10
-37.49382499999988
 20
10.79499999999999
 30
0.0
 11
-39.39882499999985
 21
12.69999999999999
 31
0.0
  0
LINE
  5
241
330
1F
100
AcDbEntity
  8
외형선
  6
Continuous
370
    15
100
AcDbLine
 10
-24.38742499999998
 20
10.79499999999999
 30
0.0
 11
-22.48242499999996
 21
12.69999999999999
 31
0.0
  0
LINE
  5
242
330
1F
100
AcDbEntity
  8
외형선
  6
Continuous
370
    15
100
AcDbLine
 10
-59.91249999999997
 20
10.79499999999998
 30
0.0
 11
-47.21249999999995
 21
10.79499999999998
 31
0.0
  0
LINE
  5
243
330
1F
100
AcDbEntity
  8
외형선
  6
Continuous
370
    15
100
AcDbLine
 10
-47.21249999999995
 20
10.79499999999999
 30
0.0
 11
-45.30749999999998
 21
12.69999999999998
 31
0.0
  0
LINE
  5
244
330
1F
100
AcDbEntity
  8
외형선
  6
Continuous
370
    15
100
AcDbLine
 10
-39.39882499999986
 20
12.69999999999999
 30
0.0
 11
-45.30749999999997
 21
12.69999999999999
 31
0.0
  0
DIMENSION
  5
277
330
1F
100
AcDbEntity
  8
치수문자_일반주서
100
AcDbDimension
  2
*D15
 10
69.76414041177674
 20
-14.2875
 30
0.0
 11
69.76414041177674
 21
33.777
 31
0.0
 70
   160
  1
{%%C<>[]}
 71
     5
 42
28.575
  3
SLDDIMSTYLE0
100
AcDbAlignedDimension
 13
54.38750000000001
 23
14.2875
 33
0.0
 14
54.38750000000001
 24
-14.2875
 34
0.0
 50
90.0
100
AcDbRotatedDimension
1001
ACAD
1000
DSTYLE
1002
{
1070
   283
1070
     1
1070
   170
1070
     1
1070
   171
1070
     6
1070
   273
1070
     7
1002
}
  0
LINE
  5
288
330
1F
100
AcDbEntity
  8
외형선
  6
Continuous
370
    15
100
AcDbLine
 10
3.587500000000013
 20
14.2875
 30
0.0
 11
3.587500000000013
 21
-14.2875
 31
0.0
  0
LINE
  5
28B
330
1F
100
AcDbEntity
  8
외형선
  6
Continuous
 62
     1
370
    15
100
AcDbLine
 10
3.587500000000013
 20
14.2875
 30
0.0
 11
17.63829212142682
 21
14.28749999999999
 31
0.0
  0
LINE
  5
28C
330
1F
100
AcDbEntity
  8
외형선
  6
Continuous
 62
     1
370
    15
100
AcDbLine
 10
3.587500000000013
 20
-14.2875
 30
0.0
 11
17.63829212142662
 21
-14.28750000000002
 31
0.0
  0
LINE
  5
28E
330
1F
100
AcDbEntity
  8
외형선
  6
Continuous
370
    15
100
AcDbLine
 10
3.587500000000013
 20
14.2875
 30
0.0
 11
2.0
 21
12.69999999999999
 31
0.0
  0
LINE
  5
28F
330
1F
100
AcDbEntity
  8
외형선
  6
Continuous
370
    15
100
AcDbLine
 10
3.587500000000013
 20
-14.2875
 30
0.0
 11
2.0
 21
-12.69999999999999
 31
0.0
  0
LINE
  5
290
330
1F
100
AcDbEntity
  8
외형선
  6
Continuous
370
    15
100
AcDbLine
 10
2.0
 20
-12.69999999999999
 30
0.0
 11
2.0
 21
12.69999999999999
 31
0.0
  0
ENDSEC
  0
SECTION
  2
OBJECTS
  0
DICTIONARY
  5
C
330
0
100
AcDbDictionary
281
     1
  3
ACAD_GROUP
350
D
  3
ACAD_IMAGE_VARS
350
127
  3
ACAD_LAYOUT
350
1A
  3
ACAD_MLINESTYLE
350
17
  3
ACAD_PLOTSETTINGS
350
19
  3
ACAD_PLOTSTYLENAME
350
E
  3
ACAD_SCALELIST
350
47
  3
APPDATA
350
125
  3
DWGPROPS
350
2B8
  0
DICTIONARY
  5
153
330
2
100
AcDbDictionary
280
     1
281
     1
  3
ACAD_LAYERSTATES
360
154
  0
DICTIONARY
  5
D
102
{ACAD_REACTORS
330
C
102
}
330
C
100
AcDbDictionary
281
     1
  0
RASTERVARIABLES
  5
127
102
{ACAD_REACTORS
330
C
102
}
330
C
100
AcDbRasterVariables
 90
        0
 70
     1
 71
     1
 72
     1
  0
DICTIONARY
  5
1A
102
{ACAD_REACTORS
330
C
102
}
330
C
100
AcDbDictionary
281
     1
  3
Layout1
350
1E
  3
Layout2
350
26
  3
Model
350
22
  0
DICTIONARY
  5
17
102
{ACAD_REACTORS
330
C
102
}
330
C
100
AcDbDictionary
281
     1
  3
Standard
350
18
  0
DICTIONARY
  5
19
102
{ACAD_REACTORS
330
C
102
}
330
C
100
AcDbDictionary
281
     1
  0
ACDBDICTIONARYWDFLT
  5
E
102
{ACAD_REACTORS
330
C
102
}
330
C
100
AcDbDictionary
281
     1
  3
Normal
350
F
100
AcDbDictionaryWithDefault
340
F
  0
DICTIONARY
  5
47
102
{ACAD_REACTORS
330
C
102
}
330
C
100
AcDbDictionary
281
     1
  3
A0
350
48
  3
A1
350
49
  3
A2
350
4A
  3
A3
350
4B
  3
A4
350
4C
  3
A5
350
4D
  3
A6
350
4E
  3
A7
350
4F
  3
A8
350
50
  3
A9
350
51
  3
B0
350
52
  3
B1
350
53
  3
B2
350
54
  3
B3
350
55
  3
B4
350
56
  3
B5
350
57
  3
B6
350
58
  3
B7
350
59
  3
B8
350
5A
  3
B9
350
5B
  3
C0
350
5C
  3
C1
350
5D
  3
C2
350
5E
  3
C3
350
5F
  3
C4
350
60
  3
C5
350
61
  3
C6
350
62
  3
C7
350
63
  3
C8
350
64
  3
C9
350
65
  3
D0
350
66
  3
D1
350
67
  3
D2
350
68
  0
DICTIONARY
  5
125
102
{ACAD_REACTORS
330
C
102
}
330
C
100
AcDbDictionary
281
     1
  0
XRECORD
  5
2B8
102
{ACAD_REACTORS
330
C
102
}
330
C
100
AcDbXrecord
280
     1
  1
DWGPROPS COOKIE
  2

  3

  4

  6

  7

  8
12016016
  9

300
=
301
=
302
=
303
=
304
=
305
=
306
=
307
=
308
=
309
=
 40
0.0
 41
2458312.379785463
 42
2458319.289680197
  1

 90
        0
  0
DICTIONARY
  5
154
102
{ACAD_REACTORS
330
153
102
}
330
153
100
AcDbDictionary
281
     1
  0
LAYOUT
  5
1E
102
{ACAD_REACTORS
330
1A
102
}
330
1A
100
AcDbPlotSettings
  1

  2
none_device
  4

  6

 40
0.0
 41
0.0
 42
0.0
 43
0.0
 44
0.0
 45
0.0
 46
0.0
 47
0.0
 48
0.0
 49
0.0
140
0.0
141
0.0
142
1.0
143
1.0
 70
   688
 72
     1
 73
     0
 74
     5
  7

 75
    16
147
1.0
148
0.0
149
0.0
100
AcDbLayout
  1
Layout1
 70
     1
 71
     1
 10
0.0
 20
0.0
 11
420.0
 21
297.0
 12
0.0
 22
0.0
 32
0.0
 14
1.000000000000000E+20
 24
1.000000000000000E+20
 34
1.000000000000000E+20
 15
-1.000000000000000E+20
 25
-1.000000000000000E+20
 35
-1.000000000000000E+20
146
0.0
 13
0.0
 23
0.0
 33
0.0
 16
1.0
 26
0.0
 36
0.0
 17
0.0
 27
1.0
 37
0.0
 76
     0
330
1B
  0
LAYOUT
  5
26
102
{ACAD_REACTORS
330
1A
102
}
330
1A
100
AcDbPlotSettings
  1

  2
none_device
  4

  6

 40
0.0
 41
0.0
 42
0.0
 43
0.0
 44
0.0
 45
0.0
 46
0.0
 47
0.0
 48
0.0
 49
0.0
140
0.0
141
0.0
142
1.0
143
1.0
 70
   688
 72
     1
 73
     0
 74
     5
  7

 75
    16
147
1.0
148
0.0
149
0.0
100
AcDbLayout
  1
Layout2
 70
     1
 71
     2
 10
0.0
 20
0.0
 11
0.0
 21
0.0
 12
0.0
 22
0.0
 32
0.0
 14
0.0
 24
0.0
 34
0.0
 15
0.0
 25
0.0
 35
0.0
146
0.0
 13
0.0
 23
0.0
 33
0.0
 16
1.0
 26
0.0
 36
0.0
 17
0.0
 27
1.0
 37
0.0
 76
     0
330
23
  0
LAYOUT
  5
22
102
{ACAD_REACTORS
330
1A
102
}
330
1A
100
AcDbPlotSettings
  1

  2
none_device
  4
ANSI_A_(11.00_x_8.50_Inches)
  6

 40
6.35
 41
19.05
 42
6.35000508
 43
19.05000254
 44
279.4
 45
215.9
 46
106.7889521580535
 47
99.09810663031205
 48
0.0
 49
0.0
140
0.0
141
0.0
142
0.0711206359935618
143
1.0
 70
  1696
 72
     0
 73
     0
 74
     0
  7

 75
     0
147
0.0235690232323232
148
0.0
149
0.0
100
AcDbLayout
  1
Model
 70
     1
 71
     0
 10
0.0
 20
0.0
 11
420.0
 21
297.0
 12
0.0
 22
0.0
 32
0.0
 14
-74.00077283782721
 24
-49.97073246008787
 34
0.0
 15
82.85089147959948
 25
49.9645
 35
0.0
146
0.0
 13
0.0
 23
0.0
 33
0.0
 16
1.0
 26
0.0
 36
0.0
 17
0.0
 27
1.0
 37
0.0
 76
     0
330
1F
331
29
  0
MLINESTYLE
  5
18
102
{ACAD_REACTORS
330
17
102
}
330
17
100
AcDbMlineStyle
  2
Standard
 70
     0
  3

 62
   256
 51
90.0
 52
90.0
 71
     2
 49
0.5
 62
   256
  6
BYLAYER
 49
-0.5
 62
   256
  6
BYLAYER
  0
ACDBPLACEHOLDER
  5
F
102
{ACAD_REACTORS
330
E
102
}
330
E
  0
SCALE
  5
48
102
{ACAD_REACTORS
330
47
102
}
330
47
100
AcDbScale
 70
     0
300
1:1
140
1.0
141
1.0
290
     1
  0
SCALE
  5
49
102
{ACAD_REACTORS
330
47
102
}
330
47
100
AcDbScale
 70
     0
300
1:2
140
1.0
141
2.0
290
     0
  0
SCALE
  5
4A
102
{ACAD_REACTORS
330
47
102
}
330
47
100
AcDbScale
 70
     0
300
1:4
140
1.0
141
4.0
290
     0
  0
SCALE
  5
4B
102
{ACAD_REACTORS
330
47
102
}
330
47
100
AcDbScale
 70
     0
300
1:5
140
1.0
141
5.0
290
     0
  0
SCALE
  5
4C
102
{ACAD_REACTORS
330
47
102
}
330
47
100
AcDbScale
 70
     0
300
1:8
140
1.0
141
8.0
290
     0
  0
SCALE
  5
4D
102
{ACAD_REACTORS
330
47
102
}
330
47
100
AcDbScale
 70
     0
300
1:10
140
1.0
141
10.0
290
     0
  0
SCALE
  5
4E
102
{ACAD_REACTORS
330
47
102
}
330
47
100
AcDbScale
 70
     0
300
1:16
140
1.0
141
16.0
290
     0
  0
SCALE
  5
4F
102
{ACAD_REACTORS
330
47
102
}
330
47
100
AcDbScale
 70
     0
300
1:20
140
1.0
141
20.0
290
     0
  0
SCALE
  5
50
102
{ACAD_REACTORS
330
47
102
}
330
47
100
AcDbScale
 70
     0
300
1:30
140
1.0
141
30.0
290
     0
  0
SCALE
  5
51
102
{ACAD_REACTORS
330
47
102
}
330
47
100
AcDbScale
 70
     0
300
1:40
140
1.0
141
40.0
290
     0
  0
SCALE
  5
52
102
{ACAD_REACTORS
330
47
102
}
330
47
100
AcDbScale
 70
     0
300
1:50
140
1.0
141
50.0
290
     0
  0
SCALE
  5
53
102
{ACAD_REACTORS
330
47
102
}
330
47
100
AcDbScale
 70
     0
300
1:100
140
1.0
141
100.0
290
     0
  0
SCALE
  5
54
102
{ACAD_REACTORS
330
47
102
}
330
47
100
AcDbScale
 70
     0
300
2:1
140
2.0
141
1.0
290
     0
  0
SCALE
  5
55
102
{ACAD_REACTORS
330
47
102
}
330
47
100
AcDbScale
 70
     0
300
4:1
140
4.0
141
1.0
290
     0
  0
SCALE
  5
56
102
{ACAD_REACTORS
330
47
102
}
330
47
100
AcDbScale
 70
     0
300
8:1
140
8.0
141
1.0
290
     0
  0
SCALE
  5
57
102
{ACAD_REACTORS
330
47
102
}
330
47
100
AcDbScale
 70
     0
300
10:1
140
10.0
141
1.0
290
     0
  0
SCALE
  5
58
102
{ACAD_REACTORS
330
47
102
}
330
47
100
AcDbScale
 70
     0
300
100:1
140
100.0
141
1.0
290
     0
  0
SCALE
  5
59
102
{ACAD_REACTORS
330
47
102
}
330
47
100
AcDbScale
 70
     0
300
1/128" = 1'-0"
140
0.0078125
141
12.0
290
     0
  0
SCALE
  5
5A
102
{ACAD_REACTORS
330
47
102
}
330
47
100
AcDbScale
 70
     0
300
1/64" = 1'-0"
140
0.015625
141
12.0
290
     0
  0
SCALE
  5
5B
102
{ACAD_REACTORS
330
47
102
}
330
47
100
AcDbScale
 70
     0
300
1/32" = 1'-0"
140
0.03125
141
12.0
290
     0
  0
SCALE
  5
5C
102
{ACAD_REACTORS
330
47
102
}
330
47
100
AcDbScale
 70
     0
300
1/16" = 1'-0"
140
0.0625
141
12.0
290
     0
  0
SCALE
  5
5D
102
{ACAD_REACTORS
330
47
102
}
330
47
100
AcDbScale
 70
     0
300
3/32" = 1'-0"
140
0.09375
141
12.0
290
     0
  0
SCALE
  5
5E
102
{ACAD_REACTORS
330
47
102
}
330
47
100
AcDbScale
 70
     0
300
1/8" = 1'-0"
140
0.125
141
12.0
290
     0
  0
SCALE
  5
5F
102
{ACAD_REACTORS
330
47
102
}
330
47
100
AcDbScale
 70
     0
300
3/16" = 1'-0"
140
0.1875
141
12.0
290
     0
  0
SCALE
  5
60
102
{ACAD_REACTORS
330
47
102
}
330
47
100
AcDbScale
 70
     0
300
1/4" = 1'-0"
140
0.25
141
12.0
290
     0
  0
SCALE
  5
61
102
{ACAD_REACTORS
330
47
102
}
330
47
100
AcDbScale
 70
     0
300
3/8" = 1'-0"
140
0.375
141
12.0
290
     0
  0
SCALE
  5
62
102
{ACAD_REACTORS
330
47
102
}
330
47
100
AcDbScale
 70
     0
300
1/2" = 1'-0"
140
0.5
141
12.0
290
     0
  0
SCALE
  5
63
102
{ACAD_REACTORS
330
47
102
}
330
47
100
AcDbScale
 70
     0
300
3/4" = 1'-0"
140
0.75
141
12.0
290
     0
  0
SCALE
  5
64
102
{ACAD_REACTORS
330
47
102
}
330
47
100
AcDbScale
 70
     0
300
1" = 1'-0"
140
1.0
141
12.0
290
     0
  0
SCALE
  5
65
102
{ACAD_REACTORS
330
47
102
}
330
47
100
AcDbScale
 70
     0
300
1-1/2" = 1'-0"
140
1.5
141
12.0
290
     0
  0
SCALE
  5
66
102
{ACAD_REACTORS
330
47
102
}
330
47
100
AcDbScale
 70
     0
300
3" = 1'-0"
140
3.0
141
12.0
290
     0
  0
SCALE
  5
67
102
{ACAD_REACTORS
330
47
102
}
330
47
100
AcDbScale
 70
     0
300
6" = 1'-0"
140
6.0
141
12.0
290
     0
  0
SCALE
  5
68
102
{ACAD_REACTORS
330
47
102
}
330
47
100
AcDbScale
 70
     0
300
1'-0" = 1'-0"
140
12.0
141
12.0
290
     0
  0
ENDSEC
  0
EOF
