  0
SECTION
  2
HEADER
  9
$ACADVER
  1
AC1015
  9
$ACADMAINTVER
 70
     6
  9
$DWGCODEPAGE
  3
ANSI_949
  9
$INSBASE
 10
0.0
 20
0.0
 30
0.0
  9
$EXTMIN
 10
-54.96764783782725
 20
-49.97180738881174
 30
0.0
  9
$EXTMAX
 10
83.62285881534558
 20
39.88012500000001
 30
0.0
  9
$LIMMIN
 10
0.0
 20
0.0
  9
$LIMMAX
 10
420.0
 20
297.0
  9
$ORTHOMODE
 70
     1
  9
$REGENMODE
 70
     1
  9
$FILLMODE
 70
     1
  9
$QTEXTMODE
 70
     0
  9
$MIRRTEXT
 70
     1
  9
$LTSCALE
 40
1.0
  9
$ATTMODE
 70
     1
  9
$TEXTSIZE
 40
3.5
  9
$TRACEWID
 40
1.0
  9
$TEXTSTYLE
  7
Standard
  9
$CLAYER
  8
0
  9
$CELTYPE
  6
ByLayer
  9
$CECOLOR
 62
   256
  9
$CELTSCALE
 40
1.0
  9
$DISPSILH
 70
     0
  9
$DIMSCALE
 40
1.0
  9
$DIMASZ
 40
3.302
  9
$DIMEXO
 40
1.0
  9
$DIMDLI
 40
3.75
  9
$DIMRND
 40
0.0
  9
$DIMDLE
 40
0.0
  9
$DIMEXE
 40
1.0
  9
$DIMTP
 40
0.0
  9
$DIMTM
 40
0.0
  9
$DIMTXT
 40
3.5
  9
$DIMCEN
 40
2.5
  9
$DIMTSZ
 40
0.0
  9
$DIMTOL
 70
     0
  9
$DIMLIM
 70
     0
  9
$DIMTIH
 70
     1
  9
$DIMTOH
 70
     1
  9
$DIMSE1
 70
     0
  9
$DIMSE2
 70
     0
  9
$DIMTAD
 70
     1
  9
$DIMZIN
 70
     0
  9
$DIMBLK
  1

  9
$DIMASO
 70
     1
  9
$DIMSHO
 70
     1
  9
$DIMPOST
  1

  9
$DIMAPOST
  1

  9
$DIMALT
 70
     0
  9
$DIMALTD
 70
     3
  9
$DIMALTF
 40
0.0393700787401575
  9
$DIMLFAC
 40
1.0
  9
$DIMTOFL
 70
     1
  9
$DIMTVP
 40
0.0
  9
$DIMTIX
 70
     0
  9
$DIMSOXD
 70
     0
  9
$DIMSAH
 70
     0
  9
$DIMBLK1
  1

  9
$DIMBLK2
  1

  9
$DIMSTYLE
  2
ISO-25
  9
$DIMCLRD
 70
     0
  9
$DIMCLRE
 70
     0
  9
$DIMCLRT
 70
     0
  9
$DIMTFAC
 40
1.0
  9
$DIMGAP
 40
1.524
  9
$DIMJUST
 70
     0
  9
$DIMSD1
 70
     0
  9
$DIMSD2
 70
     0
  9
$DIMTOLJ
 70
     0
  9
$DIMTZIN
 70
     0
  9
$DIMALTZ
 70
     0
  9
$DIMALTTZ
 70
     0
  9
$DIMUPT
 70
     0
  9
$DIMDEC
 70
     2
  9
$DIMTDEC
 70
     2
  9
$DIMALTU
 70
     2
  9
$DIMALTTD
 70
     3
  9
$DIMTXSTY
  7
Standard
  9
$DIMAUNIT
 70
     0
  9
$DIMADEC
 70
     2
  9
$DIMALTRND
 40
0.0
  9
$DIMAZIN
 70
     0
  9
$DIMDSEP
 70
    44
  9
$DIMATFIT
 70
     3
  9
$DIMFRAC
 70
     0
  9
$DIMLDRBLK
  1

  9
$DIMLUNIT
 70
     2
  9
$DIMLWD
 70
    -2
  9
$DIMLWE
 70
    -2
  9
$DIMTMOVE
 70
     0
  9
$LUNITS
 70
     2
  9
$LUPREC
 70
     2
  9
$SKETCHINC
 40
1.0
  9
$FILLETRAD
 40
10.0
  9
$AUNITS
 70
     0
  9
$AUPREC
 70
     2
  9
$MENU
  1
.
  9
$ELEVATION
 40
0.0
  9
$PELEVATION
 40
0.0
  9
$THICKNESS
 40
0.0
  9
$LIMCHECK
 70
     0
  9
$CHAMFERA
 40
0.0
  9
$CHAMFERB
 40
0.0
  9
$CHAMFERC
 40
0.0
  9
$CHAMFERD
 40
0.0
  9
$SKPOLY
 70
     0
  9
$TDCREATE
 40
2458312.756056412
  9
$TDUCREATE
 40
2458312.381056412
  9
$TDUPDATE
 40
2458319.664514248
  9
$TDUUPDATE
 40
2458319.289514248
  9
$TDINDWG
 40
0.0001310301
  9
$TDUSRTIMER
 40
2458319.289478391
  9
$USRTIMER
 70
     1
  9
$ANGBASE
 50
0.0
  9
$ANGDIR
 70
     0
  9
$PDMODE
 70
     0
  9
$PDSIZE
 40
-1.0
  9
$PLINEWID
 40
0.0
  9
$SPLFRAME
 70
     0
  9
$SPLINETYPE
 70
     6
  9
$SPLINESEGS
 70
     8
  9
$HANDSEED
  5
373
  9
$SURFTAB1
 70
     6
  9
$SURFTAB2
 70
     6
  9
$SURFTYPE
 70
     6
  9
$SURFU
 70
     6
  9
$SURFV
 70
     6
  9
$UCSBASE
  2

  9
$UCSNAME
  2

  9
$UCSORG
 10
0.0
 20
0.0
 30
0.0
  9
$UCSXDIR
 10
1.0
 20
0.0
 30
0.0
  9
$UCSYDIR
 10
0.0
 20
1.0
 30
0.0
  9
$UCSORTHOREF
  2

  9
$UCSORTHOVIEW
 70
     0
  9
$UCSORGTOP
 10
0.0
 20
0.0
 30
0.0
  9
$UCSORGBOTTOM
 10
0.0
 20
0.0
 30
0.0
  9
$UCSORGLEFT
 10
0.0
 20
0.0
 30
0.0
  9
$UCSORGRIGHT
 10
0.0
 20
0.0
 30
0.0
  9
$UCSORGFRONT
 10
0.0
 20
0.0
 30
0.0
  9
$UCSORGBACK
 10
0.0
 20
0.0
 30
0.0
  9
$PUCSBASE
  2

  9
$PUCSNAME
  2

  9
$PUCSORG
 10
0.0
 20
0.0
 30
0.0
  9
$PUCSXDIR
 10
1.0
 20
0.0
 30
0.0
  9
$PUCSYDIR
 10
0.0
 20
1.0
 30
0.0
  9
$PUCSORTHOREF
  2

  9
$PUCSORTHOVIEW
 70
     0
  9
$PUCSORGTOP
 10
0.0
 20
0.0
 30
0.0
  9
$PUCSORGBOTTOM
 10
0.0
 20
0.0
 30
0.0
  9
$PUCSORGLEFT
 10
0.0
 20
0.0
 30
0.0
  9
$PUCSORGRIGHT
 10
0.0
 20
0.0
 30
0.0
  9
$PUCSORGFRONT
 10
0.0
 20
0.0
 30
0.0
  9
$PUCSORGBACK
 10
0.0
 20
0.0
 30
0.0
  9
$USERI1
 70
     0
  9
$USERI2
 70
     0
  9
$USERI3
 70
     0
  9
$USERI4
 70
     0
  9
$USERI5
 70
     0
  9
$USERR1
 40
0.0
  9
$USERR2
 40
0.0
  9
$USERR3
 40
0.0
  9
$USERR4
 40
0.0
  9
$USERR5
 40
0.0
  9
$WORLDVIEW
 70
     1
  9
$SHADEDGE
 70
     3
  9
$SHADEDIF
 70
    70
  9
$TILEMODE
 70
     1
  9
$MAXACTVP
 70
    64
  9
$PINSBASE
 10
0.0
 20
0.0
 30
0.0
  9
$PLIMCHECK
 70
     0
  9
$PEXTMIN
 10
1.000000000000000E+20
 20
1.000000000000000E+20
 30
1.000000000000000E+20
  9
$PEXTMAX
 10
-1.000000000000000E+20
 20
-1.000000000000000E+20
 30
-1.000000000000000E+20
  9
$PLIMMIN
 10
0.0
 20
0.0
  9
$PLIMMAX
 10
0.0
 20
0.0
  9
$UNITMODE
 70
     0
  9
$VISRETAIN
 70
     1
  9
$PLINEGEN
 70
     0
  9
$PSLTSCALE
 70
     1
  9
$TREEDEPTH
 70
  3020
  9
$CMLSTYLE
  2
Standard
  9
$CMLJUST
 70
     0
  9
$CMLSCALE
 40
20.0
  9
$PROXYGRAPHICS
 70
     1
  9
$MEASUREMENT
 70
     1
  9
$CELWEIGHT
370
    -1
  9
$ENDCAPS
280
     0
  9
$JOINSTYLE
280
     0
  9
$LWDISPLAY
290
     1
  9
$INSUNITS
 70
     4
  9
$HYPERLINKBASE
  1

  9
$STYLESHEET
  1

  9
$XEDIT
290
     1
  9
$CEPSNTYPE
380
     0
  9
$PSTYLEMODE
290
     1
  9
$FINGERPRINTGUID
  2
{D7DA541F-AFDC-485A-BE6D-58A0CCB7150C}
  9
$VERSIONGUID
  2
{FAEB1C32-E019-11D5-929B-00C0DF256EC4}
  9
$EXTNAMES
290
     1
  9
$PSVPSCALE
 40
0.0
  9
$OLESTARTUP
290
     0
  0
ENDSEC
  0
SECTION
  2
CLASSES
  0
CLASS
  1
ACDBDICTIONARYWDFLT
  2
AcDbDictionaryWithDefault
  3
ObjectDBX Classes
 90
        0
280
     0
281
     0
  0
CLASS
  1
VISUALSTYLE
  2
AcDbVisualStyle
  3
ObjectDBX Classes
 90
     4095
280
     0
281
     0
  0
CLASS
  1
MATERIAL
  2
AcDbMaterial
  3
ObjectDBX Classes
 90
     1153
280
     0
281
     0
  0
CLASS
  1
SCALE
  2
AcDbScale
  3
ObjectDBX Classes
 90
     1153
280
     0
281
     0
  0
CLASS
  1
SUN
  2
AcDbSun
  3
SCENEOE
 90
     1153
280
     0
281
     0
  0
CLASS
  1
ACDBPLACEHOLDER
  2
AcDbPlaceHolder
  3
ObjectDBX Classes
 90
        0
280
     0
281
     0
  0
CLASS
  1
LAYOUT
  2
AcDbLayout
  3
ObjectDBX Classes
 90
        0
280
     0
281
     0
  0
CLASS
  1
TABLESTYLE
  2
AcDbTableStyle
  3
ObjectDBX Classes
 90
     4095
280
     0
281
     0
  0
CLASS
  1
MLEADERSTYLE
  2
AcDbMLeaderStyle
  3
ACDB_MLEADERSTYLE_CLASS
 90
     4095
280
     0
281
     0
  0
CLASS
  1
RASTERVARIABLES
  2
AcDbRasterVariables
  3
ISM
 90
        0
280
     0
281
     0
  0
CLASS
  1
DIMASSOC
  2
AcDbDimAssoc
  3
"AcDbDimAssoc|Product Desc:     AcDim ARX App For Dimension|Company:          Autodesk, Inc.|WEB Address:      www.autodesk.com"
 90
        0
280
     0
281
     0
  0
ENDSEC
  0
SECTION
  2
TABLES
  0
TABLE
  2
VPORT
  5
8
330
0
100
AcDbSymbolTable
 70
     1
  0
VPORT
  5
29
330
8
100
AcDbSymbolTableRecord
100
AcDbViewportTableRecord
  2
*Active
 70
     0
 10
0.0
 20
0.0
 11
1.0
 21
1.0
 12
-31.15461084628342
 22
-39.10777123595352
 13
0.0
 23
0.0
 14
10.0
 24
10.0
 15
10.0
 25
10.0
 16
0.0
 26
0.0
 36
1.0
 17
0.0
 27
0.0
 37
0.0
 40
179.5771275430644
 41
1.67311411992263
 42
50.0
 43
0.0
 44
0.0
 50
0.0
 51
0.0
 71
    16
 72
  2000
 73
     1
 74
     3
 75
     0
 76
     0
 77
     0
 78
     0
281
     0
 65
     1
110
0.0
120
0.0
130
0.0
111
1.0
121
0.0
131
0.0
112
0.0
122
1.0
132
0.0
 79
     0
146
0.0
  0
ENDTAB
  0
TABLE
  2
LTYPE
  5
5
330
0
100
AcDbSymbolTable
 70
     6
  0
LTYPE
  5
14
330
5
100
AcDbSymbolTableRecord
100
AcDbLinetypeTableRecord
  2
ByBlock
 70
     0
  3

 72
    65
 73
     0
 40
0.0
  0
LTYPE
  5
15
330
5
100
AcDbSymbolTableRecord
100
AcDbLinetypeTableRecord
  2
ByLayer
 70
     0
  3

 72
    65
 73
     0
 40
0.0
  0
LTYPE
  5
16
330
5
100
AcDbSymbolTableRecord
100
AcDbLinetypeTableRecord
  2
Continuous
 70
     0
  3
Solid line
 72
    65
 73
     0
 40
0.0
  0
LTYPE
  5
6A
330
5
100
AcDbSymbolTableRecord
100
AcDbLinetypeTableRecord
  2
HIDDEN
 70
     0
  3
Hidden __ __ __ __ __ __ __ __ __ __ __ __ __ __
 72
    65
 73
     2
 40
1.905
 49
1.27
 74
     0
 49
-0.635
 74
     0
  0
LTYPE
  5
6B
330
5
100
AcDbSymbolTableRecord
100
AcDbLinetypeTableRecord
  2
PHANTOM
 70
     0
  3
Phantom ______  __  __  ______  __  __  ______
 72
    65
 73
     6
 40
12.7
 49
6.35
 74
     0
 49
-1.27
 74
     0
 49
1.27
 74
     0
 49
-1.27
 74
     0
 49
1.27
 74
     0
 49
-1.27
 74
     0
  0
LTYPE
  5
6C
330
5
100
AcDbSymbolTableRecord
100
AcDbLinetypeTableRecord
  2
CENTER
 70
     0
  3
Center ____ _ ____ _ ____ _ ____ _ ____ _ ____
 72
    65
 73
     4
 40
10.16
 49
6.35
 74
     0
 49
-1.27
 74
     0
 49
1.27
 74
     0
 49
-1.27
 74
     0
  0
LTYPE
  5
6D
330
5
100
AcDbSymbolTableRecord
100
AcDbLinetypeTableRecord
  2
CENTERX2
 70
     0
  3
Center (2x) ________  __  ________  __  _____
 72
    65
 73
     4
 40
20.32
 49
12.7
 74
     0
 49
-2.54
 74
     0
 49
2.54
 74
     0
 49
-2.54
 74
     0
  0
LTYPE
  5
6E
330
5
100
AcDbSymbolTableRecord
100
AcDbLinetypeTableRecord
  2
DOT2
 70
     0
  3
Dot (.5x) ........................................
 72
    65
 73
     2
 40
0.635
 49
0.0
 74
     0
 49
-0.635
 74
     0
  0
ENDTAB
  0
TABLE
  2
LAYER
  5
2
102
{ACAD_XDICTIONARY
360
33B
102
}
330
0
100
AcDbSymbolTable
 70
    18
  0
LAYER
  5
10
330
2
100
AcDbSymbolTableRecord
100
AcDbLayerTableRecord
  2
0
 70
     0
 62
     7
  6
Continuous
370
    -3
390
F
  0
LAYER
  5
6F
330
2
100
AcDbSymbolTableRecord
100
AcDbLayerTableRecord
  2
FORMAT
 70
     0
 62
     2
  6
Continuous
370
    -3
390
F
  0
LAYER
  5
70
330
2
100
AcDbSymbolTableRecord
100
AcDbLayerTableRecord
  2
외형선
 70
     0
 62
     4
  6
Continuous
370
    30
390
F
  0
LAYER
  5
71
330
2
100
AcDbSymbolTableRecord
100
AcDbLayerTableRecord
  2
숨은선
 70
     0
 62
     2
  6
HIDDEN
370
    15
390
F
  0
LAYER
  5
72
330
2
100
AcDbSymbolTableRecord
100
AcDbLayerTableRecord
  2
중심선
 70
     0
 62
     1
  6
CENTERX2
370
    -3
390
F
  0
LAYER
  5
73
330
2
100
AcDbSymbolTableRecord
100
AcDbLayerTableRecord
  2
파단선
 70
     0
 62
     4
  6
Continuous
370
    -3
390
F
  0
LAYER
  5
74
330
2
100
AcDbSymbolTableRecord
100
AcDbLayerTableRecord
  2
해칭선
 70
     0
 62
   100
  6
Continuous
370
    -3
390
F
  0
LAYER
  5
75
330
2
100
AcDbSymbolTableRecord
100
AcDbLayerTableRecord
  2
가는실선
 70
     0
 62
     4
  6
Continuous
370
    -3
390
F
  0
LAYER
  5
76
330
2
100
AcDbSymbolTableRecord
100
AcDbLayerTableRecord
  2
치수_보조선
 70
     0
 62
     4
  6
Continuous
370
    -3
390
F
  0
LAYER
  5
77
330
2
100
AcDbSymbolTableRecord
100
AcDbLayerTableRecord
  2
치수문자_일반주서
 70
     0
 62
     7
  6
Continuous
370
    15
390
F
  0
LAYER
  5
78
330
2
100
AcDbSymbolTableRecord
100
AcDbLayerTableRecord
  2
개별주서
 70
     0
 62
   100
  6
Continuous
370
    30
390
F
  0
LAYER
  5
79
330
2
100
AcDbSymbolTableRecord
100
AcDbLayerTableRecord
  2
중간선
 70
     0
 62
     2
  6
Continuous
370
    15
390
F
  0
LAYER
  5
7A
330
2
100
AcDbSymbolTableRecord
100
AcDbLayerTableRecord
  2
윤곽선
 70
     0
 62
     3
  6
Continuous
370
    40
390
F
  0
LAYER
  5
7B
330
2
100
AcDbSymbolTableRecord
100
AcDbLayerTableRecord
  2
중심마크
 70
     0
 62
   100
  6
Continuous
370
    30
390
F
  0
LAYER
  5
7C
330
2
100
AcDbSymbolTableRecord
100
AcDbLayerTableRecord
  2
가상선
 70
     0
 62
     4
  6
PHANTOM
370
    -3
390
F
  0
LAYER
  5
7D
330
2
100
AcDbSymbolTableRecord
100
AcDbLayerTableRecord
  2
특수지정선
 70
     0
 62
     5
  6
CENTERX2
370
    60
390
F
  0
LAYER
  5
7E
330
2
100
AcDbSymbolTableRecord
100
AcDbLayerTableRecord
  2
참조1
 70
     0
 62
    -4
  6
Continuous
370
    -3
390
F
  0
LAYER
  5
134
330
2
100
AcDbSymbolTableRecord
100
AcDbLayerTableRecord
  2
Defpoints
 70
     0
 62
     7
  6
Continuous
290
     0
370
    -3
390
F
  0
ENDTAB
  0
TABLE
  2
STYLE
  5
3
330
0
100
AcDbSymbolTable
 70
     2
  0
STYLE
  5
11
330
3
100
AcDbSymbolTableRecord
100
AcDbTextStyleTableRecord
  2
Standard
 70
     0
 40
0.0
 41
1.0
 50
0.0
 71
     0
 42
3.5
  3
txt
  4

  0
STYLE
  5
94
330
3
100
AcDbSymbolTableRecord
100
AcDbTextStyleTableRecord
  2
SLDTEXTSTYLE0
 70
     0
 40
0.0
 41
0.75
 50
0.0
 71
     0
 42
3.5
  3
TXT
  4

  0
ENDTAB
  0
TABLE
  2
VIEW
  5
6
330
0
100
AcDbSymbolTable
 70
     0
  0
ENDTAB
  0
TABLE
  2
UCS
  5
7
330
0
100
AcDbSymbolTable
 70
     0
  0
ENDTAB
  0
TABLE
  2
APPID
  5
9
330
0
100
AcDbSymbolTable
 70
     2
  0
APPID
  5
12
330
9
100
AcDbSymbolTableRecord
100
AcDbRegAppTableRecord
  2
ACAD
 70
     0
  0
APPID
  5
302
330
9
100
AcDbSymbolTableRecord
100
AcDbRegAppTableRecord
  2
PE_DIMMEASUREMENT
 70
     0
  0
ENDTAB
  0
TABLE
  2
DIMSTYLE
  5
A
330
0
100
AcDbSymbolTable
 70
     3
100
AcDbDimStyleTable
  0
DIMSTYLE
105
27
330
A
100
AcDbSymbolTableRecord
100
AcDbDimStyleTableRecord
  2
ISO-25
 70
     0
 41
2.5
 42
0.625
 43
3.75
 44
1.25
 73
     0
 74
     0
 77
     1
 78
     8
140
2.5
141
2.5
143
0.03937007874016
147
0.625
171
     3
172
     1
178
     0
271
     2
272
     2
274
     3
278
    44
283
     0
284
     8
340
11
  0
DIMSTYLE
105
B4
102
{ACAD_REACTORS
330
218
330
219
330
2F1
102
}
330
A
100
AcDbSymbolTableRecord
100
AcDbDimStyleTableRecord
  2
SLDDIMSTYLE0
 70
     0
 41
3.302
 44
0.0
 45
0.000000001
 73
     0
 74
     0
 77
     1
 78
    12
 79
     3
140
3.5
143
0.0393700787401575
147
0.875
148
0.000000001
170
     1
173
     1
178
     0
271
     2
272
     2
276
     2
284
    12
340
94
  0
DIMSTYLE
105
EE
102
{ACAD_REACTORS
330
21A
102
}
330
A
100
AcDbSymbolTableRecord
100
AcDbDimStyleTableRecord
  2
SLDDIMSTYLE1
 70
     0
 41
3.302
 44
0.0
 45
0.000000001
 73
     0
 74
     0
 77
     1
 78
     4
 79
     1
140
3.5
143
0.0393700787401575
147
0.875
148
0.000000001
170
     1
172
     1
173
     1
178
     0
271
     2
272
     2
276
     2
284
    12
289
     0
340
94
  0
ENDTAB
  0
TABLE
  2
BLOCK_RECORD
  5
1
330
0
100
AcDbSymbolTable
 70
    17
  0
BLOCK_RECORD
  5
1F
330
1
100
AcDbSymbolTableRecord
100
AcDbBlockTableRecord
  2
*Model_Space
340
22
  0
BLOCK_RECORD
  5
1B
330
1
100
AcDbSymbolTableRecord
100
AcDbBlockTableRecord
  2
*Paper_Space
340
1E
  0
BLOCK_RECORD
  5
23
330
1
100
AcDbSymbolTableRecord
100
AcDbBlockTableRecord
  2
*Paper_Space0
340
26
  0
BLOCK_RECORD
  5
7F
330
1
100
AcDbSymbolTableRecord
100
AcDbBlockTableRecord
  2
블럭10
340
0
102
{BLKREFS
331
AC
102
}
  0
BLOCK_RECORD
  5
B5
330
1
100
AcDbSymbolTableRecord
100
AcDbBlockTableRecord
  2
_D
340
0
  0
BLOCK_RECORD
  5
C8
330
1
100
AcDbSymbolTableRecord
100
AcDbBlockTableRecord
  2
_D_1
340
0
  0
BLOCK_RECORD
  5
DB
330
1
100
AcDbSymbolTableRecord
100
AcDbBlockTableRecord
  2
_D_2
340
0
  0
BLOCK_RECORD
  5
EF
330
1
100
AcDbSymbolTableRecord
100
AcDbBlockTableRecord
  2
_D_3
340
0
  0
BLOCK_RECORD
  5
109
330
1
100
AcDbSymbolTableRecord
100
AcDbBlockTableRecord
  2
SW_DOWELSYMBOL_0
340
0
102
{BLKREFS
331
21B
102
}
  0
BLOCK_RECORD
  5
1C1
330
1
100
AcDbSymbolTableRecord
100
AcDbBlockTableRecord
  2
*D7
340
0
  0
BLOCK_RECORD
  5
1CD
330
1
100
AcDbSymbolTableRecord
100
AcDbBlockTableRecord
  2
*D8
340
0
  0
BLOCK_RECORD
  5
1D9
330
1
100
AcDbSymbolTableRecord
100
AcDbBlockTableRecord
  2
*D9
340
0
  0
BLOCK_RECORD
  5
21C
330
1
100
AcDbSymbolTableRecord
100
AcDbBlockTableRecord
  2
*D10
340
0
  0
BLOCK_RECORD
  5
228
330
1
100
AcDbSymbolTableRecord
100
AcDbBlockTableRecord
  2
*D11
340
0
  0
BLOCK_RECORD
  5
234
330
1
100
AcDbSymbolTableRecord
100
AcDbBlockTableRecord
  2
*D12
340
0
  0
BLOCK_RECORD
  5
2CC
330
1
100
AcDbSymbolTableRecord
100
AcDbBlockTableRecord
  2
*D13
340
0
  0
BLOCK_RECORD
  5
2D8
330
1
100
AcDbSymbolTableRecord
100
AcDbBlockTableRecord
  2
*D14
340
0
  0
BLOCK_RECORD
  5
2E4
330
1
100
AcDbSymbolTableRecord
100
AcDbBlockTableRecord
  2
*D15
340
0
  0
BLOCK_RECORD
  5
2F4
330
1
100
AcDbSymbolTableRecord
100
AcDbBlockTableRecord
  2
*D16
340
0
  0
ENDTAB
  0
ENDSEC
  0
SECTION
  2
BLOCKS
  0
BLOCK
  5
20
330
1F
100
AcDbEntity
  8
0
100
AcDbBlockBegin
  2
*Model_Space
 70
     0
 10
0.0
 20
0.0
 30
0.0
  3
*Model_Space
  1
*Model_Space
  0
ENDBLK
  5
21
330
1F
100
AcDbEntity
  8
0
100
AcDbBlockEnd
  0
BLOCK
  5
1C
330
1B
100
AcDbEntity
 67
     1
  8
0
100
AcDbBlockBegin
  2
*Paper_Space
 70
     0
 10
0.0
 20
0.0
 30
0.0
  3
*Paper_Space
  1
*Paper_Space
  0
ENDBLK
  5
1D
330
1B
100
AcDbEntity
 67
     1
  8
0
100
AcDbBlockEnd
  0
BLOCK
  5
24
330
23
100
AcDbEntity
  8
0
100
AcDbBlockBegin
  2
*Paper_Space0
 70
     0
 10
0.0
 20
0.0
 30
0.0
  3
*Paper_Space0
  1
*Paper_Space0
  0
ENDBLK
  5
25
330
23
100
AcDbEntity
  8
0
100
AcDbBlockEnd
  0
BLOCK
  5
80
330
7F
100
AcDbEntity
  8
0
100
AcDbBlockBegin
  2
블럭10
 70
     2
 10
0.0
 20
0.0
 30
0.0
  3
블럭10
  1
블럭10
  0
ELLIPSE
  5
82
330
7F
100
AcDbEntity
  8
중심선
100
AcDbEllipse
 10
20.54032771741204
 20
12.0471743016438
 30
0.0
 11
6.600054785286829
 21
-1.261213355974178E-13
 31
0.0
210
0.0
220
0.0
230
1.0
 40
0.636358354079598
 41
0.9219305317359503
 42
6.513795318482858
  0
ELLIPSE
  5
83
330
7F
100
AcDbEntity
  8
중심선
100
AcDbEllipse
 10
20.54032771746488
 20
12.04717430159265
 30
0.0
 11
3.960054785062283
 21
1.540847449632565E-10
 31
0.0
210
0.0
220
0.0
230
1.0
 40
0.3939339440162632
 41
1.131841032648279
 42
5.62031148352944
  0
LINE
  5
84
330
7F
100
AcDbEntity
  8
중심선
100
AcDbLine
 10
2.268634060543552
 20
16.24717430164393
 30
0.0
 11
5.714909304380834
 21
16.24717430164393
 31
0.0
  0
LINE
  5
85
330
7F
100
AcDbEntity
  8
중심선
100
AcDbLine
 10
5.245725140726316
 20
7.84717430164391
 30
0.0
 11
8.692000384563599
 21
7.84717430164391
 31
0.0
  0
LINE
  5
86
330
7F
100
AcDbEntity
  8
중심선
100
AcDbLine
 10
15.74043728645272
 20
16.24717430164393
 30
0.0
 11
8.692000384563599
 21
7.84717430164391
 31
0.0
  0
LINE
  5
87
330
7F
100
AcDbEntity
  8
중심선
100
AcDbLine
 10
0.1404042013395286
 20
13.71084872107135
 30
0.0
 11
3.58671253028996
 21
13.71088815037384
 31
0.0
  0
LINE
  5
88
330
7F
100
AcDbEntity
  8
중심선
100
AcDbLine
 10
2.750260043222114
 20
10.84717430164391
 30
0.0
 11
6.196535287059397
 21
10.84717430164391
 31
0.0
  0
LINE
  5
89
330
7F
100
AcDbEntity
  8
중심선
100
AcDbLine
 10
12.29416204261559
 20
16.24717430164393
 30
0.0
 11
5.245725140726316
 21
7.84717430164391
 31
0.0
  0
LINE
  5
8A
330
7F
100
AcDbEntity
  8
중심선
100
AcDbLine
 10
10.72767329541681
 20
16.24717430164393
 30
0.0
 11
6.196535287059397
 21
10.84717430164391
 31
0.0
  0
LINE
  5
8B
330
7F
100
AcDbEntity
  8
중심선
100
AcDbLine
 10
7.28139805157953
 20
16.24717430164393
 30
0.0
 11
2.750260043222114
 21
10.84717430164391
 31
0.0
  0
LINE
  5
8C
330
7F
100
AcDbEntity
  8
중심선
100
AcDbLine
 10
5.714909304380834
 20
16.24717430164393
 30
0.0
 11
3.58671253028996
 21
13.71088815037384
 31
0.0
  0
LINE
  5
8D
330
7F
100
AcDbEntity
  8
중심선
100
AcDbLine
 10
2.268634060543552
 20
16.24717430164393
 30
0.0
 11
0.1404042013395286
 21
13.71084872107135
 31
0.0
  0
LINE
  5
8E
330
7F
100
AcDbEntity
  8
중심선
100
AcDbLine
 10
7.28139805157953
 20
16.24717430164393
 30
0.0
 11
10.72767329541681
 21
16.24717430164393
 31
0.0
  0
LINE
  5
8F
330
7F
100
AcDbEntity
  8
중심선
100
AcDbLine
 10
12.29416204261559
 20
16.24717430164393
 30
0.0
 11
15.74043728645272
 21
16.24717430164393
 31
0.0
  0
LINE
  5
90
330
7F
100
AcDbEntity
  8
중심선
100
AcDbLine
 10
19.22036997980202
 20
11.08717430171403
 30
0.0
 11
23.66174974927406
 21
11.08717430171406
 31
0.0
  0
LINE
  5
91
330
7F
100
AcDbEntity
  8
중심선
100
AcDbLine
 10
19.22039502424796
 20
13.00717430171391
 30
0.0
 11
19.22036997980202
 21
11.08717430171403
 31
0.0
  0
LINE
  5
92
330
7F
100
AcDbEntity
  8
중심선
100
AcDbLine
 10
19.22039502424796
 20
13.00717430171391
 30
0.0
 11
26.96566020931264
 21
13.00717430171391
 31
0.0
  0
LINE
  5
93
330
7F
100
AcDbEntity
  8
중심선
100
AcDbLine
 10
22.22332737316547
 20
13.45928029700563
 30
0.0
 11
24.52862924686651
 21
15.39360700705356
 31
0.0
  0
ATTDEF
  5
95
330
7F
100
AcDbEntity
  8
FORMAT
 62
     2
100
AcDbText
 10
4.408487351596664
 20
2.075366912832191
 30
0.0
 40
4.233333333333333
  1
E2039902
 41
0.75
  7
SLDTEXTSTYLE0
 11
4.408487351596664
 21
-0.0412997538344756
 31
0.0
100
AcDbAttributeDefinition
  3

  2
AUTOATTR0
 70
     0
 74
     1
  0
ENDBLK
  5
81
330
7F
100
AcDbEntity
  8
0
100
AcDbBlockEnd
  0
BLOCK
  5
B6
330
B5
100
AcDbEntity
  8
0
100
AcDbBlockBegin
  2
_D
 70
     0
 10
0.0
 20
0.0
 30
0.0
  3
_D
  1
_D
  0
SOLID
  5
B8
330
B5
100
AcDbEntity
  8
치수문자_일반주서
100
AcDbTrace
 10
56.67052760992014
 20
5.218258589704694
 30
0.0
 11
56.16252760992013
 21
1.916258589704695
 31
0.0
 12
57.17852760992014
 22
1.916258589704695
 32
0.0
 13
57.17852760992014
 23
1.916258589704695
 33
0.0
  0
SOLID
  5
B9
330
B5
100
AcDbEntity
  8
치수문자_일반주서
100
AcDbTrace
 10
56.67052760992014
 20
-5.100491410295311
 30
0.0
 11
57.17852760992014
 21
-1.798491410295311
 31
0.0
 12
56.16252760992013
 22
-1.798491410295311
 32
0.0
 13
56.16252760992013
 23
-1.798491410295311
 33
0.0
  0
LINE
  5
BA
330
B5
100
AcDbEntity
  8
치수문자_일반주서
100
AcDbLine
 10
45.87764589387741
 20
10.23472747827019
 30
0.0
 11
45.87764589387741
 21
9.52378999270569
 31
0.0
  0
LINE
  5
BB
330
B5
100
AcDbEntity
  8
치수문자_일반주서
100
AcDbLine
 10
45.87764589387741
 20
9.52378999270569
 30
0.0
 11
51.43389588493672
 21
9.523789992705732
 31
0.0
  0
LINE
  5
BC
330
B5
100
AcDbEntity
  8
치수문자_일반주서
100
AcDbLine
 10
51.43389588493672
 20
9.523789992705732
 30
0.0
 11
51.43389588493671
 21
10.23472747827023
 31
0.0
  0
LINE
  5
BD
330
B5
100
AcDbEntity
  8
치수문자_일반주서
100
AcDbLine
 10
45.87764589387734
 20
21.06346034040745
 30
0.0
 11
45.87764589387733
 21
21.77439782597195
 31
0.0
  0
LINE
  5
BE
330
B5
100
AcDbEntity
  8
치수문자_일반주서
100
AcDbLine
 10
45.87764589387733
 20
21.77439782597195
 30
0.0
 11
51.43389588493663
 21
21.77439782597199
 31
0.0
  0
LINE
  5
BF
330
B5
100
AcDbEntity
  8
치수문자_일반주서
100
AcDbLine
 10
51.43389588493663
 20
21.77439782597199
 30
0.0
 11
51.43389588493664
 21
21.06346034040749
 31
0.0
  0
LINE
  5
C0
330
B5
100
AcDbEntity
  8
치수문자_일반주서
100
AcDbLine
 10
56.2811576642539
 20
5.218258589704698
 30
0.0
 11
57.67052760992014
 21
5.218258589704694
 31
0.0
  0
LINE
  5
C1
330
B5
100
AcDbEntity
  8
치수문자_일반주서
100
AcDbLine
 10
56.2811576642539
 20
-5.100491410295311
 30
0.0
 11
57.67052760992014
 21
-5.100491410295311
 31
0.0
  0
LINE
  5
C2
330
B5
100
AcDbEntity
  8
치수문자_일반주서
100
AcDbLine
 10
56.67052760992014
 20
5.218258589704694
 30
0.0
 11
56.67052760992014
 21
24.10706285215991
 31
0.0
  0
LINE
  5
C3
330
B5
100
AcDbEntity
  8
치수문자_일반주서
100
AcDbLine
 10
56.67052760992014
 20
5.218258589704694
 30
0.0
 11
56.67052760992014
 21
-5.100491410295311
 31
0.0
  0
MTEXT
  5
C4
330
B5
100
AcDbEntity
  8
치수문자_일반주서
100
AcDbMText
 10
46.92215897035781
 20
11.12339937888157
 30
0.0
 40
3.5
 41
0.0
 71
     1
 72
     1
  1
0.41
  7
SLDTEXTSTYLE0
 11
-7.044195017643634E-15
 21
1.0
 31
0.0
 73
     1
 44
1.0
  0
MTEXT
  5
C5
330
B5
100
AcDbEntity
  8
치수문자_일반주서
100
AcDbMText
 10
52.15879052071831
 20
7.191124966517838
 30
0.0
 40
3.5
 41
0.0
 71
     1
 72
     1
  1
%%c
  7
SLDTEXTSTYLE0
 11
-7.044195017643634E-15
 21
1.0
 31
0.0
 73
     1
 44
1.0
  0
MTEXT
  5
C6
330
B5
100
AcDbEntity
  8
치수문자_일반주서
100
AcDbMText
 10
52.15879052071828
 20
12.46956236489192
 30
0.0
 40
3.5
 41
0.0
 71
     1
 72
     1
  1
10.32
  7
SLDTEXTSTYLE0
 11
-7.044195017643634E-15
 21
1.0
 31
0.0
 73
     1
 44
1.0
  0
ENDBLK
  5
B7
330
B5
100
AcDbEntity
  8
0
100
AcDbBlockEnd
  0
BLOCK
  5
C9
330
C8
100
AcDbEntity
  8
0
100
AcDbBlockBegin
  2
_D_1
 70
     0
 10
0.0
 20
0.0
 30
0.0
  3
_D_1
  1
_D_1
  0
SOLID
  5
CB
330
C8
100
AcDbEntity
  8
치수문자_일반주서
100
AcDbTrace
 10
47.34365766425389
 20
16.63113254955809
 30
0.0
 11
44.04165766425389
 21
17.13913254955809
 31
0.0
 12
44.04165766425389
 22
16.12313254955809
 32
0.0
 13
44.04165766425389
 23
16.12313254955809
 33
0.0
  0
SOLID
  5
CC
330
C8
100
AcDbEntity
  8
치수문자_일반주서
100
AcDbTrace
 10
12.4186576642539
 20
16.63113254955814
 30
0.0
 11
15.7206576642539
 21
16.12313254955814
 31
0.0
 12
15.7206576642539
 22
17.13913254955813
 32
0.0
 13
15.7206576642539
 23
17.13913254955813
 33
0.0
  0
LINE
  5
CD
330
C8
100
AcDbEntity
  8
치수문자_일반주서
100
AcDbLine
 10
24.46679158243119
 20
27.42401426560085
 30
0.0
 11
23.75585409686669
 21
27.42401426560086
 31
0.0
  0
LINE
  5
CE
330
C8
100
AcDbEntity
  8
치수문자_일반주서
100
AcDbLine
 10
23.75585409686669
 20
27.42401426560086
 30
0.0
 11
23.75585409686664
 21
21.86776427454155
 31
0.0
  0
LINE
  5
CF
330
C8
100
AcDbEntity
  8
치수문자_일반주서
100
AcDbLine
 10
23.75585409686664
 20
21.86776427454155
 30
0.0
 11
24.46679158243114
 21
21.86776427454155
 31
0.0
  0
LINE
  5
D0
330
C8
100
AcDbEntity
  8
치수문자_일반주서
100
AcDbLine
 10
35.29552444456844
 20
27.42401426560076
 30
0.0
 11
36.00646193013294
 21
27.42401426560075
 31
0.0
  0
LINE
  5
D1
330
C8
100
AcDbEntity
  8
치수문자_일반주서
100
AcDbLine
 10
36.00646193013294
 20
27.42401426560075
 30
0.0
 11
36.0064619301329
 21
21.86776427454145
 31
0.0
  0
LINE
  5
D2
330
C8
100
AcDbEntity
  8
치수문자_일반주서
100
AcDbLine
 10
36.0064619301329
 20
21.86776427454145
 30
0.0
 11
35.2955244445684
 21
21.86776427454146
 31
0.0
  0
LINE
  5
D3
330
C8
100
AcDbEntity
  8
치수문자_일반주서
100
AcDbLine
 10
47.34365766425388
 20
7.583239810165953
 30
0.0
 11
47.34365766425389
 21
17.63113254955809
 31
0.0
  0
LINE
  5
D4
330
C8
100
AcDbEntity
  8
치수문자_일반주서
100
AcDbLine
 10
12.41865766425388
 20
7.605538961946342
 30
0.0
 11
12.4186576642539
 21
17.63113254955814
 31
0.0
  0
LINE
  5
D5
330
C8
100
AcDbEntity
  8
치수문자_일반주서
100
AcDbLine
 10
47.34365766425389
 20
16.63113254955809
 30
0.0
 11
12.4186576642539
 21
16.63113254955814
 31
0.0
  0
MTEXT
  5
D6
330
C8
100
AcDbEntity
  8
치수문자_일반주서
100
AcDbMText
 10
23.24209537137995
 20
21.19634181541983
 30
0.0
 40
3.5
 41
0.0
 71
     1
 72
     1
  1

  7
SLDTEXTSTYLE0
 73
     1
 44
1.0
  0
MTEXT
  5
D7
330
C8
100
AcDbEntity
  8
치수문자_일반주서
100
AcDbMText
 10
25.35546348304256
 20
26.37950118912043
 30
0.0
 40
3.5
 41
0.0
 71
     1
 72
     1
  1
1.38
  7
SLDTEXTSTYLE0
 73
     1
 44
1.0
  0
MTEXT
  5
D8
330
C8
100
AcDbEntity
  8
치수문자_일반주서
100
AcDbMText
 10
24.06240776986578
 20
21.14286963875997
 30
0.0
 40
3.5
 41
0.0
 71
     1
 72
     1
  1
34.93
  7
SLDTEXTSTYLE0
 73
     1
 44
1.0
  0
MTEXT
  5
D9
330
C8
100
AcDbEntity
  8
치수문자_일반주서
100
AcDbMText
 10
37.85216517527351
 20
21.19634181541971
 30
0.0
 40
3.5
 41
0.0
 71
     1
 72
     1
  1

  7
SLDTEXTSTYLE0
 73
     1
 44
1.0
  0
ENDBLK
  5
CA
330
C8
100
AcDbEntity
  8
0
100
AcDbBlockEnd
  0
BLOCK
  5
DC
330
DB
100
AcDbEntity
  8
0
100
AcDbBlockBegin
  2
_D_2
 70
     0
 10
0.0
 20
0.0
 30
0.0
  3
_D_2
  1
_D_2
  0
SOLID
  5
DE
330
DB
100
AcDbEntity
  8
치수문자_일반주서
100
AcDbTrace
 10
47.34365766425388
 20
28.63113254955805
 30
0.0
 11
44.04165766425388
 21
29.13913254955805
 31
0.0
 12
44.04165766425388
 22
28.12313254955805
 32
0.0
 13
44.04165766425388
 23
28.12313254955805
 33
0.0
  0
SOLID
  5
DF
330
DB
100
AcDbEntity
  8
치수문자_일반주서
100
AcDbTrace
 10
-38.38134233574612
 20
28.63113254955804
 30
0.0
 11
-35.07934233574612
 21
28.12313254955804
 31
0.0
 12
-35.07934233574612
 22
29.13913254955804
 32
0.0
 13
-35.07934233574612
 23
29.13913254955804
 33
0.0
  0
LINE
  5
E0
330
DB
100
AcDbEntity
  8
치수문자_일반주서
100
AcDbLine
 10
0.2373901932149428
 20
39.42401426560077
 30
0.0
 11
-0.4735472923495573
 21
39.42401426560077
 31
0.0
  0
LINE
  5
E1
330
DB
100
AcDbEntity
  8
치수문자_일반주서
100
AcDbLine
 10
-0.4735472923495573
 20
39.42401426560077
 30
0.0
 11
-0.4735472923495967
 21
33.86776427454147
 31
0.0
  0
LINE
  5
E2
330
DB
100
AcDbEntity
  8
치수문자_일반주서
100
AcDbLine
 10
-0.4735472923495967
 20
33.86776427454147
 30
0.0
 11
0.2373901932149033
 21
33.86776427454146
 31
0.0
  0
LINE
  5
E3
330
DB
100
AcDbEntity
  8
치수문자_일반주서
100
AcDbLine
 10
11.0661230553522
 20
39.4240142656007
 30
0.0
 11
11.7770605409167
 21
39.42401426560069
 31
0.0
  0
LINE
  5
E4
330
DB
100
AcDbEntity
  8
치수문자_일반주서
100
AcDbLine
 10
11.7770605409167
 20
39.42401426560069
 30
0.0
 11
11.77706054091666
 21
33.86776427454139
 31
0.0
  0
LINE
  5
E5
330
DB
100
AcDbEntity
  8
치수문자_일반주서
100
AcDbLine
 10
11.77706054091666
 20
33.86776427454139
 30
0.0
 11
11.06612305535216
 21
33.86776427454139
 31
0.0
  0
LINE
  5
E6
330
DB
100
AcDbEntity
  8
치수문자_일반주서
100
AcDbLine
 10
47.34365766425388
 20
7.583239810165953
 30
0.0
 11
47.34365766425388
 21
29.63113254955805
 31
0.0
  0
LINE
  5
E7
330
DB
100
AcDbEntity
  8
치수문자_일반주서
100
AcDbLine
 10
-38.38134233574612
 20
6.138883589704698
 30
0.0
 11
-38.38134233574612
 21
29.63113254955804
 31
0.0
  0
LINE
  5
E8
330
DB
100
AcDbEntity
  8
치수문자_일반주서
100
AcDbLine
 10
47.34365766425388
 20
28.63113254955805
 30
0.0
 11
-38.38134233574612
 21
28.63113254955804
 31
0.0
  0
MTEXT
  5
E9
330
DB
100
AcDbEntity
  8
치수문자_일반주서
100
AcDbMText
 10
-0.9873060178362975
 20
33.19634181541976
 30
0.0
 40
3.5
 41
0.0
 71
     1
 72
     1
  1

  7
SLDTEXTSTYLE0
 73
     1
 44
1.0
  0
MTEXT
  5
EA
330
DB
100
AcDbEntity
  8
치수문자_일반주서
100
AcDbMText
 10
1.126062093826306
 20
38.37950118912036
 30
0.0
 40
3.5
 41
0.0
 71
     1
 72
     1
  1
3.38
  7
SLDTEXTSTYLE0
 73
     1
 44
1.0
  0
MTEXT
  5
EB
330
DB
100
AcDbEntity
  8
치수문자_일반주서
100
AcDbMText
 10
-0.166993619350458
 20
33.1428696387599
 30
0.0
 40
3.5
 41
0.0
 71
     1
 72
     1
  1
85.73
  7
SLDTEXTSTYLE0
 73
     1
 44
1.0
  0
MTEXT
  5
EC
330
DB
100
AcDbEntity
  8
치수문자_일반주서
100
AcDbMText
 10
13.62276378605727
 20
33.19634181541966
 30
0.0
 40
3.5
 41
0.0
 71
     1
 72
     1
  1

  7
SLDTEXTSTYLE0
 73
     1
 44
1.0
  0
ENDBLK
  5
DD
330
DB
100
AcDbEntity
  8
0
100
AcDbBlockEnd
  0
BLOCK
  5
F0
330
EF
100
AcDbEntity
  8
0
100
AcDbBlockBegin
  2
_D_3
 70
     0
 10
0.0
 20
0.0
 30
0.0
  3
_D_3
  1
_D_3
  0
SOLID
  5
F2
330
EF
100
AcDbEntity
  8
치수문자_일반주서
100
AcDbTrace
 10
-51.06384233574614
 20
6.408883589704687
 30
0.0
 11
-50.55584233574614
 21
9.710883589704686
 31
0.0
 12
-51.57184233574614
 22
9.710883589704686
 32
0.0
 13
-51.57184233574614
 23
9.710883589704686
 33
0.0
  0
SOLID
  5
F3
330
EF
100
AcDbEntity
  8
치수문자_일반주서
100
AcDbTrace
 10
-51.06384233574614
 20
-6.291116410295301
 30
0.0
 11
-51.57184233574614
 21
-9.593116410295302
 31
0.0
 12
-50.55584233574614
 22
-9.593116410295302
 32
0.0
 13
-50.55584233574614
 23
-9.593116410295302
 33
0.0
  0
LINE
  5
F4
330
EF
100
AcDbEntity
  8
치수문자_일반주서
100
AcDbLine
 10
-61.85672405178885
 20
-5.35548284136401
 30
0.0
 11
-61.85672405178885
 21
-6.06642032692851
 31
0.0
  0
LINE
  5
F5
330
EF
100
AcDbEntity
  8
치수문자_일반주서
100
AcDbLine
 10
-61.85672405178885
 20
-6.06642032692851
 30
0.0
 11
-56.30047406072954
 21
-6.066420326928471
 31
0.0
  0
LINE
  5
F6
330
EF
100
AcDbEntity
  8
치수문자_일반주서
100
AcDbLine
 10
-56.30047406072954
 20
-6.066420326928471
 30
0.0
 11
-56.30047406072955
 21
-5.355482841363971
 31
0.0
  0
LINE
  5
F7
330
EF
100
AcDbEntity
  8
치수문자_일반주서
100
AcDbLine
 10
-61.85672405178892
 20
5.473250020773248
 30
0.0
 11
-61.85672405178893
 21
6.184187506337748
 31
0.0
  0
LINE
  5
F8
330
EF
100
AcDbEntity
  8
치수문자_일반주서
100
AcDbLine
 10
-61.85672405178893
 20
6.184187506337748
 30
0.0
 11
-56.30047406072963
 21
6.184187506337787
 31
0.0
  0
LINE
  5
F9
330
EF
100
AcDbEntity
  8
치수문자_일반주서
100
AcDbLine
 10
-56.30047406072963
 20
6.184187506337787
 30
0.0
 11
-56.30047406072962
 21
5.473250020773287
 31
0.0
  0
LINE
  5
FA
330
EF
100
AcDbEntity
  8
치수문자_일반주서
100
AcDbLine
 10
-38.11134233574612
 20
6.408883589704688
 30
0.0
 11
-52.06384233574614
 21
6.408883589704687
 31
0.0
  0
LINE
  5
FB
330
EF
100
AcDbEntity
  8
치수문자_일반주서
100
AcDbLine
 10
-38.11134233574612
 20
-6.291116410295301
 30
0.0
 11
-52.06384233574614
 21
-6.291116410295301
 31
0.0
  0
LINE
  5
FC
330
EF
100
AcDbEntity
  8
치수문자_일반주서
100
AcDbLine
 10
-51.06384233574614
 20
6.408883589704687
 30
0.0
 11
-51.06384233574614
 21
12.75888358970469
 31
0.0
  0
LINE
  5
FD
330
EF
100
AcDbEntity
  8
치수문자_일반주서
100
AcDbLine
 10
-51.06384233574614
 20
6.408883589704687
 30
0.0
 11
-51.06384233574614
 21
-6.291116410295301
 31
0.0
  0
LINE
  5
FE
330
EF
100
AcDbEntity
  8
치수문자_일반주서
100
AcDbLine
 10
-51.06384233574614
 20
-6.291116410295301
 30
0.0
 11
-51.06384233574614
 21
-12.6411164102953
 31
0.0
  0
MTEXT
  5
FF
330
EF
100
AcDbEntity
  8
치수문자_일반주서
100
AcDbMText
 10
-60.81221097530845
 20
-4.466810940752632
 30
0.0
 40
3.5
 41
0.0
 71
     1
 72
     1
  1
0.50
  7
SLDTEXTSTYLE0
 11
-7.044195017643634E-15
 21
1.0
 31
0.0
 73
     1
 44
1.0
  0
MTEXT
  5
100
330
EF
100
AcDbEntity
  8
치수문자_일반주서
100
AcDbMText
 10
-55.57557942494794
 20
-8.399085353116362
 30
0.0
 40
3.5
 41
0.0
 71
     1
 72
     1
  1
%%c
  7
SLDTEXTSTYLE0
 11
-7.044195017643634E-15
 21
1.0
 31
0.0
 73
     1
 44
1.0
  0
MTEXT
  5
101
330
EF
100
AcDbEntity
  8
치수문자_일반주서
100
AcDbMText
 10
-55.57557942494797
 20
-3.120647954742283
 30
0.0
 40
3.5
 41
0.0
 71
     1
 72
     1
  1
12.70
  7
SLDTEXTSTYLE0
 11
-7.044195017643634E-15
 21
1.0
 31
0.0
 73
     1
 44
1.0
  0
ENDBLK
  5
F1
330
EF
100
AcDbEntity
  8
0
100
AcDbBlockEnd
  0
BLOCK
  5
10A
330
109
100
AcDbEntity
  8
0
100
AcDbBlockBegin
  2
SW_DOWELSYMBOL_0
 70
     0
 10
0.0
 20
0.0
 30
0.0
  3
SW_DOWELSYMBOL_0
  1
SW_DOWELSYMBOL_0
  0
CIRCLE
  5
10C
330
109
100
AcDbEntity
  8
해칭선
 62
     0
100
AcDbCircle
 10
0.0
 20
0.0
 30
0.0
 40
3.0
  0
HATCH
  5
10D
330
109
100
AcDbEntity
  8
0
  6
Continuous
 62
     0
370
     0
100
AcDbHatch
 10
0.0
 20
0.0
 30
0.0
210
0.0
220
0.0
230
1.0
  2
SOLID
 70
     1
 71
     0
 91
        1
 92
        0
 93
        3
 72
     2
 10
0.0
 20
0.0
 40
3.0
 50
0.0
 51
90.0
 73
     1
 72
     1
 10
0.0
 20
3.0
 11
0.0
 21
0.0
 72
     1
 10
0.0
 20
0.0
 11
2.999999999999999
 21
0.0
 97
        0
 75
     0
 76
     1
 98
        1
 10
0.0
 20
0.0
  0
HATCH
  5
10E
330
109
100
AcDbEntity
  8
0
  6
Continuous
 62
     0
370
     0
100
AcDbHatch
 10
0.0
 20
0.0
 30
0.0
210
0.0
220
0.0
230
1.0
  2
SOLID
 70
     1
 71
     0
 91
        1
 92
        0
 93
        3
 72
     2
 10
0.0
 20
0.0
 40
3.0
 50
180.0
 51
270.0000000000007
 73
     1
 72
     1
 10
0.0
 20
-3.0
 11
0.0
 21
0.0
 72
     1
 10
0.0
 20
0.0
 11
-2.999999999999999
 21
0.0
 97
        0
 75
     0
 76
     1
 98
        1
 10
0.0
 20
0.0
  0
ENDBLK
  5
10B
330
109
100
AcDbEntity
  8
0
100
AcDbBlockEnd
  0
BLOCK
  5
1C2
330
1C1
100
AcDbEntity
  8
0
100
AcDbBlockBegin
  2
*D7
 70
     1
 10
0.0
 20
0.0
 30
0.0
  3
*D7
  1
*D8
  0
LINE
  5
1C4
330
1C1
100
AcDbEntity
  8
치수문자_일반주서
 62
     0
370
    -2
100
AcDbLine
 10
97.90827283782724
 20
18.46248292769207
 30
0.0
 11
97.90827283782724
 21
31.58082081364087
 31
0.0
  0
LINE
  5
1C5
330
1C1
100
AcDbEntity
  8
치수문자_일반주서
 62
     0
370
    -2
100
AcDbLine
 10
66.15827283782724
 20
18.48275488385631
 30
0.0
 11
66.15827283782724
 21
31.58082081364087
 31
0.0
  0
LINE
  5
1C6
330
1C1
100
AcDbEntity
  8
치수문자_일반주서
 62
     0
370
    -2
100
AcDbLine
 10
94.60627283782725
 20
31.58082081364087
 30
0.0
 11
69.46027283782723
 21
31.58082081364087
 31
0.0
  0
SOLID
  5
1C7
330
1C1
100
AcDbEntity
  8
치수문자_일반주서
 62
     0
100
AcDbTrace
 10
94.60627283782725
 20
31.03048748030754
 30
0.0
 11
94.60627283782725
 21
32.1311541469742
 31
0.0
 12
97.90827283782724
 22
31.58082081364087
 32
0.0
 13
97.90827283782724
 23
31.58082081364087
 33
0.0
  0
SOLID
  5
1C8
330
1C1
100
AcDbEntity
  8
치수문자_일반주서
 62
     0
100
AcDbTrace
 10
69.46027283782723
 20
32.1311541469742
 30
0.0
 11
69.46027283782723
 21
31.03048748030754
 31
0.0
 12
66.15827283782724
 22
31.58082081364087
 32
0.0
 13
66.15827283782724
 23
31.58082081364087
 33
0.0
  0
MTEXT
  5
1C9
330
1C1
100
AcDbEntity
  8
치수문자_일반주서
 62
     0
100
AcDbMText
 10
82.03327283782724
 20
35.95582081364087
 30
0.0
 40
3.5
 41
0.0
 71
     2
 72
     1
  1
\A1;31.75 [1 1/4]
  7
SLDTEXTSTYLE0
 73
     1
 44
1.0
  0
POINT
  5
1CA
330
1C1
100
AcDbEntity
  8
Defpoints
 62
     0
100
AcDbPoint
 10
97.90827283782724
 20
18.39998292769207
 30
0.0
  0
POINT
  5
1CB
330
1C1
100
AcDbEntity
  8
Defpoints
 62
     0
100
AcDbPoint
 10
66.15827283782724
 20
18.42025488385631
 30
0.0
  0
POINT
  5
1CC
330
1C1
100
AcDbEntity
  8
Defpoints
 62
     0
100
AcDbPoint
 10
66.15827283782724
 20
31.58082081364087
 30
0.0
  0
ENDBLK
  5
1C3
330
1C1
100
AcDbEntity
  8
0
100
AcDbBlockEnd
  0
BLOCK
  5
1CE
330
1CD
100
AcDbEntity
  8
0
100
AcDbBlockBegin
  2
*D8
 70
     1
 10
0.0
 20
0.0
 30
0.0
  3
*D8
  1
*D9
  0
LINE
  5
1D0
330
1CD
100
AcDbEntity
  8
치수문자_일반주서
 62
     0
370
    -2
100
AcDbLine
 10
97.90827283782724
 20
18.46248292769207
 30
0.0
 11
97.90827283782724
 21
47.30202601144365
 31
0.0
  0
LINE
  5
1D1
330
1CD
100
AcDbEntity
  8
치수문자_일반주서
 62
     0
370
    -2
100
AcDbLine
 10
15.35827283782724
 20
17.61125000000002
 30
0.0
 11
15.35827283782724
 21
47.30202601144365
 31
0.0
  0
LINE
  5
1D2
330
1CD
100
AcDbEntity
  8
치수문자_일반주서
 62
     0
370
    -2
100
AcDbLine
 10
94.60627283782725
 20
47.30202601144365
 30
0.0
 11
18.66027283782724
 21
47.30202601144365
 31
0.0
  0
SOLID
  5
1D3
330
1CD
100
AcDbEntity
  8
치수문자_일반주서
 62
     0
100
AcDbTrace
 10
94.60627283782725
 20
46.75169267811032
 30
0.0
 11
94.60627283782725
 21
47.85235934477699
 31
0.0
 12
97.90827283782724
 22
47.30202601144365
 32
0.0
 13
97.90827283782724
 23
47.30202601144365
 33
0.0
  0
SOLID
  5
1D4
330
1CD
100
AcDbEntity
  8
치수문자_일반주서
 62
     0
100
AcDbTrace
 10
18.66027283782724
 20
47.85235934477699
 30
0.0
 11
18.66027283782724
 21
46.75169267811032
 31
0.0
 12
15.35827283782724
 22
47.30202601144365
 32
0.0
 13
15.35827283782724
 23
47.30202601144365
 33
0.0
  0
MTEXT
  5
1D5
330
1CD
100
AcDbEntity
  8
치수문자_일반주서
 62
     0
100
AcDbMText
 10
56.63327283782724
 20
51.67702601144365
 30
0.0
 40
3.5
 41
0.0
 71
     2
 72
     1
  1
\A1;82.55 [3 1/4]
  7
SLDTEXTSTYLE0
 73
     1
 44
1.0
  0
POINT
  5
1D6
330
1CD
100
AcDbEntity
  8
Defpoints
 62
     0
100
AcDbPoint
 10
97.90827283782724
 20
18.39998292769207
 30
0.0
  0
POINT
  5
1D7
330
1CD
100
AcDbEntity
  8
Defpoints
 62
     0
100
AcDbPoint
 10
15.35827283782724
 20
17.54875000000002
 30
0.0
  0
POINT
  5
1D8
330
1CD
100
AcDbEntity
  8
Defpoints
 62
     0
100
AcDbPoint
 10
15.35827283782724
 20
47.30202601144365
 30
0.0
  0
ENDBLK
  5
1CF
330
1CD
100
AcDbEntity
  8
0
100
AcDbBlockEnd
  0
BLOCK
  5
1DA
330
1D9
100
AcDbEntity
  8
0
100
AcDbBlockBegin
  2
*D9
 70
     1
 10
0.0
 20
0.0
 30
0.0
  3
*D9
  1
*D10
  0
LINE
  5
1DC
330
1D9
100
AcDbEntity
  8
치수문자_일반주서
 62
     0
370
    -2
100
AcDbLine
 10
16.56577283782724
 20
18.81875000000001
 30
0.0
 11
4.37500000000002
 21
18.81874999999997
 31
0.0
  0
LINE
  5
1DD
330
1D9
100
AcDbEntity
  8
치수문자_일반주서
 62
     0
370
    -2
100
AcDbLine
 10
16.56577283782724
 20
6.118750000000023
 30
0.0
 11
4.375000000000065
 21
6.118749999999977
 31
0.0
  0
LINE
  5
1DE
330
1D9
100
AcDbEntity
  8
치수문자_일반주서
 62
     0
370
    -2
100
AcDbLine
 10
4.375000000000032
 20
15.51674999999997
 30
0.0
 11
4.375000000000053
 21
9.420749999999977
 31
0.0
  0
SOLID
  5
1DF
330
1D9
100
AcDbEntity
  8
치수문자_일반주서
 62
     0
100
AcDbTrace
 10
4.925333333333366
 20
15.51674999999997
 30
0.0
 11
3.824666666666699
 21
15.51674999999996
 31
0.0
 12
4.37500000000002
 22
18.81874999999997
 32
0.0
 13
4.37500000000002
 23
18.81874999999997
 33
0.0
  0
SOLID
  5
1E0
330
1D9
100
AcDbEntity
  8
치수문자_일반주서
 62
     0
100
AcDbTrace
 10
3.82466666666672
 20
9.420749999999975
 30
0.0
 11
4.925333333333387
 21
9.420749999999979
 31
0.0
 12
4.375000000000065
 22
6.118749999999977
 32
0.0
 13
4.375000000000065
 23
6.118749999999977
 33
0.0
  0
MTEXT
  5
1E1
330
1D9
100
AcDbEntity
  8
치수문자_일반주서
 62
     0
100
AcDbMText
 10
0.0000000000000426
 20
12.46875
 30
0.0
 40
3.5
 41
0.0
 71
     2
 72
     1
  1
\A1;%%c12.70 [1/2]
  7
SLDTEXTSTYLE0
 11
-3.496765431890260E-15
 21
1.0
 31
0.0
 73
     1
 44
1.0
  0
POINT
  5
1E2
330
1D9
100
AcDbEntity
  8
Defpoints
 62
     0
100
AcDbPoint
 10
16.62827283782724
 20
18.81875000000001
 30
0.0
  0
POINT
  5
1E3
330
1D9
100
AcDbEntity
  8
Defpoints
 62
     0
100
AcDbPoint
 10
16.62827283782724
 20
6.118750000000023
 30
0.0
  0
POINT
  5
1E4
330
1D9
100
AcDbEntity
  8
Defpoints
 62
     0
100
AcDbPoint
 10
4.375000000000064
 20
6.118749999999977
 30
0.0
  0
ENDBLK
  5
1DB
330
1D9
100
AcDbEntity
  8
0
100
AcDbBlockEnd
  0
BLOCK
  5
21D
330
21C
100
AcDbEntity
  8
0
100
AcDbBlockBegin
  2
*D10
 70
     1
 10
0.0
 20
0.0
 30
0.0
  3
*D10
  1
*D11
  0
LINE
  5
21F
330
21C
100
AcDbEntity
  8
치수문자_일반주서
 62
     0
370
    -2
100
AcDbLine
 10
28.590625
 20
5.993732927692049
 30
0.0
 11
28.590625
 21
19.11207081364084
 31
0.0
  0
LINE
  5
220
330
21C
100
AcDbEntity
  8
치수문자_일반주서
 62
     0
370
    -2
100
AcDbLine
 10
3.190625000000001
 20
6.015625
 30
0.0
 11
3.190625000000001
 21
19.11207081364084
 31
0.0
  0
LINE
  5
221
330
21C
100
AcDbEntity
  8
치수문자_일반주서
 62
     0
370
    -2
100
AcDbLine
 10
25.288625
 20
19.11207081364084
 30
0.0
 11
6.492625
 21
19.11207081364084
 31
0.0
  0
SOLID
  5
222
330
21C
100
AcDbEntity
  8
치수문자_일반주서
 62
     0
100
AcDbTrace
 10
25.288625
 20
18.56173748030751
 30
0.0
 11
25.288625
 21
19.66240414697418
 31
0.0
 12
28.590625
 22
19.11207081364084
 32
0.0
 13
28.590625
 23
19.11207081364084
 33
0.0
  0
SOLID
  5
223
330
21C
100
AcDbEntity
  8
치수문자_일반주서
 62
     0
100
AcDbTrace
 10
6.492625
 20
19.66240414697418
 30
0.0
 11
6.492625
 21
18.56173748030751
 31
0.0
 12
3.190625000000001
 22
19.11207081364084
 32
0.0
 13
3.190625000000001
 23
19.11207081364084
 33
0.0
  0
MTEXT
  5
224
330
21C
100
AcDbEntity
  8
치수문자_일반주서
 62
     0
100
AcDbMText
 10
15.890625
 20
23.48707081364084
 30
0.0
 40
3.5
 41
0.0
 71
     2
 72
     1
  1
\A1;25.4 [1]
  7
SLDTEXTSTYLE0
 73
     1
 44
1.0
  0
POINT
  5
225
330
21C
100
AcDbEntity
  8
Defpoints
 62
     0
100
AcDbPoint
 10
28.590625
 20
5.931232927692049
 30
0.0
  0
POINT
  5
226
330
21C
100
AcDbEntity
  8
Defpoints
 62
     0
100
AcDbPoint
 10
3.190625000000001
 20
5.953125
 30
0.0
  0
POINT
  5
227
330
21C
100
AcDbEntity
  8
Defpoints
 62
     0
100
AcDbPoint
 10
3.190625000000001
 20
19.11207081364084
 30
0.0
  0
ENDBLK
  5
21E
330
21C
100
AcDbEntity
  8
0
100
AcDbBlockEnd
  0
BLOCK
  5
229
330
228
100
AcDbEntity
  8
0
100
AcDbBlockBegin
  2
*D11
 70
     1
 10
0.0
 20
0.0
 30
0.0
  3
*D11
  1
*D12
  0
LINE
  5
22B
330
228
100
AcDbEntity
  8
치수문자_일반주서
 62
     0
370
    -2
100
AcDbLine
 10
28.590625
 20
5.993732927692049
 30
0.0
 11
28.59062500000001
 21
34.83327601144363
 31
0.0
  0
LINE
  5
22C
330
228
100
AcDbEntity
  8
치수문자_일반주서
 62
     0
370
    -2
100
AcDbLine
 10
-39.671875
 20
3.555000000000001
 30
0.0
 11
-39.671875
 21
34.83327601144363
 31
0.0
  0
LINE
  5
22D
330
228
100
AcDbEntity
  8
치수문자_일반주서
 62
     0
370
    -2
100
AcDbLine
 10
25.28862500000001
 20
34.83327601144363
 30
0.0
 11
-36.369875
 21
34.83327601144363
 31
0.0
  0
SOLID
  5
22E
330
228
100
AcDbEntity
  8
치수문자_일반주서
 62
     0
100
AcDbTrace
 10
25.28862500000001
 20
34.2829426781103
 30
0.0
 11
25.28862500000001
 21
35.38360934477696
 31
0.0
 12
28.59062500000001
 22
34.83327601144363
 32
0.0
 13
28.59062500000001
 23
34.83327601144363
 33
0.0
  0
SOLID
  5
22F
330
228
100
AcDbEntity
  8
치수문자_일반주서
 62
     0
100
AcDbTrace
 10
-36.369875
 20
35.38360934477696
 30
0.0
 11
-36.369875
 21
34.2829426781103
 31
0.0
 12
-39.671875
 22
34.83327601144363
 32
0.0
 13
-39.671875
 23
34.83327601144363
 33
0.0
  0
MTEXT
  5
230
330
228
100
AcDbEntity
  8
치수문자_일반주서
 62
     0
100
AcDbMText
 10
-12.684375
 20
39.20827601144363
 30
0.0
 40
3.5
 41
0.0
 71
     2
 72
     1
  1
\A1;68.26 [2 11/16]
  7
SLDTEXTSTYLE0
 73
     1
 44
1.0
  0
POINT
  5
231
330
228
100
AcDbEntity
  8
Defpoints
 62
     0
100
AcDbPoint
 10
28.590625
 20
5.931232927692049
 30
0.0
  0
POINT
  5
232
330
228
100
AcDbEntity
  8
Defpoints
 62
     0
100
AcDbPoint
 10
-39.671875
 20
3.492500000000001
 30
0.0
  0
POINT
  5
233
330
228
100
AcDbEntity
  8
Defpoints
 62
     0
100
AcDbPoint
 10
-39.671875
 20
34.83327601144363
 30
0.0
  0
ENDBLK
  5
22A
330
228
100
AcDbEntity
  8
0
100
AcDbBlockEnd
  0
BLOCK
  5
235
330
234
100
AcDbEntity
  8
0
100
AcDbBlockBegin
  2
*D12
 70
     1
 10
0.0
 20
0.0
 30
0.0
  3
*D12
  1
*D13
  0
LINE
  5
237
330
234
100
AcDbEntity
  8
치수문자_일반주서
 62
     0
370
    -2
100
AcDbLine
 10
-38.401875
 20
4.762499999999998
 30
0.0
 11
-50.59264783782722
 21
4.762499999999952
 31
0.0
  0
LINE
  5
238
330
234
100
AcDbEntity
  8
치수문자_일반주서
 62
     0
370
    -2
100
AcDbLine
 10
-38.464375
 20
-4.762500000000012
 30
0.0
 11
-50.59264783782719
 21
-4.762500000000056
 31
0.0
  0
LINE
  5
239
330
234
100
AcDbEntity
  8
치수문자_일반주서
 62
     0
370
    -2
100
AcDbLine
 10
-50.59264783782721
 20
1.460499999999953
 30
0.0
 11
-50.5926478378272
 21
-1.460500000000057
 31
0.0
  0
SOLID
  5
23A
330
234
100
AcDbEntity
  8
치수문자_일반주서
 62
     0
100
AcDbTrace
 10
-50.04231450449387
 20
1.460499999999955
 30
0.0
 11
-51.14298117116054
 21
1.460499999999951
 31
0.0
 12
-50.59264783782722
 22
4.762499999999952
 32
0.0
 13
-50.59264783782722
 23
4.762499999999952
 33
0.0
  0
SOLID
  5
23B
330
234
100
AcDbEntity
  8
치수문자_일반주서
 62
     0
100
AcDbTrace
 10
-51.14298117116054
 20
-1.460500000000059
 30
0.0
 11
-50.04231450449387
 21
-1.460500000000055
 31
0.0
 12
-50.59264783782719
 22
-4.762500000000056
 32
0.0
 13
-50.59264783782719
 23
-4.762500000000056
 33
0.0
  0
MTEXT
  5
23C
330
234
100
AcDbEntity
  8
치수문자_일반주서
 62
     0
100
AcDbMText
 10
-54.9676478378272
 20
-1.587500000000018
 30
0.0
 40
3.5
 41
0.0
 71
     2
 72
     1
  1
\A1;%%c9.53 [3/8]
  7
SLDTEXTSTYLE0
 11
-3.729883127349603E-15
 21
1.0
 31
0.0
 73
     1
 44
1.0
  0
POINT
  5
23D
330
234
100
AcDbEntity
  8
Defpoints
 62
     0
100
AcDbPoint
 10
-38.339375
 20
4.762499999999998
 30
0.0
  0
POINT
  5
23E
330
234
100
AcDbEntity
  8
Defpoints
 62
     0
100
AcDbPoint
 10
-38.401875
 20
-4.762500000000012
 30
0.0
  0
POINT
  5
23F
330
234
100
AcDbEntity
  8
Defpoints
 62
     0
100
AcDbPoint
 10
-50.59264783782719
 20
-4.762500000000057
 30
0.0
  0
ENDBLK
  5
236
330
234
100
AcDbEntity
  8
0
100
AcDbBlockEnd
  0
BLOCK
  5
2CD
330
2CC
100
AcDbEntity
  8
0
100
AcDbBlockBegin
  2
*D13
 70
     1
 10
0.0
 20
0.0
 30
0.0
  3
*D13
  1
*D15
  0
LINE
  5
2CF
330
2CC
100
AcDbEntity
  8
치수문자_일반주서
 62
     0
370
    -2
100
AcDbLine
 10
97.90827283782724
 20
18.46248292769207
 30
0.0
 11
97.90827283782724
 21
31.58082081364087
 31
0.0
  0
LINE
  5
2D0
330
2CC
100
AcDbEntity
  8
치수문자_일반주서
 62
     0
370
    -2
100
AcDbLine
 10
66.15827283782724
 20
18.48275488385631
 30
0.0
 11
66.15827283782724
 21
31.58082081364087
 31
0.0
  0
LINE
  5
2D1
330
2CC
100
AcDbEntity
  8
치수문자_일반주서
 62
     0
370
    -2
100
AcDbLine
 10
94.60627283782725
 20
31.58082081364087
 30
0.0
 11
69.46027283782723
 21
31.58082081364087
 31
0.0
  0
SOLID
  5
2D2
330
2CC
100
AcDbEntity
  8
치수문자_일반주서
 62
     0
100
AcDbTrace
 10
94.60627283782725
 20
31.03048748030754
 30
0.0
 11
94.60627283782725
 21
32.1311541469742
 31
0.0
 12
97.90827283782724
 22
31.58082081364087
 32
0.0
 13
97.90827283782724
 23
31.58082081364087
 33
0.0
  0
SOLID
  5
2D3
330
2CC
100
AcDbEntity
  8
치수문자_일반주서
 62
     0
100
AcDbTrace
 10
69.46027283782723
 20
32.1311541469742
 30
0.0
 11
69.46027283782723
 21
31.03048748030754
 31
0.0
 12
66.15827283782724
 22
31.58082081364087
 32
0.0
 13
66.15827283782724
 23
31.58082081364087
 33
0.0
  0
MTEXT
  5
2D4
330
2CC
100
AcDbEntity
  8
치수문자_일반주서
 62
     0
100
AcDbMText
 10
82.03327283782724
 20
35.95582081364087
 30
0.0
 40
3.5
 41
0.0
 71
     2
 72
     1
  1
\A1;31.75 [1 1/4]
  7
SLDTEXTSTYLE0
 73
     1
 44
1.0
  0
POINT
  5
2D5
330
2CC
100
AcDbEntity
  8
Defpoints
 62
     0
100
AcDbPoint
 10
97.90827283782724
 20
18.39998292769207
 30
0.0
  0
POINT
  5
2D6
330
2CC
100
AcDbEntity
  8
Defpoints
 62
     0
100
AcDbPoint
 10
66.15827283782724
 20
18.42025488385631
 30
0.0
  0
POINT
  5
2D7
330
2CC
100
AcDbEntity
  8
Defpoints
 62
     0
100
AcDbPoint
 10
66.15827283782724
 20
31.58082081364087
 30
0.0
  0
ENDBLK
  5
2CE
330
2CC
100
AcDbEntity
  8
0
100
AcDbBlockEnd
  0
BLOCK
  5
2D9
330
2D8
100
AcDbEntity
  8
0
100
AcDbBlockBegin
  2
*D14
 70
     1
 10
0.0
 20
0.0
 30
0.0
  3
*D14
  1
*D16
  0
LINE
  5
2DB
330
2D8
100
AcDbEntity
  8
치수문자_일반주서
 62
     0
370
    -2
100
AcDbLine
 10
97.90827283782724
 20
18.46248292769207
 30
0.0
 11
97.90827283782724
 21
47.30202601144365
 31
0.0
  0
LINE
  5
2DC
330
2D8
100
AcDbEntity
  8
치수문자_일반주서
 62
     0
370
    -2
100
AcDbLine
 10
15.35827283782724
 20
17.61125000000002
 30
0.0
 11
15.35827283782724
 21
47.30202601144365
 31
0.0
  0
LINE
  5
2DD
330
2D8
100
AcDbEntity
  8
치수문자_일반주서
 62
     0
370
    -2
100
AcDbLine
 10
94.60627283782725
 20
47.30202601144365
 30
0.0
 11
18.66027283782724
 21
47.30202601144365
 31
0.0
  0
SOLID
  5
2DE
330
2D8
100
AcDbEntity
  8
치수문자_일반주서
 62
     0
100
AcDbTrace
 10
94.60627283782725
 20
46.75169267811032
 30
0.0
 11
94.60627283782725
 21
47.85235934477699
 31
0.0
 12
97.90827283782724
 22
47.30202601144365
 32
0.0
 13
97.90827283782724
 23
47.30202601144365
 33
0.0
  0
SOLID
  5
2DF
330
2D8
100
AcDbEntity
  8
치수문자_일반주서
 62
     0
100
AcDbTrace
 10
18.66027283782724
 20
47.85235934477699
 30
0.0
 11
18.66027283782724
 21
46.75169267811032
 31
0.0
 12
15.35827283782724
 22
47.30202601144365
 32
0.0
 13
15.35827283782724
 23
47.30202601144365
 33
0.0
  0
MTEXT
  5
2E0
330
2D8
100
AcDbEntity
  8
치수문자_일반주서
 62
     0
100
AcDbMText
 10
56.63327283782724
 20
51.67702601144365
 30
0.0
 40
3.5
 41
0.0
 71
     2
 72
     1
  1
\A1;82.55 [3 1/4]
  7
SLDTEXTSTYLE0
 73
     1
 44
1.0
  0
POINT
  5
2E1
330
2D8
100
AcDbEntity
  8
Defpoints
 62
     0
100
AcDbPoint
 10
97.90827283782724
 20
18.39998292769207
 30
0.0
  0
POINT
  5
2E2
330
2D8
100
AcDbEntity
  8
Defpoints
 62
     0
100
AcDbPoint
 10
15.35827283782724
 20
17.54875000000002
 30
0.0
  0
POINT
  5
2E3
330
2D8
100
AcDbEntity
  8
Defpoints
 62
     0
100
AcDbPoint
 10
15.35827283782724
 20
47.30202601144365
 30
0.0
  0
ENDBLK
  5
2DA
330
2D8
100
AcDbEntity
  8
0
100
AcDbBlockEnd
  0
BLOCK
  5
2E5
330
2E4
100
AcDbEntity
  8
0
100
AcDbBlockBegin
  2
*D15
 70
     1
 10
0.0
 20
0.0
 30
0.0
  3
*D15
  1
*D17
  0
LINE
  5
2E7
330
2E4
100
AcDbEntity
  8
치수문자_일반주서
 62
     0
370
    -2
100
AcDbLine
 10
16.56577283782724
 20
18.81875000000001
 30
0.0
 11
4.37500000000002
 21
18.81874999999997
 31
0.0
  0
LINE
  5
2E8
330
2E4
100
AcDbEntity
  8
치수문자_일반주서
 62
     0
370
    -2
100
AcDbLine
 10
16.56577283782724
 20
6.118750000000023
 30
0.0
 11
4.375000000000065
 21
6.118749999999977
 31
0.0
  0
LINE
  5
2E9
330
2E4
100
AcDbEntity
  8
치수문자_일반주서
 62
     0
370
    -2
100
AcDbLine
 10
4.375000000000032
 20
15.51674999999997
 30
0.0
 11
4.375000000000053
 21
9.420749999999977
 31
0.0
  0
SOLID
  5
2EA
330
2E4
100
AcDbEntity
  8
치수문자_일반주서
 62
     0
100
AcDbTrace
 10
4.925333333333366
 20
15.51674999999997
 30
0.0
 11
3.824666666666699
 21
15.51674999999996
 31
0.0
 12
4.37500000000002
 22
18.81874999999997
 32
0.0
 13
4.37500000000002
 23
18.81874999999997
 33
0.0
  0
SOLID
  5
2EB
330
2E4
100
AcDbEntity
  8
치수문자_일반주서
 62
     0
100
AcDbTrace
 10
3.82466666666672
 20
9.420749999999975
 30
0.0
 11
4.925333333333387
 21
9.420749999999979
 31
0.0
 12
4.375000000000065
 22
6.118749999999977
 32
0.0
 13
4.375000000000065
 23
6.118749999999977
 33
0.0
  0
MTEXT
  5
2EC
330
2E4
100
AcDbEntity
  8
치수문자_일반주서
 62
     0
100
AcDbMText
 10
0.0000000000000426
 20
12.46875
 30
0.0
 40
3.5
 41
0.0
 71
     2
 72
     1
  1
\A1;%%c12.70 [1/2]
  7
SLDTEXTSTYLE0
 11
-3.496765431890260E-15
 21
1.0
 31
0.0
 73
     1
 44
1.0
  0
POINT
  5
2ED
330
2E4
100
AcDbEntity
  8
Defpoints
 62
     0
100
AcDbPoint
 10
16.62827283782724
 20
18.81875000000001
 30
0.0
  0
POINT
  5
2EE
330
2E4
100
AcDbEntity
  8
Defpoints
 62
     0
100
AcDbPoint
 10
16.62827283782724
 20
6.118750000000023
 30
0.0
  0
POINT
  5
2EF
330
2E4
100
AcDbEntity
  8
Defpoints
 62
     0
100
AcDbPoint
 10
4.375000000000064
 20
6.118749999999977
 30
0.0
  0
ENDBLK
  5
2E6
330
2E4
100
AcDbEntity
  8
0
100
AcDbBlockEnd
  0
BLOCK
  5
2F5
330
2F4
100
AcDbEntity
  8
0
100
AcDbBlockBegin
  2
*D16
 70
     1
 10
0.0
 20
0.0
 30
0.0
  3
*D16
  1
*D18
  0
LINE
  5
2F7
330
2F4
100
AcDbEntity
  8
치수문자_일반주서
 62
     0
370
    -2
100
AcDbLine
 10
28.653125
 20
5.953125
 30
0.0
 11
42.53844583775074
 21
5.953125
 31
0.0
  0
LINE
  5
2F8
330
2F4
100
AcDbEntity
  8
치수문자_일반주서
 62
     0
370
    -2
100
AcDbLine
 10
28.653125
 20
-5.953125
 30
0.0
 11
42.53844583775074
 21
-5.953125
 31
0.0
  0
LINE
  5
2F9
330
2F4
100
AcDbEntity
  8
치수문자_일반주서
 62
     0
370
    -2
100
AcDbLine
 10
42.53844583775074
 20
5.953125
 30
0.0
 11
42.53844583775074
 21
39.88012500000001
 31
0.0
  0
LINE
  5
2FA
330
2F4
100
AcDbEntity
  8
치수문자_일반주서
 62
     0
370
    -2
100
AcDbLine
 10
42.53844583775074
 20
2.651125
 30
0.0
 11
42.53844583775074
 21
-2.651125
 31
0.0
  0
SOLID
  5
2FB
330
2F4
100
AcDbEntity
  8
치수문자_일반주서
 62
     0
100
AcDbTrace
 10
43.08877917108408
 20
2.651125
 30
0.0
 11
41.98811250441741
 21
2.651125
 31
0.0
 12
42.53844583775074
 22
5.953125
 32
0.0
 13
42.53844583775074
 23
5.953125
 33
0.0
  0
SOLID
  5
2FC
330
2F4
100
AcDbEntity
  8
치수문자_일반주서
 62
     0
100
AcDbTrace
 10
41.98811250441741
 20
-2.651125
 30
0.0
 11
43.08877917108408
 21
-2.651125
 31
0.0
 12
42.53844583775074
 22
-5.953125
 32
0.0
 13
42.53844583775074
 23
-5.953125
 33
0.0
  0
MTEXT
  5
2FD
330
2F4
100
AcDbEntity
  8
치수문자_일반주서
 62
     0
100
AcDbMText
 10
39.91344583775074
 20
24.567625
 30
0.0
 40
3.5
 41
0.0
 71
     5
 72
     1
  1
\A1;{%%C11.91 [15/32]}
  7
SLDTEXTSTYLE0
 11
0.0
 21
1.0
 31
0.0
 73
     1
 44
1.0
  0
POINT
  5
2FE
330
2F4
100
AcDbEntity
  8
Defpoints
 62
     0
100
AcDbPoint
 10
28.590625
 20
5.953125
 30
0.0
  0
POINT
  5
2FF
330
2F4
100
AcDbEntity
  8
Defpoints
 62
     0
100
AcDbPoint
 10
28.590625
 20
-5.953125
 30
0.0
  0
POINT
  5
300
330
2F4
100
AcDbEntity
  8
Defpoints
 62
     0
100
AcDbPoint
 10
42.53844583775074
 20
-5.953125000000001
 30
0.0
  0
ENDBLK
  5
2F6
330
2F4
100
AcDbEntity
  8
0
100
AcDbBlockEnd
  0
ENDSEC
  0
SECTION
  2
ENTITIES
  0
LINE
  5
A9
330
1F
100
AcDbEntity
  8
참조1
100
AcDbLine
 10
-11.89062500000002
 20
-0.0000000000000095
 30
0.0
 11
-11.89062500000002
 21
-40.00000000000001
 31
0.0
  0
LINE
  5
AA
330
1F
100
AcDbEntity
  8
참조1
100
AcDbLine
 10
-11.89062500000002
 20
-40.00000000000001
 30
0.0
 11
-27.0494818143087
 21
-40.0
 31
0.0
  0
INSERT
  5
AC
330
1F
100
AcDbEntity
  8
0
  6
Continuous
 62
     7
100
AcDbBlockReference
 66
     1
  2
블럭10
 10
-25.83089793212523
 20
-52.04717430164393
 30
0.0
  0
ATTRIB
  5
AD
330
AC
100
AcDbEntity
  8
FORMAT
 62
     2
100
AcDbText
 10
-35.01219322086651
 20
-49.97180738881174
 30
0.0
 40
4.233333333333333
  1
E1039902 [ 4 FLUTE ]
 41
0.75
  7
SLDTEXTSTYLE0
 11
-35.01219322086651
 21
-52.08847405547841
 31
0.0
100
AcDbAttribute
  2
AUTOATTR0
 70
     0
 74
     1
  0
SEQEND
  5
AE
330
AC
100
AcDbEntity
  8
0
  6
Continuous
 62
     7
  0
HATCH
  5
AF
330
1F
100
AcDbEntity
  8
중심선
100
AcDbHatch
 10
0.0
 20
0.0
 30
0.0
210
0.0
220
0.0
230
1.0
  2
SOLID
 70
     1
 71
     0
 91
        1
 92
        0
 93
        4
 72
     1
 10
-20.11598862774439
 20
-35.8
 11
-23.56226387158167
 21
-35.8
 72
     1
 10
-23.56226387158167
 20
-35.8
 11
-25.6904937307857
 21
-38.3363255805726
 72
     1
 10
-25.6904937307857
 20
-38.33632558057261
 11
-22.24418540183527
 21
-38.33628615127012
 72
     1
 10
-22.24418540183527
 20
-38.33628615127012
 11
-20.11598862774439
 21
-35.8
 97
        0
 75
     0
 76
     1
 98
        1
 10
-7.640532664253914
 20
-0.0010749287238987
  0
HATCH
  5
B0
330
1F
100
AcDbEntity
  8
중심선
100
AcDbHatch
 10
0.0
 20
0.0
 30
0.0
210
0.0
220
0.0
230
1.0
  2
SOLID
 70
     1
 71
     0
 91
        1
 92
        0
 93
        4
 72
     1
 10
-15.10322463670841
 20
-35.8
 11
-18.5494998805457
 21
-35.8
 72
     1
 10
-18.5494998805457
 20
-35.8
 11
-23.08063788890311
 21
-41.20000000000002
 72
     1
 10
-23.08063788890311
 20
-41.20000000000002
 11
-19.63436264506583
 21
-41.20000000000002
 72
     1
 10
-19.63436264506583
 20
-41.20000000000002
 11
-15.10322463670841
 21
-35.8
 97
        0
 75
     0
 76
     1
 98
        1
 10
-7.640532664253914
 20
-0.0010749287238987
  0
HATCH
  5
B1
330
1F
100
AcDbEntity
  8
중심선
100
AcDbHatch
 10
0.0
 20
0.0
 30
0.0
210
0.0
220
0.0
230
1.0
  2
SOLID
 70
     1
 71
     0
 91
        1
 92
        0
 93
        4
 72
     1
 10
-10.09046064567255
 20
-35.8
 11
-13.53673588950966
 21
-35.8
 72
     1
 10
-13.53673588950966
 20
-35.8
 11
-20.58517279139891
 21
-44.20000000000002
 72
     1
 10
-20.58517279139891
 20
-44.20000000000002
 11
-17.13889754756163
 21
-44.20000000000002
 72
     1
 10
-17.13889754756163
 20
-44.20000000000002
 11
-10.09046064567254
 21
-35.8
 97
        0
 75
     0
 76
     1
 98
        1
 10
-7.640532664253914
 20
-0.0010749287238987
  0
HATCH
  5
B2
330
1F
100
AcDbEntity
  8
중심선
100
AcDbHatch
 10
0.0
 20
0.0
 30
0.0
210
0.0
220
0.0
230
1.0
  2
SOLID
 70
     1
 71
     0
 91
        1
 92
        0
 93
        6
 72
     3
 10
-5.290570214660347
 20
-40.00000000005127
 11
3.960054785062284
 21
1.540882976769353E-10
 40
0.3939339440162627
 50
17.09539180608436
 51
320.0019657685077
 73
     0
 72
     1
 10
-3.607570558959751
 20
-38.58789400463827
 11
-1.302268685258714
 21
-36.65356729459038
 72
     3
 10
-5.290570214713194
 20
-40.00000000000016
 11
6.600054785286829
 21
-1.278976924368180E-13
 40
0.636358354079598
 50
39.99873849337417
 51
368.4976242363724
 73
     1
 72
     1
 10
1.134762277187416
 20
-39.03999999993003
 11
-6.610502907877271
 21
-39.03999999993
 72
     1
 10
-6.610502907877271
 20
-39.03999999993
 11
-6.610527952323205
 21
-40.95999999992992
 72
     1
 10
-6.610527952323205
 20
-40.95999999992992
 11
-2.169148182851168
 21
-40.95999999992989
 97
        0
 75
     0
 76
     1
 98
        1
 10
-7.640532664253914
 20
-0.0010749287238987
  0
LINE
  5
102
330
1F
100
AcDbEntity
  8
참조1
100
AcDbLine
 10
70.92285881534558
 20
7.439999999999997
 30
0.0
 11
70.92285881534558
 21
-7.440000000000007
 31
0.0
  0
LINE
  5
103
330
1F
100
AcDbEntity
  8
참조1
100
AcDbLine
 10
83.62285881534558
 20
5.439999999999997
 30
0.0
 11
70.92285881534558
 21
5.439999999999997
 31
0.0
  0
SOLID
  5
104
330
1F
100
AcDbEntity
  8
참조1
100
AcDbTrace
 10
70.92285881534558
 20
5.439999999999997
 30
0.0
 11
77.27285881534557
 21
4.423999999999997
 31
0.0
 12
77.27285881534557
 22
6.455999999999997
 32
0.0
 13
77.27285881534557
 23
6.455999999999997
 33
0.0
  0
LINE
  5
105
330
1F
100
AcDbEntity
  8
참조1
100
AcDbLine
 10
83.62285881534558
 20
-5.440000000000007
 30
0.0
 11
70.92285881534558
 21
-5.440000000000007
 31
0.0
  0
SOLID
  5
106
330
1F
100
AcDbEntity
  8
참조1
100
AcDbTrace
 10
70.92285881534558
 20
-5.440000000000007
 30
0.0
 11
77.27285881534557
 21
-6.456000000000008
 31
0.0
 12
77.27285881534557
 22
-4.424000000000007
 32
0.0
 13
77.27285881534557
 23
-4.424000000000007
 33
0.0
  0
MTEXT
  5
107
330
1F
100
AcDbEntity
  8
참조1
100
AcDbMText
 10
80.30720894797156
 20
11.01029177718832
 30
0.0
 40
3.5
 41
0.0
 71
     1
 72
     1
  1
A
  7
SLDTEXTSTYLE0
 73
     1
 44
1.0
  0
MTEXT
  5
108
330
1F
100
AcDbEntity
  8
참조1
100
AcDbMText
 10
80.30720894797156
 20
0.1302917771883206
 30
0.0
 40
3.5
 41
0.0
 71
     1
 72
     1
  1
A
  7
SLDTEXTSTYLE0
 73
     1
 44
1.0
  0
LINE
  5
1E8
330
1F
100
AcDbEntity
  8
외형선
  6
Continuous
370
    15
100
AcDbLine
 10
-38.401875
 20
-4.762500000000012
 30
0.0
 11
2.000000000000011
 21
-4.762500000000012
 31
0.0
  0
LINE
  5
1E9
330
1F
100
AcDbEntity
  8
외형선
  6
Continuous
370
    15
100
AcDbLine
 10
2.0
 20
4.762499999999999
 30
0.0
 11
-14.98942499999989
 21
4.762499999999999
 31
0.0
  0
LINE
  5
1EA
330
1F
100
AcDbEntity
  8
외형선
  6
Continuous
370
    15
100
AcDbLine
 10
-38.401875
 20
4.762499999999998
 30
0.0
 11
-39.671875
 21
3.492500000000001
 31
0.0
  0
LINE
  5
1EB
330
1F
100
AcDbEntity
  8
외형선
  6
Continuous
370
    15
100
AcDbLine
 10
-39.671875
 20
-3.492500000000006
 30
0.0
 11
-38.401875
 21
-4.762500000000003
 31
0.0
  0
LINE
  5
1EF
330
1F
100
AcDbEntity
  8
외형선
  6
Continuous
 62
     1
370
    15
100
AcDbLine
 10
3.78092628797803
 20
-1.74662473856079
 30
0.0
 11
3.8536038835807
 21
-1.785976740529124
 31
0.0
  0
LINE
  5
1F0
330
1F
100
AcDbEntity
  8
외형선
  6
Continuous
 62
     1
370
    15
100
AcDbLine
 10
13.27850101744322
 20
-5.953125000000007
 30
0.0
 11
16.90734671347949
 21
-5.953125000000007
 31
0.0
  0
LINE
  5
1F1
330
1F
100
AcDbEntity
  8
외형선
  6
Continuous
 62
     1
370
    15
100
AcDbLine
 10
16.90734671347947
 20
5.953124999999998
 30
0.0
 11
13.27850101744329
 21
5.953124999999998
 31
0.0
  0
LINE
  5
1F9
330
1F
100
AcDbEntity
  8
외형선
  6
Continuous
370
    15
100
AcDbLine
 10
-39.671875
 20
0.0
 30
0.0
 11
-39.671875
 21
3.492500000000002
 31
0.0
  0
LINE
  5
1FA
330
1F
100
AcDbEntity
  8
외형선
  6
Continuous
370
    15
100
AcDbLine
 10
-39.671875
 20
-3.492500000000006
 30
0.0
 11
-39.671875
 21
0.0
 31
0.0
  0
LINE
  5
207
330
1F
100
AcDbEntity
  8
외형선
  6
Continuous
 62
     1
370
    15
100
AcDbLine
 10
28.590625
 20
-5.391634282288116
 30
0.0
 11
28.590625
 21
0.5100717822881791
 31
0.0
  0
SPLINE
  5
208
330
1F
100
AcDbEntity
  8
외형선
  6
Continuous
 62
     1
370
    15
100
AcDbSpline
210
0.0
220
0.0
230
1.0
 70
     8
 71
     3
 72
    19
 73
    15
 74
     0
 42
0.000000001
 43
0.00000001
 40
0.225896480634237
 40
0.225896480634237
 40
0.225896480634237
 40
0.225896480634237
 40
0.2884950891090108
 40
0.3586408040955343
 40
0.428778172667734
 40
0.498910769393706
 40
0.5615166159996221
 40
0.6241474548813843
 40
0.68682907446279
 40
0.7494864037022462
 40
0.8121023376439631
 40
0.8747066783430902
 40
0.9373293152782548
 40
1.0
 40
1.0
 40
1.0
 40
1.0
 10
7.009671077914073
 20
4.876755775866371
 30
0.0
 10
7.591450372411041
 20
4.683787055322073
 30
0.0
 10
8.825123714685972
 20
4.226712398174386
 30
0.0
 10
10.71057673420421
 20
3.387174688810676
 30
0.0
 10
12.66596360646984
 20
2.395365484701911
 30
0.0
 10
14.55138277311148
 20
1.356157227911465
 30
0.0
 10
16.3666073860449
 20
0.3137124121055361
 30
0.0
 10
18.11280177041158
 20
-0.6977328469821575
 30
0.0
 10
19.85990977489186
 20
-1.688770017847814
 30
0.0
 10
21.606636213777
 20
-2.631625374985559
 30
0.0
 10
23.35237063132423
 20
-3.500014992957217
 30
0.0
 10
25.09773692310072
 20
-4.265217471130144
 30
0.0
 10
26.84368053720013
 20
-4.919552636202726
 30
0.0
 10
28.00816132642849
 20
-5.234233508731825
 30
0.0
 10
28.59062499999999
 20
-5.391634282288117
 30
0.0
  0
SPLINE
  5
209
330
1F
100
AcDbEntity
  8
외형선
  6
Continuous
 62
     1
370
    15
100
AcDbSpline
210
0.0
220
0.0
230
1.0
 70
     8
 71
     3
 72
    19
 73
    15
 74
     0
 42
0.000000001
 43
0.00000001
 40
0.0
 40
0.0
 40
0.0
 40
0.0
 40
0.0922506539453109
 40
0.1844872817331678
 40
0.276712448646294
 40
0.368928734457707
 40
0.4611387301900968
 40
0.5516956982168238
 40
0.6422518785431081
 40
0.7328119007312431
 40
0.8233803871991254
 40
0.9042861512315824
 40
0.9852223901659548
 40
0.9999999999999999
 40
0.9999999999999999
 40
0.9999999999999999
 40
0.9999999999999999
 10
28.59062499999999
 20
0.5100717822881791
 30
0.0
 10
27.9266154695312
 20
0.8900868582316566
 30
0.0
 10
26.59869736725167
 20
1.650059231110417
 30
0.0
 10
24.60703316995575
 20
2.723636394101799
 30
0.0
 10
22.61565914612117
 20
3.697241513186951
 30
0.0
 10
20.62452223991007
 20
4.532981145047037
 30
0.0
 10
18.64539725320563
 20
5.19630723284512
 30
0.0
 10
16.67831417073351
 20
5.666254018602578
 30
0.0
 10
14.72308755373963
 20
5.930442012494771
 30
0.0
 10
12.76777917543974
 20
5.98091470011701
 30
0.0
 10
10.88184177741089
 20
5.826430350209945
 30
0.0
 10
9.065277827614278
 20
5.481434088472055
 30
0.0
 10
7.793844222202193
 20
5.159311151513114
 30
0.0
 10
7.105039447674468
 20
4.911119226146285
 30
0.0
 10
6.998692368952089
 20
4.872799970529412
 30
0.0
  0
LINE
  5
20A
330
1F
100
AcDbEntity
  8
외형선
  6
Continuous
 62
     1
370
    15
100
AcDbLine
 10
28.590625
 20
-5.931232927692059
 30
0.0
 11
28.590625
 21
-5.391634282288116
 31
0.0
  0
SPLINE
  5
20B
330
1F
100
AcDbEntity
  8
외형선
  6
Continuous
 62
     1
370
    15
100
AcDbSpline
210
0.0
220
0.0
230
1.0
 70
     8
 71
     3
 72
    48
 73
    44
 74
     0
 42
0.000000001
 43
0.00000001
 40
0.0
 40
0.0
 40
0.0
 40
0.0
 40
0.0624999999999993
 40
0.0624999999999993
 40
0.093749999999999
 40
0.093749999999999
 40
0.1249999999999986
 40
0.1249999999999986
 40
0.1562499999999983
 40
0.1562499999999983
 40
0.1874999999999979
 40
0.1874999999999979
 40
0.2187499999999976
 40
0.2187499999999976
 40
0.2499999999999972
 40
0.2499999999999972
 40
0.2812499999999969
 40
0.2812499999999969
 40
0.3124999999999966
 40
0.3124999999999966
 40
0.3749999999999958
 40
0.3749999999999958
 40
0.4374999999999951
 40
0.4374999999999951
 40
0.4687499999999952
 40
0.4687499999999952
 40
0.4999999999999953
 40
0.4999999999999953
 40
0.5312499999999954
 40
0.5312499999999954
 40
0.5624999999999956
 40
0.5624999999999956
 40
0.5937499999999957
 40
0.5937499999999957
 40
0.6249999999999958
 40
0.6249999999999958
 40
0.6562499999999959
 40
0.6562499999999959
 40
0.687499999999996
 40
0.687499999999996
 40
0.7499999999999967
 40
0.7499999999999967
 40
0.7999898016566673
 40
0.7999898016566673
 40
0.7999898016566673
 40
0.7999898016566673
 10
28.59062499999999
 20
-5.931232927692059
 30
0.0
 10
27.93281094549657
 20
-5.898572609137657
 30
0.0
 10
27.26500439304969
 20
-5.828934366938843
 30
0.0
 10
26.27585734201227
 20
-5.671752057974604
 30
0.0
 10
25.94630061154541
 20
-5.61055640674753
 30
0.0
 10
25.28337023851867
 20
-5.470781167358722
 30
0.0
 10
24.95129535445181
 20
-5.392268530889443
 30
0.0
 10
24.29052902341115
 20
-5.219136689769927
 30
0.0
 10
23.96202624844249
 20
-5.124571530766355
 30
0.0
 10
23.29967107397314
 20
-4.919410619302999
 30
0.0
 10
22.96747593327882
 20
-4.808950908890018
 30
0.0
 10
22.30565890754252
 20
-4.573817546727764
 30
0.0
 10
21.97741822736503
 20
-4.449344152549061
 30
0.0
 10
21.31592481154891
 20
-4.18644332702131
 30
0.0
 10
20.98375416432814
 20
-4.048125913750136
 30
0.0
 10
20.32117222722917
 20
-3.759654968429533
 30
0.0
 10
19.99240140396878
 20
-3.609765891532492
 30
0.0
 10
19.33205506341256
 20
-3.298920017148818
 30
0.0
 10
19.00005362411596
 20
-3.137873775801912
 30
0.0
 10
18.00546368287703
 20
-2.641153548012207
 30
0.0
 10
17.34792306097979
 20
-2.292564141215882
 30
0.0
 10
16.0214222489741
 20
-1.5694381318743
 30
0.0
 10
15.36398698954761
 20
-1.197003541110771
 30
0.0
 10
14.36925749374944
 20
-0.6291307013824081
 30
0.0
 10
14.03734166376442
 20
-0.4385083161576553
 30
0.0
 10
13.37742686234126
 20
-0.057250987283652
 30
0.0
 10
13.0483153383911
 20
0.1335972266889094
 30
0.0
 10
12.38554746308803
 20
0.5151665467331004
 30
0.0
 10
12.05341568993905
 20
0.7055913876255335
 30
0.0
 10
11.39226192076495
 20
1.083084768349053
 30
0.0
 10
11.06393651606318
 20
1.270027558835631
 30
0.0
 10
10.401840918966
 20
1.640446067222017
 30
0.0
 10
10.06963786052873
 20
1.823617725581697
 30
0.0
 10
9.4075299506552
 20
2.183344570345279
 30
0.0
 10
9.079198549257509
 20
2.359629070948246
 30
0.0
 10
8.418061415692218
 20
2.705183025894993
 30
0.0
 10
8.085931833592849
 20
2.874315703922692
 30
0.0
 10
7.42315598611864
 20
3.202925301844436
 30
0.0
 10
7.094026480710607
 20
3.362166883171165
 30
0.0
 10
6.104185680282693
 20
3.824039562916072
 30
0.0
 10
5.437529770236534
 20
4.111142695691433
 30
0.0
 10
4.252575542527701
 20
4.577157438009404
 30
0.0
 10
3.719929821177718
 20
4.767673225326235
 30
0.0
 10
3.190624999999999
 20
4.938318148057617
 30
0.0
  0
SPLINE
  5
20E
330
1F
100
AcDbEntity
  8
외형선
  6
Continuous
 62
     1
370
    15
100
AcDbSpline
210
0.0
220
0.0
230
1.0
 70
     8
 71
     3
 72
    14
 73
    10
 74
     0
 42
0.000000001
 43
0.00000001
 40
0.0
 40
0.0
 40
0.0
 40
0.0
 40
0.0310667302838658
 40
0.1500271340089867
 40
0.2562956908585434
 40
0.3626042760532424
 40
0.4688266767433076
 40
0.5750070712460145
 40
0.6137016366084084
 40
0.6137016366084084
 40
0.6137016366084084
 40
0.6137016366084084
 10
13.27850101744322
 20
-5.932490875499968
 30
0.0
 10
13.10827641995509
 20
-5.938638723804889
 30
0.0
 10
12.28622954647903
 20
-5.968327849537837
 30
0.0
 10
10.88184546645202
 20
-5.81479430508329
 30
0.0
 10
9.065259586193317
 20
-5.491458739717898
 30
0.0
 10
7.318129816300978
 20
-5.009479920011681
 30
0.0
 10
5.571969599307931
 20
-4.387703561724207
 30
0.0
 10
4.196325370445694
 20
-3.797996325664539
 30
0.0
 10
3.402617668480881
 20
-3.42554425568464
 30
0.0
 10
3.190625000000002
 20
-3.323965185712377
 30
0.0
  0
SPLINE
  5
211
330
1F
100
AcDbEntity
  8
외형선
  6
Continuous
 62
     1
370
    15
100
AcDbSpline
210
0.0
220
0.0
230
1.0
 70
     8
 71
     3
 72
    14
 73
    10
 74
     0
 42
0.000000001
 43
0.00000001
 40
0.0
 40
0.0
 40
0.0
 40
0.0
 40
0.1031469424831586
 40
0.2527167748597089
 40
0.4022286460285241
 40
0.5516417404301559
 40
0.7010271712302021
 40
0.8504562602026993
 40
1.0
 40
1.0
 40
1.0
 40
1.0
 10
16.90734671347945
 20
5.934887993479107
 30
0.0
 10
17.30901644831759
 20
5.934274900239204
 30
0.0
 10
18.29313364562203
 20
5.932772781586463
 30
0.0
 10
19.85991649699637
 20
5.734366081379767
 30
0.0
 10
21.60663441424888
 20
5.372594752185956
 30
0.0
 10
23.35237111310112
 20
4.851074744736524
 30
0.0
 10
25.0977367945983
 20
4.19113422467125
 30
0.0
 10
26.84368056935841
 20
3.415864684656194
 30
0.0
 10
28.00816133715065
 20
2.821285126909157
 30
0.0
 10
28.59062499999999
 20
2.523881342630885
 30
0.0
  0
LINE
  5
212
330
1F
100
AcDbEntity
  8
외형선
  6
Continuous
 62
     1
370
    15
100
AcDbLine
 10
28.590625
 20
0.5100717822881791
 30
0.0
 11
28.590625
 21
2.523881342630887
 31
0.0
  0
SPLINE
  5
213
330
1F
100
AcDbEntity
  8
외형선
  6
Continuous
 62
     1
370
    15
100
AcDbSpline
210
0.0
220
0.0
230
1.0
 70
     8
 71
     3
 72
    10
 73
     6
 74
     0
 42
0.000000001
 43
0.00000001
 40
0.0
 40
0.0
 40
0.0
 40
0.0
 40
0.3704145382808553
 40
0.7407727572575649
 40
1.0
 40
1.0
 40
1.0
 40
1.0
 10
28.590625
 20
5.931232927692049
 30
0.0
 10
27.9266157832354
 20
5.875764653155967
 30
0.0
 10
26.59869830831651
 20
5.764836537701546
 30
0.0
 10
24.80615410309614
 20
5.389469192242435
 30
0.0
 10
23.67762582808346
 20
5.021042770987036
 30
0.0
 10
23.21296250455373
 20
4.869345867004041
 30
0.0
  0
LINE
  5
215
330
1F
100
AcDbEntity
  8
외형선
  6
Continuous
 62
     1
370
    15
100
AcDbLine
 10
28.590625
 20
2.510591924050019
 30
0.0
 11
28.590625
 21
5.931232927692049
 31
0.0
  0
LINE
  5
216
330
1F
100
AcDbEntity
  8
중심선
 62
     1
100
AcDbLine
 10
-42.671875
 20
-0.0000000000000072
 30
0.0
 11
31.590625
 21
0.0000000000000018
 31
0.0
  0
CIRCLE
  5
217
330
1F
100
AcDbEntity
  8
해칭선
100
AcDbCircle
 10
0.0
 20
0.0
 30
0.0
 40
3.0
  0
DIMENSION
  5
218
330
1F
100
AcDbEntity
  8
치수문자_일반주서
100
AcDbDimension
  2
*D10
 10
3.190625000000001
 20
19.11207081364084
 30
0.0
 11
15.890625
 21
19.11207081364084
 31
0.0
 70
   160
  1
<>
 71
     2
 42
25.4
  3
SLDDIMSTYLE0
100
AcDbAlignedDimension
 13
28.590625
 23
5.931232927692049
 33
0.0
 14
3.190625000000001
 24
5.953125
 34
0.0
100
AcDbRotatedDimension
1001
ACAD
1000
DSTYLE
1002
{
1070
   171
1070
     6
1070
   273
1070
     7
1002
}
  0
DIMENSION
  5
219
330
1F
100
AcDbEntity
  8
치수문자_일반주서
100
AcDbDimension
  2
*D11
 10
-39.671875
 20
34.83327601144363
 30
0.0
 11
-12.684375
 21
34.83327601144363
 31
0.0
 70
   160
  1
<>
 71
     2
 42
68.2625
  3
SLDDIMSTYLE0
100
AcDbAlignedDimension
 13
28.590625
 23
5.931232927692049
 33
0.0
 14
-39.671875
 24
3.492500000000001
 34
0.0
 50
0.0000000000000049
100
AcDbRotatedDimension
1001
ACAD
1000
DSTYLE
1002
{
1070
   171
1070
     6
1070
   273
1070
     7
1002
}
  0
DIMENSION
  5
21A
330
1F
100
AcDbEntity
  8
치수문자_일반주서
100
AcDbDimension
  2
*D12
 10
-50.59264783782719
 20
-4.762500000000056
 30
0.0
 11
-50.5926478378272
 21
-1.587500000000002
 31
0.0
 70
   160
  1
%%c<>
 71
     2
 42
9.52500000000001
 52
-270.0
  3
SLDDIMSTYLE1
100
AcDbAlignedDimension
 13
-38.339375
 23
4.762499999999998
 33
0.0
 14
-38.401875
 24
-4.762500000000012
 34
0.0
 50
90.0000000000002
100
AcDbRotatedDimension
1001
ACAD
1000
DSTYLE
1002
{
1070
   171
1070
     6
1070
   273
1070
     7
1002
}
  0
INSERT
  5
21B
330
1F
100
AcDbEntity
  8
해칭선
100
AcDbBlockReference
  2
SW_DOWELSYMBOL_0
 10
0.0
 20
0.0
 30
0.0
  0
LINE
  5
2F0
330
1F
100
AcDbEntity
  8
0
 62
     1
100
AcDbLine
 10
28.590625
 20
5.953125
 30
0.0
 11
28.590625
 21
-5.953125
 31
0.0
  0
DIMENSION
  5
2F1
330
1F
100
AcDbEntity
  8
치수문자_일반주서
100
AcDbDimension
  2
*D16
 10
42.53844583775074
 20
-5.953125
 30
0.0
 11
42.53844583775074
 21
24.567625
 31
0.0
 70
   160
  1
{%%C<>[]}
 71
     5
 42
11.90625
  3
SLDDIMSTYLE0
100
AcDbAlignedDimension
 13
28.590625
 23
5.953125
 33
0.0
 14
28.590625
 24
-5.953125
 34
0.0
 50
90.0
100
AcDbRotatedDimension
1001
ACAD
1000
DSTYLE
1002
{
1070
   171
1070
     6
1070
   283
1070
     1
1070
   170
1070
     1
1070
   273
1070
     7
1002
}
  0
LINE
  5
303
330
1F
100
AcDbEntity
  8
외형선
  6
Continuous
370
    15
100
AcDbLine
 10
3.190625000000001
 20
5.953125
 30
0.0
 11
3.190625000000001
 21
-5.953125
 31
0.0
  0
SPLINE
  5
306
330
1F
100
AcDbEntity
  8
외형선
  6
Continuous
 62
     1
370
    15
100
AcDbSpline
210
0.0
220
0.0
230
1.0
 70
     8
 71
     3
 72
    18
 73
    14
 74
     0
 42
0.000000001
 43
0.00000001
 40
0.2407736610809017
 40
0.2407736610809017
 40
0.2407736610809017
 40
0.2407736610809017
 40
0.3020573683418737
 40
0.3775831937432016
 40
0.4517513763255026
 40
0.5259069728434203
 40
0.6000537458240326
 40
0.6741954741757097
 40
0.7403801855506366
 40
0.8065913178854761
 40
0.8728561337999097
 40
0.9390952708143957
 40
1.0
 40
1.0
 40
1.0
 40
1.0
 10
3.190625000000004
 20
-1.417619875159675
 30
0.0
 10
3.729401547927759
 20
-1.719603388447062
 30
0.0
 10
4.932180340813693
 20
-2.381063552942933
 30
0.0
 10
6.786995753048824
 20
-3.328159266351687
 30
0.0
 10
8.754875138159758
 20
-4.211799517366076
 30
0.0
 10
10.71057672014693
 20
-4.939005696571427
 30
0.0
 10
12.66596360391396
 20
-5.489023491441869
 30
0.0
 10
14.55138279642885
 20
-5.829586176643826
 30
0.0
 10
16.36660730627734
 20
-5.973273852375066
 30
0.0
 10
18.11280207036907
 20
-5.941362584873587
 30
0.0
 10
19.85990865407964
 20
-5.7362690649424
 30
0.0
 10
21.56013123006809
 20
-5.388732836310781
 30
0.0
 10
22.67764746561084
 20
-5.037563676040473
 30
0.0
 10
23.21296250455373
 20
-4.869345867004052
 30
0.0
  0
SPLINE
  5
307
330
1F
100
AcDbEntity
  8
외형선
  6
Continuous
 62
     1
370
    15
100
AcDbSpline
210
0.0
220
0.0
230
1.0
 70
  1080
 71
     3
 72
     8
 73
     4
 74
     2
 42
0.000000001
 43
0.0000000001
 44
0.0
 40
0.0
 40
0.0
 40
0.0
 40
0.0
 40
3.958342993700558
 40
3.958342993700558
 40
3.958342993700558
 40
3.958342993700558
 10
3.190625000000001
 20
5.953125
 30
0.0
 10
4.459980789650698
 20
5.593016656843139
 30
0.0
 10
5.729336579301394
 20
5.232908313686275
 30
0.0
 10
6.998692368952089
 20
4.872799970529412
 30
0.0
 11
3.190625000000001
 21
5.953125
 31
0.0
 11
6.998692368952089
 21
4.872799970529412
 31
0.0
  0
SPLINE
  5
308
330
1F
100
AcDbEntity
  8
외형선
  6
Continuous
 62
     1
370
    15
100
AcDbSpline
210
0.0
220
0.0
230
1.0
 70
     8
 71
     3
 72
     9
 73
     5
 74
     0
 42
0.000000001
 43
0.0000000001
 40
0.0
 40
0.0
 40
0.0
 40
0.0
 40
3.183400443434695
 40
5.428719421711063
 40
5.428719421711063
 40
5.428719421711063
 40
5.428719421711063
 10
3.190625000000001
 20
-5.953125
 30
0.0
 10
4.246326103949727
 20
-5.845454356164606
 30
0.0
 10
6.046635297960565
 20
-5.661841353112219
 30
0.0
 10
7.842691949837768
 20
-5.441066290000033
 30
0.0
 10
8.5853052189645
 20
-5.347691615466041
 30
0.0
  0
LINE
  5
30A
330
1F
100
AcDbEntity
  8
외형선
  6
Continuous
370
    15
100
AcDbLine
 10
-38.401875
 20
4.762499999999999
 30
0.0
 11
-38.401875
 21
-4.762500000000003
 31
0.0
  0
LINE
  5
30B
330
1F
100
AcDbEntity
  8
외형선
  6
Continuous
370
    15
100
AcDbLine
 10
3.190625000000001
 20
5.953125
 30
0.0
 11
2.0
 21
4.762499999999998
 31
0.0
  0
LINE
  5
30C
330
1F
100
AcDbEntity
  8
외형선
  6
Continuous
370
    15
100
AcDbLine
 10
3.190625000000001
 20
-5.953125
 30
0.0
 11
2.0
 21
-4.762499999999998
 31
0.0
  0
LINE
  5
30D
330
1F
100
AcDbEntity
  8
외형선
  6
Continuous
370
    15
100
AcDbLine
 10
2.0
 20
-4.762499999999998
 30
0.0
 11
2.0
 21
4.762499999999998
 31
0.0
  0
LINE
  5
34A
330
1F
100
AcDbEntity
  8
외형선
  6
Continuous
370
    15
100
AcDbLine
 10
-23.39682500000012
 20
3.492500000000007
 30
0.0
 11
-16.25942499999999
 21
3.492500000000007
 31
0.0
  0
LINE
  5
34B
330
1F
100
AcDbEntity
  8
외형선
  6
Continuous
370
    15
100
AcDbLine
 10
-23.39682500000012
 20
3.492500000000007
 30
0.0
 11
-24.6668250000001
 21
4.762499999999989
 31
0.0
  0
LINE
  5
34C
330
1F
100
AcDbEntity
  8
외형선
  6
Continuous
370
    15
100
AcDbLine
 10
-16.25942499999999
 20
3.492500000000007
 30
0.0
 11
-14.9894249999999
 21
4.762499999999989
 31
0.0
  0
LINE
  5
34D
330
1F
100
AcDbEntity
  8
외형선
  6
Continuous
370
    15
100
AcDbLine
 10
-24.66682500000011
 20
4.762499999999999
 30
0.0
 11
-38.401875
 21
4.762499999999999
 31
0.0
  0
ENDSEC
  0
SECTION
  2
OBJECTS
  0
DICTIONARY
  5
C
330
0
100
AcDbDictionary
281
     1
  3
ACAD_GROUP
350
D
  3
ACAD_IMAGE_VARS
350
133
  3
ACAD_LAYOUT
350
1A
  3
ACAD_MLINESTYLE
350
17
  3
ACAD_PLOTSETTINGS
350
19
  3
ACAD_PLOTSTYLENAME
350
E
  3
ACAD_SCALELIST
350
47
  3
APPDATA
350
131
  3
DWGPROPS
350
372
  0
DICTIONARY
  5
33B
330
2
100
AcDbDictionary
280
     1
281
     1
  3
ACAD_LAYERSTATES
360
33C
  0
DICTIONARY
  5
D
102
{ACAD_REACTORS
330
C
102
}
330
C
100
AcDbDictionary
281
     1
  0
RASTERVARIABLES
  5
133
102
{ACAD_REACTORS
330
C
102
}
330
C
100
AcDbRasterVariables
 90
        0
 70
     1
 71
     1
 72
     1
  0
DICTIONARY
  5
1A
102
{ACAD_REACTORS
330
C
102
}
330
C
100
AcDbDictionary
281
     1
  3
Layout1
350
1E
  3
Layout2
350
26
  3
Model
350
22
  0
DICTIONARY
  5
17
102
{ACAD_REACTORS
330
C
102
}
330
C
100
AcDbDictionary
281
     1
  3
Standard
350
18
  0
DICTIONARY
  5
19
102
{ACAD_REACTORS
330
C
102
}
330
C
100
AcDbDictionary
281
     1
  0
ACDBDICTIONARYWDFLT
  5
E
102
{ACAD_REACTORS
330
C
102
}
330
C
100
AcDbDictionary
281
     1
  3
Normal
350
F
100
AcDbDictionaryWithDefault
340
F
  0
DICTIONARY
  5
47
102
{ACAD_REACTORS
330
C
102
}
330
C
100
AcDbDictionary
281
     1
  3
A0
350
48
  3
A1
350
49
  3
A2
350
4A
  3
A3
350
4B
  3
A4
350
4C
  3
A5
350
4D
  3
A6
350
4E
  3
A7
350
4F
  3
A8
350
50
  3
A9
350
51
  3
B0
350
52
  3
B1
350
53
  3
B2
350
54
  3
B3
350
55
  3
B4
350
56
  3
B5
350
57
  3
B6
350
58
  3
B7
350
59
  3
B8
350
5A
  3
B9
350
5B
  3
C0
350
5C
  3
C1
350
5D
  3
C2
350
5E
  3
C3
350
5F
  3
C4
350
60
  3
C5
350
61
  3
C6
350
62
  3
C7
350
63
  3
C8
350
64
  3
C9
350
65
  3
D0
350
66
  3
D1
350
67
  3
D2
350
68
  0
DICTIONARY
  5
131
102
{ACAD_REACTORS
330
C
102
}
330
C
100
AcDbDictionary
281
     1
  0
XRECORD
  5
372
102
{ACAD_REACTORS
330
C
102
}
330
C
100
AcDbXrecord
280
     1
  1
DWGPROPS COOKIE
  2

  3

  4

  6

  7

  8
12016016
  9

300
=
301
=
302
=
303
=
304
=
305
=
306
=
307
=
308
=
309
=
 40
0.0
 41
2458312.381056412
 42
2458319.289514248
  1

 90
        0
  0
DICTIONARY
  5
33C
102
{ACAD_REACTORS
330
33B
102
}
330
33B
100
AcDbDictionary
281
     1
  0
LAYOUT
  5
1E
102
{ACAD_REACTORS
330
1A
102
}
330
1A
100
AcDbPlotSettings
  1

  2
none_device
  4

  6

 40
0.0
 41
0.0
 42
0.0
 43
0.0
 44
0.0
 45
0.0
 46
0.0
 47
0.0
 48
0.0
 49
0.0
140
0.0
141
0.0
142
1.0
143
1.0
 70
   688
 72
     1
 73
     0
 74
     5
  7

 75
    16
147
1.0
148
0.0
149
0.0
100
AcDbLayout
  1
Layout1
 70
     1
 71
     1
 10
0.0
 20
0.0
 11
420.0
 21
297.0
 12
0.0
 22
0.0
 32
0.0
 14
1.000000000000000E+20
 24
1.000000000000000E+20
 34
1.000000000000000E+20
 15
-1.000000000000000E+20
 25
-1.000000000000000E+20
 35
-1.000000000000000E+20
146
0.0
 13
0.0
 23
0.0
 33
0.0
 16
1.0
 26
0.0
 36
0.0
 17
0.0
 27
1.0
 37
0.0
 76
     0
330
1B
  0
LAYOUT
  5
26
102
{ACAD_REACTORS
330
1A
102
}
330
1A
100
AcDbPlotSettings
  1

  2
none_device
  4

  6

 40
0.0
 41
0.0
 42
0.0
 43
0.0
 44
0.0
 45
0.0
 46
0.0
 47
0.0
 48
0.0
 49
0.0
140
0.0
141
0.0
142
1.0
143
1.0
 70
   688
 72
     1
 73
     0
 74
     5
  7

 75
    16
147
1.0
148
0.0
149
0.0
100
AcDbLayout
  1
Layout2
 70
     1
 71
     2
 10
0.0
 20
0.0
 11
0.0
 21
0.0
 12
0.0
 22
0.0
 32
0.0
 14
0.0
 24
0.0
 34
0.0
 15
0.0
 25
0.0
 35
0.0
146
0.0
 13
0.0
 23
0.0
 33
0.0
 16
1.0
 26
0.0
 36
0.0
 17
0.0
 27
1.0
 37
0.0
 76
     0
330
23
  0
LAYOUT
  5
22
102
{ACAD_REACTORS
330
1A
102
}
330
1A
100
AcDbPlotSettings
  1

  2
none_device
  4
ANSI_A_(11.00_x_8.50_Inches)
  6

 40
6.35
 41
19.05
 42
6.35000508
 43
19.05000254
 44
279.4
 45
215.9
 46
106.7889521580535
 47
99.09810663031205
 48
0.0
 49
0.0
140
0.0
141
0.0
142
0.0711206359935618
143
1.0
 70
  1696
 72
     0
 73
     0
 74
     0
  7

 75
     0
147
0.0235690232323232
148
0.0
149
0.0
100
AcDbLayout
  1
Model
 70
     1
 71
     0
 10
0.0
 20
0.0
 11
420.0
 21
297.0
 12
0.0
 22
0.0
 32
0.0
 14
-54.96764783782725
 24
-49.97180738881174
 34
0.0
 15
83.62285881534558
 25
39.88012500000001
 35
0.0
146
0.0
 13
0.0
 23
0.0
 33
0.0
 16
1.0
 26
0.0
 36
0.0
 17
0.0
 27
1.0
 37
0.0
 76
     0
330
1F
331
29
  0
MLINESTYLE
  5
18
102
{ACAD_REACTORS
330
17
102
}
330
17
100
AcDbMlineStyle
  2
Standard
 70
     0
  3

 62
   256
 51
90.0
 52
90.0
 71
     2
 49
0.5
 62
   256
  6
BYLAYER
 49
-0.5
 62
   256
  6
BYLAYER
  0
ACDBPLACEHOLDER
  5
F
102
{ACAD_REACTORS
330
E
102
}
330
E
  0
SCALE
  5
48
102
{ACAD_REACTORS
330
47
102
}
330
47
100
AcDbScale
 70
     0
300
1:1
140
1.0
141
1.0
290
     1
  0
SCALE
  5
49
102
{ACAD_REACTORS
330
47
102
}
330
47
100
AcDbScale
 70
     0
300
1:2
140
1.0
141
2.0
290
     0
  0
SCALE
  5
4A
102
{ACAD_REACTORS
330
47
102
}
330
47
100
AcDbScale
 70
     0
300
1:4
140
1.0
141
4.0
290
     0
  0
SCALE
  5
4B
102
{ACAD_REACTORS
330
47
102
}
330
47
100
AcDbScale
 70
     0
300
1:5
140
1.0
141
5.0
290
     0
  0
SCALE
  5
4C
102
{ACAD_REACTORS
330
47
102
}
330
47
100
AcDbScale
 70
     0
300
1:8
140
1.0
141
8.0
290
     0
  0
SCALE
  5
4D
102
{ACAD_REACTORS
330
47
102
}
330
47
100
AcDbScale
 70
     0
300
1:10
140
1.0
141
10.0
290
     0
  0
SCALE
  5
4E
102
{ACAD_REACTORS
330
47
102
}
330
47
100
AcDbScale
 70
     0
300
1:16
140
1.0
141
16.0
290
     0
  0
SCALE
  5
4F
102
{ACAD_REACTORS
330
47
102
}
330
47
100
AcDbScale
 70
     0
300
1:20
140
1.0
141
20.0
290
     0
  0
SCALE
  5
50
102
{ACAD_REACTORS
330
47
102
}
330
47
100
AcDbScale
 70
     0
300
1:30
140
1.0
141
30.0
290
     0
  0
SCALE
  5
51
102
{ACAD_REACTORS
330
47
102
}
330
47
100
AcDbScale
 70
     0
300
1:40
140
1.0
141
40.0
290
     0
  0
SCALE
  5
52
102
{ACAD_REACTORS
330
47
102
}
330
47
100
AcDbScale
 70
     0
300
1:50
140
1.0
141
50.0
290
     0
  0
SCALE
  5
53
102
{ACAD_REACTORS
330
47
102
}
330
47
100
AcDbScale
 70
     0
300
1:100
140
1.0
141
100.0
290
     0
  0
SCALE
  5
54
102
{ACAD_REACTORS
330
47
102
}
330
47
100
AcDbScale
 70
     0
300
2:1
140
2.0
141
1.0
290
     0
  0
SCALE
  5
55
102
{ACAD_REACTORS
330
47
102
}
330
47
100
AcDbScale
 70
     0
300
4:1
140
4.0
141
1.0
290
     0
  0
SCALE
  5
56
102
{ACAD_REACTORS
330
47
102
}
330
47
100
AcDbScale
 70
     0
300
8:1
140
8.0
141
1.0
290
     0
  0
SCALE
  5
57
102
{ACAD_REACTORS
330
47
102
}
330
47
100
AcDbScale
 70
     0
300
10:1
140
10.0
141
1.0
290
     0
  0
SCALE
  5
58
102
{ACAD_REACTORS
330
47
102
}
330
47
100
AcDbScale
 70
     0
300
100:1
140
100.0
141
1.0
290
     0
  0
SCALE
  5
59
102
{ACAD_REACTORS
330
47
102
}
330
47
100
AcDbScale
 70
     0
300
1/128" = 1'-0"
140
0.0078125
141
12.0
290
     0
  0
SCALE
  5
5A
102
{ACAD_REACTORS
330
47
102
}
330
47
100
AcDbScale
 70
     0
300
1/64" = 1'-0"
140
0.015625
141
12.0
290
     0
  0
SCALE
  5
5B
102
{ACAD_REACTORS
330
47
102
}
330
47
100
AcDbScale
 70
     0
300
1/32" = 1'-0"
140
0.03125
141
12.0
290
     0
  0
SCALE
  5
5C
102
{ACAD_REACTORS
330
47
102
}
330
47
100
AcDbScale
 70
     0
300
1/16" = 1'-0"
140
0.0625
141
12.0
290
     0
  0
SCALE
  5
5D
102
{ACAD_REACTORS
330
47
102
}
330
47
100
AcDbScale
 70
     0
300
3/32" = 1'-0"
140
0.09375
141
12.0
290
     0
  0
SCALE
  5
5E
102
{ACAD_REACTORS
330
47
102
}
330
47
100
AcDbScale
 70
     0
300
1/8" = 1'-0"
140
0.125
141
12.0
290
     0
  0
SCALE
  5
5F
102
{ACAD_REACTORS
330
47
102
}
330
47
100
AcDbScale
 70
     0
300
3/16" = 1'-0"
140
0.1875
141
12.0
290
     0
  0
SCALE
  5
60
102
{ACAD_REACTORS
330
47
102
}
330
47
100
AcDbScale
 70
     0
300
1/4" = 1'-0"
140
0.25
141
12.0
290
     0
  0
SCALE
  5
61
102
{ACAD_REACTORS
330
47
102
}
330
47
100
AcDbScale
 70
     0
300
3/8" = 1'-0"
140
0.375
141
12.0
290
     0
  0
SCALE
  5
62
102
{ACAD_REACTORS
330
47
102
}
330
47
100
AcDbScale
 70
     0
300
1/2" = 1'-0"
140
0.5
141
12.0
290
     0
  0
SCALE
  5
63
102
{ACAD_REACTORS
330
47
102
}
330
47
100
AcDbScale
 70
     0
300
3/4" = 1'-0"
140
0.75
141
12.0
290
     0
  0
SCALE
  5
64
102
{ACAD_REACTORS
330
47
102
}
330
47
100
AcDbScale
 70
     0
300
1" = 1'-0"
140
1.0
141
12.0
290
     0
  0
SCALE
  5
65
102
{ACAD_REACTORS
330
47
102
}
330
47
100
AcDbScale
 70
     0
300
1-1/2" = 1'-0"
140
1.5
141
12.0
290
     0
  0
SCALE
  5
66
102
{ACAD_REACTORS
330
47
102
}
330
47
100
AcDbScale
 70
     0
300
3" = 1'-0"
140
3.0
141
12.0
290
     0
  0
SCALE
  5
67
102
{ACAD_REACTORS
330
47
102
}
330
47
100
AcDbScale
 70
     0
300
6" = 1'-0"
140
6.0
141
12.0
290
     0
  0
SCALE
  5
68
102
{ACAD_REACTORS
330
47
102
}
330
47
100
AcDbScale
 70
     0
300
1'-0" = 1'-0"
140
12.0
141
12.0
290
     0
  0
ENDSEC
  0
EOF
