  0
SECTION
  2
HEADER
  9
$ACADVER
  1
AC1015
  9
$ACADMAINTVER
 70
     6
  9
$DWGCODEPAGE
  3
ANSI_949
  9
$INSBASE
 10
0.0
 20
0.0
 30
0.0
  9
$EXTMIN
 10
1.000000000000000E+20
 20
1.000000000000000E+20
 30
1.000000000000000E+20
  9
$EXTMAX
 10
-1.000000000000000E+20
 20
-1.000000000000000E+20
 30
-1.000000000000000E+20
  9
$LIMMIN
 10
0.0
 20
0.0
  9
$LIMMAX
 10
420.0
 20
297.0
  9
$ORTHOMODE
 70
     1
  9
$REGENMODE
 70
     1
  9
$FILLMODE
 70
     1
  9
$QTEXTMODE
 70
     0
  9
$MIRRTEXT
 70
     1
  9
$LTSCALE
 40
1.0
  9
$ATTMODE
 70
     1
  9
$TEXTSIZE
 40
3.5
  9
$TRACEWID
 40
1.0
  9
$TEXTSTYLE
  7
Standard
  9
$CLAYER
  8
0
  9
$CELTYPE
  6
ByLayer
  9
$CECOLOR
 62
   256
  9
$CELTSCALE
 40
1.0
  9
$DISPSILH
 70
     0
  9
$DIMSCALE
 40
1.0
  9
$DIMASZ
 40
3.302
  9
$DIMEXO
 40
1.0
  9
$DIMDLI
 40
3.75
  9
$DIMRND
 40
0.0
  9
$DIMDLE
 40
0.0
  9
$DIMEXE
 40
1.0
  9
$DIMTP
 40
0.0
  9
$DIMTM
 40
0.0
  9
$DIMTXT
 40
3.5
  9
$DIMCEN
 40
2.5
  9
$DIMTSZ
 40
0.0
  9
$DIMTOL
 70
     0
  9
$DIMLIM
 70
     0
  9
$DIMTIH
 70
     1
  9
$DIMTOH
 70
     1
  9
$DIMSE1
 70
     0
  9
$DIMSE2
 70
     0
  9
$DIMTAD
 70
     1
  9
$DIMZIN
 70
     0
  9
$DIMBLK
  1

  9
$DIMASO
 70
     1
  9
$DIMSHO
 70
     1
  9
$DIMPOST
  1

  9
$DIMAPOST
  1

  9
$DIMALT
 70
     0
  9
$DIMALTD
 70
     3
  9
$DIMALTF
 40
0.0393700787401575
  9
$DIMLFAC
 40
1.0
  9
$DIMTOFL
 70
     1
  9
$DIMTVP
 40
0.0
  9
$DIMTIX
 70
     0
  9
$DIMSOXD
 70
     0
  9
$DIMSAH
 70
     0
  9
$DIMBLK1
  1

  9
$DIMBLK2
  1

  9
$DIMSTYLE
  2
ISO-25
  9
$DIMCLRD
 70
     0
  9
$DIMCLRE
 70
     0
  9
$DIMCLRT
 70
     0
  9
$DIMTFAC
 40
1.0
  9
$DIMGAP
 40
1.524
  9
$DIMJUST
 70
     0
  9
$DIMSD1
 70
     0
  9
$DIMSD2
 70
     0
  9
$DIMTOLJ
 70
     0
  9
$DIMTZIN
 70
     0
  9
$DIMALTZ
 70
     0
  9
$DIMALTTZ
 70
     0
  9
$DIMUPT
 70
     0
  9
$DIMDEC
 70
     2
  9
$DIMTDEC
 70
     2
  9
$DIMALTU
 70
     2
  9
$DIMALTTD
 70
     3
  9
$DIMTXSTY
  7
Standard
  9
$DIMAUNIT
 70
     0
  9
$DIMADEC
 70
     2
  9
$DIMALTRND
 40
0.0
  9
$DIMAZIN
 70
     0
  9
$DIMDSEP
 70
    44
  9
$DIMATFIT
 70
     3
  9
$DIMFRAC
 70
     0
  9
$DIMLDRBLK
  1

  9
$DIMLUNIT
 70
     2
  9
$DIMLWD
 70
    -2
  9
$DIMLWE
 70
    -2
  9
$DIMTMOVE
 70
     0
  9
$LUNITS
 70
     2
  9
$LUPREC
 70
     2
  9
$SKETCHINC
 40
1.0
  9
$FILLETRAD
 40
10.0
  9
$AUNITS
 70
     0
  9
$AUPREC
 70
     2
  9
$MENU
  1
.
  9
$ELEVATION
 40
0.0
  9
$PELEVATION
 40
0.0
  9
$THICKNESS
 40
0.0
  9
$LIMCHECK
 70
     0
  9
$CHAMFERA
 40
0.0
  9
$CHAMFERB
 40
0.0
  9
$CHAMFERC
 40
0.0
  9
$CHAMFERD
 40
0.0
  9
$SKPOLY
 70
     0
  9
$TDCREATE
 40
2458319.365323785
  9
$TDUCREATE
 40
2458318.990323785
  9
$TDUPDATE
 40
2458331.743324607
  9
$TDUUPDATE
 40
2458331.368324607
  9
$TDINDWG
 40
0.0019941204
  9
$TDUSRTIMER
 40
2458331.368166482
  9
$USRTIMER
 70
     1
  9
$ANGBASE
 50
0.0
  9
$ANGDIR
 70
     0
  9
$PDMODE
 70
     0
  9
$PDSIZE
 40
-1.0
  9
$PLINEWID
 40
0.0
  9
$SPLFRAME
 70
     0
  9
$SPLINETYPE
 70
     6
  9
$SPLINESEGS
 70
     8
  9
$HANDSEED
  5
280
  9
$SURFTAB1
 70
     6
  9
$SURFTAB2
 70
     6
  9
$SURFTYPE
 70
     6
  9
$SURFU
 70
     6
  9
$SURFV
 70
     6
  9
$UCSBASE
  2

  9
$UCSNAME
  2

  9
$UCSORG
 10
0.0
 20
0.0
 30
0.0
  9
$UCSXDIR
 10
1.0
 20
0.0
 30
0.0
  9
$UCSYDIR
 10
0.0
 20
1.0
 30
0.0
  9
$UCSORTHOREF
  2

  9
$UCSORTHOVIEW
 70
     0
  9
$UCSORGTOP
 10
0.0
 20
0.0
 30
0.0
  9
$UCSORGBOTTOM
 10
0.0
 20
0.0
 30
0.0
  9
$UCSORGLEFT
 10
0.0
 20
0.0
 30
0.0
  9
$UCSORGRIGHT
 10
0.0
 20
0.0
 30
0.0
  9
$UCSORGFRONT
 10
0.0
 20
0.0
 30
0.0
  9
$UCSORGBACK
 10
0.0
 20
0.0
 30
0.0
  9
$PUCSBASE
  2

  9
$PUCSNAME
  2

  9
$PUCSORG
 10
0.0
 20
0.0
 30
0.0
  9
$PUCSXDIR
 10
1.0
 20
0.0
 30
0.0
  9
$PUCSYDIR
 10
0.0
 20
1.0
 30
0.0
  9
$PUCSORTHOREF
  2

  9
$PUCSORTHOVIEW
 70
     0
  9
$PUCSORGTOP
 10
0.0
 20
0.0
 30
0.0
  9
$PUCSORGBOTTOM
 10
0.0
 20
0.0
 30
0.0
  9
$PUCSORGLEFT
 10
0.0
 20
0.0
 30
0.0
  9
$PUCSORGRIGHT
 10
0.0
 20
0.0
 30
0.0
  9
$PUCSORGFRONT
 10
0.0
 20
0.0
 30
0.0
  9
$PUCSORGBACK
 10
0.0
 20
0.0
 30
0.0
  9
$USERI1
 70
     0
  9
$USERI2
 70
     0
  9
$USERI3
 70
     0
  9
$USERI4
 70
     0
  9
$USERI5
 70
     0
  9
$USERR1
 40
0.0
  9
$USERR2
 40
0.0
  9
$USERR3
 40
0.0
  9
$USERR4
 40
0.0
  9
$USERR5
 40
0.0
  9
$WORLDVIEW
 70
     1
  9
$SHADEDGE
 70
     3
  9
$SHADEDIF
 70
    70
  9
$TILEMODE
 70
     1
  9
$MAXACTVP
 70
    64
  9
$PINSBASE
 10
0.0
 20
0.0
 30
0.0
  9
$PLIMCHECK
 70
     0
  9
$PEXTMIN
 10
1.000000000000000E+20
 20
1.000000000000000E+20
 30
1.000000000000000E+20
  9
$PEXTMAX
 10
-1.000000000000000E+20
 20
-1.000000000000000E+20
 30
-1.000000000000000E+20
  9
$PLIMMIN
 10
0.0
 20
0.0
  9
$PLIMMAX
 10
0.0
 20
0.0
  9
$UNITMODE
 70
     0
  9
$VISRETAIN
 70
     1
  9
$PLINEGEN
 70
     0
  9
$PSLTSCALE
 70
     1
  9
$TREEDEPTH
 70
  3020
  9
$CMLSTYLE
  2
Standard
  9
$CMLJUST
 70
     0
  9
$CMLSCALE
 40
20.0
  9
$PROXYGRAPHICS
 70
     1
  9
$MEASUREMENT
 70
     1
  9
$CELWEIGHT
370
    -1
  9
$ENDCAPS
280
     0
  9
$JOINSTYLE
280
     0
  9
$LWDISPLAY
290
     1
  9
$INSUNITS
 70
     4
  9
$HYPERLINKBASE
  1

  9
$STYLESHEET
  1

  9
$XEDIT
290
     1
  9
$CEPSNTYPE
380
     0
  9
$PSTYLEMODE
290
     1
  9
$FINGERPRINTGUID
  2
{CBF76E32-F3AD-487B-97B8-D3ADFEE70365}
  9
$VERSIONGUID
  2
{FAEB1C32-E019-11D5-929B-00C0DF256EC4}
  9
$EXTNAMES
290
     1
  9
$PSVPSCALE
 40
0.0
  9
$OLESTARTUP
290
     0
  0
ENDSEC
  0
SECTION
  2
CLASSES
  0
CLASS
  1
ACDBDICTIONARYWDFLT
  2
AcDbDictionaryWithDefault
  3
ObjectDBX Classes
 90
        0
280
     0
281
     0
  0
CLASS
  1
VISUALSTYLE
  2
AcDbVisualStyle
  3
ObjectDBX Classes
 90
     4095
280
     0
281
     0
  0
CLASS
  1
MATERIAL
  2
AcDbMaterial
  3
ObjectDBX Classes
 90
     1153
280
     0
281
     0
  0
CLASS
  1
SCALE
  2
AcDbScale
  3
ObjectDBX Classes
 90
     1153
280
     0
281
     0
  0
CLASS
  1
SUN
  2
AcDbSun
  3
SCENEOE
 90
     1153
280
     0
281
     0
  0
CLASS
  1
ACDBPLACEHOLDER
  2
AcDbPlaceHolder
  3
ObjectDBX Classes
 90
        0
280
     0
281
     0
  0
CLASS
  1
LAYOUT
  2
AcDbLayout
  3
ObjectDBX Classes
 90
        0
280
     0
281
     0
  0
CLASS
  1
TABLESTYLE
  2
AcDbTableStyle
  3
ObjectDBX Classes
 90
     4095
280
     0
281
     0
  0
CLASS
  1
MLEADERSTYLE
  2
AcDbMLeaderStyle
  3
ACDB_MLEADERSTYLE_CLASS
 90
     4095
280
     0
281
     0
  0
CLASS
  1
RASTERVARIABLES
  2
AcDbRasterVariables
  3
ISM
 90
        0
280
     0
281
     0
  0
ENDSEC
  0
SECTION
  2
TABLES
  0
TABLE
  2
VPORT
  5
8
330
0
100
AcDbSymbolTable
 70
     1
  0
VPORT
  5
29
330
8
100
AcDbSymbolTableRecord
100
AcDbViewportTableRecord
  2
*Active
 70
     0
 10
0.0
 20
0.0
 11
1.0
 21
1.0
 12
-16.01639968197084
 22
-15.53798184792026
 13
0.0
 23
0.0
 14
10.0
 24
10.0
 15
10.0
 25
10.0
 16
0.0
 26
0.0
 36
1.0
 17
0.0
 27
0.0
 37
0.0
 40
143.2206582440239
 41
1.516441005802708
 42
50.0
 43
0.0
 44
0.0
 50
0.0
 51
0.0
 71
    16
 72
  2000
 73
     1
 74
     3
 75
     0
 76
     0
 77
     0
 78
     0
281
     0
 65
     1
110
0.0
120
0.0
130
0.0
111
1.0
121
0.0
131
0.0
112
0.0
122
1.0
132
0.0
 79
     0
146
0.0
  0
ENDTAB
  0
TABLE
  2
LTYPE
  5
5
330
0
100
AcDbSymbolTable
 70
     6
  0
LTYPE
  5
14
330
5
100
AcDbSymbolTableRecord
100
AcDbLinetypeTableRecord
  2
ByBlock
 70
     0
  3

 72
    65
 73
     0
 40
0.0
  0
LTYPE
  5
15
330
5
100
AcDbSymbolTableRecord
100
AcDbLinetypeTableRecord
  2
ByLayer
 70
     0
  3

 72
    65
 73
     0
 40
0.0
  0
LTYPE
  5
16
330
5
100
AcDbSymbolTableRecord
100
AcDbLinetypeTableRecord
  2
Continuous
 70
     0
  3
Solid line
 72
    65
 73
     0
 40
0.0
  0
LTYPE
  5
6A
330
5
100
AcDbSymbolTableRecord
100
AcDbLinetypeTableRecord
  2
HIDDEN
 70
     0
  3
Hidden __ __ __ __ __ __ __ __ __ __ __ __ __ __
 72
    65
 73
     2
 40
1.905
 49
1.27
 74
     0
 49
-0.635
 74
     0
  0
LTYPE
  5
6B
330
5
100
AcDbSymbolTableRecord
100
AcDbLinetypeTableRecord
  2
PHANTOM
 70
     0
  3
Phantom ______  __  __  ______  __  __  ______
 72
    65
 73
     6
 40
12.7
 49
6.35
 74
     0
 49
-1.27
 74
     0
 49
1.27
 74
     0
 49
-1.27
 74
     0
 49
1.27
 74
     0
 49
-1.27
 74
     0
  0
LTYPE
  5
6C
330
5
100
AcDbSymbolTableRecord
100
AcDbLinetypeTableRecord
  2
CENTER
 70
     0
  3
Center ____ _ ____ _ ____ _ ____ _ ____ _ ____
 72
    65
 73
     4
 40
10.16
 49
6.35
 74
     0
 49
-1.27
 74
     0
 49
1.27
 74
     0
 49
-1.27
 74
     0
  0
LTYPE
  5
6D
330
5
100
AcDbSymbolTableRecord
100
AcDbLinetypeTableRecord
  2
CENTERX2
 70
     0
  3
Center (2x) ________  __  ________  __  _____
 72
    65
 73
     4
 40
20.32
 49
12.7
 74
     0
 49
-2.54
 74
     0
 49
2.54
 74
     0
 49
-2.54
 74
     0
  0
LTYPE
  5
6E
330
5
100
AcDbSymbolTableRecord
100
AcDbLinetypeTableRecord
  2
DOT2
 70
     0
  3
Dot (.5x) ........................................
 72
    65
 73
     2
 40
0.635
 49
0.0
 74
     0
 49
-0.635
 74
     0
  0
ENDTAB
  0
TABLE
  2
LAYER
  5
2
102
{ACAD_XDICTIONARY
360
26B
102
}
330
0
100
AcDbSymbolTable
 70
    18
  0
LAYER
  5
10
330
2
100
AcDbSymbolTableRecord
100
AcDbLayerTableRecord
  2
0
 70
     0
 62
     7
  6
Continuous
370
    -3
390
F
  0
LAYER
  5
6F
330
2
100
AcDbSymbolTableRecord
100
AcDbLayerTableRecord
  2
FORMAT
 70
     0
 62
     2
  6
Continuous
370
    -3
390
F
  0
LAYER
  5
70
330
2
100
AcDbSymbolTableRecord
100
AcDbLayerTableRecord
  2
외형선
 70
     0
 62
     4
  6
Continuous
370
    30
390
F
  0
LAYER
  5
71
330
2
100
AcDbSymbolTableRecord
100
AcDbLayerTableRecord
  2
숨은선
 70
     0
 62
     2
  6
HIDDEN
370
    15
390
F
  0
LAYER
  5
72
330
2
100
AcDbSymbolTableRecord
100
AcDbLayerTableRecord
  2
중심선
 70
     0
 62
     1
  6
CENTERX2
370
    -3
390
F
  0
LAYER
  5
73
330
2
100
AcDbSymbolTableRecord
100
AcDbLayerTableRecord
  2
파단선
 70
     0
 62
     4
  6
Continuous
370
    -3
390
F
  0
LAYER
  5
74
330
2
100
AcDbSymbolTableRecord
100
AcDbLayerTableRecord
  2
해칭선
 70
     0
 62
   100
  6
Continuous
370
    -3
390
F
  0
LAYER
  5
75
330
2
100
AcDbSymbolTableRecord
100
AcDbLayerTableRecord
  2
가는실선
 70
     0
 62
     4
  6
Continuous
370
    -3
390
F
  0
LAYER
  5
76
330
2
100
AcDbSymbolTableRecord
100
AcDbLayerTableRecord
  2
치수_보조선
 70
     0
 62
     4
  6
Continuous
370
    -3
390
F
  0
LAYER
  5
77
330
2
100
AcDbSymbolTableRecord
100
AcDbLayerTableRecord
  2
치수문자_일반주서
 70
     0
 62
     7
  6
Continuous
370
    15
390
F
  0
LAYER
  5
78
330
2
100
AcDbSymbolTableRecord
100
AcDbLayerTableRecord
  2
개별주서
 70
     0
 62
   100
  6
Continuous
370
    30
390
F
  0
LAYER
  5
79
330
2
100
AcDbSymbolTableRecord
100
AcDbLayerTableRecord
  2
중간선
 70
     0
 62
     2
  6
Continuous
370
    15
390
F
  0
LAYER
  5
7A
330
2
100
AcDbSymbolTableRecord
100
AcDbLayerTableRecord
  2
윤곽선
 70
     0
 62
     3
  6
Continuous
370
    40
390
F
  0
LAYER
  5
7B
330
2
100
AcDbSymbolTableRecord
100
AcDbLayerTableRecord
  2
중심마크
 70
     0
 62
   100
  6
Continuous
370
    30
390
F
  0
LAYER
  5
7C
330
2
100
AcDbSymbolTableRecord
100
AcDbLayerTableRecord
  2
가상선
 70
     0
 62
     4
  6
PHANTOM
370
    -3
390
F
  0
LAYER
  5
7D
330
2
100
AcDbSymbolTableRecord
100
AcDbLayerTableRecord
  2
특수지정선
 70
     0
 62
     5
  6
CENTERX2
370
    60
390
F
  0
LAYER
  5
7E
330
2
100
AcDbSymbolTableRecord
100
AcDbLayerTableRecord
  2
참조1
 70
     0
 62
    -4
  6
Continuous
370
    -3
390
F
  0
LAYER
  5
238
330
2
100
AcDbSymbolTableRecord
100
AcDbLayerTableRecord
  2
Defpoints
 70
     0
 62
     7
  6
Continuous
290
     0
370
    -3
390
F
  0
ENDTAB
  0
TABLE
  2
STYLE
  5
3
330
0
100
AcDbSymbolTable
 70
     2
  0
STYLE
  5
11
330
3
100
AcDbSymbolTableRecord
100
AcDbTextStyleTableRecord
  2
Standard
 70
     0
 40
0.0
 41
1.0
 50
0.0
 71
     0
 42
3.5
  3
txt
  4

  0
STYLE
  5
94
330
3
100
AcDbSymbolTableRecord
100
AcDbTextStyleTableRecord
  2
SLDTEXTSTYLE0
 70
     0
 40
0.0
 41
0.75
 50
0.0
 71
     0
 42
3.5
  3
TXT
  4

  0
ENDTAB
  0
TABLE
  2
VIEW
  5
6
330
0
100
AcDbSymbolTable
 70
     0
  0
ENDTAB
  0
TABLE
  2
UCS
  5
7
330
0
100
AcDbSymbolTable
 70
     0
  0
ENDTAB
  0
TABLE
  2
APPID
  5
9
330
0
100
AcDbSymbolTable
 70
     1
  0
APPID
  5
12
330
9
100
AcDbSymbolTableRecord
100
AcDbRegAppTableRecord
  2
ACAD
 70
     0
  0
ENDTAB
  0
TABLE
  2
DIMSTYLE
  5
A
330
0
100
AcDbSymbolTable
 70
     4
100
AcDbDimStyleTable
  0
DIMSTYLE
105
27
330
A
100
AcDbSymbolTableRecord
100
AcDbDimStyleTableRecord
  2
ISO-25
 70
     0
 41
2.5
 42
0.625
 43
3.75
 44
1.25
 73
     0
 74
     0
 77
     1
 78
     8
140
2.5
141
2.5
143
0.03937007874016
147
0.625
171
     3
172
     1
178
     0
271
     2
272
     2
274
     3
278
    44
283
     0
284
     8
340
11
  0
DIMSTYLE
105
1B6
102
{ACAD_REACTORS
330
1B5
102
}
330
A
100
AcDbSymbolTableRecord
100
AcDbDimStyleTableRecord
  2
SLDDIMSTYLE0
 70
     0
 41
3.302
 44
0.0
 45
0.000000001
 73
     0
 74
     0
 77
     1
 78
    12
 79
     3
140
3.5
143
0.0393700787401575
147
0.875
148
0.000000001
170
     1
172
     1
173
     1
178
     0
271
     2
272
     2
276
     2
284
    12
289
     0
340
94
  0
DIMSTYLE
105
1CB
102
{ACAD_REACTORS
330
1CA
330
1DE
102
}
330
A
100
AcDbSymbolTableRecord
100
AcDbDimStyleTableRecord
  2
SLDDIMSTYLE1
 70
     0
 41
3.302
 44
0.0
 45
0.000000001
 73
     0
 74
     0
 77
     1
 78
    12
 79
     3
140
3.5
143
0.0393700787401575
147
0.875
148
0.000000001
170
     1
173
     1
178
     0
271
     2
272
     2
276
     2
284
    12
340
94
  0
DIMSTYLE
105
1F3
102
{ACAD_REACTORS
330
1F2
102
}
330
A
100
AcDbSymbolTableRecord
100
AcDbDimStyleTableRecord
  2
SLDDIMSTYLE2
 70
     0
 41
3.302
 44
0.0
 45
0.000000001
 73
     0
 74
     0
 77
     1
 78
     4
 79
     1
140
3.5
143
0.0393700787401575
147
0.875
148
0.000000001
170
     1
173
     1
178
     0
271
     2
272
     2
276
     2
284
    12
340
94
  0
ENDTAB
  0
TABLE
  2
BLOCK_RECORD
  5
1
330
0
100
AcDbSymbolTable
 70
     8
  0
BLOCK_RECORD
  5
1F
330
1
100
AcDbSymbolTableRecord
100
AcDbBlockTableRecord
  2
*Model_Space
340
22
  0
BLOCK_RECORD
  5
1B
330
1
100
AcDbSymbolTableRecord
100
AcDbBlockTableRecord
  2
*Paper_Space
340
1E
  0
BLOCK_RECORD
  5
23
330
1
100
AcDbSymbolTableRecord
100
AcDbBlockTableRecord
  2
*Paper_Space0
340
26
  0
BLOCK_RECORD
  5
7F
330
1
100
AcDbSymbolTableRecord
100
AcDbBlockTableRecord
  2
블럭10
340
0
102
{BLKREFS
331
1AE
102
}
  0
BLOCK_RECORD
  5
1B7
330
1
100
AcDbSymbolTableRecord
100
AcDbBlockTableRecord
  2
_D
340
0
  0
BLOCK_RECORD
  5
1CC
330
1
100
AcDbSymbolTableRecord
100
AcDbBlockTableRecord
  2
_D_1
340
0
  0
BLOCK_RECORD
  5
1DF
330
1
100
AcDbSymbolTableRecord
100
AcDbBlockTableRecord
  2
_D_2
340
0
  0
BLOCK_RECORD
  5
1F4
330
1
100
AcDbSymbolTableRecord
100
AcDbBlockTableRecord
  2
_D_3
340
0
  0
BLOCK_RECORD
  5
20D
330
1
100
AcDbSymbolTableRecord
100
AcDbBlockTableRecord
  2
SW_DOWELSYMBOL_0
340
0
102
{BLKREFS
331
213
102
}
  0
ENDTAB
  0
ENDSEC
  0
SECTION
  2
BLOCKS
  0
BLOCK
  5
20
330
1F
100
AcDbEntity
  8
0
100
AcDbBlockBegin
  2
*Model_Space
 70
     0
 10
0.0
 20
0.0
 30
0.0
  3
*Model_Space
  1
*Model_Space
  0
ENDBLK
  5
21
330
1F
100
AcDbEntity
  8
0
100
AcDbBlockEnd
  0
BLOCK
  5
1C
330
1B
100
AcDbEntity
 67
     1
  8
0
100
AcDbBlockBegin
  2
*Paper_Space
 70
     0
 10
0.0
 20
0.0
 30
0.0
  3
*Paper_Space
  1
*Paper_Space
  0
ENDBLK
  5
1D
330
1B
100
AcDbEntity
 67
     1
  8
0
100
AcDbBlockEnd
  0
BLOCK
  5
24
330
23
100
AcDbEntity
  8
0
100
AcDbBlockBegin
  2
*Paper_Space0
 70
     0
 10
0.0
 20
0.0
 30
0.0
  3
*Paper_Space0
  1
*Paper_Space0
  0
ENDBLK
  5
25
330
23
100
AcDbEntity
  8
0
100
AcDbBlockEnd
  0
BLOCK
  5
80
330
7F
100
AcDbEntity
  8
0
100
AcDbBlockBegin
  2
블럭10
 70
     2
 10
0.0
 20
0.0
 30
0.0
  3
블럭10
  1
블럭10
  0
ELLIPSE
  5
82
330
7F
100
AcDbEntity
  8
중심선
100
AcDbEllipse
 10
20.54032771741204
 20
12.0471743016438
 30
0.0
 11
6.600054785286829
 21
-1.261213355974178E-13
 31
0.0
210
0.0
220
0.0
230
1.0
 40
0.636358354079598
 41
0.9219305317359503
 42
6.513795318482858
  0
ELLIPSE
  5
83
330
7F
100
AcDbEntity
  8
중심선
100
AcDbEllipse
 10
20.54032771746488
 20
12.04717430159265
 30
0.0
 11
3.960054785062283
 21
1.540847449632565E-10
 31
0.0
210
0.0
220
0.0
230
1.0
 40
0.3939339440162632
 41
1.131841032648279
 42
5.62031148352944
  0
LINE
  5
84
330
7F
100
AcDbEntity
  8
중심선
100
AcDbLine
 10
2.268634060543552
 20
16.24717430164393
 30
0.0
 11
5.714909304380834
 21
16.24717430164393
 31
0.0
  0
LINE
  5
85
330
7F
100
AcDbEntity
  8
중심선
100
AcDbLine
 10
5.245725140726316
 20
7.84717430164391
 30
0.0
 11
8.692000384563599
 21
7.84717430164391
 31
0.0
  0
LINE
  5
86
330
7F
100
AcDbEntity
  8
중심선
100
AcDbLine
 10
15.74043728645272
 20
16.24717430164393
 30
0.0
 11
8.692000384563599
 21
7.84717430164391
 31
0.0
  0
LINE
  5
87
330
7F
100
AcDbEntity
  8
중심선
100
AcDbLine
 10
0.1404042013395286
 20
13.71084872107135
 30
0.0
 11
3.58671253028996
 21
13.71088815037384
 31
0.0
  0
LINE
  5
88
330
7F
100
AcDbEntity
  8
중심선
100
AcDbLine
 10
2.750260043222114
 20
10.84717430164391
 30
0.0
 11
6.196535287059397
 21
10.84717430164391
 31
0.0
  0
LINE
  5
89
330
7F
100
AcDbEntity
  8
중심선
100
AcDbLine
 10
12.29416204261559
 20
16.24717430164393
 30
0.0
 11
5.245725140726316
 21
7.84717430164391
 31
0.0
  0
LINE
  5
8A
330
7F
100
AcDbEntity
  8
중심선
100
AcDbLine
 10
10.72767329541681
 20
16.24717430164393
 30
0.0
 11
6.196535287059397
 21
10.84717430164391
 31
0.0
  0
LINE
  5
8B
330
7F
100
AcDbEntity
  8
중심선
100
AcDbLine
 10
7.28139805157953
 20
16.24717430164393
 30
0.0
 11
2.750260043222114
 21
10.84717430164391
 31
0.0
  0
LINE
  5
8C
330
7F
100
AcDbEntity
  8
중심선
100
AcDbLine
 10
5.714909304380834
 20
16.24717430164393
 30
0.0
 11
3.58671253028996
 21
13.71088815037384
 31
0.0
  0
LINE
  5
8D
330
7F
100
AcDbEntity
  8
중심선
100
AcDbLine
 10
2.268634060543552
 20
16.24717430164393
 30
0.0
 11
0.1404042013395286
 21
13.71084872107135
 31
0.0
  0
LINE
  5
8E
330
7F
100
AcDbEntity
  8
중심선
100
AcDbLine
 10
7.28139805157953
 20
16.24717430164393
 30
0.0
 11
10.72767329541681
 21
16.24717430164393
 31
0.0
  0
LINE
  5
8F
330
7F
100
AcDbEntity
  8
중심선
100
AcDbLine
 10
12.29416204261559
 20
16.24717430164393
 30
0.0
 11
15.74043728645272
 21
16.24717430164393
 31
0.0
  0
LINE
  5
90
330
7F
100
AcDbEntity
  8
중심선
100
AcDbLine
 10
19.22036997980202
 20
11.08717430171403
 30
0.0
 11
23.66174974927406
 21
11.08717430171406
 31
0.0
  0
LINE
  5
91
330
7F
100
AcDbEntity
  8
중심선
100
AcDbLine
 10
19.22039502424796
 20
13.00717430171391
 30
0.0
 11
19.22036997980202
 21
11.08717430171403
 31
0.0
  0
LINE
  5
92
330
7F
100
AcDbEntity
  8
중심선
100
AcDbLine
 10
19.22039502424796
 20
13.00717430171391
 30
0.0
 11
26.96566020931264
 21
13.00717430171391
 31
0.0
  0
LINE
  5
93
330
7F
100
AcDbEntity
  8
중심선
100
AcDbLine
 10
22.22332737316547
 20
13.45928029700563
 30
0.0
 11
24.52862924686651
 21
15.39360700705356
 31
0.0
  0
ATTDEF
  5
95
330
7F
100
AcDbEntity
  8
FORMAT
 62
     2
100
AcDbText
 10
-9.18129528874128
 20
2.075366912832191
 30
0.0
 40
4.233333333333333
  1
E2191024 [ 3 FLUTE ]
 41
0.75
  7
SLDTEXTSTYLE0
 11
-9.18129528874128
 21
-0.0412997538344756
 31
0.0
100
AcDbAttributeDefinition
  3

  2
AUTOATTR0
 70
     0
 74
     1
  0
ENDBLK
  5
81
330
7F
100
AcDbEntity
  8
0
100
AcDbBlockEnd
  0
BLOCK
  5
1B8
330
1B7
100
AcDbEntity
  8
0
100
AcDbBlockBegin
  2
_D
 70
     0
 10
0.0
 20
0.0
 30
0.0
  3
_D
  1
_D
  0
LINE
  5
1BA
330
1B7
100
AcDbEntity
  8
치수문자_일반주서
 62
     0
370
    -2
100
AcDbLine
 10
-34.01250000000002
 20
4.7625
 30
0.0
 11
-47.45000000000008
 21
4.76249999999995
 31
0.0
  0
LINE
  5
1BB
330
1B7
100
AcDbEntity
  8
치수문자_일반주서
 62
     0
370
    -2
100
AcDbLine
 10
-34.01250000000002
 20
-4.762500000000006
 30
0.0
 11
-47.45000000000005
 21
-4.762500000000056
 31
0.0
  0
LINE
  5
1BC
330
1B7
100
AcDbEntity
  8
치수문자_일반주서
 62
     0
370
    -2
100
AcDbLine
 10
-47.45000000000007
 20
1.46049999999995
 30
0.0
 11
-47.45000000000006
 21
-1.460500000000057
 31
0.0
  0
SOLID
  5
1BD
330
1B7
100
AcDbEntity
  8
치수문자_일반주서
 62
     0
100
AcDbTrace
 10
-46.89966666666673
 20
1.460499999999952
 30
0.0
 11
-48.0003333333334
 21
1.460499999999948
 31
0.0
 12
-47.45000000000008
 22
4.76249999999995
 32
0.0
 13
-47.45000000000008
 23
4.76249999999995
 33
0.0
  0
SOLID
  5
1BE
330
1B7
100
AcDbEntity
  8
치수문자_일반주서
 62
     0
100
AcDbTrace
 10
-48.00033333333339
 20
-1.460500000000059
 30
0.0
 11
-46.89966666666673
 21
-1.460500000000055
 31
0.0
 12
-47.45000000000005
 22
-4.762500000000056
 32
0.0
 13
-47.45000000000005
 23
-4.762500000000056
 33
0.0
  0
MTEXT
  5
1BF
330
1B7
100
AcDbEntity
  8
치수문자_일반주서
 62
     0
100
AcDbMText
 10
-51.82500000000006
 20
-0.3630378551438931
 30
0.0
 40
3.5
 41
0.0
 71
     2
 72
     1
  1
\A1;%%c9.53 [3/8]
  7
SLDTEXTSTYLE0
 11
-3.729883127349605E-15
 21
1.0
 31
0.0
 73
     1
 44
1.0
  0
POINT
  5
1C0
330
1B7
100
AcDbEntity
  8
Defpoints
 62
     0
100
AcDbPoint
 10
-33.95000000000002
 20
4.7625
 30
0.0
  0
POINT
  5
1C1
330
1B7
100
AcDbEntity
  8
Defpoints
 62
     0
100
AcDbPoint
 10
-33.95000000000002
 20
-4.762500000000006
 30
0.0
  0
POINT
  5
1C2
330
1B7
100
AcDbEntity
  8
Defpoints
 62
     0
100
AcDbPoint
 10
-47.45000000000005
 20
-4.762500000000056
 30
0.0
  0
ENDBLK
  5
1B9
330
1B7
100
AcDbEntity
  8
0
100
AcDbBlockEnd
  0
BLOCK
  5
1CD
330
1CC
100
AcDbEntity
  8
0
100
AcDbBlockBegin
  2
_D_1
 70
     0
 10
0.0
 20
0.0
 30
0.0
  3
_D_1
  1
_D_1
  0
LINE
  5
1CF
330
1CC
100
AcDbEntity
  8
치수문자_일반주서
 62
     0
370
    -2
100
AcDbLine
 10
29.1125
 20
-4.7625
 30
0.0
 11
48.05000000000009
 21
-4.762499999999928
 31
0.0
  0
LINE
  5
1D0
330
1CC
100
AcDbEntity
  8
치수문자_일반주서
 62
     0
370
    -2
100
AcDbLine
 10
29.1125
 20
4.7625
 30
0.0
 11
48.05000000000005
 21
4.76250000000007
 31
0.0
  0
LINE
  5
1D1
330
1CC
100
AcDbEntity
  8
치수문자_일반주서
 62
     0
370
    -2
100
AcDbLine
 10
48.05000000000005
 20
4.76250000000007
 30
0.0
 11
48.04999999999993
 21
36.73328167855935
 31
0.0
  0
LINE
  5
1D2
330
1CC
100
AcDbEntity
  8
치수문자_일반주서
 62
     0
370
    -2
100
AcDbLine
 10
48.05000000000008
 20
-1.460499999999929
 30
0.0
 11
48.05000000000007
 21
1.460500000000071
 31
0.0
  0
SOLID
  5
1D3
330
1CC
100
AcDbEntity
  8
치수문자_일반주서
 62
     0
100
AcDbTrace
 10
47.49966666666674
 20
-1.460499999999931
 30
0.0
 11
48.60033333333341
 21
-1.460499999999927
 31
0.0
 12
48.05000000000009
 22
-4.762499999999928
 32
0.0
 13
48.05000000000009
 23
-4.762499999999928
 33
0.0
  0
SOLID
  5
1D4
330
1CC
100
AcDbEntity
  8
치수문자_일반주서
 62
     0
100
AcDbTrace
 10
48.6003333333334
 20
1.460500000000073
 30
0.0
 11
47.49966666666673
 21
1.460500000000069
 31
0.0
 12
48.05000000000005
 22
4.76250000000007
 32
0.0
 13
48.05000000000005
 23
4.76250000000007
 33
0.0
  0
MTEXT
  5
1D5
330
1CC
100
AcDbEntity
  8
치수문자_일반주서
 62
     0
100
AcDbMText
 10
43.67499999999998
 20
23.60828167855933
 30
0.0
 40
3.5
 41
0.0
 71
     2
 72
     1
  1
\A1;%%c9.53 [3/8]
  7
SLDTEXTSTYLE0
 11
-3.729883127349607E-15
 21
1.0
 31
0.0
 73
     1
 44
1.0
  0
POINT
  5
1D6
330
1CC
100
AcDbEntity
  8
Defpoints
 62
     0
100
AcDbPoint
 10
29.05
 20
-4.7625
 30
0.0
  0
POINT
  5
1D7
330
1CC
100
AcDbEntity
  8
Defpoints
 62
     0
100
AcDbPoint
 10
29.05
 20
4.7625
 30
0.0
  0
POINT
  5
1D8
330
1CC
100
AcDbEntity
  8
Defpoints
 62
     0
100
AcDbPoint
 10
48.05000000000005
 20
4.762500000000071
 30
0.0
  0
ENDBLK
  5
1CE
330
1CC
100
AcDbEntity
  8
0
100
AcDbBlockEnd
  0
BLOCK
  5
1E0
330
1DF
100
AcDbEntity
  8
0
100
AcDbBlockBegin
  2
_D_2
 70
     0
 10
0.0
 20
0.0
 30
0.0
  3
_D_2
  1
_D_2
  0
LINE
  5
1E2
330
1DF
100
AcDbEntity
  8
치수문자_일반주서
 62
     0
370
    -2
100
AcDbLine
 10
29.05
 20
4.618781678559283
 30
0.0
 11
29.05
 21
24.8912239778818
 31
0.0
  0
LINE
  5
1E3
330
1DF
100
AcDbEntity
  8
치수문자_일반주서
 62
     0
370
    -2
100
AcDbLine
 10
10.0000000000005
 20
-4.04304348006766
 30
0.0
 11
10.0000000000005
 21
24.8912239778818
 31
0.0
  0
LINE
  5
1E4
330
1DF
100
AcDbEntity
  8
치수문자_일반주서
 62
     0
370
    -2
100
AcDbLine
 10
10.0000000000005
 20
24.8912239778818
 30
0.0
 11
-18.2394999999995
 21
24.8912239778818
 31
0.0
  0
LINE
  5
1E5
330
1DF
100
AcDbEntity
  8
치수문자_일반주서
 62
     0
370
    -2
100
AcDbLine
 10
25.748
 20
24.8912239778818
 30
0.0
 11
13.3020000000005
 21
24.8912239778818
 31
0.0
  0
SOLID
  5
1E6
330
1DF
100
AcDbEntity
  8
치수문자_일반주서
 62
     0
100
AcDbTrace
 10
25.748
 20
24.34089064454846
 30
0.0
 11
25.748
 21
25.44155731121513
 31
0.0
 12
29.05
 22
24.8912239778818
 32
0.0
 13
29.05
 23
24.8912239778818
 33
0.0
  0
SOLID
  5
1E7
330
1DF
100
AcDbEntity
  8
치수문자_일반주서
 62
     0
100
AcDbTrace
 10
13.3020000000005
 20
25.44155731121513
 30
0.0
 11
13.3020000000005
 21
24.34089064454846
 31
0.0
 12
10.0000000000005
 22
24.8912239778818
 32
0.0
 13
10.0000000000005
 23
24.8912239778818
 33
0.0
  0
MTEXT
  5
1E8
330
1DF
100
AcDbEntity
  8
치수문자_일반주서
 62
     0
100
AcDbMText
 10
-5.770749999999502
 20
29.2662239778818
 30
0.0
 40
3.5
 41
0.0
 71
     2
 72
     1
  1
\A1;19.05 [3/4]
  7
SLDTEXTSTYLE0
 73
     1
 44
1.0
  0
POINT
  5
1E9
330
1DF
100
AcDbEntity
  8
Defpoints
 62
     0
100
AcDbPoint
 10
29.05
 20
4.556281678559283
 30
0.0
  0
POINT
  5
1EA
330
1DF
100
AcDbEntity
  8
Defpoints
 62
     0
100
AcDbPoint
 10
10.0000000000005
 20
-4.10554348006766
 30
0.0
  0
POINT
  5
239
330
1DF
100
AcDbEntity
  8
Defpoints
 62
     0
100
AcDbPoint
 10
10.0000000000005
 20
24.8912239778818
 30
0.0
  0
ENDBLK
  5
1E1
330
1DF
100
AcDbEntity
  8
0
100
AcDbBlockEnd
  0
BLOCK
  5
1F5
330
1F4
100
AcDbEntity
  8
0
100
AcDbBlockBegin
  2
_D_3
 70
     0
 10
0.0
 20
0.0
 30
0.0
  3
_D_3
  1
_D_3
  0
LINE
  5
1F7
330
1F4
100
AcDbEntity
  8
치수문자_일반주서
 62
     0
370
    -2
100
AcDbLine
 10
29.05
 20
4.618781678559283
 30
0.0
 11
29.05
 21
40.40448676640278
 31
0.0
  0
LINE
  5
1F8
330
1F4
100
AcDbEntity
  8
치수문자_일반주서
 62
     0
370
    -2
100
AcDbLine
 10
-34.45
 20
4.324999999999993
 30
0.0
 11
-34.45
 21
40.40448676640278
 31
0.0
  0
LINE
  5
1F9
330
1F4
100
AcDbEntity
  8
치수문자_일반주서
 62
     0
370
    -2
100
AcDbLine
 10
25.748
 20
40.40448676640278
 30
0.0
 11
-31.148
 21
40.40448676640278
 31
0.0
  0
SOLID
  5
1FA
330
1F4
100
AcDbEntity
  8
치수문자_일반주서
 62
     0
100
AcDbTrace
 10
25.748
 20
39.85415343306945
 30
0.0
 11
25.748
 21
40.95482009973612
 31
0.0
 12
29.05
 22
40.40448676640278
 32
0.0
 13
29.05
 23
40.40448676640278
 33
0.0
  0
SOLID
  5
1FB
330
1F4
100
AcDbEntity
  8
치수문자_일반주서
 62
     0
100
AcDbTrace
 10
-31.148
 20
40.95482009973612
 30
0.0
 11
-31.148
 21
39.85415343306945
 31
0.0
 12
-34.45
 22
40.40448676640278
 32
0.0
 13
-34.45
 23
40.40448676640278
 33
0.0
  0
MTEXT
  5
1FC
330
1F4
100
AcDbEntity
  8
치수문자_일반주서
 62
     0
100
AcDbMText
 10
-0.995900210167374
 20
44.77948676640278
 30
0.0
 40
3.5
 41
0.0
 71
     2
 72
     1
  1
\A1;63.50 [2 1/2]
  7
SLDTEXTSTYLE0
 73
     1
 44
1.0
  0
POINT
  5
1FD
330
1F4
100
AcDbEntity
  8
Defpoints
 62
     0
100
AcDbPoint
 10
29.05
 20
4.556281678559283
 30
0.0
  0
POINT
  5
1FE
330
1F4
100
AcDbEntity
  8
Defpoints
 62
     0
100
AcDbPoint
 10
-34.45
 20
4.262499999999993
 30
0.0
  0
POINT
  5
1FF
330
1F4
100
AcDbEntity
  8
Defpoints
 62
     0
100
AcDbPoint
 10
-34.45
 20
40.40448676640278
 30
0.0
  0
ENDBLK
  5
1F6
330
1F4
100
AcDbEntity
  8
0
100
AcDbBlockEnd
  0
BLOCK
  5
20E
330
20D
100
AcDbEntity
  8
0
100
AcDbBlockBegin
  2
SW_DOWELSYMBOL_0
 70
     0
 10
0.0
 20
0.0
 30
0.0
  3
SW_DOWELSYMBOL_0
  1
SW_DOWELSYMBOL_0
  0
CIRCLE
  5
210
330
20D
100
AcDbEntity
  8
해칭선
 62
     0
100
AcDbCircle
 10
0.0
 20
0.0
 30
0.0
 40
3.000000000000001
  0
HATCH
  5
211
330
20D
100
AcDbEntity
  8
0
  6
Continuous
 62
     0
370
     0
100
AcDbHatch
 10
0.0
 20
0.0
 30
0.0
210
0.0
220
0.0
230
1.0
  2
SOLID
 70
     1
 71
     0
 91
        1
 92
        0
 93
        3
 72
     2
 10
0.0
 20
0.0
 40
3.000000000000001
 50
0.0
 51
90.0
 73
     1
 72
     1
 10
0.0
 20
3.000000000000001
 11
0.0
 21
0.0
 72
     1
 10
0.0
 20
0.0
 11
3.000000000000001
 21
0.0
 97
        0
 75
     0
 76
     1
 98
        1
 10
0.0
 20
0.0
  0
HATCH
  5
212
330
20D
100
AcDbEntity
  8
0
  6
Continuous
 62
     0
370
     0
100
AcDbHatch
 10
0.0
 20
0.0
 30
0.0
210
0.0
220
0.0
230
1.0
  2
SOLID
 70
     1
 71
     0
 91
        1
 92
        0
 93
        3
 72
     2
 10
0.0
 20
0.0
 40
3.000000000000001
 50
180.0
 51
270.0000000000008
 73
     1
 72
     1
 10
0.0
 20
-3.000000000000001
 11
0.0
 21
0.0
 72
     1
 10
0.0
 20
0.0
 11
-3.000000000000001
 21
0.0
 97
        0
 75
     0
 76
     1
 98
        1
 10
0.0
 20
0.0
  0
ENDBLK
  5
20F
330
20D
100
AcDbEntity
  8
0
100
AcDbBlockEnd
  0
ENDSEC
  0
SECTION
  2
ENTITIES
  0
LINE
  5
9C
330
1F
100
AcDbEntity
  8
외형선
  6
Continuous
370
    15
100
AcDbLine
 10
10.0
 20
4.7625
 30
0.0
 11
-9.767549999999883
 21
4.762499999999997
 31
0.0
  0
LINE
  5
9D
330
1F
100
AcDbEntity
  8
외형선
  6
Continuous
370
    15
100
AcDbLine
 10
-33.95
 20
-4.762500000000008
 30
0.0
 11
9.999999999999996
 21
-4.762500000000002
 31
0.0
  0
LINE
  5
9E
330
1F
100
AcDbEntity
  8
외형선
  6
Continuous
370
    15
100
AcDbLine
 10
-33.95
 20
4.762499999999991
 30
0.0
 11
-34.45
 21
4.262499999999992
 31
0.0
  0
LINE
  5
9F
330
1F
100
AcDbEntity
  8
외형선
  6
Continuous
370
    15
100
AcDbLine
 10
-34.45
 20
-4.262500000000009
 30
0.0
 11
-33.95
 21
-4.762500000000009
 31
0.0
  0
SPLINE
  5
A1
330
1F
100
AcDbEntity
  8
외형선
  6
Continuous
 62
     1
370
    15
100
AcDbSpline
210
0.0
220
0.0
230
1.0
 70
     8
 71
     3
 72
     9
 73
     5
 74
     0
 42
0.000000001
 43
0.00000001
 40
0.0
 40
0.0
 40
0.0
 40
0.0
 40
0.5005039082756177
 40
1.0
 40
1.0
 40
1.0
 40
1.0
 10
21.33709866639079
 20
-4.741482549285734
 30
0.0
 10
21.41496784980652
 20
-4.726176604629711
 30
0.0
 10
21.57054941895752
 20
-4.695595535425365
 30
0.0
 10
21.70816264918948
 20
-4.614557933311318
 30
0.0
 10
21.77689991985991
 20
-4.574079967772633
 30
0.0
  0
SPLINE
  5
A2
330
1F
100
AcDbEntity
  8
외형선
  6
Continuous
 62
     1
370
    15
100
AcDbSpline
210
0.0
220
0.0
230
1.0
 70
     8
 71
     3
 72
     9
 73
     5
 74
     0
 42
0.000000001
 43
0.00000001
 40
0.0
 40
0.0
 40
0.0
 40
0.0
 40
0.500548120186049
 40
1.0
 40
1.0
 40
1.0
 40
1.0
 10
20.01882989584677
 20
4.748589775394277
 30
0.0
 10
19.94095017721014
 20
4.733507532853155
 30
0.0
 10
19.78536130274252
 20
4.703376079086999
 30
0.0
 10
19.64771968954021
 20
4.62264098712193
 30
0.0
 10
19.57897432708569
 20
4.582317693673025
 30
0.0
  0
SPLINE
  5
A5
330
1F
100
AcDbEntity
  8
외형선
  6
Continuous
 62
     1
370
    15
100
AcDbSpline
210
0.0
220
0.0
230
1.0
 70
     8
 71
     3
 72
    11
 73
     7
 74
     0
 42
0.000000001
 43
0.00000001
 40
0.0
 40
0.0
 40
0.0
 40
0.0
 40
0.2475331572402483
 40
0.500123758493205
 40
0.7526539211963245
 40
1.0
 40
1.0
 40
1.0
 40
1.0
 10
21.76721969029565
 20
-4.585389248840548
 30
0.0
 10
21.78637916771864
 20
-4.575635232738314
 30
0.0
 10
21.82508957712957
 20
-4.555927912523762
 30
0.0
 10
21.89503124130042
 20
-4.549470964083284
 30
0.0
 10
21.96508302123981
 20
-4.562611152484941
 30
0.0
 10
22.004065526189
 20
-4.587105717710851
 30
0.0
 10
22.02335464005458
 20
-4.59922598700464
 30
0.0
  0
SPLINE
  5
A6
330
1F
100
AcDbEntity
  8
외형선
  6
Continuous
 62
     1
370
    15
100
AcDbSpline
210
0.0
220
0.0
230
1.0
 70
     8
 71
     3
 72
    11
 73
     7
 74
     0
 42
0.000000001
 43
0.00000001
 40
0.0
 40
0.0
 40
0.0
 40
0.0
 40
0.2448723857059365
 40
0.4999004230009588
 40
0.7549795258215556
 40
1.0
 40
1.0
 40
1.0
 40
1.0
 10
21.99412556178626
 20
-4.60040299061985
 30
0.0
 10
22.07939427308112
 20
-4.645501070100988
 30
0.0
 10
22.25346806552681
 20
-4.737567592604776
 30
0.0
 10
22.55144476538498
 20
-4.775365677646056
 30
0.0
 10
22.84944621079241
 20
-4.736579407713402
 30
0.0
 10
23.02353714873033
 20
-4.643891706267096
 30
0.0
 10
23.10883185027694
 20
-4.598479981075962
 30
0.0
  0
SPLINE
  5
A7
330
1F
100
AcDbEntity
  8
외형선
  6
Continuous
 62
     1
370
    15
100
AcDbSpline
210
0.0
220
0.0
230
1.0
 70
     8
 71
     3
 72
    11
 73
     7
 74
     0
 42
0.000000001
 43
0.00000001
 40
0.0
 40
0.0
 40
0.0
 40
0.0
 40
0.2474902840570865
 40
0.4998386785779817
 40
0.7522601901977708
 40
1.0
 40
1.0
 40
1.0
 40
1.0
 10
19.58765324817321
 20
4.591111206598687
 30
0.0
 10
19.56855835669808
 20
4.581128771056585
 30
0.0
 10
19.52999375058078
 20
4.560967949756614
 30
0.0
 10
19.46021502468387
 20
4.553749878810537
 30
0.0
 10
19.39034143164816
 20
4.566133477867202
 30
0.0
 10
19.35160608019791
 20
4.589978997315105
 30
0.0
 10
19.33241969334652
 20
4.601790155434776
 30
0.0
  0
SPLINE
  5
A9
330
1F
100
AcDbEntity
  8
외형선
  6
Continuous
 62
     1
370
    15
100
AcDbSpline
210
0.0
220
0.0
230
1.0
 70
     8
 71
     3
 72
    11
 73
     7
 74
     0
 42
0.000000001
 43
0.00000001
 40
0.0
 40
0.0
 40
0.0
 40
0.0
 40
0.2451111722254867
 40
0.5001425086278894
 40
0.755100899633682
 40
1.0
 40
1.0
 40
1.0
 40
1.0
 10
19.35929565698532
 20
4.598244535074872
 30
0.0
 10
19.27362573164492
 20
4.643835498980112
 30
0.0
 10
19.09881863907267
 20
4.736862588897309
 30
0.0
 10
18.79962392535659
 20
4.775521650880282
 30
0.0
 10
18.500463499581
 20
4.737061566212299
 30
0.0
 10
18.32567575225408
 20
4.644133259860866
 30
0.0
 10
18.24004062061303
 20
4.598604166035424
 30
0.0
  0
SPLINE
  5
AD
330
1F
100
AcDbEntity
  8
외형선
  6
Continuous
 62
     1
370
    15
100
AcDbSpline
210
0.0
220
0.0
230
1.0
 70
     8
 71
     3
 72
    10
 73
     6
 74
     0
 42
0.000000001
 43
0.00000001
 40
0.0
 40
0.0
 40
0.0
 40
0.0
 40
0.2525692357229511
 40
0.6136770876145343
 40
1.0
 40
1.0
 40
1.0
 40
1.0
 10
10.00054509268322
 20
-4.743620479761538
 30
0.0
 10
10.05391143289139
 20
-4.750834238939508
 30
0.0
 10
10.18357766140831
 20
-4.768361784249679
 30
0.0
 10
10.39755448678868
 20
-4.712173908681619
 30
0.0
 10
10.54008797682273
 20
-4.635367429801251
 30
0.0
 10
10.61375895159946
 20
-4.595668632227889
 30
0.0
  0
SPLINE
  5
AE
330
1F
100
AcDbEntity
  8
외형선
  6
Continuous
 62
     1
370
    15
100
AcDbSpline
210
0.0
220
0.0
230
1.0
 70
     8
 71
     3
 72
     9
 73
     5
 74
     0
 42
0.000000001
 43
0.00000001
 40
0.0
 40
0.0
 40
0.0
 40
0.0
 40
0.4690654234141967
 40
1.0
 40
1.0
 40
1.0
 40
1.0
 10
23.11371077651306
 20
-4.595699432195642
 30
0.0
 10
23.14464415124318
 20
-4.580015735490827
 30
0.0
 10
23.21059097483328
 20
-4.546579681750909
 30
0.0
 10
23.29759789891042
 20
-4.578841269849553
 30
0.0
 10
23.34379288330535
 20
-4.595970062466693
 30
0.0
  0
SPLINE
  5
AF
330
1F
100
AcDbEntity
  8
외형선
  6
Continuous
 62
     1
370
    15
100
AcDbSpline
210
0.0
220
0.0
230
1.0
 70
     8
 71
     3
 72
     9
 73
     5
 74
     0
 42
0.000000001
 43
0.00000001
 40
0.0
 40
0.0
 40
0.0
 40
0.0
 40
0.5683907153488743
 40
1.0
 40
1.0
 40
1.0
 40
1.0
 10
23.3406876849137
 20
-4.593652763406256
 30
0.0
 10
23.4211851620071
 20
-4.640144163788769
 30
0.0
 10
23.56280865253857
 20
-4.721938955869383
 30
0.0
 10
23.72641968162583
 20
-4.750220164479457
 30
0.0
 10
23.79703572085122
 20
-4.762426596696721
 30
0.0
  0
SPLINE
  5
B0
330
1F
100
AcDbEntity
  8
외형선
  6
Continuous
 62
     1
370
    15
100
AcDbSpline
210
0.0
220
0.0
230
1.0
 70
     8
 71
     3
 72
     9
 73
     5
 74
     0
 42
0.000000001
 43
0.00000001
 40
0.0
 40
0.0
 40
0.0
 40
0.0
 40
0.4726613254074552
 40
1.0
 40
1.0
 40
1.0
 40
1.0
 10
18.23526289410906
 20
4.595879764630793
 30
0.0
 10
18.19669912051823
 20
4.579905628314876
 30
0.0
 10
18.11511052522203
 20
4.546109471410891
 30
0.0
 10
18.04487355428154
 20
4.577367666871776
 30
0.0
 10
18.0078348831184
 20
4.593851322236275
 30
0.0
  0
SPLINE
  5
B1
330
1F
100
AcDbEntity
  8
외형선
  6
Continuous
 62
     1
370
    15
100
AcDbSpline
210
0.0
220
0.0
230
1.0
 70
     8
 71
     3
 72
     9
 73
     5
 74
     0
 42
0.000000001
 43
0.00000001
 40
0.0
 40
0.0
 40
0.0
 40
0.0
 40
0.4502721400307105
 40
1.0
 40
1.0
 40
1.0
 40
1.0
 10
18.00503739177593
 20
4.595895725809052
 30
0.0
 10
17.94333892937886
 20
4.632554317667872
 30
0.0
 10
17.80631410169831
 20
4.713968619375106
 30
0.0
 10
17.64103299485674
 20
4.745276679482472
 30
0.0
 10
17.55017336569937
 20
4.762487592365083
 30
0.0
  0
SPLINE
  5
B2
330
1F
100
AcDbEntity
  8
외형선
  6
Continuous
 62
     1
370
    15
100
AcDbSpline
210
0.0
220
0.0
230
1.0
 70
     8
 71
     3
 72
     9
 73
     5
 74
     0
 42
0.000000001
 43
0.00000001
 40
0.0
 40
0.0
 40
0.0
 40
0.0
 40
0.5010794162388483
 40
1.0
 40
1.0
 40
1.0
 40
1.0
 10
23.80311708338812
 20
-4.76227938027016
 30
0.0
 10
23.88224807953029
 20
-4.748052287092433
 30
0.0
 10
24.04016914668594
 20
-4.719659396231906
 30
0.0
 10
24.18066975451998
 20
-4.638889077729974
 30
0.0
 10
24.25076839979933
 20
-4.598591103272415
 30
0.0
  0
SPLINE
  5
B3
330
1F
100
AcDbEntity
  8
외형선
  6
Continuous
 62
     1
370
    15
100
AcDbSpline
210
0.0
220
0.0
230
1.0
 70
     8
 71
     3
 72
     9
 73
     5
 74
     0
 42
0.000000001
 43
0.00000001
 40
0.0
 40
0.0
 40
0.0
 40
0.0
 40
0.5006584956019282
 40
1.0
 40
1.0
 40
1.0
 40
1.0
 10
10.61394110742553
 20
-4.595551583305114
 30
0.0
 10
10.65247457633052
 20
-4.578905507030778
 30
0.0
 10
10.72944015115544
 20
-4.545657142286016
 30
0.0
 10
10.80655419878222
 20
-4.579789956680393
 30
0.0
 10
10.8450604433344
 20
-4.596833887569423
 30
0.0
  0
SPLINE
  5
B4
330
1F
100
AcDbEntity
  8
외형선
  6
Continuous
 62
     1
370
    15
100
AcDbSpline
210
0.0
220
0.0
230
1.0
 70
     8
 71
     3
 72
     9
 73
     5
 74
     0
 42
0.000000001
 43
0.00000001
 40
0.0
 40
0.0
 40
0.0
 40
0.0
 40
0.5014544752854129
 40
1.0
 40
1.0
 40
1.0
 40
1.0
 10
17.54741269417109
 20
4.76244938674156
 30
0.0
 10
17.46792202698948
 20
4.748324399624648
 30
0.0
 10
17.30940182007267
 20
4.720156364811775
 30
0.0
 10
17.16804086406063
 20
4.638907890265551
 30
0.0
 10
17.09756599207144
 20
4.598401826890642
 30
0.0
  0
SPLINE
  5
B5
330
1F
100
AcDbEntity
  8
외형선
  6
Continuous
 62
     1
370
    15
100
AcDbSpline
210
0.0
220
0.0
230
1.0
 70
     8
 71
     3
 72
     9
 73
     5
 74
     0
 42
0.000000001
 43
0.00000001
 40
0.0
 40
0.0
 40
0.0
 40
0.0
 40
0.4985097485463844
 40
1.0
 40
1.0
 40
1.0
 40
1.0
 10
10.84510326987819
 20
-4.596862243811747
 30
0.0
 10
10.9156312107139
 20
-4.637607946513548
 30
0.0
 10
11.05710876665211
 20
-4.719342963372521
 30
0.0
 10
11.21571629799768
 20
-4.74792720697393
 30
0.0
 10
11.29525642877461
 20
-4.762261926485212
 30
0.0
  0
SPLINE
  5
B6
330
1F
100
AcDbEntity
  8
외형선
  6
Continuous
 62
     1
370
    15
100
AcDbSpline
210
0.0
220
0.0
230
1.0
 70
     8
 71
     3
 72
     9
 73
     5
 74
     0
 42
0.000000001
 43
0.00000001
 40
0.0
 40
0.0
 40
0.0
 40
0.0
 40
0.4499249429244258
 40
1.0
 40
1.0
 40
1.0
 40
1.0
 10
24.25499630982853
 20
-4.595924109258704
 30
0.0
 10
24.28698072410018
 20
-4.580544278715707
 30
0.0
 10
24.3580690573314
 20
-4.546361175989663
 30
0.0
 10
24.44002079754029
 20
-4.578239709217909
 30
0.0
 10
24.48510040571313
 20
-4.595775295202921
 30
0.0
  0
SPLINE
  5
B7
330
1F
100
AcDbEntity
  8
외형선
  6
Continuous
 62
     1
370
    15
100
AcDbSpline
210
0.0
220
0.0
230
1.0
 70
     8
 71
     3
 72
    11
 73
     7
 74
     0
 42
0.000000001
 43
0.00000001
 40
0.0
 40
0.0
 40
0.0
 40
0.0
 40
0.2042320642727174
 40
0.4438497257250276
 40
0.7133789643461801
 40
1.0
 40
1.0
 40
1.0
 40
1.0
 10
24.48519888049989
 20
-4.595838701052134
 30
0.0
 10
24.5547200020056
 20
-4.634495794580361
 30
0.0
 10
24.70580759357594
 20
-4.7185077758573
 30
0.0
 10
24.98619775314334
 20
-4.773868918318249
 30
0.0
 10
25.31042610554179
 20
-4.75267065320098
 30
0.0
 10
25.512536304948
 20
-4.647742958136293
 30
0.0
 10
25.61669706391828
 20
-4.593666774019661
 30
0.0
  0
SPLINE
  5
B8
330
1F
100
AcDbEntity
  8
외형선
  6
Continuous
 62
     1
370
    15
100
AcDbSpline
210
0.0
220
0.0
230
1.0
 70
     8
 71
     3
 72
     9
 73
     5
 74
     0
 42
0.000000001
 43
0.00000001
 40
0.0
 40
0.0
 40
0.0
 40
0.0
 40
0.462229478919765
 40
1.0
 40
1.0
 40
1.0
 40
1.0
 10
17.0907892210293
 20
4.593733064196293
 30
0.0
 10
17.05996600130725
 20
4.578999006583197
 30
0.0
 10
16.99328219785512
 20
4.547122940072835
 30
0.0
 10
16.90911606975694
 20
4.578652175153517
 30
0.0
 10
16.86385400719228
 20
4.595607668332118
 30
0.0
  0
SPLINE
  5
B9
330
1F
100
AcDbEntity
  8
외형선
  6
Continuous
 62
     1
370
    15
100
AcDbSpline
210
0.0
220
0.0
230
1.0
 70
     8
 71
     3
 72
     9
 73
     5
 74
     0
 42
0.000000001
 43
0.00000001
 40
0.0
 40
0.0
 40
0.0
 40
0.0
 40
0.5013910952315812
 40
1.0
 40
1.0
 40
1.0
 40
1.0
 10
11.30618191328876
 20
-4.761790388898248
 30
0.0
 10
11.38598686905944
 20
-4.747097498964706
 30
0.0
 10
11.54515394747319
 20
-4.71779324910212
 30
0.0
 10
11.68720195734916
 20
-4.634988823737503
 30
0.0
 10
11.75802835997795
 20
-4.593701799896473
 30
0.0
  0
SPLINE
  5
BA
330
1F
100
AcDbEntity
  8
외형선
  6
Continuous
 62
     1
370
    15
100
AcDbSpline
210
0.0
220
0.0
230
1.0
 70
     8
 71
     3
 72
    11
 73
     7
 74
     0
 42
0.000000001
 43
0.00000001
 40
0.0
 40
0.0
 40
0.0
 40
0.0
 40
0.245278720075772
 40
0.500224755777565
 40
0.7550560025861363
 40
1.0
 40
1.0
 40
1.0
 40
1.0
 10
16.86219185836657
 20
4.596637013926986
 30
0.0
 10
16.77591410626611
 20
4.64273720103193
 30
0.0
 10
16.59995808586548
 20
4.736754549250098
 30
0.0
 10
16.29880636215559
 20
4.775687656904215
 30
0.0
 10
15.99770660122155
 20
4.736483700737661
 30
0.0
 10
15.82177125107112
 20
4.642245502590965
 30
0.0
 10
15.73554387496467
 20
4.596058579108901
 30
0.0
  0
SPLINE
  5
BB
330
1F
100
AcDbEntity
  8
외형선
  6
Continuous
 62
     1
370
    15
100
AcDbSpline
210
0.0
220
0.0
230
1.0
 70
     8
 71
     3
 72
     9
 73
     5
 74
     0
 42
0.000000001
 43
0.00000001
 40
0.0
 40
0.0
 40
0.0
 40
0.0
 40
0.5007269098647761
 40
1.0
 40
1.0
 40
1.0
 40
1.0
 10
11.75154262978022
 20
-4.598140380486003
 30
0.0
 10
11.79027740706295
 20
-4.580496419104791
 30
0.0
 10
11.86763449836285
 20
-4.545259724144699
 30
0.0
 10
11.94600670770436
 20
-4.578968340387561
 30
0.0
 10
11.98513584284302
 20
-4.595798145383315
 30
0.0
  0
SPLINE
  5
BC
330
1F
100
AcDbEntity
  8
외형선
  6
Continuous
 62
     1
370
    15
100
AcDbSpline
210
0.0
220
0.0
230
1.0
 70
     8
 71
     3
 72
    11
 73
     7
 74
     0
 42
0.000000001
 43
0.00000001
 40
0.0
 40
0.0
 40
0.0
 40
0.0
 40
0.2448438590679463
 40
0.4999130867148414
 40
0.7550269583619083
 40
1.0
 40
1.0
 40
1.0
 40
1.0
 10
11.98810203182178
 20
-4.597579608476563
 30
0.0
 10
12.07309314225899
 20
-4.642987126915824
 30
0.0
 10
12.24662483108194
 20
-4.73569850954737
 30
0.0
 10
12.54372230166199
 20
-4.774917659574362
 30
0.0
 10
12.8408419605786
 20
-4.737902438467524
 30
0.0
 10
13.01439134647798
 20
-4.646647596953182
 30
0.0
 10
13.09940641047737
 20
-4.601945415200182
 30
0.0
  0
SPLINE
  5
BD
330
1F
100
AcDbEntity
  8
외형선
  6
Continuous
 62
     1
370
    15
100
AcDbSpline
210
0.0
220
0.0
230
1.0
 70
     8
 71
     3
 72
    11
 73
     7
 74
     0
 42
0.000000001
 43
0.00000001
 40
0.0
 40
0.0
 40
0.0
 40
0.0
 40
0.2482971376720704
 40
0.5002164698297691
 40
0.7520355731408765
 40
0.9999999999999999
 40
0.9999999999999999
 40
0.9999999999999999
 40
0.9999999999999999
 10
25.59455221620613
 20
-4.602745072307756
 30
0.0
 10
25.61338916808486
 20
-4.591562038567481
 30
0.0
 10
25.65133786801542
 20
-4.569032831376474
 30
0.0
 10
25.72040706150013
 20
-4.557990093188846
 30
0.0
 10
25.7893841519492
 20
-4.566466894957389
 30
0.0
 10
25.82717798323119
 20
-4.587141105037579
 30
0.0
 10
25.84592915278145
 20
-4.597398483169975
 30
0.0
  0
SPLINE
  5
BE
330
1F
100
AcDbEntity
  8
외형선
  6
Continuous
 62
     1
370
    15
100
AcDbSpline
210
0.0
220
0.0
230
1.0
 70
     8
 71
     3
 72
    11
 73
     7
 74
     0
 42
0.000000001
 43
0.00000001
 40
0.0
 40
0.0
 40
0.0
 40
0.0
 40
0.2477198850471207
 40
0.4998039725941861
 40
0.7519831856242031
 40
1.0
 40
1.0
 40
1.0
 40
1.0
 10
15.76048693054959
 20
4.602758631178264
 30
0.0
 10
15.74145773241859
 20
4.591211656099307
 30
0.0
 10
15.7030640894563
 20
4.56791427722796
 30
0.0
 10
15.63360421010126
 20
4.556096738886009
 30
0.0
 10
15.56425918488394
 20
4.563850900463068
 30
0.0
 10
15.52615940784376
 20
4.584195622385165
 30
0.0
 10
15.50726804363413
 20
4.594283333690369
 30
0.0
  0
SPLINE
  5
BF
330
1F
100
AcDbEntity
  8
외형선
  6
Continuous
 62
     1
370
    15
100
AcDbSpline
210
0.0
220
0.0
230
1.0
 70
     8
 71
     3
 72
     9
 73
     5
 74
     0
 42
0.000000001
 43
0.00000001
 40
0.0
 40
0.0
 40
0.0
 40
0.0
 40
0.4993429973058475
 40
1.0
 40
1.0
 40
1.0
 40
1.0
 10
25.83910340660627
 20
-4.592360070403167
 30
0.0
 10
25.90808185201644
 20
-4.632511846806953
 30
0.0
 10
26.04622025744586
 20
-4.712921057750973
 30
0.0
 10
26.20221106664726
 20
-4.742382166753998
 30
0.0
 10
26.28030895762987
 20
-4.7571320772835
 30
0.0
  0
LINE
  5
C0
330
1F
100
AcDbEntity
  8
외형선
  6
Continuous
 62
     1
370
    15
100
AcDbLine
 10
29.05
 20
4.562499999999999
 30
0.0
 11
28.85399333315304
 21
4.758506666846965
 31
0.0
  0
SPLINE
  5
C1
330
1F
100
AcDbEntity
  8
외형선
  6
Continuous
 62
     1
370
    15
100
AcDbSpline
210
0.0
220
0.0
230
1.0
 70
     8
 71
     3
 72
     9
 73
     5
 74
     0
 42
0.000000001
 43
0.00000001
 40
0.0
 40
0.0
 40
0.0
 40
0.0
 40
0.7798020055683172
 40
1.0
 40
1.0
 40
1.0
 40
1.0
 10
15.51550458837919
 20
4.587119928935031
 30
0.0
 10
15.44741812692838
 20
4.62979428277834
 30
0.0
 10
15.36010562841642
 20
4.684518884072753
 30
0.0
 10
15.2613305255717
 20
4.706718511831647
 30
0.0
 10
15.2395804460255
 20
4.711606825341285
 30
0.0
  0
LINE
  5
C2
330
1F
100
AcDbEntity
  8
외형선
  6
Continuous
 62
     1
370
    15
100
AcDbLine
 10
26.30331460364103
 20
-4.762256229303285
 30
0.0
 11
26.40083487749062
 21
-4.743339309434185
 31
0.0
  0
LINE
  5
C3
330
1F
100
AcDbEntity
  8
외형선
  6
Continuous
 62
     1
370
    15
100
AcDbLine
 10
13.17833395592107
 20
-4.571479371516959
 30
0.0
 11
13.20170016523721
 21
-4.568213190689348
 31
0.0
  0
LINE
  5
C4
330
1F
100
AcDbEntity
  8
외형선
  6
Continuous
 62
     1
370
    15
100
AcDbLine
 10
13.34519795187038
 20
-4.596924742200803
 30
0.0
 11
13.39018613041608
 21
-4.619618676804183
 31
0.0
  0
LINE
  5
C5
330
1F
100
AcDbEntity
  8
외형선
  6
Continuous
 62
     1
370
    15
100
AcDbLine
 10
28.00387076824667
 20
4.596683272467732
 30
0.0
 11
27.94839186246081
 21
4.629849033935582
 31
0.0
  0
SPLINE
  5
C6
330
1F
100
AcDbEntity
  8
외형선
  6
Continuous
370
    15
100
AcDbSpline
210
0.0
220
0.0
230
1.0
 70
     8
 71
     3
 72
     8
 73
     4
 74
     0
 42
0.000000001
 43
0.00000001
 40
0.0
 40
0.0
 40
0.0
 40
0.0
 40
1.0
 40
1.0
 40
1.0
 40
1.0
 10
8.480103071735428
 20
2.338330700800875
 30
0.0
 10
8.626303338061707
 20
2.234595442099647
 30
0.0
 10
8.767209382181408
 20
2.115382474343537
 30
0.0
 10
8.89458923538712
 20
1.987798705795684
 30
0.0
  0
SPLINE
  5
C9
330
1F
100
AcDbEntity
  8
외형선
  6
Continuous
370
    15
100
AcDbSpline
210
0.0
220
0.0
230
1.0
 70
    24
 71
     3
 72
    18
 73
    14
 74
     0
 42
0.000000001
 43
0.00000001
 40
0.0
 40
0.0
 40
0.0
 40
0.0
 40
0.2500000000000001
 40
0.2500000000000001
 40
0.3750000000000001
 40
0.3750000000000001
 40
0.5000000000000001
 40
0.5000000000000001
 40
0.6250000000000001
 40
0.6250000000000001
 40
0.7500000000000002
 40
0.7500000000000002
 40
1.0
 40
1.0
 40
1.0
 40
1.0
 10
8.480103071735428
 20
2.338344726052068
 30
0.0
 10
8.480103071735428
 20
1.954456178854742
 30
0.0
 10
8.48010307173543
 20
1.549596455195593
 30
0.0
 10
8.48010307173543
 20
0.9114059193688959
 30
0.0
 10
8.480103071735325
 20
0.6933851566656014
 30
0.0
 10
8.480103071735325
 20
0.2607186392775246
 30
0.0
 10
8.480103071735412
 20
0.044330212018084
 30
0.0
 10
8.480103071735412
 20
-0.3885574327291736
 30
0.0
 10
8.480103071735428
 20
-0.6068345184323037
 30
0.0
 10
8.480103071735428
 20
-1.0336229294352
 30
0.0
 10
8.480103071735424
 20
-1.24171682588935
 30
0.0
 10
8.480103071735424
 20
-1.850433020813924
 30
0.0
 10
8.480103071730365
 20
-2.239488117876423
 30
0.0
 10
8.480103071730365
 20
-2.588493748288789
 30
0.0
  0
SPLINE
  5
CA
330
1F
100
AcDbEntity
  8
외형선
  6
Continuous
 62
     1
370
    15
100
AcDbSpline
210
0.0
220
0.0
230
1.0
 70
     8
 71
     3
 72
    12
 73
     8
 74
     0
 42
0.000000001
 43
0.00000001
 40
0.0
 40
0.0
 40
0.0
 40
0.0
 40
0.4999999999999993
 40
0.4999999999999993
 40
0.7499999999999997
 40
0.7499999999999997
 40
1.0
 40
1.0
 40
1.0
 40
1.0
 10
16.24034307514033
 20
0.262281627118228
 30
0.0
 10
16.079363789928
 20
0.3772492171336219
 30
0.0
 10
15.90381020001077
 20
0.5162172608921026
 30
0.0
 10
15.63744762020708
 20
0.7157648470316481
 30
0.0
 10
15.55065747881663
 20
0.7789692386395486
 30
0.0
 10
15.37997659123785
 20
0.8972775366981016
 30
0.0
 10
15.29671484712886
 20
0.9518407657169531
 30
0.0
 10
15.21940918925974
 20
0.9990415530084746
 30
0.0
  0
SPLINE
  5
CB
330
1F
100
AcDbEntity
  8
외형선
  6
Continuous
 62
     1
370
    15
100
AcDbSpline
210
0.0
220
0.0
230
1.0
 70
     8
 71
     3
 72
    12
 73
     8
 74
     0
 42
0.000000001
 43
0.00000001
 40
0.0
 40
0.0
 40
0.0
 40
0.0
 40
0.5000000000000004
 40
0.5000000000000004
 40
0.7500000000000002
 40
0.7500000000000002
 40
1.0
 40
1.0
 40
1.0
 40
1.0
 10
14.9308679645707
 20
-2.241869660648077
 30
0.0
 10
15.09178638908917
 20
-2.390152263419048
 30
0.0
 10
15.26758659966681
 20
-2.531221047382762
 30
0.0
 10
15.53406912245699
 20
-2.69773023175384
 30
0.0
 10
15.62075889974769
 20
-2.744230840438656
 30
0.0
 10
15.79101280353723
 20
-2.818014588576491
 30
0.0
 10
15.87393577117088
 20
-2.844782990368872
 30
0.0
 10
15.95101680576178
 20
-2.859062353875936
 30
0.0
  0
SPLINE
  5
CC
330
1F
100
AcDbEntity
  8
외형선
  6
Continuous
 62
     1
370
    15
100
AcDbSpline
210
0.0
220
0.0
230
1.0
 70
     8
 71
     3
 72
    12
 73
     8
 74
     0
 42
0.000000001
 43
0.00000001
 40
0.0
 40
0.0
 40
0.0
 40
0.0
 40
0.5000000000000036
 40
0.5000000000000036
 40
0.7500000000000018
 40
0.7500000000000018
 40
1.0
 40
1.0
 40
1.0
 40
1.0
 10
27.47357832698572
 20
-1.787988229917856
 30
0.0
 10
27.63420690195944
 20
-1.931228842799442
 30
0.0
 10
27.80984832118128
 20
-2.074510620757775
 30
0.0
 10
28.07661278432172
 20
-2.252172538981645
 30
0.0
 10
28.16347359688373
 20
-2.303613646426897
 30
0.0
 10
28.33418823833642
 20
-2.389606220398139
 30
0.0
 10
28.41741262747103
 20
-2.423603567843315
 30
0.0
 10
28.49465588971217
 20
-2.446314417343381
 30
0.0
  0
SPLINE
  5
CD
330
1F
100
AcDbEntity
  8
외형선
  6
Continuous
 62
     1
370
    15
100
AcDbSpline
210
0.0
220
0.0
230
1.0
 70
     8
 71
     3
 72
    12
 73
     8
 74
     0
 42
0.000000001
 43
0.00000001
 40
0.0
 40
0.0
 40
0.0
 40
0.0
 40
0.5
 40
0.5
 40
0.75
 40
0.75
 40
1.0
 40
1.0
 40
1.0
 40
1.0
 10
28.78312409463076
 20
0.7654917317151805
 30
0.0
 10
28.62249770989401
 20
0.8910657105556266
 30
0.0
 10
28.44693912261049
 20
1.032565334030854
 30
0.0
 10
28.18037723070715
 20
1.226628065467607
 30
0.0
 10
28.09360900171168
 20
1.286571928399848
 30
0.0
 10
27.92311865678995
 20
1.395530445709059
 30
0.0
 10
27.84003550304113
 20
1.443992183673134
 30
0.0
 10
27.76293732716427
 20
1.483794366133761
 30
0.0
  0
SPLINE
  5
CF
330
1F
100
AcDbEntity
  8
외형선
  6
Continuous
 62
     1
370
    15
100
AcDbSpline
210
0.0
220
0.0
230
1.0
 70
     8
 71
     3
 72
    12
 73
     8
 74
     0
 42
0.000000001
 43
0.00000001
 40
0.0
 40
0.0
 40
0.0
 40
0.0
 40
0.4999999999999989
 40
0.4999999999999989
 40
0.7499999999999994
 40
0.7499999999999994
 40
1.0
 40
1.0
 40
1.0
 40
1.0
 10
13.88770846566207
 20
1.916886134361141
 30
0.0
 10
13.72733308424922
 20
2.061331584283913
 30
0.0
 10
13.55193422616641
 20
2.203851686796658
 30
0.0
 10
13.28567355362219
 20
2.378139608149054
 30
0.0
 10
13.19900603293131
 20
2.428101866689451
 30
0.0
 10
13.02871453055011
 20
2.510498316680131
 30
0.0
 10
12.94573493032634
 20
2.542376245434942
 30
0.0
 10
12.86872059117763
 20
2.562741453483292
 30
0.0
  0
SPLINE
  5
D0
330
1F
100
AcDbEntity
  8
외형선
  6
Continuous
 62
     1
370
    15
100
AcDbSpline
210
0.0
220
0.0
230
1.0
 70
     8
 71
     3
 72
    12
 73
     8
 74
     0
 42
0.000000001
 43
0.00000001
 40
0.0
 40
0.0
 40
0.0
 40
0.0
 40
0.5
 40
0.5
 40
0.75
 40
0.75
 40
1.0
 40
1.0
 40
1.0
 40
1.0
 10
12.57893175385975
 20
-0.6268512032873175
 30
0.0
 10
12.73918996614362
 20
-0.7497317565799733
 30
0.0
 10
12.91446072272511
 20
-0.8905204052860995
 30
0.0
 10
13.18070343225216
 20
-1.085901107089991
 30
0.0
 10
13.26738604224821
 20
-1.146675539382995
 30
0.0
 10
13.43774250478146
 20
-1.258083741566502
 30
0.0
 10
13.5207709907026
 20
-1.30816280418515
 30
0.0
 10
13.59783491944722
 20
-1.349962966896719
 30
0.0
  0
SPLINE
  5
D1
330
1F
100
AcDbEntity
  8
외형선
  6
Continuous
 62
     1
370
    15
100
AcDbSpline
210
0.0
220
0.0
230
1.0
 70
     8
 71
     3
 72
     8
 73
     4
 74
     0
 42
0.000000001
 43
0.00000001
 40
0.0
 40
0.0
 40
0.0
 40
0.0
 40
1.0
 40
1.0
 40
1.0
 40
1.0
 10
14.26452277174537
 20
-1.861281349657816
 30
0.0
 10
14.40689227763657
 20
-1.953812643127546
 30
0.0
 10
14.54614230039732
 20
-2.028077839916998
 30
0.0
 10
14.67013945168681
 20
-2.075118413924343
 30
0.0
  0
SPLINE
  5
D2
330
1F
100
AcDbEntity
  8
외형선
  6
Continuous
 62
     1
370
    15
100
AcDbSpline
210
0.0
220
0.0
230
1.0
 70
     8
 71
     3
 72
    12
 73
     8
 74
     0
 42
0.000000001
 43
0.00000001
 40
0.0
 40
0.0
 40
0.0
 40
0.0
 40
0.2499999999999999
 40
0.2499999999999999
 40
0.4999999999999999
 40
0.4999999999999999
 40
1.0
 40
1.0
 40
1.0
 40
1.0
 10
14.55250447477517
 20
1.508323750858459
 30
0.0
 10
14.52822181311562
 20
1.23478488553585
 30
0.0
 10
14.50438501941812
 20
0.954598288926576
 30
0.0
 10
14.45868143341796
 20
0.3949812389219373
 30
0.0
 10
14.43494176647054
 20
0.1079971286001434
 30
0.0
 10
14.36216999862254
 20
-0.756235538872138
 30
0.0
 10
14.31184677787191
 20
-1.334921448432194
 30
0.0
 10
14.26452279572719
 20
-1.861281365243424
 30
0.0
  0
SPLINE
  5
D3
330
1F
100
AcDbEntity
  8
외형선
  6
Continuous
 62
     1
370
    15
100
AcDbSpline
210
0.0
220
0.0
230
1.0
 70
     8
 71
     3
 72
     8
 73
     4
 74
     0
 42
0.000000001
 43
0.00000001
 40
0.0
 40
0.0
 40
0.0
 40
0.0
 40
1.0
 40
1.0
 40
1.0
 40
1.0
 10
14.95901693416774
 20
1.183044901553767
 30
0.0
 10
14.83202858804292
 20
1.288572681520179
 30
0.0
 10
14.69333820122409
 20
1.402549579430522
 30
0.0
 10
14.55250447477518
 20
1.508323750858437
 30
0.0
  0
SPLINE
  5
D4
330
1F
100
AcDbEntity
  8
외형선
  6
Continuous
 62
     1
370
    15
100
AcDbSpline
210
0.0
220
0.0
230
1.0
 70
     8
 71
     3
 72
     8
 73
     4
 74
     0
 42
0.000000001
 43
0.00000001
 40
0.0
 40
0.0
 40
0.0
 40
0.0
 40
1.0
 40
1.0
 40
1.0
 40
1.0
 10
13.85800193617736
 20
-1.530145717115918
 30
0.0
 10
13.98509164504641
 20
-1.640765404098851
 30
0.0
 10
14.12364939393627
 20
-1.756701272699491
 30
0.0
 10
14.26452279572711
 20
-1.86128136524447
 30
0.0
  0
SPLINE
  5
D5
330
1F
100
AcDbEntity
  8
외형선
  6
Continuous
 62
     1
370
    15
100
AcDbSpline
210
0.0
220
0.0
230
1.0
 70
     8
 71
     3
 72
     8
 73
     4
 74
     0
 42
0.000000001
 43
0.00000001
 40
0.0
 40
0.0
 40
0.0
 40
0.0
 40
1.0
 40
1.0
 40
1.0
 40
1.0
 10
14.55250447477517
 20
1.508323750858431
 30
0.0
 10
14.41008594104349
 20
1.604842715253579
 30
0.0
 10
14.27117095648621
 20
1.686292718223449
 30
0.0
 10
14.14765076122886
 20
1.743094791872084
 30
0.0
  0
SPLINE
  5
D6
330
1F
100
AcDbEntity
  8
외형선
  6
Continuous
 62
     1
370
    15
100
AcDbSpline
210
0.0
220
0.0
230
1.0
 70
     8
 71
     3
 72
    12
 73
     8
 74
     0
 42
0.000000001
 43
0.00000001
 40
0.0
 40
0.0
 40
0.0
 40
0.0
 40
0.5000000000000032
 40
0.5000000000000032
 40
0.7500000000000016
 40
0.7500000000000016
 40
1.0
 40
1.0
 40
1.0
 40
1.0
 10
25.12310203078387
 20
-0.1237520641214894
 30
0.0
 10
25.28379867584851
 20
-0.2351820755065833
 30
0.0
 10
25.45933592350129
 20
-0.3722063859740704
 30
0.0
 10
25.72521288288945
 20
-0.5720905313399868
 30
0.0
 10
25.81166582808461
 20
-0.6360652230236008
 30
0.0
 10
25.98183470675631
 20
-0.7565739991898268
 30
0.0
 10
26.06484746656812
 20
-0.8126347327079873
 30
0.0
 10
26.14193643356339
 20
-0.86173063374599
 30
0.0
  0
SPLINE
  5
D7
330
1F
100
AcDbEntity
  8
외형선
  6
Continuous
 62
     1
370
    15
100
AcDbSpline
210
0.0
220
0.0
230
1.0
 70
     8
 71
     3
 72
    12
 73
     8
 74
     0
 42
0.000000001
 43
0.00000001
 40
0.0
 40
0.0
 40
0.0
 40
0.0
 40
0.5000000000000031
 40
0.5000000000000031
 40
0.7500000000000016
 40
0.7500000000000016
 40
1.0
 40
1.0
 40
1.0
 40
1.0
 10
26.43190765585492
 20
2.362215014461312
 30
0.0
 10
26.2711144631057
 20
2.511736001763119
 30
0.0
 10
26.0953925126794
 20
2.652025995317044
 30
0.0
 10
25.829253289874
 20
2.815231815356575
 30
0.0
 10
25.74274547955654
 20
2.860388258334782
 30
0.0
 10
25.57255604676
 20
2.930540742769745
 30
0.0
 10
25.48950919499901
 20
2.954979141298388
 30
0.0
 10
25.41235821481204
 20
2.966798635685203
 30
0.0
  0
SPLINE
  5
D8
330
1F
100
AcDbEntity
  8
외형선
  6
Continuous
 62
     1
370
    15
100
AcDbSpline
210
0.0
220
0.0
230
1.0
 70
     8
 71
     3
 72
     8
 73
     4
 74
     0
 42
0.000000001
 43
0.00000001
 40
0.0
 40
0.0
 40
0.0
 40
0.0
 40
1.0
 40
1.0
 40
1.0
 40
1.0
 10
26.80826746290827
 20
-1.369619005477952
 30
0.0
 10
26.95071804239624
 20
-1.467518637802999
 30
0.0
 10
27.08972806042265
 20
-1.551338865067049
 30
0.0
 10
27.21334469327277
 20
-1.611522011767939
 30
0.0
  0
SPLINE
  5
D9
330
1F
100
AcDbEntity
  8
외형선
  6
Continuous
 62
     1
370
    15
100
AcDbSpline
210
0.0
220
0.0
230
1.0
 70
     8
 71
     3
 72
    12
 73
     8
 74
     0
 42
0.000000001
 43
0.00000001
 40
0.0
 40
0.0
 40
0.0
 40
0.0
 40
0.2499999999999999
 40
0.2499999999999999
 40
0.4999999999999998
 40
0.4999999999999998
 40
1.0
 40
1.0
 40
1.0
 40
1.0
 10
27.09678341484886
 20
1.994424997783461
 30
0.0
 10
27.07221300362783
 20
1.731670346731291
 30
0.0
 10
27.04771975326267
 20
1.458085610148939
 30
0.0
 10
27.00006938138412
 20
0.9031576441368754
 30
0.0
 10
26.97755346626113
 20
0.6244836753183566
 30
0.0
 10
26.90711325520403
 20
-0.2284106407991855
 30
0.0
 10
26.85692120442062
 20
-0.817203194287115
 30
0.0
 10
26.80826748687085
 20
-1.369619021945836
 30
0.0
  0
SPLINE
  5
DA
330
1F
100
AcDbEntity
  8
외형선
  6
Continuous
 62
     1
370
    15
100
AcDbSpline
210
0.0
220
0.0
230
1.0
 70
     8
 71
     3
 72
     8
 73
     4
 74
     0
 42
0.000000001
 43
0.00000001
 40
0.0
 40
0.0
 40
0.0
 40
0.0
 40
1.0
 40
1.0
 40
1.0
 40
1.0
 10
27.50288254921092
 20
1.662471871172168
 30
0.0
 10
27.3760387715747
 20
1.774792093049621
 30
0.0
 10
27.23766875880102
 20
1.890928742873049
 30
0.0
 10
27.09678341484907
 20
1.994424997783251
 30
0.0
  0
SPLINE
  5
DB
330
1F
100
AcDbEntity
  8
외형선
  6
Continuous
 62
     1
370
    15
100
AcDbSpline
210
0.0
220
0.0
230
1.0
 70
     8
 71
     3
 72
     8
 73
     4
 74
     0
 42
0.000000001
 43
0.00000001
 40
0.0
 40
0.0
 40
0.0
 40
0.0
 40
1.0
 40
1.0
 40
1.0
 40
1.0
 10
26.40196515373307
 20
-1.046890440361229
 30
0.0
 10
26.52882843917427
 20
-1.150370301732184
 30
0.0
 10
26.66744665834485
 20
-1.263569338016873
 30
0.0
 10
26.80826748687081
 20
-1.369619021946303
 30
0.0
  0
SPLINE
  5
DC
330
1F
100
AcDbEntity
  8
외형선
  6
Continuous
 62
     1
370
    15
100
AcDbSpline
210
0.0
220
0.0
230
1.0
 70
     8
 71
     3
 72
     8
 73
     4
 74
     0
 42
0.000000001
 43
0.00000001
 40
0.0
 40
0.0
 40
0.0
 40
0.0
 40
1.0
 40
1.0
 40
1.0
 40
1.0
 10
27.09678341484864
 20
1.994424997783414
 30
0.0
 10
26.95460157324075
 20
2.084683503665273
 30
0.0
 10
26.81561204305088
 20
2.155724611028937
 30
0.0
 10
26.69195894513947
 20
2.198765853288343
 30
0.0
  0
LINE
  5
DD
330
1F
100
AcDbEntity
  8
외형선
  6
Continuous
 62
     1
370
    15
100
AcDbLine
 10
29.05
 20
-2.484363138555829
 30
0.0
 11
29.05
 21
0.5707809352054715
 31
0.0
  0
SPLINE
  5
DE
330
1F
100
AcDbEntity
  8
외형선
  6
Continuous
 62
     1
370
    15
100
AcDbSpline
210
0.0
220
0.0
230
1.0
 70
     8
 71
     3
 72
     8
 73
     4
 74
     0
 42
0.000000001
 43
0.00000001
 40
0.0001102963804855
 40
0.0001102963804855
 40
0.0001102963804855
 40
0.0001102963804855
 40
0.0003104083482519
 40
0.0003104083482519
 40
0.0003104083482519
 40
0.0003104083482519
 10
28.92109415541124
 20
-2.624339816875557
 30
0.0
 10
28.96415933938223
 20
-2.577697623292004
 30
0.0
 10
29.00713048857458
 20
-2.531038709325452
 30
0.0
 10
29.05
 20
-2.484363138555829
 30
0.0
  0
SPLINE
  5
DF
330
1F
100
AcDbEntity
  8
외형선
  6
Continuous
 62
     1
370
    15
100
AcDbSpline
210
0.0
220
0.0
230
1.0
 70
     8
 71
     3
 72
    14
 73
    10
 74
     0
 42
0.000000001
 43
0.00000001
 40
0.0
 40
0.0
 40
0.0
 40
0.0
 40
0.25
 40
0.25
 40
0.5
 40
0.5
 40
0.75
 40
0.75
 40
1.0
 40
1.0
 40
1.0
 40
1.0
 10
29.00815352975595
 20
0.1596763487967938
 30
0.0
 10
28.9997846665598
 20
-0.0848755826745826
 30
0.0
 10
28.99161745293366
 20
-0.3287303334328771
 30
0.0
 10
28.97571741032631
 20
-0.8150613125731352
 30
0.0
 10
28.96799988282241
 20
-1.057177374733067
 30
0.0
 10
28.95343512107159
 20
-1.526154319636093
 30
0.0
 10
28.94652791359065
 20
-1.754828307335844
 30
0.0
 10
28.93342957215812
 20
-2.200432702513488
 30
0.0
 10
28.92721163616233
 20
-2.417874611360014
 30
0.0
 10
28.92109415541123
 20
-2.624339816875556
 30
0.0
  0
SPLINE
  5
E0
330
1F
100
AcDbEntity
  8
외형선
  6
Continuous
 62
     1
370
    15
100
AcDbSpline
210
0.0
220
0.0
230
1.0
 70
     8
 71
     3
 72
     8
 73
     4
 74
     0
 42
0.000000001
 43
0.00000001
 40
0.0
 40
0.0
 40
0.0
 40
0.0
 40
1.0
 40
1.0
 40
1.0
 40
1.0
 10
29.02183411654366
 20
0.5923935665280398
 30
0.0
 10
29.01768170886024
 20
0.4490008766083524
 30
0.0
 10
29.01311510926911
 20
0.3046618533573209
 30
0.0
 10
29.00815352975595
 20
0.1596763487967612
 30
0.0
  0
SPLINE
  5
E1
330
1F
100
AcDbEntity
  8
외형선
  6
Continuous
 62
     1
370
    15
100
AcDbSpline
210
0.0
220
0.0
230
1.0
 70
     8
 71
     3
 72
     8
 73
     4
 74
     0
 42
0.000000001
 43
0.00000001
 40
0.0
 40
0.0
 40
0.0
 40
0.0
 40
1.0
 40
1.0
 40
1.0
 40
1.0
 10
29.02183411654385
 20
0.5923935665281226
 30
0.0
 10
29.03120632282457
 20
0.5851290883066287
 30
0.0
 10
29.04059479325713
 20
0.5779246849899632
 30
0.0
 10
29.05000000000001
 20
0.5707809352055877
 30
0.0
  0
SPLINE
  5
E2
330
1F
100
AcDbEntity
  8
외형선
  6
Continuous
 62
     1
370
    15
100
AcDbSpline
210
0.0
220
0.0
230
1.0
 70
     8
 71
     3
 72
    12
 73
     8
 74
     0
 42
0.000000001
 43
0.00000001
 40
0.0
 40
0.0
 40
0.0
 40
0.0
 40
0.5000000000000002
 40
0.5000000000000002
 40
0.7500000000000001
 40
0.7500000000000001
 40
1.0
 40
1.0
 40
1.0
 40
1.0
 10
11.01004871926338
 20
3.705175745402711
 30
0.0
 10
11.17056785632934
 20
3.858092239449156
 30
0.0
 10
11.34613067386176
 20
3.975875151516231
 30
0.0
 10
11.6126904427461
 20
4.080754256018432
 30
0.0
 10
11.69946954581575
 20
4.102773984888398
 30
0.0
 10
11.87000785754659
 20
4.12022708104412
 30
0.0
 10
11.9531360171063
 20
4.115208326110865
 30
0.0
 10
12.03031121336312
 20
4.095465397197737
 30
0.0
  0
SPLINE
  5
E3
330
1F
100
AcDbEntity
  8
외형선
  6
Continuous
 62
     1
370
    15
100
AcDbSpline
210
0.0
220
0.0
230
1.0
 70
     8
 71
     3
 72
     8
 73
     4
 74
     0
 42
0.000000001
 43
0.00000001
 40
0.0
 40
0.0
 40
0.0
 40
0.0
 40
1.0
 40
1.0
 40
1.0
 40
1.0
 10
12.03031121336318
 20
4.09546539719781
 30
0.0
 10
12.10873490168721
 20
4.075403079526045
 30
0.0
 10
12.20992045855917
 20
4.105505033097333
 30
0.0
 10
12.29101936864423
 20
4.179896845429162
 30
0.0
  0
SPLINE
  5
E4
330
1F
100
AcDbEntity
  8
외형선
  6
Continuous
 62
     1
370
    15
100
AcDbSpline
210
0.0
220
0.0
230
1.0
 70
     8
 71
     3
 72
     8
 73
     4
 74
     0
 42
0.000000001
 43
0.00000001
 40
0.0
 40
0.0
 40
0.0
 40
0.0
 40
1.0
 40
1.0
 40
1.0
 40
1.0
 10
12.29101936864425
 20
4.179896845429176
 30
0.0
 10
12.41822289502598
 20
4.296580298420252
 30
0.0
 10
12.55681992530362
 20
4.385253472370828
 30
0.0
 10
12.69788961666114
 20
4.440348700481092
 30
0.0
  0
SPLINE
  5
E5
330
1F
100
AcDbEntity
  8
외형선
  6
Continuous
 62
     1
370
    15
100
AcDbSpline
210
0.0
220
0.0
230
1.0
 70
     8
 71
     3
 72
     8
 73
     4
 74
     0
 42
0.000000001
 43
0.00000001
 40
0.0
 40
0.0
 40
0.0
 40
0.0
 40
1.0
 40
1.0
 40
1.0
 40
1.0
 10
12.69788959267665
 20
4.440348696753099
 30
0.0
 10
12.84018672203348
 20
4.462466421530124
 30
0.0
 10
12.97934525194635
 20
4.447502785602227
 30
0.0
 10
13.10317456263021
 20
4.39318600552838
 30
0.0
  0
SPLINE
  5
E6
330
1F
100
AcDbEntity
  8
외형선
  6
Continuous
 62
     1
370
    15
100
AcDbSpline
210
0.0
220
0.0
230
1.0
 70
     8
 71
     3
 72
     8
 73
     4
 74
     0
 42
0.000000001
 43
0.00000001
 40
0.0
 40
0.0
 40
0.0
 40
0.0
 40
1.0
 40
1.0
 40
1.0
 40
1.0
 10
13.1031745626302
 20
4.393186005528386
 30
0.0
 10
13.1809526133346
 20
4.35906925844038
 30
0.0
 10
13.28194674646634
 20
4.376738526905386
 30
0.0
 10
13.36335277585962
 20
4.444695909263636
 30
0.0
  0
SPLINE
  5
E7
330
1F
100
AcDbEntity
  8
외형선
  6
Continuous
 62
     1
370
    15
100
AcDbSpline
210
0.0
220
0.0
230
1.0
 70
     8
 71
     3
 72
    12
 73
     8
 74
     0
 42
0.000000001
 43
0.00000001
 40
0.0
 40
0.0
 40
0.0
 40
0.0
 40
0.5000000000000008
 40
0.5000000000000008
 40
0.7500000000000003
 40
0.7500000000000003
 40
1.0
 40
1.0
 40
1.0
 40
1.0
 10
13.3633527758596
 20
4.44469590926362
 30
0.0
 10
13.52402936545401
 20
4.578827994030179
 30
0.0
 10
13.69963023388844
 20
4.658694541848519
 30
0.0
 10
13.96571351262896
 20
4.694316383159158
 30
0.0
 10
14.05226361493759
 20
4.691781550897936
 30
0.0
 10
14.22223119332305
 20
4.657730126862735
 30
0.0
 10
14.30512063250266
 20
4.625863981834127
 30
0.0
 10
14.38213896295687
 20
4.579165904312823
 30
0.0
  0
SPLINE
  5
E8
330
1F
100
AcDbEntity
  8
외형선
  6
Continuous
 62
     1
370
    15
100
AcDbSpline
210
0.0
220
0.0
230
1.0
 70
     8
 71
     3
 72
     8
 73
     4
 74
     0
 42
0.000000001
 43
0.00000001
 40
0.0
 40
0.0
 40
0.0
 40
0.0
 40
1.0
 40
1.0
 40
1.0
 40
1.0
 10
14.38213896295686
 20
4.579165904312831
 30
0.0
 10
14.46025193062003
 20
4.531804121762606
 30
0.0
 10
14.56122541787013
 20
4.536173460426129
 30
0.0
 10
14.64215857816608
 20
4.595926730131739
 30
0.0
  0
SPLINE
  5
E9
330
1F
100
AcDbEntity
  8
외형선
  6
Continuous
 62
     1
370
    15
100
AcDbSpline
210
0.0
220
0.0
230
1.0
 70
     8
 71
     3
 72
     8
 73
     4
 74
     0
 42
0.000000001
 43
0.00000001
 40
0.0
 40
0.0
 40
0.0
 40
0.0
 40
1.0
 40
1.0
 40
1.0
 40
1.0
 10
14.64215857816631
 20
4.595926730131771
 30
0.0
 10
14.76900855337421
 20
4.689580564394834
 30
0.0
 10
14.90763219556576
 20
4.744699977240724
 30
0.0
 10
15.04851181819169
 20
4.762491716088164
 30
0.0
  0
SPLINE
  5
EA
330
1F
100
AcDbEntity
  8
외형선
  6
Continuous
 62
     1
370
    15
100
AcDbSpline
210
0.0
220
0.0
230
1.0
 70
     8
 71
     3
 72
     8
 73
     4
 74
     0
 42
0.000000001
 43
0.00000001
 40
0.0
 40
0.0
 40
0.0
 40
0.0
 40
1.0
 40
1.0
 40
1.0
 40
1.0
 10
15.04851179422166
 20
4.762491719184102
 30
0.0
 10
15.19096785421055
 20
4.744090078392501
 30
0.0
 10
15.33003633447065
 20
4.687227711682221
 30
0.0
 10
15.45372502566975
 20
4.593813320831268
 30
0.0
  0
SPLINE
  5
EB
330
1F
100
AcDbEntity
  8
외형선
  6
Continuous
 62
     1
370
    15
100
AcDbSpline
210
0.0
220
0.0
230
1.0
 70
     8
 71
     3
 72
     8
 73
     4
 74
     0
 42
0.000000001
 43
0.00000001
 40
0.0
 40
0.0
 40
0.0
 40
0.0
 40
1.0
 40
1.0
 40
1.0
 40
1.0
 10
15.45372502566989
 20
4.593813320831217
 30
0.0
 10
15.5316208191964
 20
4.534983463132999
 30
0.0
 10
15.63263895881048
 20
4.526404914827006
 30
0.0
 10
15.71407978008511
 20
4.575616853360738
 30
0.0
  0
SPLINE
  5
EC
330
1F
100
AcDbEntity
  8
외형선
  6
Continuous
 62
     1
370
    15
100
AcDbSpline
210
0.0
220
0.0
230
1.0
 70
     8
 71
     3
 72
    12
 73
     8
 74
     0
 42
0.000000001
 43
0.00000001
 40
0.0
 40
0.0
 40
0.0
 40
0.0
 40
0.5
 40
0.5
 40
0.75
 40
0.75
 40
1.0
 40
1.0
 40
1.0
 40
1.0
 10
15.71407978008513
 20
4.575616853360748
 30
0.0
 10
15.87480402658755
 20
4.6727370888389
 30
0.0
 10
16.05017579222961
 20
4.703642433242916
 30
0.0
 10
16.31690356907463
 20
4.665168425526509
 30
0.0
 10
16.40377012578082
 20
4.638412611165111
 30
0.0
 10
16.57452787198923
 20
4.557288040309344
 30
0.0
 10
16.65778868239793
 20
4.502800754317131
 30
0.0
 10
16.7350688704708
 20
4.43550371007057
 30
0.0
  0
SPLINE
  5
ED
330
1F
100
AcDbEntity
  8
외형선
  6
Continuous
 62
     1
370
    15
100
AcDbSpline
210
0.0
220
0.0
230
1.0
 70
     8
 71
     3
 72
     8
 73
     4
 74
     0
 42
0.000000001
 43
0.00000001
 40
0.0
 40
0.0
 40
0.0
 40
0.0
 40
1.0
 40
1.0
 40
1.0
 40
1.0
 10
16.7350688704708
 20
4.435503710070571
 30
0.0
 10
16.81334183526905
 20
4.367342137141034
 30
0.0
 10
16.91442408853226
 20
4.345565960484885
 30
0.0
 10
16.99539966667397
 20
4.382619434192
 30
0.0
  0
SPLINE
  5
EE
330
1F
100
AcDbEntity
  8
외형선
  6
Continuous
 62
     1
370
    15
100
AcDbSpline
210
0.0
220
0.0
230
1.0
 70
     8
 71
     3
 72
     8
 73
     4
 74
     0
 42
0.000000001
 43
0.00000001
 40
0.0
 40
0.0
 40
0.0
 40
0.0
 40
1.0
 40
1.0
 40
1.0
 40
1.0
 10
16.995399666674
 20
4.382619434192012
 30
0.0
 10
17.12242388550301
 20
4.440744225154429
 30
0.0
 10
17.26108420732017
 20
4.454941774114142
 30
0.0
 10
17.40177214421161
 20
4.432956762337804
 30
0.0
  0
SPLINE
  5
EF
330
1F
100
AcDbEntity
  8
외형선
  6
Continuous
 62
     1
370
    15
100
AcDbSpline
210
0.0
220
0.0
230
1.0
 70
     8
 71
     3
 72
     8
 73
     4
 74
     0
 42
0.000000001
 43
0.00000001
 40
0.0
 40
0.0
 40
0.0
 40
0.0
 40
1.0
 40
1.0
 40
1.0
 40
1.0
 10
17.40177212025921
 20
4.432956771849665
 30
0.0
 10
17.54395791249137
 20
4.376492658497757
 30
0.0
 10
17.68284265281854
 20
4.285453900037145
 30
0.0
 10
17.8065703782267
 20
4.165349489013442
 30
0.0
  0
SPLINE
  5
F0
330
1F
100
AcDbEntity
  8
외형선
  6
Continuous
 62
     1
370
    15
100
AcDbSpline
210
0.0
220
0.0
230
1.0
 70
     8
 71
     3
 72
     8
 73
     4
 74
     0
 42
0.000000001
 43
0.00000001
 40
0.0
 40
0.0
 40
0.0
 40
0.0
 40
1.0
 40
1.0
 40
1.0
 40
1.0
 10
17.8065703782267
 20
4.165349489013444
 30
0.0
 10
17.88426873564969
 20
4.089926495298712
 30
0.0
 10
17.98519831142129
 20
4.05607329729108
 30
0.0
 10
18.06657016791345
 20
4.079904364825028
 30
0.0
  0
SPLINE
  5
F1
330
1F
100
AcDbEntity
  8
외형선
  6
Continuous
 62
     1
370
    15
100
AcDbSpline
210
0.0
220
0.0
230
1.0
 70
     8
 71
     3
 72
    12
 73
     8
 74
     0
 42
0.000000001
 43
0.00000001
 40
0.0
 40
0.0
 40
0.0
 40
0.0
 40
0.500000000000001
 40
0.500000000000001
 40
0.7500000000000004
 40
0.7500000000000004
 40
1.0
 40
1.0
 40
1.0
 40
1.0
 10
18.06657016791344
 20
4.079904364825025
 30
0.0
 10
18.22714177589024
 20
4.126930363723051
 30
0.0
 10
18.40272346144357
 20
4.10514379457635
 30
0.0
 10
18.66896476963563
 20
3.997760179794309
 30
0.0
 10
18.75559160395352
 20
3.950382768877153
 30
0.0
 10
18.92574844436206
 20
3.833347537268142
 30
0.0
 10
19.00863867171052
 20
3.763785422120384
 30
0.0
 10
19.08556647744482
 20
3.685241121838332
 30
0.0
  0
SPLINE
  5
F2
330
1F
100
AcDbEntity
  8
외형선
  6
Continuous
 62
     1
370
    15
100
AcDbSpline
210
0.0
220
0.0
230
1.0
 70
     8
 71
     3
 72
     8
 73
     4
 74
     0
 42
0.000000001
 43
0.00000001
 40
0.0
 40
0.0
 40
0.0
 40
0.0
 40
1.0
 40
1.0
 40
1.0
 40
1.0
 10
19.0855664774463
 20
3.685241121834648
 30
0.0
 10
19.16375494075598
 20
3.605409673607091
 30
0.0
 10
19.2647147143874
 20
3.560166476921016
 30
0.0
 10
19.34573721024059
 20
3.56934510803265
 30
0.0
  0
SPLINE
  5
F3
330
1F
100
AcDbEntity
  8
외형선
  6
Continuous
 62
     1
370
    15
100
AcDbSpline
210
0.0
220
0.0
230
1.0
 70
     8
 71
     3
 72
     8
 73
     4
 74
     0
 42
0.000000001
 43
0.00000001
 40
0.0
 40
0.0
 40
0.0
 40
0.0
 40
1.0
 40
1.0
 40
1.0
 40
1.0
 10
19.34573721024061
 20
3.56934510803266
 30
0.0
 10
19.47269621943614
 20
3.583727655736643
 30
0.0
 10
19.61144200265866
 20
3.555146885418578
 30
0.0
 10
19.75250963349325
 20
3.496737508382807
 30
0.0
  0
SPLINE
  5
F4
330
1F
100
AcDbEntity
  8
외형선
  6
Continuous
 62
     1
370
    15
100
AcDbSpline
210
0.0
220
0.0
230
1.0
 70
     8
 71
     3
 72
     8
 73
     4
 74
     0
 42
0.000000001
 43
0.00000001
 40
0.0
 40
0.0
 40
0.0
 40
0.0
 40
1.0
 40
1.0
 40
1.0
 40
1.0
 10
19.75250960949156
 20
3.496737522946266
 30
0.0
 10
19.89511915882697
 20
3.410206278354429
 30
0.0
 10
20.03443576286977
 20
3.297691785386587
 30
0.0
 10
20.15840350855744
 20
3.167629841324165
 30
0.0
  0
SPLINE
  5
F5
330
1F
100
AcDbEntity
  8
외형선
  6
Continuous
 62
     1
370
    15
100
AcDbSpline
210
0.0
220
0.0
230
1.0
 70
     8
 71
     3
 72
     8
 73
     4
 74
     0
 42
0.000000001
 43
0.00000001
 40
0.0
 40
0.0
 40
0.0
 40
0.0
 40
1.0
 40
1.0
 40
1.0
 40
1.0
 10
20.15840350855743
 20
3.167629841324171
 30
0.0
 10
20.23637745892734
 20
3.085822726779342
 30
0.0
 10
20.33749697207568
 20
3.031372827981673
 30
0.0
 10
20.41902869605406
 20
3.026340495033208
 30
0.0
  0
SPLINE
  5
F6
330
1F
100
AcDbEntity
  8
외형선
  6
Continuous
 62
     1
370
    15
100
AcDbSpline
210
0.0
220
0.0
230
1.0
 70
     8
 71
     3
 72
    12
 73
     8
 74
     0
 42
0.000000001
 43
0.00000001
 40
0.0
 40
0.0
 40
0.0
 40
0.0
 40
0.5000000000000013
 40
0.5000000000000013
 40
0.7500000000000007
 40
0.7500000000000007
 40
1.0
 40
1.0
 40
1.0
 40
1.0
 10
20.41902869605406
 20
3.026340495033206
 30
0.0
 10
20.57980164062563
 20
3.01641720448182
 30
0.0
 10
20.75497019276509
 20
2.94382798607422
 30
0.0
 10
21.02116360760295
 20
2.781719660345702
 30
0.0
 10
21.10788286489935
 20
2.720174726935227
 30
0.0
 10
21.27840059364161
 20
2.583231997726725
 30
0.0
 10
21.36155872561496
 20
2.508126682254575
 30
0.0
 10
21.43875494806955
 20
2.429037635026319
 30
0.0
  0
SPLINE
  5
F7
330
1F
100
AcDbEntity
  8
외형선
  6
Continuous
 62
     1
370
    15
100
AcDbSpline
210
0.0
220
0.0
230
1.0
 70
     8
 71
     3
 72
     8
 73
     4
 74
     0
 42
0.000000001
 43
0.00000001
 40
0.0
 40
0.0
 40
0.0
 40
0.0
 40
1.0
 40
1.0
 40
1.0
 40
1.0
 10
21.43875494806955
 20
2.429037635026318
 30
0.0
 10
21.51691951437415
 20
2.34895650049053
 30
0.0
 10
21.61793347568958
 20
2.287030345220508
 30
0.0
 10
21.69884321017998
 20
2.267387729949516
 30
0.0
  0
SPLINE
  5
F8
330
1F
100
AcDbEntity
  8
외형선
  6
Continuous
 62
     1
370
    15
100
AcDbSpline
210
0.0
220
0.0
230
1.0
 70
     8
 71
     3
 72
     8
 73
     4
 74
     0
 42
0.000000001
 43
0.00000001
 40
0.0
 40
0.0
 40
0.0
 40
0.0
 40
1.0
 40
1.0
 40
1.0
 40
1.0
 10
21.69884321018001
 20
2.267387729949512
 30
0.0
 10
21.82573089002041
 20
2.236582958515851
 30
0.0
 10
21.96432578835227
 20
2.169330155363882
 30
0.0
 10
22.10504205190246
 20
2.082307135869745
 30
0.0
  0
SPLINE
  5
F9
330
1F
100
AcDbEntity
  8
외형선
  6
Continuous
 62
     1
370
    15
100
AcDbSpline
210
0.0
220
0.0
230
1.0
 70
     8
 71
     3
 72
     8
 73
     4
 74
     0
 42
0.000000001
 43
0.00000001
 40
0.0
 40
0.0
 40
0.0
 40
0.0
 40
1.0
 40
1.0
 40
1.0
 40
1.0
 10
22.10504202795363
 20
2.082307153529505
 30
0.0
 10
22.24741759681573
 20
1.977320037795646
 30
0.0
 10
22.38620235626465
 20
1.858137725521866
 30
0.0
 10
22.50976879726523
 20
1.735533130164864
 30
0.0
  0
SPLINE
  5
FA
330
1F
100
AcDbEntity
  8
외형선
  6
Continuous
 62
     1
370
    15
100
AcDbSpline
210
0.0
220
0.0
230
1.0
 70
     8
 71
     3
 72
     8
 73
     4
 74
     0
 42
0.000000001
 43
0.00000001
 40
0.0
 40
0.0
 40
0.0
 40
0.0
 40
1.0
 40
1.0
 40
1.0
 40
1.0
 10
22.50976879726523
 20
1.735533130164861
 30
0.0
 10
22.58745644687683
 20
1.658450204026181
 30
0.0
 10
22.68836415198857
 20
1.590765245611024
 30
0.0
 10
22.76977311954312
 20
1.55771639695739
 30
0.0
  0
SPLINE
  5
FB
330
1F
100
AcDbEntity
  8
외형선
  6
Continuous
 62
     1
370
    15
100
AcDbSpline
210
0.0
220
0.0
230
1.0
 70
     8
 71
     3
 72
    12
 73
     8
 74
     0
 42
0.000000001
 43
0.00000001
 40
0.0
 40
0.0
 40
0.0
 40
0.0
 40
0.4999999999999982
 40
0.4999999999999982
 40
0.7499999999999991
 40
0.7499999999999991
 40
1.0
 40
1.0
 40
1.0
 40
1.0
 10
22.76977311954312
 20
1.557716396957394
 30
0.0
 10
22.93034409256814
 20
1.492530878149358
 30
0.0
 10
23.10595910966075
 20
1.380487533017237
 30
0.0
 10
23.37244896012861
 20
1.186981956190714
 30
0.0
 10
23.45918581724862
 20
1.119892507633594
 30
0.0
 10
23.62960792934131
 20
0.9819987201597317
 30
0.0
 10
23.71266002572317
 20
0.911631126518477
 30
0.0
 10
23.78975656114718
 20
0.8427727941222264
 30
0.0
  0
SPLINE
  5
FC
330
1F
100
AcDbEntity
  8
외형선
  6
Continuous
 62
     1
370
    15
100
AcDbSpline
210
0.0
220
0.0
230
1.0
 70
     8
 71
     3
 72
     8
 73
     4
 74
     0
 42
0.000000001
 43
0.00000001
 40
0.0
 40
0.0
 40
0.0
 40
0.0
 40
1.0
 40
1.0
 40
1.0
 40
1.0
 10
23.78975656114718
 20
0.8427727941222237
 30
0.0
 10
23.8681625029076
 20
0.7727449728992845
 30
0.0
 10
23.9692944027645
 20
0.7018491811558767
 30
0.0
 10
24.05036482796173
 20
0.6553233700480683
 30
0.0
  0
SPLINE
  5
FD
330
1F
100
AcDbEntity
  8
외형선
  6
Continuous
 62
     1
370
    15
100
AcDbSpline
210
0.0
220
0.0
230
1.0
 70
     8
 71
     3
 72
     8
 73
     4
 74
     0
 42
0.000000001
 43
0.00000001
 40
0.0
 40
0.0
 40
0.0
 40
0.0
 40
1.0
 40
1.0
 40
1.0
 40
1.0
 10
24.05036482796021
 20
0.6553233700489441
 30
0.0
 10
24.17747235337175
 20
0.5823771544187011
 30
0.0
 10
24.31622087967851
 20
0.4847218186165751
 30
0.0
 10
24.45741626527185
 20
0.3806922523859469
 30
0.0
  0
SPLINE
  5
FE
330
1F
100
AcDbEntity
  8
외형선
  6
Continuous
 62
     1
370
    15
100
AcDbSpline
210
0.0
220
0.0
230
1.0
 70
     8
 71
     3
 72
     8
 73
     4
 74
     0
 42
0.000000001
 43
0.00000001
 40
0.0
 40
0.0
 40
0.0
 40
0.0
 40
1.0
 40
1.0
 40
1.0
 40
1.0
 10
24.45741624127426
 20
0.3806922707471019
 30
0.0
 10
24.59981873004777
 20
0.2717366564327227
 30
0.0
 10
24.73902155968953
 20
0.1630937303997888
 30
0.0
 10
24.8628640820795
 20
0.0653784853202434
 30
0.0
  0
SPLINE
  5
FF
330
1F
100
AcDbEntity
  8
외형선
  6
Continuous
 62
     1
370
    15
100
AcDbSpline
210
0.0
220
0.0
230
1.0
 70
     8
 71
     3
 72
     8
 73
     4
 74
     0
 42
0.000000001
 43
0.00000001
 40
0.0
 40
0.0
 40
0.0
 40
0.0
 40
1.0
 40
1.0
 40
1.0
 40
1.0
 10
24.8628640820795
 20
0.0653784853202397
 30
0.0
 10
24.94067638712291
 20
0.0039823807288117
 30
0.0
 10
25.04168899457877
 20
-0.0672987663716762
 30
0.0
 10
25.12310203078388
 20
-0.1237520641214924
 30
0.0
  0
SPLINE
  5
100
330
1F
100
AcDbEntity
  8
외형선
  6
Continuous
 62
     1
370
    15
100
AcDbSpline
210
0.0
220
0.0
230
1.0
 70
     8
 71
     3
 72
     8
 73
     4
 74
     0
 42
0.000000001
 43
0.00000001
 40
0.0
 40
0.0
 40
0.0
 40
0.0
 40
1.0
 40
1.0
 40
1.0
 40
1.0
 10
26.14193643356338
 20
-0.8617306337459869
 30
0.0
 10
26.22006147419457
 20
-0.9114863823689316
 30
0.0
 10
26.32105005448854
 20
-0.9808896015565212
 30
0.0
 10
26.40196515373307
 20
-1.046890440361241
 30
0.0
  0
SPLINE
  5
101
330
1F
100
AcDbEntity
  8
외형선
  6
Continuous
 62
     1
370
    15
100
AcDbSpline
210
0.0
220
0.0
230
1.0
 70
     8
 71
     3
 72
     8
 73
     4
 74
     0
 42
0.000000001
 43
0.00000001
 40
0.0
 40
0.0
 40
0.0
 40
0.0
 40
1.0
 40
1.0
 40
1.0
 40
1.0
 10
27.21334469327277
 20
-1.611522011767942
 30
0.0
 10
27.29120988788982
 20
-1.649430926794075
 30
0.0
 10
27.39211915126193
 20
-1.715346968813401
 30
0.0
 10
27.47357832698572
 20
-1.78798822991786
 30
0.0
  0
SPLINE
  5
102
330
1F
100
AcDbEntity
  8
외형선
  6
Continuous
 62
     1
370
    15
100
AcDbSpline
210
0.0
220
0.0
230
1.0
 70
     8
 71
     3
 72
     8
 73
     4
 74
     0
 42
0.000000001
 43
0.00000001
 40
0.0
 40
0.0
 40
0.0
 40
0.0
 40
1.0
 40
1.0
 40
1.0
 40
1.0
 10
28.49465588971218
 20
-2.446314417343384
 30
0.0
 10
28.5729668650796
 20
-2.469339192892364
 30
0.0
 10
28.67405634676679
 20
-2.52824857238624
 30
0.0
 10
28.75504464520242
 20
-2.605440594505622
 30
0.0
  0
SPLINE
  5
103
330
1F
100
AcDbEntity
  8
외형선
  6
Continuous
 62
     1
370
    15
100
AcDbSpline
210
0.0
220
0.0
230
1.0
 70
     8
 71
     3
 72
     8
 73
     4
 74
     0
 42
0.000000001
 43
0.00000001
 40
0.0
 40
0.0
 40
0.0
 40
0.0
 40
1.0
 40
1.0
 40
1.0
 40
1.0
 10
28.75504464520243
 20
-2.605440594505621
 30
0.0
 10
28.77482070715918
 20
-2.624289665809586
 30
0.0
 10
28.79484215510856
 20
-2.642950120408942
 30
0.0
 10
28.81511370371054
 20
-2.661411236915945
 30
0.0
  0
SPLINE
  5
104
330
1F
100
AcDbEntity
  8
외형선
  6
Continuous
 62
     1
370
    15
100
AcDbSpline
210
0.0
220
0.0
230
1.0
 70
     8
 71
     3
 72
     9
 73
     5
 74
     0
 42
0.000000001
 43
0.00000001
 40
0.0
 40
0.0
 40
0.0
 40
0.0
 40
0.2601368065576921
 40
1.0
 40
1.0
 40
1.0
 40
1.0
 10
27.77561214227785
 20
-2.039751005893044
 30
0.0
 10
27.74748938458239
 20
-2.047486520328106
 30
0.0
 10
27.63938181584732
 20
-2.077222852289055
 30
0.0
 10
27.52018149635179
 20
-2.129706554374105
 30
0.0
 10
27.43198956731049
 20
-2.168537313802424
 30
0.0
  0
LINE
  5
105
330
1F
100
AcDbEntity
  8
외형선
  6
Continuous
 62
     1
370
    15
100
AcDbLine
 10
29.05
 20
-2.581373639222509
 30
0.0
 11
28.97400325061714
 21
-2.566886724477366
 31
0.0
  0
SPLINE
  5
106
330
1F
100
AcDbEntity
  8
외형선
  6
Continuous
 62
     1
370
    15
100
AcDbSpline
210
0.0
220
0.0
230
1.0
 70
     8
 71
     3
 72
     9
 73
     5
 74
     0
 42
0.000000001
 43
0.00000001
 40
0.0
 40
0.0
 40
0.0
 40
0.0
 40
0.310180401526621
 40
1.0
 40
1.0
 40
1.0
 40
1.0
 10
28.60616396693121
 20
-2.496767194550818
 30
0.0
 10
28.48257272749899
 20
-2.475634460496618
 30
0.0
 10
28.08412318386585
 20
-2.407503998513233
 30
0.0
 10
27.69820410875178
 20
-2.266088497755179
 30
0.0
 10
27.43198956731337
 20
-2.168537313804346
 30
0.0
  0
LINE
  5
107
330
1F
100
AcDbEntity
  8
외형선
  6
Continuous
 62
     1
370
    15
100
AcDbLine
 10
29.05
 20
-4.205589637349694
 30
0.0
 11
29.05
 21
-2.581373639222509
 31
0.0
  0
SPLINE
  5
108
330
1F
100
AcDbEntity
  8
외형선
  6
Continuous
 62
     1
370
    15
100
AcDbSpline
210
0.0
220
0.0
230
1.0
 70
     8
 71
     3
 72
     8
 73
     4
 74
     0
 42
0.000000001
 43
0.00000001
 40
0.0
 40
0.0
 40
0.0
 40
0.0
 40
1.0
 40
1.0
 40
1.0
 40
1.0
 10
28.92342493982268
 20
-4.354691296498411
 30
0.0
 10
28.96530273153298
 20
-4.30503463401904
 30
0.0
 10
29.00748053618643
 20
-4.25532534019001
 30
0.0
 10
29.05000000000001
 20
-4.205589637352278
 30
0.0
  0
SPLINE
  5
109
330
1F
100
AcDbEntity
  8
외형선
  6
Continuous
 62
     1
370
    15
100
AcDbSpline
210
0.0
220
0.0
230
1.0
 70
     8
 71
     3
 72
     8
 73
     4
 74
     0
 42
0.000000001
 43
0.00000001
 40
0.0
 40
0.0
 40
0.0
 40
0.0
 40
1.0
 40
1.0
 40
1.0
 40
1.0
 10
28.92342493982268
 20
-4.354691296498412
 30
0.0
 10
28.83974516969693
 20
-4.412362809093447
 30
0.0
 10
28.75318729261333
 20
-4.457886580641681
 30
0.0
 10
28.66559083233116
 20
-4.490303337394727
 30
0.0
  0
SPLINE
  5
10A
330
1F
100
AcDbEntity
  8
외형선
  6
Continuous
 62
     1
370
    15
100
AcDbSpline
210
0.0
220
0.0
230
1.0
 70
     8
 71
     3
 72
     8
 73
     4
 74
     0
 42
0.000000001
 43
0.00000001
 40
0.0
 40
0.0
 40
0.0
 40
0.0
 40
1.0
 40
1.0
 40
1.0
 40
1.0
 10
28.66559083233109
 20
-4.490303337394688
 30
0.0
 10
28.52325072389534
 20
-4.509072606786198
 30
0.0
 10
28.38413449191397
 20
-4.490453098835308
 30
0.0
 10
28.26034074530875
 20
-4.432659492245061
 30
0.0
  0
SPLINE
  5
10B
330
1F
100
AcDbEntity
  8
외형선
  6
Continuous
 62
     1
370
    15
100
AcDbSpline
210
0.0
220
0.0
230
1.0
 70
     8
 71
     3
 72
     8
 73
     4
 74
     0
 42
0.000000001
 43
0.00000001
 40
0.0
 40
0.0
 40
0.0
 40
0.0
 40
1.0
 40
1.0
 40
1.0
 40
1.0
 10
28.26034074530873
 20
-4.432659492245055
 30
0.0
 10
28.18246304291266
 20
-4.396301974859424
 30
0.0
 10
28.08138564613329
 20
-4.411946300627769
 30
0.0
 10
27.99989278973744
 20
-4.478717291962076
 30
0.0
  0
SPLINE
  5
10C
330
1F
100
AcDbEntity
  8
외형선
  6
Continuous
 62
     1
370
    15
100
AcDbSpline
210
0.0
220
0.0
230
1.0
 70
     8
 71
     3
 72
    12
 73
     8
 74
     0
 42
0.000000001
 43
0.00000001
 40
0.0
 40
0.0
 40
0.0
 40
0.0
 40
0.5000000000000001
 40
0.5000000000000001
 40
0.75
 40
0.75
 40
1.0
 40
1.0
 40
1.0
 40
1.0
 10
27.99989278973744
 20
-4.478717291962075
 30
0.0
 10
27.83885013091325
 20
-4.610667237667384
 30
0.0
 10
27.66297296327575
 20
-4.686841035890176
 30
0.0
 10
27.39662204465792
 20
-4.716650260661333
 30
0.0
 10
27.30999342339697
 20
-4.712180001940994
 30
0.0
 10
27.13947133075191
 20
-4.674019934884167
 30
0.0
 10
27.05626797794454
 20
-4.640044698593202
 30
0.0
 10
26.97900271302591
 20
-4.591289979699559
 30
0.0
  0
SPLINE
  5
10D
330
1F
100
AcDbEntity
  8
외형선
  6
Continuous
 62
     1
370
    15
100
AcDbSpline
210
0.0
220
0.0
230
1.0
 70
     8
 71
     3
 72
    10
 73
     6
 74
     0
 42
0.000000001
 43
0.00000001
 40
0.0
 40
0.0
 40
0.0
 40
0.0
 40
0.2651197484571944
 40
0.6766359425565656
 40
1.0
 40
1.0
 40
1.0
 40
1.0
 10
26.93803595006549
 20
-4.577214864057138
 30
0.0
 10
26.91954905585213
 20
-4.569363292930792
 30
0.0
 10
26.87236699128023
 20
-4.54932459245472
 30
0.0
 10
26.79298089108256
 20
-4.559710125062716
 30
0.0
 10
26.74139769807103
 20
-4.589271763276167
 30
0.0
 10
26.71869991764616
 20
-4.602279557753305
 30
0.0
  0
SPLINE
  5
10E
330
1F
100
AcDbEntity
  8
외형선
  6
Continuous
 62
     1
370
    15
100
AcDbSpline
210
0.0
220
0.0
230
1.0
 70
     8
 71
     3
 72
     8
 73
     4
 74
     0
 42
0.000000001
 43
0.00000001
 40
0.0
 40
0.0
 40
0.0
 40
0.0
 40
1.0
 40
1.0
 40
1.0
 40
1.0
 10
26.71869991764616
 20
-4.602279557753304
 30
0.0
 10
26.59177483549885
 20
-4.693433204137431
 30
0.0
 10
26.45311789989013
 20
-4.745432943471252
 30
0.0
 10
26.31225888276623
 20
-4.760002689384946
 30
0.0
  0
SPLINE
  5
10F
330
1F
100
AcDbEntity
  8
외형선
  6
Continuous
 62
     1
370
    15
100
AcDbSpline
210
0.0
220
0.0
230
1.0
 70
     8
 71
     3
 72
     8
 73
     4
 74
     0
 42
0.000000001
 43
0.00000001
 40
0.0
 40
0.0
 40
0.0
 40
0.0
 40
1.0
 40
1.0
 40
1.0
 40
1.0
 10
26.31225888276593
 20
-4.760002689384859
 30
0.0
 10
26.16987189961654
 20
-4.738329018535158
 30
0.0
 10
26.03092341138735
 20
-4.678314603089297
 30
0.0
 10
25.90739841461789
 20
-4.582150097793772
 30
0.0
  0
SPLINE
  5
110
330
1F
100
AcDbEntity
  8
외형선
  6
Continuous
 62
     1
370
    15
100
AcDbSpline
210
0.0
220
0.0
230
1.0
 70
     8
 71
     3
 72
     8
 73
     4
 74
     0
 42
0.000000001
 43
0.00000001
 40
0.0
 40
0.0
 40
0.0
 40
0.0
 40
1.0
 40
1.0
 40
1.0
 40
1.0
 10
25.90739841461788
 20
-4.582150097793759
 30
0.0
 10
25.82964471212816
 20
-4.52161865452017
 30
0.0
 10
25.7288399019715
 20
-4.510789660723142
 30
0.0
 10
25.64748806870203
 20
-4.558152675304489
 30
0.0
  0
SPLINE
  5
111
330
1F
100
AcDbEntity
  8
외형선
  6
Continuous
 62
     1
370
    15
100
AcDbSpline
210
0.0
220
0.0
230
1.0
 70
     8
 71
     3
 72
    12
 73
     8
 74
     0
 42
0.000000001
 43
0.00000001
 40
0.0
 40
0.0
 40
0.0
 40
0.0
 40
0.5000000000000031
 40
0.5000000000000031
 40
0.7500000000000016
 40
0.7500000000000016
 40
1.0
 40
1.0
 40
1.0
 40
1.0
 10
25.64748806870202
 20
-4.558152675304484
 30
0.0
 10
25.48719958068281
 20
-4.65147258820834
 30
0.0
 10
25.31188899156412
 20
-4.678381111231943
 30
0.0
 10
25.04561237288844
 20
-4.633992920345198
 30
0.0
 10
24.95892045659224
 20
-4.605379246369623
 30
0.0
 10
24.78854797168773
 20
-4.520898890041749
 30
0.0
 10
24.70551091133541
 20
-4.464939099376595
 30
0.0
 10
24.62843583534251
 20
-4.396485091033006
 30
0.0
  0
SPLINE
  5
112
330
1F
100
AcDbEntity
  8
외형선
  6
Continuous
 62
     1
370
    15
100
AcDbSpline
210
0.0
220
0.0
230
1.0
 70
     8
 71
     3
 72
     8
 73
     4
 74
     0
 42
0.000000001
 43
0.00000001
 40
0.0
 40
0.0
 40
0.0
 40
0.0
 40
1.0
 40
1.0
 40
1.0
 40
1.0
 10
24.62843583534251
 20
-4.396485091033004
 30
0.0
 10
24.55017772757035
 20
-4.326980376397596
 30
0.0
 10
24.44912692659091
 20
-4.303197828760229
 30
0.0
 10
24.36817584669776
 20
-4.338082546048899
 30
0.0
  0
SPLINE
  5
113
330
1F
100
AcDbEntity
  8
외형선
  6
Continuous
 62
     1
370
    15
100
AcDbSpline
210
0.0
220
0.0
230
1.0
 70
     8
 71
     3
 72
     8
 73
     4
 74
     0
 42
0.000000001
 43
0.00000001
 40
0.0
 40
0.0
 40
0.0
 40
0.0
 40
1.0
 40
1.0
 40
1.0
 40
1.0
 10
24.36817584669776
 20
-4.338082546048898
 30
0.0
 10
24.24102474995879
 20
-4.392876503937263
 30
0.0
 10
24.1024219365777
 20
-4.403291419878438
 30
0.0
 10
23.96146528231933
 20
-4.378093202758194
 30
0.0
  0
SPLINE
  5
114
330
1F
100
AcDbEntity
  8
외형선
  6
Continuous
 62
     1
370
    15
100
AcDbSpline
210
0.0
220
0.0
230
1.0
 70
     8
 71
     3
 72
     8
 73
     4
 74
     0
 42
0.000000001
 43
0.00000001
 40
0.0
 40
0.0
 40
0.0
 40
0.0
 40
1.0
 40
1.0
 40
1.0
 40
1.0
 10
23.96146528231904
 20
-4.378093202758103
 30
0.0
 10
23.8190144813151
 20
-4.318766747911994
 30
0.0
 10
23.6796735334864
 20
-4.225490885338438
 30
0.0
 10
23.55561336720157
 20
-4.103898296193559
 30
0.0
  0
SPLINE
  5
115
330
1F
100
AcDbEntity
  8
외형선
  6
Continuous
 62
     1
370
    15
100
AcDbSpline
210
0.0
220
0.0
230
1.0
 70
     8
 71
     3
 72
     8
 73
     4
 74
     0
 42
0.000000001
 43
0.00000001
 40
0.0
 40
0.0
 40
0.0
 40
0.0
 40
1.0
 40
1.0
 40
1.0
 40
1.0
 10
23.55561336720156
 20
-4.103898296193546
 30
0.0
 10
23.47768540575615
 20
-4.027520334735915
 30
0.0
 10
23.37656352461307
 20
-3.991736294762347
 30
0.0
 10
23.29500435176244
 20
-4.013268264600947
 30
0.0
  0
SPLINE
  5
116
330
1F
100
AcDbEntity
  8
외형선
  6
Continuous
 62
     1
370
    15
100
AcDbSpline
210
0.0
220
0.0
230
1.0
 70
     8
 71
     3
 72
    12
 73
     8
 74
     0
 42
0.000000001
 43
0.00000001
 40
0.0
 40
0.0
 40
0.0
 40
0.0
 40
0.4999999999999982
 40
0.4999999999999982
 40
0.7499999999999991
 40
0.7499999999999991
 40
1.0
 40
1.0
 40
1.0
 40
1.0
 10
23.29500435176243
 20
-4.013268264600945
 30
0.0
 10
23.13416559321473
 20
-4.055730383537208
 30
0.0
 10
22.95843253739487
 20
-4.029549009034546
 30
0.0
 10
22.69207258183854
 20
-3.916845276187451
 30
0.0
 10
22.60542512003774
 20
-3.867949898380535
 30
0.0
 10
22.43525760077783
 20
-3.748412227105939
 30
0.0
 10
22.3523648412367
 20
-3.677888591210169
 30
0.0
 10
22.27531139673327
 20
-3.598807207435484
 30
0.0
  0
SPLINE
  5
117
330
1F
100
AcDbEntity
  8
외형선
  6
Continuous
 62
     1
370
    15
100
AcDbSpline
210
0.0
220
0.0
230
1.0
 70
     8
 71
     3
 72
     8
 73
     4
 74
     0
 42
0.000000001
 43
0.00000001
 40
0.0
 40
0.0
 40
0.0
 40
0.0
 40
1.0
 40
1.0
 40
1.0
 40
1.0
 10
22.27531139673327
 20
-3.598807207435484
 30
0.0
 10
22.19719700786631
 20
-3.518636956720254
 30
0.0
 10
22.09622924490292
 20
-3.471872814934843
 30
0.0
 10
22.01528888357636
 20
-3.478780035713886
 30
0.0
  0
SPLINE
  5
118
330
1F
100
AcDbEntity
  8
외형선
  6
Continuous
 62
     1
370
    15
100
AcDbSpline
210
0.0
220
0.0
230
1.0
 70
     8
 71
     3
 72
     8
 73
     4
 74
     0
 42
0.000000001
 43
0.00000001
 40
0.0
 40
0.0
 40
0.0
 40
0.0
 40
1.0
 40
1.0
 40
1.0
 40
1.0
 10
22.01528888357636
 20
-3.478780035713886
 30
0.0
 10
21.88849390342792
 20
-3.489600359557311
 30
0.0
 10
21.7499284205038
 20
-3.457843030459085
 30
0.0
 10
21.60908087059931
 20
-3.396893481272274
 30
0.0
  0
SPLINE
  5
119
330
1F
100
AcDbEntity
  8
외형선
  6
Continuous
 62
     1
370
    15
100
AcDbSpline
210
0.0
220
0.0
230
1.0
 70
     8
 71
     3
 72
     8
 73
     4
 74
     0
 42
0.000000001
 43
0.00000001
 40
0.0
 40
0.0
 40
0.0
 40
0.0
 40
1.0
 40
1.0
 40
1.0
 40
1.0
 10
21.60908087059924
 20
-3.396893481272191
 30
0.0
 10
21.46674911399334
 20
-3.308555889038148
 30
0.0
 10
21.3277836890277
 20
-3.1950583813228
 30
0.0
 10
21.20421595450302
 20
-3.065099424440621
 30
0.0
  0
SPLINE
  5
11A
330
1F
100
AcDbEntity
  8
외형선
  6
Continuous
 62
     1
370
    15
100
AcDbSpline
210
0.0
220
0.0
230
1.0
 70
     8
 71
     3
 72
     8
 73
     4
 74
     0
 42
0.000000001
 43
0.00000001
 40
0.0
 40
0.0
 40
0.0
 40
0.0
 40
1.0
 40
1.0
 40
1.0
 40
1.0
 10
21.20421595450302
 20
-3.065099424440621
 30
0.0
 10
21.12643756720662
 20
-2.983298150670405
 30
0.0
 10
21.02550971128675
 20
-2.927507700270835
 30
0.0
 10
20.94418143836468
 20
-2.920073975501527
 30
0.0
  0
SPLINE
  5
11B
330
1F
100
AcDbEntity
  8
외형선
  6
Continuous
 62
     1
370
    15
100
AcDbSpline
210
0.0
220
0.0
230
1.0
 70
     8
 71
     3
 72
    12
 73
     8
 74
     0
 42
0.000000001
 43
0.00000001
 40
0.0
 40
0.0
 40
0.0
 40
0.0
 40
0.4999999999999997
 40
0.4999999999999997
 40
0.7499999999999998
 40
0.7499999999999998
 40
1.0
 40
1.0
 40
1.0
 40
1.0
 10
20.94418143836468
 20
-2.92007397550153
 30
0.0
 10
20.78358547251206
 20
-2.90539487109766
 30
0.0
 10
20.60844062922373
 20
-2.829013434173585
 30
0.0
 10
20.34202084180521
 20
-2.663630432469426
 30
0.0
 10
20.25525126583918
 20
-2.601345211858667
 30
0.0
 10
20.08466916669307
 20
-2.463700038309111
 30
0.0
 10
20.00148902184452
 20
-2.388638870698879
 30
0.0
 10
19.92425527574306
 20
-2.310034039175902
 30
0.0
  0
SPLINE
  5
11C
330
1F
100
AcDbEntity
  8
외형선
  6
Continuous
 62
     1
370
    15
100
AcDbSpline
210
0.0
220
0.0
230
1.0
 70
     8
 71
     3
 72
     8
 73
     4
 74
     0
 42
0.000000001
 43
0.00000001
 40
0.0
 40
0.0
 40
0.0
 40
0.0
 40
1.0
 40
1.0
 40
1.0
 40
1.0
 10
19.92425527574305
 20
-2.310034039175898
 30
0.0
 10
19.84586377279862
 20
-2.230250897831376
 30
0.0
 10
19.74465920453178
 20
-2.167179134686054
 30
0.0
 10
19.66353772799777
 20
-2.145062843356039
 30
0.0
  0
SPLINE
  5
11D
330
1F
100
AcDbEntity
  8
외형선
  6
Continuous
 62
     1
370
    15
100
AcDbSpline
210
0.0
220
0.0
230
1.0
 70
     8
 71
     3
 72
     8
 73
     4
 74
     0
 42
0.000000001
 43
0.00000001
 40
0.0
 40
0.0
 40
0.0
 40
0.0
 40
1.0
 40
1.0
 40
1.0
 40
1.0
 10
19.66353772799777
 20
-2.14506284335604
 30
0.0
 10
19.53628471036585
 20
-2.110369628552538
 30
0.0
 10
19.39740362578451
 20
-2.039909085685352
 30
0.0
 10
19.25647650270716
 20
-1.950598344528675
 30
0.0
  0
SPLINE
  5
11E
330
1F
100
AcDbEntity
  8
외형선
  6
Continuous
 62
     1
370
    15
100
AcDbSpline
210
0.0
220
0.0
230
1.0
 70
     8
 71
     3
 72
     8
 73
     4
 74
     0
 42
0.000000001
 43
0.00000001
 40
0.0
 40
0.0
 40
0.0
 40
0.0
 40
1.0
 40
1.0
 40
1.0
 40
1.0
 10
19.25647650275776
 20
-1.950598344565097
 30
0.0
 10
19.11404911318531
 20
-1.84441153665975
 30
0.0
 10
18.97507853835461
 20
-1.725247409035805
 30
0.0
 10
18.8511991426834
 20
-1.604056118011762
 30
0.0
  0
SPLINE
  5
11F
330
1F
100
AcDbEntity
  8
외형선
  6
Continuous
 62
     1
370
    15
100
AcDbSpline
210
0.0
220
0.0
230
1.0
 70
     8
 71
     3
 72
     8
 73
     4
 74
     0
 42
0.000000001
 43
0.00000001
 40
0.0
 40
0.0
 40
0.0
 40
0.0
 40
1.0
 40
1.0
 40
1.0
 40
1.0
 10
18.8511991426834
 20
-1.60405611801181
 30
0.0
 10
18.77343564051467
 20
-1.527980034726807
 30
0.0
 10
18.67245558267099
 20
-1.459731192642659
 30
0.0
 10
18.59101402984868
 20
-1.424614349007447
 30
0.0
  0
SPLINE
  5
120
330
1F
100
AcDbEntity
  8
외형선
  6
Continuous
 62
     1
370
    15
100
AcDbSpline
210
0.0
220
0.0
230
1.0
 70
     8
 71
     3
 72
    12
 73
     8
 74
     0
 42
0.000000001
 43
0.00000001
 40
0.0
 40
0.0
 40
0.0
 40
0.0
 40
0.4999999999999983
 40
0.4999999999999983
 40
0.7499999999999991
 40
0.7499999999999991
 40
1.0
 40
1.0
 40
1.0
 40
1.0
 10
18.59101402984868
 20
-1.424614349007428
 30
0.0
 10
18.4304707105509
 20
-1.355389555949286
 30
0.0
 10
18.25494663968206
 20
-1.240856788632601
 30
0.0
 10
17.98869938489709
 20
-1.045941312256836
 30
0.0
 10
17.9020636683359
 20
-0.9787908742778066
 30
0.0
 10
17.73188089676959
 20
-0.8416046907023059
 30
0.0
 10
17.64897756233058
 20
-0.7720243056124356
 30
0.0
 10
17.57204739141068
 20
-0.7043984468489635
 30
0.0
  0
SPLINE
  5
121
330
1F
100
AcDbEntity
  8
외형선
  6
Continuous
 62
     1
370
    15
100
AcDbSpline
210
0.0
220
0.0
230
1.0
 70
     8
 71
     3
 72
     8
 73
     4
 74
     0
 42
0.000000001
 43
0.00000001
 40
0.0
 40
0.0
 40
0.0
 40
0.0
 40
1.0
 40
1.0
 40
1.0
 40
1.0
 10
17.57204739141068
 20
-0.7043984468489626
 30
0.0
 10
17.49389402359718
 20
-0.6356973306230839
 30
0.0
 10
17.39303893893233
 20
-0.5644185506455628
 30
0.0
 10
17.3121097525176
 20
-0.5162115893734077
 30
0.0
  0
SPLINE
  5
122
330
1F
100
AcDbEntity
  8
외형선
  6
Continuous
 62
     1
370
    15
100
AcDbSpline
210
0.0
220
0.0
230
1.0
 70
     8
 71
     3
 72
     8
 73
     4
 74
     0
 42
0.000000001
 43
0.00000001
 40
0.0
 40
0.0
 40
0.0
 40
0.0
 40
1.0
 40
1.0
 40
1.0
 40
1.0
 10
17.3121097525176
 20
-0.5162115893734112
 30
0.0
 10
17.18533460086931
 20
-0.4406956340484176
 30
0.0
 10
17.04677234355643
 20
-0.3417269450905889
 30
0.0
 10
16.90585786670295
 20
-0.2373408749035173
 30
0.0
  0
SPLINE
  5
123
330
1F
100
AcDbEntity
  8
외형선
  6
Continuous
 62
     1
370
    15
100
AcDbSpline
210
0.0
220
0.0
230
1.0
 70
     8
 71
     3
 72
     8
 73
     4
 74
     0
 42
0.000000001
 43
0.00000001
 40
0.0
 40
0.0
 40
0.0
 40
0.0
 40
1.0
 40
1.0
 40
1.0
 40
1.0
 10
16.90585786670295
 20
-0.2373408749035082
 30
0.0
 10
16.76349630657457
 20
-0.1289343853052763
 30
0.0
 10
16.62441917790898
 20
-0.0219424191884696
 30
0.0
 10
16.5006944378793
 20
0.0730768743669241
 30
0.0
  0
SPLINE
  5
124
330
1F
100
AcDbEntity
  8
외형선
  6
Continuous
 62
     1
370
    15
100
AcDbSpline
210
0.0
220
0.0
230
1.0
 70
     8
 71
     3
 72
     8
 73
     4
 74
     0
 42
0.000000001
 43
0.00000001
 40
0.0
 40
0.0
 40
0.0
 40
0.0
 40
1.0
 40
1.0
 40
1.0
 40
1.0
 10
16.50069443787929
 20
0.0730768743669144
 30
0.0
 10
16.4228347042911
 20
0.1328723274039245
 30
0.0
 10
16.32179215291011
 20
0.2041126262569291
 30
0.0
 10
16.24034307514032
 20
0.2622816271182371
 30
0.0
  0
SPLINE
  5
125
330
1F
100
AcDbEntity
  8
외형선
  6
Continuous
 62
     1
370
    15
100
AcDbSpline
210
0.0
220
0.0
230
1.0
 70
     8
 71
     3
 72
     8
 73
     4
 74
     0
 42
0.000000001
 43
0.00000001
 40
0.0
 40
0.0
 40
0.0
 40
0.0
 40
1.0
 40
1.0
 40
1.0
 40
1.0
 10
15.21940918925973
 20
0.9990415530084857
 30
0.0
 10
15.14113980898097
 20
1.046830763679601
 30
0.0
 10
15.04003531209946
 20
1.115718333246375
 30
0.0
 10
14.95901693416773
 20
1.183044901553764
 30
0.0
  0
SPLINE
  5
126
330
1F
100
AcDbEntity
  8
외형선
  6
Continuous
 62
     1
370
    15
100
AcDbSpline
210
0.0
220
0.0
230
1.0
 70
     8
 71
     3
 72
     8
 73
     4
 74
     0
 42
0.000000001
 43
0.00000001
 40
0.0
 40
0.0
 40
0.0
 40
0.0
 40
1.0
 40
1.0
 40
1.0
 40
1.0
 10
14.14765076122884
 20
1.743094791872085
 30
0.0
 10
14.0699834501083
 20
1.778810929764913
 30
0.0
 10
13.9691031709949
 20
1.843576286368528
 30
0.0
 10
13.88770846566208
 20
1.916886134361129
 30
0.0
  0
SPLINE
  5
127
330
1F
100
AcDbEntity
  8
외형선
  6
Continuous
 62
     1
370
    15
100
AcDbSpline
210
0.0
220
0.0
230
1.0
 70
     8
 71
     3
 72
     8
 73
     4
 74
     0
 42
0.000000001
 43
0.00000001
 40
0.0
 40
0.0
 40
0.0
 40
0.0
 40
1.0
 40
1.0
 40
1.0
 40
1.0
 10
12.86872059117764
 20
2.562741453483307
 30
0.0
 10
12.79047666813832
 20
2.583431805290884
 30
0.0
 10
12.68947216484855
 20
2.64121646686686
 30
0.0
 10
12.60855929766262
 20
2.718928400365777
 30
0.0
  0
SPLINE
  5
128
330
1F
100
AcDbEntity
  8
외형선
  6
Continuous
 62
     1
370
    15
100
AcDbSpline
210
0.0
220
0.0
230
1.0
 70
     8
 71
     3
 72
     8
 73
     4
 74
     0
 42
0.000000001
 43
0.00000001
 40
0.0
 40
0.0
 40
0.0
 40
0.0
 40
1.0
 40
1.0
 40
1.0
 40
1.0
 10
12.60855929766263
 20
2.718928400365762
 30
0.0
 10
12.48155853212375
 20
2.840904983190236
 30
0.0
 10
12.3430153449727
 20
2.955054666312326
 30
0.0
 10
12.2019725160368
 20
3.047853093454751
 30
0.0
  0
SPLINE
  5
129
330
1F
100
AcDbEntity
  8
외형선
  6
Continuous
 62
     1
370
    15
100
AcDbSpline
210
0.0
220
0.0
230
1.0
 70
     8
 71
     3
 72
     8
 73
     4
 74
     0
 42
0.000000001
 43
0.00000001
 40
0.0
 40
0.0
 40
0.0
 40
0.0
 40
1.0
 40
1.0
 40
1.0
 40
1.0
 10
12.20197251603679
 20
3.047853093454726
 30
0.0
 10
12.05949732158007
 20
3.119197333123521
 30
0.0
 10
11.92021350012887
 20
3.163289901204045
 30
0.0
 10
11.79621685493114
 20
3.173232479413891
 30
0.0
  0
SPLINE
  5
12A
330
1F
100
AcDbEntity
  8
외형선
  6
Continuous
 62
     1
370
    15
100
AcDbSpline
210
0.0
220
0.0
230
1.0
 70
     8
 71
     3
 72
     8
 73
     4
 74
     0
 42
0.000000001
 43
0.00000001
 40
0.0
 40
0.0
 40
0.0
 40
0.0
 40
1.0
 40
1.0
 40
1.0
 40
1.0
 10
11.79621685493113
 20
3.17323247941389
 30
0.0
 10
11.71824298083016
 20
3.179484756161674
 30
0.0
 10
11.61708241369864
 20
3.228526625527521
 30
0.0
 10
11.53550051473104
 20
3.306793479839644
 30
0.0
  0
SPLINE
  5
12B
330
1F
100
AcDbEntity
  8
외형선
  6
Continuous
 62
     1
370
    15
100
AcDbSpline
210
0.0
220
0.0
230
1.0
 70
     8
 71
     3
 72
    12
 73
     8
 74
     0
 42
0.000000001
 43
0.00000001
 40
0.0
 40
0.0
 40
0.0
 40
0.0
 40
0.5
 40
0.5
 40
0.75
 40
0.75
 40
1.0
 40
1.0
 40
1.0
 40
1.0
 10
11.53550051473103
 20
3.306793479839659
 30
0.0
 10
11.37458462884828
 20
3.461170619331039
 30
0.0
 10
11.19884954222367
 20
3.588856076637649
 30
0.0
 10
10.93260765295774
 20
3.716127970717189
 30
0.0
 10
10.8460661690937
 20
3.746738600612908
 30
0.0
 10
10.67580265440999
 20
3.782976439763651
 30
0.0
 10
10.59272587963263
 20
3.788099367399507
 30
0.0
 10
10.51557324704546
 20
3.778841378531523
 30
0.0
  0
SPLINE
  5
12C
330
1F
100
AcDbEntity
  8
외형선
  6
Continuous
 62
     1
370
    15
100
AcDbSpline
210
0.0
220
0.0
230
1.0
 70
     8
 71
     3
 72
     8
 73
     4
 74
     0
 42
0.000000001
 43
0.00000001
 40
0.0
 40
0.0
 40
0.0
 40
0.0
 40
1.0
 40
1.0
 40
1.0
 40
1.0
 10
10.51557324704546
 20
3.778841378531525
 30
0.0
 10
10.43742834658031
 20
3.769464321724314
 30
0.0
 10
10.33642670510081
 20
3.807777850667354
 30
0.0
 10
10.25548670254725
 20
3.884808894340655
 30
0.0
  0
SPLINE
  5
12D
330
1F
100
AcDbEntity
  8
외형선
  6
Continuous
 62
     1
370
    15
100
AcDbSpline
210
0.0
220
0.0
230
1.0
 70
     8
 71
     3
 72
     8
 73
     4
 74
     0
 42
0.000000001
 43
0.00000001
 40
0.0
 40
0.0
 40
0.0
 40
0.0
 40
1.0
 40
1.0
 40
1.0
 40
1.0
 10
10.25548670254727
 20
3.884808894340642
 30
0.0
 10
10.17433623779144
 20
3.96204023604432
 30
0.0
 10
10.08839339204106
 20
4.02975101565692
 30
0.0
 10
10.0
 20
4.086049573976747
 30
0.0
  0
SPLINE
  5
131
330
1F
100
AcDbEntity
  8
외형선
  6
Continuous
370
    15
100
AcDbSpline
210
0.0
220
0.0
230
1.0
 70
     8
 71
     3
 72
     8
 73
     4
 74
     0
 42
0.000000001
 43
0.00000001
 40
0.0
 40
0.0
 40
0.0
 40
0.0
 40
1.0
 40
1.0
 40
1.0
 40
1.0
 10
9.156412927138366
 20
-3.770200483242354
 30
0.0
 10
9.116717720206497
 20
-3.755445412257514
 30
0.0
 10
9.07702040906852
 20
-3.740435402172703
 30
0.0
 10
9.037320927780424
 20
-3.725169694699785
 30
0.0
  0
SPLINE
  5
132
330
1F
100
AcDbEntity
  8
외형선
  6
Continuous
370
    15
100
AcDbSpline
210
0.0
220
0.0
230
1.0
 70
     8
 71
     3
 72
     8
 73
     4
 74
     0
 42
0.000000001
 43
0.00000001
 40
0.0
 40
0.0
 40
0.0
 40
0.0
 40
1.0
 40
1.0
 40
1.0
 40
1.0
 10
9.037320927780435
 20
-3.725169694699895
 30
0.0
 10
8.905039264268522
 20
-3.646039571512333
 30
0.0
 10
8.775712998194486
 20
-3.542629968435483
 30
0.0
 10
8.660027015103783
 20
-3.421653719081676
 30
0.0
  0
SPLINE
  5
133
330
1F
100
AcDbEntity
  8
외형선
  6
Continuous
370
    15
100
AcDbSpline
210
0.0
220
0.0
230
1.0
 70
     8
 71
     3
 72
     8
 73
     4
 74
     0
 42
0.000000001
 43
0.00000001
 40
0.0
 40
0.0
 40
0.0
 40
0.0
 40
1.0
 40
1.0
 40
1.0
 40
1.0
 10
8.66002701510379
 20
-3.421653719081688
 30
0.0
 10
8.606382409192943
 20
-3.365555970263932
 30
0.0
 10
8.542730829771596
 20
-3.324628532653843
 30
0.0
 10
8.48010307173543
 20
-3.304433489931082
 30
0.0
  0
SPLINE
  5
134
330
1F
100
AcDbEntity
  8
외형선
  6
Continuous
370
    15
100
AcDbSpline
210
0.0
220
0.0
230
1.0
 70
     8
 71
     3
 72
     8
 73
     4
 74
     0
 42
0.000000001
 43
0.00000001
 40
0.0
 40
0.0
 40
0.0
 40
0.0
 40
1.0
 40
1.0
 40
1.0
 40
1.0
 10
8.894589235387102
 20
1.987798705795708
 30
0.0
 10
8.972772734881179
 20
1.909490046673576
 30
0.0
 10
9.073708179576409
 20
1.843835335015198
 30
0.0
 10
9.154547430180958
 20
1.815615074908697
 30
0.0
  0
SPLINE
  5
135
330
1F
100
AcDbEntity
  8
외형선
  6
Continuous
370
    15
100
AcDbSpline
210
0.0
220
0.0
230
1.0
 70
     8
 71
     3
 72
     8
 73
     4
 74
     0
 42
0.000000001
 43
0.00000001
 40
0.0
 40
0.0
 40
0.0
 40
0.0
 40
1.0
 40
1.0
 40
1.0
 40
1.0
 10
9.154547430181017
 20
1.81561507490872
 30
0.0
 10
9.228003508202846
 20
1.789972214383919
 30
0.0
 10
9.305405345624056
 20
1.752910853272357
 30
0.0
 10
9.384938152860318
 20
1.708300401902324
 30
0.0
  0
SPLINE
  5
136
330
1F
100
AcDbEntity
  8
외형선
  6
Continuous
370
    15
100
AcDbSpline
210
0.0
220
0.0
230
1.0
 70
     8
 71
     3
 72
     8
 73
     4
 74
     0
 42
0.000000001
 43
0.00000001
 40
0.0
 40
0.0
 40
0.0
 40
0.0
 40
1.0
 40
1.0
 40
1.0
 40
1.0
 10
9.384938152860316
 20
1.708300401902324
 30
0.0
 10
9.540824053144224
 20
1.592846787397761
 30
0.0
 10
9.697116478852827
 20
1.476959842994437
 30
0.0
 10
9.85382921647678
 20
1.360678761775096
 30
0.0
  0
SPLINE
  5
137
330
1F
100
AcDbEntity
  8
외형선
  6
Continuous
370
    15
100
AcDbSpline
210
0.0
220
0.0
230
1.0
 70
     8
 71
     3
 72
     8
 73
     4
 74
     0
 42
0.000000001
 43
0.00000001
 40
0.0
 40
0.0
 40
0.0
 40
0.0
 40
1.0
 40
1.0
 40
1.0
 40
1.0
 10
9.85382921647678
 20
1.360678761775103
 30
0.0
 10
9.892345026931594
 20
1.326745774553909
 30
0.0
 10
9.92968875638774
 20
1.292788185675221
 30
0.0
 10
9.96579877559573
 20
1.258773995706021
 30
0.0
  0
SPLINE
  5
138
330
1F
100
AcDbEntity
  8
외형선
  6
Continuous
 62
     1
370
    15
100
AcDbSpline
210
0.0
220
0.0
230
1.0
 70
     8
 71
     3
 72
     8
 73
     4
 74
     0
 42
0.000000001
 43
0.00000001
 40
0.0
 40
0.0
 40
0.0
 40
0.0
 40
1.0
 40
1.0
 40
1.0
 40
1.0
 10
9.965798775593715
 20
1.258773995705244
 30
0.0
 10
10.04363139098406
 20
1.185458793339055
 30
0.0
 10
10.14467065788849
 20
1.115889475949179
 30
0.0
 10
10.22612002138243
 20
1.075389829338217
 30
0.0
  0
SPLINE
  5
139
330
1F
100
AcDbEntity
  8
외형선
  6
Continuous
 62
     1
370
    15
100
AcDbSpline
210
0.0
220
0.0
230
1.0
 70
     8
 71
     3
 72
    12
 73
     8
 74
     0
 42
0.000000001
 43
0.00000001
 40
0.0
 40
0.0
 40
0.0
 40
0.0
 40
0.5000000000000001
 40
0.5000000000000001
 40
0.75
 40
0.75
 40
1.0
 40
1.0
 40
1.0
 40
1.0
 10
10.22612002138245
 20
1.075389829338193
 30
0.0
 10
10.38715101977427
 20
0.9953192400970233
 30
0.0
 10
10.56306142111582
 20
0.8737108810192067
 30
0.0
 10
10.82943583352316
 20
0.6745163484359419
 30
0.0
 10
10.91605480211342
 20
0.606988226785959
 30
0.0
 10
11.08656107710826
 20
0.4717945313128103
 30
0.0
 10
11.16976378089489
 20
0.4045303400751045
 30
0.0
 10
11.2470362435702
 20
0.3405234675516804
 30
0.0
  0
SPLINE
  5
13A
330
1F
100
AcDbEntity
  8
외형선
  6
Continuous
 62
     1
370
    15
100
AcDbSpline
210
0.0
220
0.0
230
1.0
 70
     8
 71
     3
 72
     8
 73
     4
 74
     0
 42
0.000000001
 43
0.00000001
 40
0.0
 40
0.0
 40
0.0
 40
0.0
 40
1.0
 40
1.0
 40
1.0
 40
1.0
 10
11.24703624357021
 20
0.3405234675516685
 30
0.0
 10
11.32530529733176
 20
0.2756910916547703
 30
0.0
 10
11.42641214055233
 20
0.204388980234976
 30
0.0
 10
11.50745997658663
 20
0.1516120550218761
 30
0.0
  0
SPLINE
  5
13B
330
1F
100
AcDbEntity
  8
외형선
  6
Continuous
 62
     1
370
    15
100
AcDbSpline
210
0.0
220
0.0
230
1.0
 70
     8
 71
     3
 72
     8
 73
     4
 74
     0
 42
0.000000001
 43
0.00000001
 40
0.0
 40
0.0
 40
0.0
 40
0.0
 40
1.0
 40
1.0
 40
1.0
 40
1.0
 10
11.50745997658668
 20
0.1516120550219017
 30
0.0
 10
11.63443293829066
 20
0.0689294957848997
 30
0.0
 10
11.77313411109071
 20
-0.0343002065748126
 30
0.0
 10
11.91404225596239
 20
-0.1401747278573286
 30
0.0
  0
SPLINE
  5
13C
330
1F
100
AcDbEntity
  8
외형선
  6
Continuous
 62
     1
370
    15
100
AcDbSpline
210
0.0
220
0.0
230
1.0
 70
     8
 71
     3
 72
     8
 73
     4
 74
     0
 42
0.000000001
 43
0.00000001
 40
0.0
 40
0.0
 40
0.0
 40
0.0
 40
1.0
 40
1.0
 40
1.0
 40
1.0
 10
11.91404223199454
 20
-0.140174709837411
 30
0.0
 10
12.05645541924246
 20
-0.2472462430982014
 30
0.0
 10
12.19543828047718
 20
-0.3500462637320962
 30
0.0
 10
12.31899603012148
 20
-0.438054745821777
 30
0.0
  0
SPLINE
  5
13D
330
1F
100
AcDbEntity
  8
외형선
  6
Continuous
 62
     1
370
    15
100
AcDbSpline
210
0.0
220
0.0
230
1.0
 70
     8
 71
     3
 72
     8
 73
     4
 74
     0
 42
0.000000001
 43
0.00000001
 40
0.0
 40
0.0
 40
0.0
 40
0.0
 40
1.0
 40
1.0
 40
1.0
 40
1.0
 10
12.31899603012147
 20
-0.4380547458217588
 30
0.0
 10
12.39676334312536
 20
-0.4934473310166887
 30
0.0
 10
12.49758330556717
 20
-0.5644759765003052
 30
0.0
 10
12.57893175385976
 20
-0.6268512032873443
 30
0.0
  0
SPLINE
  5
13E
330
1F
100
AcDbEntity
  8
외형선
  6
Continuous
 62
     1
370
    15
100
AcDbSpline
210
0.0
220
0.0
230
1.0
 70
     8
 71
     3
 72
     8
 73
     4
 74
     0
 42
0.000000001
 43
0.00000001
 40
0.0
 40
0.0
 40
0.0
 40
0.0
 40
1.0
 40
1.0
 40
1.0
 40
1.0
 10
13.59783491944714
 20
-1.349962966896661
 30
0.0
 10
13.67605935631234
 20
-1.392392599569836
 30
0.0
 10
13.77708338298309
 20
-1.459713696261441
 30
0.0
 10
13.85800193617728
 20
-1.530145717115909
 30
0.0
  0
SPLINE
  5
13F
330
1F
100
AcDbEntity
  8
외형선
  6
Continuous
 62
     1
370
    15
100
AcDbSpline
210
0.0
220
0.0
230
1.0
 70
     8
 71
     3
 72
     8
 73
     4
 74
     0
 42
0.000000001
 43
0.00000001
 40
0.0
 40
0.0
 40
0.0
 40
0.0
 40
1.0
 40
1.0
 40
1.0
 40
1.0
 10
14.6701394516868
 20
-2.075118413924351
 30
0.0
 10
14.74809843933928
 20
-2.104693573434607
 30
0.0
 10
14.84926257332372
 20
-2.166672181860574
 30
0.0
 10
14.93086796457069
 20
-2.241869660648061
 30
0.0
  0
SPLINE
  5
140
330
1F
100
AcDbEntity
  8
외형선
  6
Continuous
 62
     1
370
    15
100
AcDbSpline
210
0.0
220
0.0
230
1.0
 70
     8
 71
     3
 72
     8
 73
     4
 74
     0
 42
0.000000001
 43
0.00000001
 40
0.0
 40
0.0
 40
0.0
 40
0.0
 40
1.0
 40
1.0
 40
1.0
 40
1.0
 10
15.95101680576178
 20
-2.859062353875943
 30
0.0
 10
16.02914925673112
 20
-2.873536493656376
 30
0.0
 10
16.13013045231604
 20
-2.927680831753022
 30
0.0
 10
16.21109040762315
 20
-3.00606331075238
 30
0.0
  0
SPLINE
  5
141
330
1F
100
AcDbEntity
  8
외형선
  6
Continuous
 62
     1
370
    15
100
AcDbSpline
210
0.0
220
0.0
230
1.0
 70
     8
 71
     3
 72
     8
 73
     4
 74
     0
 42
0.000000001
 43
0.00000001
 40
0.0
 40
0.0
 40
0.0
 40
0.0
 40
1.0
 40
1.0
 40
1.0
 40
1.0
 10
16.21109040762322
 20
-3.006063310752414
 30
0.0
 10
16.33789671207596
 20
-3.128832554609313
 30
0.0
 10
16.47647083019161
 20
-3.24019450134162
 30
0.0
 10
16.61733307070047
 20
-3.328079806384956
 30
0.0
  0
SPLINE
  5
142
330
1F
100
AcDbEntity
  8
외형선
  6
Continuous
 62
     1
370
    15
100
AcDbSpline
210
0.0
220
0.0
230
1.0
 70
     8
 71
     3
 72
     8
 73
     4
 74
     0
 42
0.000000001
 43
0.00000001
 40
0.0
 40
0.0
 40
0.0
 40
0.0
 40
1.0
 40
1.0
 40
1.0
 40
1.0
 10
16.6173330467463
 20
-3.328079795581303
 30
0.0
 10
16.75965477477011
 20
-3.392268720218353
 30
0.0
 10
16.89861720326781
 20
-3.427269242137258
 30
0.0
 10
17.0221787029897
 20
-3.426848527301428
 30
0.0
  0
SPLINE
  5
143
330
1F
100
AcDbEntity
  8
외형선
  6
Continuous
 62
     1
370
    15
100
AcDbSpline
210
0.0
220
0.0
230
1.0
 70
     8
 71
     3
 72
     8
 73
     4
 74
     0
 42
0.000000001
 43
0.00000001
 40
0.0
 40
0.0
 40
0.0
 40
0.0
 40
1.0
 40
1.0
 40
1.0
 40
1.0
 10
17.02217870298974
 20
-3.426848527301555
 30
0.0
 10
17.09994134526364
 20
-3.426583753101261
 30
0.0
 10
17.20085834100917
 20
-3.471461592609926
 30
0.0
 10
17.28217195116176
 20
-3.549434649640077
 30
0.0
  0
SPLINE
  5
144
330
1F
100
AcDbEntity
  8
외형선
  6
Continuous
 62
     1
370
    15
100
AcDbSpline
210
0.0
220
0.0
230
1.0
 70
     8
 71
     3
 72
    12
 73
     8
 74
     0
 42
0.000000001
 43
0.00000001
 40
0.0
 40
0.0
 40
0.0
 40
0.0
 40
0.4999999999999982
 40
0.4999999999999982
 40
0.7499999999999991
 40
0.7499999999999991
 40
1.0
 40
1.0
 40
1.0
 40
1.0
 10
17.28217195116175
 20
-3.549434649640077
 30
0.0
 10
17.44271832834588
 20
-3.703385406477357
 30
0.0
 10
17.61778157853068
 20
-3.825848309873893
 30
0.0
 10
17.88409076914733
 20
-3.940209543535024
 30
0.0
 10
17.97082576159139
 20
-3.965736838106777
 30
0.0
 10
18.14134151615255
 20
-3.990794863215702
 30
0.0
 10
18.22448579654739
 20
-3.989853381568739
 30
0.0
 10
18.30168185084744
 20
-3.974308533219286
 30
0.0
  0
SPLINE
  5
145
330
1F
100
AcDbEntity
  8
외형선
  6
Continuous
 62
     1
370
    15
100
AcDbSpline
210
0.0
220
0.0
230
1.0
 70
     8
 71
     3
 72
     8
 73
     4
 74
     0
 42
0.000000001
 43
0.00000001
 40
0.0
 40
0.0
 40
0.0
 40
0.0
 40
1.0
 40
1.0
 40
1.0
 40
1.0
 10
18.30168185084747
 20
-3.974308533219386
 30
0.0
 10
18.3800161975592
 20
-3.958534468712763
 30
0.0
 10
18.48117098385788
 20
-3.992048751258369
 30
0.0
 10
18.56223895459978
 20
-4.067629551669397
 30
0.0
  0
SPLINE
  5
146
330
1F
100
AcDbEntity
  8
외형선
  6
Continuous
 62
     1
370
    15
100
AcDbSpline
210
0.0
220
0.0
230
1.0
 70
     8
 71
     3
 72
     8
 73
     4
 74
     0
 42
0.000000001
 43
0.00000001
 40
0.0
 40
0.0
 40
0.0
 40
0.0
 40
1.0
 40
1.0
 40
1.0
 40
1.0
 10
18.56223895459984
 20
-4.067629551669429
 30
0.0
 10
18.68951377742648
 20
-4.186289645087035
 30
0.0
 10
18.82845764254614
 20
-4.278725596673187
 30
0.0
 10
18.96943611190569
 20
-4.338797087574296
 30
0.0
  0
SPLINE
  5
147
330
1F
100
AcDbEntity
  8
외형선
  6
Continuous
 62
     1
370
    15
100
AcDbSpline
210
0.0
220
0.0
230
1.0
 70
     8
 71
     3
 72
     8
 73
     4
 74
     0
 42
0.000000001
 43
0.00000001
 40
0.0
 40
0.0
 40
0.0
 40
0.0
 40
1.0
 40
1.0
 40
1.0
 40
1.0
 10
18.96943608790117
 20
-4.33879708284493
 30
0.0
 10
19.11195400807872
 20
-4.366875718261902
 30
0.0
 10
19.25098407388222
 20
-4.358753523275096
 30
0.0
 10
19.37493218526178
 20
-4.311094938018178
 30
0.0
  0
SPLINE
  5
148
330
1F
100
AcDbEntity
  8
외형선
  6
Continuous
 62
     1
370
    15
100
AcDbSpline
210
0.0
220
0.0
230
1.0
 70
     8
 71
     3
 72
     8
 73
     4
 74
     0
 42
0.000000001
 43
0.00000001
 40
0.0
 40
0.0
 40
0.0
 40
0.0
 40
1.0
 40
1.0
 40
1.0
 40
1.0
 10
19.37493218526178
 20
-4.31109493801818
 30
0.0
 10
19.45273188334876
 20
-4.281180617396654
 30
0.0
 10
19.55374132203423
 20
-4.302626633891312
 30
0.0
 10
19.63522020546655
 20
-4.372657803580866
 30
0.0
  0
SPLINE
  5
149
330
1F
100
AcDbEntity
  8
외형선
  6
Continuous
 62
     1
370
    15
100
AcDbSpline
210
0.0
220
0.0
230
1.0
 70
     8
 71
     3
 72
    12
 73
     8
 74
     0
 42
0.000000001
 43
0.00000001
 40
0.0
 40
0.0
 40
0.0
 40
0.0
 40
0.4999999999999998
 40
0.4999999999999998
 40
0.7499999999999999
 40
0.7499999999999999
 40
1.0
 40
1.0
 40
1.0
 40
1.0
 10
19.63522020546655
 20
-4.372657803580864
 30
0.0
 10
19.79579097631201
 20
-4.510668517848977
 30
0.0
 10
19.97133073419697
 20
-4.59693065695723
 30
0.0
 10
20.23762642425404
 20
-4.643266584240045
 30
0.0
 10
20.32428020593068
 20
-4.644391070624408
 30
0.0
 10
20.49450161825693
 20
-4.617714861695249
 30
0.0
 10
20.57742609707407
 20
-4.589587235571593
 30
0.0
 10
20.65437439428587
 20
-4.546591865173622
 30
0.0
  0
SPLINE
  5
14A
330
1F
100
AcDbEntity
  8
외형선
  6
Continuous
 62
     1
370
    15
100
AcDbSpline
210
0.0
220
0.0
230
1.0
 70
     8
 71
     3
 72
     8
 73
     4
 74
     0
 42
0.000000001
 43
0.00000001
 40
0.0
 40
0.0
 40
0.0
 40
0.0
 40
1.0
 40
1.0
 40
1.0
 40
1.0
 10
20.65437439428587
 20
-4.546591865173625
 30
0.0
 10
20.73253213854543
 20
-4.502920708232228
 30
0.0
 10
20.83338046330621
 20
-4.511269744668473
 30
0.0
 10
20.91429795346282
 20
-4.573776873582846
 30
0.0
  0
SPLINE
  5
14B
330
1F
100
AcDbEntity
  8
외형선
  6
Continuous
 62
     1
370
    15
100
AcDbSpline
210
0.0
220
0.0
230
1.0
 70
     8
 71
     3
 72
     8
 73
     4
 74
     0
 42
0.000000001
 43
0.00000001
 40
0.0
 40
0.0
 40
0.0
 40
0.0
 40
1.0
 40
1.0
 40
1.0
 40
1.0
 10
20.91429795346289
 20
-4.573776873582886
 30
0.0
 10
21.04104767209469
 20
-4.671688474486984
 30
0.0
 10
21.17958282032027
 20
-4.732327244763744
 30
0.0
 10
21.32047748037843
 20
-4.755863114647585
 30
0.0
  0
SPLINE
  5
14C
330
1F
100
AcDbEntity
  8
외형선
  6
Continuous
 62
     1
370
    15
100
AcDbSpline
210
0.0
220
0.0
230
1.0
 70
     8
 71
     3
 72
     8
 73
     4
 74
     0
 42
0.000000001
 43
0.00000001
 40
0.0
 40
0.0
 40
0.0
 40
0.0
 40
1.0
 40
1.0
 40
1.0
 40
1.0
 10
21.32047745642091
 20
-4.75586311674952
 30
0.0
 10
21.46279279670094
 20
-4.743376871896483
 30
0.0
 10
21.60182966664785
 20
-4.692317837795306
 30
0.0
 10
21.72550935214993
 20
-4.603962788935875
 30
0.0
  0
SPLINE
  5
14D
330
1F
100
AcDbEntity
  8
외형선
  6
Continuous
 62
     1
370
    15
100
AcDbSpline
210
0.0
220
0.0
230
1.0
 70
     8
 71
     3
 72
    10
 73
     6
 74
     0
 42
0.000000001
 43
0.00000001
 40
0.0
 40
0.0
 40
0.0
 40
0.0
 40
0.2761003242613707
 40
0.7269676858019143
 40
0.9999999999999999
 40
0.9999999999999999
 40
0.9999999999999999
 40
0.9999999999999999
 10
17.4979682595532
 20
-3.721751691664466
 30
0.0
 10
17.43099295416448
 20
-3.761579169360617
 30
0.0
 10
17.25464805890016
 20
-3.866444273628621
 30
0.0
 10
17.00671155039229
 20
-3.936207163994476
 30
0.0
 10
16.84761612297588
 20
-3.922197099940357
 30
0.0
 10
16.78761030423931
 20
-3.916912942012179
 30
0.0
  0
SPLINE
  5
14E
330
1F
100
AcDbEntity
  8
외형선
  6
Continuous
 62
     1
370
    15
100
AcDbSpline
210
0.0
220
0.0
230
1.0
 70
     8
 71
     3
 72
     8
 73
     4
 74
     0
 42
0.000000001
 43
0.00000001
 40
0.0
 40
0.0
 40
0.0
 40
0.0
 40
1.0
 40
1.0
 40
1.0
 40
1.0
 10
16.78761030423932
 20
-3.916912942012184
 30
0.0
 10
16.70945814891942
 20
-3.903041109406503
 30
0.0
 10
16.60845509821672
 20
-3.937983464844365
 30
0.0
 10
16.52755882382226
 20
-4.013990811476012
 30
0.0
  0
SPLINE
  5
14F
330
1F
100
AcDbEntity
  8
외형선
  6
Continuous
 62
     1
370
    15
100
AcDbSpline
210
0.0
220
0.0
230
1.0
 70
     8
 71
     3
 72
     8
 73
     4
 74
     0
 42
0.000000001
 43
0.00000001
 40
0.0
 40
0.0
 40
0.0
 40
0.0
 40
1.0
 40
1.0
 40
1.0
 40
1.0
 10
16.52755882382227
 20
-4.013990811476004
 30
0.0
 10
16.40067302807194
 20
-4.133208324673234
 30
0.0
 10
16.26208018671669
 20
-4.227200646524829
 30
0.0
 10
16.1213733232422
 20
-4.28925205333613
 30
0.0
  0
SPLINE
  5
150
330
1F
100
AcDbEntity
  8
외형선
  6
Continuous
 62
     1
370
    15
100
AcDbSpline
210
0.0
220
0.0
230
1.0
 70
     8
 71
     3
 72
     8
 73
     4
 74
     0
 42
0.000000001
 43
0.00000001
 40
0.0
 40
0.0
 40
0.0
 40
0.0
 40
1.0
 40
1.0
 40
1.0
 40
1.0
 10
16.12137332324296
 20
-4.289252053335591
 30
0.0
 10
15.97898739202906
 20
-4.319755653408293
 30
0.0
 10
15.84020457632586
 20
-4.314382461705739
 30
0.0
 10
15.71660008473031
 20
-4.269842130374818
 30
0.0
  0
SPLINE
  5
151
330
1F
100
AcDbEntity
  8
외형선
  6
Continuous
 62
     1
370
    15
100
AcDbSpline
210
0.0
220
0.0
230
1.0
 70
     8
 71
     3
 72
     8
 73
     4
 74
     0
 42
0.000000001
 43
0.00000001
 40
0.0
 40
0.0
 40
0.0
 40
0.0
 40
1.0
 40
1.0
 40
1.0
 40
1.0
 10
15.71660008473027
 20
-4.269842130374794
 30
0.0
 10
15.63888902986939
 20
-4.241839295794108
 30
0.0
 10
15.53795860184275
 20
-4.265014919958693
 30
0.0
 10
15.45652799004919
 20
-4.335893695484773
 30
0.0
  0
SPLINE
  5
152
330
1F
100
AcDbEntity
  8
외형선
  6
Continuous
 62
     1
370
    15
100
AcDbSpline
210
0.0
220
0.0
230
1.0
 70
     8
 71
     3
 72
    12
 73
     8
 74
     0
 42
0.000000001
 43
0.00000001
 40
0.0
 40
0.0
 40
0.0
 40
0.0
 40
0.4999999999999999
 40
0.4999999999999999
 40
0.7499999999999998
 40
0.7499999999999998
 40
1.0
 40
1.0
 40
1.0
 40
1.0
 10
15.45652799004918
 20
-4.33589369548478
 30
0.0
 10
15.29586640906816
 20
-4.475736635175427
 30
0.0
 10
15.12015837192713
 20
-4.56479433751
 30
0.0
 10
14.85355659017531
 20
-4.615859619406272
 30
0.0
 10
14.76678439016927
 20
-4.618614705772339
 30
0.0
 10
14.5962935753922
 20
-4.595311016096783
 30
0.0
 10
14.51320325053401
 20
-4.568912233724074
 30
0.0
 10
14.43606570857727
 20
-4.527627555811406
 30
0.0
  0
SPLINE
  5
153
330
1F
100
AcDbEntity
  8
외형선
  6
Continuous
 62
     1
370
    15
100
AcDbSpline
210
0.0
220
0.0
230
1.0
 70
     8
 71
     3
 72
     8
 73
     4
 74
     0
 42
0.000000001
 43
0.00000001
 40
0.0
 40
0.0
 40
0.0
 40
0.0
 40
1.0
 40
1.0
 40
1.0
 40
1.0
 10
14.43606570857727
 20
-4.527627555811406
 30
0.0
 10
14.35763532725913
 20
-4.485650939119327
 30
0.0
 10
14.25649392732869
 20
-4.4957605104289
 30
0.0
 10
14.17542275432992
 20
-4.559451331196358
 30
0.0
  0
SPLINE
  5
154
330
1F
100
AcDbEntity
  8
외형선
  6
Continuous
 62
     1
370
    15
100
AcDbSpline
210
0.0
220
0.0
230
1.0
 70
     8
 71
     3
 72
     8
 73
     4
 74
     0
 42
0.000000001
 43
0.00000001
 40
0.0
 40
0.0
 40
0.0
 40
0.0
 40
1.0
 40
1.0
 40
1.0
 40
1.0
 10
14.1754227543298
 20
-4.559451331196454
 30
0.0
 10
14.04842119123048
 20
-4.659225807047174
 30
0.0
 10
13.90972427943898
 20
-4.722291048216781
 30
0.0
 10
13.76860314354155
 20
-4.748380231029432
 30
0.0
  0
SPLINE
  5
155
330
1F
100
AcDbEntity
  8
외형선
  6
Continuous
 62
     1
370
    15
100
AcDbSpline
210
0.0
220
0.0
230
1.0
 70
     8
 71
     3
 72
     8
 73
     4
 74
     0
 42
0.000000001
 43
0.00000001
 40
0.0
 40
0.0
 40
0.0
 40
0.0
 40
1.0
 40
1.0
 40
1.0
 40
1.0
 10
13.76860314354047
 20
-4.748380231029628
 30
0.0
 10
13.6262551259243
 20
-4.738552805435909
 30
0.0
 10
13.48711762361286
 20
-4.690151538841135
 30
0.0
 10
13.36334358604658
 20
-4.604055684376759
 30
0.0
  0
SPLINE
  5
156
330
1F
100
AcDbEntity
  8
외형선
  6
Continuous
 62
     1
370
    15
100
AcDbSpline
210
0.0
220
0.0
230
1.0
 70
     8
 71
     3
 72
     8
 73
     4
 74
     0
 42
0.000000001
 43
0.00000001
 40
0.0
 40
0.0
 40
0.0
 40
0.0
 40
1.0
 40
1.0
 40
1.0
 40
1.0
 10
13.36334358604655
 20
-4.604055684376739
 30
0.0
 10
13.28556177316763
 20
-4.549951513798855
 30
0.0
 10
13.18457603899792
 20
-4.546942293626114
 30
0.0
 10
13.10319426643095
 20
-4.600855468318827
 30
0.0
  0
SPLINE
  5
157
330
1F
100
AcDbEntity
  8
외형선
  6
Continuous
 62
     1
370
    15
100
AcDbSpline
210
0.0
220
0.0
230
1.0
 70
     8
 71
     3
 72
    12
 73
     8
 74
     0
 42
0.000000001
 43
0.00000001
 40
0.0
 40
0.0
 40
0.0
 40
0.0
 40
0.5
 40
0.5
 40
0.75
 40
0.75
 40
1.0
 40
1.0
 40
1.0
 40
1.0
 10
13.10319426643094
 20
-4.600855468318834
 30
0.0
 10
12.94252623693531
 20
-4.707293596520138
 30
0.0
 10
12.76701500707439
 20
-4.749360697198695
 30
0.0
 10
12.50119654933534
 20
-4.726442469839018
 30
0.0
 10
12.41474213826968
 20
-4.704606716320071
 30
0.0
 10
12.24457142777558
 20
-4.632736511000332
 30
0.0
 10
12.16156047867272
 20
-4.582539286334976
 30
0.0
 10
12.08447297266344
 20
-4.518971494006193
 30
0.0
  0
SPLINE
  5
158
330
1F
100
AcDbEntity
  8
외형선
  6
Continuous
 62
     1
370
    15
100
AcDbSpline
210
0.0
220
0.0
230
1.0
 70
     8
 71
     3
 72
     8
 73
     4
 74
     0
 42
0.000000001
 43
0.00000001
 40
0.0
 40
0.0
 40
0.0
 40
0.0
 40
1.0
 40
1.0
 40
1.0
 40
1.0
 10
12.08447297266343
 20
-4.518971494006183
 30
0.0
 10
12.00633606917726
 20
-4.454538348984934
 30
0.0
 10
11.90533630651781
 20
-4.438203386943414
 30
0.0
 10
11.82441075217437
 20
-4.480659208604958
 30
0.0
  0
SPLINE
  5
159
330
1F
100
AcDbEntity
  8
외형선
  6
Continuous
 62
     1
370
    15
100
AcDbSpline
210
0.0
220
0.0
230
1.0
 70
     8
 71
     3
 72
     8
 73
     4
 74
     0
 42
0.000000001
 43
0.00000001
 40
0.0
 40
0.0
 40
0.0
 40
0.0
 40
1.0
 40
1.0
 40
1.0
 40
1.0
 10
11.82441075217437
 20
-4.480659208604957
 30
0.0
 10
11.6975127178757
 20
-4.547233486125749
 30
0.0
 10
11.55886090701816
 20
-4.570637463384403
 30
0.0
 10
11.41801497347266
 20
-4.557247964271448
 30
0.0
  0
SPLINE
  5
15A
330
1F
100
AcDbEntity
  8
외형선
  6
Continuous
 62
     1
370
    15
100
AcDbSpline
210
0.0
220
0.0
230
1.0
 70
     8
 71
     3
 72
     8
 73
     4
 74
     0
 42
0.000000001
 43
0.00000001
 40
0.0
 40
0.0
 40
0.0
 40
0.0
 40
1.0
 40
1.0
 40
1.0
 40
1.0
 10
11.41801497347263
 20
-4.557247964271442
 30
0.0
 10
11.27551194314752
 20
-4.508539435099696
 30
0.0
 10
11.13645444411556
 20
-4.423920306111082
 30
0.0
 10
11.01278316647976
 20
-4.308282994641076
 30
0.0
  0
SPLINE
  5
15B
330
1F
100
AcDbEntity
  8
외형선
  6
Continuous
 62
     1
370
    15
100
AcDbSpline
210
0.0
220
0.0
230
1.0
 70
     8
 71
     3
 72
     8
 73
     4
 74
     0
 42
0.000000001
 43
0.00000001
 40
0.0
 40
0.0
 40
0.0
 40
0.0
 40
1.0
 40
1.0
 40
1.0
 40
1.0
 10
11.01278316647971
 20
-4.308282994641027
 30
0.0
 10
10.93487728511578
 20
-4.235438055696051
 30
0.0
 10
10.8339358701048
 20
-4.206542614640616
 30
0.0
 10
10.75241932293961
 20
-4.23603204648736
 30
0.0
  0
SPLINE
  5
15C
330
1F
100
AcDbEntity
  8
외형선
  6
Continuous
 62
     1
370
    15
100
AcDbSpline
210
0.0
220
0.0
230
1.0
 70
     8
 71
     3
 72
    10
 73
     6
 74
     0
 42
0.000000001
 43
0.00000001
 40
0.0
 40
0.0
 40
0.0
 40
0.0
 40
0.5
 40
0.5
 40
1.0
 40
1.0
 40
1.0
 40
1.0
 10
10.7524193229396
 20
-4.23603204648737
 30
0.0
 10
10.63550670309702
 20
-4.278326364079923
 30
0.0
 10
10.51094365915401
 20
-4.283626796640911
 30
0.0
 10
10.25467669282963
 20
-4.236098283804973
 30
0.0
 10
10.12463718870149
 20
-4.182861542167664
 30
0.0
 10
10.00000000000049
 20
-4.10554348006817
 30
0.0
  0
SPLINE
  5
15D
330
1F
100
AcDbEntity
  8
외형선
  6
Continuous
370
    15
100
AcDbSpline
210
0.0
220
0.0
230
1.0
 70
    24
 71
     3
 72
     9
 73
     5
 74
     0
 42
0.000000001
 43
0.00000001
 40
0.0
 40
0.0
 40
0.0
 40
0.0
 40
0.5
 40
1.0
 40
1.0
 40
1.0
 40
1.0
 10
10.0
 20
-4.040506788323869
 30
0.0
 10
10.0
 20
-4.051402201676173
 30
0.0
 10
10.0
 20
-4.073138022647218
 30
0.0
 10
10.0
 20
-4.094760950791522
 30
0.0
 10
10.0
 20
-4.105543480067503
 30
0.0
  0
SPLINE
  5
15E
330
1F
100
AcDbEntity
  8
외형선
  6
Continuous
370
    15
100
AcDbSpline
210
0.0
220
0.0
230
1.0
 70
     8
 71
     3
 72
     8
 73
     4
 74
     0
 42
0.000000001
 43
0.00000001
 40
0.0
 40
0.0
 40
0.0
 40
0.0
 40
1.0
 40
1.0
 40
1.0
 40
1.0
 10
10.0
 20
-4.040506788323888
 30
0.0
 10
9.95005703456712
 20
-4.027031000058455
 30
0.0
 10
9.900167540955655
 20
-4.013131305085101
 30
0.0
 10
9.850331126947687
 20
-3.998805355806098
 30
0.0
  0
SPLINE
  5
15F
330
1F
100
AcDbEntity
  8
외형선
  6
Continuous
370
    15
100
AcDbSpline
210
0.0
220
0.0
230
1.0
 70
     8
 71
     3
 72
     8
 73
     4
 74
     0
 42
0.000000001
 43
0.00000001
 40
0.0
 40
0.0
 40
0.0
 40
0.0
 40
1.0
 40
1.0
 40
1.0
 40
1.0
 10
9.850331126947616
 20
-3.998805355806164
 30
0.0
 10
9.809484196941078
 20
-3.965666790240168
 30
0.0
 10
9.76981466687549
 20
-3.930004392893371
 30
0.0
 10
9.731401371038002
 20
-3.891683307243807
 30
0.0
  0
SPLINE
  5
160
330
1F
100
AcDbEntity
  8
외형선
  6
Continuous
370
    15
100
AcDbSpline
210
0.0
220
0.0
230
1.0
 70
     8
 71
     3
 72
     8
 73
     4
 74
     0
 42
0.000000001
 43
0.00000001
 40
0.0
 40
0.0
 40
0.0
 40
0.0
 40
1.0
 40
1.0
 40
1.0
 40
1.0
 10
9.731401371037983
 20
-3.891683307243782
 30
0.0
 10
9.653132222959321
 20
-3.813602042362741
 30
0.0
 10
9.552081048882819
 20
-3.773125878321485
 30
0.0
 10
9.471135189830735
 20
-3.788501509287724
 30
0.0
  0
SPLINE
  5
161
330
1F
100
AcDbEntity
  8
외형선
  6
Continuous
370
    15
100
AcDbSpline
210
0.0
220
0.0
230
1.0
 70
     8
 71
     3
 72
     8
 73
     4
 74
     0
 42
0.000000001
 43
0.00000001
 40
0.0
 40
0.0
 40
0.0
 40
0.0
 40
1.0
 40
1.0
 40
1.0
 40
1.0
 10
9.471135189830742
 20
-3.788501509287728
 30
0.0
 10
9.371818590091735
 20
-3.807366654513083
 30
0.0
 10
9.265218783578868
 20
-3.799123419075048
 30
0.0
 10
9.15641292713839
 20
-3.770200483242614
 30
0.0
  0
SPLINE
  5
162
330
1F
100
AcDbEntity
  8
외형선
  6
Continuous
 62
     1
370
    15
100
AcDbSpline
210
0.0
220
0.0
230
1.0
 70
     8
 71
     3
 72
    12
 73
     8
 74
     0
 42
0.000000001
 43
0.00000001
 40
0.0
 40
0.0
 40
0.0
 40
0.0
 40
0.5
 40
0.5
 40
0.75
 40
0.75
 40
1.0
 40
1.0
 40
1.0
 40
1.0
 10
12.20197251603679
 20
3.047853093454763
 30
0.0
 10
12.15486276538517
 20
2.609012430614068
 30
0.0
 10
12.10457984906386
 20
2.092692707359537
 30
0.0
 10
12.03158899898046
 20
1.273725458283226
 30
0.0
 10
12.00767693292969
 20
0.9937503161812918
 30
0.0
 10
11.96177900266692
 20
0.4339145518905745
 30
0.0
 10
11.93826429070088
 20
0.1479080732743167
 30
0.0
 10
11.91404225596236
 20
-0.1401747278576903
 30
0.0
  0
SPLINE
  5
163
330
1F
100
AcDbEntity
  8
외형선
  6
Continuous
 62
     1
370
    15
100
AcDbSpline
210
0.0
220
0.0
230
1.0
 70
     8
 71
     3
 72
    12
 73
     8
 74
     0
 42
0.000000001
 43
0.00000001
 40
0.0
 40
0.0
 40
0.0
 40
0.0
 40
0.4999999999999997
 40
0.4999999999999997
 40
0.7499999999999997
 40
0.7499999999999997
 40
1.0
 40
1.0
 40
1.0
 40
1.0
 10
16.90585786670296
 20
-0.2373408749035342
 30
0.0
 10
16.85726385707522
 20
-0.8132237969303829
 30
0.0
 10
16.80702808762209
 20
-1.38964529407309
 30
0.0
 10
16.73638630388269
 20
-2.173578277973365
 30
0.0
 10
16.71391108624172
 20
-2.420878283936667
 30
0.0
 10
16.66636431783725
 20
-2.895847410026693
 30
0.0
 10
16.64189991596742
 20
-3.121097178843375
 30
0.0
 10
16.61733307070045
 20
-3.328079806385086
 30
0.0
  0
SPLINE
  5
165
330
1F
100
AcDbEntity
  8
외형선
  6
Continuous
 62
     1
370
    15
100
AcDbSpline
210
0.0
220
0.0
230
1.0
 70
     8
 71
     3
 72
    10
 73
     6
 74
     0
 42
0.000000001
 43
0.00000001
 40
0.0
 40
0.0
 40
0.0
 40
0.0
 40
0.117667284645413
 40
0.6675196281924151
 40
1.0
 40
1.0
 40
1.0
 40
1.0
 10
23.99383661026479
 20
3.704650671620908
 30
0.0
 10
24.01732249365763
 20
3.718469413834697
 30
0.0
 10
24.15055653740566
 20
3.79686233071412
 30
0.0
 10
24.35418328578887
 20
3.852965004581458
 30
0.0
 10
24.51334609352946
 20
3.844526986034144
 30
0.0
 10
24.57332177908959
 20
3.841347374199391
 30
0.0
  0
SPLINE
  5
166
330
1F
100
AcDbEntity
  8
외형선
  6
Continuous
 62
     1
370
    15
100
AcDbSpline
210
0.0
220
0.0
230
1.0
 70
     8
 71
     3
 72
     8
 73
     4
 74
     0
 42
0.000000001
 43
0.00000001
 40
0.0
 40
0.0
 40
0.0
 40
0.0
 40
1.0
 40
1.0
 40
1.0
 40
1.0
 10
24.5733217790896
 20
3.841347374199386
 30
0.0
 10
24.65156202450324
 20
3.829985077712416
 30
0.0
 10
24.75265351612592
 20
3.8668564735701
 30
0.0
 10
24.83367684455408
 20
3.943486072918942
 30
0.0
  0
SPLINE
  5
167
330
1F
100
AcDbEntity
  8
외형선
  6
Continuous
 62
     1
370
    15
100
AcDbSpline
210
0.0
220
0.0
230
1.0
 70
     8
 71
     3
 72
     8
 73
     4
 74
     0
 42
0.000000001
 43
0.00000001
 40
0.0
 40
0.0
 40
0.0
 40
0.0
 40
1.0
 40
1.0
 40
1.0
 40
1.0
 10
24.83367684455408
 20
3.943486072918943
 30
0.0
 10
24.9607913475091
 20
4.06370741684347
 30
0.0
 10
25.099648952676
 20
4.159732834706324
 30
0.0
 10
25.24066566808769
 20
4.224407718506482
 30
0.0
  0
SPLINE
  5
168
330
1F
100
AcDbEntity
  8
외형선
  6
Continuous
 62
     1
370
    15
100
AcDbSpline
210
0.0
220
0.0
230
1.0
 70
     8
 71
     3
 72
     8
 73
     4
 74
     0
 42
0.000000001
 43
0.00000001
 40
0.0
 40
0.0
 40
0.0
 40
0.0
 40
1.0
 40
1.0
 40
1.0
 40
1.0
 10
25.24066564407655
 20
4.22440771283665
 30
0.0
 10
25.3833856128519
 20
4.258108667442838
 30
0.0
 10
25.52266802709415
 20
4.25628524675285
 30
0.0
 10
25.64653120595074
 20
4.215559612225951
 30
0.0
  0
SPLINE
  5
169
330
1F
100
AcDbEntity
  8
외형선
  6
Continuous
 62
     1
370
    15
100
AcDbSpline
210
0.0
220
0.0
230
1.0
 70
     8
 71
     3
 72
     8
 73
     4
 74
     0
 42
0.000000001
 43
0.00000001
 40
0.0
 40
0.0
 40
0.0
 40
0.0
 40
1.0
 40
1.0
 40
1.0
 40
1.0
 10
25.64653120595087
 20
4.215559612225912
 30
0.0
 10
25.72443785920982
 20
4.189944268609437
 30
0.0
 10
25.82539065764188
 20
4.215280155492626
 30
0.0
 10
25.90694135312389
 20
4.287257793273112
 30
0.0
  0
SPLINE
  5
16A
330
1F
100
AcDbEntity
  8
외형선
  6
Continuous
 62
     1
370
    15
100
AcDbSpline
210
0.0
220
0.0
230
1.0
 70
     8
 71
     3
 72
    12
 73
     8
 74
     0
 42
0.000000001
 43
0.00000001
 40
0.0
 40
0.0
 40
0.0
 40
0.0
 40
0.4999999999999971
 40
0.4999999999999971
 40
0.7499999999999986
 40
0.7499999999999986
 40
1.0
 40
1.0
 40
1.0
 40
1.0
 10
25.90694135312389
 20
4.287257793273119
 30
0.0
 10
26.06739752611279
 20
4.428878367209081
 30
0.0
 10
26.24280736385056
 20
4.521361632521869
 30
0.0
 10
26.50922370223783
 20
4.578402829712631
 30
0.0
 10
26.59595422186359
 20
4.583222660818113
 30
0.0
 10
26.76638719761646
 20
4.564072393806154
 30
0.0
 10
26.84944629425913
 20
4.539748885064041
 30
0.0
 10
26.92652512594925
 20
4.500431559646745
 30
0.0
  0
SPLINE
  5
16B
330
1F
100
AcDbEntity
  8
외형선
  6
Continuous
 62
     1
370
    15
100
AcDbSpline
210
0.0
220
0.0
230
1.0
 70
     8
 71
     3
 72
     8
 73
     4
 74
     0
 42
0.000000001
 43
0.00000001
 40
0.0
 40
0.0
 40
0.0
 40
0.0
 40
1.0
 40
1.0
 40
1.0
 40
1.0
 10
26.92652512594945
 20
4.500431559646869
 30
0.0
 10
27.00470896688477
 20
4.460550577423637
 30
0.0
 10
27.10567774891518
 20
4.4727684550791
 30
0.0
 10
27.18653568236734
 20
4.537756645536688
 30
0.0
  0
SPLINE
  5
16C
330
1F
100
AcDbEntity
  8
외형선
  6
Continuous
 62
     1
370
    15
100
AcDbSpline
210
0.0
220
0.0
230
1.0
 70
     8
 71
     3
 72
     8
 73
     4
 74
     0
 42
0.000000001
 43
0.00000001
 40
0.0
 40
0.0
 40
0.0
 40
0.0
 40
1.0
 40
1.0
 40
1.0
 40
1.0
 10
27.18653568236734
 20
4.537756645536689
 30
0.0
 10
27.31343882890328
 20
4.639752893828436
 30
0.0
 10
27.45177566061127
 20
4.705721412360891
 30
0.0
 10
27.59259271985918
 20
4.734969838928032
 30
0.0
  0
SPLINE
  5
16D
330
1F
100
AcDbEntity
  8
외형선
  6
Continuous
 62
     1
370
    15
100
AcDbSpline
210
0.0
220
0.0
230
1.0
 70
     8
 71
     3
 72
     8
 73
     4
 74
     0
 42
0.000000001
 43
0.00000001
 40
0.0
 40
0.0
 40
0.0
 40
0.0
 40
1.0
 40
1.0
 40
1.0
 40
1.0
 10
27.59259269591229
 20
4.734969840020719
 30
0.0
 10
27.73475175406916
 20
4.728483168945358
 30
0.0
 10
27.87375382407751
 20
4.683399602886313
 30
0.0
 10
27.99744513961624
 20
4.600333623065064
 30
0.0
  0
SPLINE
  5
16E
330
1F
100
AcDbEntity
  8
외형선
  6
Continuous
 62
     1
370
    15
100
AcDbSpline
210
0.0
220
0.0
230
1.0
 70
     8
 71
     3
 72
     8
 73
     4
 74
     0
 42
0.000000001
 43
0.00000001
 40
0.0
 40
0.0
 40
0.0
 40
0.0
 40
1.0
 40
1.0
 40
1.0
 40
1.0
 10
27.99744513961637
 20
4.600333623064976
 30
0.0
 10
28.07519909465811
 20
4.548117277621542
 30
0.0
 10
28.17617866963154
 20
4.547293974623564
 30
0.0
 10
28.2575714719561
 20
4.602903189026431
 30
0.0
  0
SPLINE
  5
16F
330
1F
100
AcDbEntity
  8
외형선
  6
Continuous
 62
     1
370
    15
100
AcDbSpline
210
0.0
220
0.0
230
1.0
 70
     8
 71
     3
 72
    10
 73
     6
 74
     0
 42
0.000000001
 43
0.00000001
 40
0.0
 40
0.0
 40
0.0
 40
0.0
 40
0.5
 40
0.5
 40
1.0
 40
1.0
 40
1.0
 40
1.0
 10
28.2575714719561
 20
4.602903189026438
 30
0.0
 10
28.34408117395648
 20
4.662008373134555
 30
0.0
 10
28.43373070915683
 20
4.701884516106171
 30
0.0
 10
28.62110625434202
 20
4.748914396540973
 30
0.0
 10
28.71707058922634
 20
4.754960584490841
 30
0.0
 10
28.81197008363713
 20
4.744177190573169
 30
0.0
  0
SPLINE
  5
170
330
1F
100
AcDbEntity
  8
외형선
  6
Continuous
 62
     1
370
    15
100
AcDbSpline
210
0.0
220
0.0
230
1.0
 70
     8
 71
     3
 72
    18
 73
    14
 74
     0
 42
0.000000001
 43
0.00000001
 40
0.0
 40
0.0
 40
0.0
 40
0.0
 40
0.2500000000000004
 40
0.2500000000000004
 40
0.5000000000000009
 40
0.5000000000000009
 40
0.6250000000000007
 40
0.6250000000000007
 40
0.7500000000000004
 40
0.7500000000000004
 40
0.8750000000000002
 40
0.8750000000000002
 40
1.0
 40
1.0
 40
1.0
 40
1.0
 10
28.81197008363713
 20
4.744177190573153
 30
0.0
 10
28.82288630172775
 20
4.447891753138216
 30
0.0
 10
28.81156525903436
 20
4.154932147198143
 30
0.0
 10
28.72841123898859
 20
3.578063173117486
 30
0.0
 10
28.65431474378756
 20
3.289569553287315
 30
0.0
 10
28.48392149139194
 20
2.898975473031249
 30
0.0
 10
28.41634338324755
 20
2.773678276452492
 30
0.0
 10
28.26207452741172
 20
2.544431183944817
 30
0.0
 10
28.17628468370961
 20
2.441244609138039
 30
0.0
 10
27.98694742520735
 20
2.258335708808273
 30
0.0
 10
27.8821139764121
 20
2.178138399057178
 30
0.0
 10
27.66422238120169
 20
2.048912201476273
 30
0.0
 10
27.55041850568379
 20
1.998739650565871
 30
0.0
 10
27.43198956731231
 20
1.96231501452753
 30
0.0
  0
SPLINE
  5
171
330
1F
100
AcDbEntity
  8
외형선
  6
Continuous
 62
     1
370
    15
100
AcDbSpline
210
0.0
220
0.0
230
1.0
 70
     8
 71
     3
 72
     8
 73
     4
 74
     0
 42
0.000000001
 43
0.00000001
 40
0.0
 40
0.0
 40
0.0
 40
0.0
 40
1.0
 40
1.0
 40
1.0
 40
1.0
 10
29.05
 20
1.187575669973162
 30
0.0
 10
28.4953687552237
 20
1.488507214519055
 30
0.0
 10
27.95624782651641
 20
1.746151159067707
 30
0.0
 10
27.43198956731297
 20
1.962315014525261
 30
0.0
  0
LINE
  5
172
330
1F
100
AcDbEntity
  8
외형선
  6
Continuous
 62
     1
370
    15
100
AcDbLine
 10
29.05
 20
0.5809362535889989
 30
0.0
 11
29.05
 21
1.187575669973163
 31
0.0
  0
SPLINE
  5
173
330
1F
100
AcDbEntity
  8
외형선
  6
Continuous
 62
     1
370
    15
100
AcDbSpline
210
0.0
220
0.0
230
1.0
 70
     8
 71
     3
 72
     8
 73
     4
 74
     0
 42
0.000000001
 43
0.00000001
 40
0.0
 40
0.0
 40
0.0
 40
0.0
 40
1.0
 40
1.0
 40
1.0
 40
1.0
 10
29.02183411654432
 20
0.5923935665277945
 30
0.0
 10
28.94825218464427
 20
0.6436027563744067
 30
0.0
 10
28.85725156846672
 20
0.7075405934496605
 30
0.0
 10
28.78312409463078
 20
0.7654917317151803
 30
0.0
  0
SPLINE
  5
174
330
1F
100
AcDbEntity
  8
외형선
  6
Continuous
 62
     1
370
    15
100
AcDbSpline
210
0.0
220
0.0
230
1.0
 70
     8
 71
     3
 72
     8
 73
     4
 74
     0
 42
0.000000001
 43
0.00000001
 40
0.0
 40
0.0
 40
0.0
 40
0.0
 40
1.0
 40
1.0
 40
1.0
 40
1.0
 10
27.76293732716426
 20
1.483794366133764
 30
0.0
 10
27.68472513364804
 20
1.52417166380097
 30
0.0
 10
27.58375321099091
 20
1.590860863964991
 30
0.0
 10
27.50288254921112
 20
1.662471871172121
 30
0.0
  0
SPLINE
  5
175
330
1F
100
AcDbEntity
  8
외형선
  6
Continuous
 62
     1
370
    15
100
AcDbSpline
210
0.0
220
0.0
230
1.0
 70
     8
 71
     3
 72
     8
 73
     4
 74
     0
 42
0.000000001
 43
0.00000001
 40
0.0
 40
0.0
 40
0.0
 40
0.0
 40
1.0
 40
1.0
 40
1.0
 40
1.0
 10
26.69195894513946
 20
2.198765853288348
 30
0.0
 10
26.614223080532
 20
2.225824198265774
 30
0.0
 10
26.51326541128499
 20
2.286560742607089
 30
0.0
 10
26.43190765585495
 20
2.36221501446131
 30
0.0
  0
SPLINE
  5
176
330
1F
100
AcDbEntity
  8
외형선
  6
Continuous
 62
     1
370
    15
100
AcDbSpline
210
0.0
220
0.0
230
1.0
 70
     8
 71
     3
 72
     8
 73
     4
 74
     0
 42
0.000000001
 43
0.00000001
 40
0.0
 40
0.0
 40
0.0
 40
0.0
 40
1.0
 40
1.0
 40
1.0
 40
1.0
 10
25.41235821481203
 20
2.966798635685201
 30
0.0
 10
25.33405415992575
 20
2.978794780581229
 30
0.0
 10
25.23290724911682
 20
3.031502553328191
 30
0.0
 10
25.15179267391366
 20
3.110069426101127
 30
0.0
  0
SPLINE
  5
177
330
1F
100
AcDbEntity
  8
외형선
  6
Continuous
 62
     1
370
    15
100
AcDbSpline
210
0.0
220
0.0
230
1.0
 70
     8
 71
     3
 72
     8
 73
     4
 74
     0
 42
0.000000001
 43
0.00000001
 40
0.0
 40
0.0
 40
0.0
 40
0.0
 40
1.0
 40
1.0
 40
1.0
 40
1.0
 10
25.15179267391348
 20
3.110069426101209
 30
0.0
 10
25.02460659968247
 20
3.233260752537519
 30
0.0
 10
24.88567275079097
 20
3.343719933627023
 30
0.0
 10
24.74453252150882
 20
3.429890549986748
 30
0.0
  0
SPLINE
  5
178
330
1F
100
AcDbEntity
  8
외형선
  6
Continuous
 62
     1
370
    15
100
AcDbSpline
210
0.0
220
0.0
230
1.0
 70
     8
 71
     3
 72
     8
 73
     4
 74
     0
 42
0.000000001
 43
0.00000001
 40
0.0
 40
0.0
 40
0.0
 40
0.0
 40
1.0
 40
1.0
 40
1.0
 40
1.0
 10
24.74453252150823
 20
3.429890549987109
 30
0.0
 10
24.60193926022352
 20
3.491548201622561
 30
0.0
 10
24.46274316768026
 20
3.523328730312865
 30
0.0
 10
24.33897069701076
 20
3.519146347985098
 30
0.0
  0
SPLINE
  5
179
330
1F
100
AcDbEntity
  8
외형선
  6
Continuous
 62
     1
370
    15
100
AcDbSpline
210
0.0
220
0.0
230
1.0
 70
     8
 71
     3
 72
     8
 73
     4
 74
     0
 42
0.000000001
 43
0.00000001
 40
0.0
 40
0.0
 40
0.0
 40
0.0
 40
1.0
 40
1.0
 40
1.0
 40
1.0
 10
24.33897069701076
 20
3.519146347985094
 30
0.0
 10
24.26110300379441
 20
3.516515129086006
 30
0.0
 10
24.16015047800498
 20
3.559810576658526
 30
0.0
 10
24.07876210100478
 20
3.637699171412207
 30
0.0
  0
SPLINE
  5
17A
330
1F
100
AcDbEntity
  8
외형선
  6
Continuous
 62
     1
370
    15
100
AcDbSpline
210
0.0
220
0.0
230
1.0
 70
     8
 71
     3
 72
    12
 73
     8
 74
     0
 42
0.000000001
 43
0.00000001
 40
0.0
 40
0.0
 40
0.0
 40
0.0
 40
0.5
 40
0.5
 40
0.75
 40
0.75
 40
1.0
 40
1.0
 40
1.0
 40
1.0
 10
24.07876210100476
 20
3.637699171412224
 30
0.0
 10
23.91848798928168
 20
3.79108133478274
 30
0.0
 10
23.74324698838662
 20
3.910882813548132
 30
0.0
 10
23.47695899384515
 20
4.019984008390793
 30
0.0
 10
23.39025396898437
 20
4.043558888285844
 30
0.0
 10
23.21984217702503
 20
4.06433161812158
 30
0.0
 10
23.13678137871673
 20
4.061066047322682
 30
0.0
 10
23.05969406269466
 20
4.043092247196311
 30
0.0
  0
SPLINE
  5
17B
330
1F
100
AcDbEntity
  8
외형선
  6
Continuous
 62
     1
370
    15
100
AcDbSpline
210
0.0
220
0.0
230
1.0
 70
     8
 71
     3
 72
     8
 73
     4
 74
     0
 42
0.000000001
 43
0.00000001
 40
0.0
 40
0.0
 40
0.0
 40
0.0
 40
1.0
 40
1.0
 40
1.0
 40
1.0
 10
23.05969406269466
 20
4.043092247196308
 30
0.0
 10
22.9815261332006
 20
4.024866489529304
 30
0.0
 10
22.8805434715312
 20
4.056433664708629
 30
0.0
 10
22.79967764336851
 20
4.131284449608915
 30
0.0
  0
SPLINE
  5
17C
330
1F
100
AcDbEntity
  8
외형선
  6
Continuous
 62
     1
370
    15
100
AcDbSpline
210
0.0
220
0.0
230
1.0
 70
     8
 71
     3
 72
     8
 73
     4
 74
     0
 42
0.000000001
 43
0.00000001
 40
0.0
 40
0.0
 40
0.0
 40
0.0
 40
1.0
 40
1.0
 40
1.0
 40
1.0
 10
22.79967764336831
 20
4.131284449609034
 30
0.0
 10
22.67271940069426
 20
4.248799156743316
 30
0.0
 10
22.53420121840926
 20
4.339119224433114
 30
0.0
 10
22.39354806876069
 20
4.396447322074755
 30
0.0
  0
SPLINE
  5
17D
330
1F
100
AcDbEntity
  8
외형선
  6
Continuous
 62
     1
370
    15
100
AcDbSpline
210
0.0
220
0.0
230
1.0
 70
     8
 71
     3
 72
     8
 73
     4
 74
     0
 42
0.000000001
 43
0.00000001
 40
0.0
 40
0.0
 40
0.0
 40
0.0
 40
1.0
 40
1.0
 40
1.0
 40
1.0
 10
22.39354806876045
 20
4.396447322074846
 30
0.0
 10
22.2514101364696
 20
4.421272198928701
 30
0.0
 10
22.11236930614701
 20
4.409236722484919
 30
0.0
 10
21.98859564254271
 20
4.357897017205646
 30
0.0
  0
SPLINE
  5
17E
330
1F
100
AcDbEntity
  8
외형선
  6
Continuous
 62
     1
370
    15
100
AcDbSpline
210
0.0
220
0.0
230
1.0
 70
     8
 71
     3
 72
     8
 73
     4
 74
     0
 42
0.000000001
 43
0.00000001
 40
0.0
 40
0.0
 40
0.0
 40
0.0
 40
1.0
 40
1.0
 40
1.0
 40
1.0
 10
21.98859564254272
 20
4.357897017205649
 30
0.0
 10
21.91080551407131
 20
4.325630684020854
 30
0.0
 10
21.80979047922673
 20
4.34503263924976
 30
0.0
 10
21.7283352136185
 20
4.413927540954067
 30
0.0
  0
SPLINE
  5
17F
330
1F
100
AcDbEntity
  8
외형선
  6
Continuous
 62
     1
370
    15
100
AcDbSpline
210
0.0
220
0.0
230
1.0
 70
     8
 71
     3
 72
    12
 73
     8
 74
     0
 42
0.000000001
 43
0.00000001
 40
0.0
 40
0.0
 40
0.0
 40
0.0
 40
0.5000000000000014
 40
0.5000000000000014
 40
0.7500000000000007
 40
0.7500000000000007
 40
1.0
 40
1.0
 40
1.0
 40
1.0
 10
21.72833521361849
 20
4.413927540954074
 30
0.0
 10
21.56737445421034
 20
4.55006822645635
 30
0.0
 10
21.39140948845133
 20
4.632809361655552
 30
0.0
 10
21.12472769225903
 20
4.673202128310563
 30
0.0
 10
21.03796169168022
 20
4.672302912760801
 30
0.0
 10
20.86753588014201
 20
4.641573810362152
 30
0.0
 10
20.78453465053531
 20
4.611444115740714
 30
0.0
 10
20.70740558434599
 20
4.566413347960754
 30
0.0
  0
SPLINE
  5
180
330
1F
100
AcDbEntity
  8
외형선
  6
Continuous
 62
     1
370
    15
100
AcDbSpline
210
0.0
220
0.0
230
1.0
 70
     8
 71
     3
 72
     8
 73
     4
 74
     0
 42
0.000000001
 43
0.00000001
 40
0.0
 40
0.0
 40
0.0
 40
0.0
 40
1.0
 40
1.0
 40
1.0
 40
1.0
 10
20.70740558434598
 20
4.56641334796075
 30
0.0
 10
20.6291484067573
 20
4.520723947515258
 30
0.0
 10
20.5280680258278
 20
4.526789631646996
 30
0.0
 10
20.44697755335749
 20
4.587828282275263
 30
0.0
  0
SPLINE
  5
181
330
1F
100
AcDbEntity
  8
외형선
  6
Continuous
 62
     1
370
    15
100
AcDbSpline
210
0.0
220
0.0
230
1.0
 70
     8
 71
     3
 72
     8
 73
     4
 74
     0
 42
0.000000001
 43
0.00000001
 40
0.0
 40
0.0
 40
0.0
 40
0.0
 40
1.0
 40
1.0
 40
1.0
 40
1.0
 10
20.44697755335728
 20
4.587828282275397
 30
0.0
 10
20.32003770525661
 20
4.683378805080096
 30
0.0
 10
20.18134541813396
 20
4.740973608948472
 30
0.0
 10
20.04034727612426
 20
4.761317589572441
 30
0.0
  0
SPLINE
  5
182
330
1F
100
AcDbEntity
  8
외형선
  6
Continuous
 62
     1
370
    15
100
AcDbSpline
210
0.0
220
0.0
230
1.0
 70
     8
 71
     3
 72
     9
 73
     5
 74
     0
 42
0.000000001
 43
0.00000001
 40
0.0
 40
0.0
 40
0.0
 40
0.0
 40
0.6611381811658255
 40
1.0
 40
1.0
 40
1.0
 40
1.0
 10
20.04034727612428
 20
4.76131758957244
 30
0.0
 10
19.98603901697603
 20
4.753010531578849
 30
0.0
 10
19.90389543384113
 20
4.740445748254819
 30
0.0
 10
19.82613982014768
 20
4.705171646253591
 30
0.0
 10
19.79979141146696
 20
4.693218599891713
 30
0.0
  0
LINE
  5
183
330
1F
100
AcDbEntity
  8
외형선
  6
Continuous
370
    15
100
AcDbLine
 10
-33.95
 20
4.762499999999992
 30
0.0
 11
-33.95
 21
-4.762500000000001
 31
0.0
  0
LINE
  5
184
330
1F
100
AcDbEntity
  8
외형선
  6
Continuous
370
    15
100
AcDbLine
 10
-34.45
 20
4.262499999999993
 30
0.0
 11
-34.45
 21
-4.262500000000009
 31
0.0
  0
SPLINE
  5
185
330
1F
100
AcDbEntity
  8
외형선
  6
Continuous
 62
     1
370
    15
100
AcDbSpline
210
0.0
220
0.0
230
1.0
 70
     8
 71
     3
 72
    14
 73
    10
 74
     0
 42
0.000000001
 43
0.00000001
 40
0.0
 40
0.0
 40
0.0
 40
0.0
 40
0.25
 40
0.25
 40
0.5
 40
0.5
 40
0.75
 40
0.75
 40
1.0
 40
1.0
 40
1.0
 40
1.0
 10
24.74453252150827
 20
3.429890549987307
 30
0.0
 10
24.72128292701223
 20
3.232397661470307
 30
0.0
 10
24.69829324922025
 20
3.017407243624932
 30
0.0
 10
24.65005698429755
 20
2.549824747081312
 30
0.0
 10
24.62537061453901
 20
2.298796804979627
 30
0.0
 10
24.57607298393441
 20
1.774088921819083
 30
0.0
 10
24.55146848979598
 20
1.500481831790201
 30
0.0
 10
24.50354653796106
 20
0.9447359722736148
 30
0.0
 10
24.48088897579645
 20
0.6653373330180072
 30
0.0
 10
24.45741626527179
 20
0.3806922523851424
 30
0.0
  0
SPLINE
  5
186
330
1F
100
AcDbEntity
  8
외형선
  6
Continuous
 62
     1
370
    15
100
AcDbSpline
210
0.0
220
0.0
230
1.0
 70
     8
 71
     3
 72
     8
 73
     4
 74
     0
 42
0.000000001
 43
0.00000001
 40
0.0
 40
0.0
 40
0.0
 40
0.0
 40
1.0
 40
1.0
 40
1.0
 40
1.0
 10
28.92109415541124
 20
-2.624339816875557
 30
0.0
 10
28.88506815636037
 20
-2.638172441385257
 30
0.0
 10
28.84965202070263
 20
-2.650568713378525
 30
0.0
 10
28.81511370371047
 20
-2.661411236915919
 30
0.0
  0
SPLINE
  5
188
330
1F
100
AcDbEntity
  8
외형선
  6
Continuous
370
    15
100
AcDbSpline
210
0.0
220
0.0
230
1.0
 70
    24
 71
     3
 72
    10
 73
     6
 74
     0
 42
0.000000001
 43
0.00000001
 40
0.0
 40
0.0
 40
0.0
 40
0.0
 40
0.5
 40
0.5
 40
1.0
 40
1.0
 40
1.0
 40
1.0
 10
10.0
 20
2.556036739739493
 30
0.0
 10
10.0
 20
2.868726686245735
 30
0.0
 10
9.999999999999993
 20
3.152640308870711
 30
0.0
 10
9.999999999999993
 20
3.666110347758169
 30
0.0
 10
10.0
 20
3.894977020705852
 30
0.0
 10
10.0
 20
4.086049573976746
 30
0.0
  0
SPLINE
  5
189
330
1F
100
AcDbEntity
  8
외형선
  6
Continuous
 62
     1
370
    15
100
AcDbSpline
210
0.0
220
0.0
230
1.0
 70
     8
 71
     3
 72
    14
 73
    10
 74
     0
 42
0.000000001
 43
0.00000001
 40
0.0
 40
0.0
 40
0.0
 40
0.0
 40
0.2499999999999998
 40
0.2499999999999998
 40
0.4999999999999999
 40
0.4999999999999999
 40
0.7499999999999999
 40
0.7499999999999999
 40
1.0
 40
1.0
 40
1.0
 40
1.0
 10
19.25647650270716
 20
-1.95059834452867
 30
0.0
 10
19.23294931351203
 20
-2.211237024403468
 30
0.0
 10
19.2103644318898
 20
-2.45811659417828
 30
0.0
 10
19.16256483263738
 20
-2.931691997062626
 30
0.0
 10
19.13799946308712
 20
-3.155843211817924
 30
0.0
 10
19.08872986107295
 20
-3.566856279883192
 30
0.0
 10
19.06403237395604
 20
-3.753659671786688
 30
0.0
 10
19.01572556679478
 20
-4.08142310495196
 30
0.0
 10
18.99260294912333
 20
-4.22159042704615
 30
0.0
 10
18.96943611190569
 20
-4.338797087574293
 30
0.0
  0
SPLINE
  5
18B
330
1F
100
AcDbEntity
  8
외형선
  6
Continuous
 62
     1
370
    15
100
AcDbSpline
210
0.0
220
0.0
230
1.0
 70
     8
 71
     3
 72
    12
 73
     8
 74
     0
 42
0.000000001
 43
0.00000001
 40
0.0
 40
0.0
 40
0.0
 40
0.0
 40
0.4999999999999999
 40
0.4999999999999999
 40
0.7499999999999999
 40
0.7499999999999999
 40
1.0
 40
1.0
 40
1.0
 40
1.0
 10
22.39354806876095
 20
4.396447322077117
 30
0.0
 10
22.34472983913966
 20
4.174488231946817
 30
0.0
 10
22.29469347356025
 20
3.850927050101351
 30
0.0
 10
22.22489865909652
 20
3.265353322902583
 30
0.0
 10
22.2021394571968
 20
3.053306651064672
 30
0.0
 10
22.15418658321391
 20
2.591027158573731
 30
0.0
 10
22.12961382038319
 20
2.342486439975259
 30
0.0
 10
22.10504205190246
 20
2.082307135869772
 30
0.0
  0
SPLINE
  5
18C
330
1F
100
AcDbEntity
  8
외형선
  6
Continuous
370
    15
100
AcDbSpline
210
0.0
220
0.0
230
1.0
 70
    24
 71
     3
 72
     8
 73
     4
 74
     0
 42
0.000000001
 43
0.00000001
 40
0.0
 40
0.0
 40
0.0
 40
0.0
 40
1.0
 40
1.0
 40
1.0
 40
1.0
 10
8.48010307173543
 20
-2.588493748288355
 30
0.0
 10
8.48010307173543
 20
-2.845493344689459
 30
0.0
 10
8.480103071735428
 20
-3.085612281900845
 30
0.0
 10
8.480103071735428
 20
-3.304440301399331
 30
0.0
  0
SPLINE
  5
18D
330
1F
100
AcDbEntity
  8
외형선
  6
Continuous
 62
     1
370
    15
100
AcDbSpline
210
0.0
220
0.0
230
1.0
 70
     8
 71
     3
 72
    12
 73
     8
 74
     0
 42
0.000000001
 43
0.00000001
 40
0.0
 40
0.0
 40
0.0
 40
0.0
 40
0.2499999999999999
 40
0.2499999999999999
 40
0.5
 40
0.5
 40
1.0
 40
1.0
 40
1.0
 40
1.0
 10
21.60908087059915
 20
-3.396893481273203
 30
0.0
 10
21.58450384809391
 20
-3.59971304037598
 30
0.0
 10
21.55990049216158
 20
-3.783623752041479
 30
0.0
 10
21.51184054736498
 20
-4.105503238090826
 30
0.0
 10
21.48895893733426
 20
-4.242579193019889
 30
0.0
 10
21.41935448407603
 20
-4.58640617776974
 30
0.0
 10
21.36935689534742
 20
-4.725377088309011
 30
0.0
 10
21.32047748037845
 20
-4.75586311464757
 30
0.0
  0
SPLINE
  5
18E
330
1F
100
AcDbEntity
  8
외형선
  6
Continuous
 62
     1
370
    15
100
AcDbSpline
210
0.0
220
0.0
230
1.0
 70
     8
 71
     3
 72
    12
 73
     8
 74
     0
 42
0.000000001
 43
0.00000001
 40
0.0
 40
0.0
 40
0.0
 40
0.0
 40
0.2499999999999999
 40
0.2499999999999999
 40
0.4999999999999999
 40
0.4999999999999999
 40
1.0
 40
1.0
 40
1.0
 40
1.0
 10
20.04034727612426
 20
4.761317589572442
 30
0.0
 10
20.01621078404854
 20
4.754901745043978
 30
0.0
 10
19.99308415782272
 20
4.722646465565113
 30
0.0
 10
19.94682329313502
 20
4.608737774972319
 30
0.0
 10
19.92277519314963
 20
4.525962691007771
 30
0.0
 10
19.84954407455841
 20
4.202209353973894
 30
0.0
 10
19.79933461002595
 20
3.883786423272373
 30
0.0
 10
19.75250963349327
 20
3.496737508383094
 30
0.0
  0
LINE
  5
18F
330
1F
100
AcDbEntity
  8
외형선
  6
Continuous
 62
     1
370
    15
100
AcDbLine
 10
21.77648647729372
 20
-4.56591336599697
 30
0.0
 11
21.76694927069987
 21
-4.573031955096122
 31
0.0
  0
LINE
  5
190
330
1F
100
AcDbEntity
  8
외형선
  6
Continuous
 62
     1
370
    15
100
AcDbLine
 10
19.58776517862839
 20
4.589016847798604
 30
0.0
 11
19.57964566077298
 21
4.577535360291461
 31
0.0
  0
LINE
  5
194
330
1F
100
AcDbEntity
  8
외형선
  6
Continuous
 62
     1
370
    15
100
AcDbLine
 10
23.11274225431544
 20
-4.581194366859312
 30
0.0
 11
23.10820291536711
 21
-4.585469957361757
 31
0.0
  0
LINE
  5
196
330
1F
100
AcDbEntity
  8
외형선
  6
Continuous
 62
     1
370
    15
100
AcDbLine
 10
19.37526319936976
 20
4.586447027782297
 30
0.0
 11
19.35859964176666
 21
4.590155575512934
 31
0.0
  0
LINE
  5
197
330
1F
100
AcDbEntity
  8
외형선
  6
Continuous
 62
     1
370
    15
100
AcDbLine
 10
18.24099002221007
 20
4.597430006705856
 30
0.0
 11
18.23567884223602
 21
4.590896402392708
 31
0.0
  0
SPLINE
  5
19A
330
1F
100
AcDbEntity
  8
외형선
  6
Continuous
370
    15
100
AcDbSpline
210
0.0
220
0.0
230
1.0
 70
    24
 71
     3
 72
    11
 73
     7
 74
     0
 42
0.000000001
 43
0.00000001
 40
0.0
 40
0.0
 40
0.0
 40
0.0
 40
0.1507472161258248
 40
0.4572610001479696
 40
0.772730091889508
 40
1.0
 40
1.0
 40
1.0
 40
1.0
 10
10.0
 20
-4.744903172186961
 30
0.0
 10
10.0
 20
-4.74870585327787
 30
0.0
 10
10.0
 20
-4.7602405124481
 30
0.0
 10
10.00000000000006
 20
-4.637597739852676
 30
0.0
 10
9.999999999999813
 20
-4.416631032753671
 30
0.0
 10
10.0000000000003
 20
-4.197361689937914
 30
0.0
 10
10.0000000000005
 20
-4.10554348006766
 30
0.0
  0
SPLINE
  5
19B
330
1F
100
AcDbEntity
  8
외형선
  6
Continuous
 62
     1
370
    15
100
AcDbSpline
210
0.0
220
0.0
230
1.0
 70
     8
 71
     3
 72
    10
 73
     6
 74
     0
 42
0.000000001
 43
0.00000001
 40
0.0
 40
0.0
 40
0.0
 40
0.0
 40
0.3658256426712815
 40
0.7349002786143493
 40
0.9999999999999999
 40
0.9999999999999999
 40
0.9999999999999999
 40
0.9999999999999999
 10
23.96146528231934
 20
-4.378093202758198
 30
0.0
 10
23.94246817943068
 20
-4.458843877785856
 30
0.0
 10
23.90430525541091
 20
-4.62106239571913
 30
0.0
 10
23.85080069924139
 20
-4.742478090514457
 30
0.0
 10
23.81730344040624
 20
-4.749278704671464
 30
0.0
 10
23.80330080235921
 20
-4.752121520527132
 30
0.0
  0
LINE
  5
19C
330
1F
100
AcDbEntity
  8
외형선
  6
Continuous
 62
     1
370
    15
100
AcDbLine
 10
18.00718322369685
 20
4.580972801379835
 30
0.0
 11
18.00394216616669
 21
4.583016378666788
 31
0.0
  0
SPLINE
  5
19D
330
1F
100
AcDbEntity
  8
외형선
  6
Continuous
 62
     1
370
    15
100
AcDbSpline
210
0.0
220
0.0
230
1.0
 70
     8
 71
     3
 72
    10
 73
     6
 74
     0
 42
0.000000001
 43
0.00000001
 40
0.0
 40
0.0
 40
0.0
 40
0.0
 40
0.4595244499966416
 40
0.7282898598076739
 40
1.0
 40
1.0
 40
1.0
 40
1.0
 10
17.54742730245868
 20
4.761029051159107
 30
0.0
 10
17.52502944297629
 20
4.747265073658133
 30
0.0
 10
17.4895315843911
 20
4.725450858452275
 30
0.0
 10
17.44190261013723
 20
4.593448128556367
 30
0.0
 10
17.41519746634449
 20
4.486647848183207
 30
0.0
 10
17.40177214421152
 20
4.432956762337433
 30
0.0
  0
LINE
  5
19E
330
1F
100
AcDbEntity
  8
외형선
  6
Continuous
 62
     1
370
    15
100
AcDbLine
 10
24.25405840815257
 20
-4.580877373482295
 30
0.0
 11
24.25002939487281
 21
-4.58467503503855
 31
0.0
  0
SPLINE
  5
19F
330
1F
100
AcDbEntity
  8
외형선
  6
Continuous
 62
     1
370
    15
100
AcDbSpline
210
0.0
220
0.0
230
1.0
 70
     8
 71
     3
 72
     9
 73
     5
 74
     0
 42
0.000000001
 43
0.00000001
 40
0.0
 40
0.0
 40
0.0
 40
0.0
 40
0.5667540834500947
 40
1.0
 40
1.0
 40
1.0
 40
1.0
 10
11.41801497347263
 20
-4.557247964271482
 30
0.0
 10
11.39691965446983
 20
-4.621629399709485
 30
0.0
 10
11.35969836287475
 20
-4.735226173544944
 30
0.0
 10
11.32249473050438
 20
-4.746381358199616
 30
0.0
 10
11.3063764086991
 20
-4.751214296399615
 30
0.0
  0
SPLINE
  5
1A0
330
1F
100
AcDbEntity
  8
외형선
  6
Continuous
 62
     1
370
    15
100
AcDbSpline
210
0.0
220
0.0
230
1.0
 70
     8
 71
     3
 72
     8
 73
     4
 74
     0
 42
0.000000001
 43
0.00000001
 40
0.0
 40
0.0
 40
0.0
 40
0.0
 40
1.0
 40
1.0
 40
1.0
 40
1.0
 10
28.8536939872677
 20
4.743961885180602
 30
0.0
 10
28.83978944612324
 20
4.744323865980165
 30
0.0
 10
28.82588147306638
 20
4.744395195746412
 30
0.0
 10
28.81197008363712
 20
4.744177190573157
 30
0.0
  0
SPLINE
  5
1A1
330
1F
100
AcDbEntity
  8
외형선
  6
Continuous
 62
     1
370
    15
100
AcDbSpline
210
0.0
220
0.0
230
1.0
 70
     8
 71
     3
 72
     8
 73
     4
 74
     0
 42
0.000000001
 43
0.00000001
 40
0.0000060175250347
 40
0.0000060175250347
 40
0.0000060175250347
 40
0.0000060175250347
 40
0.0003104083482519
 40
0.0003104083482519
 40
0.0003104083482519
 40
0.0003104083482519
 10
28.85369398726752
 20
4.743961885180317
 30
0.0
 10
28.91934713116986
 20
4.681742823882129
 30
0.0
 10
28.98479115589259
 20
4.619193203710012
 30
0.0
 10
29.05
 20
4.556281678559283
 30
0.0
  0
LINE
  5
1A2
330
1F
100
AcDbEntity
  8
외형선
  6
Continuous
 62
     1
370
    15
100
AcDbLine
 10
29.05
 20
0.5707809352054715
 30
0.0
 11
29.05
 21
0.5809362535889989
 31
0.0
  0
LINE
  5
1A3
330
1F
100
AcDbEntity
  8
외형선
  6
Continuous
 62
     1
370
    15
100
AcDbLine
 10
29.05
 20
1.187575669973163
 30
0.0
 11
29.05
 21
4.556281678559283
 31
0.0
  0
LINE
  5
1A4
330
1F
100
AcDbEntity
  8
외형선
  6
Continuous
 62
     1
370
    15
100
AcDbLine
 10
11.75706519610912
 20
-4.587098097898987
 30
0.0
 11
11.75122883022014
 21
-4.588960622627834
 31
0.0
  0
LINE
  5
1A5
330
1F
100
AcDbEntity
  8
외형선
  6
Continuous
 62
     1
370
    15
100
AcDbLine
 10
11.98900566923838
 20
-4.582115182758374
 30
0.0
 11
11.98626813501839
 21
-4.579446697600272
 31
0.0
  0
LINE
  5
1A6
330
1F
100
AcDbEntity
  8
외형선
  6
Continuous
 62
     1
370
    15
100
AcDbLine
 10
29.05
 20
-2.484363138555829
 30
0.0
 11
29.05
 21
-2.581373639222508
 31
0.0
  0
LINE
  5
1A7
330
1F
100
AcDbEntity
  8
외형선
  6
Continuous
 62
     1
370
    15
100
AcDbLine
 10
26.3122588827662
 20
-4.760002689384953
 30
0.0
 11
26.30341186873062
 21
-4.757932257486735
 31
0.0
  0
SPLINE
  5
1A8
330
1F
100
AcDbEntity
  8
외형선
  6
Continuous
 62
     1
370
    15
100
AcDbSpline
210
0.0
220
0.0
230
1.0
 70
     8
 71
     3
 72
     9
 73
     5
 74
     0
 42
0.000000001
 43
0.00000001
 40
0.0
 40
0.0
 40
0.0
 40
0.0
 40
0.3467868011806098
 40
0.9999999999999999
 40
0.9999999999999999
 40
0.9999999999999999
 40
0.9999999999999999
 10
28.8515467056277
 20
4.756060039321632
 30
0.0
 10
28.85168578911145
 20
4.757536602397821
 30
0.0
 10
28.85208685248314
 20
4.761794443443562
 30
0.0
 10
28.85305898044927
 20
4.751007838137183
 30
0.0
 10
28.8536939872677
 20
4.743961885180603
 30
0.0
  0
LINE
  5
1A9
330
1F
100
AcDbEntity
  8
외형선
  6
Continuous
 62
     1
370
    15
100
AcDbLine
 10
29.05
 20
4.556281678559283
 30
0.0
 11
29.05
 21
4.562499999999999
 31
0.0
  0
LINE
  5
1AA
330
1F
100
AcDbEntity
  8
중심선
100
AcDbLine
 10
-37.45
 20
-0.0000000000000079
 30
0.0
 11
32.05
 21
0.0000000000000008
 31
0.0
  0
LINE
  5
1AB
330
1F
100
AcDbEntity
  8
참조1
100
AcDbLine
 10
-2.699999999999999
 20
-0.0000000000000079
 30
0.0
 11
-2.699999999999996
 21
-38.04226164784988
 31
0.0
  0
LINE
  5
1AC
330
1F
100
AcDbEntity
  8
참조1
100
AcDbLine
 10
-2.699999999999996
 20
-38.04226164784988
 30
0.0
 11
-20.23959344675245
 21
-38.04226164784988
 31
0.0
  0
CIRCLE
  5
1AD
330
1F
100
AcDbEntity
  8
해칭선
100
AcDbCircle
 10
0.0
 20
0.0
 30
0.0
 40
3.000000000000001
  0
INSERT
  5
1AE
330
1F
100
AcDbEntity
  8
0
  6
Continuous
 62
     7
100
AcDbBlockReference
 66
     1
  2
블럭10
 10
-16.64027293212521
 20
-50.0894359494938
 30
0.0
  0
ATTRIB
  5
1AF
330
1AE
100
AcDbEntity
  8
FORMAT
 62
     2
100
AcDbText
 10
-25.82156822086649
 20
-48.01406903666161
 30
0.0
 40
4.233333333333333
  1
E2191024 [ 3 FLUTE ]
 41
0.75
  7
SLDTEXTSTYLE0
 11
-25.82156822086649
 21
-50.13073570332828
 31
0.0
100
AcDbAttribute
  2
AUTOATTR0
 70
     0
 74
     1
  0
SEQEND
  5
1B0
330
1AE
100
AcDbEntity
  8
0
  6
Continuous
 62
     7
  0
HATCH
  5
1B1
330
1F
100
AcDbEntity
  8
중심선
100
AcDbHatch
 10
0.0
 20
0.0
 30
0.0
210
0.0
220
0.0
230
1.0
  2
SOLID
 70
     1
 71
     0
 91
        1
 92
        0
 93
        4
 72
     1
 10
-10.92536362774436
 20
-33.84226164784987
 11
-14.37163887158164
 21
-33.84226164784987
 72
     1
 10
-14.37163887158164
 20
-33.84226164784987
 11
-16.49986873078566
 21
-36.37858722842244
 72
     1
 10
-16.49986873078566
 20
-36.37858722842244
 11
-13.05356040183523
 21
-36.37854779911995
 72
     1
 10
-13.05356040183523
 20
-36.37854779911995
 11
-10.92536362774436
 21
-33.84226164784987
 97
        0
 75
     0
 76
     1
 98
        1
 10
1.075369342984434
 20
-0.0000000000000027
  0
HATCH
  5
1B2
330
1F
100
AcDbEntity
  8
중심선
100
AcDbHatch
 10
0.0
 20
0.0
 30
0.0
210
0.0
220
0.0
230
1.0
  2
SOLID
 70
     1
 71
     0
 91
        1
 92
        0
 93
        4
 72
     1
 10
-5.912599636708348
 20
-33.84226164784987
 11
-9.358874880545686
 21
-33.84226164784987
 72
     1
 10
-9.358874880545686
 20
-33.84226164784987
 11
-13.89001288890307
 21
-39.24226164784989
 72
     1
 10
-13.89001288890307
 20
-39.24226164784989
 11
-10.44373764506579
 21
-39.24226164784989
 72
     1
 10
-10.44373764506579
 20
-39.24226164784989
 11
-5.912599636708348
 21
-33.84226164784987
 97
        0
 75
     0
 76
     1
 98
        1
 10
1.075369342984434
 20
-0.0000000000000027
  0
HATCH
  5
1B3
330
1F
100
AcDbEntity
  8
중심선
100
AcDbHatch
 10
0.0
 20
0.0
 30
0.0
210
0.0
220
0.0
230
1.0
  2
SOLID
 70
     1
 71
     0
 91
        1
 92
        0
 93
        4
 72
     1
 10
-0.8998356456725083
 20
-33.84226164784987
 11
-4.346110889509625
 21
-33.84226164784987
 72
     1
 10
-4.346110889509625
 20
-33.84226164784987
 11
-11.39454779139887
 21
-42.24226164784989
 72
     1
 10
-11.39454779139887
 20
-42.24226164784989
 11
-7.94827254756159
 21
-42.24226164784989
 72
     1
 10
-7.94827254756159
 20
-42.24226164784989
 11
-0.8998356456725087
 21
-33.84226164784987
 97
        0
 75
     0
 76
     1
 98
        1
 10
1.075369342984434
 20
-0.0000000000000027
  0
HATCH
  5
1B4
330
1F
100
AcDbEntity
  8
중심선
100
AcDbHatch
 10
0.0
 20
0.0
 30
0.0
210
0.0
220
0.0
230
1.0
  2
SOLID
 70
     1
 71
     0
 91
        1
 92
        0
 93
        6
 72
     3
 10
3.900054785339691
 20
-38.04226164790114
 11
3.960054785062283
 21
1.540882976769353E-10
 40
0.3939339440162628
 50
17.09539180608437
 51
320.0019657685082
 73
     0
 72
     1
 10
5.583054441040259
 20
-36.6301556524882
 11
7.888356314741324
 21
-34.69582894244025
 72
     3
 10
3.900054785286844
 20
-38.04226164785002
 11
6.600054785286829
 21
-1.278976924368180E-13
 40
0.636358354079598
 50
39.9987384933741
 51
368.4976242363725
 73
     1
 72
     1
 10
10.32538727718745
 20
-37.08226164777989
 11
2.580122092122767
 21
-37.08226164777989
 72
     1
 10
2.580122092122767
 20
-37.08226164777989
 11
2.580097047676833
 21
-39.00226164777978
 72
     1
 10
2.580097047676833
 20
-39.00226164777978
 11
7.021476817148871
 21
-39.00226164777975
 97
        0
 75
     0
 76
     1
 98
        1
 10
1.075369342984434
 20
-0.0000000000000027
  0
DIMENSION
  5
1B5
330
1F
100
AcDbEntity
  8
치수문자_일반주서
100
AcDbDimension
  2
_D
 10
-47.45000000000005
 20
-4.762500000000056
 30
0.0
 11
-47.45000000000006
 21
-0.3630378551438768
 31
0.0
 70
   160
  1
%%c<>
 71
     2
 42
9.525000000000006
 52
-270.0
  3
SLDDIMSTYLE0
100
AcDbAlignedDimension
 13
-33.95000000000002
 23
4.7625
 33
0.0
 14
-33.95000000000002
 24
-4.762500000000006
 34
0.0
 50
90.0000000000002
100
AcDbRotatedDimension
1001
ACAD
1000
DSTYLE
1002
{
1070
   171
1070
     6
1070
   273
1070
     7
1002
}
  0
DIMENSION
  5
1CA
330
1F
100
AcDbEntity
  8
치수문자_일반주서
100
AcDbDimension
  2
_D_1
 10
48.05000000000005
 20
4.76250000000007
 30
0.0
 11
48.04999999999998
 21
23.60828167855935
 31
0.0
 70
   160
  1
%%c<>
 71
     2
 42
9.525
 52
-270.0
  3
SLDDIMSTYLE1
100
AcDbAlignedDimension
 13
29.05
 23
-4.7625
 33
0.0
 14
29.05
 24
4.7625
 34
0.0
 50
90.0000000000002
100
AcDbRotatedDimension
1001
ACAD
1000
DSTYLE
1002
{
1070
   171
1070
     6
1070
   273
1070
     7
1002
}
  0
DIMENSION
  5
1DE
330
1F
100
AcDbEntity
  8
치수문자_일반주서
100
AcDbDimension
  2
_D_2
 10
10.0000000000005
 20
24.8912239778818
 30
0.0
 11
-5.770749999999502
 21
24.8912239778818
 31
0.0
 70
   160
  1
<>
 71
     2
 42
19.0499999999995
  3
SLDDIMSTYLE1
100
AcDbAlignedDimension
 13
29.05
 23
4.556281678559283
 33
0.0
 14
10.0000000000005
 24
-4.10554348006766
 34
0.0
 50
0.0000000000000214
100
AcDbRotatedDimension
1001
ACAD
1000
DSTYLE
1002
{
1070
   171
1070
     6
1070
   273
1070
     7
1002
}
  0
DIMENSION
  5
1F2
330
1F
100
AcDbEntity
  8
치수문자_일반주서
100
AcDbDimension
  2
_D_3
 10
-34.45
 20
40.40448676640278
 30
0.0
 11
-0.995900210167374
 21
40.40448676640278
 31
0.0
 70
   160
  1
<>
 71
     2
 42
63.50000000000001
  3
SLDDIMSTYLE2
100
AcDbAlignedDimension
 13
29.05
 23
4.556281678559283
 33
0.0
 14
-34.45
 24
4.262499999999993
 34
0.0
100
AcDbRotatedDimension
1001
ACAD
1000
DSTYLE
1002
{
1070
   171
1070
     6
1070
   273
1070
     7
1002
}
  0
LINE
  5
206
330
1F
100
AcDbEntity
  8
참조1
100
AcDbLine
 10
99.39882733438361
 20
9.397738352150128
 30
0.0
 11
99.39882733438361
 21
-5.482261647849875
 31
0.0
  0
LINE
  5
207
330
1F
100
AcDbEntity
  8
참조1
100
AcDbLine
 10
112.0988273343836
 20
7.397738352150128
 30
0.0
 11
99.39882733438361
 21
7.397738352150128
 31
0.0
  0
SOLID
  5
208
330
1F
100
AcDbEntity
  8
참조1
100
AcDbTrace
 10
99.39882733438361
 20
7.397738352150128
 30
0.0
 11
105.7488273343836
 21
6.381738352150128
 31
0.0
 12
105.7488273343836
 22
8.413738352150126
 32
0.0
 13
105.7488273343836
 23
8.413738352150126
 33
0.0
  0
LINE
  5
209
330
1F
100
AcDbEntity
  8
참조1
100
AcDbLine
 10
112.0988273343836
 20
-3.482261647849876
 30
0.0
 11
99.39882733438361
 21
-3.482261647849876
 31
0.0
  0
SOLID
  5
20A
330
1F
100
AcDbEntity
  8
참조1
100
AcDbTrace
 10
99.39882733438361
 20
-3.482261647849876
 30
0.0
 11
105.7488273343836
 21
-4.498261647849875
 31
0.0
 12
105.7488273343836
 22
-2.466261647849876
 32
0.0
 13
105.7488273343836
 23
-2.466261647849876
 33
0.0
  0
MTEXT
  5
20B
330
1F
100
AcDbEntity
  8
참조1
100
AcDbMText
 10
108.9989421449462
 20
13.0234559181662
 30
0.0
 40
3.5
 41
0.0
 71
     1
 72
     1
  1
A
  7
SLDTEXTSTYLE0
 73
     1
 44
1.0
  0
MTEXT
  5
20C
330
1F
100
AcDbEntity
  8
참조1
100
AcDbMText
 10
108.9989421449462
 20
2.143455918166197
 30
0.0
 40
3.5
 41
0.0
 71
     1
 72
     1
  1
A
  7
SLDTEXTSTYLE0
 73
     1
 44
1.0
  0
INSERT
  5
213
330
1F
100
AcDbEntity
  8
해칭선
100
AcDbBlockReference
  2
SW_DOWELSYMBOL_0
 10
0.0
 20
0.0
 30
0.0
  0
LINE
  5
23B
330
1F
100
AcDbEntity
  8
외형선
  6
Continuous
370
    15
100
AcDbLine
 10
10.0
 20
4.7625
 30
0.0
 11
10.0
 21
-4.7625
 31
0.0
  0
LINE
  5
27A
330
1F
100
AcDbEntity
  8
외형선
  6
Continuous
370
    15
100
AcDbLine
 10
-18.17495000000012
 20
3.4925
 30
0.0
 11
-11.03755
 21
3.4925
 31
0.0
  0
LINE
  5
27B
330
1F
100
AcDbEntity
  8
외형선
  6
Continuous
370
    15
100
AcDbLine
 10
-18.17495000000012
 20
3.4925
 30
0.0
 11
-19.44495000000011
 21
4.762499999999982
 31
0.0
  0
LINE
  5
27C
330
1F
100
AcDbEntity
  8
외형선
  6
Continuous
370
    15
100
AcDbLine
 10
-11.03755
 20
3.4925
 30
0.0
 11
-9.7675499999999
 21
4.762499999999982
 31
0.0
  0
LINE
  5
27D
330
1F
100
AcDbEntity
  8
외형선
  6
Continuous
370
    15
100
AcDbLine
 10
-19.44495000000012
 20
4.762499999999995
 30
0.0
 11
-33.95
 21
4.762499999999992
 31
0.0
  0
ENDSEC
  0
SECTION
  2
OBJECTS
  0
DICTIONARY
  5
C
330
0
100
AcDbDictionary
281
     1
  3
ACAD_GROUP
350
D
  3
ACAD_IMAGE_VARS
350
237
  3
ACAD_LAYOUT
350
1A
  3
ACAD_MLINESTYLE
350
17
  3
ACAD_PLOTSETTINGS
350
19
  3
ACAD_PLOTSTYLENAME
350
E
  3
ACAD_SCALELIST
350
47
  3
APPDATA
350
235
  3
DWGPROPS
350
27F
  0
DICTIONARY
  5
26B
330
2
100
AcDbDictionary
280
     1
281
     1
  3
ACAD_LAYERSTATES
360
26C
  0
DICTIONARY
  5
D
102
{ACAD_REACTORS
330
C
102
}
330
C
100
AcDbDictionary
281
     1
  0
RASTERVARIABLES
  5
237
102
{ACAD_REACTORS
330
C
102
}
330
C
100
AcDbRasterVariables
 90
        0
 70
     1
 71
     1
 72
     1
  0
DICTIONARY
  5
1A
102
{ACAD_REACTORS
330
C
102
}
330
C
100
AcDbDictionary
281
     1
  3
Layout1
350
1E
  3
Layout2
350
26
  3
Model
350
22
  0
DICTIONARY
  5
17
102
{ACAD_REACTORS
330
C
102
}
330
C
100
AcDbDictionary
281
     1
  3
Standard
350
18
  0
DICTIONARY
  5
19
102
{ACAD_REACTORS
330
C
102
}
330
C
100
AcDbDictionary
281
     1
  0
ACDBDICTIONARYWDFLT
  5
E
102
{ACAD_REACTORS
330
C
102
}
330
C
100
AcDbDictionary
281
     1
  3
Normal
350
F
100
AcDbDictionaryWithDefault
340
F
  0
DICTIONARY
  5
47
102
{ACAD_REACTORS
330
C
102
}
330
C
100
AcDbDictionary
281
     1
  3
A0
350
48
  3
A1
350
49
  3
A2
350
4A
  3
A3
350
4B
  3
A4
350
4C
  3
A5
350
4D
  3
A6
350
4E
  3
A7
350
4F
  3
A8
350
50
  3
A9
350
51
  3
B0
350
52
  3
B1
350
53
  3
B2
350
54
  3
B3
350
55
  3
B4
350
56
  3
B5
350
57
  3
B6
350
58
  3
B7
350
59
  3
B8
350
5A
  3
B9
350
5B
  3
C0
350
5C
  3
C1
350
5D
  3
C2
350
5E
  3
C3
350
5F
  3
C4
350
60
  3
C5
350
61
  3
C6
350
62
  3
C7
350
63
  3
C8
350
64
  3
C9
350
65
  3
D0
350
66
  3
D1
350
67
  3
D2
350
68
  0
DICTIONARY
  5
235
102
{ACAD_REACTORS
330
C
102
}
330
C
100
AcDbDictionary
281
     1
  0
XRECORD
  5
27F
102
{ACAD_REACTORS
330
C
102
}
330
C
100
AcDbXrecord
280
     1
  1
DWGPROPS COOKIE
  2

  3

  4

  6

  7

  8
12016016
  9

300
=
301
=
302
=
303
=
304
=
305
=
306
=
307
=
308
=
309
=
 40
0.0
 41
2458318.990323785
 42
2458331.368324607
  1

 90
        0
  0
DICTIONARY
  5
26C
102
{ACAD_REACTORS
330
26B
102
}
330
26B
100
AcDbDictionary
281
     1
  0
LAYOUT
  5
1E
102
{ACAD_REACTORS
330
1A
102
}
330
1A
100
AcDbPlotSettings
  1

  2
none_device
  4

  6

 40
0.0
 41
0.0
 42
0.0
 43
0.0
 44
0.0
 45
0.0
 46
0.0
 47
0.0
 48
0.0
 49
0.0
140
0.0
141
0.0
142
1.0
143
1.0
 70
   688
 72
     1
 73
     0
 74
     5
  7

 75
    16
147
1.0
148
0.0
149
0.0
100
AcDbLayout
  1
Layout1
 70
     1
 71
     1
 10
0.0
 20
0.0
 11
420.0
 21
297.0
 12
0.0
 22
0.0
 32
0.0
 14
1.000000000000000E+20
 24
1.000000000000000E+20
 34
1.000000000000000E+20
 15
-1.000000000000000E+20
 25
-1.000000000000000E+20
 35
-1.000000000000000E+20
146
0.0
 13
0.0
 23
0.0
 33
0.0
 16
1.0
 26
0.0
 36
0.0
 17
0.0
 27
1.0
 37
0.0
 76
     0
330
1B
  0
LAYOUT
  5
26
102
{ACAD_REACTORS
330
1A
102
}
330
1A
100
AcDbPlotSettings
  1

  2
none_device
  4

  6

 40
0.0
 41
0.0
 42
0.0
 43
0.0
 44
0.0
 45
0.0
 46
0.0
 47
0.0
 48
0.0
 49
0.0
140
0.0
141
0.0
142
1.0
143
1.0
 70
   688
 72
     1
 73
     0
 74
     5
  7

 75
    16
147
1.0
148
0.0
149
0.0
100
AcDbLayout
  1
Layout2
 70
     1
 71
     2
 10
0.0
 20
0.0
 11
0.0
 21
0.0
 12
0.0
 22
0.0
 32
0.0
 14
0.0
 24
0.0
 34
0.0
 15
0.0
 25
0.0
 35
0.0
146
0.0
 13
0.0
 23
0.0
 33
0.0
 16
1.0
 26
0.0
 36
0.0
 17
0.0
 27
1.0
 37
0.0
 76
     0
330
23
  0
LAYOUT
  5
22
102
{ACAD_REACTORS
330
1A
102
}
330
1A
100
AcDbPlotSettings
  1

  2
none_device
  4
ANSI_A_(11.00_x_8.50_Inches)
  6

 40
6.35
 41
19.05
 42
6.35000508
 43
19.05000254
 44
279.4
 45
215.9
 46
91.3697609446383
 47
82.09382255447747
 48
0.0
 49
0.0
140
0.0
141
0.0
142
0.0639303201823355
143
1.0
 70
  1696
 72
     0
 73
     0
 74
     0
  7

 75
     0
147
0.0235690232323232
148
0.0
149
0.0
100
AcDbLayout
  1
Model
 70
     1
 71
     0
 10
0.0
 20
0.0
 11
420.0
 21
297.0
 12
0.0
 22
0.0
 32
0.0
 14
1.000000000000000E+20
 24
1.000000000000000E+20
 34
1.000000000000000E+20
 15
-1.000000000000000E+20
 25
-1.000000000000000E+20
 35
-1.000000000000000E+20
146
0.0
 13
0.0
 23
0.0
 33
0.0
 16
1.0
 26
0.0
 36
0.0
 17
0.0
 27
1.0
 37
0.0
 76
     0
330
1F
331
29
  0
MLINESTYLE
  5
18
102
{ACAD_REACTORS
330
17
102
}
330
17
100
AcDbMlineStyle
  2
Standard
 70
     0
  3

 62
   256
 51
90.0
 52
90.0
 71
     2
 49
0.5
 62
   256
  6
BYLAYER
 49
-0.5
 62
   256
  6
BYLAYER
  0
ACDBPLACEHOLDER
  5
F
102
{ACAD_REACTORS
330
E
102
}
330
E
  0
SCALE
  5
48
102
{ACAD_REACTORS
330
47
102
}
330
47
100
AcDbScale
 70
     0
300
1:1
140
1.0
141
1.0
290
     1
  0
SCALE
  5
49
102
{ACAD_REACTORS
330
47
102
}
330
47
100
AcDbScale
 70
     0
300
1:2
140
1.0
141
2.0
290
     0
  0
SCALE
  5
4A
102
{ACAD_REACTORS
330
47
102
}
330
47
100
AcDbScale
 70
     0
300
1:4
140
1.0
141
4.0
290
     0
  0
SCALE
  5
4B
102
{ACAD_REACTORS
330
47
102
}
330
47
100
AcDbScale
 70
     0
300
1:5
140
1.0
141
5.0
290
     0
  0
SCALE
  5
4C
102
{ACAD_REACTORS
330
47
102
}
330
47
100
AcDbScale
 70
     0
300
1:8
140
1.0
141
8.0
290
     0
  0
SCALE
  5
4D
102
{ACAD_REACTORS
330
47
102
}
330
47
100
AcDbScale
 70
     0
300
1:10
140
1.0
141
10.0
290
     0
  0
SCALE
  5
4E
102
{ACAD_REACTORS
330
47
102
}
330
47
100
AcDbScale
 70
     0
300
1:16
140
1.0
141
16.0
290
     0
  0
SCALE
  5
4F
102
{ACAD_REACTORS
330
47
102
}
330
47
100
AcDbScale
 70
     0
300
1:20
140
1.0
141
20.0
290
     0
  0
SCALE
  5
50
102
{ACAD_REACTORS
330
47
102
}
330
47
100
AcDbScale
 70
     0
300
1:30
140
1.0
141
30.0
290
     0
  0
SCALE
  5
51
102
{ACAD_REACTORS
330
47
102
}
330
47
100
AcDbScale
 70
     0
300
1:40
140
1.0
141
40.0
290
     0
  0
SCALE
  5
52
102
{ACAD_REACTORS
330
47
102
}
330
47
100
AcDbScale
 70
     0
300
1:50
140
1.0
141
50.0
290
     0
  0
SCALE
  5
53
102
{ACAD_REACTORS
330
47
102
}
330
47
100
AcDbScale
 70
     0
300
1:100
140
1.0
141
100.0
290
     0
  0
SCALE
  5
54
102
{ACAD_REACTORS
330
47
102
}
330
47
100
AcDbScale
 70
     0
300
2:1
140
2.0
141
1.0
290
     0
  0
SCALE
  5
55
102
{ACAD_REACTORS
330
47
102
}
330
47
100
AcDbScale
 70
     0
300
4:1
140
4.0
141
1.0
290
     0
  0
SCALE
  5
56
102
{ACAD_REACTORS
330
47
102
}
330
47
100
AcDbScale
 70
     0
300
8:1
140
8.0
141
1.0
290
     0
  0
SCALE
  5
57
102
{ACAD_REACTORS
330
47
102
}
330
47
100
AcDbScale
 70
     0
300
10:1
140
10.0
141
1.0
290
     0
  0
SCALE
  5
58
102
{ACAD_REACTORS
330
47
102
}
330
47
100
AcDbScale
 70
     0
300
100:1
140
100.0
141
1.0
290
     0
  0
SCALE
  5
59
102
{ACAD_REACTORS
330
47
102
}
330
47
100
AcDbScale
 70
     0
300
1/128" = 1'-0"
140
0.0078125
141
12.0
290
     0
  0
SCALE
  5
5A
102
{ACAD_REACTORS
330
47
102
}
330
47
100
AcDbScale
 70
     0
300
1/64" = 1'-0"
140
0.015625
141
12.0
290
     0
  0
SCALE
  5
5B
102
{ACAD_REACTORS
330
47
102
}
330
47
100
AcDbScale
 70
     0
300
1/32" = 1'-0"
140
0.03125
141
12.0
290
     0
  0
SCALE
  5
5C
102
{ACAD_REACTORS
330
47
102
}
330
47
100
AcDbScale
 70
     0
300
1/16" = 1'-0"
140
0.0625
141
12.0
290
     0
  0
SCALE
  5
5D
102
{ACAD_REACTORS
330
47
102
}
330
47
100
AcDbScale
 70
     0
300
3/32" = 1'-0"
140
0.09375
141
12.0
290
     0
  0
SCALE
  5
5E
102
{ACAD_REACTORS
330
47
102
}
330
47
100
AcDbScale
 70
     0
300
1/8" = 1'-0"
140
0.125
141
12.0
290
     0
  0
SCALE
  5
5F
102
{ACAD_REACTORS
330
47
102
}
330
47
100
AcDbScale
 70
     0
300
3/16" = 1'-0"
140
0.1875
141
12.0
290
     0
  0
SCALE
  5
60
102
{ACAD_REACTORS
330
47
102
}
330
47
100
AcDbScale
 70
     0
300
1/4" = 1'-0"
140
0.25
141
12.0
290
     0
  0
SCALE
  5
61
102
{ACAD_REACTORS
330
47
102
}
330
47
100
AcDbScale
 70
     0
300
3/8" = 1'-0"
140
0.375
141
12.0
290
     0
  0
SCALE
  5
62
102
{ACAD_REACTORS
330
47
102
}
330
47
100
AcDbScale
 70
     0
300
1/2" = 1'-0"
140
0.5
141
12.0
290
     0
  0
SCALE
  5
63
102
{ACAD_REACTORS
330
47
102
}
330
47
100
AcDbScale
 70
     0
300
3/4" = 1'-0"
140
0.75
141
12.0
290
     0
  0
SCALE
  5
64
102
{ACAD_REACTORS
330
47
102
}
330
47
100
AcDbScale
 70
     0
300
1" = 1'-0"
140
1.0
141
12.0
290
     0
  0
SCALE
  5
65
102
{ACAD_REACTORS
330
47
102
}
330
47
100
AcDbScale
 70
     0
300
1-1/2" = 1'-0"
140
1.5
141
12.0
290
     0
  0
SCALE
  5
66
102
{ACAD_REACTORS
330
47
102
}
330
47
100
AcDbScale
 70
     0
300
3" = 1'-0"
140
3.0
141
12.0
290
     0
  0
SCALE
  5
67
102
{ACAD_REACTORS
330
47
102
}
330
47
100
AcDbScale
 70
     0
300
6" = 1'-0"
140
6.0
141
12.0
290
     0
  0
SCALE
  5
68
102
{ACAD_REACTORS
330
47
102
}
330
47
100
AcDbScale
 70
     0
300
1'-0" = 1'-0"
140
12.0
141
12.0
290
     0
  0
ENDSEC
  0
EOF
