  0
SECTION
  2
HEADER
  9
$ACADVER
  1
AC1015
  9
$ACADMAINTVER
 70
     6
  9
$DWGCODEPAGE
  3
ANSI_949
  9
$INSBASE
 10
0.0
 20
0.0
 30
0.0
  9
$EXTMIN
 10
-41.40461517357335
 20
-39.99892507127612
 30
0.0
  9
$EXTMAX
 10
89.03783746512288
 20
33.46328966928999
 30
0.0
  9
$LIMMIN
 10
0.0
 20
0.0
  9
$LIMMAX
 10
420.0
 20
297.0
  9
$ORTHOMODE
 70
     0
  9
$REGENMODE
 70
     1
  9
$FILLMODE
 70
     1
  9
$QTEXTMODE
 70
     0
  9
$MIRRTEXT
 70
     1
  9
$LTSCALE
 40
1.0
  9
$ATTMODE
 70
     1
  9
$TEXTSIZE
 40
3.5
  9
$TRACEWID
 40
1.0
  9
$TEXTSTYLE
  7
Standard
  9
$CLAYER
  8
0
  9
$CELTYPE
  6
ByLayer
  9
$CECOLOR
 62
   256
  9
$CELTSCALE
 40
1.0
  9
$DISPSILH
 70
     0
  9
$DIMSCALE
 40
1.0
  9
$DIMASZ
 40
3.302
  9
$DIMEXO
 40
1.0
  9
$DIMDLI
 40
3.75
  9
$DIMRND
 40
0.0
  9
$DIMDLE
 40
0.0
  9
$DIMEXE
 40
1.0
  9
$DIMTP
 40
0.0
  9
$DIMTM
 40
0.0
  9
$DIMTXT
 40
3.5
  9
$DIMCEN
 40
2.5
  9
$DIMTSZ
 40
0.0
  9
$DIMTOL
 70
     0
  9
$DIMLIM
 70
     0
  9
$DIMTIH
 70
     1
  9
$DIMTOH
 70
     1
  9
$DIMSE1
 70
     0
  9
$DIMSE2
 70
     0
  9
$DIMTAD
 70
     1
  9
$DIMZIN
 70
     0
  9
$DIMBLK
  1

  9
$DIMASO
 70
     1
  9
$DIMSHO
 70
     1
  9
$DIMPOST
  1

  9
$DIMAPOST
  1

  9
$DIMALT
 70
     0
  9
$DIMALTD
 70
     3
  9
$DIMALTF
 40
0.0393700787401575
  9
$DIMLFAC
 40
1.0
  9
$DIMTOFL
 70
     1
  9
$DIMTVP
 40
0.0
  9
$DIMTIX
 70
     0
  9
$DIMSOXD
 70
     0
  9
$DIMSAH
 70
     0
  9
$DIMBLK1
  1

  9
$DIMBLK2
  1

  9
$DIMSTYLE
  2
ISO-25
  9
$DIMCLRD
 70
     0
  9
$DIMCLRE
 70
     0
  9
$DIMCLRT
 70
     0
  9
$DIMTFAC
 40
1.0
  9
$DIMGAP
 40
1.524
  9
$DIMJUST
 70
     0
  9
$DIMSD1
 70
     0
  9
$DIMSD2
 70
     0
  9
$DIMTOLJ
 70
     0
  9
$DIMTZIN
 70
     0
  9
$DIMALTZ
 70
     0
  9
$DIMALTTZ
 70
     0
  9
$DIMUPT
 70
     0
  9
$DIMDEC
 70
     2
  9
$DIMTDEC
 70
     2
  9
$DIMALTU
 70
     2
  9
$DIMALTTD
 70
     3
  9
$DIMTXSTY
  7
Standard
  9
$DIMAUNIT
 70
     0
  9
$DIMADEC
 70
     2
  9
$DIMALTRND
 40
0.0
  9
$DIMAZIN
 70
     0
  9
$DIMDSEP
 70
    44
  9
$DIMATFIT
 70
     3
  9
$DIMFRAC
 70
     0
  9
$DIMLDRBLK
  1

  9
$DIMLUNIT
 70
     2
  9
$DIMLWD
 70
    -2
  9
$DIMLWE
 70
    -2
  9
$DIMTMOVE
 70
     0
  9
$LUNITS
 70
     2
  9
$LUPREC
 70
     2
  9
$SKETCHINC
 40
1.0
  9
$FILLETRAD
 40
10.0
  9
$AUNITS
 70
     0
  9
$AUPREC
 70
     2
  9
$MENU
  1
.
  9
$ELEVATION
 40
0.0
  9
$PELEVATION
 40
0.0
  9
$THICKNESS
 40
0.0
  9
$LIMCHECK
 70
     0
  9
$CHAMFERA
 40
0.0
  9
$CHAMFERB
 40
0.0
  9
$CHAMFERC
 40
0.0
  9
$CHAMFERD
 40
0.0
  9
$SKPOLY
 70
     0
  9
$TDCREATE
 40
2458312.688811493
  9
$TDUCREATE
 40
2458312.313811493
  9
$TDUPDATE
 40
2459719.607428032
  9
$TDUUPDATE
 40
2459719.232428032
  9
$TDINDWG
 40
0.0021731134
  9
$TDUSRTIMER
 40
0.0004702083
  9
$USRTIMER
 70
     1
  9
$ANGBASE
 50
0.0
  9
$ANGDIR
 70
     0
  9
$PDMODE
 70
     0
  9
$PDSIZE
 40
-1.0
  9
$PLINEWID
 40
0.0
  9
$SPLFRAME
 70
     0
  9
$SPLINETYPE
 70
     6
  9
$SPLINESEGS
 70
     8
  9
$HANDSEED
  5
2F4
  9
$SURFTAB1
 70
     6
  9
$SURFTAB2
 70
     6
  9
$SURFTYPE
 70
     6
  9
$SURFU
 70
     6
  9
$SURFV
 70
     6
  9
$UCSBASE
  2

  9
$UCSNAME
  2

  9
$UCSORG
 10
0.0
 20
0.0
 30
0.0
  9
$UCSXDIR
 10
1.0
 20
0.0
 30
0.0
  9
$UCSYDIR
 10
0.0
 20
1.0
 30
0.0
  9
$UCSORTHOREF
  2

  9
$UCSORTHOVIEW
 70
     0
  9
$UCSORGTOP
 10
0.0
 20
0.0
 30
0.0
  9
$UCSORGBOTTOM
 10
0.0
 20
0.0
 30
0.0
  9
$UCSORGLEFT
 10
0.0
 20
0.0
 30
0.0
  9
$UCSORGRIGHT
 10
0.0
 20
0.0
 30
0.0
  9
$UCSORGFRONT
 10
0.0
 20
0.0
 30
0.0
  9
$UCSORGBACK
 10
0.0
 20
0.0
 30
0.0
  9
$PUCSBASE
  2

  9
$PUCSNAME
  2

  9
$PUCSORG
 10
0.0
 20
0.0
 30
0.0
  9
$PUCSXDIR
 10
1.0
 20
0.0
 30
0.0
  9
$PUCSYDIR
 10
0.0
 20
1.0
 30
0.0
  9
$PUCSORTHOREF
  2

  9
$PUCSORTHOVIEW
 70
     0
  9
$PUCSORGTOP
 10
0.0
 20
0.0
 30
0.0
  9
$PUCSORGBOTTOM
 10
0.0
 20
0.0
 30
0.0
  9
$PUCSORGLEFT
 10
0.0
 20
0.0
 30
0.0
  9
$PUCSORGRIGHT
 10
0.0
 20
0.0
 30
0.0
  9
$PUCSORGFRONT
 10
0.0
 20
0.0
 30
0.0
  9
$PUCSORGBACK
 10
0.0
 20
0.0
 30
0.0
  9
$USERI1
 70
     0
  9
$USERI2
 70
     0
  9
$USERI3
 70
     0
  9
$USERI4
 70
     0
  9
$USERI5
 70
     0
  9
$USERR1
 40
0.0
  9
$USERR2
 40
0.0
  9
$USERR3
 40
0.0
  9
$USERR4
 40
0.0
  9
$USERR5
 40
0.0
  9
$WORLDVIEW
 70
     1
  9
$SHADEDGE
 70
     3
  9
$SHADEDIF
 70
    70
  9
$TILEMODE
 70
     1
  9
$MAXACTVP
 70
    64
  9
$PINSBASE
 10
0.0
 20
0.0
 30
0.0
  9
$PLIMCHECK
 70
     0
  9
$PEXTMIN
 10
1.000000000000000E+20
 20
1.000000000000000E+20
 30
1.000000000000000E+20
  9
$PEXTMAX
 10
-1.000000000000000E+20
 20
-1.000000000000000E+20
 30
-1.000000000000000E+20
  9
$PLIMMIN
 10
0.0
 20
0.0
  9
$PLIMMAX
 10
0.0
 20
0.0
  9
$UNITMODE
 70
     0
  9
$VISRETAIN
 70
     1
  9
$PLINEGEN
 70
     0
  9
$PSLTSCALE
 70
     1
  9
$TREEDEPTH
 70
  3020
  9
$CMLSTYLE
  2
Standard
  9
$CMLJUST
 70
     0
  9
$CMLSCALE
 40
20.0
  9
$PROXYGRAPHICS
 70
     1
  9
$MEASUREMENT
 70
     1
  9
$CELWEIGHT
370
    -1
  9
$ENDCAPS
280
     0
  9
$JOINSTYLE
280
     0
  9
$LWDISPLAY
290
     1
  9
$INSUNITS
 70
     4
  9
$HYPERLINKBASE
  1

  9
$STYLESHEET
  1

  9
$XEDIT
290
     1
  9
$CEPSNTYPE
380
     0
  9
$PSTYLEMODE
290
     1
  9
$FINGERPRINTGUID
  2
{086D58C2-7E97-4762-98A7-FD8931FA3E3B}
  9
$VERSIONGUID
  2
{FAEB1C32-E019-11D5-929B-00C0DF256EC4}
  9
$EXTNAMES
290
     1
  9
$PSVPSCALE
 40
0.0
  9
$OLESTARTUP
290
     0
  0
ENDSEC
  0
SECTION
  2
CLASSES
  0
CLASS
  1
ACDBDICTIONARYWDFLT
  2
AcDbDictionaryWithDefault
  3
ObjectDBX Classes
 90
        0
280
     0
281
     0
  0
CLASS
  1
VISUALSTYLE
  2
AcDbVisualStyle
  3
ObjectDBX Classes
 90
     4095
280
     0
281
     0
  0
CLASS
  1
MATERIAL
  2
AcDbMaterial
  3
ObjectDBX Classes
 90
     1153
280
     0
281
     0
  0
CLASS
  1
SCALE
  2
AcDbScale
  3
ObjectDBX Classes
 90
     1153
280
     0
281
     0
  0
CLASS
  1
SUN
  2
AcDbSun
  3
SCENEOE
 90
     1153
280
     0
281
     0
  0
CLASS
  1
ACDBPLACEHOLDER
  2
AcDbPlaceHolder
  3
ObjectDBX Classes
 90
        0
280
     0
281
     0
  0
CLASS
  1
LAYOUT
  2
AcDbLayout
  3
ObjectDBX Classes
 90
        0
280
     0
281
     0
  0
CLASS
  1
TABLESTYLE
  2
AcDbTableStyle
  3
ObjectDBX Classes
 90
     4095
280
     0
281
     0
  0
CLASS
  1
MLEADERSTYLE
  2
AcDbMLeaderStyle
  3
ACDB_MLEADERSTYLE_CLASS
 90
     4095
280
     0
281
     0
  0
CLASS
  1
RASTERVARIABLES
  2
AcDbRasterVariables
  3
ISM
 90
        0
280
     0
281
     0
  0
ENDSEC
  0
SECTION
  2
TABLES
  0
TABLE
  2
VPORT
  5
8
330
0
100
AcDbSymbolTable
 70
     1
  0
VPORT
  5
29
330
8
100
AcDbSymbolTableRecord
100
AcDbViewportTableRecord
  2
*Active
 70
     0
 10
0.0
 20
0.0
 11
1.0
 21
1.0
 12
-2.637118249352831
 22
4.329953463470076
 13
0.0
 23
0.0
 14
10.0
 24
10.0
 15
10.0
 25
10.0
 16
0.0
 26
0.0
 36
1.0
 17
0.0
 27
0.0
 37
0.0
 40
70.02953580430683
 41
1.519944979367263
 42
50.0
 43
0.0
 44
0.0
 50
0.0
 51
0.0
 71
    16
 72
  2000
 73
     1
 74
     3
 75
     0
 76
     0
 77
     0
 78
     0
281
     0
 65
     1
110
0.0
120
0.0
130
0.0
111
1.0
121
0.0
131
0.0
112
0.0
122
1.0
132
0.0
 79
     0
146
0.0
  0
ENDTAB
  0
TABLE
  2
LTYPE
  5
5
330
0
100
AcDbSymbolTable
 70
     6
  0
LTYPE
  5
14
330
5
100
AcDbSymbolTableRecord
100
AcDbLinetypeTableRecord
  2
ByBlock
 70
     0
  3

 72
    65
 73
     0
 40
0.0
  0
LTYPE
  5
15
330
5
100
AcDbSymbolTableRecord
100
AcDbLinetypeTableRecord
  2
ByLayer
 70
     0
  3

 72
    65
 73
     0
 40
0.0
  0
LTYPE
  5
16
330
5
100
AcDbSymbolTableRecord
100
AcDbLinetypeTableRecord
  2
Continuous
 70
     0
  3
Solid line
 72
    65
 73
     0
 40
0.0
  0
LTYPE
  5
6A
330
5
100
AcDbSymbolTableRecord
100
AcDbLinetypeTableRecord
  2
HIDDEN
 70
     0
  3
Hidden __ __ __ __ __ __ __ __ __ __ __ __ __ __
 72
    65
 73
     2
 40
1.905
 49
1.27
 74
     0
 49
-0.635
 74
     0
  0
LTYPE
  5
6B
330
5
100
AcDbSymbolTableRecord
100
AcDbLinetypeTableRecord
  2
PHANTOM
 70
     0
  3
Phantom ______  __  __  ______  __  __  ______
 72
    65
 73
     6
 40
12.7
 49
6.35
 74
     0
 49
-1.27
 74
     0
 49
1.27
 74
     0
 49
-1.27
 74
     0
 49
1.27
 74
     0
 49
-1.27
 74
     0
  0
LTYPE
  5
6C
330
5
100
AcDbSymbolTableRecord
100
AcDbLinetypeTableRecord
  2
CENTER
 70
     0
  3
Center ____ _ ____ _ ____ _ ____ _ ____ _ ____
 72
    65
 73
     4
 40
10.16
 49
6.35
 74
     0
 49
-1.27
 74
     0
 49
1.27
 74
     0
 49
-1.27
 74
     0
  0
LTYPE
  5
6D
330
5
100
AcDbSymbolTableRecord
100
AcDbLinetypeTableRecord
  2
CENTERX2
 70
     0
  3
Center (2x) ________  __  ________  __  _____
 72
    65
 73
     4
 40
20.32
 49
12.7
 74
     0
 49
-2.54
 74
     0
 49
2.54
 74
     0
 49
-2.54
 74
     0
  0
LTYPE
  5
6E
330
5
100
AcDbSymbolTableRecord
100
AcDbLinetypeTableRecord
  2
DOT2
 70
     0
  3
Dot (.5x) ........................................
 72
    65
 73
     2
 40
0.635
 49
0.0
 74
     0
 49
-0.635
 74
     0
  0
ENDTAB
  0
TABLE
  2
LAYER
  5
2
330
0
100
AcDbSymbolTable
 70
    18
  0
LAYER
  5
10
330
2
100
AcDbSymbolTableRecord
100
AcDbLayerTableRecord
  2
0
 70
     0
 62
     7
  6
Continuous
370
    -3
390
F
  0
LAYER
  5
6F
330
2
100
AcDbSymbolTableRecord
100
AcDbLayerTableRecord
  2
FORMAT
 70
     0
 62
     2
  6
Continuous
370
    -3
390
F
  0
LAYER
  5
70
330
2
100
AcDbSymbolTableRecord
100
AcDbLayerTableRecord
  2
외형선
 70
     0
 62
     4
  6
Continuous
370
    30
390
F
  0
LAYER
  5
71
330
2
100
AcDbSymbolTableRecord
100
AcDbLayerTableRecord
  2
숨은선
 70
     0
 62
     2
  6
HIDDEN
370
    15
390
F
  0
LAYER
  5
72
330
2
100
AcDbSymbolTableRecord
100
AcDbLayerTableRecord
  2
중심선
 70
     0
 62
     1
  6
CENTERX2
370
    -3
390
F
  0
LAYER
  5
73
330
2
100
AcDbSymbolTableRecord
100
AcDbLayerTableRecord
  2
파단선
 70
     0
 62
     4
  6
Continuous
370
    -3
390
F
  0
LAYER
  5
74
330
2
100
AcDbSymbolTableRecord
100
AcDbLayerTableRecord
  2
해칭선
 70
     0
 62
   100
  6
Continuous
370
    -3
390
F
  0
LAYER
  5
75
330
2
100
AcDbSymbolTableRecord
100
AcDbLayerTableRecord
  2
가는실선
 70
     0
 62
     4
  6
Continuous
370
    -3
390
F
  0
LAYER
  5
76
330
2
100
AcDbSymbolTableRecord
100
AcDbLayerTableRecord
  2
치수_보조선
 70
     0
 62
     4
  6
Continuous
370
    -3
390
F
  0
LAYER
  5
77
330
2
100
AcDbSymbolTableRecord
100
AcDbLayerTableRecord
  2
치수문자_일반주서
 70
     0
 62
     7
  6
Continuous
370
    15
390
F
  0
LAYER
  5
78
330
2
100
AcDbSymbolTableRecord
100
AcDbLayerTableRecord
  2
개별주서
 70
     0
 62
   100
  6
Continuous
370
    30
390
F
  0
LAYER
  5
79
330
2
100
AcDbSymbolTableRecord
100
AcDbLayerTableRecord
  2
중간선
 70
     0
 62
     2
  6
Continuous
370
    15
390
F
  0
LAYER
  5
7A
330
2
100
AcDbSymbolTableRecord
100
AcDbLayerTableRecord
  2
윤곽선
 70
     0
 62
     3
  6
Continuous
370
    40
390
F
  0
LAYER
  5
7B
330
2
100
AcDbSymbolTableRecord
100
AcDbLayerTableRecord
  2
중심마크
 70
     0
 62
   100
  6
Continuous
370
    30
390
F
  0
LAYER
  5
7C
330
2
100
AcDbSymbolTableRecord
100
AcDbLayerTableRecord
  2
가상선
 70
     0
 62
     4
  6
PHANTOM
370
    -3
390
F
  0
LAYER
  5
7D
330
2
100
AcDbSymbolTableRecord
100
AcDbLayerTableRecord
  2
특수지정선
 70
     0
 62
     5
  6
CENTERX2
370
    60
390
F
  0
LAYER
  5
7E
330
2
100
AcDbSymbolTableRecord
100
AcDbLayerTableRecord
  2
참조1
 70
     0
 62
    -4
  6
Continuous
370
    -3
390
F
  0
LAYER
  5
159
330
2
100
AcDbSymbolTableRecord
100
AcDbLayerTableRecord
  2
Defpoints
 70
     0
 62
     7
  6
Continuous
290
     0
370
    -3
390
F
  0
ENDTAB
  0
TABLE
  2
STYLE
  5
3
330
0
100
AcDbSymbolTable
 70
     2
  0
STYLE
  5
11
330
3
100
AcDbSymbolTableRecord
100
AcDbTextStyleTableRecord
  2
Standard
 70
     0
 40
0.0
 41
1.0
 50
0.0
 71
     0
 42
3.5
  3
txt
  4

  0
STYLE
  5
94
330
3
100
AcDbSymbolTableRecord
100
AcDbTextStyleTableRecord
  2
SLDTEXTSTYLE0
 70
     0
 40
0.0
 41
0.75
 50
0.0
 71
     0
 42
3.5
  3
TXT
  4

  0
ENDTAB
  0
TABLE
  2
VIEW
  5
6
330
0
100
AcDbSymbolTable
 70
     0
  0
ENDTAB
  0
TABLE
  2
UCS
  5
7
330
0
100
AcDbSymbolTable
 70
     0
  0
ENDTAB
  0
TABLE
  2
APPID
  5
9
330
0
100
AcDbSymbolTable
 70
     1
  0
APPID
  5
12
330
9
100
AcDbSymbolTableRecord
100
AcDbRegAppTableRecord
  2
ACAD
 70
     0
  0
ENDTAB
  0
TABLE
  2
DIMSTYLE
  5
A
330
0
100
AcDbSymbolTable
 70
     4
100
AcDbDimStyleTable
  0
DIMSTYLE
105
27
330
A
100
AcDbSymbolTableRecord
100
AcDbDimStyleTableRecord
  2
ISO-25
 70
     0
 41
2.5
 42
0.625
 43
3.75
 44
1.25
 73
     0
 74
     0
 77
     1
 78
     8
140
2.5
141
2.5
143
0.03937007874016
147
0.625
171
     3
172
     1
178
     0
271
     2
272
     2
274
     3
278
    44
283
     0
284
     8
340
11
  0
DIMSTYLE
105
D5
102
{ACAD_REACTORS
330
D4
330
E9
330
112
330
FD
102
}
330
A
100
AcDbSymbolTableRecord
100
AcDbDimStyleTableRecord
  2
SLDDIMSTYLE0
 70
     0
 41
3.302
 44
0.0
 45
0.000000001
 73
     0
 74
     0
 77
     1
 78
    12
 79
     3
140
3.5
143
0.0393700787401575
147
0.875
148
0.000000001
170
     1
173
     1
178
     0
271
     2
272
     2
276
     2
284
    12
340
94
  0
DIMSTYLE
105
EA
330
A
100
AcDbSymbolTableRecord
100
AcDbDimStyleTableRecord
  2
SLDDIMSTYLE1
 70
     0
 41
3.302
 44
0.0
 45
0.000000001
 73
     0
 74
     0
 77
     1
 78
     4
 79
     1
140
3.5
143
0.0393700787401575
147
0.875
148
0.000000001
170
     1
173
     1
178
     0
271
     2
272
     2
276
     2
284
    12
340
94
  0
DIMSTYLE
105
FE
330
A
100
AcDbSymbolTableRecord
100
AcDbDimStyleTableRecord
  2
SLDDIMSTYLE2
 70
     0
 41
3.302
 44
0.0
 45
0.000000001
 73
     0
 74
     0
 77
     1
 78
    12
 79
     3
140
3.5
143
0.0393700787401575
147
0.875
148
0.000000001
170
     1
172
     1
173
     1
178
     0
271
     2
272
     2
276
     2
284
    12
289
     0
340
94
  0
ENDTAB
  0
TABLE
  2
BLOCK_RECORD
  5
1
330
0
100
AcDbSymbolTable
 70
    15
  0
BLOCK_RECORD
  5
1F
102
{ACAD_XDICTIONARY
360
2F1
102
}
330
1
100
AcDbSymbolTableRecord
100
AcDbBlockTableRecord
  2
*Model_Space
340
22
  0
BLOCK_RECORD
  5
1B
330
1
100
AcDbSymbolTableRecord
100
AcDbBlockTableRecord
  2
*Paper_Space
340
1E
  0
BLOCK_RECORD
  5
23
330
1
100
AcDbSymbolTableRecord
100
AcDbBlockTableRecord
  2
*Paper_Space0
340
26
  0
BLOCK_RECORD
  5
7F
330
1
100
AcDbSymbolTableRecord
100
AcDbBlockTableRecord
  2
블럭10
340
0
102
{BLKREFS
331
CD
102
}
  0
BLOCK_RECORD
  5
D6
330
1
100
AcDbSymbolTableRecord
100
AcDbBlockTableRecord
  2
_D
340
0
  0
BLOCK_RECORD
  5
EB
330
1
100
AcDbSymbolTableRecord
100
AcDbBlockTableRecord
  2
_D_1
340
0
  0
BLOCK_RECORD
  5
FF
330
1
100
AcDbSymbolTableRecord
100
AcDbBlockTableRecord
  2
_D_2
340
0
  0
BLOCK_RECORD
  5
113
330
1
100
AcDbSymbolTableRecord
100
AcDbBlockTableRecord
  2
_D_3
340
0
  0
BLOCK_RECORD
  5
12D
330
1
100
AcDbSymbolTableRecord
100
AcDbBlockTableRecord
  2
SW_DOWELSYMBOL_0
340
0
102
{BLKREFS
331
133
102
}
  0
BLOCK_RECORD
  5
213
330
1
100
AcDbSymbolTableRecord
100
AcDbBlockTableRecord
  2
*D7
340
0
  0
BLOCK_RECORD
  5
221
330
1
100
AcDbSymbolTableRecord
100
AcDbBlockTableRecord
  2
*D8
340
0
  0
BLOCK_RECORD
  5
22D
330
1
100
AcDbSymbolTableRecord
100
AcDbBlockTableRecord
  2
*D9
340
0
  0
BLOCK_RECORD
  5
23B
330
1
100
AcDbSymbolTableRecord
100
AcDbBlockTableRecord
  2
*D10
340
0
  0
BLOCK_RECORD
  5
299
330
1
100
AcDbSymbolTableRecord
100
AcDbBlockTableRecord
  2
*D11
340
0
  0
BLOCK_RECORD
  5
2A7
330
1
100
AcDbSymbolTableRecord
100
AcDbBlockTableRecord
  2
*D12
340
0
  0
BLOCK_RECORD
  5
2B3
330
1
100
AcDbSymbolTableRecord
100
AcDbBlockTableRecord
  2
*D13
340
0
  0
BLOCK_RECORD
  5
2C1
330
1
100
AcDbSymbolTableRecord
100
AcDbBlockTableRecord
  2
*D14
340
0
  0
ENDTAB
  0
ENDSEC
  0
SECTION
  2
BLOCKS
  0
BLOCK
  5
20
330
1F
100
AcDbEntity
  8
0
100
AcDbBlockBegin
  2
*Model_Space
 70
     0
 10
0.0
 20
0.0
 30
0.0
  3
*Model_Space
  1
*Model_Space
  0
ENDBLK
  5
21
330
1F
100
AcDbEntity
  8
0
100
AcDbBlockEnd
  0
BLOCK
  5
1C
330
1B
100
AcDbEntity
 67
     1
  8
0
100
AcDbBlockBegin
  2
*Paper_Space
 70
     0
 10
0.0
 20
0.0
 30
0.0
  3
*Paper_Space
  1
*Paper_Space
  0
ENDBLK
  5
1D
330
1B
100
AcDbEntity
 67
     1
  8
0
100
AcDbBlockEnd
  0
BLOCK
  5
24
330
23
100
AcDbEntity
  8
0
100
AcDbBlockBegin
  2
*Paper_Space0
 70
     0
 10
0.0
 20
0.0
 30
0.0
  3
*Paper_Space0
  1
*Paper_Space0
  0
ENDBLK
  5
25
330
23
100
AcDbEntity
  8
0
100
AcDbBlockEnd
  0
BLOCK
  5
80
330
7F
100
AcDbEntity
  8
0
100
AcDbBlockBegin
  2
블럭10
 70
     2
 10
0.0
 20
0.0
 30
0.0
  3
블럭10
  1
블럭10
  0
ELLIPSE
  5
82
330
7F
100
AcDbEntity
  8
중심선
100
AcDbEllipse
 10
20.54032771741204
 20
12.0471743016438
 30
0.0
 11
6.600054785286829
 21
-1.261213355974178E-13
 31
0.0
210
0.0
220
0.0
230
1.0
 40
0.636358354079598
 41
0.9219305317359503
 42
6.513795318482858
  0
ELLIPSE
  5
83
330
7F
100
AcDbEntity
  8
중심선
100
AcDbEllipse
 10
20.54032771746488
 20
12.04717430159265
 30
0.0
 11
3.960054785062283
 21
1.540847449632565E-10
 31
0.0
210
0.0
220
0.0
230
1.0
 40
0.3939339440162632
 41
1.131841032648279
 42
5.62031148352944
  0
LINE
  5
84
330
7F
100
AcDbEntity
  8
중심선
100
AcDbLine
 10
2.268634060543552
 20
16.24717430164393
 30
0.0
 11
5.714909304380834
 21
16.24717430164393
 31
0.0
  0
LINE
  5
85
330
7F
100
AcDbEntity
  8
중심선
100
AcDbLine
 10
5.245725140726316
 20
7.84717430164391
 30
0.0
 11
8.692000384563599
 21
7.84717430164391
 31
0.0
  0
LINE
  5
86
330
7F
100
AcDbEntity
  8
중심선
100
AcDbLine
 10
15.74043728645272
 20
16.24717430164393
 30
0.0
 11
8.692000384563599
 21
7.84717430164391
 31
0.0
  0
LINE
  5
87
330
7F
100
AcDbEntity
  8
중심선
100
AcDbLine
 10
0.1404042013395286
 20
13.71084872107135
 30
0.0
 11
3.58671253028996
 21
13.71088815037384
 31
0.0
  0
LINE
  5
88
330
7F
100
AcDbEntity
  8
중심선
100
AcDbLine
 10
2.750260043222114
 20
10.84717430164391
 30
0.0
 11
6.196535287059397
 21
10.84717430164391
 31
0.0
  0
LINE
  5
89
330
7F
100
AcDbEntity
  8
중심선
100
AcDbLine
 10
12.29416204261559
 20
16.24717430164393
 30
0.0
 11
5.245725140726316
 21
7.84717430164391
 31
0.0
  0
LINE
  5
8A
330
7F
100
AcDbEntity
  8
중심선
100
AcDbLine
 10
10.72767329541681
 20
16.24717430164393
 30
0.0
 11
6.196535287059397
 21
10.84717430164391
 31
0.0
  0
LINE
  5
8B
330
7F
100
AcDbEntity
  8
중심선
100
AcDbLine
 10
7.28139805157953
 20
16.24717430164393
 30
0.0
 11
2.750260043222114
 21
10.84717430164391
 31
0.0
  0
LINE
  5
8C
330
7F
100
AcDbEntity
  8
중심선
100
AcDbLine
 10
5.714909304380834
 20
16.24717430164393
 30
0.0
 11
3.58671253028996
 21
13.71088815037384
 31
0.0
  0
LINE
  5
8D
330
7F
100
AcDbEntity
  8
중심선
100
AcDbLine
 10
2.268634060543552
 20
16.24717430164393
 30
0.0
 11
0.1404042013395286
 21
13.71084872107135
 31
0.0
  0
LINE
  5
8E
330
7F
100
AcDbEntity
  8
중심선
100
AcDbLine
 10
7.28139805157953
 20
16.24717430164393
 30
0.0
 11
10.72767329541681
 21
16.24717430164393
 31
0.0
  0
LINE
  5
8F
330
7F
100
AcDbEntity
  8
중심선
100
AcDbLine
 10
12.29416204261559
 20
16.24717430164393
 30
0.0
 11
15.74043728645272
 21
16.24717430164393
 31
0.0
  0
LINE
  5
90
330
7F
100
AcDbEntity
  8
중심선
100
AcDbLine
 10
19.22036997980202
 20
11.08717430171403
 30
0.0
 11
23.66174974927406
 21
11.08717430171406
 31
0.0
  0
LINE
  5
91
330
7F
100
AcDbEntity
  8
중심선
100
AcDbLine
 10
19.22039502424796
 20
13.00717430171391
 30
0.0
 11
19.22036997980202
 21
11.08717430171403
 31
0.0
  0
LINE
  5
92
330
7F
100
AcDbEntity
  8
중심선
100
AcDbLine
 10
19.22039502424796
 20
13.00717430171391
 30
0.0
 11
26.96566020931264
 21
13.00717430171391
 31
0.0
  0
LINE
  5
93
330
7F
100
AcDbEntity
  8
중심선
100
AcDbLine
 10
22.22332737316547
 20
13.45928029700563
 30
0.0
 11
24.52862924686651
 21
15.39360700705356
 31
0.0
  0
ATTDEF
  5
95
330
7F
100
AcDbEntity
  8
FORMAT
 62
     2
100
AcDbText
 10
4.408487351596664
 20
2.075366912832191
 30
0.0
 40
4.233333333333333
  1
E5021006
 41
0.75
  7
SLDTEXTSTYLE0
 11
4.408487351596664
 21
-0.0412997538344756
 31
0.0
100
AcDbAttributeDefinition
  3

  2
AUTOATTR0
 70
     0
 74
     1
  0
ENDBLK
  5
81
330
7F
100
AcDbEntity
  8
0
100
AcDbBlockEnd
  0
BLOCK
  5
D7
330
D6
100
AcDbEntity
  8
0
100
AcDbBlockBegin
  2
_D
 70
     0
 10
0.0
 20
0.0
 30
0.0
  3
_D
  1
_D
  0
LINE
  5
D9
330
D6
100
AcDbEntity
  8
치수문자_일반주서
 62
     0
370
    -2
100
AcDbLine
 10
12.00615766425391
 20
1.24874658553841
 30
0.0
 11
12.00615766425391
 21
14.36708447148721
 31
0.0
  0
LINE
  5
DA
330
D6
100
AcDbEntity
  8
치수문자_일반주서
 62
     0
370
    -2
100
AcDbLine
 10
2.481157664253921
 20
1.25309186157632
 30
0.0
 11
2.481157664253921
 21
14.36708447148721
 31
0.0
  0
LINE
  5
DB
330
D6
100
AcDbEntity
  8
치수문자_일반주서
 62
     0
370
    -2
100
AcDbLine
 10
2.481157664253921
 20
14.36708447148721
 30
0.0
 11
-17.55009233574608
 21
14.36708447148721
 31
0.0
  0
LINE
  5
DC
330
D6
100
AcDbEntity
  8
치수문자_일반주서
 62
     0
370
    -2
100
AcDbLine
 10
9.506157664253912
 20
14.36708447148721
 30
0.0
 11
4.981157664253921
 21
14.36708447148721
 31
0.0
  0
SOLID
  5
DD
330
D6
100
AcDbEntity
  8
치수문자_일반주서
 62
     0
100
AcDbTrace
 10
9.506157664253912
 20
13.95041780482054
 30
0.0
 11
9.506157664253912
 21
14.78375113815388
 31
0.0
 12
12.00615766425391
 22
14.36708447148721
 32
0.0
 13
12.00615766425391
 23
14.36708447148721
 33
0.0
  0
SOLID
  5
DE
330
D6
100
AcDbEntity
  8
치수문자_일반주서
 62
     0
100
AcDbTrace
 10
4.981157664253921
 20
14.78375113815388
 30
0.0
 11
4.981157664253921
 21
13.95041780482054
 31
0.0
 12
2.481157664253921
 22
14.36708447148721
 32
0.0
 13
2.481157664253921
 23
14.36708447148721
 33
0.0
  0
MTEXT
  5
DF
330
D6
100
AcDbEntity
  8
치수문자_일반주서
 62
     0
100
AcDbMText
 10
-8.86259233574608
 20
17.74208447148721
 30
0.0
 40
2.5
 41
0.0
 71
     2
 72
     1
  1
\A1;9.53 [3/8]
  7
SLDTEXTSTYLE0
 73
     1
 44
1.0
  0
POINT
  5
E0
330
D6
100
AcDbEntity
  8
Defpoints
 62
     0
100
AcDbPoint
 10
12.00615766425391
 20
1.18624658553841
 30
0.0
  0
POINT
  5
E1
330
D6
100
AcDbEntity
  8
Defpoints
 62
     0
100
AcDbPoint
 10
2.481157664253921
 20
1.19059186157632
 30
0.0
  0
POINT
  5
E2
330
D6
100
AcDbEntity
  8
Defpoints
 62
     0
100
AcDbPoint
 10
2.481157664253921
 20
14.36708447148721
 30
0.0
  0
ENDBLK
  5
D8
330
D6
100
AcDbEntity
  8
0
100
AcDbBlockEnd
  0
BLOCK
  5
EC
330
EB
100
AcDbEntity
  8
0
100
AcDbBlockBegin
  2
_D_1
 70
     0
 10
0.0
 20
0.0
 30
0.0
  3
_D_1
  1
_D_1
  0
LINE
  5
EE
330
EB
100
AcDbEntity
  8
치수문자_일반주서
 62
     0
370
    -2
100
AcDbLine
 10
12.00615766425391
 20
1.24874658553841
 30
0.0
 11
12.00615766425391
 21
30.08828966928999
 31
0.0
  0
LINE
  5
EF
330
EB
100
AcDbEntity
  8
치수문자_일반주서
 62
     0
370
    -2
100
AcDbLine
 10
-26.09384233574609
 20
1.332500000000001
 30
0.0
 11
-26.09384233574609
 21
30.08828966928999
 31
0.0
  0
LINE
  5
F0
330
EB
100
AcDbEntity
  8
치수문자_일반주서
 62
     0
370
    -2
100
AcDbLine
 10
9.506157664253909
 20
30.08828966928999
 30
0.0
 11
-23.59384233574609
 21
30.08828966928999
 31
0.0
  0
SOLID
  5
F1
330
EB
100
AcDbEntity
  8
치수문자_일반주서
 62
     0
100
AcDbTrace
 10
9.506157664253909
 20
29.67162300262332
 30
0.0
 11
9.506157664253909
 21
30.50495633595666
 31
0.0
 12
12.00615766425391
 22
30.08828966928999
 32
0.0
 13
12.00615766425391
 23
30.08828966928999
 33
0.0
  0
SOLID
  5
F2
330
EB
100
AcDbEntity
  8
치수문자_일반주서
 62
     0
100
AcDbTrace
 10
-23.59384233574609
 20
30.50495633595666
 30
0.0
 11
-23.59384233574609
 21
29.67162300262332
 31
0.0
 12
-26.09384233574609
 22
30.08828966928999
 32
0.0
 13
-26.09384233574609
 23
30.08828966928999
 33
0.0
  0
MTEXT
  5
F3
330
EB
100
AcDbEntity
  8
치수문자_일반주서
 62
     0
100
AcDbMText
 10
-7.043842335746092
 20
33.46328966928999
 30
0.0
 40
2.5
 41
0.0
 71
     2
 72
     1
  1
\A1;38.1 [1 1/2]
  7
SLDTEXTSTYLE0
 73
     1
 44
1.0
  0
POINT
  5
F4
330
EB
100
AcDbEntity
  8
Defpoints
 62
     0
100
AcDbPoint
 10
12.00615766425391
 20
1.18624658553841
 30
0.0
  0
POINT
  5
F5
330
EB
100
AcDbEntity
  8
Defpoints
 62
     0
100
AcDbPoint
 10
-26.09384233574609
 20
1.270000000000001
 30
0.0
  0
POINT
  5
F6
330
EB
100
AcDbEntity
  8
Defpoints
 62
     0
100
AcDbPoint
 10
-26.09384233574609
 20
30.08828966928999
 30
0.0
  0
ENDBLK
  5
ED
330
EB
100
AcDbEntity
  8
0
100
AcDbBlockEnd
  0
BLOCK
  5
100
330
FF
100
AcDbEntity
  8
0
100
AcDbBlockBegin
  2
_D_2
 70
     0
 10
0.0
 20
0.0
 30
0.0
  3
_D_2
  1
_D_2
  0
LINE
  5
102
330
FF
100
AcDbEntity
  8
치수문자_일반주서
 62
     0
370
    -2
100
AcDbLine
 10
-25.83884233574609
 20
1.587499999999991
 30
0.0
 11
-38.02961517357326
 21
1.587499999999945
 31
0.0
  0
LINE
  5
103
330
FF
100
AcDbEntity
  8
치수문자_일반주서
 62
     0
370
    -2
100
AcDbLine
 10
-25.83884233574609
 20
-1.587499999999992
 30
0.0
 11
-38.02961517357324
 21
-1.587500000000038
 31
0.0
  0
LINE
  5
104
330
FF
100
AcDbEntity
  8
치수문자_일반주서
 62
     0
370
    -2
100
AcDbLine
 10
-38.02961517357326
 20
1.587499999999945
 30
0.0
 11
-38.02961517357336
 21
24.74374999999995
 31
0.0
  0
LINE
  5
105
330
FF
100
AcDbEntity
  8
치수문자_일반주서
 62
     0
370
    -2
100
AcDbLine
 10
-38.02961517357327
 20
4.087499999999945
 30
0.0
 11
-38.02961517357328
 21
6.587499999999945
 31
0.0
  0
LINE
  5
106
330
FF
100
AcDbEntity
  8
치수문자_일반주서
 62
     0
370
    -2
100
AcDbLine
 10
-38.02961517357323
 20
-4.087500000000038
 30
0.0
 11
-38.02961517357321
 21
-6.587500000000038
 31
0.0
  0
SOLID
  5
107
330
FF
100
AcDbEntity
  8
치수문자_일반주서
 62
     0
100
AcDbTrace
 10
-38.44628184023993
 20
4.087499999999944
 30
0.0
 11
-37.6129485069066
 21
4.087499999999947
 31
0.0
 12
-38.02961517357326
 22
1.587499999999945
 32
0.0
 13
-38.02961517357326
 23
1.587499999999945
 33
0.0
  0
SOLID
  5
108
330
FF
100
AcDbEntity
  8
치수문자_일반주서
 62
     0
100
AcDbTrace
 10
-37.61294850690656
 20
-4.087500000000036
 30
0.0
 11
-38.44628184023989
 21
-4.087500000000039
 31
0.0
 12
-38.02961517357324
 22
-1.587500000000038
 32
0.0
 13
-38.02961517357324
 23
-1.587500000000038
 33
0.0
  0
MTEXT
  5
109
330
FF
100
AcDbEntity
  8
치수문자_일반주서
 62
     0
100
AcDbMText
 10
-41.40461517357332
 20
15.74374999999993
 30
0.0
 40
2.5
 41
0.0
 71
     2
 72
     1
  1
\A1;%%c3.18 [1/8]
  7
SLDTEXTSTYLE0
 11
-4.475859752819552E-15
 21
1.0
 31
0.0
 73
     1
 44
1.0
  0
POINT
  5
10A
330
FF
100
AcDbEntity
  8
Defpoints
 62
     0
100
AcDbPoint
 10
-25.77634233574609
 20
1.587499999999992
 30
0.0
  0
POINT
  5
10B
330
FF
100
AcDbEntity
  8
Defpoints
 62
     0
100
AcDbPoint
 10
-25.77634233574609
 20
-1.587499999999992
 30
0.0
  0
POINT
  5
2CE
330
FF
100
AcDbEntity
  8
Defpoints
 62
     0
100
AcDbPoint
 10
-38.02961517357324
 20
-1.587500000000037
 30
0.0
  0
ENDBLK
  5
101
330
FF
100
AcDbEntity
  8
0
100
AcDbBlockEnd
  0
BLOCK
  5
114
330
113
100
AcDbEntity
  8
0
100
AcDbBlockBegin
  2
_D_3
 70
     0
 10
0.0
 20
0.0
 30
0.0
  3
_D_3
  1
_D_3
  0
LINE
  5
116
330
113
100
AcDbEntity
  8
치수문자_일반주서
 62
     0
370
    -2
100
AcDbLine
 10
12.0686576642539
 20
1.186246585538411
 30
0.0
 11
20.64795671430361
 21
1.186246585538441
 31
0.0
  0
LINE
  5
117
330
113
100
AcDbEntity
  8
치수문자_일반주서
 62
     0
370
    -2
100
AcDbLine
 10
12.06865766425391
 20
-1.19062499999999
 30
0.0
 11
20.64795671430361
 21
-1.190624999999958
 31
0.0
  0
LINE
  5
118
330
113
100
AcDbEntity
  8
치수문자_일반주서
 62
     0
370
    -2
100
AcDbLine
 10
20.64795671430361
 20
1.186246585538441
 30
0.0
 11
20.64795671430353
 21
27.31124658553844
 31
0.0
  0
LINE
  5
119
330
113
100
AcDbEntity
  8
치수문자_일반주서
 62
     0
370
    -2
100
AcDbLine
 10
20.6479567143036
 20
3.686246585538441
 30
0.0
 11
20.64795671430359
 21
6.186246585538441
 31
0.0
  0
LINE
  5
11A
330
113
100
AcDbEntity
  8
치수문자_일반주서
 62
     0
370
    -2
100
AcDbLine
 10
20.64795671430362
 20
-3.690624999999958
 30
0.0
 11
20.64795671430363
 21
-6.190624999999958
 31
0.0
  0
SOLID
  5
11B
330
113
100
AcDbEntity
  8
치수문자_일반주서
 62
     0
100
AcDbTrace
 10
20.23129004763693
 20
3.68624658553844
 30
0.0
 11
21.06462338097027
 21
3.686246585538443
 31
0.0
 12
20.64795671430361
 22
1.186246585538441
 32
0.0
 13
20.64795671430361
 23
1.186246585538441
 33
0.0
  0
SOLID
  5
11C
330
113
100
AcDbEntity
  8
치수문자_일반주서
 62
     0
100
AcDbTrace
 10
21.06462338097029
 20
-3.690624999999957
 30
0.0
 11
20.23129004763695
 21
-3.690624999999959
 31
0.0
 12
20.64795671430361
 22
-1.190624999999958
 32
0.0
 13
20.64795671430361
 23
-1.190624999999958
 33
0.0
  0
MTEXT
  5
11D
330
113
100
AcDbEntity
  8
치수문자_일반주서
 62
     0
100
AcDbMText
 10
17.27295671430356
 20
16.74874658553843
 30
0.0
 40
2.5
 41
0.0
 71
     2
 72
     1
  1
\A1;%%c2.38 [3/32]
  7
SLDTEXTSTYLE0
 11
-2.989403130077599E-15
 21
1.0
 31
0.0
 73
     1
 44
1.0
  0
POINT
  5
11E
330
113
100
AcDbEntity
  8
Defpoints
 62
     0
100
AcDbPoint
 10
12.0061576642539
 20
1.18624658553841
 30
0.0
  0
POINT
  5
11F
330
113
100
AcDbEntity
  8
Defpoints
 62
     0
100
AcDbPoint
 10
12.00615766425391
 20
-1.19062499999999
 30
0.0
  0
POINT
  5
120
330
113
100
AcDbEntity
  8
Defpoints
 62
     0
100
AcDbPoint
 10
20.64795671430361
 20
-1.190624999999958
 30
0.0
  0
ENDBLK
  5
115
330
113
100
AcDbEntity
  8
0
100
AcDbBlockEnd
  0
BLOCK
  5
12E
330
12D
100
AcDbEntity
  8
0
100
AcDbBlockBegin
  2
SW_DOWELSYMBOL_0
 70
     0
 10
0.0
 20
0.0
 30
0.0
  3
SW_DOWELSYMBOL_0
  1
SW_DOWELSYMBOL_0
  0
CIRCLE
  5
130
330
12D
100
AcDbEntity
  8
해칭선
 62
     0
100
AcDbCircle
 10
0.0
 20
0.0
 30
0.0
 40
3.0
  0
HATCH
  5
131
330
12D
100
AcDbEntity
  8
0
  6
Continuous
 62
     0
370
     0
100
AcDbHatch
 10
0.0
 20
0.0
 30
0.0
210
0.0
220
0.0
230
1.0
  2
SOLID
 70
     1
 71
     0
 91
        1
 92
        0
 93
        3
 72
     2
 10
0.0
 20
0.0
 40
3.0
 50
0.0
 51
90.0
 73
     1
 72
     1
 10
0.0
 20
3.0
 11
0.0
 21
0.0
 72
     1
 10
0.0
 20
0.0
 11
2.999999999999999
 21
0.0
 97
        0
 75
     0
 76
     1
 98
        1
 10
0.0
 20
0.0
  0
HATCH
  5
132
330
12D
100
AcDbEntity
  8
0
  6
Continuous
 62
     0
370
     0
100
AcDbHatch
 10
0.0
 20
0.0
 30
0.0
210
0.0
220
0.0
230
1.0
  2
SOLID
 70
     1
 71
     0
 91
        1
 92
        0
 93
        3
 72
     2
 10
0.0
 20
0.0
 40
3.0
 50
180.0
 51
270.0000000000007
 73
     1
 72
     1
 10
0.0
 20
-3.0
 11
0.0
 21
0.0
 72
     1
 10
0.0
 20
0.0
 11
-2.999999999999999
 21
0.0
 97
        0
 75
     0
 76
     1
 98
        1
 10
0.0
 20
0.0
  0
ENDBLK
  5
12F
330
12D
100
AcDbEntity
  8
0
100
AcDbBlockEnd
  0
BLOCK
  5
214
330
213
100
AcDbEntity
  8
0
100
AcDbBlockBegin
  2
*D7
 70
     1
 10
0.0
 20
0.0
 30
0.0
  3
*D7
  1
*D8
  0
LINE
  5
216
330
213
100
AcDbEntity
  8
치수문자_일반주서
 62
     0
370
    -2
100
AcDbLine
 10
71.43750000000006
 20
10.20053740206972
 30
0.0
 11
79.375
 21
10.20053740206975
 31
0.0
  0
LINE
  5
217
330
213
100
AcDbEntity
  8
치수문자_일반주서
 62
     0
370
    -2
100
AcDbLine
 10
71.43750000000006
 20
11.70053740206973
 30
0.0
 11
79.375
 21
11.70053740206976
 31
0.0
  0
LINE
  5
218
330
213
100
AcDbEntity
  8
치수문자_일반주서
 62
     0
370
    -2
100
AcDbLine
 10
79.375
 20
11.70053740206976
 30
0.0
 11
79.375
 21
35.42953740206976
 31
0.0
  0
LINE
  5
219
330
213
100
AcDbEntity
  8
치수문자_일반주서
 62
     0
370
    -2
100
AcDbLine
 10
79.375
 20
7.700537402069752
 30
0.0
 11
79.375
 21
5.200537402069752
 31
0.0
  0
LINE
  5
21A
330
213
100
AcDbEntity
  8
치수문자_일반주서
 62
     0
370
    -2
100
AcDbLine
 10
79.375
 20
14.20053740206976
 30
0.0
 11
79.375
 21
16.70053740206976
 31
0.0
  0
SOLID
  5
21B
330
213
100
AcDbEntity
  8
치수문자_일반주서
 62
     0
100
AcDbTrace
 10
79.79166666666667
 20
7.700537402069752
 30
0.0
 11
78.95833333333333
 21
7.700537402069752
 31
0.0
 12
79.375
 22
10.20053740206975
 32
0.0
 13
79.375
 23
10.20053740206975
 33
0.0
  0
SOLID
  5
21C
330
213
100
AcDbEntity
  8
치수문자_일반주서
 62
     0
100
AcDbTrace
 10
78.95833333333333
 20
14.20053740206976
 30
0.0
 11
79.79166666666667
 21
14.20053740206976
 31
0.0
 12
79.375
 22
11.70053740206976
 32
0.0
 13
79.375
 23
11.70053740206976
 33
0.0
  0
MTEXT
  5
21D
330
213
100
AcDbEntity
  8
치수문자_일반주서
 62
     0
100
AcDbMText
 10
76.0
 20
27.05453740206976
 30
0.0
 40
2.5
 41
0.0
 71
     2
 72
     1
  1
\A1;%%c1.5 [0.06]
  7
SLDTEXTSTYLE0
 11
0.0
 21
1.0
 31
0.0
 73
     1
 44
1.0
  0
POINT
  5
21E
330
213
100
AcDbEntity
  8
Defpoints
 62
     0
100
AcDbPoint
 10
71.37500000000006
 20
10.20053740206972
 30
0.0
  0
POINT
  5
21F
330
213
100
AcDbEntity
  8
Defpoints
 62
     0
100
AcDbPoint
 10
71.37500000000006
 20
11.70053740206973
 30
0.0
  0
POINT
  5
220
330
213
100
AcDbEntity
  8
Defpoints
 62
     0
100
AcDbPoint
 10
79.37500000000003
 20
11.70053740206976
 30
0.0
  0
ENDBLK
  5
215
330
213
100
AcDbEntity
  8
0
100
AcDbBlockEnd
  0
BLOCK
  5
222
330
221
100
AcDbEntity
  8
0
100
AcDbBlockBegin
  2
*D8
 70
     1
 10
0.0
 20
0.0
 30
0.0
  3
*D8
  1
*D9
  0
LINE
  5
224
330
221
100
AcDbEntity
  8
치수문자_일반주서
 62
     0
370
    -2
100
AcDbLine
 10
11.37500000000006
 20
13.51303740206972
 30
0.0
 11
11.37500000000006
 21
31.33967000365137
 31
0.0
  0
LINE
  5
225
330
221
100
AcDbEntity
  8
치수문자_일반주서
 62
     0
370
    -2
100
AcDbLine
 10
71.37500000000006
 20
11.76303740206973
 30
0.0
 11
71.37500000000006
 21
31.33967000365137
 31
0.0
  0
LINE
  5
226
330
221
100
AcDbEntity
  8
치수문자_일반주서
 62
     0
370
    -2
100
AcDbLine
 10
13.87500000000006
 20
31.33967000365137
 30
0.0
 11
68.87500000000006
 21
31.33967000365137
 31
0.0
  0
SOLID
  5
227
330
221
100
AcDbEntity
  8
치수문자_일반주서
 62
     0
100
AcDbTrace
 10
13.87500000000006
 20
31.75633667031804
 30
0.0
 11
13.87500000000006
 21
30.9230033369847
 31
0.0
 12
11.37500000000006
 22
31.33967000365137
 32
0.0
 13
11.37500000000006
 23
31.33967000365137
 33
0.0
  0
SOLID
  5
228
330
221
100
AcDbEntity
  8
치수문자_일반주서
 62
     0
100
AcDbTrace
 10
68.87500000000006
 20
30.9230033369847
 30
0.0
 11
68.87500000000006
 21
31.75633667031804
 31
0.0
 12
71.37500000000006
 22
31.33967000365137
 32
0.0
 13
71.37500000000006
 23
31.33967000365137
 33
0.0
  0
MTEXT
  5
229
330
221
100
AcDbEntity
  8
치수문자_일반주서
 62
     0
100
AcDbMText
 10
41.37500000000006
 20
34.71467000365137
 30
0.0
 40
2.5
 41
0.0
 71
     2
 72
     1
  1
\A1;60 [2.36]
  7
SLDTEXTSTYLE0
 73
     1
 44
1.0
  0
POINT
  5
22A
330
221
100
AcDbEntity
  8
Defpoints
 62
     0
100
AcDbPoint
 10
11.37500000000006
 20
13.45053740206972
 30
0.0
  0
POINT
  5
22B
330
221
100
AcDbEntity
  8
Defpoints
 62
     0
100
AcDbPoint
 10
71.37500000000006
 20
11.70053740206973
 30
0.0
  0
POINT
  5
22C
330
221
100
AcDbEntity
  8
Defpoints
 62
     0
100
AcDbPoint
 10
71.37500000000006
 20
31.33967000365137
 30
0.0
  0
ENDBLK
  5
223
330
221
100
AcDbEntity
  8
0
100
AcDbBlockEnd
  0
BLOCK
  5
22E
330
22D
100
AcDbEntity
  8
0
100
AcDbBlockBegin
  2
*D9
 70
     1
 10
0.0
 20
0.0
 30
0.0
  3
*D9
  1
*D10
  0
LINE
  5
230
330
22D
100
AcDbEntity
  8
치수문자_일반주서
 62
     0
370
    -2
100
AcDbLine
 10
11.81250000000006
 20
13.95053740206973
 30
0.0
 11
3.375000000000041
 21
13.9505374020697
 31
0.0
  0
LINE
  5
231
330
22D
100
AcDbEntity
  8
치수문자_일반주서
 62
     0
370
    -2
100
AcDbLine
 10
11.81250000000006
 20
7.950537402069727
 30
0.0
 11
3.375000000000062
 21
7.950537402069696
 31
0.0
  0
LINE
  5
232
330
22D
100
AcDbEntity
  8
치수문자_일반주서
 62
     0
370
    -2
100
AcDbLine
 10
3.375000000000041
 20
13.9505374020697
 30
0.0
 11
3.374999999999971
 21
34.1380374020697
 31
0.0
  0
LINE
  5
233
330
22D
100
AcDbEntity
  8
치수문자_일반주서
 62
     0
370
    -2
100
AcDbLine
 10
3.375000000000032
 20
16.4505374020697
 30
0.0
 11
3.375000000000023
 21
18.9505374020697
 31
0.0
  0
LINE
  5
234
330
22D
100
AcDbEntity
  8
치수문자_일반주서
 62
     0
370
    -2
100
AcDbLine
 10
3.375000000000071
 20
5.450537402069696
 30
0.0
 11
3.375000000000079
 21
2.950537402069696
 31
0.0
  0
SOLID
  5
235
330
22D
100
AcDbEntity
  8
치수문자_일반주서
 62
     0
100
AcDbTrace
 10
2.958333333333365
 20
16.4505374020697
 30
0.0
 11
3.791666666666698
 21
16.4505374020697
 31
0.0
 12
3.375000000000041
 22
13.9505374020697
 32
0.0
 13
3.375000000000041
 23
13.9505374020697
 33
0.0
  0
SOLID
  5
236
330
22D
100
AcDbEntity
  8
치수문자_일반주서
 62
     0
100
AcDbTrace
 10
3.791666666666737
 20
5.450537402069697
 30
0.0
 11
2.958333333333404
 21
5.450537402069694
 31
0.0
 12
3.375000000000062
 22
7.950537402069696
 32
0.0
 13
3.375000000000062
 23
7.950537402069696
 33
0.0
  0
MTEXT
  5
237
330
22D
100
AcDbEntity
  8
치수문자_일반주서
 62
     0
100
AcDbMText
 10
-0.0000000000000031
 20
26.54428740206969
 30
0.0
 40
2.5
 41
0.0
 71
     2
 72
     1
  1
\A1;%%c6 [0.24]
  7
SLDTEXTSTYLE0
 11
-3.478698810492154E-15
 21
1.0
 31
0.0
 73
     1
 44
1.0
  0
POINT
  5
238
330
22D
100
AcDbEntity
  8
Defpoints
 62
     0
100
AcDbPoint
 10
11.87500000000006
 20
13.95053740206973
 30
0.0
  0
POINT
  5
239
330
22D
100
AcDbEntity
  8
Defpoints
 62
     0
100
AcDbPoint
 10
11.87500000000006
 20
7.950537402069727
 30
0.0
  0
POINT
  5
23A
330
22D
100
AcDbEntity
  8
Defpoints
 62
     0
100
AcDbPoint
 10
3.375000000000057
 20
7.950537402069696
 30
0.0
  0
ENDBLK
  5
22F
330
22D
100
AcDbEntity
  8
0
100
AcDbBlockEnd
  0
BLOCK
  5
23C
330
23B
100
AcDbEntity
  8
0
100
AcDbBlockBegin
  2
*D10
 70
     1
 10
0.0
 20
0.0
 30
0.0
  3
*D10
  1
*D11
  0
LINE
  5
23E
330
23B
100
AcDbEntity
  8
치수문자_일반주서
 62
     0
370
    -2
100
AcDbLine
 10
65.37500000000006
 20
11.72584006941095
 30
0.0
 11
65.37500000000006
 21
22.5092583719986
 31
0.0
  0
LINE
  5
23F
330
23B
100
AcDbEntity
  8
치수문자_일반주서
 62
     0
370
    -2
100
AcDbLine
 10
71.37500000000006
 20
11.76303740206973
 30
0.0
 11
71.37500000000006
 21
22.5092583719986
 31
0.0
  0
SOLID
  5
240
330
23B
100
AcDbEntity
  8
치수문자_일반주서
 62
     0
100
AcDbTrace
 10
67.87500000000006
 20
22.92592503866527
 30
0.0
 11
67.87500000000006
 21
22.09259170533193
 31
0.0
 12
65.37500000000006
 22
22.5092583719986
 32
0.0
 13
65.37500000000006
 23
22.5092583719986
 33
0.0
  0
SOLID
  5
241
330
23B
100
AcDbEntity
  8
치수문자_일반주서
 62
     0
100
AcDbTrace
 10
68.87500000000006
 20
22.09259170533193
 30
0.0
 11
68.87500000000006
 21
22.92592503866527
 31
0.0
 12
71.37500000000006
 22
22.5092583719986
 32
0.0
 13
71.37500000000006
 23
22.5092583719986
 33
0.0
  0
MTEXT
  5
242
330
23B
100
AcDbEntity
  8
치수문자_일반주서
 62
     0
100
AcDbMText
 10
68.37500000000006
 20
25.8842583719986
 30
0.0
 40
2.5
 41
0.0
 71
     2
 72
     1
  1
\A1;6 [0.24]
  7
SLDTEXTSTYLE0
 73
     1
 44
1.0
  0
POINT
  5
243
330
23B
100
AcDbEntity
  8
Defpoints
 62
     0
100
AcDbPoint
 10
65.37500000000006
 20
11.66334006941095
 30
0.0
  0
POINT
  5
244
330
23B
100
AcDbEntity
  8
Defpoints
 62
     0
100
AcDbPoint
 10
71.37500000000006
 20
11.70053740206973
 30
0.0
  0
POINT
  5
245
330
23B
100
AcDbEntity
  8
Defpoints
 62
     0
100
AcDbPoint
 10
71.37500000000006
 20
22.5092583719986
 30
0.0
  0
ENDBLK
  5
23D
330
23B
100
AcDbEntity
  8
0
100
AcDbBlockEnd
  0
BLOCK
  5
29A
330
299
100
AcDbEntity
  8
0
100
AcDbBlockBegin
  2
*D11
 70
     1
 10
0.0
 20
0.0
 30
0.0
  3
*D11
  1
*D12
  0
LINE
  5
29C
330
299
100
AcDbEntity
  8
치수문자_일반주서
 62
     0
370
    -2
100
AcDbLine
 10
16.93226507805626
 20
69.32908717350989
 30
0.0
 11
24.86976507805624
 21
69.32908717350992
 31
0.0
  0
LINE
  5
29D
330
299
100
AcDbEntity
  8
치수문자_일반주서
 62
     0
370
    -2
100
AcDbLine
 10
16.93226507805626
 20
70.82908717350989
 30
0.0
 11
24.86976507805624
 21
70.82908717350992
 31
0.0
  0
LINE
  5
29E
330
299
100
AcDbEntity
  8
치수문자_일반주서
 62
     0
370
    -2
100
AcDbLine
 10
24.86976507805624
 20
70.82908717350992
 30
0.0
 11
24.86976507805618
 21
94.55808717350993
 31
0.0
  0
LINE
  5
29F
330
299
100
AcDbEntity
  8
치수문자_일반주서
 62
     0
370
    -2
100
AcDbLine
 10
24.86976507805625
 20
66.82908717350992
 30
0.0
 11
24.86976507805626
 21
64.32908717350992
 31
0.0
  0
LINE
  5
2A0
330
299
100
AcDbEntity
  8
치수문자_일반주서
 62
     0
370
    -2
100
AcDbLine
 10
24.86976507805623
 20
73.32908717350992
 30
0.0
 11
24.86976507805623
 21
75.82908717350992
 31
0.0
  0
SOLID
  5
2A1
330
299
100
AcDbEntity
  8
치수문자_일반주서
 62
     0
100
AcDbTrace
 10
25.28643174472292
 20
66.82908717350992
 30
0.0
 11
24.45309841138958
 21
66.82908717350992
 31
0.0
 12
24.86976507805624
 22
69.32908717350992
 32
0.0
 13
24.86976507805624
 23
69.32908717350992
 33
0.0
  0
SOLID
  5
2A2
330
299
100
AcDbEntity
  8
치수문자_일반주서
 62
     0
100
AcDbTrace
 10
24.45309841138956
 20
73.32908717350992
 30
0.0
 11
25.2864317447229
 21
73.32908717350992
 31
0.0
 12
24.86976507805624
 22
70.82908717350992
 32
0.0
 13
24.86976507805624
 23
70.82908717350992
 33
0.0
  0
MTEXT
  5
2A3
330
299
100
AcDbEntity
  8
치수문자_일반주서
 62
     0
100
AcDbMText
 10
21.4947650780562
 20
86.18308717350993
 30
0.0
 40
2.5
 41
0.0
 71
     2
 72
     1
  1
\A1;%%c1.5 [0.06]
  7
SLDTEXTSTYLE0
 11
-2.368475785867000E-15
 21
1.0
 31
0.0
 73
     1
 44
1.0
  0
POINT
  5
2A4
330
299
100
AcDbEntity
  8
Defpoints
 62
     0
100
AcDbPoint
 10
16.86976507805626
 20
69.32908717350989
 30
0.0
  0
POINT
  5
2A5
330
299
100
AcDbEntity
  8
Defpoints
 62
     0
100
AcDbPoint
 10
16.86976507805626
 20
70.82908717350989
 30
0.0
  0
POINT
  5
2A6
330
299
100
AcDbEntity
  8
Defpoints
 62
     0
100
AcDbPoint
 10
24.8697650780562
 20
70.82908717350992
 30
0.0
  0
ENDBLK
  5
29B
330
299
100
AcDbEntity
  8
0
100
AcDbBlockEnd
  0
BLOCK
  5
2A8
330
2A7
100
AcDbEntity
  8
0
100
AcDbBlockBegin
  2
*D12
 70
     1
 10
0.0
 20
0.0
 30
0.0
  3
*D12
  1
*D13
  0
LINE
  5
2AA
330
2A7
100
AcDbEntity
  8
치수문자_일반주서
 62
     0
370
    -2
100
AcDbLine
 10
-43.13023492194374
 20
72.64158717350989
 30
0.0
 11
-43.13023492194374
 21
90.46821977509154
 31
0.0
  0
LINE
  5
2AB
330
2A7
100
AcDbEntity
  8
치수문자_일반주서
 62
     0
370
    -2
100
AcDbLine
 10
16.86976507805626
 20
70.89158717350989
 30
0.0
 11
16.86976507805626
 21
90.46821977509154
 31
0.0
  0
LINE
  5
2AC
330
2A7
100
AcDbEntity
  8
치수문자_일반주서
 62
     0
370
    -2
100
AcDbLine
 10
-40.63023492194374
 20
90.46821977509154
 30
0.0
 11
14.36976507805626
 21
90.46821977509154
 31
0.0
  0
SOLID
  5
2AD
330
2A7
100
AcDbEntity
  8
치수문자_일반주서
 62
     0
100
AcDbTrace
 10
-40.63023492194374
 20
90.88488644175821
 30
0.0
 11
-40.63023492194374
 21
90.05155310842487
 31
0.0
 12
-43.13023492194374
 22
90.46821977509154
 32
0.0
 13
-43.13023492194374
 23
90.46821977509154
 33
0.0
  0
SOLID
  5
2AE
330
2A7
100
AcDbEntity
  8
치수문자_일반주서
 62
     0
100
AcDbTrace
 10
14.36976507805626
 20
90.05155310842487
 30
0.0
 11
14.36976507805626
 21
90.88488644175821
 31
0.0
 12
16.86976507805626
 22
90.46821977509154
 32
0.0
 13
16.86976507805626
 23
90.46821977509154
 33
0.0
  0
MTEXT
  5
2AF
330
2A7
100
AcDbEntity
  8
치수문자_일반주서
 62
     0
100
AcDbMText
 10
-13.13023492194374
 20
93.84321977509154
 30
0.0
 40
2.5
 41
0.0
 71
     2
 72
     1
  1
\A1;60 [2.36]
  7
SLDTEXTSTYLE0
 73
     1
 44
1.0
  0
POINT
  5
2B0
330
2A7
100
AcDbEntity
  8
Defpoints
 62
     0
100
AcDbPoint
 10
-43.13023492194374
 20
72.57908717350989
 30
0.0
  0
POINT
  5
2B1
330
2A7
100
AcDbEntity
  8
Defpoints
 62
     0
100
AcDbPoint
 10
16.86976507805626
 20
70.82908717350989
 30
0.0
  0
POINT
  5
2B2
330
2A7
100
AcDbEntity
  8
Defpoints
 62
     0
100
AcDbPoint
 10
16.86976507805626
 20
90.46821977509154
 30
0.0
  0
ENDBLK
  5
2A9
330
2A7
100
AcDbEntity
  8
0
100
AcDbBlockEnd
  0
BLOCK
  5
2B4
330
2B3
100
AcDbEntity
  8
0
100
AcDbBlockBegin
  2
*D13
 70
     1
 10
0.0
 20
0.0
 30
0.0
  3
*D13
  1
*D14
  0
LINE
  5
2B6
330
2B3
100
AcDbEntity
  8
치수문자_일반주서
 62
     0
370
    -2
100
AcDbLine
 10
-42.69273492194373
 20
73.07908717350989
 30
0.0
 11
-51.13023492194375
 21
73.07908717350986
 31
0.0
  0
LINE
  5
2B7
330
2B3
100
AcDbEntity
  8
치수문자_일반주서
 62
     0
370
    -2
100
AcDbLine
 10
-42.69273492194373
 20
67.07908717350989
 30
0.0
 11
-51.13023492194373
 21
67.07908717350986
 31
0.0
  0
LINE
  5
2B8
330
2B3
100
AcDbEntity
  8
치수문자_일반주서
 62
     0
370
    -2
100
AcDbLine
 10
-51.13023492194375
 20
73.07908717350986
 30
0.0
 11
-51.13023492194382
 21
93.26658717350986
 31
0.0
  0
LINE
  5
2B9
330
2B3
100
AcDbEntity
  8
치수문자_일반주서
 62
     0
370
    -2
100
AcDbLine
 10
-51.13023492194376
 20
75.57908717350986
 30
0.0
 11
-51.13023492194377
 21
78.07908717350986
 31
0.0
  0
LINE
  5
2BA
330
2B3
100
AcDbEntity
  8
치수문자_일반주서
 62
     0
370
    -2
100
AcDbLine
 10
-51.13023492194372
 20
64.57908717350986
 30
0.0
 11
-51.13023492194372
 21
62.07908717350986
 31
0.0
  0
SOLID
  5
2BB
330
2B3
100
AcDbEntity
  8
치수문자_일반주서
 62
     0
100
AcDbTrace
 10
-51.54690158861042
 20
75.57908717350986
 30
0.0
 11
-50.7135682552771
 21
75.57908717350986
 31
0.0
 12
-51.13023492194375
 22
73.07908717350986
 32
0.0
 13
-51.13023492194375
 23
73.07908717350986
 33
0.0
  0
SOLID
  5
2BC
330
2B3
100
AcDbEntity
  8
치수문자_일반주서
 62
     0
100
AcDbTrace
 10
-50.71356825527706
 20
64.57908717350986
 30
0.0
 11
-51.54690158861039
 21
64.57908717350986
 31
0.0
 12
-51.13023492194373
 22
67.07908717350986
 32
0.0
 13
-51.13023492194373
 23
67.07908717350986
 33
0.0
  0
MTEXT
  5
2BD
330
2B3
100
AcDbEntity
  8
치수문자_일반주서
 62
     0
100
AcDbMText
 10
-54.5052349219438
 20
85.67283717350985
 30
0.0
 40
2.5
 41
0.0
 71
     2
 72
     1
  1
\A1;%%c6 [0.24]
  7
SLDTEXTSTYLE0
 11
-3.552713678800501E-15
 21
1.0
 31
0.0
 73
     1
 44
1.0
  0
POINT
  5
2BE
330
2B3
100
AcDbEntity
  8
Defpoints
 62
     0
100
AcDbPoint
 10
-42.63023492194373
 20
73.07908717350989
 30
0.0
  0
POINT
  5
2BF
330
2B3
100
AcDbEntity
  8
Defpoints
 62
     0
100
AcDbPoint
 10
-42.63023492194373
 20
67.07908717350989
 30
0.0
  0
POINT
  5
2C0
330
2B3
100
AcDbEntity
  8
Defpoints
 62
     0
100
AcDbPoint
 10
-51.13023492194373
 20
67.07908717350986
 30
0.0
  0
ENDBLK
  5
2B5
330
2B3
100
AcDbEntity
  8
0
100
AcDbBlockEnd
  0
BLOCK
  5
2C2
330
2C1
100
AcDbEntity
  8
0
100
AcDbBlockBegin
  2
*D14
 70
     1
 10
0.0
 20
0.0
 30
0.0
  3
*D14
  1
*D15
  0
LINE
  5
2C4
330
2C1
100
AcDbEntity
  8
치수문자_일반주서
 62
     0
370
    -2
100
AcDbLine
 10
10.86976507805626
 20
70.85438984085111
 30
0.0
 11
10.86976507805626
 21
81.63780814343876
 31
0.0
  0
LINE
  5
2C5
330
2C1
100
AcDbEntity
  8
치수문자_일반주서
 62
     0
370
    -2
100
AcDbLine
 10
16.86976507805626
 20
70.89158717350989
 30
0.0
 11
16.86976507805626
 21
81.63780814343876
 31
0.0
  0
SOLID
  5
2C6
330
2C1
100
AcDbEntity
  8
치수문자_일반주서
 62
     0
100
AcDbTrace
 10
13.36976507805626
 20
82.05447481010543
 30
0.0
 11
13.36976507805626
 21
81.22114147677209
 31
0.0
 12
10.86976507805626
 22
81.63780814343876
 32
0.0
 13
10.86976507805626
 23
81.63780814343876
 33
0.0
  0
SOLID
  5
2C7
330
2C1
100
AcDbEntity
  8
치수문자_일반주서
 62
     0
100
AcDbTrace
 10
14.36976507805626
 20
81.22114147677209
 30
0.0
 11
14.36976507805626
 21
82.05447481010543
 31
0.0
 12
16.86976507805626
 22
81.63780814343876
 32
0.0
 13
16.86976507805626
 23
81.63780814343876
 33
0.0
  0
MTEXT
  5
2C8
330
2C1
100
AcDbEntity
  8
치수문자_일반주서
 62
     0
100
AcDbMText
 10
13.86976507805626
 20
85.01280814343876
 30
0.0
 40
2.5
 41
0.0
 71
     2
 72
     1
  1
\A1;6 [0.24]
  7
SLDTEXTSTYLE0
 73
     1
 44
1.0
  0
POINT
  5
2C9
330
2C1
100
AcDbEntity
  8
Defpoints
 62
     0
100
AcDbPoint
 10
10.86976507805626
 20
70.79188984085111
 30
0.0
  0
POINT
  5
2CA
330
2C1
100
AcDbEntity
  8
Defpoints
 62
     0
100
AcDbPoint
 10
16.86976507805626
 20
70.82908717350989
 30
0.0
  0
POINT
  5
2CB
330
2C1
100
AcDbEntity
  8
Defpoints
 62
     0
100
AcDbPoint
 10
16.86976507805626
 20
81.63780814343876
 30
0.0
  0
ENDBLK
  5
2C3
330
2C1
100
AcDbEntity
  8
0
100
AcDbBlockEnd
  0
ENDSEC
  0
SECTION
  2
ENTITIES
  0
LINE
  5
96
330
1F
100
AcDbEntity
  8
외형선
  6
Continuous
370
    15
100
AcDbLine
 10
0.0
 20
-1.587500000000003
 30
0.0
 11
1.48115766425391
 21
-1.190625
 31
0.0
  0
LINE
  5
97
330
1F
100
AcDbEntity
  8
외형선
  6
Continuous
370
    15
100
AcDbLine
 10
1.48115766425391
 20
1.190625
 30
0.0
 11
0.0
 21
1.587500000000003
 31
0.0
  0
LINE
  5
98
330
1F
100
AcDbEntity
  8
외형선
  6
Continuous
370
    15
100
AcDbLine
 10
-25.77634233574609
 20
-1.587500000000001
 30
0.0
 11
0.0
 21
-1.587500000000001
 31
0.0
  0
LINE
  5
99
330
1F
100
AcDbEntity
  8
외형선
  6
Continuous
370
    15
100
AcDbLine
 10
0.0
 20
1.587500000000001
 30
0.0
 11
-25.77634233574609
 21
1.587500000000001
 31
0.0
  0
LINE
  5
9A
330
1F
100
AcDbEntity
  8
외형선
  6
Continuous
370
    15
100
AcDbLine
 10
-25.77634233574609
 20
1.587499999999999
 30
0.0
 11
-26.09384233574609
 21
1.270000000000001
 31
0.0
  0
LINE
  5
9B
330
1F
100
AcDbEntity
  8
외형선
  6
Continuous
370
    15
100
AcDbLine
 10
-26.09384233574609
 20
-1.270000000000001
 30
0.0
 11
-25.77634233574609
 21
-1.587499999999999
 31
0.0
  0
LINE
  5
9C
330
1F
100
AcDbEntity
  8
외형선
  6
Continuous
370
    15
100
AcDbLine
 10
1.48115766425391
 20
-1.190625
 30
0.0
 11
1.98107078848054
 21
-1.190625
 31
0.0
  0
LINE
  5
9D
330
1F
100
AcDbEntity
  8
외형선
  6
Continuous
370
    15
100
AcDbLine
 10
1.98107078848054
 20
1.190625
 30
0.0
 11
1.48115766425391
 21
1.190625
 31
0.0
  0
LINE
  5
9E
330
1F
100
AcDbEntity
  8
외형선
  6
Continuous
370
    15
100
AcDbLine
 10
2.481182664253922
 20
1.190625
 30
0.0
 11
2.465805227435694
 21
1.190625
 31
0.0
  0
LINE
  5
9F
330
1F
100
AcDbEntity
  8
0
  6
Continuous
 62
     1
370
    25
100
AcDbLine
 10
8.944473934149743
 20
-1.190625
 30
0.0
 11
9.669320128285403
 21
-1.190625
 31
0.0
  0
LINE
  5
A0
330
1F
100
AcDbEntity
  8
0
  6
Continuous
 62
     1
370
    25
100
AcDbLine
 10
3.190570445073014
 20
1.190625
 30
0.0
 11
2.481157664253911
 21
1.190625
 31
0.0
  0
LINE
  5
A1
330
1F
100
AcDbEntity
  8
0
  6
Continuous
 62
     1
370
    25
100
AcDbLine
 10
6.430160453515171
 20
1.190625
 30
0.0
 11
5.70470720464095
 21
1.190625
 31
0.0
  0
LINE
  5
A2
330
1F
100
AcDbEntity
  8
0
  6
Continuous
 62
     1
370
    25
100
AcDbLine
 10
5.70470720464095
 20
-1.190625
 30
0.0
 11
6.430160453515164
 21
-1.190625
 31
0.0
  0
LINE
  5
A3
330
1F
100
AcDbEntity
  8
0
  6
Continuous
 62
     1
370
    25
100
AcDbLine
 10
2.481157664253911
 20
-1.190625
 30
0.0
 11
3.190570445073011
 21
-1.190625
 31
0.0
  0
LINE
  5
A4
330
1F
100
AcDbEntity
  8
0
  6
Continuous
 62
     1
370
    25
100
AcDbLine
 10
9.669320128285417
 20
1.190625
 30
0.0
 11
8.94447393414975
 21
1.190625
 31
0.0
  0
LINE
  5
A5
330
1F
100
AcDbEntity
  8
외형선
  6
Continuous
370
    15
100
AcDbLine
 10
1.48115766425391
 20
0.0
 30
0.0
 11
1.48115766425391
 21
1.190625
 31
0.0
  0
LINE
  5
A6
330
1F
100
AcDbEntity
  8
외형선
  6
Continuous
370
    15
100
AcDbLine
 10
1.48115766425391
 20
-1.190625
 30
0.0
 11
1.48115766425391
 21
0.0
 31
0.0
  0
LINE
  5
A7
330
1F
100
AcDbEntity
  8
외형선
  6
Continuous
370
    15
100
AcDbLine
 10
0.0
 20
0.0
 30
0.0
 11
0.0
 21
1.587500000000003
 31
0.0
  0
LINE
  5
A8
330
1F
100
AcDbEntity
  8
외형선
  6
Continuous
370
    15
100
AcDbLine
 10
0.0
 20
-1.587500000000004
 30
0.0
 11
0.0
 21
0.0
 31
0.0
  0
LINE
  5
A9
330
1F
100
AcDbEntity
  8
외형선
  6
Continuous
370
    15
100
AcDbLine
 10
-25.77634233574609
 20
0.0
 30
0.0
 11
-25.77634233574609
 21
1.587499999999999
 31
0.0
  0
LINE
  5
AA
330
1F
100
AcDbEntity
  8
외형선
  6
Continuous
370
    15
100
AcDbLine
 10
-25.77634233574609
 20
-1.587500000000001
 30
0.0
 11
-25.77634233574609
 21
0.0
 31
0.0
  0
LINE
  5
AB
330
1F
100
AcDbEntity
  8
외형선
  6
Continuous
370
    15
100
AcDbLine
 10
-26.09384233574609
 20
0.0
 30
0.0
 11
-26.09384233574609
 21
1.270000000000001
 31
0.0
  0
LINE
  5
AC
330
1F
100
AcDbEntity
  8
외형선
  6
Continuous
370
    15
100
AcDbLine
 10
-26.09384233574609
 20
-1.270000000000001
 30
0.0
 11
-26.09384233574609
 21
0.0
 31
0.0
  0
SPLINE
  5
AD
330
1F
100
AcDbEntity
  8
외형선
  6
Continuous
370
    15
100
AcDbSpline
210
0.0
220
0.0
230
1.0
 70
     8
 71
     3
 72
     8
 73
     4
 74
     0
 42
0.000000001
 43
0.00000001
 40
0.0
 40
0.0
 40
0.0
 40
0.0
 40
1.0
 40
1.0
 40
1.0
 40
1.0
 10
2.481157664253907
 20
-1.120643112505017
 30
0.0
 10
2.314843330226871
 20
-1.088231863551625
 30
0.0
 10
2.145713393643311
 20
-1.04456768397047
 30
0.0
 10
1.981070788480537
 20
-0.991639987912503
 30
0.0
  0
SPLINE
  5
AE
330
1F
100
AcDbEntity
  8
외형선
  6
Continuous
370
    15
100
AcDbSpline
210
0.0
220
0.0
230
1.0
 70
     8
 71
     3
 72
     8
 73
     4
 74
     0
 42
0.000000001
 43
0.00000001
 40
0.0
 40
0.0
 40
0.0
 40
0.0
 40
1.0
 40
1.0
 40
1.0
 40
1.0
 10
2.481157664253918
 20
-0.0088831173253812
 30
0.0
 10
2.314843330226886
 20
0.087065934330596
 30
0.0
 10
2.145713393643313
 20
0.1836266803082602
 30
0.0
 10
1.981070788480537
 20
0.2766395235197752
 30
0.0
  0
SPLINE
  5
AF
330
1F
100
AcDbEntity
  8
외형선
  6
Continuous
370
    15
100
AcDbSpline
210
0.0
220
0.0
230
1.0
 70
    24
 71
     3
 72
    14
 73
    10
 74
     0
 42
0.000000001
 43
0.00000001
 40
0.0
 40
0.0
 40
0.0
 40
0.0
 40
0.110062906503859
 40
0.2858310539685665
 40
0.4615992014345774
 40
0.6373673489018618
 40
0.8131354963678595
 40
0.9889036438338561
 40
1.0
 40
1.0
 40
1.0
 40
1.0
 10
2.481157664253907
 20
-1.120643112505018
 30
0.0
 10
2.481157664253911
 20
-1.07881330920083
 30
0.0
 10
2.481157664253918
 20
-0.9701821895482283
 30
0.0
 10
2.481157664253915
 20
-0.7617074414802241
 30
0.0
 10
2.481157664253893
 20
-0.5189468495015336
 30
0.0
 10
2.481157664253918
 20
-0.2922103238777661
 30
0.0
 10
2.481157664253918
 20
-0.1190362406735117
 30
0.0
 10
2.48115766425388
 20
-0.0218934315682082
 30
0.0
 10
2.481157664253918
 20
-0.009612388156077
 30
0.0
 10
2.481157664253911
 20
-0.0088831173253731
 30
0.0
  0
LINE
  5
B0
330
1F
100
AcDbEntity
  8
외형선
  6
Continuous
370
    15
100
AcDbLine
 10
1.98107078848054
 20
-1.190625
 30
0.0
 11
1.98107078848054
 21
-1.158040868212211
 31
0.0
  0
SPLINE
  5
B1
330
1F
100
AcDbEntity
  8
외형선
  6
Continuous
370
    15
100
AcDbSpline
210
0.0
220
0.0
230
1.0
 70
     8
 71
     3
 72
     8
 73
     4
 74
     0
 42
0.000000001
 43
0.00000001
 40
0.0
 40
0.0
 40
0.0
 40
0.0
 40
1.0
 40
1.0
 40
1.0
 40
1.0
 10
2.481157664253918
 20
1.190591861576243
 30
0.0
 10
2.314843330226886
 20
1.191307746432024
 30
0.0
 10
2.145713393643313
 20
1.180260236488611
 30
0.0
 10
1.981070788480537
 20
1.158040787127876
 30
0.0
  0
LINE
  5
B2
330
1F
100
AcDbEntity
  8
외형선
  6
Continuous
370
    15
100
AcDbLine
 10
1.981070788480537
 20
0.6589622839358005
 30
0.0
 11
1.98107078848054
 21
1.190625
 31
0.0
  0
SPLINE
  5
B3
330
1F
100
AcDbEntity
  8
외형선
  6
Continuous
370
    15
100
AcDbSpline
210
0.0
220
0.0
230
1.0
 70
     8
 71
     3
 72
     8
 73
     4
 74
     0
 42
0.000000001
 43
0.00000001
 40
0.0
 40
0.0
 40
0.0
 40
0.0
 40
1.0
 40
1.0
 40
1.0
 40
1.0
 10
2.481157664253907
 20
0.40217770328559
 30
0.0
 10
2.314843330226871
 20
0.4924896291098632
 30
0.0
 10
2.145713393643311
 20
0.5793197192930314
 30
0.0
 10
1.981070788480537
 20
0.6589673929701654
 30
0.0
  0
LINE
  5
B4
330
1F
100
AcDbEntity
  8
외형선
  6
Continuous
370
    15
100
AcDbLine
 10
1.981070788480537
 20
-0.9916433829634107
 30
0.0
 11
1.98107078848054
 21
0.2766391840923893
 31
0.0
  0
SPLINE
  5
B5
330
1F
100
AcDbEntity
  8
외형선
  6
Continuous
370
    15
100
AcDbSpline
210
0.0
220
0.0
230
1.0
 70
     8
 71
     3
 72
     8
 73
     4
 74
     0
 42
0.000000001
 43
0.00000001
 40
0.0
 40
0.0
 40
0.0
 40
0.0
 40
1.0
 40
1.0
 40
1.0
 40
1.0
 10
2.481157664253918
 20
-1.190591861576243
 30
0.0
 10
2.314843330226886
 20
-1.191307746432023
 30
0.0
 10
2.145713393643313
 20
-1.180260236488609
 30
0.0
 10
1.981070788480537
 20
-1.158040787127874
 30
0.0
  0
LINE
  5
B6
330
1F
100
AcDbEntity
  8
외형선
  6
Continuous
370
    15
100
AcDbLine
 10
2.481157664253921
 20
-1.190591861550341
 30
0.0
 11
2.481157664253907
 21
-1.120643112505018
 31
0.0
  0
LINE
  5
B7
330
1F
100
AcDbEntity
  8
외형선
  6
Continuous
370
    15
100
AcDbLine
 10
2.481157664253921
 20
-0.0088831173170217
 30
0.0
 11
2.481157664253907
 21
0.4021777032855886
 31
0.0
  0
SPLINE
  5
B8
330
1F
100
AcDbEntity
  8
외형선
  6
Continuous
370
    15
100
AcDbSpline
210
0.0
220
0.0
230
1.0
 70
    24
 71
     3
 72
    15
 73
    11
 74
     0
 42
0.000000001
 43
0.00000001
 40
0.0
 40
0.0
 40
0.0
 40
0.0
 40
0.029565514875011
 40
0.1747963863708177
 40
0.3159342502526907
 40
0.4611651217484958
 40
0.6023029856302771
 40
0.7475338571259825
 40
0.8723667597787922
 40
0.9999999999999999
 40
0.9999999999999999
 40
0.9999999999999999
 40
0.9999999999999999
 10
2.4811576642539
 20
0.4283709087199946
 30
0.0
 10
2.481157664253897
 20
0.4333482479031683
 30
0.0
 10
2.481157664253907
 20
0.4627751294115303
 30
0.0
 10
2.481157664253911
 20
0.5310847712827904
 30
0.0
 10
2.481157664253924
 20
0.6318623771845076
 30
0.0
 10
2.481157664253911
 20
0.7426371427130894
 30
0.0
 10
2.481157664253915
 20
0.860601853058373
 30
0.0
 10
2.481157664253931
 20
0.976046939311929
 30
0.0
 10
2.481157664253883
 20
1.087712633264498
 30
0.0
 10
2.481157664253904
 20
1.156046135244098
 30
0.0
 10
2.481157664253921
 20
1.190591861550341
 30
0.0
  0
SPLINE
  5
B9
330
1F
100
AcDbEntity
  8
0
  6
Continuous
 62
     1
370
    25
100
AcDbSpline
210
0.0
220
0.0
230
1.0
 70
     8
 71
     3
 72
    23
 73
    19
 74
     0
 42
0.000000001
 43
0.00000001
 40
0.0
 40
0.0
 40
0.0
 40
0.0
 40
0.0378081688287114
 40
0.1029053607521526
 40
0.1677207112126761
 40
0.23237176844777
 40
0.2973289707373306
 40
0.3621501703508363
 40
0.426781259975419
 40
0.4916215280919025
 40
0.5565632904083647
 40
0.6212087246194978
 40
0.6859467182728316
 40
0.7509501286850834
 40
0.8156441560720954
 40
0.8803137143418952
 40
0.945300826480496
 40
1.0
 40
1.0
 40
1.0
 40
1.0
 10
3.190570445073014
 20
1.182074802411549
 30
0.0
 10
3.288011872899251
 20
1.183088869540909
 30
0.0
 10
3.55322559769222
 20
1.185848932961238
 30
0.0
 10
3.986274451425268
 20
1.112387752220785
 30
0.0
 10
4.48773019432465
 20
0.9731178689061625
 30
0.0
 10
4.988665125644933
 20
0.7730740788596426
 30
0.0
 10
5.490467257925469
 20
0.5295744776032897
 30
0.0
 10
5.991808615639878
 20
0.2542305707847118
 30
0.0
 10
6.492376762543651
 20
-0.0366634223672825
 30
0.0
 10
6.993783080205294
 20
-0.3246812933785117
 30
0.0
 10
7.495534165204415
 20
-0.5931981504594481
 30
0.0
 10
7.99620100201819
 20
-0.8279421997276072
 30
0.0
 10
8.497252400527639
 20
-1.013606383458706
 30
0.0
 10
8.999209816455368
 20
-1.139081376127863
 30
0.0
 10
9.500097327017631
 20
-1.198648904441479
 30
0.0
 10
10.00087178615599
 20
-1.185788072664463
 30
0.0
 10
10.47679342954391
 20
-1.113527340723138
 30
0.0
 10
10.78532245813093
 20
-1.016760736135663
 30
0.0
 10
10.92632677435387
 20
-0.9725363434567592
 30
0.0
  0
SPLINE
  5
BA
330
1F
100
AcDbEntity
  8
0
  6
Continuous
 62
     1
370
    25
100
AcDbSpline
210
0.0
220
0.0
230
1.0
 70
     8
 71
     3
 72
    23
 73
    19
 74
     0
 42
0.000000001
 43
0.00000001
 40
0.0
 40
0.0
 40
0.0
 40
0.0
 40
0.06641251299924
 40
0.1325613074796434
 40
0.1988548021731678
 40
0.2653636832309911
 40
0.3315475744286048
 40
0.3977565077238382
 40
0.4642820687033899
 40
0.5305359977998081
 40
0.5966952000384004
 40
0.6631576693412278
 40
0.7295162678079421
 40
0.7956607895603666
 40
0.8619998730070284
 40
0.9284781438326589
 40
0.9946431007665963
 40
1.0
 40
1.0
 40
1.0
 40
1.0
 10
12.00615766425391
 20
-1.19062499999999
 30
0.0
 10
11.83874084068075
 20
-1.171224245285077
 30
0.0
 10
11.50457199169893
 20
-1.141239217231574
 30
0.0
 10
11.00397033038029
 20
-1.010158301930404
 30
0.0
 10
10.50278249162034
 20
-0.8246974849522303
 30
0.0
 10
10.00087881445765
 20
-0.5903325258320693
 30
0.0
 10
9.500095447363705
 20
-0.3204382250041448
 30
0.0
 10
8.999210322246624
 20
-0.031589270988621
 30
0.0
 10
8.497252267939825
 20
0.2576564820453872
 30
0.0
 10
7.996201027776932
 20
0.5330419427281403
 30
0.0
 10
7.495534194276736
 20
0.7772226304103399
 30
0.0
 10
6.993782937346882
 20
0.9747459475131917
 30
0.0
 10
6.49237730297286
 20
1.115586949002876
 30
0.0
 10
5.991806600987884
 20
1.190570022993758
 30
0.0
 10
5.490474809512297
 20
1.196857042332142
 30
0.0
 10
4.988636935551049
 20
1.127292245434377
 30
0.0
 10
4.641305477636308
 20
1.047801287407009
 30
0.0
 10
4.461139343169323
 20
0.979306025758718
 30
0.0
 10
4.447645120852811
 20
0.9741758147396272
 30
0.0
  0
SPLINE
  5
BB
330
1F
100
AcDbEntity
  8
0
  6
Continuous
 62
     1
370
    25
100
AcDbSpline
210
0.0
220
0.0
230
1.0
 70
     8
 71
     3
 72
    20
 73
    16
 74
     0
 42
0.000000001
 43
0.00000001
 40
0.0
 40
0.0
 40
0.0
 40
0.0
 40
0.0692348101615218
 40
0.1467155304788907
 40
0.2240854723823927
 40
0.3018100702422421
 40
0.3794131962541308
 40
0.4567659700491385
 40
0.5343462742022892
 40
0.6120893511679908
 40
0.6894660229054305
 40
0.7670393265854326
 40
0.8449499480958117
 40
0.9225032377344816
 40
1.0
 40
1.0
 40
1.0
 40
1.0
 10
8.94447393414975
 20
-1.187183240438128
 30
0.0
 10
8.795189866067245
 20
-1.183205388938013
 30
0.0
 10
8.478841901948126
 20
-1.174775921280861
 30
0.0
 10
7.996191847408155
 20
-1.076750067741379
 30
0.0
 10
7.495536630271621
 20
-0.9177354771840248
 30
0.0
 10
6.993782416046379
 20
-0.7038701109783366
 30
0.0
 10
6.492376952577786
 20
-0.4488408085357882
 30
0.0
 10
5.991808516808407
 20
-0.1665660591525684
 30
0.0
 10
5.490467463793701
 20
0.1248485407039964
 30
0.0
 10
4.988664401236132
 20
0.4083204177236228
 30
0.0
 10
4.487732874656335
 20
0.6690774646374049
 30
0.0
 10
3.986264403184591
 20
0.8905414917611487
 30
0.0
 10
3.483574806737813
 20
1.057529279234294
 30
0.0
 10
2.981981653799253
 20
1.168027756532347
 30
0.0
 10
2.648058414080321
 20
1.183072321519053
 30
0.0
 10
2.481157664253939
 20
1.190591861576243
 30
0.0
  0
LINE
  5
BC
330
1F
100
AcDbEntity
  8
0
  6
Continuous
 62
     1
370
    25
100
AcDbLine
 10
12.00615766425392
 20
-1.19062499999999
 30
0.0
 11
12.00615766425391
 21
-1.078326856457623
 31
0.0
  0
SPLINE
  5
BD
330
1F
100
AcDbEntity
  8
0
  6
Continuous
 62
     1
370
    25
100
AcDbSpline
210
0.0
220
0.0
230
1.0
 70
     8
 71
     3
 72
    19
 73
    15
 74
     0
 42
0.000000001
 43
0.00000001
 40
0.0
 40
0.0
 40
0.0
 40
0.0
 40
0.0110827338384253
 40
0.1010370867128325
 40
0.1911322447588532
 40
0.280816300202622
 40
0.3706287654288834
 40
0.460809449255777
 40
0.5505609190983027
 40
0.6402784423877348
 40
0.7304365152553922
 40
0.8203026147922923
 40
0.9099725616928673
 40
1.0
 40
1.0
 40
1.0
 40
1.0
 10
6.430160453515171
 20
1.186835768714614
 30
0.0
 10
6.450748127856347
 20
1.188061049708663
 30
0.0
 10
6.638438157045121
 20
1.199231472444436
 30
0.0
 10
6.993793308490472
 20
1.153345732926446
 30
0.0
 10
7.495531427778893
 20
1.047054054823386
 30
0.0
 10
7.996201768711572
 20
0.8716816690820207
 30
0.0
 10
8.497252068348459
 20
0.6468896659111749
 30
0.0
 10
8.999210375535775
 20
0.3847646987167437
 30
0.0
 10
9.500095433121981
 20
0.0988316172661506
 30
0.0
 10
10.00087881829429
 20
-0.1929690514193502
 30
0.0
 10
10.5027824905942
 20
-0.4723510185166693
 30
0.0
 10
11.00397033065285
 20
-0.7237884999384255
 30
0.0
 10
11.50457199163054
 20
-0.9374059300844035
 30
0.0
 10
11.83874084065792
 20
-1.031290955794401
 30
0.0
 10
12.00615766425391
 20
-1.078326856457622
 30
0.0
  0
SPLINE
  5
BE
330
1F
100
AcDbEntity
  8
0
  6
Continuous
 62
     1
370
    25
100
AcDbSpline
210
0.0
220
0.0
230
1.0
 70
     8
 71
     3
 72
    18
 73
    14
 74
     0
 42
0.000000001
 43
0.00000001
 40
0.0
 40
0.0
 40
0.0
 40
0.0
 40
0.0962031713748076
 40
0.19247651487562
 40
0.2891934441248774
 40
0.385491632718462
 40
0.4815457257406313
 40
0.578054668022776
 40
0.6743615468854545
 40
0.7703859734056437
 40
0.866721182938185
 40
0.9632071855705286
 40
0.9999999999999999
 40
0.9999999999999999
 40
0.9999999999999999
 40
0.9999999999999999
 10
2.481157664253907
 20
0.4021777032855943
 30
0.0
 10
2.648058413970485
 20
0.3090466674137434
 30
0.0
 10
2.981981653469715
 20
0.1227166644086208
 30
0.0
 10
3.483574808059515
 20
-0.1710319092724116
 30
0.0
 10
3.986264398211877
 20
-0.4515484990567491
 30
0.0
 10
4.487732893109012
 20
-0.7071222023432269
 30
0.0
 10
4.988664332415877
 20
-0.9207953642722605
 30
0.0
 10
5.490467721785003
 20
-1.079537186392043
 30
0.0
 10
5.991807557550387
 20
-1.175075185553044
 30
0.0
 10
6.49238052598104
 20
-1.202472429705583
 30
0.0
 10
6.993769021636312
 20
-1.155422151100977
 30
0.0
 10
7.392652851858365
 20
-1.07514229644832
 30
0.0
 10
7.623821462317795
 20
-0.9923698417097081
 30
0.0
 10
7.687637633364744
 20
-0.9695197621981447
 30
0.0
  0
SPLINE
  5
BF
330
1F
100
AcDbEntity
  8
외형선
  6
Continuous
370
    15
100
AcDbSpline
210
0.0
220
0.0
230
1.0
 70
    24
 71
     3
 72
    14
 73
    10
 74
     0
 42
0.000000001
 43
0.00000001
 40
0.0
 40
0.0
 40
0.0
 40
0.0
 40
0.1455544455999105
 40
0.2955988815996481
 40
0.4369503538594747
 40
0.5824010283906669
 40
0.7237525006504956
 40
0.8692031751816882
 40
1.0
 40
1.0
 40
1.0
 40
1.0
 10
2.481157664253918
 20
1.19059186157632
 30
0.0
 10
2.481157664253915
 20
1.151169875917209
 30
0.0
 10
2.481157664253897
 20
1.071109834994091
 30
0.0
 10
2.481157664253942
 20
0.9480047261527534
 30
0.0
 10
2.48115766425389
 20
0.8262116213176544
 30
0.0
 10
2.481157664253942
 20
0.7106668536671176
 30
0.0
 10
2.481157664253915
 20
0.6018817822604303
 30
0.0
 10
2.48115766425388
 20
0.5056329211467611
 30
0.0
 10
2.481157664253911
 20
0.4531977526396458
 30
0.0
 10
2.481157664253918
 20
0.4283709087199954
 30
0.0
  0
LINE
  5
C0
330
1F
100
AcDbEntity
  8
0
  6
Continuous
 62
     1
370
    25
100
AcDbLine
 10
12.00615766425391
 20
-1.078326856457623
 30
0.0
 11
12.00615766425391
 21
0.1020143564576369
 31
0.0
  0
SPLINE
  5
C1
330
1F
100
AcDbEntity
  8
0
  6
Continuous
 62
     1
370
    25
100
AcDbSpline
210
0.0
220
0.0
230
1.0
 70
     8
 71
     3
 72
    16
 73
    12
 74
     0
 42
0.000000001
 43
0.00000001
 40
0.0
 40
0.0
 40
0.0
 40
0.0
 40
0.1162376364198588
 40
0.2320137029348103
 40
0.3480430291142895
 40
0.4644493324743107
 40
0.5802868265617238
 40
0.696168150254536
 40
0.8126036474304487
 40
0.9285637244385975
 40
1.0
 40
1.0
 40
1.0
 40
1.0
 10
12.0061576642539
 20
0.1020143564576368
 30
0.0
 10
11.83874083956315
 20
0.1975326787824726
 30
0.0
 10
11.50457198835058
 20
0.3881900281856964
 30
0.0
 10
11.00397034372378
 20
0.6508812905662188
 30
0.0
 10
10.50278244138448
 20
0.8752021572653541
 30
0.0
 10
10.00087900228273
 20
1.047487910807727
 30
0.0
 10
9.500094750152654
 20
1.158861715301804
 30
0.0
 10
8.999212931040741
 20
1.202380443800823
 30
0.0
 10
8.497242496851955
 20
1.172910321810386
 30
0.0
 10
8.060063375836407
 20
1.094933833918212
 30
0.0
 10
7.790424937104167
 20
1.004133304746341
 30
0.0
 10
7.687637633364765
 20
0.9695197621981446
 30
0.0
  0
SPLINE
  5
C2
330
1F
100
AcDbEntity
  8
0
  6
Continuous
 62
     1
370
    25
100
AcDbSpline
210
0.0
220
0.0
230
1.0
 70
     8
 71
     3
 72
    10
 73
     6
 74
     0
 42
0.000000001
 43
0.00000001
 40
0.0
 40
0.0
 40
0.0
 40
0.0
 40
0.4648302454647156
 40
0.9278146890118646
 40
1.0
 40
1.0
 40
1.0
 40
1.0
 10
12.0061576642539
 20
1.18624658553841
 30
0.0
 10
11.83873268289977
 20
1.170274003736485
 30
0.0
 10
11.50454755074983
 20
1.138392265915285
 30
0.0
 10
11.14495886108457
 20
1.054409245397935
 30
0.0
 10
10.95231161595397
 20
0.9822670944187711
 30
0.0
 10
10.92632677435387
 20
0.9725363434567593
 30
0.0
  0
SPLINE
  5
C3
330
1F
100
AcDbEntity
  8
0
  6
Continuous
 62
     1
370
    25
100
AcDbSpline
210
0.0
220
0.0
230
1.0
 70
     8
 71
     3
 72
    14
 73
    10
 74
     0
 42
0.000000001
 43
0.00000001
 40
0.0
 40
0.0
 40
0.0
 40
0.0
 40
0.0663662151801116
 40
0.2222407613714667
 40
0.377380666603053
 40
0.5329148180622122
 40
0.6891252903692775
 40
0.8446193137587503
 40
1.0
 40
1.0
 40
1.0
 40
1.0
 10
5.70470720464095
 20
-1.18203086647237
 30
0.0
 10
5.633395908944909
 20
-1.184056576670674
 30
0.0
 10
5.394595540310622
 20
-1.190840079022996
 30
0.0
 10
4.988648159319598
 20
-1.128354702079854
 30
0.0
 10
4.487737229576093
 20
-0.9997805781886852
 30
0.0
 10
3.986263229601062
 20
-0.8079804680701153
 30
0.0
 10
3.483575118669095
 20
-0.5707128657610079
 30
0.0
 10
2.981981576032051
 20
-0.298300633134397
 30
0.0
 10
2.648058388164219
 20
-0.1053321721026326
 30
0.0
 10
2.481157664253939
 20
-0.0088831173253886
 30
0.0
  0
LINE
  5
C4
330
1F
100
AcDbEntity
  8
0
  6
Continuous
 62
     1
370
    25
100
AcDbLine
 10
12.00615766425391
 20
0.4992116532082201
 30
0.0
 11
12.00615766425391
 21
1.18624658553841
 31
0.0
  0
SPLINE
  5
C5
330
1F
100
AcDbEntity
  8
0
  6
Continuous
 62
     1
370
    25
100
AcDbSpline
210
0.0
220
0.0
230
1.0
 70
     8
 71
     3
 72
    11
 73
     7
 74
     0
 42
0.000000001
 43
0.00000001
 40
0.0
 40
0.0
 40
0.0
 40
0.0
 40
0.254697895907088
 40
0.5095815725175397
 40
0.7656396423955846
 40
1.0
 40
1.0
 40
1.0
 40
1.0
 10
2.481157664253921
 20
-1.12064311250502
 30
0.0
 10
2.648058736839155
 20
-1.146912442215755
 30
0.0
 10
2.981982622311183
 20
-1.199470262904862
 30
0.0
 10
3.483570921948781
 20
-1.188591419302856
 30
0.0
 10
3.972764951371739
 20
-1.11969051304038
 30
0.0
 10
4.294090562373989
 20
-1.021228622344054
 30
0.0
 10
4.447645120852807
 20
-0.974175814739627
 30
0.0
  0
SPLINE
  5
C6
330
1F
100
AcDbEntity
  8
0
  6
Continuous
 62
     1
370
    25
100
AcDbSpline
210
0.0
220
0.0
230
1.0
 70
     8
 71
     3
 72
    12
 73
     8
 74
     0
 42
0.000000001
 43
0.00000001
 40
0.0
 40
0.0
 40
0.0
 40
0.0
 40
0.1416553863632393
 40
0.3567848235187338
 40
0.5712175725539923
 40
0.7851822746922067
 40
1.0
 40
1.0
 40
1.0
 40
1.0
 10
9.66932012828541
 20
1.182777545477463
 30
0.0
 10
9.779590772626944
 20
1.182893780760017
 30
0.0
 10
10.05732742204605
 20
1.183186540434303
 30
0.0
 10
10.50279057796673
 20
1.104173828956507
 30
0.0
 10
11.00396818250916
 20
0.9597244175638168
 30
0.0
 10
11.50457253067392
 20
0.7577698185043886
 30
0.0
 10
11.8387410205772
 20
0.5892192238165457
 30
0.0
 10
12.00615766425391
 20
0.5047762685261789
 30
0.0
  0
SPLINE
  5
C7
330
1F
100
AcDbEntity
  8
외형선
  6
Continuous
370
    15
100
AcDbSpline
210
0.0
220
0.0
230
1.0
 70
    24
 71
     3
 72
    14
 73
    10
 74
     0
 42
0.000000001
 43
0.00000001
 40
0.0
 40
0.0
 40
0.0
 40
0.0
 40
0.0519005557645029
 40
0.225014058574227
 40
0.398127561383947
 40
0.5712410641935727
 40
0.7443545670033985
 40
0.9174680698131222
 40
1.0
 40
1.0
 40
1.0
 40
1.0
 10
2.481157664253924
 20
-0.0088831173253807
 30
0.0
 10
2.481157664253924
 20
-0.0129590719062551
 30
0.0
 10
2.481157664253928
 20
-0.030630310090453
 30
0.0
 10
2.481157664253876
 20
-0.1403916869069188
 30
0.0
 10
2.481157664253939
 20
-0.3240189358908929
 30
0.0
 10
2.481157664253928
 20
-0.5546713701529218
 30
0.0
 10
2.48115766425388
 20
-0.7981872992600975
 30
0.0
 10
2.481157664253915
 20
-0.9916006910374376
 30
0.0
 10
2.481157664253907
 20
-1.089150406963015
 30
0.0
 10
2.481157664253915
 20
-1.120643112505017
 30
0.0
  0
LINE
  5
C8
330
1F
100
AcDbEntity
  8
0
  6
Continuous
 62
     1
370
    25
100
AcDbLine
 10
12.00615766425391
 20
0.1020143564576369
 30
0.0
 11
12.00615766425391
 21
0.5047762685261787
 31
0.0
  0
LINE
  5
C9
330
1F
100
AcDbEntity
  8
중심선
 62
     1
100
AcDbLine
 10
-29.09384233574609
 20
-0.0000000000000039
 30
0.0
 11
15.00615766425391
 21
0.0000000000000015
 31
0.0
  0
LINE
  5
CA
330
1F
100
AcDbEntity
  8
참조1
100
AcDbLine
 10
-16.79439635022272
 20
0.0010749287238892
 30
0.0
 11
-16.79439635022271
 21
-39.99892507127612
 31
0.0
  0
LINE
  5
CB
330
1F
100
AcDbEntity
  8
참조1
100
AcDbLine
 10
-16.79439635022271
 20
-39.99892507127612
 30
0.0
 11
-21.63450316453139
 21
-39.9989250712761
 31
0.0
  0
CIRCLE
  5
CC
330
1F
100
AcDbEntity
  8
해칭선
100
AcDbCircle
 10
0.0
 20
0.0
 30
0.0
 40
3.0
  0
INSERT
  5
CD
330
1F
100
AcDbEntity
  8
0
  6
Continuous
 62
     7
100
AcDbBlockReference
 66
     1
  2
블럭10
 10
-19.13872709285549
 20
-24.06858805858911
 30
0.0
  0
ATTRIB
  5
CE
330
CD
100
AcDbEntity
  8
FORMAT
 62
     2
100
AcDbText
 10
-28.32002238159677
 20
-21.99322114575692
 30
0.0
 40
4.233333333333333
  1
E5021006 [ 4 FLUTE ]
 41
0.75
  7
SLDTEXTSTYLE0
 11
-28.32002238159677
 21
-24.10988781242359
 31
0.0
100
AcDbAttribute
  2
AUTOATTR0
 70
     0
 74
     1
  0
SEQEND
  5
CF
330
CD
100
AcDbEntity
  8
0
  6
Continuous
 62
     7
  0
HATCH
  5
D0
330
1F
100
AcDbEntity
  8
중심선
100
AcDbHatch
 10
0.0
 20
0.0
 30
0.0
210
0.0
220
0.0
230
1.0
  2
SOLID
 70
     1
 71
     0
 91
        1
 92
        0
 93
        4
 72
     1
 10
-13.42381778847464
 20
-7.821413756945162
 11
-16.87009303231192
 21
-7.821413756945162
 72
     1
 10
-16.87009303231192
 20
-7.821413756945162
 11
-18.99832289151594
 21
-10.35773933751774
 72
     1
 10
-18.99832289151594
 20
-10.35773933751774
 11
-15.55201456256551
 21
-10.35769990821525
 72
     1
 10
-15.55201456256551
 20
-10.35769990821525
 11
-13.42381778847464
 21
-7.821413756945162
 97
        0
 75
     0
 76
     1
 98
        1
 10
11.59594218949243
 20
27.97751131433094
  0
HATCH
  5
D1
330
1F
100
AcDbEntity
  8
중심선
100
AcDbHatch
 10
0.0
 20
0.0
 30
0.0
210
0.0
220
0.0
230
1.0
  2
SOLID
 70
     1
 71
     0
 91
        1
 92
        0
 93
        4
 72
     1
 10
-8.411053797438658
 20
-7.821413756945162
 11
-11.85732904127594
 21
-7.821413756945162
 72
     1
 10
-11.85732904127594
 20
-7.821413756945162
 11
-16.38846704963336
 21
-13.22141375694518
 72
     1
 10
-16.38846704963336
 20
-13.22141375694518
 11
-12.94219180579607
 21
-13.22141375694518
 72
     1
 10
-12.94219180579607
 20
-13.22141375694518
 11
-8.411053797438658
 21
-7.821413756945162
 97
        0
 75
     0
 76
     1
 98
        1
 10
11.59594218949243
 20
27.97751131433094
  0
HATCH
  5
D2
330
1F
100
AcDbEntity
  8
중심선
100
AcDbHatch
 10
0.0
 20
0.0
 30
0.0
210
0.0
220
0.0
230
1.0
  2
SOLID
 70
     1
 71
     0
 91
        1
 92
        0
 93
        4
 72
     1
 10
-3.398289806402763
 20
-7.821413756945141
 11
-6.844565050239908
 21
-7.821413756945162
 72
     1
 10
-6.844565050239908
 20
-7.821413756945162
 11
-13.89300195212915
 21
-16.22141375694518
 72
     1
 10
-13.89300195212915
 20
-16.22141375694518
 11
-10.44672670829187
 21
-16.22141375694518
 72
     1
 10
-10.44672670829187
 20
-16.22141375694518
 11
-3.398289806402763
 21
-7.821413756945141
 97
        0
 75
     0
 76
     1
 98
        1
 10
11.59594218949243
 20
27.97751131433094
  0
HATCH
  5
D3
330
1F
100
AcDbEntity
  8
중심선
100
AcDbHatch
 10
0.0
 20
0.0
 30
0.0
210
0.0
220
0.0
230
1.0
  2
SOLID
 70
     1
 71
     0
 91
        1
 92
        0
 93
        6
 72
     3
 10
1.401600624609408
 20
-12.02141375699644
 11
3.960054785062283
 21
1.540882976769353E-10
 40
0.3939339440162628
 50
17.09539180608436
 51
320.0019657685081
 73
     0
 72
     1
 10
3.084600280310005
 20
-10.60930776158347
 11
5.389902154011041
 21
-8.674981051535546
 72
     3
 10
1.401600624556561
 20
-12.02141375694531
 11
6.600054785286829
 21
-1.278976924368180E-13
 40
0.636358354079598
 50
39.99873849337411
 51
368.4976242363724
 73
     1
 72
     1
 10
7.826933116457171
 20
-11.06141375687519
 11
0.0816679313924844
 21
-11.06141375687519
 72
     1
 10
0.0816679313924844
 20
-11.06141375687519
 11
0.0816428869465504
 21
-12.98141375687508
 72
     1
 10
0.0816428869465504
 20
-12.98141375687508
 11
4.523022656418587
 21
-12.98141375687505
 97
        0
 75
     0
 76
     1
 98
        1
 10
11.59594218949243
 20
27.97751131433094
  0
DIMENSION
  5
D4
330
1F
100
AcDbEntity
  8
치수문자_일반주서
100
AcDbDimension
  2
_D
 10
2.481157664253921
 20
14.36708447148721
 30
0.0
 11
-8.86259233574608
 21
14.36708447148721
 31
0.0
 70
   160
  1
<>
 71
     2
 42
9.524999999999991
  3
SLDDIMSTYLE0
100
AcDbAlignedDimension
 13
12.00615766425391
 23
1.18624658553841
 33
0.0
 14
2.481157664253921
 24
1.19059186157632
 34
0.0
100
AcDbRotatedDimension
1001
ACAD
1000
DSTYLE
1002
{
1070
   171
1070
     6
1070
   273
1070
     5
1070
    41
1040
2.5
1070
   140
1040
2.5
1002
}
  0
DIMENSION
  5
E9
330
1F
100
AcDbEntity
  8
치수문자_일반주서
100
AcDbDimension
  2
_D_1
 10
-26.09384233574609
 20
30.08828966928999
 30
0.0
 11
-7.043842335746092
 21
30.08828966928999
 31
0.0
 70
   160
  1
<>
 71
     2
 42
38.09999999999999
  3
SLDDIMSTYLE0
100
AcDbAlignedDimension
 13
12.00615766425391
 23
1.18624658553841
 33
0.0
 14
-26.09384233574609
 24
1.270000000000001
 34
0.0
100
AcDbRotatedDimension
1001
ACAD
1000
DSTYLE
1002
{
1070
   171
1070
     6
1070
   273
1070
     5
1070
    41
1040
2.5
1070
   140
1040
2.5
1002
}
  0
DIMENSION
  5
FD
330
1F
100
AcDbEntity
  8
치수문자_일반주서
100
AcDbDimension
  2
_D_2
 10
-38.02961517357324
 20
-1.587500000000038
 30
0.0
 11
-38.02961517357332
 21
15.74374999999995
 31
0.0
 70
   160
  1
%%c<>
 71
     2
 42
3.174999999999983
 52
-270.0
  3
SLDDIMSTYLE0
100
AcDbAlignedDimension
 13
-25.77634233574609
 23
1.587499999999992
 33
0.0
 14
-25.77634233574609
 24
-1.587499999999992
 34
0.0
 50
90.0000000000002
100
AcDbRotatedDimension
1001
ACAD
1000
DSTYLE
1002
{
1070
   171
1070
     6
1070
   273
1070
     5
1070
    41
1040
2.5
1070
   140
1040
2.5
1002
}
  0
DIMENSION
  5
112
330
1F
100
AcDbEntity
  8
치수문자_일반주서
100
AcDbDimension
  2
_D_3
 10
20.64795671430361
 20
-1.190624999999958
 30
0.0
 11
20.64795671430356
 21
16.74874658553844
 31
0.0
 70
   160
  1
%%c<>
 71
     2
 42
2.3768715855384
 52
-270.0
  3
SLDDIMSTYLE0
100
AcDbAlignedDimension
 13
12.0061576642539
 23
1.18624658553841
 33
0.0
 14
12.00615766425391
 24
-1.19062499999999
 34
0.0
 50
90.0000000000002
100
AcDbRotatedDimension
1001
ACAD
1000
DSTYLE
1002
{
1070
   171
1070
     6
1070
   273
1070
     5
1070
    41
1040
2.5
1070
   140
1040
2.5
1002
}
  0
LINE
  5
126
330
1F
100
AcDbEntity
  8
참조1
100
AcDbLine
 10
76.33783746512287
 20
7.441074928723896
 30
0.0
 11
76.33783746512287
 21
-7.438925071276109
 31
0.0
  0
LINE
  5
127
330
1F
100
AcDbEntity
  8
참조1
100
AcDbLine
 10
89.03783746512288
 20
5.441074928723896
 30
0.0
 11
76.33783746512287
 21
5.441074928723896
 31
0.0
  0
SOLID
  5
128
330
1F
100
AcDbEntity
  8
참조1
100
AcDbTrace
 10
76.33783746512287
 20
5.441074928723896
 30
0.0
 11
82.68783746512287
 21
4.425074928723896
 31
0.0
 12
82.68783746512287
 22
6.457074928723896
 32
0.0
 13
82.68783746512287
 23
6.457074928723896
 33
0.0
  0
LINE
  5
129
330
1F
100
AcDbEntity
  8
참조1
100
AcDbLine
 10
89.03783746512288
 20
-5.438925071276109
 30
0.0
 11
76.33783746512287
 21
-5.438925071276109
 31
0.0
  0
SOLID
  5
12A
330
1F
100
AcDbEntity
  8
참조1
100
AcDbTrace
 10
76.33783746512287
 20
-5.438925071276109
 30
0.0
 11
82.68783746512287
 21
-6.454925071276109
 31
0.0
 12
82.68783746512287
 22
-4.422925071276109
 32
0.0
 13
82.68783746512287
 23
-4.422925071276109
 33
0.0
  0
MTEXT
  5
12B
330
1F
100
AcDbEntity
  8
참조1
100
AcDbMText
 10
85.72218759774887
 20
11.01136670591222
 30
0.0
 40
3.5
 41
0.0
 71
     1
 72
     1
  1
A
  7
SLDTEXTSTYLE0
 73
     1
 44
1.0
  0
MTEXT
  5
12C
330
1F
100
AcDbEntity
  8
참조1
100
AcDbMText
 10
85.72218759774887
 20
0.1313667059122201
 30
0.0
 40
3.5
 41
0.0
 71
     1
 72
     1
  1
A
  7
SLDTEXTSTYLE0
 73
     1
 44
1.0
  0
INSERT
  5
133
330
1F
100
AcDbEntity
  8
해칭선
100
AcDbBlockReference
  2
SW_DOWELSYMBOL_0
 10
0.0
 20
0.0
 30
0.0
  0
ENDSEC
  0
SECTION
  2
OBJECTS
  0
DICTIONARY
  5
C
330
0
100
AcDbDictionary
281
     1
  3
ACAD_GROUP
350
D
  3
ACAD_IMAGE_VARS
350
157
  3
ACAD_LAYOUT
350
1A
  3
ACAD_MLINESTYLE
350
17
  3
ACAD_PLOTSETTINGS
350
19
  3
ACAD_PLOTSTYLENAME
350
E
  3
ACAD_SCALELIST
350
47
  3
APPDATA
350
155
  3
DWGPROPS
350
2F3
  0
DICTIONARY
  5
2F1
330
1F
100
AcDbDictionary
280
     1
281
     1
  3
DIM_BOUNDING_BOXES_V1
360
2F2
  0
DICTIONARY
  5
D
102
{ACAD_REACTORS
330
C
102
}
330
C
100
AcDbDictionary
281
     1
  0
RASTERVARIABLES
  5
157
102
{ACAD_REACTORS
330
C
102
}
330
C
100
AcDbRasterVariables
 90
        0
 70
     1
 71
     1
 72
     1
  0
DICTIONARY
  5
1A
102
{ACAD_REACTORS
330
C
102
}
330
C
100
AcDbDictionary
281
     1
  3
Layout1
350
1E
  3
Layout2
350
26
  3
Model
350
22
  0
DICTIONARY
  5
17
102
{ACAD_REACTORS
330
C
102
}
330
C
100
AcDbDictionary
281
     1
  3
Standard
350
18
  0
DICTIONARY
  5
19
102
{ACAD_REACTORS
330
C
102
}
330
C
100
AcDbDictionary
281
     1
  0
ACDBDICTIONARYWDFLT
  5
E
102
{ACAD_REACTORS
330
C
102
}
330
C
100
AcDbDictionary
281
     1
  3
Normal
350
F
100
AcDbDictionaryWithDefault
340
F
  0
DICTIONARY
  5
47
102
{ACAD_REACTORS
330
C
102
}
330
C
100
AcDbDictionary
281
     1
  3
A0
350
48
  3
A1
350
49
  3
A2
350
4A
  3
A3
350
4B
  3
A4
350
4C
  3
A5
350
4D
  3
A6
350
4E
  3
A7
350
4F
  3
A8
350
50
  3
A9
350
51
  3
B0
350
52
  3
B1
350
53
  3
B2
350
54
  3
B3
350
55
  3
B4
350
56
  3
B5
350
57
  3
B6
350
58
  3
B7
350
59
  3
B8
350
5A
  3
B9
350
5B
  3
C0
350
5C
  3
C1
350
5D
  3
C2
350
5E
  3
C3
350
5F
  3
C4
350
60
  3
C5
350
61
  3
C6
350
62
  3
C7
350
63
  3
C8
350
64
  3
C9
350
65
  3
D0
350
66
  3
D1
350
67
  3
D2
350
68
  0
DICTIONARY
  5
155
102
{ACAD_REACTORS
330
C
102
}
330
C
100
AcDbDictionary
281
     1
  0
XRECORD
  5
2F3
102
{ACAD_REACTORS
330
C
102
}
330
C
100
AcDbXrecord
280
     1
  1
DWGPROPS COOKIE
  2

  3

  4

  6

  7

  8
12011056
  9

300
=
301
=
302
=
303
=
304
=
305
=
306
=
307
=
308
=
309
=
 40
0.0
 41
2458312.313811493
 42
2459719.232428032
  1

 90
        0
  0
DICTIONARY
  5
2F2
102
{ACAD_REACTORS
330
2F1
102
}
330
2F1
100
AcDbDictionary
281
     1
  0
LAYOUT
  5
1E
102
{ACAD_REACTORS
330
1A
102
}
330
1A
100
AcDbPlotSettings
  1

  2
none_device
  4

  6

 40
0.0
 41
0.0
 42
0.0
 43
0.0
 44
0.0
 45
0.0
 46
0.0
 47
0.0
 48
0.0
 49
0.0
140
0.0
141
0.0
142
1.0
143
1.0
 70
   688
 72
     1
 73
     0
 74
     5
  7

 75
    16
147
1.0
148
0.0
149
0.0
100
AcDbLayout
  1
Layout1
 70
     1
 71
     1
 10
0.0
 20
0.0
 11
420.0
 21
297.0
 12
0.0
 22
0.0
 32
0.0
 14
1.000000000000000E+20
 24
1.000000000000000E+20
 34
1.000000000000000E+20
 15
-1.000000000000000E+20
 25
-1.000000000000000E+20
 35
-1.000000000000000E+20
146
0.0
 13
0.0
 23
0.0
 33
0.0
 16
1.0
 26
0.0
 36
0.0
 17
0.0
 27
1.0
 37
0.0
 76
     0
330
1B
  0
LAYOUT
  5
26
102
{ACAD_REACTORS
330
1A
102
}
330
1A
100
AcDbPlotSettings
  1

  2
none_device
  4

  6

 40
0.0
 41
0.0
 42
0.0
 43
0.0
 44
0.0
 45
0.0
 46
0.0
 47
0.0
 48
0.0
 49
0.0
140
0.0
141
0.0
142
1.0
143
1.0
 70
   688
 72
     1
 73
     0
 74
     5
  7

 75
    16
147
1.0
148
0.0
149
0.0
100
AcDbLayout
  1
Layout2
 70
     1
 71
     2
 10
0.0
 20
0.0
 11
0.0
 21
0.0
 12
0.0
 22
0.0
 32
0.0
 14
0.0
 24
0.0
 34
0.0
 15
0.0
 25
0.0
 35
0.0
146
0.0
 13
0.0
 23
0.0
 33
0.0
 16
1.0
 26
0.0
 36
0.0
 17
0.0
 27
1.0
 37
0.0
 76
     0
330
23
  0
LAYOUT
  5
22
102
{ACAD_REACTORS
330
1A
102
}
330
1A
100
AcDbPlotSettings
  1

  2
none_device
  4
ANSI_A_(11.00_x_8.50_Inches)
  6

 40
6.35
 41
19.05
 42
6.35000508
 43
19.05000254
 44
279.4
 45
215.9
 46
104.8062265884952
 47
98.11244645606732
 48
0.0
 49
0.0
140
0.0
141
0.0
142
0.0737750454611526
143
1.0
 70
  1696
 72
     0
 73
     0
 74
     0
  7

 75
     0
147
0.0235690232323232
148
0.0
149
0.0
100
AcDbLayout
  1
Model
 70
     1
 71
     0
 10
0.0
 20
0.0
 11
420.0
 21
297.0
 12
0.0
 22
0.0
 32
0.0
 14
-41.40461517357335
 24
-39.99892507127612
 34
0.0
 15
89.03783746512288
 25
33.46328966928999
 35
0.0
146
0.0
 13
0.0
 23
0.0
 33
0.0
 16
1.0
 26
0.0
 36
0.0
 17
0.0
 27
1.0
 37
0.0
 76
     0
330
1F
331
29
  0
MLINESTYLE
  5
18
102
{ACAD_REACTORS
330
17
102
}
330
17
100
AcDbMlineStyle
  2
Standard
 70
     0
  3

 62
   256
 51
90.0
 52
90.0
 71
     2
 49
0.5
 62
   256
  6
BYLAYER
 49
-0.5
 62
   256
  6
BYLAYER
  0
ACDBPLACEHOLDER
  5
F
102
{ACAD_REACTORS
330
E
102
}
330
E
  0
SCALE
  5
48
102
{ACAD_REACTORS
330
47
102
}
330
47
100
AcDbScale
 70
     0
300
1:1
140
1.0
141
1.0
290
     1
  0
SCALE
  5
49
102
{ACAD_REACTORS
330
47
102
}
330
47
100
AcDbScale
 70
     0
300
1:2
140
1.0
141
2.0
290
     0
  0
SCALE
  5
4A
102
{ACAD_REACTORS
330
47
102
}
330
47
100
AcDbScale
 70
     0
300
1:4
140
1.0
141
4.0
290
     0
  0
SCALE
  5
4B
102
{ACAD_REACTORS
330
47
102
}
330
47
100
AcDbScale
 70
     0
300
1:5
140
1.0
141
5.0
290
     0
  0
SCALE
  5
4C
102
{ACAD_REACTORS
330
47
102
}
330
47
100
AcDbScale
 70
     0
300
1:8
140
1.0
141
8.0
290
     0
  0
SCALE
  5
4D
102
{ACAD_REACTORS
330
47
102
}
330
47
100
AcDbScale
 70
     0
300
1:10
140
1.0
141
10.0
290
     0
  0
SCALE
  5
4E
102
{ACAD_REACTORS
330
47
102
}
330
47
100
AcDbScale
 70
     0
300
1:16
140
1.0
141
16.0
290
     0
  0
SCALE
  5
4F
102
{ACAD_REACTORS
330
47
102
}
330
47
100
AcDbScale
 70
     0
300
1:20
140
1.0
141
20.0
290
     0
  0
SCALE
  5
50
102
{ACAD_REACTORS
330
47
102
}
330
47
100
AcDbScale
 70
     0
300
1:30
140
1.0
141
30.0
290
     0
  0
SCALE
  5
51
102
{ACAD_REACTORS
330
47
102
}
330
47
100
AcDbScale
 70
     0
300
1:40
140
1.0
141
40.0
290
     0
  0
SCALE
  5
52
102
{ACAD_REACTORS
330
47
102
}
330
47
100
AcDbScale
 70
     0
300
1:50
140
1.0
141
50.0
290
     0
  0
SCALE
  5
53
102
{ACAD_REACTORS
330
47
102
}
330
47
100
AcDbScale
 70
     0
300
1:100
140
1.0
141
100.0
290
     0
  0
SCALE
  5
54
102
{ACAD_REACTORS
330
47
102
}
330
47
100
AcDbScale
 70
     0
300
2:1
140
2.0
141
1.0
290
     0
  0
SCALE
  5
55
102
{ACAD_REACTORS
330
47
102
}
330
47
100
AcDbScale
 70
     0
300
4:1
140
4.0
141
1.0
290
     0
  0
SCALE
  5
56
102
{ACAD_REACTORS
330
47
102
}
330
47
100
AcDbScale
 70
     0
300
8:1
140
8.0
141
1.0
290
     0
  0
SCALE
  5
57
102
{ACAD_REACTORS
330
47
102
}
330
47
100
AcDbScale
 70
     0
300
10:1
140
10.0
141
1.0
290
     0
  0
SCALE
  5
58
102
{ACAD_REACTORS
330
47
102
}
330
47
100
AcDbScale
 70
     0
300
100:1
140
100.0
141
1.0
290
     0
  0
SCALE
  5
59
102
{ACAD_REACTORS
330
47
102
}
330
47
100
AcDbScale
 70
     0
300
1/128" = 1'-0"
140
0.0078125
141
12.0
290
     0
  0
SCALE
  5
5A
102
{ACAD_REACTORS
330
47
102
}
330
47
100
AcDbScale
 70
     0
300
1/64" = 1'-0"
140
0.015625
141
12.0
290
     0
  0
SCALE
  5
5B
102
{ACAD_REACTORS
330
47
102
}
330
47
100
AcDbScale
 70
     0
300
1/32" = 1'-0"
140
0.03125
141
12.0
290
     0
  0
SCALE
  5
5C
102
{ACAD_REACTORS
330
47
102
}
330
47
100
AcDbScale
 70
     0
300
1/16" = 1'-0"
140
0.0625
141
12.0
290
     0
  0
SCALE
  5
5D
102
{ACAD_REACTORS
330
47
102
}
330
47
100
AcDbScale
 70
     0
300
3/32" = 1'-0"
140
0.09375
141
12.0
290
     0
  0
SCALE
  5
5E
102
{ACAD_REACTORS
330
47
102
}
330
47
100
AcDbScale
 70
     0
300
1/8" = 1'-0"
140
0.125
141
12.0
290
     0
  0
SCALE
  5
5F
102
{ACAD_REACTORS
330
47
102
}
330
47
100
AcDbScale
 70
     0
300
3/16" = 1'-0"
140
0.1875
141
12.0
290
     0
  0
SCALE
  5
60
102
{ACAD_REACTORS
330
47
102
}
330
47
100
AcDbScale
 70
     0
300
1/4" = 1'-0"
140
0.25
141
12.0
290
     0
  0
SCALE
  5
61
102
{ACAD_REACTORS
330
47
102
}
330
47
100
AcDbScale
 70
     0
300
3/8" = 1'-0"
140
0.375
141
12.0
290
     0
  0
SCALE
  5
62
102
{ACAD_REACTORS
330
47
102
}
330
47
100
AcDbScale
 70
     0
300
1/2" = 1'-0"
140
0.5
141
12.0
290
     0
  0
SCALE
  5
63
102
{ACAD_REACTORS
330
47
102
}
330
47
100
AcDbScale
 70
     0
300
3/4" = 1'-0"
140
0.75
141
12.0
290
     0
  0
SCALE
  5
64
102
{ACAD_REACTORS
330
47
102
}
330
47
100
AcDbScale
 70
     0
300
1" = 1'-0"
140
1.0
141
12.0
290
     0
  0
SCALE
  5
65
102
{ACAD_REACTORS
330
47
102
}
330
47
100
AcDbScale
 70
     0
300
1-1/2" = 1'-0"
140
1.5
141
12.0
290
     0
  0
SCALE
  5
66
102
{ACAD_REACTORS
330
47
102
}
330
47
100
AcDbScale
 70
     0
300
3" = 1'-0"
140
3.0
141
12.0
290
     0
  0
SCALE
  5
67
102
{ACAD_REACTORS
330
47
102
}
330
47
100
AcDbScale
 70
     0
300
6" = 1'-0"
140
6.0
141
12.0
290
     0
  0
SCALE
  5
68
102
{ACAD_REACTORS
330
47
102
}
330
47
100
AcDbScale
 70
     0
300
1'-0" = 1'-0"
140
12.0
141
12.0
290
     0
  0
ENDSEC
  0
EOF
