  0
SECTION
  2
HEADER
  9
$ACADVER
  1
AC1015
  9
$ACADMAINTVER
 70
     6
  9
$DWGCODEPAGE
  3
ANSI_949
  9
$INSBASE
 10
0.0
 20
0.0
 30
0.0
  9
$EXTMIN
 10
-51.82500000000007
 20
-49.97073246008785
 30
0.0
  9
$EXTMAX
 10
49.80968704837714
 20
43.13857492872395
 30
0.0
  9
$LIMMIN
 10
0.0
 20
0.0
  9
$LIMMAX
 10
420.0
 20
297.0
  9
$ORTHOMODE
 70
     0
  9
$REGENMODE
 70
     1
  9
$FILLMODE
 70
     1
  9
$QTEXTMODE
 70
     0
  9
$MIRRTEXT
 70
     1
  9
$LTSCALE
 40
1.0
  9
$ATTMODE
 70
     1
  9
$TEXTSIZE
 40
3.5
  9
$TRACEWID
 40
1.0
  9
$TEXTSTYLE
  7
Standard
  9
$CLAYER
  8
0
  9
$CELTYPE
  6
ByLayer
  9
$CECOLOR
 62
   256
  9
$CELTSCALE
 40
1.0
  9
$DISPSILH
 70
     0
  9
$DIMSCALE
 40
1.0
  9
$DIMASZ
 40
3.302
  9
$DIMEXO
 40
1.0
  9
$DIMDLI
 40
3.75
  9
$DIMRND
 40
0.0
  9
$DIMDLE
 40
0.0
  9
$DIMEXE
 40
1.0
  9
$DIMTP
 40
0.0
  9
$DIMTM
 40
0.0
  9
$DIMTXT
 40
3.5
  9
$DIMCEN
 40
2.5
  9
$DIMTSZ
 40
0.0
  9
$DIMTOL
 70
     0
  9
$DIMLIM
 70
     0
  9
$DIMTIH
 70
     1
  9
$DIMTOH
 70
     1
  9
$DIMSE1
 70
     0
  9
$DIMSE2
 70
     0
  9
$DIMTAD
 70
     1
  9
$DIMZIN
 70
     0
  9
$DIMBLK
  1

  9
$DIMASO
 70
     1
  9
$DIMSHO
 70
     1
  9
$DIMPOST
  1

  9
$DIMAPOST
  1

  9
$DIMALT
 70
     0
  9
$DIMALTD
 70
     3
  9
$DIMALTF
 40
0.0393700787401575
  9
$DIMLFAC
 40
1.0
  9
$DIMTOFL
 70
     1
  9
$DIMTVP
 40
0.0
  9
$DIMTIX
 70
     0
  9
$DIMSOXD
 70
     0
  9
$DIMSAH
 70
     0
  9
$DIMBLK1
  1

  9
$DIMBLK2
  1

  9
$DIMSTYLE
  2
ISO-25
  9
$DIMCLRD
 70
     0
  9
$DIMCLRE
 70
     0
  9
$DIMCLRT
 70
     0
  9
$DIMTFAC
 40
1.0
  9
$DIMGAP
 40
1.524
  9
$DIMJUST
 70
     0
  9
$DIMSD1
 70
     0
  9
$DIMSD2
 70
     0
  9
$DIMTOLJ
 70
     0
  9
$DIMTZIN
 70
     0
  9
$DIMALTZ
 70
     0
  9
$DIMALTTZ
 70
     0
  9
$DIMUPT
 70
     0
  9
$DIMDEC
 70
     2
  9
$DIMTDEC
 70
     2
  9
$DIMALTU
 70
     2
  9
$DIMALTTD
 70
     3
  9
$DIMTXSTY
  7
Standard
  9
$DIMAUNIT
 70
     0
  9
$DIMADEC
 70
     2
  9
$DIMALTRND
 40
0.0
  9
$DIMAZIN
 70
     0
  9
$DIMDSEP
 70
    44
  9
$DIMATFIT
 70
     3
  9
$DIMFRAC
 70
     0
  9
$DIMLDRBLK
  1

  9
$DIMLUNIT
 70
     2
  9
$DIMLWD
 70
    -2
  9
$DIMLWE
 70
    -2
  9
$DIMTMOVE
 70
     0
  9
$LUNITS
 70
     2
  9
$LUPREC
 70
     2
  9
$SKETCHINC
 40
1.0
  9
$FILLETRAD
 40
10.0
  9
$AUNITS
 70
     0
  9
$AUPREC
 70
     2
  9
$MENU
  1
.
  9
$ELEVATION
 40
0.0
  9
$PELEVATION
 40
0.0
  9
$THICKNESS
 40
0.0
  9
$LIMCHECK
 70
     0
  9
$CHAMFERA
 40
0.0
  9
$CHAMFERB
 40
0.0
  9
$CHAMFERC
 40
0.0
  9
$CHAMFERD
 40
0.0
  9
$SKPOLY
 70
     0
  9
$TDCREATE
 40
2458263.618299491
  9
$TDUCREATE
 40
2458263.243299491
  9
$TDUPDATE
 40
2459731.346223252
  9
$TDUUPDATE
 40
2459730.971223252
  9
$TDINDWG
 40
0.0003209954
  9
$TDUSRTIMER
 40
0.0001553125
  9
$USRTIMER
 70
     1
  9
$ANGBASE
 50
0.0
  9
$ANGDIR
 70
     0
  9
$PDMODE
 70
     0
  9
$PDSIZE
 40
-1.0
  9
$PLINEWID
 40
0.0
  9
$SPLFRAME
 70
     0
  9
$SPLINETYPE
 70
     6
  9
$SPLINESEGS
 70
     8
  9
$HANDSEED
  5
2E5
  9
$SURFTAB1
 70
     6
  9
$SURFTAB2
 70
     6
  9
$SURFTYPE
 70
     6
  9
$SURFU
 70
     6
  9
$SURFV
 70
     6
  9
$UCSBASE
  2

  9
$UCSNAME
  2

  9
$UCSORG
 10
0.0
 20
0.0
 30
0.0
  9
$UCSXDIR
 10
1.0
 20
0.0
 30
0.0
  9
$UCSYDIR
 10
0.0
 20
1.0
 30
0.0
  9
$UCSORTHOREF
  2

  9
$UCSORTHOVIEW
 70
     0
  9
$UCSORGTOP
 10
0.0
 20
0.0
 30
0.0
  9
$UCSORGBOTTOM
 10
0.0
 20
0.0
 30
0.0
  9
$UCSORGLEFT
 10
0.0
 20
0.0
 30
0.0
  9
$UCSORGRIGHT
 10
0.0
 20
0.0
 30
0.0
  9
$UCSORGFRONT
 10
0.0
 20
0.0
 30
0.0
  9
$UCSORGBACK
 10
0.0
 20
0.0
 30
0.0
  9
$PUCSBASE
  2

  9
$PUCSNAME
  2

  9
$PUCSORG
 10
0.0
 20
0.0
 30
0.0
  9
$PUCSXDIR
 10
1.0
 20
0.0
 30
0.0
  9
$PUCSYDIR
 10
0.0
 20
1.0
 30
0.0
  9
$PUCSORTHOREF
  2

  9
$PUCSORTHOVIEW
 70
     0
  9
$PUCSORGTOP
 10
0.0
 20
0.0
 30
0.0
  9
$PUCSORGBOTTOM
 10
0.0
 20
0.0
 30
0.0
  9
$PUCSORGLEFT
 10
0.0
 20
0.0
 30
0.0
  9
$PUCSORGRIGHT
 10
0.0
 20
0.0
 30
0.0
  9
$PUCSORGFRONT
 10
0.0
 20
0.0
 30
0.0
  9
$PUCSORGBACK
 10
0.0
 20
0.0
 30
0.0
  9
$USERI1
 70
     0
  9
$USERI2
 70
     0
  9
$USERI3
 70
     0
  9
$USERI4
 70
     0
  9
$USERI5
 70
     0
  9
$USERR1
 40
0.0
  9
$USERR2
 40
0.0
  9
$USERR3
 40
0.0
  9
$USERR4
 40
0.0
  9
$USERR5
 40
0.0
  9
$WORLDVIEW
 70
     1
  9
$SHADEDGE
 70
     3
  9
$SHADEDIF
 70
    70
  9
$TILEMODE
 70
     1
  9
$MAXACTVP
 70
    64
  9
$PINSBASE
 10
0.0
 20
0.0
 30
0.0
  9
$PLIMCHECK
 70
     0
  9
$PEXTMIN
 10
1.000000000000000E+20
 20
1.000000000000000E+20
 30
1.000000000000000E+20
  9
$PEXTMAX
 10
-1.000000000000000E+20
 20
-1.000000000000000E+20
 30
-1.000000000000000E+20
  9
$PLIMMIN
 10
0.0
 20
0.0
  9
$PLIMMAX
 10
0.0
 20
0.0
  9
$UNITMODE
 70
     0
  9
$VISRETAIN
 70
     1
  9
$PLINEGEN
 70
     0
  9
$PSLTSCALE
 70
     1
  9
$TREEDEPTH
 70
  3020
  9
$CMLSTYLE
  2
Standard
  9
$CMLJUST
 70
     0
  9
$CMLSCALE
 40
20.0
  9
$PROXYGRAPHICS
 70
     1
  9
$MEASUREMENT
 70
     1
  9
$CELWEIGHT
370
    -1
  9
$ENDCAPS
280
     0
  9
$JOINSTYLE
280
     0
  9
$LWDISPLAY
290
     1
  9
$INSUNITS
 70
     4
  9
$HYPERLINKBASE
  1

  9
$STYLESHEET
  1

  9
$XEDIT
290
     1
  9
$CEPSNTYPE
380
     0
  9
$PSTYLEMODE
290
     1
  9
$FINGERPRINTGUID
  2
{CE38F681-080B-4819-A51D-D0C6CC12CA56}
  9
$VERSIONGUID
  2
{FAEB1C32-E019-11D5-929B-00C0DF256EC4}
  9
$EXTNAMES
290
     1
  9
$PSVPSCALE
 40
0.0
  9
$OLESTARTUP
290
     0
  0
ENDSEC
  0
SECTION
  2
CLASSES
  0
CLASS
  1
ACDBDICTIONARYWDFLT
  2
AcDbDictionaryWithDefault
  3
ObjectDBX Classes
 90
        0
280
     0
281
     0
  0
CLASS
  1
VISUALSTYLE
  2
AcDbVisualStyle
  3
ObjectDBX Classes
 90
     4095
280
     0
281
     0
  0
CLASS
  1
MATERIAL
  2
AcDbMaterial
  3
ObjectDBX Classes
 90
     1153
280
     0
281
     0
  0
CLASS
  1
SCALE
  2
AcDbScale
  3
ObjectDBX Classes
 90
     1153
280
     0
281
     0
  0
CLASS
  1
TABLESTYLE
  2
AcDbTableStyle
  3
ObjectDBX Classes
 90
     4095
280
     0
281
     0
  0
CLASS
  1
MLEADERSTYLE
  2
AcDbMLeaderStyle
  3
ACDB_MLEADERSTYLE_CLASS
 90
     4095
280
     0
281
     0
  0
CLASS
  1
SUN
  2
AcDbSun
  3
SCENEOE
 90
     1153
280
     0
281
     0
  0
CLASS
  1
ACDBPLACEHOLDER
  2
AcDbPlaceHolder
  3
ObjectDBX Classes
 90
        0
280
     0
281
     0
  0
CLASS
  1
LAYOUT
  2
AcDbLayout
  3
ObjectDBX Classes
 90
        0
280
     0
281
     0
  0
CLASS
  1
RASTERVARIABLES
  2
AcDbRasterVariables
  3
ISM
 90
        0
280
     0
281
     0
  0
CLASS
  1
SORTENTSTABLE
  2
AcDbSortentsTable
  3
ObjectDBX Classes
 90
        0
280
     0
281
     0
  0
ENDSEC
  0
SECTION
  2
TABLES
  0
TABLE
  2
VPORT
  5
8
330
0
100
AcDbSymbolTable
 70
     1
  0
VPORT
  5
29
330
8
100
AcDbSymbolTableRecord
100
AcDbViewportTableRecord
  2
*Active
 70
     0
 10
0.0
 20
0.0
 11
1.0
 21
1.0
 12
-17.83664789895932
 22
-4.433117122671106
 13
0.0
 23
0.0
 14
10.0
 24
10.0
 15
10.0
 25
10.0
 16
0.0
 26
0.0
 36
1.0
 17
0.0
 27
0.0
 37
0.0
 40
176.2262562997258
 41
1.531481481481481
 42
50.0
 43
0.0
 44
0.0
 50
0.0
 51
0.0
 71
    16
 72
  2000
 73
     1
 74
     3
 75
     0
 76
     0
 77
     0
 78
     0
281
     0
 65
     1
110
0.0
120
0.0
130
0.0
111
1.0
121
0.0
131
0.0
112
0.0
122
1.0
132
0.0
 79
     0
146
0.0
  0
ENDTAB
  0
TABLE
  2
LTYPE
  5
5
330
0
100
AcDbSymbolTable
 70
     6
  0
LTYPE
  5
14
330
5
100
AcDbSymbolTableRecord
100
AcDbLinetypeTableRecord
  2
ByBlock
 70
     0
  3

 72
    65
 73
     0
 40
0.0
  0
LTYPE
  5
15
330
5
100
AcDbSymbolTableRecord
100
AcDbLinetypeTableRecord
  2
ByLayer
 70
     0
  3

 72
    65
 73
     0
 40
0.0
  0
LTYPE
  5
16
330
5
100
AcDbSymbolTableRecord
100
AcDbLinetypeTableRecord
  2
Continuous
 70
     0
  3
Solid line
 72
    65
 73
     0
 40
0.0
  0
LTYPE
  5
6E
330
5
100
AcDbSymbolTableRecord
100
AcDbLinetypeTableRecord
  2
HIDDEN
 70
     0
  3
Hidden __ __ __ __ __ __ __ __ __ __ __ __ __ __
 72
    65
 73
     2
 40
1.905
 49
1.27
 74
     0
 49
-0.635
 74
     0
  0
LTYPE
  5
6F
330
5
100
AcDbSymbolTableRecord
100
AcDbLinetypeTableRecord
  2
PHANTOM
 70
     0
  3
Phantom ______  __  __  ______  __  __  ______
 72
    65
 73
     6
 40
12.7
 49
6.35
 74
     0
 49
-1.27
 74
     0
 49
1.27
 74
     0
 49
-1.27
 74
     0
 49
1.27
 74
     0
 49
-1.27
 74
     0
  0
LTYPE
  5
70
330
5
100
AcDbSymbolTableRecord
100
AcDbLinetypeTableRecord
  2
CENTER
 70
     0
  3
Center ____ _ ____ _ ____ _ ____ _ ____ _ ____
 72
    65
 73
     4
 40
10.16
 49
6.35
 74
     0
 49
-1.27
 74
     0
 49
1.27
 74
     0
 49
-1.27
 74
     0
  0
LTYPE
  5
71
330
5
100
AcDbSymbolTableRecord
100
AcDbLinetypeTableRecord
  2
CENTERX2
 70
     0
  3
Center (2x) ________  __  ________  __  _____
 72
    65
 73
     4
 40
20.32
 49
12.7
 74
     0
 49
-2.54
 74
     0
 49
2.54
 74
     0
 49
-2.54
 74
     0
  0
LTYPE
  5
72
330
5
100
AcDbSymbolTableRecord
100
AcDbLinetypeTableRecord
  2
DOT2
 70
     0
  3
Dot (.5x) ........................................
 72
    65
 73
     2
 40
0.635
 49
0.0
 74
     0
 49
-0.635
 74
     0
  0
ENDTAB
  0
TABLE
  2
LAYER
  5
2
102
{ACAD_XDICTIONARY
360
228
102
}
330
0
100
AcDbSymbolTable
 70
    17
  0
LAYER
  5
10
330
2
100
AcDbSymbolTableRecord
100
AcDbLayerTableRecord
  2
0
 70
     0
 62
     7
  6
Continuous
370
    -3
390
F
  0
LAYER
  5
73
330
2
100
AcDbSymbolTableRecord
100
AcDbLayerTableRecord
  2
FORMAT
 70
     0
 62
     2
  6
Continuous
370
    -3
390
F
  0
LAYER
  5
74
330
2
100
AcDbSymbolTableRecord
100
AcDbLayerTableRecord
  2
외형선
 70
     0
 62
   100
  6
Continuous
370
    35
390
F
  0
LAYER
  5
75
330
2
100
AcDbSymbolTableRecord
100
AcDbLayerTableRecord
  2
숨은선
 70
     0
 62
     2
  6
HIDDEN
370
    25
390
F
  0
LAYER
  5
76
330
2
100
AcDbSymbolTableRecord
100
AcDbLayerTableRecord
  2
중심선
 70
     0
 62
     1
  6
CENTERX2
370
    -3
390
F
  0
LAYER
  5
77
330
2
100
AcDbSymbolTableRecord
100
AcDbLayerTableRecord
  2
파단선
 70
     0
 62
     4
  6
Continuous
370
    -3
390
F
  0
LAYER
  5
78
330
2
100
AcDbSymbolTableRecord
100
AcDbLayerTableRecord
  2
해칭선
 70
     0
 62
     4
  6
Continuous
370
    -3
390
F
  0
LAYER
  5
79
330
2
100
AcDbSymbolTableRecord
100
AcDbLayerTableRecord
  2
가는실선
 70
     0
 62
     4
  6
Continuous
370
    -3
390
F
  0
LAYER
  5
7A
330
2
100
AcDbSymbolTableRecord
100
AcDbLayerTableRecord
  2
치수_보조선
 70
     0
 62
     4
  6
Continuous
370
    -3
390
F
  0
LAYER
  5
7B
330
2
100
AcDbSymbolTableRecord
100
AcDbLayerTableRecord
  2
치수문자_일반주서
 70
     0
 62
     7
  6
Continuous
370
    25
390
F
  0
LAYER
  5
7C
330
2
100
AcDbSymbolTableRecord
100
AcDbLayerTableRecord
  2
개별주서
 70
     0
 62
   100
  6
Continuous
370
    35
390
F
  0
LAYER
  5
7D
330
2
100
AcDbSymbolTableRecord
100
AcDbLayerTableRecord
  2
중간선
 70
     0
 62
     2
  6
Continuous
370
    25
390
F
  0
LAYER
  5
7E
330
2
100
AcDbSymbolTableRecord
100
AcDbLayerTableRecord
  2
윤곽선
 70
     0
 62
     3
  6
Continuous
370
    50
390
F
  0
LAYER
  5
7F
330
2
100
AcDbSymbolTableRecord
100
AcDbLayerTableRecord
  2
중심마크
 70
     0
 62
   100
  6
Continuous
370
    35
390
F
  0
LAYER
  5
80
330
2
100
AcDbSymbolTableRecord
100
AcDbLayerTableRecord
  2
가상선
 70
     0
 62
     4
  6
PHANTOM
370
    -3
390
F
  0
LAYER
  5
81
330
2
100
AcDbSymbolTableRecord
100
AcDbLayerTableRecord
  2
특수지정선
 70
     0
 62
     5
  6
CENTERX2
370
    70
390
F
  0
LAYER
  5
16A
330
2
100
AcDbSymbolTableRecord
100
AcDbLayerTableRecord
  2
Defpoints
 70
     0
 62
     7
  6
Continuous
290
     0
370
    -3
390
F
  0
ENDTAB
  0
TABLE
  2
STYLE
  5
3
330
0
100
AcDbSymbolTable
 70
     2
  0
STYLE
  5
11
330
3
100
AcDbSymbolTableRecord
100
AcDbTextStyleTableRecord
  2
Standard
 70
     0
 40
0.0
 41
1.0
 50
0.0
 71
     0
 42
3.5
  3
txt
  4

  0
STYLE
  5
97
330
3
100
AcDbSymbolTableRecord
100
AcDbTextStyleTableRecord
  2
SLDTEXTSTYLE0
 70
     0
 40
0.0
 41
0.75
 50
0.0
 71
     0
 42
3.5
  3
TXT
  4

  0
ENDTAB
  0
TABLE
  2
VIEW
  5
6
330
0
100
AcDbSymbolTable
 70
     0
  0
ENDTAB
  0
TABLE
  2
UCS
  5
7
330
0
100
AcDbSymbolTable
 70
     0
  0
ENDTAB
  0
TABLE
  2
APPID
  5
9
330
0
100
AcDbSymbolTable
 70
     2
  0
APPID
  5
12
330
9
100
AcDbSymbolTableRecord
100
AcDbRegAppTableRecord
  2
ACAD
 70
     0
  0
APPID
  5
19A
330
9
100
AcDbSymbolTableRecord
100
AcDbRegAppTableRecord
  2
PE_URL
 70
     0
  0
ENDTAB
  0
TABLE
  2
DIMSTYLE
  5
A
330
0
100
AcDbSymbolTable
 70
     5
100
AcDbDimStyleTable
  0
DIMSTYLE
105
27
330
A
100
AcDbSymbolTableRecord
100
AcDbDimStyleTableRecord
  2
ISO-25
 70
     0
 41
2.5
 42
0.625
 43
3.75
 44
1.25
 73
     0
 74
     0
 77
     1
 78
     8
140
2.5
141
2.5
143
0.03937007874016
147
0.625
171
     3
172
     1
178
     0
271
     2
272
     2
274
     3
278
    44
283
     0
284
     8
340
11
  0
DIMSTYLE
105
EE
102
{ACAD_REACTORS
330
ED
102
}
330
A
100
AcDbSymbolTableRecord
100
AcDbDimStyleTableRecord
  2
SLDDIMSTYLE0
 70
     0
 41
3.302
 44
0.0
 45
0.000000001
 73
     0
 74
     0
 77
     1
 78
     4
 79
     1
140
3.5
143
0.0393700787401575
147
0.875
148
0.000000001
170
     1
173
     1
178
     0
271
     2
272
     2
276
     2
284
    12
340
97
  0
DIMSTYLE
105
102
102
{ACAD_REACTORS
330
101
330
116
330
12B
102
}
330
A
100
AcDbSymbolTableRecord
100
AcDbDimStyleTableRecord
  2
SLDDIMSTYLE1
 70
     0
 41
3.302
 44
0.0
 45
0.000000001
 73
     0
 74
     0
 77
     1
 78
    12
 79
     3
140
3.5
143
0.0393700787401575
147
0.875
148
0.000000001
170
     1
172
     1
173
     1
178
     0
271
     2
272
     2
276
     2
284
    12
289
     0
340
97
  0
DIMSTYLE
105
198
330
A
100
AcDbSymbolTableRecord
100
AcDbDimStyleTableRecord
  2
SLDDIMSTYLE2
 70
     0
 41
3.302
 44
0.0
 45
0.000000001
 73
     0
 74
     0
 77
     1
 78
    12
 79
     3
140
3.5
147
0.875
172
     1
173
     1
178
     0
271
     2
272
     2
276
     2
284
    12
289
     0
340
97
  0
DIMSTYLE
105
199
102
{ACAD_REACTORS
330
210
330
1E9
330
1F6
330
203
102
}
330
A
100
AcDbSymbolTableRecord
100
AcDbDimStyleTableRecord
  2
SLDDIMSTYLE3
 70
     0
 41
3.302
 44
0.0
 45
0.000000001
 73
     0
 74
     0
 77
     1
 78
    12
 79
     3
140
3.5
143
0.0393700787401575
147
0.875
148
0.000000001
170
     1
172
     1
173
     1
178
     0
271
     2
272
     2
276
     2
284
    12
289
     0
340
97
  0
ENDTAB
  0
TABLE
  2
BLOCK_RECORD
  5
1
330
0
100
AcDbSymbolTable
 70
    15
  0
BLOCK_RECORD
  5
1F
102
{ACAD_XDICTIONARY
360
2E1
102
}
330
1
100
AcDbSymbolTableRecord
100
AcDbBlockTableRecord
  2
*Model_Space
340
22
  0
BLOCK_RECORD
  5
1B
330
1
100
AcDbSymbolTableRecord
100
AcDbBlockTableRecord
  2
*Paper_Space
340
1E
  0
BLOCK_RECORD
  5
23
330
1
100
AcDbSymbolTableRecord
100
AcDbBlockTableRecord
  2
*Paper_Space0
340
26
  0
BLOCK_RECORD
  5
82
330
1
100
AcDbSymbolTableRecord
100
AcDbBlockTableRecord
  2
블럭10
340
0
102
{BLKREFS
331
E6
102
}
  0
BLOCK_RECORD
  5
EF
330
1
100
AcDbSymbolTableRecord
100
AcDbBlockTableRecord
  2
_D
340
0
  0
BLOCK_RECORD
  5
103
330
1
100
AcDbSymbolTableRecord
100
AcDbBlockTableRecord
  2
_D_1
340
0
  0
BLOCK_RECORD
  5
117
330
1
100
AcDbSymbolTableRecord
100
AcDbBlockTableRecord
  2
_D_2
340
0
  0
BLOCK_RECORD
  5
12C
330
1
100
AcDbSymbolTableRecord
100
AcDbBlockTableRecord
  2
_D_3
340
0
  0
BLOCK_RECORD
  5
13F
330
1
100
AcDbSymbolTableRecord
100
AcDbBlockTableRecord
  2
SW_DOWELSYMBOL_0
340
0
102
{BLKREFS
331
145
331
21D
331
0
102
}
  0
BLOCK_RECORD
  5
22C
330
1
100
AcDbSymbolTableRecord
100
AcDbBlockTableRecord
  2
*D8
340
0
  0
BLOCK_RECORD
  5
238
330
1
100
AcDbSymbolTableRecord
100
AcDbBlockTableRecord
  2
*D9
340
0
  0
BLOCK_RECORD
  5
244
330
1
100
AcDbSymbolTableRecord
100
AcDbBlockTableRecord
  2
*D10
340
0
  0
BLOCK_RECORD
  5
250
330
1
100
AcDbSymbolTableRecord
100
AcDbBlockTableRecord
  2
*D11
340
0
  0
BLOCK_RECORD
  5
2AD
330
1
100
AcDbSymbolTableRecord
100
AcDbBlockTableRecord
  2
*D12
340
0
  0
BLOCK_RECORD
  5
2B9
330
1
100
AcDbSymbolTableRecord
100
AcDbBlockTableRecord
  2
*D13
340
0
  0
BLOCK_RECORD
  5
2C5
330
1
100
AcDbSymbolTableRecord
100
AcDbBlockTableRecord
  2
*D14
340
0
  0
BLOCK_RECORD
  5
2D1
330
1
100
AcDbSymbolTableRecord
100
AcDbBlockTableRecord
  2
*D15
340
0
  0
ENDTAB
  0
ENDSEC
  0
SECTION
  2
BLOCKS
  0
BLOCK
  5
20
330
1F
100
AcDbEntity
  8
0
100
AcDbBlockBegin
  2
*Model_Space
 70
     0
 10
0.0
 20
0.0
 30
0.0
  3
*Model_Space
  1
*Model_Space
  0
ENDBLK
  5
21
330
1F
100
AcDbEntity
  8
0
100
AcDbBlockEnd
  0
BLOCK
  5
1C
330
1B
100
AcDbEntity
 67
     1
  8
0
100
AcDbBlockBegin
  2
*Paper_Space
 70
     0
 10
0.0
 20
0.0
 30
0.0
  3
*Paper_Space
  1
*Paper_Space
  0
ENDBLK
  5
1D
330
1B
100
AcDbEntity
 67
     1
  8
0
100
AcDbBlockEnd
  0
BLOCK
  5
24
330
23
100
AcDbEntity
  8
0
100
AcDbBlockBegin
  2
*Paper_Space0
 70
     0
 10
0.0
 20
0.0
 30
0.0
  3
*Paper_Space0
  1
*Paper_Space0
  0
ENDBLK
  5
25
330
23
100
AcDbEntity
  8
0
100
AcDbBlockEnd
  0
BLOCK
  5
83
330
82
100
AcDbEntity
  8
0
100
AcDbBlockBegin
  2
블럭10
 70
     2
 10
0.0
 20
0.0
 30
0.0
  3
블럭10
  1
블럭10
  0
ELLIPSE
  5
85
330
82
100
AcDbEntity
  8
중심선
100
AcDbEllipse
 10
20.54032771741204
 20
12.0471743016438
 30
0.0
 11
6.600054785286829
 21
-1.261213355974178E-13
 31
0.0
210
0.0
220
0.0
230
1.0
 40
0.636358354079598
 41
0.9219305317359503
 42
6.513795318482858
  0
ELLIPSE
  5
86
330
82
100
AcDbEntity
  8
중심선
100
AcDbEllipse
 10
20.54032771746488
 20
12.04717430159265
 30
0.0
 11
3.960054785062283
 21
1.540847449632565E-10
 31
0.0
210
0.0
220
0.0
230
1.0
 40
0.3939339440162632
 41
1.131841032648279
 42
5.62031148352944
  0
LINE
  5
87
330
82
100
AcDbEntity
  8
중심선
100
AcDbLine
 10
2.268634060543552
 20
16.24717430164393
 30
0.0
 11
5.714909304380834
 21
16.24717430164393
 31
0.0
  0
LINE
  5
88
330
82
100
AcDbEntity
  8
중심선
100
AcDbLine
 10
5.245725140726316
 20
7.84717430164391
 30
0.0
 11
8.692000384563599
 21
7.84717430164391
 31
0.0
  0
LINE
  5
89
330
82
100
AcDbEntity
  8
중심선
100
AcDbLine
 10
15.74043728645272
 20
16.24717430164393
 30
0.0
 11
8.692000384563599
 21
7.84717430164391
 31
0.0
  0
LINE
  5
8A
330
82
100
AcDbEntity
  8
중심선
100
AcDbLine
 10
0.1404042013395286
 20
13.71084872107135
 30
0.0
 11
3.58671253028996
 21
13.71088815037384
 31
0.0
  0
LINE
  5
8B
330
82
100
AcDbEntity
  8
중심선
100
AcDbLine
 10
2.750260043222114
 20
10.84717430164391
 30
0.0
 11
6.196535287059397
 21
10.84717430164391
 31
0.0
  0
LINE
  5
8C
330
82
100
AcDbEntity
  8
중심선
100
AcDbLine
 10
12.29416204261559
 20
16.24717430164393
 30
0.0
 11
5.245725140726316
 21
7.84717430164391
 31
0.0
  0
LINE
  5
8D
330
82
100
AcDbEntity
  8
중심선
100
AcDbLine
 10
10.72767329541681
 20
16.24717430164393
 30
0.0
 11
6.196535287059397
 21
10.84717430164391
 31
0.0
  0
LINE
  5
8E
330
82
100
AcDbEntity
  8
중심선
100
AcDbLine
 10
7.28139805157953
 20
16.24717430164393
 30
0.0
 11
2.750260043222114
 21
10.84717430164391
 31
0.0
  0
LINE
  5
8F
330
82
100
AcDbEntity
  8
중심선
100
AcDbLine
 10
5.714909304380834
 20
16.24717430164393
 30
0.0
 11
3.58671253028996
 21
13.71088815037384
 31
0.0
  0
LINE
  5
90
330
82
100
AcDbEntity
  8
중심선
100
AcDbLine
 10
2.268634060543552
 20
16.24717430164393
 30
0.0
 11
0.1404042013395286
 21
13.71084872107135
 31
0.0
  0
LINE
  5
91
330
82
100
AcDbEntity
  8
중심선
100
AcDbLine
 10
7.28139805157953
 20
16.24717430164393
 30
0.0
 11
10.72767329541681
 21
16.24717430164393
 31
0.0
  0
LINE
  5
92
330
82
100
AcDbEntity
  8
중심선
100
AcDbLine
 10
12.29416204261559
 20
16.24717430164393
 30
0.0
 11
15.74043728645272
 21
16.24717430164393
 31
0.0
  0
LINE
  5
93
330
82
100
AcDbEntity
  8
중심선
100
AcDbLine
 10
19.22036997980202
 20
11.08717430171403
 30
0.0
 11
23.66174974927406
 21
11.08717430171406
 31
0.0
  0
LINE
  5
94
330
82
100
AcDbEntity
  8
중심선
100
AcDbLine
 10
19.22039502424796
 20
13.00717430171391
 30
0.0
 11
19.22036997980202
 21
11.08717430171403
 31
0.0
  0
LINE
  5
95
330
82
100
AcDbEntity
  8
중심선
100
AcDbLine
 10
19.22039502424796
 20
13.00717430171391
 30
0.0
 11
26.96566020931264
 21
13.00717430171391
 31
0.0
  0
LINE
  5
96
330
82
100
AcDbEntity
  8
중심선
100
AcDbLine
 10
22.22332737316547
 20
13.45928029700563
 30
0.0
 11
24.52862924686651
 21
15.39360700705356
 31
0.0
  0
ATTDEF
  5
98
330
82
100
AcDbEntity
  8
FORMAT
 62
     2
100
AcDbText
 10
-9.18129528874128
 20
2.075366912832191
 30
0.0
 40
4.233333333333333
  1
E5253016 [ 2 FLUTE ]
 41
0.75
  7
SLDTEXTSTYLE0
 11
-9.18129528874128
 21
-0.0412997538344756
 31
0.0
100
AcDbAttributeDefinition
  3

  2
AUTOATTR0
 70
     0
 74
     1
  0
ENDBLK
  5
84
330
82
100
AcDbEntity
  8
0
100
AcDbBlockEnd
  0
BLOCK
  5
F0
330
EF
100
AcDbEntity
  8
0
100
AcDbBlockBegin
  2
_D
 70
     0
 10
0.0
 20
0.0
 30
0.0
  3
_D
  1
_D
  0
LINE
  5
F2
330
EF
100
AcDbEntity
  8
치수문자_일반주서
 62
     0
370
    -2
100
AcDbLine
 10
29.05
 20
3.235891467078016
 30
0.0
 11
29.05
 21
38.76357492872395
 31
0.0
  0
LINE
  5
F3
330
EF
100
AcDbEntity
  8
치수문자_일반주서
 62
     0
370
    -2
100
AcDbLine
 10
-34.45
 20
4.016074928723889
 30
0.0
 11
-34.45
 21
38.76357492872395
 31
0.0
  0
LINE
  5
F4
330
EF
100
AcDbEntity
  8
치수문자_일반주서
 62
     0
370
    -2
100
AcDbLine
 10
25.748
 20
38.76357492872395
 30
0.0
 11
-31.148
 21
38.76357492872395
 31
0.0
  0
SOLID
  5
F5
330
EF
100
AcDbEntity
  8
치수문자_일반주서
 62
     0
100
AcDbTrace
 10
25.748
 20
38.21324159539062
 30
0.0
 11
25.748
 21
39.31390826205729
 31
0.0
 12
29.05
 22
38.76357492872395
 32
0.0
 13
29.05
 23
38.76357492872395
 33
0.0
  0
SOLID
  5
F6
330
EF
100
AcDbEntity
  8
치수문자_일반주서
 62
     0
100
AcDbTrace
 10
-31.148
 20
39.31390826205729
 30
0.0
 11
-31.148
 21
38.21324159539062
 31
0.0
 12
-34.45
 22
38.76357492872395
 32
0.0
 13
-34.45
 23
38.76357492872395
 33
0.0
  0
MTEXT
  5
F7
330
EF
100
AcDbEntity
  8
치수문자_일반주서
 62
     0
100
AcDbMText
 10
-2.700000000000003
 20
43.13857492872395
 30
0.0
 40
3.5
 41
0.0
 71
     2
 72
     1
  1
\A1;63.50 [2 1/2]
  7
SLDTEXTSTYLE0
 73
     1
 44
1.0
  0
POINT
  5
F8
330
EF
100
AcDbEntity
  8
Defpoints
 62
     0
100
AcDbPoint
 10
29.05
 20
3.173391467078016
 30
0.0
  0
POINT
  5
F9
330
EF
100
AcDbEntity
  8
Defpoints
 62
     0
100
AcDbPoint
 10
-34.45
 20
3.953574928723888
 30
0.0
  0
POINT
  5
FA
330
EF
100
AcDbEntity
  8
Defpoints
 62
     0
100
AcDbPoint
 10
-34.45
 20
38.76357492872395
 30
0.0
  0
ENDBLK
  5
F1
330
EF
100
AcDbEntity
  8
0
100
AcDbBlockEnd
  0
BLOCK
  5
104
330
103
100
AcDbEntity
  8
0
100
AcDbBlockBegin
  2
_D_1
 70
     0
 10
0.0
 20
0.0
 30
0.0
  3
_D_1
  1
_D_1
  0
LINE
  5
106
330
103
100
AcDbEntity
  8
치수문자_일반주서
 62
     0
370
    -2
100
AcDbLine
 10
-33.70250000000001
 20
4.763574928723896
 30
0.0
 11
-47.45000000000003
 21
4.763574928723848
 31
0.0
  0
LINE
  5
107
330
103
100
AcDbEntity
  8
치수문자_일반주서
 62
     0
370
    -2
100
AcDbLine
 10
-33.70250000000001
 20
-4.761425071276109
 30
0.0
 11
-47.45
 21
-4.761425071276157
 31
0.0
  0
LINE
  5
108
330
103
100
AcDbEntity
  8
치수문자_일반주서
 62
     0
370
    -2
100
AcDbLine
 10
-47.45000000000002
 20
1.461574928723849
 30
0.0
 11
-47.45000000000001
 21
-1.459425071276158
 31
0.0
  0
SOLID
  5
109
330
103
100
AcDbEntity
  8
치수문자_일반주서
 62
     0
100
AcDbTrace
 10
-46.89966666666668
 20
1.461574928723851
 30
0.0
 11
-48.00033333333335
 21
1.461574928723847
 31
0.0
 12
-47.45000000000003
 22
4.763574928723848
 32
0.0
 13
-47.45000000000003
 23
4.763574928723848
 33
0.0
  0
SOLID
  5
10A
330
103
100
AcDbEntity
  8
치수문자_일반주서
 62
     0
100
AcDbTrace
 10
-48.00033333333334
 20
-1.45942507127616
 30
0.0
 11
-46.89966666666668
 21
-1.459425071276156
 31
0.0
 12
-47.45
 22
-4.761425071276157
 32
0.0
 13
-47.45
 23
-4.761425071276157
 33
0.0
  0
MTEXT
  5
10B
330
103
100
AcDbEntity
  8
치수문자_일반주서
 62
     0
100
AcDbMText
 10
-51.82500000000002
 20
0.0010749287238829
 30
0.0
 40
3.5
 41
0.0
 71
     2
 72
     1
  1
\A1;%%c9.53 [3/8]
  7
SLDTEXTSTYLE0
 11
-3.729883127349605E-15
 21
1.0
 31
0.0
 73
     1
 44
1.0
  0
POINT
  5
10C
330
103
100
AcDbEntity
  8
Defpoints
 62
     0
100
AcDbPoint
 10
-33.64000000000001
 20
4.763574928723896
 30
0.0
  0
POINT
  5
10D
330
103
100
AcDbEntity
  8
Defpoints
 62
     0
100
AcDbPoint
 10
-33.64000000000001
 20
-4.761425071276109
 30
0.0
  0
POINT
  5
10E
330
103
100
AcDbEntity
  8
Defpoints
 62
     0
100
AcDbPoint
 10
-47.45
 20
-4.761425071276157
 30
0.0
  0
ENDBLK
  5
105
330
103
100
AcDbEntity
  8
0
100
AcDbBlockEnd
  0
BLOCK
  5
118
330
117
100
AcDbEntity
  8
0
100
AcDbBlockBegin
  2
_D_2
 70
     0
 10
0.0
 20
0.0
 30
0.0
  3
_D_2
  1
_D_2
  0
LINE
  5
11A
330
117
100
AcDbEntity
  8
치수문자_일반주서
 62
     0
370
    -2
100
AcDbLine
 10
29.05
 20
3.235891467078016
 30
0.0
 11
29.05
 21
23.41000898057852
 31
0.0
  0
LINE
  5
11B
330
117
100
AcDbEntity
  8
치수문자_일반주서
 62
     0
370
    -2
100
AcDbLine
 10
9.999999999999993
 20
3.146146529929857
 30
0.0
 11
9.999999999999993
 21
23.41000898057852
 31
0.0
  0
LINE
  5
11C
330
117
100
AcDbEntity
  8
치수문자_일반주서
 62
     0
370
    -2
100
AcDbLine
 10
25.748
 20
23.41000898057852
 30
0.0
 11
13.30199999999999
 21
23.41000898057852
 31
0.0
  0
SOLID
  5
11D
330
117
100
AcDbEntity
  8
치수문자_일반주서
 62
     0
100
AcDbTrace
 10
25.748
 20
22.85967564724518
 30
0.0
 11
25.748
 21
23.96034231391185
 31
0.0
 12
29.05
 22
23.41000898057852
 32
0.0
 13
29.05
 23
23.41000898057852
 33
0.0
  0
SOLID
  5
11E
330
117
100
AcDbEntity
  8
치수문자_일반주서
 62
     0
100
AcDbTrace
 10
13.30199999999999
 20
23.96034231391185
 30
0.0
 11
13.30199999999999
 21
22.85967564724518
 31
0.0
 12
9.999999999999993
 22
23.41000898057852
 32
0.0
 13
9.999999999999993
 23
23.41000898057852
 33
0.0
  0
MTEXT
  5
11F
330
117
100
AcDbEntity
  8
치수문자_일반주서
 62
     0
100
AcDbMText
 10
19.525
 20
27.78500898057852
 30
0.0
 40
3.5
 41
0.0
 71
     2
 72
     1
  1
\A1;19.05 [3/4]
  7
SLDTEXTSTYLE0
 73
     1
 44
1.0
  0
POINT
  5
120
330
117
100
AcDbEntity
  8
Defpoints
 62
     0
100
AcDbPoint
 10
29.05
 20
3.173391467078016
 30
0.0
  0
POINT
  5
121
330
117
100
AcDbEntity
  8
Defpoints
 62
     0
100
AcDbPoint
 10
9.999999999999993
 20
3.083646529929857
 30
0.0
  0
POINT
  5
122
330
117
100
AcDbEntity
  8
Defpoints
 62
     0
100
AcDbPoint
 10
9.999999999999993
 20
23.41000898057852
 30
0.0
  0
ENDBLK
  5
119
330
117
100
AcDbEntity
  8
0
100
AcDbBlockEnd
  0
BLOCK
  5
12D
330
12C
100
AcDbEntity
  8
0
100
AcDbBlockBegin
  2
_D_3
 70
     0
 10
0.0
 20
0.0
 30
0.0
  3
_D_3
  1
_D_3
  0
LINE
  5
12F
330
12C
100
AcDbEntity
  8
치수문자_일반주서
 62
     0
370
    -2
100
AcDbLine
 10
29.1125
 20
3.173391467078016
 30
0.0
 11
49.25935371504377
 21
3.173391467078087
 31
0.0
  0
LINE
  5
130
330
12C
100
AcDbEntity
  8
치수문자_일반주서
 62
     0
370
    -2
100
AcDbLine
 10
29.1125
 20
-3.171241609630227
 30
0.0
 11
49.25935371504379
 21
-3.171241609630155
 31
0.0
  0
LINE
  5
131
330
12C
100
AcDbEntity
  8
치수문자_일반주서
 62
     0
370
    -2
100
AcDbLine
 10
49.25935371504377
 20
3.173391467078087
 30
0.0
 11
49.25935371504366
 21
35.15239146707809
 31
0.0
  0
LINE
  5
132
330
12C
100
AcDbEntity
  8
치수문자_일반주서
 62
     0
370
    -2
100
AcDbLine
 10
49.25935371504377
 20
3.173391467078087
 30
0.0
 11
49.25935371504379
 21
-3.171241609630155
 31
0.0
  0
LINE
  5
133
330
12C
100
AcDbEntity
  8
치수문자_일반주서
 62
     0
370
    -2
100
AcDbLine
 10
49.25935371504375
 20
6.475391467078087
 30
0.0
 11
49.25935371504374
 21
9.777391467078086
 31
0.0
  0
LINE
  5
134
330
12C
100
AcDbEntity
  8
치수문자_일반주서
 62
     0
370
    -2
100
AcDbLine
 10
49.2593537150438
 20
-6.473241609630154
 30
0.0
 11
49.25935371504382
 21
-9.775241609630154
 31
0.0
  0
SOLID
  5
135
330
12C
100
AcDbEntity
  8
치수문자_일반주서
 62
     0
100
AcDbTrace
 10
48.70902038171042
 20
6.475391467078085
 30
0.0
 11
49.80968704837709
 21
6.475391467078088
 31
0.0
 12
49.25935371504377
 22
3.173391467078087
 32
0.0
 13
49.25935371504377
 23
3.173391467078087
 33
0.0
  0
SOLID
  5
136
330
12C
100
AcDbEntity
  8
치수문자_일반주서
 62
     0
100
AcDbTrace
 10
49.80968704837714
 20
-6.473241609630152
 30
0.0
 11
48.70902038171047
 21
-6.473241609630156
 31
0.0
 12
49.25935371504379
 22
-3.171241609630155
 32
0.0
 13
49.25935371504379
 23
-3.171241609630155
 33
0.0
  0
MTEXT
  5
137
330
12C
100
AcDbEntity
  8
치수문자_일반주서
 62
     0
100
AcDbMText
 10
44.8843537150437
 20
22.46489146707807
 30
0.0
 40
3.5
 41
0.0
 71
     2
 72
     1
  1
\A1;%%c6.34 [1/4]
  7
SLDTEXTSTYLE0
 11
-3.359734410971238E-15
 21
1.0
 31
0.0
 73
     1
 44
1.0
  0
POINT
  5
138
330
12C
100
AcDbEntity
  8
Defpoints
 62
     0
100
AcDbPoint
 10
29.05
 20
3.173391467078016
 30
0.0
  0
POINT
  5
139
330
12C
100
AcDbEntity
  8
Defpoints
 62
     0
100
AcDbPoint
 10
29.05
 20
-3.171241609630227
 30
0.0
  0
POINT
  5
13A
330
12C
100
AcDbEntity
  8
Defpoints
 62
     0
100
AcDbPoint
 10
49.25935371504379
 20
-3.171241609630157
 30
0.0
  0
ENDBLK
  5
12E
330
12C
100
AcDbEntity
  8
0
100
AcDbBlockEnd
  0
BLOCK
  5
140
330
13F
100
AcDbEntity
  8
0
100
AcDbBlockBegin
  2
SW_DOWELSYMBOL_0
 70
     0
 10
0.0
 20
0.0
 30
0.0
  3
SW_DOWELSYMBOL_0
  1
SW_DOWELSYMBOL_0
  0
CIRCLE
  5
142
330
13F
100
AcDbEntity
  8
외형선
 62
     0
100
AcDbCircle
 10
0.0
 20
0.0
 30
0.0
 40
3.000000000000004
  0
HATCH
  5
143
330
13F
100
AcDbEntity
  8
0
  6
Continuous
 62
     0
370
    35
100
AcDbHatch
 10
0.0
 20
0.0
 30
0.0
210
0.0
220
0.0
230
1.0
  2
SOLID
 70
     1
 71
     0
 91
        1
 92
        0
 93
        3
 72
     2
 10
0.0000000000000087
 20
0.0
 40
3.000000000000004
 50
0.0
 51
90.0
 73
     1
 72
     1
 10
0.0000000000000087
 20
3.000000000000004
 11
0.0000000000000087
 21
0.0
 72
     1
 10
0.0000000000000087
 20
0.0
 11
3.000000000000013
 21
0.0
 97
        0
 75
     0
 76
     1
 98
        1
 10
0.0
 20
0.0
  0
HATCH
  5
144
330
13F
100
AcDbEntity
  8
0
  6
Continuous
 62
     0
370
    35
100
AcDbHatch
 10
0.0
 20
0.0
 30
0.0
210
0.0
220
0.0
230
1.0
  2
SOLID
 70
     1
 71
     0
 91
        1
 92
        0
 93
        3
 72
     2
 10
0.0000000000000087
 20
0.0
 40
3.000000000000004
 50
180.0
 51
270.0000000000007
 73
     1
 72
     1
 10
0.0000000000000087
 20
-3.000000000000004
 11
0.0000000000000087
 21
0.0
 72
     1
 10
0.0000000000000087
 20
0.0
 11
-2.999999999999996
 21
0.0
 97
        0
 75
     0
 76
     1
 98
        1
 10
0.0
 20
0.0
  0
ENDBLK
  5
141
330
13F
100
AcDbEntity
  8
0
100
AcDbBlockEnd
  0
BLOCK
  5
22D
330
22C
100
AcDbEntity
  8
0
100
AcDbBlockBegin
  2
*D8
 70
     1
 10
0.0
 20
0.0
 30
0.0
  3
*D8
  1

  0
LINE
  5
22F
330
22C
100
AcDbEntity
  8
치수문자_일반주서
 62
     0
370
    -2
100
AcDbLine
 10
90.57500000000002
 20
16.96882969730454
 30
0.0
 11
90.57500000000002
 21
42.99218795324661
 31
0.0
  0
LINE
  5
230
330
22C
100
AcDbEntity
  8
치수문자_일반주서
 62
     0
370
    -2
100
AcDbLine
 10
14.37500000000001
 20
16.57500000000001
 30
0.0
 11
14.37500000000001
 21
42.99218795324661
 31
0.0
  0
LINE
  5
231
330
22C
100
AcDbEntity
  8
치수문자_일반주서
 62
     0
370
    -2
100
AcDbLine
 10
87.27300000000001
 20
42.99218795324661
 30
0.0
 11
17.67700000000001
 21
42.99218795324661
 31
0.0
  0
SOLID
  5
232
330
22C
100
AcDbEntity
  8
치수문자_일반주서
 62
     0
100
AcDbTrace
 10
87.27300000000001
 20
42.44185461991328
 30
0.0
 11
87.27300000000001
 21
43.54252128657995
 31
0.0
 12
90.57500000000002
 22
42.99218795324661
 32
0.0
 13
90.57500000000002
 23
42.99218795324661
 33
0.0
  0
SOLID
  5
233
330
22C
100
AcDbEntity
  8
치수문자_일반주서
 62
     0
100
AcDbTrace
 10
17.67700000000001
 20
43.54252128657995
 30
0.0
 11
17.67700000000001
 21
42.44185461991328
 31
0.0
 12
14.37500000000001
 22
42.99218795324661
 32
0.0
 13
14.37500000000001
 23
42.99218795324661
 33
0.0
  0
MTEXT
  5
234
330
22C
100
AcDbEntity
  8
치수문자_일반주서
 62
     0
100
AcDbMText
 10
52.57885286017969
 20
47.36718795324661
 30
0.0
 40
3.5
 41
0.0
 71
     2
 72
     1
  1
\A1;76.2 [3]
  7
SLDTEXTSTYLE0
 73
     1
 44
1.0
  0
POINT
  5
235
330
22C
100
AcDbEntity
  8
Defpoints
 62
     0
100
AcDbPoint
 10
90.57500000000002
 20
16.90632969730454
 30
0.0
  0
POINT
  5
236
330
22C
100
AcDbEntity
  8
Defpoints
 62
     0
100
AcDbPoint
 10
14.37500000000001
 20
16.51250000000001
 30
0.0
  0
POINT
  5
237
330
22C
100
AcDbEntity
  8
Defpoints
 62
     0
100
AcDbPoint
 10
14.37500000000001
 20
42.99218795324661
 30
0.0
  0
ENDBLK
  5
22E
330
22C
100
AcDbEntity
  8
0
100
AcDbBlockEnd
  0
BLOCK
  5
239
330
238
100
AcDbEntity
  8
0
100
AcDbBlockBegin
  2
*D9
 70
     1
 10
0.0
 20
0.0
 30
0.0
  3
*D9
  1

  0
LINE
  5
23B
330
238
100
AcDbEntity
  8
치수문자_일반주서
 62
     0
370
    -2
100
AcDbLine
 10
90.57500000000002
 20
16.96882969730454
 30
0.0
 11
90.57500000000002
 21
32.95862169088736
 31
0.0
  0
LINE
  5
23C
330
238
100
AcDbEntity
  8
치수문자_일반주서
 62
     0
370
    -2
100
AcDbLine
 10
65.17500000000003
 20
17.07500000000001
 30
0.0
 11
65.17500000000003
 21
32.95862169088736
 31
0.0
  0
LINE
  5
23D
330
238
100
AcDbEntity
  8
치수문자_일반주서
 62
     0
370
    -2
100
AcDbLine
 10
87.27300000000001
 20
32.95862169088736
 30
0.0
 11
68.47700000000003
 21
32.95862169088736
 31
0.0
  0
SOLID
  5
23E
330
238
100
AcDbEntity
  8
치수문자_일반주서
 62
     0
100
AcDbTrace
 10
87.27300000000001
 20
32.40828835755403
 30
0.0
 11
87.27300000000001
 21
33.5089550242207
 31
0.0
 12
90.57500000000002
 22
32.95862169088736
 32
0.0
 13
90.57500000000002
 23
32.95862169088736
 33
0.0
  0
SOLID
  5
23F
330
238
100
AcDbEntity
  8
치수문자_일반주서
 62
     0
100
AcDbTrace
 10
68.47700000000003
 20
33.5089550242207
 30
0.0
 11
68.47700000000003
 21
32.40828835755403
 31
0.0
 12
65.17500000000003
 22
32.95862169088736
 32
0.0
 13
65.17500000000003
 23
32.95862169088736
 33
0.0
  0
MTEXT
  5
240
330
238
100
AcDbEntity
  8
치수문자_일반주서
 62
     0
100
AcDbMText
 10
77.87500000000003
 20
37.33362169088736
 30
0.0
 40
3.5
 41
0.0
 71
     2
 72
     1
  1
\A1;25.4 [1]
  7
SLDTEXTSTYLE0
 73
     1
 44
1.0
  0
POINT
  5
241
330
238
100
AcDbEntity
  8
Defpoints
 62
     0
100
AcDbPoint
 10
90.57500000000002
 20
16.90632969730454
 30
0.0
  0
POINT
  5
242
330
238
100
AcDbEntity
  8
Defpoints
 62
     0
100
AcDbPoint
 10
65.17500000000003
 20
17.01250000000001
 30
0.0
  0
POINT
  5
243
330
238
100
AcDbEntity
  8
Defpoints
 62
     0
100
AcDbPoint
 10
65.17500000000003
 20
32.95862169088736
 30
0.0
  0
ENDBLK
  5
23A
330
238
100
AcDbEntity
  8
0
100
AcDbBlockEnd
  0
BLOCK
  5
245
330
244
100
AcDbEntity
  8
0
100
AcDbBlockBegin
  2
*D10
 70
     1
 10
0.0
 20
0.0
 30
0.0
  3
*D10
  1

  0
LINE
  5
247
330
244
100
AcDbEntity
  8
치수문자_일반주서
 62
     0
370
    -2
100
AcDbLine
 10
14.81250000000001
 20
17.01250000000001
 30
0.0
 11
4.375000000000027
 21
17.01249999999997
 31
0.0
  0
LINE
  5
248
330
244
100
AcDbEntity
  8
치수문자_일반주서
 62
     0
370
    -2
100
AcDbLine
 10
14.81250000000001
 20
7.487500000000009
 30
0.0
 11
4.37500000000006
 21
7.48749999999997
 31
0.0
  0
LINE
  5
249
330
244
100
AcDbEntity
  8
치수문자_일반주서
 62
     0
370
    -2
100
AcDbLine
 10
4.375000000000038
 20
13.71049999999997
 30
0.0
 11
4.375000000000048
 21
10.78949999999997
 31
0.0
  0
SOLID
  5
24A
330
244
100
AcDbEntity
  8
치수문자_일반주서
 62
     0
100
AcDbTrace
 10
4.925333333333372
 20
13.71049999999997
 30
0.0
 11
3.824666666666705
 21
13.71049999999997
 31
0.0
 12
4.375000000000027
 22
17.01249999999997
 32
0.0
 13
4.375000000000027
 23
17.01249999999997
 33
0.0
  0
SOLID
  5
24B
330
244
100
AcDbEntity
  8
치수문자_일반주서
 62
     0
100
AcDbTrace
 10
3.824666666666714
 20
10.78949999999997
 30
0.0
 11
4.925333333333382
 21
10.78949999999997
 31
0.0
 12
4.37500000000006
 22
7.48749999999997
 32
0.0
 13
4.37500000000006
 23
7.48749999999997
 33
0.0
  0
MTEXT
  5
24C
330
244
100
AcDbEntity
  8
치수문자_일반주서
 62
     0
100
AcDbMText
 10
0.0000000000000426
 20
12.25000000000002
 30
0.0
 40
3.5
 41
0.0
 71
     2
 72
     1
  1
\A1;%%c9.53 [3/8]
  7
SLDTEXTSTYLE0
 11
-3.450141892798386E-15
 21
1.0
 31
0.0
 73
     1
 44
1.0
  0
POINT
  5
24D
330
244
100
AcDbEntity
  8
Defpoints
 62
     0
100
AcDbPoint
 10
14.87500000000001
 20
17.01250000000001
 30
0.0
  0
POINT
  5
24E
330
244
100
AcDbEntity
  8
Defpoints
 62
     0
100
AcDbPoint
 10
14.87500000000001
 20
7.487500000000009
 30
0.0
  0
POINT
  5
24F
330
244
100
AcDbEntity
  8
Defpoints
 62
     0
100
AcDbPoint
 10
4.375000000000064
 20
7.48749999999997
 30
0.0
  0
ENDBLK
  5
246
330
244
100
AcDbEntity
  8
0
100
AcDbBlockEnd
  0
BLOCK
  5
251
330
250
100
AcDbEntity
  8
0
100
AcDbBlockBegin
  2
*D11
 70
     1
 10
0.0
 20
0.0
 30
0.0
  3
*D11
  1

  0
LINE
  5
253
330
250
100
AcDbEntity
  8
치수문자_일반주서
 62
     0
370
    -2
100
AcDbLine
 10
90.20556624782058
 20
7.487500000000009
 30
0.0
 11
103.4307966506954
 21
7.487500000000058
 31
0.0
  0
LINE
  5
254
330
250
100
AcDbEntity
  8
치수문자_일반주서
 62
     0
370
    -2
100
AcDbLine
 10
90.20556624782054
 20
17.01250000000001
 30
0.0
 11
103.4307966506954
 21
17.01250000000006
 31
0.0
  0
LINE
  5
255
330
250
100
AcDbEntity
  8
치수문자_일반주서
 62
     0
370
    -2
100
AcDbLine
 10
103.4307966506954
 20
10.78950000000006
 30
0.0
 11
103.4307966506954
 21
13.71050000000006
 31
0.0
  0
SOLID
  5
256
330
250
100
AcDbEntity
  8
치수문자_일반주서
 62
     0
100
AcDbTrace
 10
102.8804633173621
 20
10.78950000000006
 30
0.0
 11
103.9811299840287
 21
10.78950000000006
 31
0.0
 12
103.4307966506954
 22
7.487500000000058
 32
0.0
 13
103.4307966506954
 23
7.487500000000058
 33
0.0
  0
SOLID
  5
257
330
250
100
AcDbEntity
  8
치수문자_일반주서
 62
     0
100
AcDbTrace
 10
103.9811299840287
 20
13.71050000000007
 30
0.0
 11
102.8804633173621
 21
13.71050000000006
 31
0.0
 12
103.4307966506954
 22
17.01250000000006
 32
0.0
 13
103.4307966506954
 23
17.01250000000006
 33
0.0
  0
MTEXT
  5
258
330
250
100
AcDbEntity
  8
치수문자_일반주서
 62
     0
100
AcDbMText
 10
99.0557966506954
 20
12.25
 30
0.0
 40
3.5
 41
0.0
 71
     2
 72
     1
  1
\A1;%%c9.53 [3/8]
  7
SLDTEXTSTYLE0
 11
-2.983906501879684E-15
 21
1.0
 31
0.0
 73
     1
 44
1.0
  0
POINT
  5
259
330
250
100
AcDbEntity
  8
Defpoints
 62
     0
100
AcDbPoint
 10
90.14306624782058
 20
7.487500000000009
 30
0.0
  0
POINT
  5
25A
330
250
100
AcDbEntity
  8
Defpoints
 62
     0
100
AcDbPoint
 10
90.14306624782054
 20
17.01250000000001
 30
0.0
  0
POINT
  5
25B
330
250
100
AcDbEntity
  8
Defpoints
 62
     0
100
AcDbPoint
 10
103.4307966506954
 20
17.01250000000006
 30
0.0
  0
ENDBLK
  5
252
330
250
100
AcDbEntity
  8
0
100
AcDbBlockEnd
  0
BLOCK
  5
2AE
330
2AD
100
AcDbEntity
  8
0
100
AcDbBlockBegin
  2
*D12
 70
     1
 10
0.0
 20
0.0
 30
0.0
  3
*D12
  1

  0
LINE
  5
2B0
330
2AD
100
AcDbEntity
  8
치수문자_일반주서
 62
     0
370
    -2
100
AcDbLine
 10
141.5618847743033
 20
-48.98516068312963
 30
0.0
 11
141.5618847743033
 21
-22.96180242718755
 31
0.0
  0
LINE
  5
2B1
330
2AD
100
AcDbEntity
  8
치수문자_일반주서
 62
     0
370
    -2
100
AcDbLine
 10
65.36188477430323
 20
-49.37899038043416
 30
0.0
 11
65.36188477430323
 21
-22.96180242718755
 31
0.0
  0
LINE
  5
2B2
330
2AD
100
AcDbEntity
  8
치수문자_일반주서
 62
     0
370
    -2
100
AcDbLine
 10
138.2598847743033
 20
-22.96180242718755
 30
0.0
 11
68.66388477430324
 21
-22.96180242718755
 31
0.0
  0
SOLID
  5
2B3
330
2AD
100
AcDbEntity
  8
치수문자_일반주서
 62
     0
100
AcDbTrace
 10
138.2598847743033
 20
-23.51213576052088
 30
0.0
 11
138.2598847743033
 21
-22.41146909385422
 31
0.0
 12
141.5618847743033
 22
-22.96180242718755
 32
0.0
 13
141.5618847743033
 23
-22.96180242718755
 33
0.0
  0
SOLID
  5
2B4
330
2AD
100
AcDbEntity
  8
치수문자_일반주서
 62
     0
100
AcDbTrace
 10
68.66388477430324
 20
-22.41146909385422
 30
0.0
 11
68.66388477430324
 21
-23.51213576052088
 31
0.0
 12
65.36188477430323
 22
-22.96180242718755
 32
0.0
 13
65.36188477430323
 23
-22.96180242718755
 33
0.0
  0
MTEXT
  5
2B5
330
2AD
100
AcDbEntity
  8
치수문자_일반주서
 62
     0
100
AcDbMText
 10
103.5657376344829
 20
-18.58680242718755
 30
0.0
 40
3.5
 41
0.0
 71
     2
 72
     1
  1
\A1;76.2 [3]
  7
SLDTEXTSTYLE0
 73
     1
 44
1.0
  0
POINT
  5
2B6
330
2AD
100
AcDbEntity
  8
Defpoints
 62
     0
100
AcDbPoint
 10
141.5618847743033
 20
-49.04766068312963
 30
0.0
  0
POINT
  5
2B7
330
2AD
100
AcDbEntity
  8
Defpoints
 62
     0
100
AcDbPoint
 10
65.36188477430323
 20
-49.44149038043416
 30
0.0
  0
POINT
  5
2B8
330
2AD
100
AcDbEntity
  8
Defpoints
 62
     0
100
AcDbPoint
 10
65.36188477430323
 20
-22.96180242718755
 30
0.0
  0
ENDBLK
  5
2AF
330
2AD
100
AcDbEntity
  8
0
100
AcDbBlockEnd
  0
BLOCK
  5
2BA
330
2B9
100
AcDbEntity
  8
0
100
AcDbBlockBegin
  2
*D13
 70
     1
 10
0.0
 20
0.0
 30
0.0
  3
*D13
  1

  0
LINE
  5
2BC
330
2B9
100
AcDbEntity
  8
치수문자_일반주서
 62
     0
370
    -2
100
AcDbLine
 10
141.5618847743033
 20
-48.98516068312963
 30
0.0
 11
141.5618847743033
 21
-32.9953686895468
 31
0.0
  0
LINE
  5
2BD
330
2B9
100
AcDbEntity
  8
치수문자_일반주서
 62
     0
370
    -2
100
AcDbLine
 10
116.1618847743032
 20
-48.87899038043415
 30
0.0
 11
116.1618847743032
 21
-32.9953686895468
 31
0.0
  0
LINE
  5
2BE
330
2B9
100
AcDbEntity
  8
치수문자_일반주서
 62
     0
370
    -2
100
AcDbLine
 10
138.2598847743033
 20
-32.9953686895468
 30
0.0
 11
119.4638847743033
 21
-32.9953686895468
 31
0.0
  0
SOLID
  5
2BF
330
2B9
100
AcDbEntity
  8
치수문자_일반주서
 62
     0
100
AcDbTrace
 10
138.2598847743033
 20
-33.54570202288014
 30
0.0
 11
138.2598847743033
 21
-32.44503535621347
 31
0.0
 12
141.5618847743033
 22
-32.9953686895468
 32
0.0
 13
141.5618847743033
 23
-32.9953686895468
 33
0.0
  0
SOLID
  5
2C0
330
2B9
100
AcDbEntity
  8
치수문자_일반주서
 62
     0
100
AcDbTrace
 10
119.4638847743033
 20
-32.44503535621347
 30
0.0
 11
119.4638847743033
 21
-33.54570202288014
 31
0.0
 12
116.1618847743032
 22
-32.9953686895468
 32
0.0
 13
116.1618847743032
 23
-32.9953686895468
 33
0.0
  0
MTEXT
  5
2C1
330
2B9
100
AcDbEntity
  8
치수문자_일반주서
 62
     0
100
AcDbMText
 10
128.8618847743033
 20
-28.6203686895468
 30
0.0
 40
3.5
 41
0.0
 71
     2
 72
     1
  1
\A1;25.4 [1]
  7
SLDTEXTSTYLE0
 73
     1
 44
1.0
  0
POINT
  5
2C2
330
2B9
100
AcDbEntity
  8
Defpoints
 62
     0
100
AcDbPoint
 10
141.5618847743033
 20
-49.04766068312963
 30
0.0
  0
POINT
  5
2C3
330
2B9
100
AcDbEntity
  8
Defpoints
 62
     0
100
AcDbPoint
 10
116.1618847743032
 20
-48.94149038043415
 30
0.0
  0
POINT
  5
2C4
330
2B9
100
AcDbEntity
  8
Defpoints
 62
     0
100
AcDbPoint
 10
116.1618847743032
 20
-32.9953686895468
 30
0.0
  0
ENDBLK
  5
2BB
330
2B9
100
AcDbEntity
  8
0
100
AcDbBlockEnd
  0
BLOCK
  5
2C6
330
2C5
100
AcDbEntity
  8
0
100
AcDbBlockBegin
  2
*D14
 70
     1
 10
0.0
 20
0.0
 30
0.0
  3
*D14
  1

  0
LINE
  5
2C8
330
2C5
100
AcDbEntity
  8
치수문자_일반주서
 62
     0
370
    -2
100
AcDbLine
 10
65.79938477430323
 20
-48.94149038043415
 30
0.0
 11
55.36188477430326
 21
-48.94149038043419
 31
0.0
  0
LINE
  5
2C9
330
2C5
100
AcDbEntity
  8
치수문자_일반주서
 62
     0
370
    -2
100
AcDbLine
 10
65.79938477430323
 20
-58.46649038043415
 30
0.0
 11
55.36188477430329
 21
-58.46649038043419
 31
0.0
  0
LINE
  5
2CA
330
2C5
100
AcDbEntity
  8
치수문자_일반주서
 62
     0
370
    -2
100
AcDbLine
 10
55.36188477430327
 20
-52.24349038043419
 30
0.0
 11
55.36188477430328
 21
-55.16449038043419
 31
0.0
  0
SOLID
  5
2CB
330
2C5
100
AcDbEntity
  8
치수문자_일반주서
 62
     0
100
AcDbTrace
 10
55.9122181076366
 20
-52.24349038043419
 30
0.0
 11
54.81155144096994
 21
-52.24349038043419
 31
0.0
 12
55.36188477430326
 22
-48.94149038043419
 32
0.0
 13
55.36188477430326
 23
-48.94149038043419
 33
0.0
  0
SOLID
  5
2CC
330
2C5
100
AcDbEntity
  8
치수문자_일반주서
 62
     0
100
AcDbTrace
 10
54.81155144096994
 20
-55.16449038043419
 30
0.0
 11
55.91221810763661
 21
-55.16449038043419
 31
0.0
 12
55.36188477430329
 22
-58.46649038043419
 32
0.0
 13
55.36188477430329
 23
-58.46649038043419
 33
0.0
  0
MTEXT
  5
2CD
330
2C5
100
AcDbEntity
  8
치수문자_일반주서
 62
     0
100
AcDbMText
 10
50.98688477430327
 20
-53.70399038043414
 30
0.0
 40
3.5
 41
0.0
 71
     2
 72
     1
  1
\A1;%%c9.53 [3/8]
  7
SLDTEXTSTYLE0
 11
-3.729883127349605E-15
 21
1.0
 31
0.0
 73
     1
 44
1.0
  0
POINT
  5
2CE
330
2C5
100
AcDbEntity
  8
Defpoints
 62
     0
100
AcDbPoint
 10
65.86188477430323
 20
-48.94149038043415
 30
0.0
  0
POINT
  5
2CF
330
2C5
100
AcDbEntity
  8
Defpoints
 62
     0
100
AcDbPoint
 10
65.86188477430323
 20
-58.46649038043415
 30
0.0
  0
POINT
  5
2D0
330
2C5
100
AcDbEntity
  8
Defpoints
 62
     0
100
AcDbPoint
 10
55.36188477430328
 20
-58.46649038043419
 30
0.0
  0
ENDBLK
  5
2C7
330
2C5
100
AcDbEntity
  8
0
100
AcDbBlockEnd
  0
BLOCK
  5
2D2
330
2D1
100
AcDbEntity
  8
0
100
AcDbBlockBegin
  2
*D15
 70
     1
 10
0.0
 20
0.0
 30
0.0
  3
*D15
  1

  0
LINE
  5
2D4
330
2D1
100
AcDbEntity
  8
치수문자_일반주서
 62
     0
370
    -2
100
AcDbLine
 10
141.1924510221238
 20
-58.46649038043415
 30
0.0
 11
154.4176814249986
 21
-58.4664903804341
 31
0.0
  0
LINE
  5
2D5
330
2D1
100
AcDbEntity
  8
치수문자_일반주서
 62
     0
370
    -2
100
AcDbLine
 10
141.1924510221238
 20
-48.94149038043415
 30
0.0
 11
154.4176814249986
 21
-48.9414903804341
 31
0.0
  0
LINE
  5
2D6
330
2D1
100
AcDbEntity
  8
치수문자_일반주서
 62
     0
370
    -2
100
AcDbLine
 10
154.4176814249986
 20
-55.1644903804341
 30
0.0
 11
154.4176814249986
 21
-52.2434903804341
 31
0.0
  0
SOLID
  5
2D7
330
2D1
100
AcDbEntity
  8
치수문자_일반주서
 62
     0
100
AcDbTrace
 10
153.8673480916653
 20
-55.1644903804341
 30
0.0
 11
154.9680147583319
 21
-55.1644903804341
 31
0.0
 12
154.4176814249986
 22
-58.4664903804341
 32
0.0
 13
154.4176814249986
 23
-58.4664903804341
 33
0.0
  0
SOLID
  5
2D8
330
2D1
100
AcDbEntity
  8
치수문자_일반주서
 62
     0
100
AcDbTrace
 10
154.9680147583319
 20
-52.2434903804341
 30
0.0
 11
153.8673480916653
 21
-52.2434903804341
 31
0.0
 12
154.4176814249986
 22
-48.9414903804341
 32
0.0
 13
154.4176814249986
 23
-48.9414903804341
 33
0.0
  0
MTEXT
  5
2D9
330
2D1
100
AcDbEntity
  8
치수문자_일반주서
 62
     0
100
AcDbMText
 10
150.0426814249986
 20
-53.70399038043416
 30
0.0
 40
3.5
 41
0.0
 71
     2
 72
     1
  1
\A1;%%c9.53 [3/8]
  7
SLDTEXTSTYLE0
 11
-2.983906501879684E-15
 21
1.0
 31
0.0
 73
     1
 44
1.0
  0
POINT
  5
2DA
330
2D1
100
AcDbEntity
  8
Defpoints
 62
     0
100
AcDbPoint
 10
141.1299510221238
 20
-58.46649038043415
 30
0.0
  0
POINT
  5
2DB
330
2D1
100
AcDbEntity
  8
Defpoints
 62
     0
100
AcDbPoint
 10
141.1299510221238
 20
-48.94149038043415
 30
0.0
  0
POINT
  5
2DC
330
2D1
100
AcDbEntity
  8
Defpoints
 62
     0
100
AcDbPoint
 10
154.4176814249986
 20
-48.9414903804341
 30
0.0
  0
ENDBLK
  5
2D3
330
2D1
100
AcDbEntity
  8
0
100
AcDbBlockEnd
  0
ENDSEC
  0
SECTION
  2
ENTITIES
  0
LINE
  5
99
330
1F
100
AcDbEntity
  8
0
  6
Continuous
 62
     4
370
    25
100
AcDbLine
 10
3.075369342984414
 20
4.763574928723892
 30
0.0
 11
-9.767549999999883
 21
4.763574928723891
 31
0.0
  0
LINE
  5
9A
330
1F
100
AcDbEntity
  8
0
  6
Continuous
 62
     4
370
    25
100
AcDbLine
 10
-33.64
 20
-4.761425071276108
 30
0.0
 11
3.075369342984413
 21
-4.761425071276105
 31
0.0
  0
LINE
  5
9B
330
1F
100
AcDbEntity
  8
0
  6
Continuous
 62
     4
370
    25
100
AcDbLine
 10
3.075369342984414
 20
-4.761425071276106
 30
0.0
 11
8.479844975348074
 21
-3.31330019007058
 31
0.0
  0
LINE
  5
9C
330
1F
100
AcDbEntity
  8
0
  6
Continuous
 62
     4
370
    25
100
AcDbLine
 10
8.479844975348074
 20
3.315450047518366
 30
0.0
 11
3.075369342984414
 21
4.763574928723894
 31
0.0
  0
LINE
  5
9D
330
1F
100
AcDbEntity
  8
0
  6
Continuous
 62
     4
370
    25
100
AcDbLine
 10
-33.64
 20
4.763574928723888
 30
0.0
 11
-34.45
 21
3.953574928723888
 31
0.0
  0
LINE
  5
9E
330
1F
100
AcDbEntity
  8
0
  6
Continuous
 62
     4
370
    25
100
AcDbLine
 10
-34.45
 20
-3.951425071276107
 30
0.0
 11
-33.64
 21
-4.761425071276107
 31
0.0
  0
LINE
  5
9F
330
1F
100
AcDbEntity
  8
0
  6
Continuous
 62
     4
370
    25
100
AcDbLine
 10
9.230799965865199
 20
-3.173925071276107
 30
0.0
 11
9.999999999999993
 21
-3.173925071276107
 31
0.0
  0
LINE
  5
A0
330
1F
100
AcDbEntity
  8
0
  6
Continuous
 62
     4
370
    25
100
AcDbLine
 10
9.999999999999993
 20
3.176074928723893
 30
0.0
 11
9.231546072887372
 21
3.176074928723893
 31
0.0
  0
SPLINE
  5
A1
330
1F
100
AcDbEntity
  8
0
  6
Continuous
 62
     1
370
    25
100
AcDbSpline
210
0.0
220
0.0
230
1.0
 70
     8
 71
     3
 72
     9
 73
     5
 74
     0
 42
0.000000001
 43
0.00000001
 40
0.0
 40
0.0
 40
0.0
 40
0.0
 40
0.436949491464879
 40
1.0
 40
1.0
 40
1.0
 40
1.0
 10
14.32524076159969
 20
0.8149087922996029
 30
0.0
 10
14.25148072690575
 20
0.8758643683907497
 30
0.0
 10
14.08267395144378
 20
1.015366936266026
 30
0.0
 10
13.9138491903519
 20
1.168700513049616
 30
0.0
 10
13.8187923227658
 20
1.255035061433126
 30
0.0
  0
SPLINE
  5
A2
330
1F
100
AcDbEntity
  8
0
  6
Continuous
 62
     4
370
    25
100
AcDbSpline
210
0.0
220
0.0
230
1.0
 70
     8
 71
     3
 72
     9
 73
     5
 74
     0
 42
0.000000001
 43
0.00000001
 40
0.0
 40
0.0
 40
0.0
 40
0.0
 40
0.4369494914648762
 40
1.0
 40
1.0
 40
1.0
 40
1.0
 10
24.29979743674729
 20
0.814908792299604
 30
0.0
 10
24.22603740205335
 20
0.8758643683907494
 30
0.0
 10
24.05723062659138
 20
1.015366936266024
 30
0.0
 10
23.8884058654995
 20
1.168700513049615
 30
0.0
 10
23.7933489979134
 20
1.255035061433125
 30
0.0
  0
LINE
  5
A3
330
1F
100
AcDbEntity
  8
0
  6
Continuous
 62
     4
370
    25
100
AcDbLine
 10
9.999999999999996
 20
-3.173925071276109
 30
0.0
 11
10.12012800450838
 21
-3.173925071276109
 31
0.0
  0
LINE
  5
A4
330
1F
100
AcDbEntity
  8
0
  6
Continuous
 62
     1
370
    25
100
AcDbLine
 10
20.09448207009967
 20
3.176074928723895
 30
0.0
 11
19.20587719043604
 21
3.176074928723895
 31
0.0
  0
LINE
  5
A5
330
1F
100
AcDbEntity
  8
0
  6
Continuous
 62
     1
370
    25
100
AcDbLine
 10
19.20587719043604
 20
-3.173925071276109
 30
0.0
 11
20.09448207009967
 21
-3.173925071276109
 31
0.0
  0
LINE
  5
A6
330
1F
100
AcDbEntity
  8
0
  6
Continuous
 62
     4
370
    25
100
AcDbLine
 10
10.1201280045084
 20
3.176074928723895
 30
0.0
 11
9.999999999999995
 21
3.176074928723895
 31
0.0
  0
SPLINE
  5
A7
330
1F
100
AcDbEntity
  8
0
  6
Continuous
 62
     1
370
    25
100
AcDbSpline
210
0.0
220
0.0
230
1.0
 70
     8
 71
     3
 72
    17
 73
    13
 74
     0
 42
0.000000001
 43
0.00000001
 40
0.0
 40
0.0
 40
0.0
 40
0.0
 40
0.1735870188307228
 40
0.2961179374297694
 40
0.389434180785374
 40
0.4725730648322787
 40
0.5193455036898428
 40
0.5579663061461713
 40
0.6131635440651358
 40
0.7056018029839023
 40
0.8340460339693093
 40
1.0
 40
1.0
 40
1.0
 40
1.0
 10
20.93870801807805
 20
-2.640950035322179
 30
0.0
 10
21.09312798796657
 20
-2.61562916809934
 30
0.0
 10
21.35654931572119
 20
-2.572434907223923
 30
0.0
 10
21.71885431266004
 20
-2.531130461512637
 30
0.0
 10
22.00251822899686
 20
-2.50628770424462
 30
0.0
 10
22.20715838606133
 20
-2.493236859640594
 30
0.0
 10
22.36188216025768
 20
-2.486184749252316
 30
0.0
 10
22.49114404795031
 20
-2.481815745292405
 30
0.0
 10
22.6619408171191
 20
-2.478223216399591
 30
0.0
 10
22.91502514697156
 20
-2.478147012139134
 30
0.0
 10
23.26915694479807
 20
-2.48797414555238
 30
0.0
 10
23.54177709053991
 20
-2.5096726095938
 30
0.0
 10
23.69545464313461
 20
-2.521904159246433
 30
0.0
  0
SPLINE
  5
A8
330
1F
100
AcDbEntity
  8
0
  6
Continuous
 62
     1
370
    25
100
AcDbSpline
210
0.0
220
0.0
230
1.0
 70
     8
 71
     3
 72
    12
 73
     8
 74
     0
 42
0.000000001
 43
0.00000001
 40
0.0
 40
0.0
 40
0.0
 40
0.0
 40
0.1810354649249463
 40
0.4188975411237878
 40
0.6298526309338974
 40
0.852219148101702
 40
0.9999999999999999
 40
0.9999999999999999
 40
0.9999999999999999
 40
0.9999999999999999
 10
13.72096585843066
 20
2.524060272768675
 30
0.0
 10
13.64659284950276
 20
2.517090807123673
 30
0.0
 10
13.47450131716795
 20
2.500964176781669
 30
0.0
 10
13.14979310054062
 20
2.482057074256607
 30
0.0
 10
12.79234429747278
 20
2.478611195323773
 30
0.0
 10
12.48627988845799
 20
2.483172533452998
 30
0.0
 10
12.29783479452667
 20
2.492914072290475
 30
0.0
 10
12.22259833779462
 20
2.496803368901809
 30
0.0
  0
SPLINE
  5
A9
330
1F
100
AcDbEntity
  8
0
  6
Continuous
 62
     1
370
    25
100
AcDbSpline
210
0.0
220
0.0
230
1.0
 70
     8
 71
     3
 72
    19
 73
    15
 74
     0
 42
0.000000001
 43
0.00000001
 40
0.0
 40
0.0
 40
0.0
 40
0.0
 40
0.0835824643234882
 40
0.1572737651951214
 40
0.2525100607987807
 40
0.3310116946486763
 40
0.3909636014879904
 40
0.4438507396683199
 40
0.5349254040452478
 40
0.6561533833044131
 40
0.7306826437971918
 40
0.8128185200596312
 40
0.9013045495040374
 40
1.0
 40
1.0
 40
1.0
 40
1.0
 10
10.96412942806219
 20
-2.640953844120056
 30
0.0
 10
11.0336816454066
 20
-2.629012485303601
 30
0.0
 10
11.16455525852583
 20
-2.60654291016232
 30
0.0
 10
11.39242200937229
 20
-2.572281555001903
 30
0.0
 10
11.63470129992277
 20
-2.543378872240385
 30
0.0
 10
11.86265037056296
 20
-2.520457893511701
 30
0.0
 10
12.04679981652902
 20
-2.505260498324244
 30
0.0
 10
12.22476283138016
 20
-2.493630182304652
 30
0.0
 10
12.47786771645596
 20
-2.481576892438244
 30
0.0
 10
12.75351453638446
 20
-2.476820337394979
 30
0.0
 10
13.02291095134703
 20
-2.478902283331638
 30
0.0
 10
13.26252194068852
 20
-2.485602542642401
 30
0.0
 10
13.50485964000441
 20
-2.501879701804209
 30
0.0
 10
13.64635787747185
 20
-2.514995060901535
 30
0.0
 10
13.72096585843066
 20
-2.521910415320888
 30
0.0
  0
SPLINE
  5
AA
330
1F
100
AcDbEntity
  8
0
  6
Continuous
 62
     1
370
    25
100
AcDbSpline
210
0.0
220
0.0
230
1.0
 70
     8
 71
     3
 72
    11
 73
     7
 74
     0
 42
0.000000001
 43
0.00000001
 40
0.0
 40
0.0
 40
0.0
 40
0.0
 40
0.3926283636777991
 40
0.591072686818833
 40
0.8905691999648685
 40
1.0
 40
1.0
 40
1.0
 40
1.0
 10
23.69545464313461
 20
2.524054016694221
 30
0.0
 10
23.49536671685655
 20
2.50869901551131
 30
0.0
 10
23.19414928295199
 20
2.485583207676458
 30
0.0
 10
22.75054728596024
 20
2.478947501757107
 30
0.0
 10
22.44572524887287
 20
2.481657633860462
 30
0.0
 10
22.24294917631033
 20
2.495551653511399
 30
0.0
 10
22.1886853814176
 20
2.499269756061894
 30
0.0
  0
SPLINE
  5
AB
330
1F
100
AcDbEntity
  8
0
  6
Continuous
 62
     1
370
    25
100
AcDbSpline
210
0.0
220
0.0
230
1.0
 70
     8
 71
     3
 72
    14
 73
    10
 74
     0
 42
0.000000001
 43
0.00000001
 40
0.0
 40
0.0
 40
0.0
 40
0.0
 40
0.2481490552799684
 40
0.4160870328830091
 40
0.5219124791421229
 40
0.6226519745971663
 40
0.7231110436792864
 40
0.9337831420727641
 40
1.0
 40
1.0
 40
1.0
 40
1.0
 10
25.16597439464281
 20
-2.386950039963527
 30
0.0
 10
25.28059151248774
 20
-2.356923192158609
 30
0.0
 10
25.47277719873947
 20
-2.306575299454032
 30
0.0
 10
25.71144998112971
 20
-2.254842167458027
 30
0.0
 10
25.87770582710339
 20
-2.222096803375449
 30
0.0
 10
26.01616773867227
 20
-2.197055198351364
 30
0.0
 10
26.20366020462498
 20
-2.166740499735718
 30
0.0
 10
26.37559103557179
 20
-2.141851994712693
 30
0.0
 10
26.50174484664626
 20
-2.130845968963857
 30
0.0
 10
26.53191401300051
 20
-2.12821392305983
 30
0.0
  0
SPLINE
  5
AC
330
1F
100
AcDbEntity
  8
0
  6
Continuous
 62
     1
370
    25
100
AcDbSpline
210
0.0
220
0.0
230
1.0
 70
     8
 71
     3
 72
    20
 73
    16
 74
     0
 42
0.000000001
 43
0.00000001
 40
0.0
 40
0.0
 40
0.0
 40
0.0
 40
0.0895036048306429
 40
0.156915913977597
 40
0.2025808455703316
 40
0.3017599116354537
 40
0.3985529005478009
 40
0.5103533906138639
 40
0.5817076867893782
 40
0.6527426795262629
 40
0.72027729842561
 40
0.783653018458988
 40
0.840847869068012
 40
0.9042772258858143
 40
1.0
 40
1.0
 40
1.0
 40
1.0
 10
18.39367524625992
 20
2.172629992079033
 30
0.0
 10
18.29613557871424
 20
2.159136733107592
 30
0.0
 10
18.125131001737
 20
2.135480623747007
 30
0.0
 10
17.90735383724517
 20
2.115000328386857
 30
0.0
 10
17.68402912350671
 20
2.099277807298685
 30
0.0
 10
17.43131909572194
 20
2.089383051220313
 30
0.0
 10
17.1008927395519
 20
2.090602516894095
 30
0.0
 10
16.80336126358424
 20
2.105817459330849
 30
0.0
 10
16.53153551607128
 20
2.130390915200473
 30
0.0
 10
16.30784289239012
 20
2.157443692528926
 30
0.0
 10
16.08943188976212
 20
2.190561154854584
 30
0.0
 10
15.88229615142465
 20
2.227706370487962
 30
0.0
 10
15.68294771129495
 20
2.268222207371922
 30
0.0
 10
15.45563455256971
 20
2.319420601033661
 30
0.0
 10
15.29049623446354
 20
2.362972394547132
 30
0.0
 10
15.19117304080533
 20
2.389166819141669
 30
0.0
  0
SPLINE
  5
AD
330
1F
100
AcDbEntity
  8
0
  6
Continuous
 62
     1
370
    25
100
AcDbSpline
210
0.0
220
0.0
230
1.0
 70
     8
 71
     3
 72
    14
 73
    10
 74
     0
 42
0.000000001
 43
0.00000001
 40
0.0
 40
0.0
 40
0.0
 40
0.0
 40
0.2247257699399236
 40
0.3736371568024822
 40
0.5079119619223157
 40
0.6566974271555788
 40
0.8152466268648477
 40
0.9820135596370968
 40
1.0
 40
1.0
 40
1.0
 40
1.0
 10
15.19117304080534
 20
-2.387016961693881
 30
0.0
 10
15.29049625400195
 20
-2.360823599816882
 30
0.0
 10
15.4556346045934
 20
-2.317273573215856
 30
0.0
 10
15.6829475872143
 20
-2.26606560103115
 30
0.0
 10
15.88229659006895
 20
-2.225580371422764
 30
0.0
 10
16.0894299935721
 20
-2.188308161386348
 30
0.0
 10
16.30785063063809
 20
-2.155714727552743
 30
0.0
 10
16.46364612904001
 20
-2.135419897533684
 30
0.0
 10
16.54769212533632
 20
-2.127932807609978
 30
0.0
 10
16.55587432127933
 20
-2.127203911059299
 30
0.0
  0
SPLINE
  5
AE
330
1F
100
AcDbEntity
  8
0
  6
Continuous
 62
     1
370
    25
100
AcDbSpline
210
0.0
220
0.0
230
1.0
 70
     8
 71
     3
 72
    21
 73
    17
 74
     0
 42
0.000000001
 43
0.00000001
 40
0.0
 40
0.0
 40
0.0
 40
0.0
 40
0.0959030747454855
 40
0.1588428540111145
 40
0.2051028290896127
 40
0.2544450579021028
 40
0.3084071063453315
 40
0.3689430644954538
 40
0.4331892709986349
 40
0.4977956665256347
 40
0.6278954348838467
 40
0.7380316028325927
 40
0.7801827799839283
 40
0.8248611736647142
 40
0.8959756974335383
 40
1.0
 40
1.0
 40
1.0
 40
1.0
 10
28.38031068541269
 20
2.174409687842283
 30
0.0
 10
28.27709242696855
 20
2.160037344464805
 30
0.0
 10
28.10613354164778
 20
2.13623264323948
 30
0.0
 10
27.88598881136292
 20
2.115428056779918
 30
0.0
 10
27.71386445071026
 20
2.103114411423692
 30
0.0
 10
27.55330775278227
 20
2.095130078732568
 30
0.0
 10
27.37794763117681
 20
2.090380787464405
 30
0.0
 10
27.18656741263574
 20
2.090057054381826
 30
0.0
 10
26.98471817819392
 20
2.09540379603095
 30
0.0
 10
26.70797356117582
 20
2.110673283570725
 30
0.0
 10
26.38159865681186
 20
2.142323682719854
 30
0.0
 10
26.07865806556223
 20
2.187818697266927
 30
0.0
 10
25.8700316447949
 20
2.225699068110439
 30
0.0
 10
25.7052478628507
 20
2.258297787007228
 30
0.0
 10
25.46890885792023
 20
2.309685252981499
 30
0.0
 10
25.27885658789574
 20
2.359507690758255
 30
0.0
 10
25.16597439464281
 20
2.389099897411315
 30
0.0
  0
LINE
  5
AF
330
1F
100
AcDbEntity
  8
0
  6
Continuous
 62
     4
370
    25
100
AcDbLine
 10
3.075369342984414
 20
4.763574928723893
 30
0.0
 11
3.075369342984414
 21
-4.761425071276106
 31
0.0
  0
LINE
  5
B0
330
1F
100
AcDbEntity
  8
0
  6
Continuous
 62
     4
370
    25
100
AcDbLine
 10
-33.64
 20
4.763574928723888
 30
0.0
 11
-33.64
 21
-4.761425071276107
 31
0.0
  0
SPLINE
  5
B1
330
1F
100
AcDbEntity
  8
0
  6
Continuous
 62
     4
370
    25
100
AcDbSpline
210
0.0
220
0.0
230
1.0
 70
     8
 71
     3
 72
     8
 73
     4
 74
     0
 42
0.000000001
 43
0.00000001
 40
0.0
 40
0.0
 40
0.0
 40
0.0
 40
1.0
 40
1.0
 40
1.0
 40
1.0
 10
8.999999999999996
 20
-2.978264922770864
 30
0.0
 10
8.825469365501654
 20
-2.968551146469057
 30
0.0
 10
8.652011547178901
 20
-2.94669536160472
 30
0.0
 10
8.479741520854814
 20
-2.912008547350744
 30
0.0
  0
LINE
  5
B2
330
1F
100
AcDbEntity
  8
0
  6
Continuous
 62
     4
370
    25
100
AcDbLine
 10
8.999999999999996
 20
-2.978264922771304
 30
0.0
 11
8.999999999999996
 21
-3.165450316561287
 31
0.0
  0
SPLINE
  5
B3
330
1F
100
AcDbEntity
  8
0
  6
Continuous
 62
     4
370
    25
100
AcDbSpline
210
0.0
220
0.0
230
1.0
 70
     8
 71
     3
 72
     8
 73
     4
 74
     0
 42
0.000000001
 43
0.00000001
 40
0.0
 40
0.0
 40
0.0
 40
0.0
 40
1.0
 40
1.0
 40
1.0
 40
1.0
 10
8.479844975348072
 20
-3.232494961374919
 30
0.0
 10
8.652966360206367
 20
-3.222547733916241
 30
0.0
 10
8.826379591068719
 20
-3.200142792250513
 30
0.0
 10
8.999999999999996
 20
-3.165450316561286
 30
0.0
  0
LINE
  5
B4
330
1F
100
AcDbEntity
  8
0
  6
Continuous
 62
     4
370
    25
100
AcDbLine
 10
8.479844975348074
 20
-3.31330019007058
 30
0.0
 11
8.479844975348072
 21
-3.232480698896252
 31
0.0
  0
SPLINE
  5
B5
330
1F
100
AcDbEntity
  8
0
  6
Continuous
 62
     4
370
    25
100
AcDbSpline
210
0.0
220
0.0
230
1.0
 70
     8
 71
     3
 72
     8
 73
     4
 74
     0
 42
0.000000001
 43
0.00000001
 40
0.0
 40
0.0
 40
0.0
 40
0.0
 40
1.0
 40
1.0
 40
1.0
 40
1.0
 10
8.479844975348072
 20
3.234644818822705
 30
0.0
 10
8.652966360206367
 20
3.224697591364027
 30
0.0
 10
8.826379591068719
 20
3.202292649698299
 30
0.0
 10
8.999999999999996
 20
3.167600174009072
 30
0.0
  0
LINE
  5
B6
330
1F
100
AcDbEntity
  8
0
  6
Continuous
 62
     4
370
    25
100
AcDbLine
 10
8.479844975348076
 20
-2.911942684772307
 30
0.0
 11
8.479844975348074
 21
3.315450047518366
 31
0.0
  0
LINE
  5
B7
330
1F
100
AcDbEntity
  8
0
  6
Continuous
 62
     4
370
    25
100
AcDbLine
 10
-34.45
 20
3.953574928723888
 30
0.0
 11
-34.45
 21
-3.951425071276107
 31
0.0
  0
SPLINE
  5
B8
330
1F
100
AcDbEntity
  8
0
  6
Continuous
 62
     4
370
    25
100
AcDbSpline
210
0.0
220
0.0
230
1.0
 70
    24
 71
     3
 72
    10
 73
     6
 74
     0
 42
0.000000001
 43
0.00000001
 40
0.0
 40
0.0
 40
0.0
 40
0.0
 40
0.5
 40
0.5
 40
1.0
 40
1.0
 40
1.0
 40
1.0
 10
9.999999999999993
 20
-0.7081881430985478
 30
0.0
 10
9.999999999999993
 20
-1.159474873052986
 30
0.0
 10
9.999999999999993
 20
-1.590768833099371
 30
0.0
 10
9.999999999999995
 20
-2.28164425170874
 30
0.0
 10
9.999999999999995
 20
-2.538251912387273
 30
0.0
 10
9.999999999999993
 20
-2.684661617581196
 30
0.0
  0
SPLINE
  5
B9
330
1F
100
AcDbEntity
  8
0
  6
Continuous
 62
     4
370
    25
100
AcDbSpline
210
0.0
220
0.0
230
1.0
 70
     8
 71
     3
 72
    12
 73
     8
 74
     0
 42
0.000000001
 43
0.00000001
 40
0.0
 40
0.0
 40
0.0
 40
0.0
 40
0.5000000000000001
 40
0.5000000000000001
 40
0.75
 40
0.75
 40
1.0
 40
1.0
 40
1.0
 40
1.0
 10
9.999999999999995
 20
-2.684661617581197
 30
0.0
 10
9.748337780721434
 20
-2.663599235175947
 30
0.0
 10
9.490946927969715
 20
-2.616509453774859
 30
0.0
 10
9.112604117811438
 20
-2.509739512202044
 30
0.0
 10
8.987993409288778
 20
-2.468266767849511
 30
0.0
 10
8.734577118724548
 20
-2.373303152288806
 30
0.0
 10
8.60694011883211
 20
-2.319908453700907
 30
0.0
 10
8.479741520854814
 20
-2.261151539884637
 30
0.0
  0
SPLINE
  5
BA
330
1F
100
AcDbEntity
  8
0
  6
Continuous
 62
     4
370
    25
100
AcDbSpline
210
0.0
220
0.0
230
1.0
 70
     8
 71
     3
 72
    12
 73
     8
 74
     0
 42
0.000000001
 43
0.00000001
 40
0.0
 40
0.0
 40
0.0
 40
0.0
 40
0.2499999999999998
 40
0.2499999999999998
 40
0.4999999999999997
 40
0.4999999999999997
 40
1.0
 40
1.0
 40
1.0
 40
1.0
 10
8.714121832775742
 20
0.3100690692419105
 30
0.0
 10
8.663898321720694
 20
0.3498101819470128
 30
0.0
 10
8.62971362828298
 20
0.4031399876975286
 30
0.0
 10
8.572586877315336
 20
0.5150656397461196
 30
0.0
 10
8.551147446947867
 20
0.573389867180066
 30
0.0
 10
8.498958723071356
 20
0.7523678958531167
 30
0.0
 10
8.479844975348087
 20
0.8771658671458998
 30
0.0
 10
8.479844975347978
 20
1.002907441542758
 30
0.0
  0
SPLINE
  5
BB
330
1F
100
AcDbEntity
  8
0
  6
Continuous
 62
     4
370
    25
100
AcDbSpline
210
0.0
220
0.0
230
1.0
 70
     8
 71
     3
 72
    10
 73
     6
 74
     0
 42
0.000000001
 43
0.00000001
 40
0.0
 40
0.0
 40
0.0
 40
0.0
 40
0.5
 40
0.5
 40
1.0
 40
1.0
 40
1.0
 40
1.0
 10
9.999999999999995
 20
-0.7081881430985498
 30
0.0
 10
9.78695159107935
 20
-0.5439005597452866
 30
0.0
 10
9.569796085647441
 20
-0.3736919279584865
 30
0.0
 10
9.140494289268293
 20
-0.031757047371738
 30
0.0
 10
8.929524567989958
 20
0.1396241083610112
 30
0.0
 10
8.714121832642249
 20
0.3100690693475422
 30
0.0
  0
SPLINE
  5
BC
330
1F
100
AcDbEntity
  8
0
  6
Continuous
 62
     4
370
    25
100
AcDbSpline
210
0.0
220
0.0
230
1.0
 70
     8
 71
     3
 72
    14
 73
    10
 74
     0
 42
0.000000001
 43
0.00000001
 40
0.0
 40
0.0
 40
0.0
 40
0.0
 40
0.2500000000000001
 40
0.2500000000000001
 40
0.5000000000000001
 40
0.5000000000000001
 40
0.7500000000000001
 40
0.7500000000000001
 40
1.0
 40
1.0
 40
1.0
 40
1.0
 10
8.479844975348072
 20
2.604552520525619
 30
0.0
 10
8.479844975348072
 20
2.542290535750525
 30
0.0
 10
8.49468391600246
 20
2.488826361615996
 30
0.0
 10
8.535399003257398
 20
2.396890377125238
 30
0.0
 10
8.562235340421717
 20
2.357581003165932
 30
0.0
 10
8.624312381249958
 20
2.291828182326157
 30
0.0
 10
8.659762228991628
 20
2.264845284289069
 30
0.0
 10
8.74315492747321
 20
2.225433460186544
 30
0.0
 10
8.790369958787874
 20
2.213222859095592
 30
0.0
 10
8.844087914778134
 20
2.216266149201824
 30
0.0
  0
SPLINE
  5
BD
330
1F
100
AcDbEntity
  8
0
  6
Continuous
 62
     4
370
    25
100
AcDbSpline
210
0.0
220
0.0
230
1.0
 70
     8
 71
     3
 72
    10
 73
     6
 74
     0
 42
0.000000001
 43
0.00000001
 40
0.0
 40
0.0
 40
0.0
 40
0.0
 40
0.5
 40
0.5
 40
1.0
 40
1.0
 40
1.0
 40
1.0
 10
9.999999999999991
 20
2.135168518710125
 30
0.0
 10
9.80840787022736
 20
2.172762135018928
 30
0.0
 10
9.61349513887945
 20
2.198727094396977
 30
0.0
 10
9.22664038305592
 20
2.225890288948701
 30
0.0
 10
9.037138840138157
 20
2.227203087518198
 30
0.0
 10
8.844087914778134
 20
2.216266149201825
 30
0.0
  0
SPLINE
  5
BE
330
1F
100
AcDbEntity
  8
0
  6
Continuous
 62
     4
370
    25
100
AcDbSpline
210
0.0
220
0.0
230
1.0
 70
    24
 71
     3
 72
    14
 73
    10
 74
     0
 42
0.000000001
 43
0.00000001
 40
0.0
 40
0.0
 40
0.0
 40
0.0
 40
0.25
 40
0.25
 40
0.5
 40
0.5
 40
0.75
 40
0.75
 40
1.0
 40
1.0
 40
1.0
 40
1.0
 10
9.999999999999993
 20
2.135168518710125
 30
0.0
 10
9.999999999999993
 20
2.000935576765273
 30
0.0
 10
9.999999999999993
 20
1.832096745095737
 30
0.0
 10
9.999999999999993
 20
1.431790003823731
 30
0.0
 10
9.999999999999993
 20
1.200394913147915
 30
0.0
 10
9.999999999999993
 20
0.6950484572155842
 30
0.0
 10
9.999999999999993
 20
0.4213663616784245
 30
0.0
 10
9.999999999999993
 20
-0.1400675313198312
 30
0.0
 10
9.999999999999993
 20
-0.4275201980756537
 30
0.0
 10
9.999999999999993
 20
-0.7081881430985487
 30
0.0
  0
SPLINE
  5
BF
330
1F
100
AcDbEntity
  8
0
  6
Continuous
 62
     4
370
    25
100
AcDbSpline
210
0.0
220
0.0
230
1.0
 70
     8
 71
     3
 72
    10
 73
     6
 74
     0
 42
0.000000001
 43
0.00000001
 40
0.0
 40
0.0
 40
0.0
 40
0.0
 40
0.5
 40
0.5
 40
1.0
 40
1.0
 40
1.0
 40
1.0
 10
9.999999999999993
 20
-3.171640808141749
 30
0.0
 10
9.834284986055296
 20
-3.165331747586799
 30
0.0
 10
9.666087419617112
 20
-3.145845531924402
 30
0.0
 10
9.330937586204934
 20
-3.08095115489077
 30
0.0
 10
9.165740212879259
 20
-3.035762133353752
 30
0.0
 10
8.999999999999996
 20
-2.978264922771303
 30
0.0
  0
SPLINE
  5
C0
330
1F
100
AcDbEntity
  8
0
  6
Continuous
 62
     4
370
    25
100
AcDbSpline
210
0.0
220
0.0
230
1.0
 70
    24
 71
     3
 72
     8
 73
     4
 74
     0
 42
0.000000001
 43
0.00000001
 40
0.0
 40
0.0
 40
0.0
 40
0.0
 40
1.0
 40
1.0
 40
1.0
 40
1.0
 10
9.999999999999991
 20
-2.684661617581197
 30
0.0
 10
9.999999999999991
 20
-2.849948738143347
 30
0.0
 10
9.999999999999991
 20
-3.013331549413508
 30
0.0
 10
9.999999999999991
 20
-3.171640808128625
 30
0.0
  0
LINE
  5
C1
330
1F
100
AcDbEntity
  8
0
  6
Continuous
 62
     4
370
    25
100
AcDbLine
 10
8.999999999999996
 20
-3.165450316561287
 30
0.0
 11
9.230799965865199
 21
-3.173315360605311
 31
0.0
  0
LINE
  5
C2
330
1F
100
AcDbEntity
  8
0
  6
Continuous
 62
     4
370
    25
100
AcDbLine
 10
9.999999999999993
 20
-3.171640808141749
 30
0.0
 11
9.999999999999993
 21
-3.173925071276107
 31
0.0
  0
SPLINE
  5
C3
330
1F
100
AcDbEntity
  8
0
  6
Continuous
 62
     4
370
    25
100
AcDbSpline
210
0.0
220
0.0
230
1.0
 70
     8
 71
     3
 72
    10
 73
     6
 74
     0
 42
0.000000001
 43
0.00000001
 40
0.0
 40
0.0
 40
0.0
 40
0.0
 40
0.5
 40
0.5
 40
1.0
 40
1.0
 40
1.0
 40
1.0
 10
8.999999999999996
 20
3.167600174009074
 30
0.0
 10
9.165740212879252
 20
3.1797470690949
 30
0.0
 10
9.330937586204922
 20
3.178864565253658
 30
0.0
 10
9.666087419617089
 20
3.150764964350026
 30
0.0
 10
9.834284986055264
 20
3.123492877972836
 30
0.0
 10
9.999999999999956
 20
3.083646529929865
 30
0.0
  0
SPLINE
  5
C4
330
1F
100
AcDbEntity
  8
0
  6
Continuous
 62
     4
370
    25
100
AcDbSpline
210
0.0
220
0.0
230
1.0
 70
    24
 71
     3
 72
    10
 73
     6
 74
     0
 42
0.000000001
 43
0.00000001
 40
0.0
 40
0.0
 40
0.0
 40
0.0
 40
0.5
 40
0.5
 40
1.0
 40
1.0
 40
1.0
 40
1.0
 10
9.999999999999993
 20
3.083646529929854
 30
0.0
 10
9.999999999999993
 20
2.942324216852548
 30
0.0
 10
9.999999999999991
 20
2.780760067374895
 30
0.0
 10
9.999999999999993
 20
2.452269434086292
 30
0.0
 10
9.999999999999993
 20
2.28625160978317
 30
0.0
 10
9.999999999999993
 20
2.135168518710125
 30
0.0
  0
LINE
  5
C5
330
1F
100
AcDbEntity
  8
0
  6
Continuous
 62
     4
370
    25
100
AcDbLine
 10
9.999999999999993
 20
3.176074928723893
 30
0.0
 11
9.999999999999993
 21
3.083646529929857
 31
0.0
  0
SPLINE
  5
C6
330
1F
100
AcDbEntity
  8
0
  6
Continuous
 62
     1
370
    25
100
AcDbSpline
210
0.0
220
0.0
230
1.0
 70
     8
 71
     3
 72
    40
 73
    36
 74
     0
 42
0.000000001
 43
0.00000001
 40
0.0
 40
0.0
 40
0.0
 40
0.0
 40
0.0212338224142826
 40
0.0511302935741349
 40
0.0812356248689211
 40
0.1110295295851749
 40
0.1410305347754288
 40
0.1708979141346768
 40
0.2007648558843978
 40
0.2314907218279897
 40
0.2622170477181462
 40
0.2922183148711619
 40
0.3222196539370334
 40
0.3530945857954466
 40
0.3839694653699297
 40
0.4139351251952955
 40
0.4439003981456712
 40
0.4747328188961378
 40
0.5055655844520287
 40
0.535565308755289
 40
0.5655651475199198
 40
0.596438967415529
 40
0.6273127617067857
 40
0.6572770675369167
 40
0.6872410958590706
 40
0.7180718205984179
 40
0.7489026816905453
 40
0.7788966344452398
 40
0.8088907593351553
 40
0.8397588681775126
 40
0.8706269737699257
 40
0.9024480107747215
 40
0.9342688912020782
 40
0.9671346930589381
 40
1.0
 40
1.0
 40
1.0
 40
1.0
 10
16.55587432127933
 20
2.129353768507086
 30
0.0
 10
16.64450137495881
 20
2.194688481236617
 30
0.0
 10
16.85791218648531
 20
2.352012159341585
 30
0.0
 10
17.19485892885031
 20
2.566213558066397
 30
0.0
 10
17.56945894062445
 20
2.770151070128043
 30
0.0
 10
17.94467566732201
 20
2.934966731059627
 30
0.0
 10
18.31640920800831
 20
3.059856703829471
 30
0.0
 10
18.69158809348044
 20
3.141493242737555
 30
0.0
 10
19.06781209401252
 20
3.180643683668042
 30
0.0
 10
19.4476084107909
 20
3.174482254960885
 30
0.0
 10
19.82969779482151
 20
3.122749505387416
 30
0.0
 10
20.20671117301352
 20
3.026485893048859
 30
0.0
 10
20.58534279097667
 20
2.888132496088339
 30
0.0
 10
20.96749155664628
 20
2.706418233283277
 30
0.0
 10
21.34872575238936
 20
2.485179919779863
 30
0.0
 10
21.72801005152819
 20
2.23172603222983
 30
0.0
 10
22.10535173111963
 20
1.946057087665873
 30
0.0
 10
22.48681680437932
 20
1.629883526627062
 30
0.0
 10
22.86966261016187
 20
1.291069934460494
 30
0.0
 10
23.24707149417407
 20
0.9351579361155968
 30
0.0
 10
23.62589614928272
 20
0.567215372324703
 30
0.0
 10
24.00782800480716
 20
0.1869211226769548
 30
0.0
 10
24.38920430842002
 20
-0.1963160514694291
 30
0.0
 10
24.76823643962422
 20
-0.5714322755301441
 30
0.0
 10
25.1454553926272
 20
-0.9399854618219526
 30
0.0
 10
25.52734291637194
 20
-1.297515748680412
 30
0.0
 10
25.90984446691224
 20
-1.635936533713222
 30
0.0
 10
26.28722570522681
 20
-1.949142040113636
 30
0.0
 10
26.66619325050914
 20
-2.234145482800781
 30
0.0
 10
27.04785721166214
 20
-2.490173861754831
 30
0.0
 10
27.43712171103633
 20
-2.71445912120365
 30
0.0
 10
27.83126496043457
 20
-2.898999251449104
 30
0.0
 10
28.23233707190701
 20
-3.041430208120852
 30
0.0
 10
28.63980369259765
 20
-3.138917717221731
 30
0.0
 10
28.91326858387472
 20
-3.160467032911866
 30
0.0
 10
29.05
 20
-3.171241609630227
 30
0.0
  0
SPLINE
  5
C7
330
1F
100
AcDbEntity
  8
0
  6
Continuous
 62
     1
370
    25
100
AcDbSpline
210
0.0
220
0.0
230
1.0
 70
     8
 71
     3
 72
    17
 73
    13
 74
     0
 42
0.000000001
 43
0.00000001
 40
0.0
 40
0.0
 40
0.0
 40
0.0
 40
0.0961881560545005
 40
0.2018074934324504
 40
0.3069378878139266
 40
0.4122017782923034
 40
0.5177758527608269
 40
0.6228662144476118
 40
0.7282498282414006
 40
0.833724489869114
 40
0.9388048820080065
 40
0.9999999999999999
 40
0.9999999999999999
 40
0.9999999999999999
 40
0.9999999999999999
 10
24.49554146180982
 20
-0.3006610537078155
 30
0.0
 10
24.30001997167533
 20
-0.1638523936344531
 30
0.0
 10
23.88980624625717
 20
0.1231789198009981
 30
0.0
 10
23.26434605901905
 20
0.5568625797702769
 30
0.0
 10
22.62219259561168
 20
0.9821714604777263
 30
0.0
 10
21.97961660018641
 20
1.366744477133318
 30
0.0
 10
21.33600440314574
 20
1.69446954347632
 30
0.0
 10
20.69395071167605
 20
1.954514188359109
 30
0.0
 10
20.05098104849535
 20
2.134708315469911
 30
0.0
 10
19.40768286660909
 20
2.223966048410152
 30
0.0
 10
18.85571717134157
 20
2.235601229851145
 30
0.0
 10
18.51719185742683
 20
2.181424954111059
 30
0.0
 10
18.39260287548968
 20
2.161486217590741
 30
0.0
  0
SPLINE
  5
C8
330
1F
100
AcDbEntity
  8
0
  6
Continuous
 62
     1
370
    25
100
AcDbSpline
210
0.0
220
0.0
230
1.0
 70
     8
 71
     3
 72
    32
 73
    28
 74
     0
 42
0.000000001
 43
0.00000001
 40
0.0
 40
0.0
 40
0.0
 40
0.0
 40
0.040422961093312
 40
0.0811268236565138
 40
0.1216895409174244
 40
0.1622522722634177
 40
0.2039853063981724
 40
0.2457181334670504
 40
0.2863819198389567
 40
0.3270454739725044
 40
0.368887871476136
 40
0.4107306698151497
 40
0.4514394543411399
 40
0.4921482806930303
 40
0.5340410880518881
 40
0.5759337556326545
 40
0.6166010998093471
 40
0.6572679604279277
 40
0.6991128632036657
 40
0.7409583145887891
 40
0.7815317849312041
 40
0.8223887061345966
 40
0.8628229802308988
 40
0.9035383170952717
 40
0.9440723060118447
 40
0.9846057010343402
 40
1.0
 40
1.0
 40
1.0
 40
1.0
 10
9.999999999999996
 20
3.083646529929858
 30
0.0
 10
10.12368723009611
 20
3.049721821431229
 30
0.0
 10
10.37192119992843
 20
2.981636659693233
 30
0.0
 10
10.74676540382513
 20
2.827889991675104
 30
0.0
 10
11.11993942644571
 20
2.636817331622248
 30
0.0
 10
11.49669212854142
 20
2.406976514973044
 30
0.0
 10
11.87779832435757
 20
2.140970617729559
 30
0.0
 10
12.25789811153883
 20
1.842911503643373
 30
0.0
 10
12.63639510811795
 20
1.522544368742202
 30
0.0
 10
13.01457228579888
 20
1.180140545868924
 30
0.0
 10
13.3954641742458
 20
0.8165185533515089
 30
0.0
 10
13.77809596959174
 20
0.4424945311369208
 30
0.0
 10
14.15571009613453
 20
0.0641192509123949
 30
0.0
 10
14.533976480935
 20
-0.3147987887047589
 30
0.0
 10
14.91633567798833
 20
-0.6923861485400374
 30
0.0
 10
15.29740872507915
 20
-1.060909705090481
 30
0.0
 10
15.67668537493468
 20
-1.408713338558161
 30
0.0
 10
16.05446991122038
 20
-1.73794388504712
 30
0.0
 10
16.43544145448401
 20
-2.045585040613731
 30
0.0
 10
16.81810181718987
 20
-2.321876524513717
 30
0.0
 10
17.19485698580542
 20
-2.564767500350225
 30
0.0
 10
17.56945890809023
 20
-2.767847219626879
 30
0.0
 10
17.9446777014561
 20
-2.932736713015237
 30
0.0
 10
18.31640104642751
 20
-3.058185500310805
 30
0.0
 10
18.69161853368215
 20
-3.137519333002965
 30
0.0
 10
18.98711593141212
 20
-3.175138857589184
 30
0.0
 10
19.15865926951088
 20
-3.16994331334245
 30
0.0
 10
19.20587719043604
 20
-3.16851322109798
 30
0.0
  0
SPLINE
  5
C9
330
1F
100
AcDbEntity
  8
0
  6
Continuous
 62
     1
370
    25
100
AcDbSpline
210
0.0
220
0.0
230
1.0
 70
     8
 71
     3
 72
    14
 73
    10
 74
     0
 42
0.000000001
 43
0.00000001
 40
0.0
 40
0.0
 40
0.0
 40
0.0
 40
0.051192849472138
 40
0.2044448967881768
 40
0.3576969279690962
 40
0.5156800131528769
 40
0.6736623209708269
 40
0.8368323890488416
 40
0.9999999999999999
 40
0.9999999999999999
 40
0.9999999999999999
 40
0.9999999999999999
 10
26.53350124409221
 20
2.131556860952908
 30
0.0
 10
26.57647121286282
 20
2.164235051034754
 30
0.0
 10
26.74807703127074
 20
2.294739394266192
 30
0.0
 10
27.04786127803747
 20
2.491017240864672
 30
0.0
 10
27.43712058405867
 20
2.716971063256602
 30
0.0
 10
27.8312652658412
 20
2.901050985353144
 30
0.0
 10
28.23233698747363
 20
3.043607193015483
 30
0.0
 10
28.639803713989
 20
3.141060701880757
 30
0.0
 10
28.91326859100512
 20
3.162614599441567
 30
0.0
 10
29.05
 20
3.173391467078016
 30
0.0
  0
SPLINE
  5
CA
330
1F
100
AcDbEntity
  8
0
  6
Continuous
 62
     1
370
    25
100
AcDbSpline
210
0.0
220
0.0
230
1.0
 70
    24
 71
     3
 72
    10
 73
     6
 74
     0
 42
0.000000001
 43
0.00000001
 40
0.0
 40
0.0
 40
0.0
 40
0.0
 40
0.5
 40
0.5
 40
1.0
 40
1.0
 40
1.0
 40
1.0
 10
29.05
 20
2.223574928723895
 30
0.0
 10
29.05
 20
2.358297344087117
 30
0.0
 10
29.04999999999999
 20
2.514857267376992
 30
0.0
 10
29.04999999999999
 20
2.843319564774612
 30
0.0
 10
29.04999999999999
 20
3.014383087393572
 30
0.0
 10
29.04999999999999
 20
3.173391467078017
 30
0.0
  0
SPLINE
  5
CB
330
1F
100
AcDbEntity
  8
0
  6
Continuous
 62
     1
370
    25
100
AcDbSpline
210
0.0
220
0.0
230
1.0
 70
     8
 71
     3
 72
     9
 73
     5
 74
     0
 42
0.000000001
 43
0.00000001
 40
0.0
 40
0.0
 40
0.0
 40
0.0
 40
0.9608218466562518
 40
1.0
 40
1.0
 40
1.0
 40
1.0
 10
29.05
 20
2.223574928723895
 30
0.0
 10
28.83536688928813
 20
2.22271519149283
 30
0.0
 10
28.61198196995181
 20
2.221820397901221
 30
0.0
 10
28.38890657858231
 20
2.174507842632044
 30
0.0
 10
28.38016689669202
 20
2.172654224086625
 30
0.0
  0
SPLINE
  5
CC
330
1F
100
AcDbEntity
  8
0
  6
Continuous
 62
     1
370
    25
100
AcDbSpline
210
0.0
220
0.0
230
1.0
 70
     8
 71
     3
 72
    15
 73
    11
 74
     0
 42
0.000000001
 43
0.00000001
 40
0.0
 40
0.0
 40
0.0
 40
0.0
 40
0.0556723758673184
 40
0.1977538544032634
 40
0.3399440841484611
 40
0.4826265862114564
 40
0.6246405294128439
 40
0.7669792514785794
 40
0.8836820444884753
 40
1.0
 40
1.0
 40
1.0
 40
1.0
 10
14.51617752305789
 20
-0.2961265923172006
 30
0.0
 10
14.43227848184095
 20
-0.2385363012946428
 30
0.0
 10
14.13426068535007
 20
-0.0339698201899264
 30
0.0
 10
13.62299347520058
 20
0.3285025210987154
 30
0.0
 10
12.98051935988773
 20
0.766716189434208
 30
0.0
 10
12.33683279642436
 20
1.172708066180051
 30
0.0
 10
11.69478580630114
 20
1.533376752011807
 30
0.0
 10
11.09080966252146
 20
1.810798406531697
 30
0.0
 10
10.52543189737158
 20
2.015189716395459
 30
0.0
 10
10.17495102419867
 20
2.095219641506278
 30
0.0
 10
9.999999999999991
 20
2.135168518710125
 30
0.0
  0
SPLINE
  5
CD
330
1F
100
AcDbEntity
  8
0
  6
Continuous
 62
     4
370
    25
100
AcDbSpline
210
0.0
220
0.0
230
1.0
 70
    24
 71
     3
 72
    10
 73
     6
 74
     0
 42
0.000000001
 43
0.00000001
 40
0.0
 40
0.0
 40
0.0
 40
0.0
 40
0.5
 40
0.5
 40
1.0
 40
1.0
 40
1.0
 40
1.0
 10
9.999999999999993
 20
3.083646529929855
 30
0.0
 10
9.999999999999993
 20
2.942324216852549
 30
0.0
 10
9.999999999999993
 20
2.780760067374895
 30
0.0
 10
9.999999999999991
 20
2.452269434086293
 30
0.0
 10
9.999999999999993
 20
2.286251609783171
 30
0.0
 10
9.999999999999993
 20
2.135168518710125
 30
0.0
  0
SPLINE
  5
CE
330
1F
100
AcDbEntity
  8
0
  6
Continuous
 62
     1
370
    25
100
AcDbSpline
210
0.0
220
0.0
230
1.0
 70
     8
 71
     3
 72
    27
 73
    23
 74
     0
 42
0.000000001
 43
0.00000001
 40
0.0
 40
0.0
 40
0.0
 40
0.0
 40
0.0175495710177123
 40
0.0709042496477868
 40
0.1240501705758857
 40
0.1773225999643214
 40
0.2306343832416303
 40
0.2837759973853606
 40
0.3371048041821124
 40
0.3903584400372375
 40
0.4435087224725091
 40
0.4968725766992487
 40
0.5500788600283498
 40
0.6032507702833028
 40
0.6566262824594211
 40
0.7097980724555739
 40
0.7630045312857876
 40
0.8163682852070021
 40
0.8695185028412972
 40
0.9227723691257087
 40
0.9664287456605097
 40
1.0
 40
1.0
 40
1.0
 40
1.0
 10
22.19184109863324
 20
-2.49510164110293
 30
0.0
 10
22.12125744240405
 20
-2.54151192906803
 30
0.0
 10
21.83608345283606
 20
-2.729020024894528
 30
0.0
 10
21.33561858900679
 20
-2.949413867840076
 30
0.0
 10
20.69412162267749
 20
-3.140261888566764
 30
0.0
 10
20.05099739466069
 20
-3.195013261895694
 30
0.0
 10
19.407412312881
 20
-3.121552636848674
 30
0.0
 10
18.76588996063869
 20
-2.919277573235277
 30
0.0
 10
18.12209293246657
 20
-2.598802293563987
 30
0.0
 10
17.47921921390592
 20
-2.171864857515307
 30
0.0
 10
16.8375991141568
 20
-1.654799578859376
 30
0.0
 10
16.19338511945353
 20
-1.072623596424293
 30
0.0
 10
15.55108970759469
 20
-0.4447652614068617
 30
0.0
 10
14.90921117699256
 20
0.2018678958699281
 30
0.0
 10
14.26485933305156
 20
0.8376158592052408
 30
0.0
 10
13.62298154055639
 20
1.441846622911187
 30
0.0
 10
12.98068684373299
 20
1.986626774712246
 30
0.0
 10
12.33646332502558
 20
2.448637343137557
 30
0.0
 10
11.69488387181258
 20
2.813586462587233
 30
0.0
 10
11.0907951221678
 20
3.04401682020053
 30
0.0
 10
10.5653407203394
 20
3.162001848571865
 30
0.0
 10
10.25502421117599
 20
3.166460888837202
 30
0.0
 10
10.12012800450839
 20
3.168399256920788
 30
0.0
  0
SPLINE
  5
CF
330
1F
100
AcDbEntity
  8
0
  6
Continuous
 62
     1
370
    25
100
AcDbSpline
210
0.0
220
0.0
230
1.0
 70
     8
 71
     3
 72
    18
 73
    14
 74
     0
 42
0.000000001
 43
0.00000001
 40
0.0
 40
0.0
 40
0.0
 40
0.0
 40
0.0370456572635161
 40
0.1340896455994735
 40
0.2312111007846776
 40
0.3279975482210463
 40
0.4251525135361265
 40
0.5221595059051177
 40
0.618963020728647
 40
0.7161869759465476
 40
0.8131007472969839
 40
0.909946844991926
 40
1.0
 40
1.0
 40
1.0
 40
1.0
 10
20.93964165719366
 20
-2.627956814295901
 30
0.0
 10
20.85788118583825
 20
-2.645457424405957
 30
0.0
 10
20.56194278339316
 20
-2.708802247545134
 30
0.0
 10
20.05098470776386
 20
-2.704357903669727
 30
0.0
 10
19.40752572413189
 20
-2.614349872773493
 30
0.0
 10
18.76576258413938
 20
-2.409757584789741
 30
0.0
 10
18.1221429648848
 20
-2.109611897719927
 30
0.0
 10
17.47928993150546
 20
-1.722464256555648
 30
0.0
 10
16.83745652505288
 20
-1.263697360711584
 30
0.0
 10
16.19348395442277
 20
-0.7556156439453863
 30
0.0
 10
15.5511365997797
 20
-0.2154857074999056
 30
0.0
 10
14.92486202585354
 20
0.3229985813014136
 30
0.0
 10
14.51140967616201
 20
0.6615152811602555
 30
0.0
 10
14.31219706296667
 20
0.8246218554473657
 30
0.0
  0
SPLINE
  5
D0
330
1F
100
AcDbEntity
  8
0
  6
Continuous
 62
     1
370
    25
100
AcDbSpline
210
0.0
220
0.0
230
1.0
 70
     8
 71
     3
 72
    21
 73
    17
 74
     0
 42
0.000000001
 43
0.00000001
 40
0.0
 40
0.0
 40
0.0
 40
0.0
 40
0.0718368563525901
 40
0.1434724015327526
 40
0.2153775091008637
 40
0.2871390164449614
 40
0.3587920482334155
 40
0.4307339428805979
 40
0.5024373622307378
 40
0.5741253358749551
 40
0.6460724691742045
 40
0.7177351654890236
 40
0.7894754736123962
 40
0.8613962851270325
 40
0.9330356963273662
 40
1.0
 40
1.0
 40
1.0
 40
1.0
 10
29.05000000000001
 20
-3.011812331087387
 30
0.0
 10
28.83534898878644
 20
-2.932333843373157
 30
0.0
 10
28.40664849110476
 20
-2.773599593553206
 30
0.0
 10
27.7651117189851
 20
-2.387842976678023
 30
0.0
 10
27.12114417954097
 20
-1.915116604909588
 30
0.0
 10
26.47848035538948
 20
-1.360889023416221
 30
0.0
 10
25.83679230837492
 20
-0.7504109770070443
 30
0.0
 10
25.192501769658
 20
-0.1119154394776347
 30
0.0
 10
24.55036297352468
 20
0.5334649926628316
 30
0.0
 10
23.90836310818638
 20
1.157178518268799
 30
0.0
 10
23.26402675869878
 20
1.731450060939524
 30
0.0
 10
22.62225228123126
 20
2.237301735447713
 30
0.0
 10
21.97978342119615
 20
2.651665703898409
 30
0.0
 10
21.33566647572263
 20
2.95416839864985
 30
0.0
 10
20.70857401135986
 20
3.143678642410494
 30
0.0
 10
20.29452407823112
 20
3.162767386792692
 30
0.0
 10
20.09448207009967
 20
3.171989827018845
 30
0.0
  0
SPLINE
  5
D1
330
1F
100
AcDbEntity
  8
0
  6
Continuous
 62
     1
370
    25
100
AcDbSpline
210
0.0
220
0.0
230
1.0
 70
     8
 71
     3
 72
    11
 73
     7
 74
     0
 42
0.000000001
 43
0.00000001
 40
0.0
 40
0.0
 40
0.0
 40
0.0
 40
0.2374864513539856
 40
0.5266187782411444
 40
0.7636432538643136
 40
1.0
 40
1.0
 40
1.0
 40
1.0
 10
12.22259833779462
 20
-2.494653511454022
 30
0.0
 10
12.04677910767353
 20
-2.59953184777272
 30
0.0
 10
11.65690546380973
 20
-2.832096278380143
 30
0.0
 10
11.09081033163213
 20
-3.041238101865472
 30
0.0
 10
10.52524378653812
 20
-3.166658865286344
 30
0.0
 10
10.17491654374903
 20
-3.16998172287916
 30
0.0
 10
9.999999999994593
 20
-3.171640808141545
 30
0.0
  0
SPLINE
  5
D2
330
1F
100
AcDbEntity
  8
0
  6
Continuous
 62
     4
370
    25
100
AcDbSpline
210
0.0
220
0.0
230
1.0
 70
    24
 71
     3
 72
     8
 73
     4
 74
     0
 42
0.000000001
 43
0.00000001
 40
0.0
 40
0.0
 40
0.0
 40
0.0
 40
1.0
 40
1.0
 40
1.0
 40
1.0
 10
9.999999999999993
 20
-2.684661617581197
 30
0.0
 10
9.999999999999993
 20
-2.849948738143338
 30
0.0
 10
9.999999999999993
 20
-3.013331549413489
 30
0.0
 10
9.999999999999993
 20
-3.171640808128597
 30
0.0
  0
SPLINE
  5
D3
330
1F
100
AcDbEntity
  8
0
  6
Continuous
 62
     1
370
    25
100
AcDbSpline
210
0.0
220
0.0
230
1.0
 70
     8
 71
     3
 72
    15
 73
    11
 74
     0
 42
0.000000001
 43
0.00000001
 40
0.0
 40
0.0
 40
0.0
 40
0.0
 40
0.1352358360472048
 40
0.270062116424303
 40
0.4054367884779948
 40
0.540519343763603
 40
0.6753812037888716
 40
0.8108307084561732
 40
0.9457950865893962
 40
1.0
 40
1.0
 40
1.0
 40
1.0
 10
29.05
 20
-2.503912010645191
 30
0.0
 10
28.83536711214743
 20
-2.426275017817085
 30
0.0
 10
28.40675134252632
 20
-2.271236152315058
 30
0.0
 10
27.76497517367283
 20
-1.917023229056667
 30
0.0
 10
27.1212158623124
 20
-1.49363587964602
 30
0.0
 10
26.47853330446616
 20
-1.006470904162025
 30
0.0
 10
25.83665704230141
 20
-0.4768522704984485
 30
0.0
 10
25.19258626594624
 20
0.0673959340204878
 30
0.0
 10
24.67837317068996
 20
0.5094644768810798
 30
0.0
 10
24.37851617240582
 20
0.74881287992489
 30
0.0
 10
24.29259460186492
 20
0.8173962073565004
 30
0.0
  0
SPLINE
  5
D4
330
1F
100
AcDbEntity
  8
0
  6
Continuous
 62
     1
370
    25
100
AcDbSpline
210
0.0
220
0.0
230
1.0
 70
     8
 71
     3
 72
     9
 73
     5
 74
     0
 42
0.000000001
 43
0.00000001
 40
0.0
 40
0.0
 40
0.0
 40
0.0
 40
0.4553041926138611
 40
1.0
 40
1.0
 40
1.0
 40
1.0
 10
10.9642607803494
 20
-2.635769670472198
 30
0.0
 10
10.81778291820772
 20
-2.659034252422879
 30
0.0
 10
10.49606863461907
 20
-2.710131040741739
 30
0.0
 10
10.17492538282343
 20
-2.693642730850072
 30
0.0
 10
9.999999999999995
 20
-2.684661617581197
 30
0.0
  0
LINE
  5
D5
330
1F
100
AcDbEntity
  8
0
  6
Continuous
 62
     1
370
    25
100
AcDbLine
 10
29.05
 20
-3.011812331087389
 30
0.0
 11
29.05
 21
-2.503912010645191
 31
0.0
  0
LINE
  5
D6
330
1F
100
AcDbEntity
  8
0
  6
Continuous
 62
     1
370
    25
100
AcDbLine
 10
29.05
 20
-3.171241609630227
 30
0.0
 11
29.04999999999997
 21
-3.011812331087367
 31
0.0
  0
SPLINE
  5
D7
330
1F
100
AcDbEntity
  8
0
  6
Continuous
 62
     1
370
    25
100
AcDbSpline
210
0.0
220
0.0
230
1.0
 70
     8
 71
     3
 72
    12
 73
     8
 74
     0
 42
0.000000001
 43
0.00000001
 40
0.0
 40
0.0
 40
0.0
 40
0.0
 40
0.5
 40
0.5
 40
0.75
 40
0.75
 40
1.0
 40
1.0
 40
1.0
 40
1.0
 10
29.05
 20
-0.8474214249202267
 30
0.0
 10
28.64319457976008
 20
-0.5267827315514847
 30
0.0
 10
28.2450638840286
 20
-0.1899541264847575
 30
0.0
 10
27.66237157933294
 20
0.3423575660514787
 30
0.0
 10
27.4694709617597
 20
0.5256606933800144
 30
0.0
 10
27.10349027862746
 20
0.8903657892810369
 30
0.0
 10
26.92891631084571
 20
1.073012300141382
 30
0.0
 10
26.76497792325662
 20
1.256030285247222
 30
0.0
  0
LINE
  5
D8
330
1F
100
AcDbEntity
  8
0
  6
Continuous
 62
     1
370
    25
100
AcDbLine
 10
26.82637756187667
 20
1.307550699371196
 30
0.0
 11
29.05
 21
0.0010749287238956
 31
0.0
  0
LINE
  5
D9
330
1F
100
AcDbEntity
  8
0
  6
Continuous
 62
     1
370
    25
100
AcDbLine
 10
29.05
 20
0.0010749287238956
 30
0.0
 11
29.05
 21
-0.8474214249202271
 31
0.0
  0
SPLINE
  5
DA
330
1F
100
AcDbEntity
  8
0
  6
Continuous
 62
     1
370
    25
100
AcDbSpline
210
0.0
220
0.0
230
1.0
 70
     8
 71
     3
 72
    25
 73
    21
 74
     0
 42
0.000000001
 43
0.00000001
 40
0.0
 40
0.0
 40
0.0
 40
0.0
 40
0.0538432201998805
 40
0.1099247974619985
 40
0.1662314236140342
 40
0.2222910295132783
 40
0.2784180690031378
 40
0.3347018286037811
 40
0.390741211275524
 40
0.4469287339067172
 40
0.5031622692175168
 40
0.5591966145597631
 40
0.6154501280239512
 40
0.6716155937371636
 40
0.7276600971435428
 40
0.7839546240741999
 40
0.840064657990107
 40
0.8961344957073907
 40
0.9524426534994287
 40
1.0
 40
1.0
 40
1.0
 40
1.0
 10
25.16641303663554
 20
-2.384895555876385
 30
0.0
 10
24.96102976974383
 20
-2.433043191359921
 30
0.0
 10
24.54172509347551
 20
-2.531340043947009
 30
0.0
 10
23.90822478364171
 20
-2.551925923272032
 30
0.0
 10
23.26423073719802
 20
-2.476547769401446
 30
0.0
 10
22.62221942459777
 20
-2.297392666369373
 30
0.0
 10
21.97967963267489
 20
-2.024840224505264
 30
0.0
 10
21.33589126270101
 20
-1.670719347517685
 30
0.0
 10
20.69401226049224
 20
-1.246209397560318
 30
0.0
 10
20.05099192506129
 20
-0.7721337656008838
 30
0.0
 10
19.40759899592224
 20
-0.2670811931205213
 30
0.0
 10
18.76574563678501
 20
0.2513357781373425
 30
0.0
 10
18.12219309197846
 20
0.7569176239696427
 30
0.0
 10
17.479350140649
 20
1.232643757458185
 30
0.0
 10
16.83743837747427
 20
1.65920671728862
 30
0.0
 10
16.1935661371114
 20
2.01570848190325
 30
0.0
 10
15.55116075514647
 20
2.29217643178987
 30
0.0
 10
14.90907018980581
 20
2.472029731073602
 30
0.0
 10
14.29761958420515
 20
2.556512674679282
 30
0.0
 10
13.90173440905725
 20
2.529677127322113
 30
0.0
 10
13.72046875616149
 20
2.517389819491767
 30
0.0
  0
SPLINE
  5
DB
330
1F
100
AcDbEntity
  8
0
  6
Continuous
 62
     4
370
    25
100
AcDbSpline
210
0.0
220
0.0
230
1.0
 70
    24
 71
     3
 72
    10
 73
     6
 74
     0
 42
0.000000001
 43
0.00000001
 40
0.0
 40
0.0
 40
0.0
 40
0.0
 40
0.5
 40
0.5
 40
1.0
 40
1.0
 40
1.0
 40
1.0
 10
9.999999999999993
 20
-0.7081881430985478
 30
0.0
 10
9.999999999999993
 20
-1.159474873052639
 30
0.0
 10
9.999999999999993
 20
-1.590768833099547
 30
0.0
 10
9.999999999999993
 20
-2.2816442517088
 30
0.0
 10
9.999999999999995
 20
-2.53825191238729
 30
0.0
 10
9.999999999999993
 20
-2.684661617581196
 30
0.0
  0
SPLINE
  5
DC
330
1F
100
AcDbEntity
  8
0
  6
Continuous
 62
     1
370
    25
100
AcDbSpline
210
0.0
220
0.0
230
1.0
 70
     8
 71
     3
 72
    13
 73
     9
 74
     0
 42
0.000000001
 43
0.00000001
 40
0.0
 40
0.0
 40
0.0
 40
0.0
 40
0.1707027697102913
 40
0.361814668748312
 40
0.5537819008532389
 40
0.7450429882494709
 40
0.9362583882589066
 40
1.0
 40
1.0
 40
1.0
 40
1.0
 10
27.0514593305505
 20
1.496416728450141
 30
0.0
 10
26.86035984100799
 20
1.615122219735105
 30
0.0
 10
26.45531311198221
 20
1.866725565602116
 30
0.0
 10
25.83662899037692
 20
2.169350431702498
 30
0.0
 10
25.19266964728434
 20
2.399172110182844
 30
0.0
 10
24.55038053672531
 20
2.523894732880627
 30
0.0
 10
24.05158479625469
 20
2.561367085681298
 30
0.0
 10
23.76596674726403
 20
2.522309692468556
 30
0.0
 10
23.69455959254407
 20
2.512544982815379
 30
0.0
  0
SPLINE
  5
DD
330
1F
100
AcDbEntity
  8
0
  6
Continuous
 62
     1
370
    25
100
AcDbSpline
210
0.0
220
0.0
230
1.0
 70
     8
 71
     3
 72
    16
 73
    12
 74
     0
 42
0.000000001
 43
0.00000001
 40
0.0
 40
0.0
 40
0.0
 40
0.0
 40
0.0548222255509363
 40
0.1788968444086546
 40
0.3024459240915279
 40
0.4260845659470073
 40
0.5501288135478302
 40
0.6736222549330942
 40
0.7973832241639005
 40
0.8988501594026438
 40
0.9999999999999999
 40
0.9999999999999999
 40
0.9999999999999999
 40
0.9999999999999999
 10
15.19425726895433
 20
-2.374427905208635
 30
0.0
 10
15.09941386213585
 20
-2.403095722106185
 30
0.0
 10
14.78991919966494
 20
-2.496645043161961
 30
0.0
 10
14.26505614399348
 20
-2.548749418857303
 30
0.0
 10
13.62300319705022
 20
-2.529900832951903
 30
0.0
 10
12.98058826400784
 20
-2.401656773680106
 30
0.0
 10
12.336710813935
 20
-2.177746773514064
 30
0.0
 10
11.69483267348559
 20
-1.863112948439589
 30
0.0
 10
11.09081040931834
 20
-1.496348625722026
 30
0.0
 10
10.52537203981759
 20
-1.107086355889915
 30
0.0
 10
10.17494120554059
 20
-0.8410154139558653
 30
0.0
 10
9.999999999999995
 20
-0.7081881430985499
 30
0.0
  0
SPLINE
  5
DE
330
1F
100
AcDbEntity
  8
0
  6
Continuous
 62
     1
370
    25
100
AcDbSpline
210
0.0
220
0.0
230
1.0
 70
    24
 71
     3
 72
     8
 73
     4
 74
     0
 42
0.000000001
 43
0.00000001
 40
0.0
 40
0.0
 40
0.0
 40
0.0
 40
0.0003883941170611
 40
0.0003883941170611
 40
0.0003883941170611
 40
0.0003883941170611
 10
27.0514593305505
 20
1.496416728450139
 30
0.0
 10
26.9559725668521
 20
1.416293820248506
 30
0.0
 10
26.86047994164946
 20
1.336165993660745
 30
0.0
 10
26.7649779232472
 20
1.256030285242727
 30
0.0
  0
SPLINE
  5
DF
330
1F
100
AcDbEntity
  8
0
  6
Continuous
 62
     1
370
    25
100
AcDbSpline
210
0.0
220
0.0
230
1.0
 70
    24
 71
     3
 72
    10
 73
     6
 74
     0
 42
0.000000001
 43
0.00000001
 40
0.0
 40
0.0
 40
0.0
 40
0.0
 40
0.5000000000000002
 40
0.5000000000000002
 40
1.0
 40
1.0
 40
1.0
 40
1.0
 10
29.05
 20
-2.503912010645189
 30
0.0
 10
29.05000000000001
 20
-2.311885231363186
 30
0.0
 10
29.05000000000001
 20
-2.069252032679142
 30
0.0
 10
29.04999999999999
 20
-1.505153196579513
 30
0.0
 10
29.04999999999999
 20
-1.184176202964012
 30
0.0
 10
29.05
 20
-0.8474214249203285
 30
0.0
  0
SPLINE
  5
E0
330
1F
100
AcDbEntity
  8
0
  6
Continuous
 62
     1
370
    25
100
AcDbSpline
210
0.0
220
0.0
230
1.0
 70
    24
 71
     3
 72
     8
 73
     4
 74
     0
 42
0.000000001
 43
0.00000001
 40
0.0
 40
0.0
 40
0.0
 40
0.0
 40
1.0
 40
1.0
 40
1.0
 40
1.0
 10
27.38801119302808
 20
1.778817272127112
 30
0.0
 10
27.28650578299024
 20
1.693644120001856
 30
0.0
 10
27.17322542752863
 20
1.598590615514391
 30
0.0
 10
27.0514593305505
 20
1.496416728450141
 30
0.0
  0
SPLINE
  5
E1
330
1F
100
AcDbEntity
  8
0
  6
Continuous
 62
     1
370
    25
100
AcDbSpline
210
0.0
220
0.0
230
1.0
 70
     8
 71
     3
 72
     8
 73
     4
 74
     0
 42
0.000000001
 43
0.00000001
 40
0.0
 40
0.0
 40
0.0
 40
0.0
 40
1.0
 40
1.0
 40
1.0
 40
1.0
 10
29.05
 20
2.223574928723895
 30
0.0
 10
28.50209676466721
 20
2.039138706819766
 30
0.0
 10
27.94752427040291
 20
1.888787039409738
 30
0.0
 10
27.38801119301662
 20
1.778817272122986
 30
0.0
  0
SPLINE
  5
E2
330
1F
100
AcDbEntity
  8
0
  6
Continuous
 62
     4
370
    25
100
AcDbSpline
210
0.0
220
0.0
230
1.0
 70
    24
 71
     3
 72
    14
 73
    10
 74
     0
 42
0.000000001
 43
0.00000001
 40
0.0
 40
0.0
 40
0.0
 40
0.0
 40
0.25
 40
0.25
 40
0.5
 40
0.5
 40
0.75
 40
0.75
 40
1.0
 40
1.0
 40
1.0
 40
1.0
 10
9.999999999999993
 20
2.135168518710125
 30
0.0
 10
9.999999999999993
 20
2.000935576765273
 30
0.0
 10
9.999999999999993
 20
1.832096745095737
 30
0.0
 10
9.999999999999993
 20
1.431790003823731
 30
0.0
 10
9.999999999999993
 20
1.200394913147915
 30
0.0
 10
9.999999999999993
 20
0.6950484572155842
 30
0.0
 10
9.999999999999993
 20
0.4213663616784245
 30
0.0
 10
9.999999999999993
 20
-0.1400675313198312
 30
0.0
 10
9.999999999999993
 20
-0.4275201980756537
 30
0.0
 10
9.999999999999993
 20
-0.7081881430985487
 30
0.0
  0
LINE
  5
E3
330
1F
100
AcDbEntity
  8
0
  6
Continuous
 62
     1
370
    25
100
AcDbLine
 10
29.05
 20
0.0010749287238956
 30
0.0
 11
29.05
 21
2.223574928723895
 31
0.0
  0
LINE
  5
E4
330
1F
100
AcDbEntity
  8
중심선
100
AcDbLine
 10
-37.45
 20
0.0010749287238888
 30
0.0
 11
33.25935371504374
 21
0.0010749287238931
 31
0.0
  0
CIRCLE
  5
E5
330
1F
100
AcDbEntity
  8
외형선
100
AcDbCircle
 10
0.0000000000000087
 20
0.0
 30
0.0
 40
3.000000000000004
  0
INSERT
  5
E6
330
1F
100
AcDbEntity
  8
0
  6
Continuous
 62
     7
100
AcDbBlockReference
 66
     1
  2
블럭10
 10
-16.6381869743017
 20
-52.04609937292004
 30
0.0
  0
ATTRIB
  5
E7
330
E6
100
AcDbEntity
  8
FORMAT
 62
     2
100
AcDbText
 10
-25.81948226304298
 20
-49.97073246008785
 30
0.0
 40
4.233333333333333
  1
E5253016 [ 2 FLUTE ]
 41
0.75
  7
SLDTEXTSTYLE0
 11
-25.81948226304298
 21
-52.08739912675452
 31
0.0
100
AcDbAttribute
  2
AUTOATTR0
 70
     0
 74
     1
  0
SEQEND
  5
E8
330
E6
100
AcDbEntity
  8
0
  6
Continuous
 62
     7
  0
HATCH
  5
E9
330
1F
100
AcDbEntity
  8
중심선
100
AcDbHatch
 10
0.0
 20
0.0
 30
0.0
210
0.0
220
0.0
230
1.0
  2
SOLID
 70
     1
 71
     0
 91
        1
 92
        0
 93
        4
 72
     1
 10
-10.92327766992085
 20
-35.7989250712761
 11
-14.36955291375813
 21
-35.7989250712761
 72
     1
 10
-14.36955291375813
 20
-35.7989250712761
 11
-16.49778277296215
 21
-38.3352506518487
 72
     1
 10
-16.49778277296215
 20
-38.3352506518487
 11
-13.05147444401172
 21
-38.33521122254621
 72
     1
 10
-13.05147444401172
 20
-38.33521122254621
 11
-10.92327766992085
 21
-35.7989250712761
 97
        0
 75
     0
 76
     1
 98
        1
 10
0.0
 20
0.0
  0
HATCH
  5
EA
330
1F
100
AcDbEntity
  8
중심선
100
AcDbHatch
 10
0.0
 20
0.0
 30
0.0
210
0.0
220
0.0
230
1.0
  2
SOLID
 70
     1
 71
     0
 91
        1
 92
        0
 93
        4
 72
     1
 10
-5.910513678884898
 20
-35.7989250712761
 11
-9.356788922722181
 21
-35.7989250712761
 72
     1
 10
-9.356788922722181
 20
-35.7989250712761
 11
-13.88792693107957
 21
-41.19892507127612
 72
     1
 10
-13.88792693107957
 20
-41.19892507127612
 11
-10.44165168724229
 21
-41.19892507127612
 72
     1
 10
-10.44165168724229
 20
-41.19892507127612
 11
-5.910513678884898
 21
-35.7989250712761
 97
        0
 75
     0
 76
     1
 98
        1
 10
0.0
 20
0.0
  0
HATCH
  5
EB
330
1F
100
AcDbEntity
  8
중심선
100
AcDbHatch
 10
0.0
 20
0.0
 30
0.0
210
0.0
220
0.0
230
1.0
  2
SOLID
 70
     1
 71
     0
 91
        1
 92
        0
 93
        4
 72
     1
 10
-0.8977496878490032
 20
-35.79892507127613
 11
-4.344024931686119
 21
-35.7989250712761
 72
     1
 10
-4.344024931686119
 20
-35.7989250712761
 11
-11.39246183357537
 21
-44.19892507127612
 72
     1
 10
-11.39246183357537
 20
-44.19892507127612
 11
-7.946186589738086
 21
-44.19892507127612
 72
     1
 10
-7.946186589738086
 20
-44.19892507127612
 11
-0.8977496878490028
 21
-35.79892507127613
 97
        0
 75
     0
 76
     1
 98
        1
 10
0.0
 20
0.0
  0
HATCH
  5
EC
330
1F
100
AcDbEntity
  8
중심선
100
AcDbHatch
 10
0.0
 20
0.0
 30
0.0
210
0.0
220
0.0
230
1.0
  2
SOLID
 70
     1
 71
     0
 91
        1
 92
        0
 93
        6
 72
     3
 10
3.902140743163196
 20
-39.99892507132738
 11
3.960054785062284
 21
1.540850780301639E-10
 40
0.3939339440162633
 50
17.09539180608433
 51
320.0019657685079
 73
     0
 72
     1
 10
5.585140398863792
 20
-38.58681907591441
 11
7.89044227256483
 21
-36.65249236586649
 72
     3
 10
3.902140743110349
 20
-39.99892507127625
 11
6.600054785286829
 21
-1.249000902703301E-13
 40
0.6363583540795982
 50
39.99873849337408
 51
368.4976242363724
 73
     1
 72
     1
 10
10.32747323501096
 20
-39.03892507120613
 11
2.582208049946273
 21
-39.0389250712061
 72
     1
 10
2.582208049946272
 20
-39.0389250712061
 11
2.582183005500338
 21
-40.95892507120602
 72
     1
 10
2.582183005500338
 20
-40.95892507120602
 11
7.023562774972376
 21
-40.95892507120599
 97
        0
 75
     0
 76
     1
 98
        1
 10
0.0
 20
0.0
  0
DIMENSION
  5
ED
330
1F
100
AcDbEntity
  8
치수문자_일반주서
100
AcDbDimension
  2
_D
 10
-34.45
 20
38.76357492872395
 30
0.0
 11
-2.700000000000003
 21
38.76357492872395
 31
0.0
 70
   160
  1
<>
 71
     2
 42
63.5
  3
SLDDIMSTYLE0
100
AcDbAlignedDimension
 13
29.05
 23
3.173391467078016
 33
0.0
 14
-34.45
 24
3.953574928723888
 34
0.0
100
AcDbRotatedDimension
1001
ACAD
1000
DSTYLE
1002
{
1070
   171
1070
     6
1070
   273
1070
     7
1002
}
  0
DIMENSION
  5
101
330
1F
100
AcDbEntity
  8
치수문자_일반주서
100
AcDbDimension
  2
_D_1
 10
-47.45
 20
-4.761425071276157
 30
0.0
 11
-47.45000000000002
 21
0.0010749287238992
 31
0.0
 70
   160
  1
%%c<>
 71
     2
 42
9.525000000000006
  3
SLDDIMSTYLE1
100
AcDbAlignedDimension
 13
-33.64000000000001
 23
4.763574928723896
 33
0.0
 14
-33.64000000000001
 24
-4.761425071276109
 34
0.0
 50
90.0000000000002
100
AcDbRotatedDimension
1001
ACAD
1000
DSTYLE
1002
{
1070
   171
1070
     6
1070
   273
1070
     7
1002
}
  0
DIMENSION
  5
116
330
1F
100
AcDbEntity
  8
치수문자_일반주서
100
AcDbDimension
  2
_D_2
 10
9.999999999999993
 20
23.41000898057852
 30
0.0
 11
19.525
 21
23.41000898057852
 31
0.0
 70
   160
  1
<>
 71
     2
 42
19.05000000000001
  3
SLDDIMSTYLE1
100
AcDbAlignedDimension
 13
29.05
 23
3.173391467078016
 33
0.0
 14
9.999999999999993
 24
3.083646529929857
 34
0.0
100
AcDbRotatedDimension
1001
ACAD
1000
DSTYLE
1002
{
1070
   171
1070
     6
1070
   273
1070
     7
1002
}
  0
DIMENSION
  5
12B
330
1F
100
AcDbEntity
  8
치수문자_일반주서
100
AcDbDimension
  2
_D_3
 10
49.25935371504379
 20
-3.171241609630155
 30
0.0
 11
49.2593537150437
 21
22.46489146707809
 31
0.0
 70
   160
  1
%%c<>
 71
     2
 42
6.344633076708243
  3
SLDDIMSTYLE1
100
AcDbAlignedDimension
 13
29.05
 23
3.173391467078016
 33
0.0
 14
29.05
 24
-3.171241609630227
 34
0.0
 50
90.0000000000002
100
AcDbRotatedDimension
1001
ACAD
1000
DSTYLE
1002
{
1070
   171
1070
     6
1070
   273
1070
     7
1002
}
  0
INSERT
  5
145
330
1F
100
AcDbEntity
  8
외형선
100
AcDbBlockReference
  2
SW_DOWELSYMBOL_0
 10
0.0000000000000087
 20
0.0
 30
0.0
  0
LINE
  5
2DD
330
1F
100
AcDbEntity
  8
0
  6
Continuous
 62
     4
370
    15
100
AcDbLine
 10
-18.17495000000012
 20
3.493574928723895
 30
0.0
 11
-11.03755
 21
3.493574928723895
 31
0.0
  0
LINE
  5
2DE
330
1F
100
AcDbEntity
  8
0
  6
Continuous
 62
     4
370
    15
100
AcDbLine
 10
-18.17495000000012
 20
3.493574928723895
 30
0.0
 11
-19.44495000000011
 21
4.763574928723877
 31
0.0
  0
LINE
  5
2DF
330
1F
100
AcDbEntity
  8
0
  6
Continuous
 62
     4
370
    15
100
AcDbLine
 10
-11.03755
 20
3.493574928723895
 30
0.0
 11
-9.7675499999999
 21
4.763574928723877
 31
0.0
  0
LINE
  5
2E0
330
1F
100
AcDbEntity
  8
0
  6
Continuous
 62
     4
370
    25
100
AcDbLine
 10
-19.44495000000012
 20
4.76357492872389
 30
0.0
 11
-33.64
 21
4.763574928723889
 31
0.0
  0
ENDSEC
  0
SECTION
  2
OBJECTS
  0
DICTIONARY
  5
C
330
0
100
AcDbDictionary
281
     1
  3
ACAD_GROUP
350
D
  3
ACAD_IMAGE_VARS
350
169
  3
ACAD_LAYOUT
350
1A
  3
ACAD_MLINESTYLE
350
17
  3
ACAD_PLOTSETTINGS
350
19
  3
ACAD_PLOTSTYLENAME
350
E
  3
ACAD_SCALELIST
350
47
  3
APPDATA
350
167
  3
DWGPROPS
350
2E4
  0
DICTIONARY
  5
228
330
2
100
AcDbDictionary
280
     1
281
     1
  3
ACAD_LAYERSTATES
360
229
  0
DICTIONARY
  5
2E1
330
1F
100
AcDbDictionary
280
     1
281
     1
  3
ACAD_SORTENTS
360
2E2
  3
DIM_BOUNDING_BOXES_V1
360
2E3
  0
DICTIONARY
  5
D
102
{ACAD_REACTORS
330
C
102
}
330
C
100
AcDbDictionary
281
     1
  0
RASTERVARIABLES
  5
169
102
{ACAD_REACTORS
330
C
102
}
330
C
100
AcDbRasterVariables
 90
        0
 70
     1
 71
     1
 72
     1
  0
DICTIONARY
  5
1A
102
{ACAD_REACTORS
330
C
102
}
330
C
100
AcDbDictionary
281
     1
  3
Layout1
350
1E
  3
Layout2
350
26
  3
Model
350
22
  0
DICTIONARY
  5
17
102
{ACAD_REACTORS
330
C
102
}
330
C
100
AcDbDictionary
281
     1
  3
Standard
350
18
  0
DICTIONARY
  5
19
102
{ACAD_REACTORS
330
C
102
}
330
C
100
AcDbDictionary
281
     1
  0
ACDBDICTIONARYWDFLT
  5
E
102
{ACAD_REACTORS
330
C
102
}
330
C
100
AcDbDictionary
281
     1
  3
Normal
350
F
100
AcDbDictionaryWithDefault
340
F
  0
DICTIONARY
  5
47
102
{ACAD_REACTORS
330
C
102
}
330
C
100
AcDbDictionary
281
     1
  3
A0
350
48
  3
A1
350
49
  3
A2
350
4A
  3
A3
350
4B
  3
A4
350
4C
  3
A5
350
4D
  3
A6
350
4E
  3
A7
350
4F
  3
A8
350
50
  3
A9
350
51
  3
B0
350
52
  3
B1
350
53
  3
B2
350
54
  3
B3
350
55
  3
B4
350
56
  3
B5
350
57
  3
B6
350
58
  3
B7
350
59
  3
B8
350
5A
  3
B9
350
5B
  3
C0
350
5C
  3
C1
350
5D
  3
C2
350
5E
  3
C3
350
5F
  3
C4
350
60
  3
C5
350
61
  3
C6
350
62
  3
C7
350
63
  3
C8
350
64
  3
C9
350
65
  3
D0
350
66
  3
D1
350
67
  3
D2
350
68
  0
DICTIONARY
  5
167
102
{ACAD_REACTORS
330
C
102
}
330
C
100
AcDbDictionary
281
     1
  0
XRECORD
  5
2E4
102
{ACAD_REACTORS
330
C
102
}
330
C
100
AcDbXrecord
280
     1
  1
DWGPROPS COOKIE
  2

  3

  4

  6

  7

  8
12016016
  9

300
=
301
=
302
=
303
=
304
=
305
=
306
=
307
=
308
=
309
=
 40
0.0
 41
2458263.243299491
 42
2459730.971223252
  1

 90
        0
  0
DICTIONARY
  5
229
102
{ACAD_REACTORS
330
228
102
}
330
228
100
AcDbDictionary
281
     1
  0
SORTENTSTABLE
  5
2E2
102
{ACAD_REACTORS
330
2E1
102
}
330
2E1
100
AcDbSortentsTable
330
1F
331
9A
  5
9B
331
9B
  5
9C
331
9C
  5
9D
331
9D
  5
9E
331
9E
  5
9F
331
9F
  5
A0
331
A0
  5
A1
331
A1
  5
A2
331
A2
  5
A3
331
A3
  5
A4
331
A4
  5
A5
331
A5
  5
A6
331
A6
  5
A7
331
A7
  5
A8
331
A8
  5
A9
331
A9
  5
AA
331
AA
  5
AB
331
AB
  5
AC
331
AC
  5
AD
331
AD
  5
AE
331
AE
  5
AF
331
AF
  5
B0
331
B0
  5
B1
331
B1
  5
B2
331
B2
  5
B3
331
B3
  5
B4
331
B4
  5
B5
331
B5
  5
B6
331
B6
  5
B7
331
B7
  5
B8
331
B8
  5
B9
331
B9
  5
BA
331
BA
  5
BB
331
BB
  5
BC
331
BC
  5
BD
331
BD
  5
BE
331
BE
  5
BF
331
BF
  5
C0
331
C0
  5
C1
331
C1
  5
C2
331
C2
  5
C3
331
C3
  5
C4
331
C4
  5
C5
331
C5
  5
C6
331
C6
  5
C7
331
C7
  5
C8
331
C8
  5
C9
331
C9
  5
CA
331
CA
  5
CB
331
CB
  5
CC
331
CC
  5
CD
331
CD
  5
CE
331
CE
  5
CF
331
CF
  5
D0
331
D0
  5
D1
331
D1
  5
D2
331
D2
  5
D3
331
D3
  5
D4
331
D4
  5
D5
331
D5
  5
D6
331
D6
  5
D7
331
D7
  5
D8
331
D8
  5
D9
331
D9
  5
DA
331
DA
  5
DB
331
DB
  5
DC
331
DC
  5
DD
331
DD
  5
DE
331
DE
  5
DF
331
DF
  5
E0
331
E0
  5
E1
331
E1
  5
E2
331
E2
  5
E3
331
E3
  5
E4
331
E4
  5
E5
331
E5
  5
E6
331
E6
  5
E9
331
E9
  5
EA
331
EA
  5
EB
331
EB
  5
EC
331
EC
  5
ED
331
ED
  5
101
331
101
  5
116
331
116
  5
12B
331
12B
  5
145
331
145
  5
25C
331
0
  5
25D
331
0
  5
25E
331
0
  5
25F
331
0
  5
260
331
0
  5
261
331
0
  5
262
331
0
  5
263
331
0
  5
264
331
0
  5
265
331
0
  5
266
331
0
  5
267
331
0
  5
268
331
0
  5
269
331
0
  5
26A
331
0
  5
26B
331
0
  5
26C
331
0
  5
26D
331
0
  5
26E
331
0
  5
26F
331
0
  5
270
331
0
  5
271
331
0
  5
272
331
0
  5
273
331
0
  5
274
331
0
  5
275
331
0
  5
276
331
0
  5
277
331
0
  5
278
331
0
  5
279
331
0
  5
27A
331
0
  5
27B
331
0
  5
27C
331
0
  5
27D
331
0
  5
27E
331
0
  5
27F
331
0
  5
280
331
0
  5
281
331
0
  5
282
331
0
  5
283
331
0
  5
284
331
0
  5
285
331
0
  5
286
331
0
  5
287
331
0
  5
288
331
0
  5
289
331
0
  5
28A
331
0
  5
28B
331
0
  5
28C
331
0
  5
28D
331
0
  5
28E
331
0
  5
28F
331
0
  5
290
331
0
  5
291
331
0
  5
292
331
0
  5
293
331
0
  5
294
331
0
  5
295
331
0
  5
296
331
0
  5
297
331
0
  5
298
331
0
  5
299
331
0
  5
29A
331
0
  5
29B
331
0
  5
29C
331
0
  5
29D
331
0
  5
29E
331
0
  5
29F
331
0
  5
2A0
331
0
  5
2A1
331
0
  5
2A2
331
0
  5
2A3
331
0
  5
2A4
331
0
  5
2A5
331
0
  5
2A6
331
0
  5
2A7
331
0
  5
2A8
331
0
  5
2A9
331
0
  5
2AA
331
0
  5
2AB
331
0
  5
2AC
331
0
  5
2DD
331
2DD
  5
2DE
331
2DE
  5
2DF
331
2DF
  5
2E0
331
2E0
  5
9A
  0
DICTIONARY
  5
2E3
102
{ACAD_REACTORS
330
2E1
102
}
330
2E1
100
AcDbDictionary
281
     1
  0
LAYOUT
  5
1E
102
{ACAD_REACTORS
330
1A
102
}
330
1A
100
AcDbPlotSettings
  1

  2
none_device
  4

  6

 40
0.0
 41
0.0
 42
0.0
 43
0.0
 44
0.0
 45
0.0
 46
0.0
 47
0.0
 48
0.0
 49
0.0
140
0.0
141
0.0
142
1.0
143
1.0
 70
   688
 72
     1
 73
     0
 74
     5
  7

 75
    16
147
1.0
148
0.0
149
0.0
100
AcDbLayout
  1
Layout1
 70
     1
 71
     1
 10
0.0
 20
0.0
 11
420.0
 21
297.0
 12
0.0
 22
0.0
 32
0.0
 14
1.000000000000000E+20
 24
1.000000000000000E+20
 34
1.000000000000000E+20
 15
-1.000000000000000E+20
 25
-1.000000000000000E+20
 35
-1.000000000000000E+20
146
0.0
 13
0.0
 23
0.0
 33
0.0
 16
1.0
 26
0.0
 36
0.0
 17
0.0
 27
1.0
 37
0.0
 76
     0
330
1B
  0
LAYOUT
  5
26
102
{ACAD_REACTORS
330
1A
102
}
330
1A
100
AcDbPlotSettings
  1

  2
none_device
  4

  6

 40
0.0
 41
0.0
 42
0.0
 43
0.0
 44
0.0
 45
0.0
 46
0.0
 47
0.0
 48
0.0
 49
0.0
140
0.0
141
0.0
142
1.0
143
1.0
 70
   688
 72
     1
 73
     0
 74
     5
  7

 75
    16
147
1.0
148
0.0
149
0.0
100
AcDbLayout
  1
Layout2
 70
     1
 71
     2
 10
0.0
 20
0.0
 11
0.0
 21
0.0
 12
0.0
 22
0.0
 32
0.0
 14
0.0
 24
0.0
 34
0.0
 15
0.0
 25
0.0
 35
0.0
146
0.0
 13
0.0
 23
0.0
 33
0.0
 16
1.0
 26
0.0
 36
0.0
 17
0.0
 27
1.0
 37
0.0
 76
     0
330
23
  0
LAYOUT
  5
22
102
{ACAD_REACTORS
330
1A
102
}
330
1A
100
AcDbPlotSettings
  1

  2
none_device
  4
ANSI_A_(11.00_x_8.50_Inches)
  6

 40
6.35
 41
19.05
 42
6.35000508
 43
19.05000254
 44
279.4
 45
215.9
 46
141.8589612848306
 47
90.13446994063779
 48
0.0
 49
0.0
140
0.0
141
0.0
142
0.0839224402391555
143
1.0
 70
  1696
 72
     0
 73
     0
 74
     0
  7

 75
     0
147
0.0235690232323232
148
0.0
149
0.0
100
AcDbLayout
  1
Model
 70
     1
 71
     0
 10
0.0
 20
0.0
 11
420.0
 21
297.0
 12
0.0
 22
0.0
 32
0.0
 14
-51.82500000000007
 24
-49.97073246008785
 34
0.0
 15
49.80968704837714
 25
43.13857492872395
 35
0.0
146
0.0
 13
0.0
 23
0.0
 33
0.0
 16
1.0
 26
0.0
 36
0.0
 17
0.0
 27
1.0
 37
0.0
 76
     0
330
1F
331
29
  0
MLINESTYLE
  5
18
102
{ACAD_REACTORS
330
17
102
}
330
17
100
AcDbMlineStyle
  2
Standard
 70
     0
  3

 62
   256
 51
90.0
 52
90.0
 71
     2
 49
0.5
 62
   256
  6
BYLAYER
 49
-0.5
 62
   256
  6
BYLAYER
  0
ACDBPLACEHOLDER
  5
F
102
{ACAD_REACTORS
330
E
102
}
330
E
  0
SCALE
  5
48
102
{ACAD_REACTORS
330
47
102
}
330
47
100
AcDbScale
 70
     0
300
1:1
140
1.0
141
1.0
290
     1
  0
SCALE
  5
49
102
{ACAD_REACTORS
330
47
102
}
330
47
100
AcDbScale
 70
     0
300
1:2
140
1.0
141
2.0
290
     0
  0
SCALE
  5
4A
102
{ACAD_REACTORS
330
47
102
}
330
47
100
AcDbScale
 70
     0
300
1:4
140
1.0
141
4.0
290
     0
  0
SCALE
  5
4B
102
{ACAD_REACTORS
330
47
102
}
330
47
100
AcDbScale
 70
     0
300
1:5
140
1.0
141
5.0
290
     0
  0
SCALE
  5
4C
102
{ACAD_REACTORS
330
47
102
}
330
47
100
AcDbScale
 70
     0
300
1:8
140
1.0
141
8.0
290
     0
  0
SCALE
  5
4D
102
{ACAD_REACTORS
330
47
102
}
330
47
100
AcDbScale
 70
     0
300
1:10
140
1.0
141
10.0
290
     0
  0
SCALE
  5
4E
102
{ACAD_REACTORS
330
47
102
}
330
47
100
AcDbScale
 70
     0
300
1:16
140
1.0
141
16.0
290
     0
  0
SCALE
  5
4F
102
{ACAD_REACTORS
330
47
102
}
330
47
100
AcDbScale
 70
     0
300
1:20
140
1.0
141
20.0
290
     0
  0
SCALE
  5
50
102
{ACAD_REACTORS
330
47
102
}
330
47
100
AcDbScale
 70
     0
300
1:30
140
1.0
141
30.0
290
     0
  0
SCALE
  5
51
102
{ACAD_REACTORS
330
47
102
}
330
47
100
AcDbScale
 70
     0
300
1:40
140
1.0
141
40.0
290
     0
  0
SCALE
  5
52
102
{ACAD_REACTORS
330
47
102
}
330
47
100
AcDbScale
 70
     0
300
1:50
140
1.0
141
50.0
290
     0
  0
SCALE
  5
53
102
{ACAD_REACTORS
330
47
102
}
330
47
100
AcDbScale
 70
     0
300
1:100
140
1.0
141
100.0
290
     0
  0
SCALE
  5
54
102
{ACAD_REACTORS
330
47
102
}
330
47
100
AcDbScale
 70
     0
300
2:1
140
2.0
141
1.0
290
     0
  0
SCALE
  5
55
102
{ACAD_REACTORS
330
47
102
}
330
47
100
AcDbScale
 70
     0
300
4:1
140
4.0
141
1.0
290
     0
  0
SCALE
  5
56
102
{ACAD_REACTORS
330
47
102
}
330
47
100
AcDbScale
 70
     0
300
8:1
140
8.0
141
1.0
290
     0
  0
SCALE
  5
57
102
{ACAD_REACTORS
330
47
102
}
330
47
100
AcDbScale
 70
     0
300
10:1
140
10.0
141
1.0
290
     0
  0
SCALE
  5
58
102
{ACAD_REACTORS
330
47
102
}
330
47
100
AcDbScale
 70
     0
300
100:1
140
100.0
141
1.0
290
     0
  0
SCALE
  5
59
102
{ACAD_REACTORS
330
47
102
}
330
47
100
AcDbScale
 70
     0
300
1/128" = 1'-0"
140
0.0078125
141
12.0
290
     0
  0
SCALE
  5
5A
102
{ACAD_REACTORS
330
47
102
}
330
47
100
AcDbScale
 70
     0
300
1/64" = 1'-0"
140
0.015625
141
12.0
290
     0
  0
SCALE
  5
5B
102
{ACAD_REACTORS
330
47
102
}
330
47
100
AcDbScale
 70
     0
300
1/32" = 1'-0"
140
0.03125
141
12.0
290
     0
  0
SCALE
  5
5C
102
{ACAD_REACTORS
330
47
102
}
330
47
100
AcDbScale
 70
     0
300
1/16" = 1'-0"
140
0.0625
141
12.0
290
     0
  0
SCALE
  5
5D
102
{ACAD_REACTORS
330
47
102
}
330
47
100
AcDbScale
 70
     0
300
3/32" = 1'-0"
140
0.09375
141
12.0
290
     0
  0
SCALE
  5
5E
102
{ACAD_REACTORS
330
47
102
}
330
47
100
AcDbScale
 70
     0
300
1/8" = 1'-0"
140
0.125
141
12.0
290
     0
  0
SCALE
  5
5F
102
{ACAD_REACTORS
330
47
102
}
330
47
100
AcDbScale
 70
     0
300
3/16" = 1'-0"
140
0.1875
141
12.0
290
     0
  0
SCALE
  5
60
102
{ACAD_REACTORS
330
47
102
}
330
47
100
AcDbScale
 70
     0
300
1/4" = 1'-0"
140
0.25
141
12.0
290
     0
  0
SCALE
  5
61
102
{ACAD_REACTORS
330
47
102
}
330
47
100
AcDbScale
 70
     0
300
3/8" = 1'-0"
140
0.375
141
12.0
290
     0
  0
SCALE
  5
62
102
{ACAD_REACTORS
330
47
102
}
330
47
100
AcDbScale
 70
     0
300
1/2" = 1'-0"
140
0.5
141
12.0
290
     0
  0
SCALE
  5
63
102
{ACAD_REACTORS
330
47
102
}
330
47
100
AcDbScale
 70
     0
300
3/4" = 1'-0"
140
0.75
141
12.0
290
     0
  0
SCALE
  5
64
102
{ACAD_REACTORS
330
47
102
}
330
47
100
AcDbScale
 70
     0
300
1" = 1'-0"
140
1.0
141
12.0
290
     0
  0
SCALE
  5
65
102
{ACAD_REACTORS
330
47
102
}
330
47
100
AcDbScale
 70
     0
300
1-1/2" = 1'-0"
140
1.5
141
12.0
290
     0
  0
SCALE
  5
66
102
{ACAD_REACTORS
330
47
102
}
330
47
100
AcDbScale
 70
     0
300
3" = 1'-0"
140
3.0
141
12.0
290
     0
  0
SCALE
  5
67
102
{ACAD_REACTORS
330
47
102
}
330
47
100
AcDbScale
 70
     0
300
6" = 1'-0"
140
6.0
141
12.0
290
     0
  0
SCALE
  5
68
102
{ACAD_REACTORS
330
47
102
}
330
47
100
AcDbScale
 70
     0
300
1'-0" = 1'-0"
140
12.0
141
12.0
290
     0
  0
ENDSEC
  0
EOF
