  0
SECTION
  2
HEADER
  9
$ACADVER
  1
AC1015
  9
$ACADMAINTVER
 70
     6
  9
$DWGCODEPAGE
  3
ANSI_949
  9
$INSBASE
 10
0.0
 20
0.0
 30
0.0
  9
$EXTMIN
 10
-57.98500000000006
 20
-49.97073246008785
 30
0.0
  9
$EXTMAX
 10
56.15968704837716
 20
46.31089146707806
 30
0.0
  9
$LIMMIN
 10
0.0
 20
0.0
  9
$LIMMAX
 10
420.0
 20
297.0
  9
$ORTHOMODE
 70
     1
  9
$REGENMODE
 70
     1
  9
$FILLMODE
 70
     1
  9
$QTEXTMODE
 70
     0
  9
$MIRRTEXT
 70
     1
  9
$LTSCALE
 40
1.0
  9
$ATTMODE
 70
     1
  9
$TEXTSIZE
 40
3.5
  9
$TRACEWID
 40
1.0
  9
$TEXTSTYLE
  7
Standard
  9
$CLAYER
  8
0
  9
$CELTYPE
  6
ByLayer
  9
$CECOLOR
 62
   256
  9
$CELTSCALE
 40
1.0
  9
$DISPSILH
 70
     0
  9
$DIMSCALE
 40
1.0
  9
$DIMASZ
 40
3.302
  9
$DIMEXO
 40
1.0
  9
$DIMDLI
 40
3.75
  9
$DIMRND
 40
0.0
  9
$DIMDLE
 40
0.0
  9
$DIMEXE
 40
1.0
  9
$DIMTP
 40
0.0
  9
$DIMTM
 40
0.0
  9
$DIMTXT
 40
3.5
  9
$DIMCEN
 40
2.5
  9
$DIMTSZ
 40
0.0
  9
$DIMTOL
 70
     0
  9
$DIMLIM
 70
     0
  9
$DIMTIH
 70
     1
  9
$DIMTOH
 70
     1
  9
$DIMSE1
 70
     0
  9
$DIMSE2
 70
     0
  9
$DIMTAD
 70
     1
  9
$DIMZIN
 70
     0
  9
$DIMBLK
  1

  9
$DIMASO
 70
     1
  9
$DIMSHO
 70
     1
  9
$DIMPOST
  1

  9
$DIMAPOST
  1

  9
$DIMALT
 70
     0
  9
$DIMALTD
 70
     3
  9
$DIMALTF
 40
0.0393700787401575
  9
$DIMLFAC
 40
1.0
  9
$DIMTOFL
 70
     1
  9
$DIMTVP
 40
0.0
  9
$DIMTIX
 70
     0
  9
$DIMSOXD
 70
     0
  9
$DIMSAH
 70
     0
  9
$DIMBLK1
  1

  9
$DIMBLK2
  1

  9
$DIMSTYLE
  2
ISO-25
  9
$DIMCLRD
 70
     0
  9
$DIMCLRE
 70
     0
  9
$DIMCLRT
 70
     0
  9
$DIMTFAC
 40
1.0
  9
$DIMGAP
 40
1.524
  9
$DIMJUST
 70
     0
  9
$DIMSD1
 70
     0
  9
$DIMSD2
 70
     0
  9
$DIMTOLJ
 70
     0
  9
$DIMTZIN
 70
     0
  9
$DIMALTZ
 70
     0
  9
$DIMALTTZ
 70
     0
  9
$DIMUPT
 70
     0
  9
$DIMDEC
 70
     2
  9
$DIMTDEC
 70
     2
  9
$DIMALTU
 70
     2
  9
$DIMALTTD
 70
     3
  9
$DIMTXSTY
  7
Standard
  9
$DIMAUNIT
 70
     0
  9
$DIMADEC
 70
     2
  9
$DIMALTRND
 40
0.0
  9
$DIMAZIN
 70
     0
  9
$DIMDSEP
 70
    44
  9
$DIMATFIT
 70
     3
  9
$DIMFRAC
 70
     0
  9
$DIMLDRBLK
  1

  9
$DIMLUNIT
 70
     2
  9
$DIMLWD
 70
    -2
  9
$DIMLWE
 70
    -2
  9
$DIMTMOVE
 70
     0
  9
$LUNITS
 70
     2
  9
$LUPREC
 70
     2
  9
$SKETCHINC
 40
1.0
  9
$FILLETRAD
 40
10.0
  9
$AUNITS
 70
     0
  9
$AUPREC
 70
     2
  9
$MENU
  1
.
  9
$ELEVATION
 40
0.0
  9
$PELEVATION
 40
0.0
  9
$THICKNESS
 40
0.0
  9
$LIMCHECK
 70
     0
  9
$CHAMFERA
 40
0.0
  9
$CHAMFERB
 40
0.0
  9
$CHAMFERC
 40
0.0
  9
$CHAMFERD
 40
0.0
  9
$SKPOLY
 70
     0
  9
$TDCREATE
 40
2458263.618864815
  9
$TDUCREATE
 40
2458263.243864815
  9
$TDUPDATE
 40
2459731.346852836
  9
$TDUUPDATE
 40
2459730.971852836
  9
$TDINDWG
 40
0.0006115162
  9
$TDUSRTIMER
 40
0.0000445949
  9
$USRTIMER
 70
     1
  9
$ANGBASE
 50
0.0
  9
$ANGDIR
 70
     0
  9
$PDMODE
 70
     0
  9
$PDSIZE
 40
-1.0
  9
$PLINEWID
 40
0.0
  9
$SPLFRAME
 70
     0
  9
$SPLINETYPE
 70
     6
  9
$SPLINESEGS
 70
     8
  9
$HANDSEED
  5
2CB
  9
$SURFTAB1
 70
     6
  9
$SURFTAB2
 70
     6
  9
$SURFTYPE
 70
     6
  9
$SURFU
 70
     6
  9
$SURFV
 70
     6
  9
$UCSBASE
  2

  9
$UCSNAME
  2

  9
$UCSORG
 10
0.0
 20
0.0
 30
0.0
  9
$UCSXDIR
 10
1.0
 20
0.0
 30
0.0
  9
$UCSYDIR
 10
0.0
 20
1.0
 30
0.0
  9
$UCSORTHOREF
  2

  9
$UCSORTHOVIEW
 70
     0
  9
$UCSORGTOP
 10
0.0
 20
0.0
 30
0.0
  9
$UCSORGBOTTOM
 10
0.0
 20
0.0
 30
0.0
  9
$UCSORGLEFT
 10
0.0
 20
0.0
 30
0.0
  9
$UCSORGRIGHT
 10
0.0
 20
0.0
 30
0.0
  9
$UCSORGFRONT
 10
0.0
 20
0.0
 30
0.0
  9
$UCSORGBACK
 10
0.0
 20
0.0
 30
0.0
  9
$PUCSBASE
  2

  9
$PUCSNAME
  2

  9
$PUCSORG
 10
0.0
 20
0.0
 30
0.0
  9
$PUCSXDIR
 10
1.0
 20
0.0
 30
0.0
  9
$PUCSYDIR
 10
0.0
 20
1.0
 30
0.0
  9
$PUCSORTHOREF
  2

  9
$PUCSORTHOVIEW
 70
     0
  9
$PUCSORGTOP
 10
0.0
 20
0.0
 30
0.0
  9
$PUCSORGBOTTOM
 10
0.0
 20
0.0
 30
0.0
  9
$PUCSORGLEFT
 10
0.0
 20
0.0
 30
0.0
  9
$PUCSORGRIGHT
 10
0.0
 20
0.0
 30
0.0
  9
$PUCSORGFRONT
 10
0.0
 20
0.0
 30
0.0
  9
$PUCSORGBACK
 10
0.0
 20
0.0
 30
0.0
  9
$USERI1
 70
     0
  9
$USERI2
 70
     0
  9
$USERI3
 70
     0
  9
$USERI4
 70
     0
  9
$USERI5
 70
     0
  9
$USERR1
 40
0.0
  9
$USERR2
 40
0.0
  9
$USERR3
 40
0.0
  9
$USERR4
 40
0.0
  9
$USERR5
 40
0.0
  9
$WORLDVIEW
 70
     1
  9
$SHADEDGE
 70
     3
  9
$SHADEDIF
 70
    70
  9
$TILEMODE
 70
     1
  9
$MAXACTVP
 70
    64
  9
$PINSBASE
 10
0.0
 20
0.0
 30
0.0
  9
$PLIMCHECK
 70
     0
  9
$PEXTMIN
 10
1.000000000000000E+20
 20
1.000000000000000E+20
 30
1.000000000000000E+20
  9
$PEXTMAX
 10
-1.000000000000000E+20
 20
-1.000000000000000E+20
 30
-1.000000000000000E+20
  9
$PLIMMIN
 10
0.0
 20
0.0
  9
$PLIMMAX
 10
0.0
 20
0.0
  9
$UNITMODE
 70
     0
  9
$VISRETAIN
 70
     1
  9
$PLINEGEN
 70
     0
  9
$PSLTSCALE
 70
     1
  9
$TREEDEPTH
 70
  3020
  9
$CMLSTYLE
  2
Standard
  9
$CMLJUST
 70
     0
  9
$CMLSCALE
 40
20.0
  9
$PROXYGRAPHICS
 70
     1
  9
$MEASUREMENT
 70
     1
  9
$CELWEIGHT
370
    -1
  9
$ENDCAPS
280
     0
  9
$JOINSTYLE
280
     0
  9
$LWDISPLAY
290
     1
  9
$INSUNITS
 70
     4
  9
$HYPERLINKBASE
  1

  9
$STYLESHEET
  1

  9
$XEDIT
290
     1
  9
$CEPSNTYPE
380
     0
  9
$PSTYLEMODE
290
     1
  9
$FINGERPRINTGUID
  2
{8F91A1F1-2052-4A67-9714-9CD05842B80E}
  9
$VERSIONGUID
  2
{FAEB1C32-E019-11D5-929B-00C0DF256EC4}
  9
$EXTNAMES
290
     1
  9
$PSVPSCALE
 40
0.0
  9
$OLESTARTUP
290
     0
  0
ENDSEC
  0
SECTION
  2
CLASSES
  0
CLASS
  1
ACDBDICTIONARYWDFLT
  2
AcDbDictionaryWithDefault
  3
ObjectDBX Classes
 90
        0
280
     0
281
     0
  0
CLASS
  1
VISUALSTYLE
  2
AcDbVisualStyle
  3
ObjectDBX Classes
 90
     4095
280
     0
281
     0
  0
CLASS
  1
MATERIAL
  2
AcDbMaterial
  3
ObjectDBX Classes
 90
     1153
280
     0
281
     0
  0
CLASS
  1
SCALE
  2
AcDbScale
  3
ObjectDBX Classes
 90
     1153
280
     0
281
     0
  0
CLASS
  1
TABLESTYLE
  2
AcDbTableStyle
  3
ObjectDBX Classes
 90
     4095
280
     0
281
     0
  0
CLASS
  1
MLEADERSTYLE
  2
AcDbMLeaderStyle
  3
ACDB_MLEADERSTYLE_CLASS
 90
     4095
280
     0
281
     0
  0
CLASS
  1
SUN
  2
AcDbSun
  3
SCENEOE
 90
     1153
280
     0
281
     0
  0
CLASS
  1
ACDBPLACEHOLDER
  2
AcDbPlaceHolder
  3
ObjectDBX Classes
 90
        0
280
     0
281
     0
  0
CLASS
  1
LAYOUT
  2
AcDbLayout
  3
ObjectDBX Classes
 90
        0
280
     0
281
     0
  0
CLASS
  1
RASTERVARIABLES
  2
AcDbRasterVariables
  3
ISM
 90
        0
280
     0
281
     0
  0
CLASS
  1
SORTENTSTABLE
  2
AcDbSortentsTable
  3
ObjectDBX Classes
 90
        0
280
     0
281
     0
  0
ENDSEC
  0
SECTION
  2
TABLES
  0
TABLE
  2
VPORT
  5
8
330
0
100
AcDbSymbolTable
 70
     1
  0
VPORT
  5
29
330
8
100
AcDbSymbolTableRecord
100
AcDbViewportTableRecord
  2
*Active
 70
     0
 10
0.0
 20
0.0
 11
1.0
 21
1.0
 12
2.416477953091658
 22
4.57092432601236
 13
0.0
 23
0.0
 14
10.0
 24
10.0
 15
10.0
 25
10.0
 16
0.0
 26
0.0
 36
1.0
 17
0.0
 27
0.0
 37
0.0
 40
181.7262982167552
 41
1.531481481481481
 42
50.0
 43
0.0
 44
0.0
 50
0.0
 51
0.0
 71
    16
 72
  2000
 73
     1
 74
     3
 75
     0
 76
     0
 77
     0
 78
     0
281
     0
 65
     1
110
0.0
120
0.0
130
0.0
111
1.0
121
0.0
131
0.0
112
0.0
122
1.0
132
0.0
 79
     0
146
0.0
  0
ENDTAB
  0
TABLE
  2
LTYPE
  5
5
330
0
100
AcDbSymbolTable
 70
     6
  0
LTYPE
  5
14
330
5
100
AcDbSymbolTableRecord
100
AcDbLinetypeTableRecord
  2
ByBlock
 70
     0
  3

 72
    65
 73
     0
 40
0.0
  0
LTYPE
  5
15
330
5
100
AcDbSymbolTableRecord
100
AcDbLinetypeTableRecord
  2
ByLayer
 70
     0
  3

 72
    65
 73
     0
 40
0.0
  0
LTYPE
  5
16
330
5
100
AcDbSymbolTableRecord
100
AcDbLinetypeTableRecord
  2
Continuous
 70
     0
  3
Solid line
 72
    65
 73
     0
 40
0.0
  0
LTYPE
  5
6E
330
5
100
AcDbSymbolTableRecord
100
AcDbLinetypeTableRecord
  2
HIDDEN
 70
     0
  3
Hidden __ __ __ __ __ __ __ __ __ __ __ __ __ __
 72
    65
 73
     2
 40
1.905
 49
1.27
 74
     0
 49
-0.635
 74
     0
  0
LTYPE
  5
6F
330
5
100
AcDbSymbolTableRecord
100
AcDbLinetypeTableRecord
  2
PHANTOM
 70
     0
  3
Phantom ______  __  __  ______  __  __  ______
 72
    65
 73
     6
 40
12.7
 49
6.35
 74
     0
 49
-1.27
 74
     0
 49
1.27
 74
     0
 49
-1.27
 74
     0
 49
1.27
 74
     0
 49
-1.27
 74
     0
  0
LTYPE
  5
70
330
5
100
AcDbSymbolTableRecord
100
AcDbLinetypeTableRecord
  2
CENTER
 70
     0
  3
Center ____ _ ____ _ ____ _ ____ _ ____ _ ____
 72
    65
 73
     4
 40
10.16
 49
6.35
 74
     0
 49
-1.27
 74
     0
 49
1.27
 74
     0
 49
-1.27
 74
     0
  0
LTYPE
  5
71
330
5
100
AcDbSymbolTableRecord
100
AcDbLinetypeTableRecord
  2
CENTERX2
 70
     0
  3
Center (2x) ________  __  ________  __  _____
 72
    65
 73
     4
 40
20.32
 49
12.7
 74
     0
 49
-2.54
 74
     0
 49
2.54
 74
     0
 49
-2.54
 74
     0
  0
LTYPE
  5
72
330
5
100
AcDbSymbolTableRecord
100
AcDbLinetypeTableRecord
  2
DOT2
 70
     0
  3
Dot (.5x) ........................................
 72
    65
 73
     2
 40
0.635
 49
0.0
 74
     0
 49
-0.635
 74
     0
  0
ENDTAB
  0
TABLE
  2
LAYER
  5
2
102
{ACAD_XDICTIONARY
360
211
102
}
330
0
100
AcDbSymbolTable
 70
    17
  0
LAYER
  5
10
330
2
100
AcDbSymbolTableRecord
100
AcDbLayerTableRecord
  2
0
 70
     0
 62
     7
  6
Continuous
370
    -3
390
F
  0
LAYER
  5
73
330
2
100
AcDbSymbolTableRecord
100
AcDbLayerTableRecord
  2
FORMAT
 70
     0
 62
     2
  6
Continuous
370
    -3
390
F
  0
LAYER
  5
74
330
2
100
AcDbSymbolTableRecord
100
AcDbLayerTableRecord
  2
외형선
 70
     0
 62
   100
  6
Continuous
370
    35
390
F
  0
LAYER
  5
75
330
2
100
AcDbSymbolTableRecord
100
AcDbLayerTableRecord
  2
숨은선
 70
     0
 62
     2
  6
HIDDEN
370
    25
390
F
  0
LAYER
  5
76
330
2
100
AcDbSymbolTableRecord
100
AcDbLayerTableRecord
  2
중심선
 70
     0
 62
     1
  6
CENTERX2
370
    -3
390
F
  0
LAYER
  5
77
330
2
100
AcDbSymbolTableRecord
100
AcDbLayerTableRecord
  2
파단선
 70
     0
 62
     4
  6
Continuous
370
    -3
390
F
  0
LAYER
  5
78
330
2
100
AcDbSymbolTableRecord
100
AcDbLayerTableRecord
  2
해칭선
 70
     0
 62
     4
  6
Continuous
370
    -3
390
F
  0
LAYER
  5
79
330
2
100
AcDbSymbolTableRecord
100
AcDbLayerTableRecord
  2
가는실선
 70
     0
 62
     4
  6
Continuous
370
    -3
390
F
  0
LAYER
  5
7A
330
2
100
AcDbSymbolTableRecord
100
AcDbLayerTableRecord
  2
치수_보조선
 70
     0
 62
     4
  6
Continuous
370
    -3
390
F
  0
LAYER
  5
7B
330
2
100
AcDbSymbolTableRecord
100
AcDbLayerTableRecord
  2
치수문자_일반주서
 70
     0
 62
     7
  6
Continuous
370
    25
390
F
  0
LAYER
  5
7C
330
2
100
AcDbSymbolTableRecord
100
AcDbLayerTableRecord
  2
개별주서
 70
     0
 62
   100
  6
Continuous
370
    35
390
F
  0
LAYER
  5
7D
330
2
100
AcDbSymbolTableRecord
100
AcDbLayerTableRecord
  2
중간선
 70
     0
 62
     2
  6
Continuous
370
    25
390
F
  0
LAYER
  5
7E
330
2
100
AcDbSymbolTableRecord
100
AcDbLayerTableRecord
  2
윤곽선
 70
     0
 62
     3
  6
Continuous
370
    50
390
F
  0
LAYER
  5
7F
330
2
100
AcDbSymbolTableRecord
100
AcDbLayerTableRecord
  2
중심마크
 70
     0
 62
   100
  6
Continuous
370
    35
390
F
  0
LAYER
  5
80
330
2
100
AcDbSymbolTableRecord
100
AcDbLayerTableRecord
  2
가상선
 70
     0
 62
     4
  6
PHANTOM
370
    -3
390
F
  0
LAYER
  5
81
330
2
100
AcDbSymbolTableRecord
100
AcDbLayerTableRecord
  2
특수지정선
 70
     0
 62
     5
  6
CENTERX2
370
    70
390
F
  0
LAYER
  5
157
330
2
100
AcDbSymbolTableRecord
100
AcDbLayerTableRecord
  2
Defpoints
 70
     0
 62
     7
  6
Continuous
290
     0
370
    -3
390
F
  0
ENDTAB
  0
TABLE
  2
STYLE
  5
3
330
0
100
AcDbSymbolTable
 70
     2
  0
STYLE
  5
11
330
3
100
AcDbSymbolTableRecord
100
AcDbTextStyleTableRecord
  2
Standard
 70
     0
 40
0.0
 41
1.0
 50
0.0
 71
     0
 42
3.5
  3
txt
  4

  0
STYLE
  5
97
330
3
100
AcDbSymbolTableRecord
100
AcDbTextStyleTableRecord
  2
SLDTEXTSTYLE0
 70
     0
 40
0.0
 41
0.75
 50
0.0
 71
     0
 42
3.5
  3
TXT
  4

  0
ENDTAB
  0
TABLE
  2
VIEW
  5
6
330
0
100
AcDbSymbolTable
 70
     0
  0
ENDTAB
  0
TABLE
  2
UCS
  5
7
330
0
100
AcDbSymbolTable
 70
     0
  0
ENDTAB
  0
TABLE
  2
APPID
  5
9
330
0
100
AcDbSymbolTable
 70
     2
  0
APPID
  5
12
330
9
100
AcDbSymbolTableRecord
100
AcDbRegAppTableRecord
  2
ACAD
 70
     0
  0
APPID
  5
188
330
9
100
AcDbSymbolTableRecord
100
AcDbRegAppTableRecord
  2
PE_URL
 70
     0
  0
ENDTAB
  0
TABLE
  2
DIMSTYLE
  5
A
330
0
100
AcDbSymbolTable
 70
     5
100
AcDbDimStyleTable
  0
DIMSTYLE
105
27
330
A
100
AcDbSymbolTableRecord
100
AcDbDimStyleTableRecord
  2
ISO-25
 70
     0
 41
2.5
 42
0.625
 43
3.75
 44
1.25
 73
     0
 74
     0
 77
     1
 78
     8
140
2.5
141
2.5
143
0.03937007874016
147
0.625
171
     3
172
     1
178
     0
271
     2
272
     2
274
     3
278
    44
283
     0
284
     8
340
11
  0
DIMSTYLE
105
DB
102
{ACAD_REACTORS
330
DA
102
}
330
A
100
AcDbSymbolTableRecord
100
AcDbDimStyleTableRecord
  2
SLDDIMSTYLE0
 70
     0
 41
3.302
 44
0.0
 45
0.000000001
 73
     0
 74
     0
 77
     1
 78
     4
 79
     1
140
3.5
143
0.0393700787401575
147
0.875
148
0.000000001
170
     1
173
     1
178
     0
271
     2
272
     2
276
     2
284
    12
340
97
  0
DIMSTYLE
105
EF
102
{ACAD_REACTORS
330
EE
330
103
102
}
330
A
100
AcDbSymbolTableRecord
100
AcDbDimStyleTableRecord
  2
SLDDIMSTYLE1
 70
     0
 41
3.302
 44
0.0
 45
0.000000001
 73
     0
 74
     0
 77
     1
 78
     4
 79
     1
140
3.5
143
0.0393700787401575
147
0.875
148
0.000000001
170
     1
172
     1
173
     1
178
     0
271
     2
272
     2
276
     2
284
    12
289
     0
340
97
  0
DIMSTYLE
105
119
102
{ACAD_REACTORS
330
118
102
}
330
A
100
AcDbSymbolTableRecord
100
AcDbDimStyleTableRecord
  2
SLDDIMSTYLE2
 70
     0
 41
3.302
 44
0.0
 45
0.000000001
 73
     0
 74
     0
 77
     1
 78
    12
 79
     3
140
3.5
143
0.0393700787401575
147
0.875
148
0.000000001
170
     1
173
     1
178
     0
271
     2
272
     2
276
     2
284
    12
340
97
  0
DIMSTYLE
105
187
102
{ACAD_REACTORS
330
1F9
330
1D2
330
1DF
330
1EC
102
}
330
A
100
AcDbSymbolTableRecord
100
AcDbDimStyleTableRecord
  2
SLDDIMSTYLE3
 70
     0
 41
3.302
 44
0.0
 45
0.000000001
 73
     0
 74
     0
 77
     1
 78
    12
 79
     3
140
3.5
143
0.0393700787401575
147
0.875
148
0.000000001
170
     1
172
     1
173
     1
178
     0
271
     2
272
     2
276
     2
284
    12
289
     0
340
97
  0
ENDTAB
  0
TABLE
  2
BLOCK_RECORD
  5
1
330
0
100
AcDbSymbolTable
 70
    15
  0
BLOCK_RECORD
  5
1F
102
{ACAD_XDICTIONARY
360
2C5
102
}
330
1
100
AcDbSymbolTableRecord
100
AcDbBlockTableRecord
  2
*Model_Space
340
22
  0
BLOCK_RECORD
  5
1B
330
1
100
AcDbSymbolTableRecord
100
AcDbBlockTableRecord
  2
*Paper_Space
340
1E
  0
BLOCK_RECORD
  5
23
330
1
100
AcDbSymbolTableRecord
100
AcDbBlockTableRecord
  2
*Paper_Space0
340
26
  0
BLOCK_RECORD
  5
82
330
1
100
AcDbSymbolTableRecord
100
AcDbBlockTableRecord
  2
블럭10
340
0
102
{BLKREFS
331
D3
102
}
  0
BLOCK_RECORD
  5
DC
330
1
100
AcDbSymbolTableRecord
100
AcDbBlockTableRecord
  2
_D
340
0
  0
BLOCK_RECORD
  5
F0
330
1
100
AcDbSymbolTableRecord
100
AcDbBlockTableRecord
  2
_D_1
340
0
  0
BLOCK_RECORD
  5
104
330
1
100
AcDbSymbolTableRecord
100
AcDbBlockTableRecord
  2
_D_2
340
0
  0
BLOCK_RECORD
  5
11A
330
1
100
AcDbSymbolTableRecord
100
AcDbBlockTableRecord
  2
_D_3
340
0
  0
BLOCK_RECORD
  5
12C
330
1
100
AcDbSymbolTableRecord
100
AcDbBlockTableRecord
  2
SW_DOWELSYMBOL_0
340
0
102
{BLKREFS
331
132
331
206
331
0
102
}
  0
BLOCK_RECORD
  5
215
330
1
100
AcDbSymbolTableRecord
100
AcDbBlockTableRecord
  2
*D8
340
0
  0
BLOCK_RECORD
  5
221
330
1
100
AcDbSymbolTableRecord
100
AcDbBlockTableRecord
  2
*D9
340
0
  0
BLOCK_RECORD
  5
22D
330
1
100
AcDbSymbolTableRecord
100
AcDbBlockTableRecord
  2
*D10
340
0
  0
BLOCK_RECORD
  5
239
330
1
100
AcDbSymbolTableRecord
100
AcDbBlockTableRecord
  2
*D11
340
0
  0
BLOCK_RECORD
  5
291
330
1
100
AcDbSymbolTableRecord
100
AcDbBlockTableRecord
  2
*D12
340
0
  0
BLOCK_RECORD
  5
29D
330
1
100
AcDbSymbolTableRecord
100
AcDbBlockTableRecord
  2
*D13
340
0
  0
BLOCK_RECORD
  5
2A9
330
1
100
AcDbSymbolTableRecord
100
AcDbBlockTableRecord
  2
*D14
340
0
  0
BLOCK_RECORD
  5
2B5
330
1
100
AcDbSymbolTableRecord
100
AcDbBlockTableRecord
  2
*D15
340
0
  0
ENDTAB
  0
ENDSEC
  0
SECTION
  2
BLOCKS
  0
BLOCK
  5
20
330
1F
100
AcDbEntity
  8
0
100
AcDbBlockBegin
  2
*Model_Space
 70
     0
 10
0.0
 20
0.0
 30
0.0
  3
*Model_Space
  1
*Model_Space
  0
ENDBLK
  5
21
330
1F
100
AcDbEntity
  8
0
100
AcDbBlockEnd
  0
BLOCK
  5
1C
330
1B
100
AcDbEntity
 67
     1
  8
0
100
AcDbBlockBegin
  2
*Paper_Space
 70
     0
 10
0.0
 20
0.0
 30
0.0
  3
*Paper_Space
  1
*Paper_Space
  0
ENDBLK
  5
1D
330
1B
100
AcDbEntity
 67
     1
  8
0
100
AcDbBlockEnd
  0
BLOCK
  5
24
330
23
100
AcDbEntity
  8
0
100
AcDbBlockBegin
  2
*Paper_Space0
 70
     0
 10
0.0
 20
0.0
 30
0.0
  3
*Paper_Space0
  1
*Paper_Space0
  0
ENDBLK
  5
25
330
23
100
AcDbEntity
  8
0
100
AcDbBlockEnd
  0
BLOCK
  5
83
330
82
100
AcDbEntity
  8
0
100
AcDbBlockBegin
  2
블럭10
 70
     2
 10
0.0
 20
0.0
 30
0.0
  3
블럭10
  1
블럭10
  0
ELLIPSE
  5
85
330
82
100
AcDbEntity
  8
중심선
100
AcDbEllipse
 10
20.54032771741204
 20
12.0471743016438
 30
0.0
 11
6.600054785286829
 21
-1.261213355974178E-13
 31
0.0
210
0.0
220
0.0
230
1.0
 40
0.636358354079598
 41
0.9219305317359503
 42
6.513795318482858
  0
ELLIPSE
  5
86
330
82
100
AcDbEntity
  8
중심선
100
AcDbEllipse
 10
20.54032771746488
 20
12.04717430159265
 30
0.0
 11
3.960054785062283
 21
1.540847449632565E-10
 31
0.0
210
0.0
220
0.0
230
1.0
 40
0.3939339440162632
 41
1.131841032648279
 42
5.62031148352944
  0
LINE
  5
87
330
82
100
AcDbEntity
  8
중심선
100
AcDbLine
 10
2.268634060543552
 20
16.24717430164393
 30
0.0
 11
5.714909304380834
 21
16.24717430164393
 31
0.0
  0
LINE
  5
88
330
82
100
AcDbEntity
  8
중심선
100
AcDbLine
 10
5.245725140726316
 20
7.84717430164391
 30
0.0
 11
8.692000384563599
 21
7.84717430164391
 31
0.0
  0
LINE
  5
89
330
82
100
AcDbEntity
  8
중심선
100
AcDbLine
 10
15.74043728645272
 20
16.24717430164393
 30
0.0
 11
8.692000384563599
 21
7.84717430164391
 31
0.0
  0
LINE
  5
8A
330
82
100
AcDbEntity
  8
중심선
100
AcDbLine
 10
0.1404042013395286
 20
13.71084872107135
 30
0.0
 11
3.58671253028996
 21
13.71088815037384
 31
0.0
  0
LINE
  5
8B
330
82
100
AcDbEntity
  8
중심선
100
AcDbLine
 10
2.750260043222114
 20
10.84717430164391
 30
0.0
 11
6.196535287059397
 21
10.84717430164391
 31
0.0
  0
LINE
  5
8C
330
82
100
AcDbEntity
  8
중심선
100
AcDbLine
 10
12.29416204261559
 20
16.24717430164393
 30
0.0
 11
5.245725140726316
 21
7.84717430164391
 31
0.0
  0
LINE
  5
8D
330
82
100
AcDbEntity
  8
중심선
100
AcDbLine
 10
10.72767329541681
 20
16.24717430164393
 30
0.0
 11
6.196535287059397
 21
10.84717430164391
 31
0.0
  0
LINE
  5
8E
330
82
100
AcDbEntity
  8
중심선
100
AcDbLine
 10
7.28139805157953
 20
16.24717430164393
 30
0.0
 11
2.750260043222114
 21
10.84717430164391
 31
0.0
  0
LINE
  5
8F
330
82
100
AcDbEntity
  8
중심선
100
AcDbLine
 10
5.714909304380834
 20
16.24717430164393
 30
0.0
 11
3.58671253028996
 21
13.71088815037384
 31
0.0
  0
LINE
  5
90
330
82
100
AcDbEntity
  8
중심선
100
AcDbLine
 10
2.268634060543552
 20
16.24717430164393
 30
0.0
 11
0.1404042013395286
 21
13.71084872107135
 31
0.0
  0
LINE
  5
91
330
82
100
AcDbEntity
  8
중심선
100
AcDbLine
 10
7.28139805157953
 20
16.24717430164393
 30
0.0
 11
10.72767329541681
 21
16.24717430164393
 31
0.0
  0
LINE
  5
92
330
82
100
AcDbEntity
  8
중심선
100
AcDbLine
 10
12.29416204261559
 20
16.24717430164393
 30
0.0
 11
15.74043728645272
 21
16.24717430164393
 31
0.0
  0
LINE
  5
93
330
82
100
AcDbEntity
  8
중심선
100
AcDbLine
 10
19.22036997980202
 20
11.08717430171403
 30
0.0
 11
23.66174974927406
 21
11.08717430171406
 31
0.0
  0
LINE
  5
94
330
82
100
AcDbEntity
  8
중심선
100
AcDbLine
 10
19.22039502424796
 20
13.00717430171391
 30
0.0
 11
19.22036997980202
 21
11.08717430171403
 31
0.0
  0
LINE
  5
95
330
82
100
AcDbEntity
  8
중심선
100
AcDbLine
 10
19.22039502424796
 20
13.00717430171391
 30
0.0
 11
26.96566020931264
 21
13.00717430171391
 31
0.0
  0
LINE
  5
96
330
82
100
AcDbEntity
  8
중심선
100
AcDbLine
 10
22.22332737316547
 20
13.45928029700563
 30
0.0
 11
24.52862924686651
 21
15.39360700705356
 31
0.0
  0
ATTDEF
  5
98
330
82
100
AcDbEntity
  8
FORMAT
 62
     2
100
AcDbText
 10
-9.18129528874128
 20
2.075366912832191
 30
0.0
 40
4.233333333333333
  1
E5253032 [ 2 FLUTE ]
 41
0.75
  7
SLDTEXTSTYLE0
 11
-9.18129528874128
 21
-0.0412997538344756
 31
0.0
100
AcDbAttributeDefinition
  3

  2
AUTOATTR0
 70
     0
 74
     1
  0
ENDBLK
  5
84
330
82
100
AcDbEntity
  8
0
100
AcDbBlockEnd
  0
BLOCK
  5
DD
330
DC
100
AcDbEntity
  8
0
100
AcDbBlockBegin
  2
_D
 70
     0
 10
0.0
 20
0.0
 30
0.0
  3
_D
  1
_D
  0
LINE
  5
DF
330
DC
100
AcDbEntity
  8
치수문자_일반주서
 62
     0
370
    -2
100
AcDbLine
 10
35.39999999999999
 20
6.408208005432134
 30
0.0
 11
35.4
 21
41.93589146707807
 31
0.0
  0
LINE
  5
E0
330
DC
100
AcDbEntity
  8
치수문자_일반주서
 62
     0
370
    -2
100
AcDbLine
 10
-40.80000000000002
 20
5.413574928723887
 30
0.0
 11
-40.80000000000001
 21
41.93589146707807
 31
0.0
  0
LINE
  5
E1
330
DC
100
AcDbEntity
  8
치수문자_일반주서
 62
     0
370
    -2
100
AcDbLine
 10
32.098
 20
41.93589146707807
 30
0.0
 11
-37.49800000000001
 21
41.93589146707807
 31
0.0
  0
SOLID
  5
E2
330
DC
100
AcDbEntity
  8
치수문자_일반주서
 62
     0
100
AcDbTrace
 10
32.098
 20
41.38555813374474
 30
0.0
 11
32.098
 21
42.48622480041141
 31
0.0
 12
35.4
 22
41.93589146707807
 32
0.0
 13
35.4
 23
41.93589146707807
 33
0.0
  0
SOLID
  5
E3
330
DC
100
AcDbEntity
  8
치수문자_일반주서
 62
     0
100
AcDbTrace
 10
-37.49800000000001
 20
42.48622480041141
 30
0.0
 11
-37.49800000000001
 21
41.38555813374474
 31
0.0
 12
-40.80000000000001
 22
41.93589146707807
 32
0.0
 13
-40.80000000000001
 23
41.93589146707807
 33
0.0
  0
MTEXT
  5
E4
330
DC
100
AcDbEntity
  8
치수문자_일반주서
 62
     0
100
AcDbMText
 10
-2.700000000000017
 20
46.31089146707807
 30
0.0
 40
3.5
 41
0.0
 71
     2
 72
     1
  1
\A1;76.20 [3]
  7
SLDTEXTSTYLE0
 73
     1
 44
1.0
  0
POINT
  5
E5
330
DC
100
AcDbEntity
  8
Defpoints
 62
     0
100
AcDbPoint
 10
35.39999999999999
 20
6.345708005432134
 30
0.0
  0
POINT
  5
E6
330
DC
100
AcDbEntity
  8
Defpoints
 62
     0
100
AcDbPoint
 10
-40.80000000000002
 20
5.351074928723887
 30
0.0
  0
POINT
  5
E7
330
DC
100
AcDbEntity
  8
Defpoints
 62
     0
100
AcDbPoint
 10
-40.80000000000002
 20
41.93589146707807
 30
0.0
  0
ENDBLK
  5
DE
330
DC
100
AcDbEntity
  8
0
100
AcDbBlockEnd
  0
BLOCK
  5
F1
330
F0
100
AcDbEntity
  8
0
100
AcDbBlockBegin
  2
_D_1
 70
     0
 10
0.0
 20
0.0
 30
0.0
  3
_D_1
  1
_D_1
  0
LINE
  5
F3
330
F0
100
AcDbEntity
  8
치수문자_일반주서
 62
     0
370
    -2
100
AcDbLine
 10
-39.86250000000002
 20
6.351074928723888
 30
0.0
 11
-53.61000000000004
 21
6.35107492872384
 31
0.0
  0
LINE
  5
F4
330
F0
100
AcDbEntity
  8
치수문자_일반주서
 62
     0
370
    -2
100
AcDbLine
 10
-39.86250000000002
 20
-6.348925071276101
 30
0.0
 11
-53.61
 21
-6.348925071276149
 31
0.0
  0
LINE
  5
F5
330
F0
100
AcDbEntity
  8
치수문자_일반주서
 62
     0
370
    -2
100
AcDbLine
 10
-53.61000000000003
 20
3.04907492872384
 30
0.0
 11
-53.61000000000001
 21
-3.046925071276149
 31
0.0
  0
SOLID
  5
F6
330
F0
100
AcDbEntity
  8
치수문자_일반주서
 62
     0
100
AcDbTrace
 10
-53.05966666666669
 20
3.049074928723842
 30
0.0
 11
-54.16033333333336
 21
3.049074928723838
 31
0.0
 12
-53.61000000000004
 22
6.35107492872384
 32
0.0
 13
-53.61000000000004
 23
6.35107492872384
 33
0.0
  0
SOLID
  5
F7
330
F0
100
AcDbEntity
  8
치수문자_일반주서
 62
     0
100
AcDbTrace
 10
-54.16033333333335
 20
-3.046925071276151
 30
0.0
 11
-53.05966666666668
 21
-3.046925071276148
 31
0.0
 12
-53.61
 22
-6.348925071276149
 32
0.0
 13
-53.61
 23
-6.348925071276149
 33
0.0
  0
MTEXT
  5
F8
330
F0
100
AcDbEntity
  8
치수문자_일반주서
 62
     0
100
AcDbMText
 10
-57.98500000000002
 20
0.0010749287238769
 30
0.0
 40
3.5
 41
0.0
 71
     2
 72
     1
  1
\A1;%%c12.70 [1/2]
  7
SLDTEXTSTYLE0
 11
-3.356894814614650E-15
 21
1.0
 31
0.0
 73
     1
 44
1.0
  0
POINT
  5
F9
330
F0
100
AcDbEntity
  8
Defpoints
 62
     0
100
AcDbPoint
 10
-39.80000000000002
 20
6.351074928723888
 30
0.0
  0
POINT
  5
FA
330
F0
100
AcDbEntity
  8
Defpoints
 62
     0
100
AcDbPoint
 10
-39.80000000000002
 20
-6.348925071276101
 30
0.0
  0
POINT
  5
FB
330
F0
100
AcDbEntity
  8
Defpoints
 62
     0
100
AcDbPoint
 10
-53.61
 20
-6.348925071276149
 30
0.0
  0
ENDBLK
  5
F2
330
F0
100
AcDbEntity
  8
0
100
AcDbBlockEnd
  0
BLOCK
  5
105
330
104
100
AcDbEntity
  8
0
100
AcDbBlockBegin
  2
_D_2
 70
     0
 10
0.0
 20
0.0
 30
0.0
  3
_D_2
  1
_D_2
  0
LINE
  5
107
330
104
100
AcDbEntity
  8
치수문자_일반주서
 62
     0
370
    -2
100
AcDbLine
 10
35.39999999999999
 20
6.408208005432134
 30
0.0
 11
35.39999999999999
 21
26.58232551893263
 31
0.0
  0
LINE
  5
108
330
104
100
AcDbEntity
  8
치수문자_일반주서
 62
     0
370
    -2
100
AcDbLine
 10
9.999999999999991
 20
3.908573445803305
 30
0.0
 11
9.999999999999991
 21
26.58232551893263
 31
0.0
  0
LINE
  5
109
330
104
100
AcDbEntity
  8
치수문자_일반주서
 62
     0
370
    -2
100
AcDbLine
 10
32.09799999999999
 20
26.58232551893263
 30
0.0
 11
13.30199999999999
 21
26.58232551893263
 31
0.0
  0
SOLID
  5
10A
330
104
100
AcDbEntity
  8
치수문자_일반주서
 62
     0
100
AcDbTrace
 10
32.09799999999999
 20
26.0319921855993
 30
0.0
 11
32.09799999999999
 21
27.13265885226597
 31
0.0
 12
35.39999999999999
 22
26.58232551893263
 32
0.0
 13
35.39999999999999
 23
26.58232551893263
 33
0.0
  0
SOLID
  5
10B
330
104
100
AcDbEntity
  8
치수문자_일반주서
 62
     0
100
AcDbTrace
 10
13.30199999999999
 20
27.13265885226597
 30
0.0
 11
13.30199999999999
 21
26.0319921855993
 31
0.0
 12
9.999999999999991
 22
26.58232551893263
 32
0.0
 13
9.999999999999991
 23
26.58232551893263
 33
0.0
  0
MTEXT
  5
10C
330
104
100
AcDbEntity
  8
치수문자_일반주서
 62
     0
100
AcDbMText
 10
22.69999999999999
 20
30.95732551893263
 30
0.0
 40
3.5
 41
0.0
 71
     2
 72
     1
  1
\A1;25.40 [1]
  7
SLDTEXTSTYLE0
 73
     1
 44
1.0
  0
POINT
  5
10D
330
104
100
AcDbEntity
  8
Defpoints
 62
     0
100
AcDbPoint
 10
35.39999999999999
 20
6.345708005432134
 30
0.0
  0
POINT
  5
10E
330
104
100
AcDbEntity
  8
Defpoints
 62
     0
100
AcDbPoint
 10
9.999999999999991
 20
3.846073445803305
 30
0.0
  0
POINT
  5
10F
330
104
100
AcDbEntity
  8
Defpoints
 62
     0
100
AcDbPoint
 10
9.999999999999991
 20
26.58232551893263
 30
0.0
  0
ENDBLK
  5
106
330
104
100
AcDbEntity
  8
0
100
AcDbBlockEnd
  0
BLOCK
  5
11B
330
11A
100
AcDbEntity
  8
0
100
AcDbBlockBegin
  2
_D_3
 70
     0
 10
0.0
 20
0.0
 30
0.0
  3
_D_3
  1
_D_3
  0
LINE
  5
11D
330
11A
100
AcDbEntity
  8
치수문자_일반주서
 62
     0
370
    -2
100
AcDbLine
 10
35.46249999999999
 20
6.345708005432134
 30
0.0
 11
55.60935371504379
 21
6.345708005432204
 31
0.0
  0
LINE
  5
11E
330
11A
100
AcDbEntity
  8
치수문자_일반주서
 62
     0
370
    -2
100
AcDbLine
 10
35.46249999999999
 20
-6.343558147984345
 30
0.0
 11
55.60935371504383
 21
-6.343558147984275
 31
0.0
  0
LINE
  5
11F
330
11A
100
AcDbEntity
  8
치수문자_일반주서
 62
     0
370
    -2
100
AcDbLine
 10
55.60935371504379
 20
6.345708005432204
 30
0.0
 11
55.60935371504369
 21
36.77270800543221
 31
0.0
  0
LINE
  5
120
330
11A
100
AcDbEntity
  8
치수문자_일반주서
 62
     0
370
    -2
100
AcDbLine
 10
55.6093537150438
 20
3.043708005432205
 30
0.0
 11
55.60935371504382
 21
-3.041558147984276
 31
0.0
  0
SOLID
  5
121
330
11A
100
AcDbEntity
  8
치수문자_일반주서
 62
     0
100
AcDbTrace
 10
56.15968704837714
 20
3.043708005432206
 30
0.0
 11
55.05902038171047
 21
3.043708005432203
 31
0.0
 12
55.60935371504379
 22
6.345708005432204
 32
0.0
 13
55.60935371504379
 23
6.345708005432204
 33
0.0
  0
SOLID
  5
122
330
11A
100
AcDbEntity
  8
치수문자_일반주서
 62
     0
100
AcDbTrace
 10
55.05902038171048
 20
-3.041558147984277
 30
0.0
 11
56.15968704837715
 21
-3.041558147984274
 31
0.0
 12
55.60935371504383
 22
-6.343558147984275
 32
0.0
 13
55.60935371504383
 23
-6.343558147984275
 33
0.0
  0
MTEXT
  5
123
330
11A
100
AcDbEntity
  8
치수문자_일반주서
 62
     0
100
AcDbMText
 10
51.23435371504373
 20
23.21020800543219
 30
0.0
 40
3.5
 41
0.0
 71
     2
 72
     1
  1
\A1;%%c12.69 [1/2]
  7
SLDTEXTSTYLE0
 11
-3.359734410971240E-15
 21
1.0
 31
0.0
 73
     1
 44
1.0
  0
POINT
  5
124
330
11A
100
AcDbEntity
  8
Defpoints
 62
     0
100
AcDbPoint
 10
35.39999999999999
 20
6.345708005432134
 30
0.0
  0
POINT
  5
125
330
11A
100
AcDbEntity
  8
Defpoints
 62
     0
100
AcDbPoint
 10
35.39999999999999
 20
-6.343558147984345
 30
0.0
  0
POINT
  5
126
330
11A
100
AcDbEntity
  8
Defpoints
 62
     0
100
AcDbPoint
 10
55.60935371504383
 20
-6.343558147984274
 30
0.0
  0
ENDBLK
  5
11C
330
11A
100
AcDbEntity
  8
0
100
AcDbBlockEnd
  0
BLOCK
  5
12D
330
12C
100
AcDbEntity
  8
0
100
AcDbBlockBegin
  2
SW_DOWELSYMBOL_0
 70
     0
 10
0.0
 20
0.0
 30
0.0
  3
SW_DOWELSYMBOL_0
  1
SW_DOWELSYMBOL_0
  0
CIRCLE
  5
12F
330
12C
100
AcDbEntity
  8
외형선
 62
     0
100
AcDbCircle
 10
0.0
 20
0.0
 30
0.0
 40
3.000000000000004
  0
HATCH
  5
130
330
12C
100
AcDbEntity
  8
0
  6
Continuous
 62
     0
370
    35
100
AcDbHatch
 10
0.0
 20
0.0
 30
0.0
210
0.0
220
0.0
230
1.0
  2
SOLID
 70
     1
 71
     0
 91
        1
 92
        0
 93
        3
 72
     2
 10
0.0000000000000087
 20
0.0
 40
3.000000000000004
 50
0.0
 51
90.0
 73
     1
 72
     1
 10
0.0000000000000087
 20
3.000000000000004
 11
0.0000000000000087
 21
0.0
 72
     1
 10
0.0000000000000087
 20
0.0
 11
3.000000000000013
 21
0.0
 97
        0
 75
     0
 76
     1
 98
        1
 10
0.0
 20
0.0
  0
HATCH
  5
131
330
12C
100
AcDbEntity
  8
0
  6
Continuous
 62
     0
370
    35
100
AcDbHatch
 10
0.0
 20
0.0
 30
0.0
210
0.0
220
0.0
230
1.0
  2
SOLID
 70
     1
 71
     0
 91
        1
 92
        0
 93
        3
 72
     2
 10
0.0000000000000087
 20
0.0
 40
3.000000000000004
 50
180.0
 51
270.0000000000007
 73
     1
 72
     1
 10
0.0000000000000087
 20
-3.000000000000004
 11
0.0000000000000087
 21
0.0
 72
     1
 10
0.0000000000000087
 20
0.0
 11
-2.999999999999996
 21
0.0
 97
        0
 75
     0
 76
     1
 98
        1
 10
0.0
 20
0.0
  0
ENDBLK
  5
12E
330
12C
100
AcDbEntity
  8
0
100
AcDbBlockEnd
  0
BLOCK
  5
216
330
215
100
AcDbEntity
  8
0
100
AcDbBlockBegin
  2
*D8
 70
     1
 10
0.0
 20
0.0
 30
0.0
  3
*D8
  1

  0
LINE
  5
218
330
215
100
AcDbEntity
  8
치수문자_일반주서
 62
     0
370
    -2
100
AcDbLine
 10
96.92500000000003
 20
17.70826550350913
 30
0.0
 11
96.92500000000004
 21
43.73162375945122
 31
0.0
  0
LINE
  5
219
330
215
100
AcDbEntity
  8
치수문자_일반주서
 62
     0
370
    -2
100
AcDbLine
 10
14.37500000000002
 20
17.2875
 30
0.0
 11
14.37500000000004
 21
43.73162375945122
 31
0.0
  0
LINE
  5
21A
330
215
100
AcDbEntity
  8
치수문자_일반주서
 62
     0
370
    -2
100
AcDbLine
 10
93.62300000000003
 20
43.73162375945122
 30
0.0
 11
17.67700000000004
 21
43.73162375945122
 31
0.0
  0
SOLID
  5
21B
330
215
100
AcDbEntity
  8
치수문자_일반주서
 62
     0
100
AcDbTrace
 10
93.62300000000003
 20
43.18129042611789
 30
0.0
 11
93.62300000000003
 21
44.28195709278456
 31
0.0
 12
96.92500000000004
 22
43.73162375945122
 32
0.0
 13
96.92500000000004
 23
43.73162375945122
 33
0.0
  0
SOLID
  5
21C
330
215
100
AcDbEntity
  8
치수문자_일반주서
 62
     0
100
AcDbTrace
 10
17.67700000000004
 20
44.28195709278456
 30
0.0
 11
17.67700000000004
 21
43.18129042611789
 31
0.0
 12
14.37500000000004
 22
43.73162375945122
 32
0.0
 13
14.37500000000004
 23
43.73162375945122
 33
0.0
  0
MTEXT
  5
21D
330
215
100
AcDbEntity
  8
치수문자_일반주서
 62
     0
100
AcDbMText
 10
55.76250726519467
 20
48.10662375945122
 30
0.0
 40
3.5
 41
0.0
 71
     2
 72
     1
  1
\A1;82.55 [3 1/4]
  7
SLDTEXTSTYLE0
 73
     1
 44
1.0
  0
POINT
  5
21E
330
215
100
AcDbEntity
  8
Defpoints
 62
     0
100
AcDbPoint
 10
96.92500000000003
 20
17.64576550350913
 30
0.0
  0
POINT
  5
21F
330
215
100
AcDbEntity
  8
Defpoints
 62
     0
100
AcDbPoint
 10
14.37500000000002
 20
17.225
 30
0.0
  0
POINT
  5
220
330
215
100
AcDbEntity
  8
Defpoints
 62
     0
100
AcDbPoint
 10
14.37500000000002
 20
43.73162375945122
 30
0.0
  0
ENDBLK
  5
217
330
215
100
AcDbEntity
  8
0
100
AcDbBlockEnd
  0
BLOCK
  5
222
330
221
100
AcDbEntity
  8
0
100
AcDbBlockBegin
  2
*D9
 70
     1
 10
0.0
 20
0.0
 30
0.0
  3
*D9
  1

  0
LINE
  5
224
330
221
100
AcDbEntity
  8
치수문자_일반주서
 62
     0
370
    -2
100
AcDbLine
 10
96.92500000000003
 20
17.70826550350913
 30
0.0
 11
96.92500000000003
 21
33.69805749709196
 31
0.0
  0
LINE
  5
225
330
221
100
AcDbEntity
  8
치수문자_일반주서
 62
     0
370
    -2
100
AcDbLine
 10
71.52500000000002
 20
17.54106920438923
 30
0.0
 11
71.52500000000002
 21
33.69805749709196
 31
0.0
  0
LINE
  5
226
330
221
100
AcDbEntity
  8
치수문자_일반주서
 62
     0
370
    -2
100
AcDbLine
 10
93.62300000000002
 20
33.69805749709196
 30
0.0
 11
74.82700000000003
 21
33.69805749709196
 31
0.0
  0
SOLID
  5
227
330
221
100
AcDbEntity
  8
치수문자_일반주서
 62
     0
100
AcDbTrace
 10
93.62300000000002
 20
33.14772416375862
 30
0.0
 11
93.62300000000002
 21
34.24839083042529
 31
0.0
 12
96.92500000000003
 22
33.69805749709196
 32
0.0
 13
96.92500000000003
 23
33.69805749709196
 33
0.0
  0
SOLID
  5
228
330
221
100
AcDbEntity
  8
치수문자_일반주서
 62
     0
100
AcDbTrace
 10
74.82700000000003
 20
34.24839083042529
 30
0.0
 11
74.82700000000003
 21
33.14772416375862
 31
0.0
 12
71.52500000000002
 22
33.69805749709196
 32
0.0
 13
71.52500000000002
 23
33.69805749709196
 33
0.0
  0
MTEXT
  5
229
330
221
100
AcDbEntity
  8
치수문자_일반주서
 62
     0
100
AcDbMText
 10
84.22500000000002
 20
38.07305749709196
 30
0.0
 40
3.5
 41
0.0
 71
     2
 72
     1
  1
\A1;25.4 [1]
  7
SLDTEXTSTYLE0
 73
     1
 44
1.0
  0
POINT
  5
22A
330
221
100
AcDbEntity
  8
Defpoints
 62
     0
100
AcDbPoint
 10
96.92500000000003
 20
17.64576550350913
 30
0.0
  0
POINT
  5
22B
330
221
100
AcDbEntity
  8
Defpoints
 62
     0
100
AcDbPoint
 10
71.52500000000002
 20
17.47856920438923
 30
0.0
  0
POINT
  5
22C
330
221
100
AcDbEntity
  8
Defpoints
 62
     0
100
AcDbPoint
 10
71.52500000000002
 20
33.69805749709196
 30
0.0
  0
ENDBLK
  5
223
330
221
100
AcDbEntity
  8
0
100
AcDbBlockEnd
  0
BLOCK
  5
22E
330
22D
100
AcDbEntity
  8
0
100
AcDbBlockBegin
  2
*D10
 70
     1
 10
0.0
 20
0.0
 30
0.0
  3
*D10
  1

  0
LINE
  5
230
330
22D
100
AcDbEntity
  8
치수문자_일반주서
 62
     0
370
    -2
100
AcDbLine
 10
14.81250000000002
 20
17.725
 30
0.0
 11
4.37500000000002
 21
17.72499999999997
 31
0.0
  0
LINE
  5
231
330
22D
100
AcDbEntity
  8
치수문자_일반주서
 62
     0
370
    -2
100
AcDbLine
 10
14.81250000000002
 20
5.025000000000005
 30
0.0
 11
4.375000000000065
 21
5.024999999999966
 31
0.0
  0
LINE
  5
232
330
22D
100
AcDbEntity
  8
치수문자_일반주서
 62
     0
370
    -2
100
AcDbLine
 10
4.375000000000032
 20
14.42299999999997
 30
0.0
 11
4.375000000000053
 21
8.326999999999966
 31
0.0
  0
SOLID
  5
233
330
22D
100
AcDbEntity
  8
치수문자_일반주서
 62
     0
100
AcDbTrace
 10
4.925333333333366
 20
14.42299999999997
 30
0.0
 11
3.824666666666698
 21
14.42299999999996
 31
0.0
 12
4.37500000000002
 22
17.72499999999997
 32
0.0
 13
4.37500000000002
 23
17.72499999999997
 33
0.0
  0
SOLID
  5
234
330
22D
100
AcDbEntity
  8
치수문자_일반주서
 62
     0
100
AcDbTrace
 10
3.82466666666672
 20
8.326999999999964
 30
0.0
 11
4.925333333333387
 21
8.326999999999968
 31
0.0
 12
4.375000000000065
 22
5.024999999999966
 32
0.0
 13
4.375000000000065
 23
5.024999999999966
 33
0.0
  0
MTEXT
  5
235
330
22D
100
AcDbEntity
  8
치수문자_일반주서
 62
     0
100
AcDbMText
 10
0.0000000000000426
 20
11.37500000000003
 30
0.0
 40
3.5
 41
0.0
 71
     2
 72
     1
  1
\A1;%%c12.7 [1/2]
  7
SLDTEXTSTYLE0
 11
-3.496765431890257E-15
 21
1.0
 31
0.0
 73
     1
 44
1.0
  0
POINT
  5
236
330
22D
100
AcDbEntity
  8
Defpoints
 62
     0
100
AcDbPoint
 10
14.87500000000002
 20
17.725
 30
0.0
  0
POINT
  5
237
330
22D
100
AcDbEntity
  8
Defpoints
 62
     0
100
AcDbPoint
 10
14.87500000000002
 20
5.025000000000005
 30
0.0
  0
POINT
  5
238
330
22D
100
AcDbEntity
  8
Defpoints
 62
     0
100
AcDbPoint
 10
4.375000000000064
 20
5.024999999999966
 30
0.0
  0
ENDBLK
  5
22F
330
22D
100
AcDbEntity
  8
0
100
AcDbBlockEnd
  0
BLOCK
  5
23A
330
239
100
AcDbEntity
  8
0
100
AcDbBlockBegin
  2
*D11
 70
     1
 10
0.0
 20
0.0
 30
0.0
  3
*D11
  1

  0
LINE
  5
23C
330
239
100
AcDbEntity
  8
치수문자_일반주서
 62
     0
370
    -2
100
AcDbLine
 10
96.4112729326135
 20
5.025000000000007
 30
0.0
 11
109.6365033354883
 21
5.025000000000055
 31
0.0
  0
LINE
  5
23D
330
239
100
AcDbEntity
  8
치수문자_일반주서
 62
     0
370
    -2
100
AcDbLine
 10
96.41127293261346
 20
17.72500000000001
 30
0.0
 11
109.6365033354883
 21
17.72500000000006
 31
0.0
  0
LINE
  5
23E
330
239
100
AcDbEntity
  8
치수문자_일반주서
 62
     0
370
    -2
100
AcDbLine
 10
109.6365033354883
 20
8.327000000000055
 30
0.0
 11
109.6365033354883
 21
14.42300000000006
 31
0.0
  0
SOLID
  5
23F
330
239
100
AcDbEntity
  8
치수문자_일반주서
 62
     0
100
AcDbTrace
 10
109.086170002155
 20
8.327000000000053
 30
0.0
 11
110.1868366688216
 21
8.327000000000057
 31
0.0
 12
109.6365033354883
 22
5.025000000000055
 32
0.0
 13
109.6365033354883
 23
5.025000000000055
 33
0.0
  0
SOLID
  5
240
330
239
100
AcDbEntity
  8
치수문자_일반주서
 62
     0
100
AcDbTrace
 10
110.1868366688216
 20
14.42300000000006
 30
0.0
 11
109.086170002155
 21
14.42300000000006
 31
0.0
 12
109.6365033354883
 22
17.72500000000006
 32
0.0
 13
109.6365033354883
 23
17.72500000000006
 33
0.0
  0
MTEXT
  5
241
330
239
100
AcDbEntity
  8
치수문자_일반주서
 62
     0
100
AcDbMText
 10
105.2615033354883
 20
11.37499999999999
 30
0.0
 40
3.5
 41
0.0
 71
     2
 72
     1
  1
\A1;%%c12.7 [1/2]
  7
SLDTEXTSTYLE0
 11
-3.356894814614646E-15
 21
1.0
 31
0.0
 73
     1
 44
1.0
  0
POINT
  5
242
330
239
100
AcDbEntity
  8
Defpoints
 62
     0
100
AcDbPoint
 10
96.3487729326135
 20
5.025000000000007
 30
0.0
  0
POINT
  5
243
330
239
100
AcDbEntity
  8
Defpoints
 62
     0
100
AcDbPoint
 10
96.34877293261346
 20
17.72500000000001
 30
0.0
  0
POINT
  5
244
330
239
100
AcDbEntity
  8
Defpoints
 62
     0
100
AcDbPoint
 10
109.6365033354883
 20
17.72500000000006
 30
0.0
  0
ENDBLK
  5
23B
330
239
100
AcDbEntity
  8
0
100
AcDbBlockEnd
  0
BLOCK
  5
292
330
291
100
AcDbEntity
  8
0
100
AcDbBlockBegin
  2
*D12
 70
     1
 10
0.0
 20
0.0
 30
0.0
  3
*D12
  1

  0
LINE
  5
294
330
291
100
AcDbEntity
  8
치수문자_일반주서
 62
     0
370
    -2
100
AcDbLine
 10
177.8824698582471
 20
-19.79107899983024
 30
0.0
 11
177.8824698582471
 21
6.232279256111852
 31
0.0
  0
LINE
  5
295
330
291
100
AcDbEntity
  8
치수문자_일반주서
 62
     0
370
    -2
100
AcDbLine
 10
95.33246985824712
 20
-20.21184450333937
 30
0.0
 11
95.33246985824712
 21
6.232279256111852
 31
0.0
  0
LINE
  5
296
330
291
100
AcDbEntity
  8
치수문자_일반주서
 62
     0
370
    -2
100
AcDbLine
 10
174.5804698582471
 20
6.232279256111852
 30
0.0
 11
98.63446985824713
 21
6.232279256111852
 31
0.0
  0
SOLID
  5
297
330
291
100
AcDbEntity
  8
치수문자_일반주서
 62
     0
100
AcDbTrace
 10
174.5804698582471
 20
5.681945922778518
 30
0.0
 11
174.5804698582471
 21
6.782612589445185
 31
0.0
 12
177.8824698582471
 22
6.232279256111852
 32
0.0
 13
177.8824698582471
 23
6.232279256111852
 33
0.0
  0
SOLID
  5
298
330
291
100
AcDbEntity
  8
치수문자_일반주서
 62
     0
100
AcDbTrace
 10
98.63446985824713
 20
6.782612589445185
 30
0.0
 11
98.63446985824713
 21
5.681945922778518
 31
0.0
 12
95.33246985824712
 22
6.232279256111852
 32
0.0
 13
95.33246985824712
 23
6.232279256111852
 33
0.0
  0
MTEXT
  5
299
330
291
100
AcDbEntity
  8
치수문자_일반주서
 62
     0
100
AcDbMText
 10
136.7199771234418
 20
10.60727925611185
 30
0.0
 40
3.5
 41
0.0
 71
     2
 72
     1
  1
\A1;82.55 [3 1/4]
  7
SLDTEXTSTYLE0
 73
     1
 44
1.0
  0
POINT
  5
29A
330
291
100
AcDbEntity
  8
Defpoints
 62
     0
100
AcDbPoint
 10
177.8824698582471
 20
-19.85357899983024
 30
0.0
  0
POINT
  5
29B
330
291
100
AcDbEntity
  8
Defpoints
 62
     0
100
AcDbPoint
 10
95.33246985824712
 20
-20.27434450333937
 30
0.0
  0
POINT
  5
29C
330
291
100
AcDbEntity
  8
Defpoints
 62
     0
100
AcDbPoint
 10
95.33246985824712
 20
6.232279256111852
 30
0.0
  0
ENDBLK
  5
293
330
291
100
AcDbEntity
  8
0
100
AcDbBlockEnd
  0
BLOCK
  5
29E
330
29D
100
AcDbEntity
  8
0
100
AcDbBlockBegin
  2
*D13
 70
     1
 10
0.0
 20
0.0
 30
0.0
  3
*D13
  1

  0
LINE
  5
2A0
330
29D
100
AcDbEntity
  8
치수문자_일반주서
 62
     0
370
    -2
100
AcDbLine
 10
177.8824698582471
 20
-19.79107899983024
 30
0.0
 11
177.8824698582471
 21
-3.801287006247414
 31
0.0
  0
LINE
  5
2A1
330
29D
100
AcDbEntity
  8
치수문자_일반주서
 62
     0
370
    -2
100
AcDbLine
 10
152.4824698582471
 20
-19.95827529895014
 30
0.0
 11
152.4824698582471
 21
-3.801287006247414
 31
0.0
  0
LINE
  5
2A2
330
29D
100
AcDbEntity
  8
치수문자_일반주서
 62
     0
370
    -2
100
AcDbLine
 10
174.5804698582471
 20
-3.801287006247414
 30
0.0
 11
155.7844698582471
 21
-3.801287006247414
 31
0.0
  0
SOLID
  5
2A3
330
29D
100
AcDbEntity
  8
치수문자_일반주서
 62
     0
100
AcDbTrace
 10
174.5804698582471
 20
-4.351620339580747
 30
0.0
 11
174.5804698582471
 21
-3.25095367291408
 31
0.0
 12
177.8824698582471
 22
-3.801287006247414
 32
0.0
 13
177.8824698582471
 23
-3.801287006247414
 33
0.0
  0
SOLID
  5
2A4
330
29D
100
AcDbEntity
  8
치수문자_일반주서
 62
     0
100
AcDbTrace
 10
155.7844698582471
 20
-3.25095367291408
 30
0.0
 11
155.7844698582471
 21
-4.351620339580747
 31
0.0
 12
152.4824698582471
 22
-3.801287006247414
 32
0.0
 13
152.4824698582471
 23
-3.801287006247414
 33
0.0
  0
MTEXT
  5
2A5
330
29D
100
AcDbEntity
  8
치수문자_일반주서
 62
     0
100
AcDbMText
 10
165.1824698582471
 20
0.5737129937525864
 30
0.0
 40
3.5
 41
0.0
 71
     2
 72
     1
  1
\A1;25.4 [1]
  7
SLDTEXTSTYLE0
 73
     1
 44
1.0
  0
POINT
  5
2A6
330
29D
100
AcDbEntity
  8
Defpoints
 62
     0
100
AcDbPoint
 10
177.8824698582471
 20
-19.85357899983024
 30
0.0
  0
POINT
  5
2A7
330
29D
100
AcDbEntity
  8
Defpoints
 62
     0
100
AcDbPoint
 10
152.4824698582471
 20
-20.02077529895014
 30
0.0
  0
POINT
  5
2A8
330
29D
100
AcDbEntity
  8
Defpoints
 62
     0
100
AcDbPoint
 10
152.4824698582471
 20
-3.801287006247414
 30
0.0
  0
ENDBLK
  5
29F
330
29D
100
AcDbEntity
  8
0
100
AcDbBlockEnd
  0
BLOCK
  5
2AA
330
2A9
100
AcDbEntity
  8
0
100
AcDbBlockBegin
  2
*D14
 70
     1
 10
0.0
 20
0.0
 30
0.0
  3
*D14
  1

  0
LINE
  5
2AC
330
2A9
100
AcDbEntity
  8
치수문자_일반주서
 62
     0
370
    -2
100
AcDbLine
 10
95.76996985824712
 20
-19.77434450333937
 30
0.0
 11
85.33246985824712
 21
-19.77434450333941
 31
0.0
  0
LINE
  5
2AD
330
2A9
100
AcDbEntity
  8
치수문자_일반주서
 62
     0
370
    -2
100
AcDbLine
 10
95.76996985824712
 20
-32.47434450333937
 30
0.0
 11
85.33246985824717
 21
-32.47434450333941
 31
0.0
  0
LINE
  5
2AE
330
2A9
100
AcDbEntity
  8
치수문자_일반주서
 62
     0
370
    -2
100
AcDbLine
 10
85.33246985824714
 20
-23.07634450333941
 30
0.0
 11
85.33246985824715
 21
-29.17234450333941
 31
0.0
  0
SOLID
  5
2AF
330
2A9
100
AcDbEntity
  8
치수문자_일반주서
 62
     0
100
AcDbTrace
 10
85.88280319158046
 20
-23.0763445033394
 30
0.0
 11
84.78213652491381
 21
-23.07634450333941
 31
0.0
 12
85.33246985824712
 22
-19.77434450333941
 32
0.0
 13
85.33246985824712
 23
-19.77434450333941
 33
0.0
  0
SOLID
  5
2B0
330
2A9
100
AcDbEntity
  8
치수문자_일반주서
 62
     0
100
AcDbTrace
 10
84.78213652491382
 20
-29.17234450333941
 30
0.0
 11
85.88280319158048
 21
-29.17234450333941
 31
0.0
 12
85.33246985824717
 22
-32.47434450333941
 32
0.0
 13
85.33246985824717
 23
-32.47434450333941
 33
0.0
  0
MTEXT
  5
2B1
330
2A9
100
AcDbEntity
  8
치수문자_일반주서
 62
     0
100
AcDbMText
 10
80.95746985824714
 20
-26.12434450333934
 30
0.0
 40
3.5
 41
0.0
 71
     2
 72
     1
  1
\A1;%%c12.7 [1/2]
  7
SLDTEXTSTYLE0
 11
-3.356894814614646E-15
 21
1.0
 31
0.0
 73
     1
 44
1.0
  0
POINT
  5
2B2
330
2A9
100
AcDbEntity
  8
Defpoints
 62
     0
100
AcDbPoint
 10
95.83246985824712
 20
-19.77434450333937
 30
0.0
  0
POINT
  5
2B3
330
2A9
100
AcDbEntity
  8
Defpoints
 62
     0
100
AcDbPoint
 10
95.83246985824712
 20
-32.47434450333937
 30
0.0
  0
POINT
  5
2B4
330
2A9
100
AcDbEntity
  8
Defpoints
 62
     0
100
AcDbPoint
 10
85.33246985824717
 20
-32.47434450333941
 30
0.0
  0
ENDBLK
  5
2AB
330
2A9
100
AcDbEntity
  8
0
100
AcDbBlockEnd
  0
BLOCK
  5
2B6
330
2B5
100
AcDbEntity
  8
0
100
AcDbBlockBegin
  2
*D15
 70
     1
 10
0.0
 20
0.0
 30
0.0
  3
*D15
  1

  0
LINE
  5
2B8
330
2B5
100
AcDbEntity
  8
치수문자_일반주서
 62
     0
370
    -2
100
AcDbLine
 10
177.3687427908606
 20
-32.47434450333937
 30
0.0
 11
190.5939731937354
 21
-32.47434450333932
 31
0.0
  0
LINE
  5
2B9
330
2B5
100
AcDbEntity
  8
치수문자_일반주서
 62
     0
370
    -2
100
AcDbLine
 10
177.3687427908606
 20
-19.77434450333936
 30
0.0
 11
190.5939731937354
 21
-19.77434450333931
 31
0.0
  0
LINE
  5
2BA
330
2B5
100
AcDbEntity
  8
치수문자_일반주서
 62
     0
370
    -2
100
AcDbLine
 10
190.5939731937354
 20
-29.17234450333932
 30
0.0
 11
190.5939731937354
 21
-23.07634450333931
 31
0.0
  0
SOLID
  5
2BB
330
2B5
100
AcDbEntity
  8
치수문자_일반주서
 62
     0
100
AcDbTrace
 10
190.0436398604021
 20
-29.17234450333932
 30
0.0
 11
191.1443065270687
 21
-29.17234450333931
 31
0.0
 12
190.5939731937354
 22
-32.47434450333932
 32
0.0
 13
190.5939731937354
 23
-32.47434450333932
 33
0.0
  0
SOLID
  5
2BC
330
2B5
100
AcDbEntity
  8
치수문자_일반주서
 62
     0
100
AcDbTrace
 10
191.1443065270687
 20
-23.07634450333931
 30
0.0
 11
190.0436398604021
 21
-23.07634450333932
 31
0.0
 12
190.5939731937354
 22
-19.77434450333931
 32
0.0
 13
190.5939731937354
 23
-19.77434450333931
 33
0.0
  0
MTEXT
  5
2BD
330
2B5
100
AcDbEntity
  8
치수문자_일반주서
 62
     0
100
AcDbMText
 10
186.2189731937354
 20
-26.12434450333938
 30
0.0
 40
3.5
 41
0.0
 71
     2
 72
     1
  1
\A1;%%c12.7 [1/2]
  7
SLDTEXTSTYLE0
 11
-4.475859752819528E-15
 21
1.0
 31
0.0
 73
     1
 44
1.0
  0
POINT
  5
2BE
330
2B5
100
AcDbEntity
  8
Defpoints
 62
     0
100
AcDbPoint
 10
177.3062427908606
 20
-32.47434450333937
 30
0.0
  0
POINT
  5
2BF
330
2B5
100
AcDbEntity
  8
Defpoints
 62
     0
100
AcDbPoint
 10
177.3062427908606
 20
-19.77434450333936
 30
0.0
  0
POINT
  5
2C0
330
2B5
100
AcDbEntity
  8
Defpoints
 62
     0
100
AcDbPoint
 10
190.5939731937354
 20
-19.77434450333931
 30
0.0
  0
ENDBLK
  5
2B7
330
2B5
100
AcDbEntity
  8
0
100
AcDbBlockEnd
  0
ENDSEC
  0
SECTION
  2
ENTITIES
  0
LINE
  5
99
330
1F
100
AcDbEntity
  8
0
  6
Continuous
 62
     4
370
    25
100
AcDbLine
 10
7.970000028925845
 20
6.351074928723893
 30
0.0
 11
-11.06612499999999
 21
6.351074928723892
 31
0.0
  0
LINE
  5
9A
330
1F
100
AcDbEntity
  8
0
  6
Continuous
 62
     4
370
    25
100
AcDbLine
 10
-39.80000000000002
 20
-6.348925071276109
 30
0.0
 11
7.970000028925845
 21
-6.348925071276106
 31
0.0
  0
LINE
  5
9B
330
1F
100
AcDbEntity
  8
0
  6
Continuous
 62
     4
370
    25
100
AcDbLine
 10
-39.80000000000002
 20
6.351074928723886
 30
0.0
 11
-40.80000000000002
 21
5.351074928723887
 31
0.0
  0
LINE
  5
9C
330
1F
100
AcDbEntity
  8
0
  6
Continuous
 62
     4
370
    25
100
AcDbLine
 10
-40.80000000000002
 20
-5.348925071276107
 30
0.0
 11
-39.80000000000002
 21
-6.348925071276105
 31
0.0
  0
ARC
  5
9D
330
1F
100
AcDbEntity
  8
0
  6
Continuous
 62
     4
370
    25
100
AcDbCircle
 10
8.604999707670268
 20
-5.198913771782257
 30
0.0
 40
0.6349997983137848
100
AcDbArc
 50
102.7341602630397
 51
159.0315801957622
  0
SPLINE
  5
9E
330
1F
100
AcDbEntity
  8
0
  6
Continuous
 62
     4
370
    25
100
AcDbSpline
210
0.0
220
0.0
230
1.0
 70
     8
 71
     3
 72
     9
 73
     5
 74
     0
 42
0.000000001
 43
0.00000001
 40
0.0
 40
0.0
 40
0.0
 40
0.0
 40
0.3317254733294661
 40
1.0
 40
1.0
 40
1.0
 40
1.0
 10
8.481761681093259
 20
-4.563864310622683
 30
0.0
 10
8.64875800206216
 20
-4.528930476591927
 30
0.0
 10
9.15217523828701
 20
-4.423621005841516
 30
0.0
 10
9.660379822220227
 20
-4.35120117326508
 30
0.0
 10
9.999999999999993
 20
-4.302804843928504
 30
0.0
  0
SPLINE
  5
9F
330
1F
100
AcDbEntity
  8
0
  6
Continuous
 62
     4
370
    25
100
AcDbSpline
210
0.0
220
0.0
230
1.0
 70
     8
 71
     3
 72
     9
 73
     5
 74
     0
 42
0.000000001
 43
0.00000001
 40
0.0
 40
0.0
 40
0.0
 40
0.0
 40
0.4992702625946626
 40
1.0
 40
1.0
 40
1.0
 40
1.0
 10
9.999999999999991
 20
4.30495470137629
 30
0.0
 10
9.660560051889702
 20
4.354589229602591
 30
0.0
 10
8.980687899388062
 20
4.454003378501336
 30
0.0
 10
8.307223624069392
 20
4.597440392428843
 30
0.0
 10
7.970000034337201
 20
4.669263570746968
 30
0.0
  0
SPLINE
  5
A0
330
1F
100
AcDbEntity
  8
0
  6
Continuous
 62
     1
370
    25
100
AcDbSpline
210
0.0
220
0.0
230
1.0
 70
     8
 71
     3
 72
    11
 73
     7
 74
     0
 42
0.000000001
 43
0.00000001
 40
0.0
 40
0.0
 40
0.0
 40
0.0
 40
0.3122245473781995
 40
0.4986238528048652
 40
0.686335966274468
 40
1.0
 40
1.0
 40
1.0
 40
1.0
 10
25.90070746093225
 20
1.628434164375874
 30
0.0
 10
25.79495915324949
 20
1.715158085873459
 30
0.0
 10
25.6260786822963
 20
1.853656535885117
 30
0.0
 10
25.39490689558979
 20
2.053295687774298
 30
0.0
 10
25.16246614421448
 20
2.257593169698362
 30
0.0
 10
24.99229425875783
 20
2.41230408709782
 30
0.0
 10
24.88583366960212
 20
2.509092198547417
 30
0.0
  0
LINE
  5
A1
330
1F
100
AcDbEntity
  8
0
  6
Continuous
 62
     1
370
    25
100
AcDbLine
 10
17.48884191791611
 20
6.351074928723895
 30
0.0
 11
15.71180711871126
 21
6.351074928723895
 31
0.0
  0
LINE
  5
A2
330
1F
100
AcDbEntity
  8
0
  6
Continuous
 62
     1
370
    25
100
AcDbLine
 10
15.71180711871126
 20
-6.348925071276108
 30
0.0
 11
17.48884191791612
 21
-6.348925071276108
 31
0.0
  0
SPLINE
  5
A3
330
1F
100
AcDbEntity
  8
0
  6
Continuous
 62
     1
370
    25
100
AcDbSpline
210
0.0
220
0.0
230
1.0
 70
     8
 71
     3
 72
    16
 73
    12
 74
     0
 42
0.000000001
 43
0.00000001
 40
0.0
 40
0.0
 40
0.0
 40
0.0
 40
0.1941603212206684
 40
0.3519636407898338
 40
0.4774238522034839
 40
0.5800636005349336
 40
0.6637445166174394
 40
0.729578986147493
 40
0.8003572334532377
 40
0.9036510140426832
 40
0.9999999999999999
 40
0.9999999999999999
 40
0.9999999999999999
 40
0.9999999999999999
 10
24.69016391060594
 20
5.0470321930883
 30
0.0
 10
24.511620774308
 20
5.031595794390267
 30
0.0
 10
24.1879671467574
 20
5.003613500931511
 30
0.0
 10
23.72405384182226
 20
4.976979249293831
 30
0.0
 10
23.32170204015336
 20
4.964709110976802
 30
0.0
 10
22.9949864779934
 20
4.960254369334087
 30
0.0
 10
22.7322395466343
 20
4.959732932774248
 30
0.0
 10
22.51281078798273
 20
4.962068084492109
 30
0.0
 10
22.28430438300168
 20
4.966899511695631
 30
0.0
 10
22.01495346297927
 20
4.97534158457636
 30
0.0
 10
21.81583206788472
 20
4.986104729904682
 30
0.0
 10
21.71973469941196
 20
4.9912990986065
 30
0.0
  0
SPLINE
  5
A4
330
1F
100
AcDbEntity
  8
0
  6
Continuous
 62
     1
370
    25
100
AcDbSpline
210
0.0
220
0.0
230
1.0
 70
     8
 71
     3
 72
    24
 73
    20
 74
     0
 42
0.000000001
 43
0.00000001
 40
0.0
 40
0.0
 40
0.0
 40
0.0
 40
0.0934333611609415
 40
0.1320700064990887
 40
0.1666137701656604
 40
0.2202268094124678
 40
0.2676537501068125
 40
0.3080251197222825
 40
0.3485936297986156
 40
0.429642965444999
 40
0.518954700765844
 40
0.5739416225094297
 40
0.6116193793263475
 40
0.6466653889062264
 40
0.6912116912857366
 40
0.7458504485959662
 40
0.8126373430979277
 40
0.8966416145507862
 40
1.0
 40
1.0
 40
1.0
 40
1.0
 10
19.17493580461601
 20
-5.283007675798417
 30
0.0
 10
19.30951289023018
 20
-5.259103782234443
 30
0.0
 10
19.49974041015291
 20
-5.22531512966837
 30
0.0
 10
19.79163466220779
 20
-5.178598605397352
 30
0.0
 10
20.03383210783255
 20
-5.144402688324334
 30
0.0
 10
20.30007035659465
 20
-5.11415657330831
 30
0.0
 10
20.57348963841788
 20
-5.08320099544034
 30
0.0
 10
20.8265077980825
 20
-5.056694093699051
 30
0.0
 10
21.12373112372806
 20
-5.029083474779653
 30
0.0
 10
21.52227828662549
 20
-4.998447634136516
 30
0.0
 10
21.9436650384108
 20
-4.975957112501449
 30
0.0
 10
22.28432468000013
 20
-4.9646754817307
 30
0.0
 10
22.5128066275016
 20
-4.959933430935608
 30
0.0
 10
22.73224094996121
 20
-4.957577947066276
 30
0.0
 10
22.99498596366756
 20
-4.958106391417521
 30
0.0
 10
23.32170222534537
 20
-4.962558576770936
 30
0.0
 10
23.72405377326795
 20
-4.974829642368075
 30
0.0
 10
24.18796717056156
 20
-5.0014635564948
 30
0.0
 10
24.51162078277095
 20
-5.029445906015805
 30
0.0
 10
24.69016391060594
 20
-5.044882335640512
 30
0.0
  0
SPLINE
  5
A5
330
1F
100
AcDbEntity
  8
0
  6
Continuous
 62
     1
370
    25
100
AcDbSpline
210
0.0
220
0.0
230
1.0
 70
     8
 71
     3
 72
    15
 73
    11
 74
     0
 42
0.000000001
 43
0.00000001
 40
0.0
 40
0.0
 40
0.0
 40
0.0
 40
0.1821458936227023
 40
0.3055417335967875
 40
0.3814719424338861
 40
0.4660202201515433
 40
0.6287571651811197
 40
0.778457813736495
 40
0.9169171922547437
 40
1.0
 40
1.0
 40
1.0
 40
1.0
 10
27.63240495995362
 20
-4.774990035441611
 30
0.0
 10
27.79720232234387
 20
-4.731443042561739
 30
0.0
 10
28.07364265704171
 20
-4.65839487533265
 30
0.0
 10
28.41861245520556
 20
-4.577801878033316
 30
0.0
 10
28.68356068182326
 20
-4.519701586649285
 30
0.0
 10
28.98161211677296
 20
-4.458320474869034
 30
0.0
 10
29.34450073694629
 20
-4.391725303766337
 30
0.0
 10
29.75596841507801
 20
-4.328001034059399
 30
0.0
 10
30.09464654273039
 20
-4.283002332499483
 30
0.0
 10
30.29637148334625
 20
-4.262372731728909
 30
0.0
 10
30.37202242252528
 20
-4.254636213535284
 30
0.0
  0
SPLINE
  5
A6
330
1F
100
AcDbEntity
  8
0
  6
Continuous
 62
     1
370
    25
100
AcDbSpline
210
0.0
220
0.0
230
1.0
 70
     8
 71
     3
 72
    18
 73
    14
 74
     0
 42
0.000000001
 43
0.00000001
 40
0.0
 40
0.0
 40
0.0
 40
0.0
 40
0.1446667035700596
 40
0.2646123910163756
 40
0.3585752233299229
 40
0.4553306383278183
 40
0.5353323754916209
 40
0.6047133890483554
 40
0.6605025253712418
 40
0.7235768745067209
 40
0.8028433954647725
 40
0.9158137724935146
 40
1.0
 40
1.0
 40
1.0
 40
1.0
 10
14.08760269298921
 20
4.344162425718681
 30
0.0
 10
13.89743870657002
 20
4.317687289072563
 30
0.0
 10
13.54960644185528
 20
4.26926115480994
 30
0.0
 10
13.0714445809501
 20
4.224603327470423
 30
0.0
 10
12.65049314565914
 20
4.196749647819115
 30
0.0
 10
12.25863653754157
 20
4.182536111553983
 30
0.0
 10
11.9134304157112
 20
4.178700189678802
 30
0.0
 10
11.63582948996069
 20
4.181578786615588
 30
0.0
 10
11.37855960043475
 20
4.188749276330846
 30
0.0
 10
11.10859691036843
 20
4.200791114449397
 30
0.0
 10
10.76090601285183
 20
4.223428787355185
 30
0.0
 10
10.38578950454176
 20
4.257245189500594
 30
0.0
 10
10.11645437672505
 20
4.291008242163328
 30
0.0
 10
10.00144778894516
 20
4.30542512684989
 30
0.0
  0
SPLINE
  5
A7
330
1F
100
AcDbEntity
  8
0
  6
Continuous
 62
     4
370
    25
100
AcDbSpline
210
0.0
220
0.0
230
1.0
 70
     8
 71
     3
 72
     9
 73
     5
 74
     0
 42
0.000000001
 43
0.00000001
 40
0.0
 40
0.0
 40
0.0
 40
0.0
 40
0.8259289142371038
 40
1.0
 40
1.0
 40
1.0
 40
1.0
 10
10.00144778894516
 20
-4.303275269402103
 30
0.0
 10
10.11652315247562
 20
-4.288081512309283
 30
0.0
 10
10.25585156385198
 20
-4.269685550101261
 30
0.0
 10
10.39440007568748
 20
-4.257283753431171
 30
0.0
 10
10.41851736557352
 20
-4.255124959219399
 30
0.0
  0
SPLINE
  5
A8
330
1F
100
AcDbEntity
  8
0
  6
Continuous
 62
     1
370
    25
100
AcDbSpline
210
0.0
220
0.0
230
1.0
 70
     8
 71
     3
 72
    24
 73
    20
 74
     0
 42
0.000000001
 43
0.00000001
 40
0.0
 40
0.0
 40
0.0
 40
0.0
 40
0.0918001739463501
 40
0.1684096217170276
 40
0.243853626922077
 40
0.303729293212553
 40
0.3520607301343619
 40
0.4130074951843503
 40
0.4868500528683509
 40
0.5530355827170746
 40
0.6057778502996816
 40
0.6599581219584376
 40
0.7308975223677364
 40
0.7735992737248872
 40
0.8118500234393595
 40
0.8440257285018441
 40
0.8754706713466328
 40
0.9268256936865641
 40
0.9999999999999999
 40
0.9999999999999999
 40
0.9999999999999999
 40
0.9999999999999999
 10
34.03673285872978
 20
4.344164933404429
 30
0.0
 10
33.87008564829785
 20
4.320079942284361
 30
0.0
 10
33.56436734230159
 20
4.275895448190059
 30
0.0
 10
33.06069513507914
 20
4.223026642829203
 30
0.0
 10
32.56456062127888
 20
4.1945689686767
 30
0.0
 10
32.13324835730432
 20
4.181056666184673
 30
0.0
 10
31.77821872957805
 20
4.178631315330353
 30
0.0
 10
31.38589442267298
 20
4.185233449182738
 30
0.0
 10
30.95421420212997
 20
4.20552120263752
 30
0.0
 10
30.54127587145234
 20
4.237750825222673
 30
0.0
 10
30.17060865427509
 20
4.276600021999058
 30
0.0
 10
29.78894817630162
 20
4.32513549459862
 30
0.0
 10
29.42865682496468
 20
4.380394617577809
 30
0.0
 10
29.10236249240261
 20
4.438178024026638
 30
0.0
 10
28.85807115950827
 20
4.485612706048485
 30
0.0
 10
28.63634109076715
 20
4.532027395776475
 30
0.0
 10
28.384745849147
 20
4.587723339411045
 30
0.0
 10
28.05323128468514
 20
4.665770319345991
 30
0.0
 10
27.78816170360597
 20
4.735919652857746
 30
0.0
 10
27.63240495995362
 20
4.7771398928894
 30
0.0
  0
LINE
  5
A9
330
1F
100
AcDbEntity
  8
0
  6
Continuous
 62
     4
370
    25
100
AcDbLine
 10
7.970000028925847
 20
-0.4539949488348727
 30
0.0
 11
7.970000028925847
 21
6.351074928723893
 31
0.0
  0
SPLINE
  5
AA
330
1F
100
AcDbEntity
  8
0
  6
Continuous
 62
     4
370
    25
100
AcDbSpline
210
0.0
220
0.0
230
1.0
 70
     8
 71
     3
 72
    10
 73
     6
 74
     0
 42
0.000000001
 43
0.00000001
 40
0.0
 40
0.0
 40
0.0
 40
0.0
 40
0.5
 40
0.5
 40
1.0
 40
1.0
 40
1.0
 40
1.0
 10
9.99999999999994
 20
-2.420877042505633
 30
0.0
 10
9.66127415614272
 20
-2.108128746367425
 30
0.0
 10
9.320203738706407
 20
-1.784291726915396
 30
0.0
 10
8.646351179685333
 20
-1.126855415631417
 30
0.0
 10
8.30957477978893
 20
-0.792000533654338
 30
0.0
 10
7.970000048218271
 20
-0.4542663918163474
 30
0.0
  0
LINE
  5
AB
330
1F
100
AcDbEntity
  8
0
  6
Continuous
 62
     4
370
    25
100
AcDbLine
 10
9.999999999999993
 20
-2.420877042505682
 30
0.0
 11
9.999999999999993
 21
-3.947852168868655
 31
0.0
  0
SPLINE
  5
AC
330
1F
100
AcDbEntity
  8
0
  6
Continuous
 62
     4
370
    25
100
AcDbSpline
210
0.0
220
0.0
230
1.0
 70
     8
 71
     3
 72
    10
 73
     6
 74
     0
 42
0.000000001
 43
0.00000001
 40
0.0
 40
0.0
 40
0.0
 40
0.0
 40
0.5
 40
0.5
 40
1.0
 40
1.0
 40
1.0
 40
1.0
 10
9.99999999999994
 20
-3.947852168868613
 30
0.0
 10
9.661274152935354
 20
-3.682906329163279
 30
0.0
 10
9.320203732247585
 20
-3.400437046137046
 30
0.0
 10
8.646351167002194
 20
-2.811363623267232
 30
0.0
 10
8.309574763711916
 20
-2.503681881051454
 30
0.0
 10
7.970000028925847
 20
-2.185789475706067
 30
0.0
  0
LINE
  5
AD
330
1F
100
AcDbEntity
  8
0
  6
Continuous
 62
     4
370
    25
100
AcDbLine
 10
7.970000028925847
 20
-6.348925071276106
 30
0.0
 11
7.970000028925847
 21
-2.185791560065067
 31
0.0
  0
LINE
  5
AE
330
1F
100
AcDbEntity
  8
0
  6
Continuous
 62
     4
370
    25
100
AcDbLine
 10
-39.80000000000002
 20
6.351074928723886
 30
0.0
 11
-39.80000000000002
 21
-6.348925071276097
 31
0.0
  0
LINE
  5
AF
330
1F
100
AcDbEntity
  8
0
  6
Continuous
 62
     4
370
    25
100
AcDbLine
 10
-40.80000000000002
 20
5.351074928723887
 30
0.0
 11
-40.80000000000002
 21
-5.348925071276113
 31
0.0
  0
SPLINE
  5
B0
330
1F
100
AcDbEntity
  8
0
  6
Continuous
 62
     4
370
    25
100
AcDbSpline
210
0.0
220
0.0
230
1.0
 70
    24
 71
     3
 72
     8
 73
     4
 74
     0
 42
0.000000001
 43
0.00000001
 40
0.0
 40
0.0
 40
0.0
 40
0.0
 40
1.0
 40
1.0
 40
1.0
 40
1.0
 10
9.999999999999991
 20
-1.753115837450977
 30
0.0
 10
9.999999999999991
 20
-1.954134968808733
 30
0.0
 10
9.999999999999991
 20
-2.178056907243217
 30
0.0
 10
9.999999999999991
 20
-2.420877042504445
 30
0.0
  0
SPLINE
  5
B1
330
1F
100
AcDbEntity
  8
0
  6
Continuous
 62
     4
370
    25
100
AcDbSpline
210
0.0
220
0.0
230
1.0
 70
     8
 71
     3
 72
    10
 73
     6
 74
     0
 42
0.000000001
 43
0.00000001
 40
0.0
 40
0.0
 40
0.0
 40
0.0
 40
0.5
 40
0.5
 40
1.0
 40
1.0
 40
1.0
 40
1.0
 10
9.999999999999991
 20
-1.753115837450977
 30
0.0
 10
9.661274156142767
 20
-1.481152215640346
 30
0.0
 10
9.320203738706443
 20
-1.201053949370981
 30
0.0
 10
8.64635117968535
 20
-0.6353110985916454
 30
0.0
 10
8.309574779788939
 20
-0.3485772450990697
 30
0.0
 10
7.970000048218271
 20
-0.0607812085653174
 30
0.0
  0
SPLINE
  5
B2
330
1F
100
AcDbEntity
  8
0
  6
Continuous
 62
     4
370
    25
100
AcDbSpline
210
0.0
220
0.0
230
1.0
 70
     8
 71
     3
 72
    10
 73
     6
 74
     0
 42
0.000000001
 43
0.00000001
 40
0.0
 40
0.0
 40
0.0
 40
0.0
 40
0.5
 40
0.5
 40
1.0
 40
1.0
 40
1.0
 40
1.0
 10
9.999999999999991
 20
3.846073445803305
 30
0.0
 10
9.661274154263266
 20
4.022960583054925
 30
0.0
 10
9.320203734921604
 20
4.183773147447831
 30
0.0
 10
8.646351172253096
 20
4.46731154011256
 30
0.0
 10
8.309574770367893
 20
4.590709241761441
 30
0.0
 10
7.97000003691301
 20
4.694373522847229
 30
0.0
  0
SPLINE
  5
B3
330
1F
100
AcDbEntity
  8
0
  6
Continuous
 62
     4
370
    25
100
AcDbSpline
210
0.0
220
0.0
230
1.0
 70
    24
 71
     3
 72
    14
 73
    10
 74
     0
 42
0.000000001
 43
0.00000001
 40
0.0
 40
0.0
 40
0.0
 40
0.0
 40
0.25
 40
0.25
 40
0.5
 40
0.5
 40
0.75
 40
0.75
 40
1.0
 40
1.0
 40
1.0
 40
1.0
 10
9.999999999999991
 20
3.846073445803305
 30
0.0
 10
9.999999999999991
 20
3.485323031086461
 30
0.0
 10
9.999999999999991
 20
3.080788777027594
 30
0.0
 10
9.999999999999991
 20
2.204332987624066
 30
0.0
 10
9.999999999999991
 20
1.732575077153331
 30
0.0
 10
9.999999999999993
 20
0.7539780228839086
 30
0.0
 10
9.999999999999991
 20
0.2474214682081049
 30
0.0
 10
9.999999999999993
 20
-0.7633289576735365
 30
0.0
 10
9.999999999999991
 20
-1.267253454797506
 30
0.0
 10
9.999999999999991
 20
-1.753115837450974
 30
0.0
  0
SPLINE
  5
B4
330
1F
100
AcDbEntity
  8
0
  6
Continuous
 62
     4
370
    25
100
AcDbSpline
210
0.0
220
0.0
230
1.0
 70
     8
 71
     3
 72
     9
 73
     5
 74
     0
 42
0.000000001
 43
0.00000001
 40
0.0
 40
0.0
 40
0.0
 40
0.0
 40
0.0490889717574225
 40
1.0
 40
1.0
 40
1.0
 40
1.0
 10
8.4805480010472
 20
-4.557792536801693
 30
0.0
 10
8.480251994075417
 20
-4.558785886990787
 30
0.0
 10
8.474221984458492
 20
-4.579021596836207
 30
0.0
 10
8.468816315030443
 20
-4.576443688374686
 30
0.0
 10
8.463676004356277
 20
-4.573992326788826
 30
0.0
  0
SPLINE
  5
B5
330
1F
100
AcDbEntity
  8
0
  6
Continuous
 62
     4
370
    25
100
AcDbSpline
210
0.0
220
0.0
230
1.0
 70
    24
 71
     3
 72
     9
 73
     5
 74
     0
 42
0.000000001
 43
0.00000001
 40
0.0
 40
0.0
 40
0.0
 40
0.0
 40
0.5034466373523555
 40
1.0
 40
1.0
 40
1.0
 40
1.0
 10
9.999999999999991
 20
-4.001300815436397
 30
0.0
 10
9.999999999999991
 20
-4.093696740591399
 30
0.0
 10
9.999999999999991
 20
-4.277223490597944
 30
0.0
 10
9.999999999999991
 20
-4.286524885244384
 30
0.0
 10
9.999999999999993
 20
-4.291143524033388
 30
0.0
  0
SPLINE
  5
B6
330
1F
100
AcDbEntity
  8
0
  6
Continuous
 62
     4
370
    25
100
AcDbSpline
210
0.0
220
0.0
230
1.0
 70
    24
 71
     3
 72
    10
 73
     6
 74
     0
 42
0.000000001
 43
0.00000001
 40
0.0
 40
0.0
 40
0.0
 40
0.0
 40
0.0630410041015325
 40
0.524964281859288
 40
1.0
 40
1.0
 40
1.0
 40
1.0
 10
9.999999999999991
 20
4.293293381481174
 30
0.0
 10
9.999999999999991
 20
4.296603181335376
 30
0.0
 10
9.999999999999991
 20
4.324165031409346
 30
0.0
 10
9.999999999999991
 20
4.199238466821524
 30
0.0
 10
9.999999999999991
 20
3.964888337752622
 30
0.0
 10
9.999999999999993
 20
3.846073445803305
 30
0.0
  0
SPLINE
  5
B7
330
1F
100
AcDbEntity
  8
0
  6
Continuous
 62
     1
370
    25
100
AcDbSpline
210
0.0
220
0.0
230
1.0
 70
     8
 71
     3
 72
    23
 73
    19
 74
     0
 42
0.000000001
 43
0.00000001
 40
0.0
 40
0.0
 40
0.0
 40
0.0
 40
0.0638526609331061
 40
0.1275886019471183
 40
0.1914024297576209
 40
0.255289248269008
 40
0.3190329902982156
 40
0.3828156993387101
 40
0.4467196094390297
 40
0.5104789448059952
 40
0.5742382840204073
 40
0.6381421958083624
 40
0.7019248994684926
 40
0.7656686438079449
 40
0.8295554673798763
 40
0.8933692882830814
 40
0.957105230067563
 40
1.0
 40
1.0
 40
1.0
 40
1.0
 10
35.39999999999999
 20
-6.024699590898667
 30
0.0
 10
35.01854042278933
 20
-5.885695880289738
 30
0.0
 10
34.25631856007579
 20
-5.607942551878962
 30
0.0
 10
33.11473787281386
 20
-4.957032346468021
 30
0.0
 10
31.97175698992521
 20
-4.160298621922879
 30
0.0
 10
30.82745129417978
 20
-3.22649132282259
 30
0.0
 10
29.68572342834284
 20
-2.18755867301856
 30
0.0
 10
28.54329383752411
 20
-1.077982309238072
 30
0.0
 10
27.39867813532266
 20
0.0643919580570749
 30
0.0
 10
26.25666666306151
 20
1.207040259550243
 30
0.0
 10
25.11465516106336
 20
2.310653253645262
 30
0.0
 10
23.9700393093708
 20
3.337527355215114
 30
0.0
 10
22.82761024950501
 20
4.258577732994858
 30
0.0
 10
21.68588071934195
 20
5.04162668616731
 30
0.0
 10
20.54158099347578
 20
5.662655218540281
 30
0.0
 10
19.39857763366465
 20
6.093685780085175
 30
0.0
 10
18.38207108316039
 20
6.328513826787813
 30
0.0
 10
17.74508492825429
 20
6.328433852674491
 30
0.0
 10
17.48884191791612
 20
6.328401681162773
 30
0.0
  0
SPLINE
  5
B8
330
1F
100
AcDbEntity
  8
0
  6
Continuous
 62
     1
370
    25
100
AcDbSpline
210
0.0
220
0.0
230
1.0
 70
     8
 71
     3
 72
    16
 73
    12
 74
     0
 42
0.000000001
 43
0.00000001
 40
0.0
 40
0.0
 40
0.0
 40
0.0
 40
0.1203341684002766
 40
0.2404306315204324
 40
0.3606857196758398
 40
0.4810894449656367
 40
0.6012017966384883
 40
0.7213935104596348
 40
0.8418320404315192
 40
0.9619761508872108
 40
1.0
 40
1.0
 40
1.0
 40
1.0
 10
35.39999999999999
 20
-5.008898950014276
 30
0.0
 10
35.01855717486034
 20
-4.872768129404622
 30
0.0
 10
34.25642501774763
 20
-4.600775397799897
 30
0.0
 10
33.11466823489454
 20
-3.99974344732831
 30
0.0
 10
31.97168728532387
 20
-3.281535182233802
 30
0.0
 10
30.82758526195331
 20
-2.45522431647997
 30
0.0
 10
29.68568573025168
 20
-1.548774642700177
 30
0.0
 10
28.54318966260287
 20
-0.5913045754437314
 30
0.0
 10
27.39877496296828
 20
0.3791939231571596
 30
0.0
 10
26.51678248048648
 20
1.132827057102798
 30
0.0
 10
26.0158137603117
 20
1.531667715726541
 30
0.0
 10
25.89538001963425
 20
1.627549695015707
 30
0.0
  0
LINE
  5
B9
330
1F
100
AcDbEntity
  8
0
  6
Continuous
 62
     1
370
    25
100
AcDbLine
 10
35.4000000000002
 20
-6.024699590898624
 30
0.0
 11
35.39999999999999
 21
-5.008898950014276
 31
0.0
  0
SPLINE
  5
BA
330
1F
100
AcDbEntity
  8
0
  6
Continuous
 62
     1
370
    25
100
AcDbSpline
210
0.0
220
0.0
230
1.0
 70
     8
 71
     3
 72
    30
 73
    26
 74
     0
 42
0.000000001
 43
0.00000001
 40
0.0
 40
0.0
 40
0.0
 40
0.0
 40
0.021829140523753
 40
0.0605560271965678
 40
0.0991836479175352
 40
0.1378408374697636
 40
0.1765425716774658
 40
0.2222384436363619
 40
0.2680179931687571
 40
0.3137975547764232
 40
0.3594934278391969
 40
0.4052451368149895
 40
0.4510491854959308
 40
0.4967506526477425
 40
0.542480051924923
 40
0.5882963521081189
 40
0.6340090001006635
 40
0.67972164533648
 40
0.7255379443104706
 40
0.7712673474427282
 40
0.81696881293923
 40
0.8627728579942477
 40
0.9085245719191782
 40
0.9542204444299043
 40
1.0
 40
1.0
 40
1.0
 40
1.0
 10
10.41851736557351
 20
4.257274816667183
 30
0.0
 10
10.60003701019442
 20
4.393700749638552
 30
0.0
 10
11.10358906367146
 20
4.772158733283937
 30
0.0
 10
11.93106946132625
 20
5.274711466968054
 30
0.0
 10
12.89579631111701
 20
5.759960192922057
 30
0.0
 10
13.86140145539576
 20
6.10677579825528
 30
0.0
 10
14.88692760625538
 20
6.326465165071681
 30
0.0
 10
15.96959208281269
 20
6.380157172485759
 30
0.0
 10
17.11334916858274
 20
6.230585881255061
 30
0.0
 10
18.25701044907246
 20
5.880054831853585
 30
0.0
 10
19.39859658761019
 20
5.338869326467169
 30
0.0
 10
20.54157589193665
 20
4.625558664156154
 30
0.0
 10
21.68588207112926
 20
3.763887597069935
 30
0.0
 10
22.82760987600876
 20
2.778921746611888
 30
0.0
 10
23.97003939933284
 20
1.704489868377756
 30
0.0
 10
25.11465512766167
 20
0.5769982305093467
 30
0.0
 10
26.25666666365215
 20
-0.5713751665758071
 30
0.0
 10
27.39867812783745
 20
-1.701221980787049
 30
0.0
 10
28.54329383323502
 20
-2.773879580518125
 30
0.0
 10
29.68572342419457
 20
-3.758851302526808
 30
0.0
 10
30.82745129101168
 20
-4.622242172680096
 30
0.0
 10
31.97175698752345
 20
-5.335859553670983
 30
0.0
 10
33.11473787121201
 20
-5.874023259026446
 30
0.0
 10
34.25631855927329
 20
-6.23720285792993
 30
0.0
 10
35.01854042252194
 20
-6.308084770029611
 30
0.0
 10
35.39999999999998
 20
-6.343558147984344
 30
0.0
  0
SPLINE
  5
BB
330
1F
100
AcDbEntity
  8
0
  6
Continuous
 62
     1
370
    25
100
AcDbSpline
210
0.0
220
0.0
230
1.0
 70
     8
 71
     3
 72
    18
 73
    14
 74
     0
 42
0.000000001
 43
0.00000001
 40
0.0
 40
0.0
 40
0.0
 40
0.0
 40
0.0029517792679775
 40
0.0965073968523704
 40
0.1903115253273178
 40
0.2839073120041293
 40
0.3774361164448544
 40
0.4898170167849693
 40
0.6022853935853165
 40
0.7146507249653266
 40
0.8269404856041125
 40
0.9392134136142563
 40
1.0
 40
1.0
 40
1.0
 40
1.0
 10
26.29268407870871
 20
-0.6037072070793267
 30
0.0
 10
26.28067822839641
 20
-0.5955154405282097
 30
0.0
 10
25.88815112679074
 20
-0.3276884813625646
 30
0.0
 10
25.11440890762446
 20
0.223199328231038
 30
0.0
 10
23.97026482588033
 20
1.014678383626667
 30
0.0
 10
22.82771376724176
 20
1.778682272852587
 30
0.0
 10
21.60984024621628
 20
2.531068381981328
 30
0.0
 10
20.31402211820836
 20
3.230487427620267
 30
0.0
 10
18.94130629735324
 20
3.820175354950746
 30
0.0
 10
17.56948555992606
 20
4.234869328547273
 30
0.0
 10
16.19870922472512
 20
4.444706100783187
 30
0.0
 10
15.03780804682716
 20
4.472783424524355
 30
0.0
 10
14.33372492157586
 20
4.36351063545957
 30
0.0
 10
14.08641803489451
 20
4.325128926974573
 30
0.0
  0
LINE
  5
BC
330
1F
100
AcDbEntity
  8
0
  6
Continuous
 62
     1
370
    25
100
AcDbLine
 10
35.39999999999999
 20
-6.343558147984345
 30
0.0
 11
35.4000000000002
 21
-6.024699590898624
 31
0.0
  0
SPLINE
  5
BD
330
1F
100
AcDbEntity
  8
0
  6
Continuous
 62
     1
370
    25
100
AcDbSpline
210
0.0
220
0.0
230
1.0
 70
     8
 71
     3
 72
    19
 73
    15
 74
     0
 42
0.000000001
 43
0.00000001
 40
0.0
 40
0.0
 40
0.0
 40
0.0
 40
0.0027363859977906
 40
0.1003781938046871
 40
0.1979084275474709
 40
0.2953196342747071
 40
0.3929092422873209
 40
0.4904988245426539
 40
0.5879100289152525
 40
0.670411629018222
 40
0.7528182719847073
 40
0.8351618822326228
 40
0.9177171005603555
 40
1.0
 40
1.0
 40
1.0
 40
1.0
 10
21.71838952864366
 20
-4.990066695186755
 30
0.0
 10
21.70770575760973
 20
-4.997371875470596
 30
0.0
 10
21.31579553724089
 20
-5.265346058535995
 30
0.0
 10
20.5414748469848
 20
-5.647784014108702
 30
0.0
 10
19.39862363007378
 20
-6.09952118697547
 30
0.0
 10
18.25700318825352
 20
-6.336003572769668
 30
0.0
 10
17.11335120197915
 20
-6.372322071268383
 30
0.0
 10
15.96959129399664
 20
-6.201793039512546
 30
0.0
 10
14.88692870870498
 20
-5.849533087939306
 30
0.0
 10
13.86139842133632
 20
-5.361658703367726
 30
0.0
 10
12.89580762997324
 20
-4.777941698098038
 30
0.0
 10
11.93102725548509
 20
-4.081779595974287
 30
0.0
 10
10.96383620364074
 20
-3.298063741365067
 30
0.0
 10
10.32092469639386
 20
-2.712950398900457
 30
0.0
 10
9.999999999995426
 20
-2.420877042501466
 30
0.0
  0
SPLINE
  5
BE
330
1F
100
AcDbEntity
  8
0
  6
Continuous
 62
     1
370
    25
100
AcDbSpline
210
0.0
220
0.0
230
1.0
 70
     8
 71
     3
 72
    15
 73
    11
 74
     0
 42
0.000000001
 43
0.00000001
 40
0.0
 40
0.0
 40
0.0
 40
0.0
 40
0.1001446076789264
 40
0.2247892360557174
 40
0.3494338288847939
 40
0.4738322178370468
 40
0.6053671720147268
 40
0.7371033539523533
 40
0.8685786946739166
 40
1.0
 40
1.0
 40
1.0
 40
1.0
 10
19.17588443931676
 20
-5.269446445128216
 30
0.0
 10
18.86977513604449
 20
-5.317326197247641
 30
0.0
 10
18.1826679814313
 20
-5.424799311885718
 30
0.0
 10
17.11333758957977
 20
-5.383760099214517
 30
0.0
 10
15.96976000650797
 20
-5.185234295933694
 30
0.0
 10
14.80668266039877
 20
-4.80653438763327
 30
0.0
 10
13.62093342408189
 20
-4.256719048709075
 30
0.0
 10
12.41229100813289
 20
-3.542949865705287
 30
0.0
 10
11.20573656932325
 20
-2.704860223693927
 30
0.0
 10
10.40185711370177
 20
-2.070320492073114
 30
0.0
 10
9.999999999999957
 20
-1.753115837450948
 30
0.0
  0
SPLINE
  5
BF
330
1F
100
AcDbEntity
  8
0
  6
Continuous
 62
     4
370
    25
100
AcDbSpline
210
0.0
220
0.0
230
1.0
 70
    24
 71
     3
 72
     8
 73
     4
 74
     0
 42
0.000000001
 43
0.00000001
 40
0.0
 40
0.0
 40
0.0
 40
0.0
 40
1.0
 40
1.0
 40
1.0
 40
1.0
 10
9.999999999999991
 20
-1.753115837450977
 30
0.0
 10
9.999999999999991
 20
-1.954134968804223
 30
0.0
 10
9.999999999999991
 20
-2.178056907233162
 30
0.0
 10
9.999999999999991
 20
-2.4208770424881
 30
0.0
  0
SPLINE
  5
C0
330
1F
100
AcDbEntity
  8
0
  6
Continuous
 62
     1
370
    25
100
AcDbSpline
210
0.0
220
0.0
230
1.0
 70
     8
 71
     3
 72
    13
 73
     9
 74
     0
 42
0.000000001
 43
0.00000001
 40
0.0
 40
0.0
 40
0.0
 40
0.0
 40
0.1687786488709954
 40
0.3381158781365562
 40
0.5070190569867492
 40
0.6760515285425668
 40
0.8452787761102096
 40
1.0
 40
1.0
 40
1.0
 40
1.0
 10
9.99999999999994
 20
-3.947852168868617
 30
0.0
 10
10.32092462726592
 20
-4.191063860065486
 30
0.0
 10
10.96383599602928
 20
-4.678292162295592
 30
0.0
 10
11.93102807093625
 20
-5.274155378939703
 30
0.0
 10
12.89580454997883
 20
-5.758167810795328
 30
0.0
 10
13.86140989240604
 20
-6.101597904409303
 30
0.0
 10
14.80095100864974
 20
-6.317252168953694
 30
0.0
 10
15.41738954119158
 20
-6.326553802255403
 30
0.0
 10
15.71180711871126
 20
-6.330996360919561
 30
0.0
  0
SPLINE
  5
C1
330
1F
100
AcDbEntity
  8
0
  6
Continuous
 62
     1
370
    25
100
AcDbSpline
210
0.0
220
0.0
230
1.0
 70
     8
 71
     3
 72
    12
 73
     8
 74
     0
 42
0.000000001
 43
0.00000001
 40
0.0
 40
0.0
 40
0.0
 40
0.0
 40
0.0905377293281034
 40
0.3181330997709743
 40
0.545468442460322
 40
0.7725263151721462
 40
1.0
 40
1.0
 40
1.0
 40
1.0
 10
30.37202996265084
 20
4.256791739348667
 30
0.0
 10
30.523656208608
 20
4.373171096101785
 30
0.0
 10
31.05644323552997
 20
4.782106970548654
 30
0.0
 10
31.97179714774666
 20
5.332683748917722
 30
0.0
 10
33.11472718222977
 20
5.877590586402962
 30
0.0
 10
34.25632123586629
 20
6.238997771378687
 30
0.0
 10
35.01854131526358
 20
6.310116240675729
 30
0.0
 10
35.39999999999998
 20
6.345708005432133
 30
0.0
  0
SPLINE
  5
C2
330
1F
100
AcDbEntity
  8
0
  6
Continuous
 62
     1
370
    25
100
AcDbSpline
210
0.0
220
0.0
230
1.0
 70
     8
 71
     3
 72
    14
 73
    10
 74
     0
 42
0.000000001
 43
0.00000001
 40
0.0
 40
0.0
 40
0.0
 40
0.0
 40
0.25
 40
0.25
 40
0.5
 40
0.5
 40
0.75
 40
0.75
 40
1.0
 40
1.0
 40
1.0
 40
1.0
 10
35.39999999999999
 20
-1.695917778564348
 30
0.0
 10
34.99339671263984
 20
-1.37544329752676
 30
0.0
 10
34.5904094356248
 20
-1.045945166944417
 30
0.0
 10
33.79171287590076
 20
-0.3687868808573032
 30
0.0
 10
33.39599797963768
 20
-0.0211407338149439
 30
0.0
 10
32.61281467979557
 20
0.6947304449666479
 30
0.0
 10
32.23388178274959
 20
1.055223480930801
 30
0.0
 10
31.50708702160886
 20
1.779679337496064
 30
0.0
 10
31.15866397291348
 20
2.143966686887429
 30
0.0
 10
30.82992703883075
 20
2.510961469259507
 30
0.0
  0
LINE
  5
C3
330
1F
100
AcDbEntity
  8
0
  6
Continuous
 62
     1
370
    25
100
AcDbLine
 10
30.95275512375332
 20
2.614026470018497
 30
0.0
 11
35.39999999999999
 21
0.0010749287238964
 31
0.0
  0
LINE
  5
C4
330
1F
100
AcDbEntity
  8
0
  6
Continuous
 62
     1
370
    25
100
AcDbLine
 10
35.39999999999999
 20
0.0010749287238964
 30
0.0
 11
35.39999999999999
 21
-1.695917778564348
 31
0.0
  0
SPLINE
  5
C5
330
1F
100
AcDbEntity
  8
0
  6
Continuous
 62
     1
370
    25
100
AcDbSpline
210
0.0
220
0.0
230
1.0
 70
     8
 71
     3
 72
    14
 73
    10
 74
     0
 42
0.000000001
 43
0.00000001
 40
0.0
 40
0.0
 40
0.0
 40
0.0
 40
0.1421108660291663
 40
0.2841253481066406
 40
0.4259628694886259
 40
0.5964647814087062
 40
0.7665386341992038
 40
0.9366124983787144
 40
1.0
 40
1.0
 40
1.0
 40
1.0
 10
31.40308316102736
 20
2.991896560003925
 30
0.0
 10
31.08499495432902
 20
3.190933485490925
 30
0.0
 10
30.44903427811842
 20
3.588872343512262
 30
0.0
 10
29.49564646481142
 20
4.087049078127127
 30
0.0
 10
28.47995715475989
 20
4.52557913781853
 30
0.0
 10
27.39879808934843
 20
4.865155540247732
 30
0.0
 10
26.25667148371314
 20
5.058325777233231
 30
0.0
 10
25.35409565055482
 20
5.112689352618062
 30
0.0
 10
24.8312302818967
 20
5.045990517867894
 30
0.0
 10
24.68926619593392
 20
5.027881001197494
 30
0.0
  0
SPLINE
  5
C6
330
1F
100
AcDbEntity
  8
0
  6
Continuous
 62
     1
370
    25
100
AcDbSpline
210
0.0
220
0.0
230
1.0
 70
    24
 71
     3
 72
     8
 73
     4
 74
     0
 42
0.000000001
 43
0.00000001
 40
0.0
 40
0.0
 40
0.0
 40
0.0
 40
0.0007770953413267
 40
0.0007770953413267
 40
0.0007770953413267
 40
0.0007770953413267
 10
31.40308316102736
 20
2.991896560003927
 30
0.0
 10
31.21207862499195
 20
2.831624724263432
 30
0.0
 10
31.02101687864173
 20
2.671304883368816
 30
0.0
 10
30.82992703882768
 20
2.510961469259127
 30
0.0
  0
LINE
  5
C7
330
1F
100
AcDbEntity
  8
0
  6
Continuous
 62
     1
370
    25
100
AcDbLine
 10
35.39999999999999
 20
-5.008898950014274
 30
0.0
 11
35.39999999999999
 21
-1.695917778564347
 31
0.0
  0
SPLINE
  5
C8
330
1F
100
AcDbEntity
  8
0
  6
Continuous
 62
     1
370
    25
100
AcDbSpline
210
0.0
220
0.0
230
1.0
 70
     8
 71
     3
 72
    23
 73
    19
 74
     0
 42
0.000000001
 43
0.00000001
 40
0.0
 40
0.0
 40
0.0
 40
0.0
 40
0.0134388308535877
 40
0.0781891660562988
 40
0.1429395055950228
 40
0.2078528129129524
 40
0.2726294927661449
 40
0.3373622503813002
 40
0.4022562963732103
 40
0.4670680546362431
 40
0.5317920152885769
 40
0.5966475638828612
 40
0.6615030934881447
 40
0.7262270524041163
 40
0.7946665541234109
 40
0.8632135891588616
 40
0.9316212331994964
 40
1.0
 40
1.0
 40
1.0
 40
1.0
 10
27.6353636847851
 20
-4.761690835481694
 30
0.0
 10
27.5563114803934
 20
-4.787110093673058
 30
0.0
 10
27.09637370726124
 20
-4.935003211862123
 30
0.0
 10
26.25669614394985
 20
-5.054581968769741
 30
0.0
 10
25.11446208225579
 20
-5.102418009981243
 30
0.0
 10
23.970197693672
 20
-4.972541998482769
 30
0.0
 10
22.82765688161124
 20
-4.68530615663307
 30
0.0
 10
21.68570063685861
 20
-4.24517557717638
 30
0.0
 10
20.54167088518157
 20
-3.66935842715352
 30
0.0
 10
19.39869034508622
 20
-2.974270871245166
 30
0.0
 10
18.25686986755706
 20
-2.182120548348996
 30
0.0
 10
17.113332400553
 20
-1.320863101513336
 30
0.0
 10
15.96979977367745
 20
-0.4169061999635099
 30
0.0
 10
14.8066566644021
 20
0.5190514019340724
 30
0.0
 10
13.62090238011152
 20
1.454967688989255
 30
0.0
 10
12.41233278431836
 20
2.35153982420697
 30
0.0
 10
11.20573936455162
 20
3.174940237124322
 30
0.0
 10
10.40185655177248
 20
3.622393863839894
 30
0.0
 10
9.999999999999963
 20
3.846073445803322
 30
0.0
  0
SPLINE
  5
C9
330
1F
100
AcDbEntity
  8
0
  6
Continuous
 62
     4
370
    25
100
AcDbSpline
210
0.0
220
0.0
230
1.0
 70
    24
 71
     3
 72
    14
 73
    10
 74
     0
 42
0.000000001
 43
0.00000001
 40
0.0
 40
0.0
 40
0.0
 40
0.0
 40
0.25
 40
0.25
 40
0.5
 40
0.5
 40
0.75
 40
0.75
 40
1.0
 40
1.0
 40
1.0
 40
1.0
 10
9.999999999999991
 20
3.846073445803305
 30
0.0
 10
9.999999999999991
 20
3.485323031086461
 30
0.0
 10
9.999999999999991
 20
3.080788777027594
 30
0.0
 10
9.999999999999991
 20
2.204332987624066
 30
0.0
 10
9.999999999999991
 20
1.732575077153331
 30
0.0
 10
9.999999999999993
 20
0.7539780228839086
 30
0.0
 10
9.999999999999991
 20
0.2474214682081049
 30
0.0
 10
9.999999999999993
 20
-0.7633289576735365
 30
0.0
 10
9.999999999999991
 20
-1.267253454797506
 30
0.0
 10
9.999999999999991
 20
-1.753115837450974
 30
0.0
  0
SPLINE
  5
CA
330
1F
100
AcDbEntity
  8
0
  6
Continuous
 62
     4
370
    25
100
AcDbSpline
210
0.0
220
0.0
230
1.0
 70
    24
 71
     3
 72
    10
 73
     6
 74
     0
 42
0.000000001
 43
0.00000001
 40
0.0
 40
0.0
 40
0.0
 40
0.0
 40
0.0817973733004996
 40
0.534473711141836
 40
1.0
 40
1.0
 40
1.0
 40
1.0
 10
9.99999999999999
 20
4.290511183231893
 30
0.0
 10
9.99999999999999
 20
4.29505272783087
 30
0.0
 10
9.999999999999991
 20
4.324727717359126
 30
0.0
 10
9.99999999999999
 20
4.200017460442981
 30
0.0
 10
9.999999999999991
 20
3.965150413658937
 30
0.0
 10
9.999999999999991
 20
3.846073445803305
 30
0.0
  0
SPLINE
  5
CB
330
1F
100
AcDbEntity
  8
0
  6
Continuous
 62
     1
370
    25
100
AcDbSpline
210
0.0
220
0.0
230
1.0
 70
    24
 71
     3
 72
     8
 73
     4
 74
     0
 42
0.000000001
 43
0.00000001
 40
0.0
 40
0.0
 40
0.0
 40
0.0
 40
1.0
 40
1.0
 40
1.0
 40
1.0
 10
32.07636926677954
 20
3.556850683017371
 30
0.0
 10
31.87368842038115
 20
3.386781259557782
 30
0.0
 10
31.64708561047595
 20
3.196638925342584
 30
0.0
 10
31.40308316102737
 20
2.991896560003926
 30
0.0
  0
SPLINE
  5
CC
330
1F
100
AcDbEntity
  8
0
  6
Continuous
 62
     1
370
    25
100
AcDbSpline
210
0.0
220
0.0
230
1.0
 70
     8
 71
     3
 72
     9
 73
     5
 74
     0
 42
0.000000001
 43
0.00000001
 40
0.0
 40
0.0
 40
0.0
 40
0.0
 40
0.8387738429995504
 40
1.0
 40
1.0
 40
1.0
 40
1.0
 10
35.39999999999999
 20
4.446074928723896
 30
0.0
 10
35.01854813560153
 20
4.441916569034836
 30
0.0
 10
34.56377493591
 20
4.436958904076913
 30
0.0
 10
34.10941231535332
 20
4.347603570522221
 30
0.0
 10
34.03615717615631
 20
4.333197153485704
 30
0.0
  0
SPLINE
  5
CD
330
1F
100
AcDbEntity
  8
0
  6
Continuous
 62
     1
370
    25
100
AcDbSpline
210
0.0
220
0.0
230
1.0
 70
     8
 71
     3
 72
     8
 73
     4
 74
     0
 42
0.000000001
 43
0.00000001
 40
0.0
 40
0.0
 40
0.0
 40
0.0
 40
1.0
 40
1.0
 40
1.0
 40
1.0
 10
35.39999999999999
 20
4.446074928723896
 30
0.0
 10
34.3041570212963
 20
4.077617353545858
 30
0.0
 10
33.19527622082769
 20
3.774886447830546
 30
0.0
 10
32.07636926678386
 20
3.556850683015486
 30
0.0
  0
SPLINE
  5
CE
330
1F
100
AcDbEntity
  8
0
  6
Continuous
 62
     4
370
    25
100
AcDbSpline
210
0.0
220
0.0
230
1.0
 70
    24
 71
     3
 72
     9
 73
     5
 74
     0
 42
0.000000001
 43
0.00000001
 40
0.0
 40
0.0
 40
0.0
 40
0.0
 40
0.5159830488014161
 40
1.0
 40
1.0
 40
1.0
 40
1.0
 10
9.999999999999991
 20
-4.001310815436398
 30
0.0
 10
9.999999999999991
 20
-4.094069295989815
 30
0.0
 10
9.999999999999991
 20
-4.273839698852638
 30
0.0
 10
9.999999999999991
 20
-4.283625049969914
 30
0.0
 10
9.999999999999991
 20
-4.288361325784107
 30
0.0
  0
LINE
  5
CF
330
1F
100
AcDbEntity
  8
0
  6
Continuous
 62
     1
370
    25
100
AcDbLine
 10
35.39999999999999
 20
4.446074928723895
 30
0.0
 11
35.39999999999999
 21
6.345708005432134
 31
0.0
  0
LINE
  5
D0
330
1F
100
AcDbEntity
  8
0
  6
Continuous
 62
     1
370
    25
100
AcDbLine
 10
35.39999999999999
 20
0.0010749287238964
 30
0.0
 11
35.39999999999999
 21
4.446074928723895
 31
0.0
  0
LINE
  5
D1
330
1F
100
AcDbEntity
  8
중심선
100
AcDbLine
 10
-43.8
 20
0.0010749287238931
 30
0.0
 11
38.39999999999998
 21
0.0010749287238965
 31
0.0
  0
CIRCLE
  5
D2
330
1F
100
AcDbEntity
  8
외형선
100
AcDbCircle
 10
0.0000000000000087
 20
0.0
 30
0.0
 40
3.000000000000004
  0
INSERT
  5
D3
330
1F
100
AcDbEntity
  8
0
  6
Continuous
 62
     7
100
AcDbBlockReference
 66
     1
  2
블럭10
 10
-16.6381869743017
 20
-52.04609937292004
 30
0.0
  0
ATTRIB
  5
D4
330
D3
100
AcDbEntity
  8
FORMAT
 62
     2
100
AcDbText
 10
-25.81948226304298
 20
-49.97073246008785
 30
0.0
 40
4.233333333333333
  1
E5253032 [ 2 FLUTE ]
 41
0.75
  7
SLDTEXTSTYLE0
 11
-25.81948226304298
 21
-52.08739912675452
 31
0.0
100
AcDbAttribute
  2
AUTOATTR0
 70
     0
 74
     1
  0
SEQEND
  5
D5
330
D3
100
AcDbEntity
  8
0
  6
Continuous
 62
     7
  0
HATCH
  5
D6
330
1F
100
AcDbEntity
  8
중심선
100
AcDbHatch
 10
0.0
 20
0.0
 30
0.0
210
0.0
220
0.0
230
1.0
  2
SOLID
 70
     1
 71
     0
 91
        1
 92
        0
 93
        4
 72
     1
 10
-10.92327766992085
 20
-35.7989250712761
 11
-14.36955291375813
 21
-35.7989250712761
 72
     1
 10
-14.36955291375813
 20
-35.7989250712761
 11
-16.49778277296215
 21
-38.3352506518487
 72
     1
 10
-16.49778277296215
 20
-38.3352506518487
 11
-13.05147444401172
 21
-38.33521122254621
 72
     1
 10
-13.05147444401172
 20
-38.33521122254621
 11
-10.92327766992085
 21
-35.7989250712761
 97
        0
 75
     0
 76
     1
 98
        1
 10
0.0
 20
0.0
  0
HATCH
  5
D7
330
1F
100
AcDbEntity
  8
중심선
100
AcDbHatch
 10
0.0
 20
0.0
 30
0.0
210
0.0
220
0.0
230
1.0
  2
SOLID
 70
     1
 71
     0
 91
        1
 92
        0
 93
        4
 72
     1
 10
-5.910513678884898
 20
-35.7989250712761
 11
-9.356788922722181
 21
-35.7989250712761
 72
     1
 10
-9.356788922722181
 20
-35.7989250712761
 11
-13.88792693107957
 21
-41.19892507127612
 72
     1
 10
-13.88792693107957
 20
-41.19892507127612
 11
-10.44165168724229
 21
-41.19892507127612
 72
     1
 10
-10.44165168724229
 20
-41.19892507127612
 11
-5.910513678884898
 21
-35.7989250712761
 97
        0
 75
     0
 76
     1
 98
        1
 10
0.0
 20
0.0
  0
HATCH
  5
D8
330
1F
100
AcDbEntity
  8
중심선
100
AcDbHatch
 10
0.0
 20
0.0
 30
0.0
210
0.0
220
0.0
230
1.0
  2
SOLID
 70
     1
 71
     0
 91
        1
 92
        0
 93
        4
 72
     1
 10
-0.8977496878490032
 20
-35.79892507127613
 11
-4.344024931686119
 21
-35.7989250712761
 72
     1
 10
-4.344024931686119
 20
-35.7989250712761
 11
-11.39246183357537
 21
-44.19892507127612
 72
     1
 10
-11.39246183357537
 20
-44.19892507127612
 11
-7.946186589738086
 21
-44.19892507127612
 72
     1
 10
-7.946186589738086
 20
-44.19892507127612
 11
-0.8977496878490028
 21
-35.79892507127613
 97
        0
 75
     0
 76
     1
 98
        1
 10
0.0
 20
0.0
  0
HATCH
  5
D9
330
1F
100
AcDbEntity
  8
중심선
100
AcDbHatch
 10
0.0
 20
0.0
 30
0.0
210
0.0
220
0.0
230
1.0
  2
SOLID
 70
     1
 71
     0
 91
        1
 92
        0
 93
        6
 72
     3
 10
3.902140743163196
 20
-39.99892507132738
 11
3.960054785062284
 21
1.540850780301639E-10
 40
0.3939339440162633
 50
17.09539180608433
 51
320.0019657685079
 73
     0
 72
     1
 10
5.585140398863792
 20
-38.58681907591441
 11
7.89044227256483
 21
-36.65249236586649
 72
     3
 10
3.902140743110349
 20
-39.99892507127625
 11
6.600054785286829
 21
-1.249000902703301E-13
 40
0.6363583540795982
 50
39.99873849337408
 51
368.4976242363724
 73
     1
 72
     1
 10
10.32747323501096
 20
-39.03892507120613
 11
2.582208049946273
 21
-39.0389250712061
 72
     1
 10
2.582208049946272
 20
-39.0389250712061
 11
2.582183005500338
 21
-40.95892507120602
 72
     1
 10
2.582183005500338
 20
-40.95892507120602
 11
7.023562774972376
 21
-40.95892507120599
 97
        0
 75
     0
 76
     1
 98
        1
 10
0.0
 20
0.0
  0
DIMENSION
  5
DA
330
1F
100
AcDbEntity
  8
치수문자_일반주서
100
AcDbDimension
  2
_D
 10
-40.80000000000001
 20
41.93589146707807
 30
0.0
 11
-2.700000000000017
 21
41.93589146707807
 31
0.0
 70
   160
  1
<>
 71
     2
 42
76.20000000000002
  3
SLDDIMSTYLE0
100
AcDbAlignedDimension
 13
35.39999999999999
 23
6.345708005432134
 33
0.0
 14
-40.80000000000002
 24
5.351074928723887
 34
0.0
100
AcDbRotatedDimension
1001
ACAD
1000
DSTYLE
1002
{
1070
   171
1070
     6
1070
   273
1070
     7
1002
}
  0
DIMENSION
  5
EE
330
1F
100
AcDbEntity
  8
치수문자_일반주서
100
AcDbDimension
  2
_D_1
 10
-53.61
 20
-6.348925071276149
 30
0.0
 11
-53.61000000000002
 21
0.0010749287238914
 31
0.0
 70
   160
  1
%%c<>
 71
     2
 42
12.69999999999999
  3
SLDDIMSTYLE1
100
AcDbAlignedDimension
 13
-39.80000000000002
 23
6.351074928723888
 33
0.0
 14
-39.80000000000002
 24
-6.348925071276101
 34
0.0
 50
90.0000000000002
100
AcDbRotatedDimension
1001
ACAD
1000
DSTYLE
1002
{
1070
   171
1070
     6
1070
   273
1070
     7
1002
}
  0
DIMENSION
  5
103
330
1F
100
AcDbEntity
  8
치수문자_일반주서
100
AcDbDimension
  2
_D_2
 10
9.999999999999991
 20
26.58232551893263
 30
0.0
 11
22.69999999999999
 21
26.58232551893263
 31
0.0
 70
   160
  1
<>
 71
     2
 42
25.4
  3
SLDDIMSTYLE1
100
AcDbAlignedDimension
 13
35.39999999999999
 23
6.345708005432134
 33
0.0
 14
9.999999999999991
 24
3.846073445803305
 34
0.0
 50
0.000000000000016
100
AcDbRotatedDimension
1001
ACAD
1000
DSTYLE
1002
{
1070
   171
1070
     6
1070
   273
1070
     7
1002
}
  0
DIMENSION
  5
118
330
1F
100
AcDbEntity
  8
치수문자_일반주서
100
AcDbDimension
  2
_D_3
 10
55.60935371504383
 20
-6.343558147984275
 30
0.0
 11
55.60935371504373
 21
23.21020800543221
 31
0.0
 70
   160
  1
%%c<>
 71
     2
 42
12.68926615341648
  3
SLDDIMSTYLE2
100
AcDbAlignedDimension
 13
35.39999999999999
 23
6.345708005432134
 33
0.0
 14
35.39999999999999
 24
-6.343558147984345
 34
0.0
 50
90.0000000000002
100
AcDbRotatedDimension
1001
ACAD
1000
DSTYLE
1002
{
1070
   171
1070
     6
1070
   273
1070
     7
1002
}
  0
INSERT
  5
132
330
1F
100
AcDbEntity
  8
외형선
100
AcDbBlockReference
  2
SW_DOWELSYMBOL_0
 10
0.0000000000000087
 20
0.0
 30
0.0
  0
LINE
  5
2C1
330
1F
100
AcDbEntity
  8
0
  6
Continuous
 62
     4
370
    15
100
AcDbLine
 10
-23.76612499999999
 20
4.827074928723881
 30
0.0
 11
-12.59012500000011
 21
4.827074928723881
 31
0.0
  0
LINE
  5
2C2
330
1F
100
AcDbEntity
  8
0
  6
Continuous
 62
     4
370
    15
100
AcDbLine
 10
-23.76612499999999
 20
4.827074928723881
 30
0.0
 11
-25.29012499999999
 21
6.351074928723882
 31
0.0
  0
LINE
  5
2C3
330
1F
100
AcDbEntity
  8
0
  6
Continuous
 62
     4
370
    15
100
AcDbLine
 10
-12.590125
 20
4.827074928723881
 30
0.0
 11
-11.066125
 21
6.351074928723882
 31
0.0
  0
LINE
  5
2C4
330
1F
100
AcDbEntity
  8
0
  6
Continuous
 62
     4
370
    25
100
AcDbLine
 10
-25.290125
 20
6.351074928723891
 30
0.0
 11
-39.80000000000002
 21
6.35107492872389
 31
0.0
  0
ENDSEC
  0
SECTION
  2
OBJECTS
  0
DICTIONARY
  5
C
330
0
100
AcDbDictionary
281
     1
  3
ACAD_GROUP
350
D
  3
ACAD_IMAGE_VARS
350
156
  3
ACAD_LAYOUT
350
1A
  3
ACAD_MLINESTYLE
350
17
  3
ACAD_PLOTSETTINGS
350
19
  3
ACAD_PLOTSTYLENAME
350
E
  3
ACAD_SCALELIST
350
47
  3
APPDATA
350
154
  3
DWGPROPS
350
2CA
  0
DICTIONARY
  5
211
330
2
100
AcDbDictionary
280
     1
281
     1
  3
ACAD_LAYERSTATES
360
212
  0
DICTIONARY
  5
2C5
330
1F
100
AcDbDictionary
280
     1
281
     1
  3
ACAD_SORTENTS
360
2C6
  3
DIM_BOUNDING_BOXES_V1
360
2C7
  0
DICTIONARY
  5
D
102
{ACAD_REACTORS
330
C
102
}
330
C
100
AcDbDictionary
281
     1
  0
RASTERVARIABLES
  5
156
102
{ACAD_REACTORS
330
C
102
}
330
C
100
AcDbRasterVariables
 90
        0
 70
     1
 71
     1
 72
     1
  0
DICTIONARY
  5
1A
102
{ACAD_REACTORS
330
C
102
}
330
C
100
AcDbDictionary
281
     1
  3
Layout1
350
1E
  3
Layout2
350
26
  3
Model
350
22
  0
DICTIONARY
  5
17
102
{ACAD_REACTORS
330
C
102
}
330
C
100
AcDbDictionary
281
     1
  3
Standard
350
18
  0
DICTIONARY
  5
19
102
{ACAD_REACTORS
330
C
102
}
330
C
100
AcDbDictionary
281
     1
  0
ACDBDICTIONARYWDFLT
  5
E
102
{ACAD_REACTORS
330
C
102
}
330
C
100
AcDbDictionary
281
     1
  3
Normal
350
F
100
AcDbDictionaryWithDefault
340
F
  0
DICTIONARY
  5
47
102
{ACAD_REACTORS
330
C
102
}
330
C
100
AcDbDictionary
281
     1
  3
A0
350
48
  3
A1
350
49
  3
A2
350
4A
  3
A3
350
4B
  3
A4
350
4C
  3
A5
350
4D
  3
A6
350
4E
  3
A7
350
4F
  3
A8
350
50
  3
A9
350
51
  3
B0
350
52
  3
B1
350
53
  3
B2
350
54
  3
B3
350
55
  3
B4
350
56
  3
B5
350
57
  3
B6
350
58
  3
B7
350
59
  3
B8
350
5A
  3
B9
350
5B
  3
C0
350
5C
  3
C1
350
5D
  3
C2
350
5E
  3
C3
350
5F
  3
C4
350
60
  3
C5
350
61
  3
C6
350
62
  3
C7
350
63
  3
C8
350
64
  3
C9
350
65
  3
D0
350
66
  3
D1
350
67
  3
D2
350
68
  0
DICTIONARY
  5
154
102
{ACAD_REACTORS
330
C
102
}
330
C
100
AcDbDictionary
281
     1
  0
XRECORD
  5
2CA
102
{ACAD_REACTORS
330
C
102
}
330
C
100
AcDbXrecord
280
     1
  1
DWGPROPS COOKIE
  2

  3

  4

  6

  7

  8
12016016
  9

300
=
301
=
302
=
303
=
304
=
305
=
306
=
307
=
308
=
309
=
 40
0.0
 41
2458263.243864815
 42
2459730.971852836
  1

 90
        0
  0
DICTIONARY
  5
212
102
{ACAD_REACTORS
330
211
102
}
330
211
100
AcDbDictionary
281
     1
  0
SORTENTSTABLE
  5
2C6
102
{ACAD_REACTORS
330
2C5
102
}
330
2C5
100
AcDbSortentsTable
330
1F
331
9A
  5
9B
331
9B
  5
9C
331
9C
  5
9D
331
9D
  5
9E
331
9E
  5
9F
331
9F
  5
A0
331
A0
  5
A1
331
A1
  5
A2
331
A2
  5
A3
331
A3
  5
A4
331
A4
  5
A5
331
A5
  5
A6
331
A6
  5
A7
331
A7
  5
A8
331
A8
  5
A9
331
A9
  5
AA
331
AA
  5
AB
331
AB
  5
AC
331
AC
  5
AD
331
AD
  5
AE
331
AE
  5
AF
331
AF
  5
B0
331
B0
  5
B1
331
B1
  5
B2
331
B2
  5
B3
331
B3
  5
B4
331
B4
  5
B5
331
B5
  5
B6
331
B6
  5
B7
331
B7
  5
B8
331
B8
  5
B9
331
B9
  5
BA
331
BA
  5
BB
331
BB
  5
BC
331
BC
  5
BD
331
BD
  5
BE
331
BE
  5
BF
331
BF
  5
C0
331
C0
  5
C1
331
C1
  5
C2
331
C2
  5
C3
331
C3
  5
C4
331
C4
  5
C5
331
C5
  5
C6
331
C6
  5
C7
331
C7
  5
C8
331
C8
  5
C9
331
C9
  5
CA
331
CA
  5
CB
331
CB
  5
CC
331
CC
  5
CD
331
CD
  5
CE
331
CE
  5
CF
331
CF
  5
D0
331
D0
  5
D1
331
D1
  5
D2
331
D2
  5
D3
331
D3
  5
D6
331
D6
  5
D7
331
D7
  5
D8
331
D8
  5
D9
331
D9
  5
DA
331
DA
  5
EE
331
EE
  5
103
331
103
  5
118
331
118
  5
132
331
132
  5
245
331
0
  5
246
331
0
  5
247
331
0
  5
248
331
0
  5
249
331
0
  5
24A
331
0
  5
24B
331
0
  5
24C
331
0
  5
24D
331
0
  5
24E
331
0
  5
24F
331
0
  5
250
331
0
  5
251
331
0
  5
252
331
0
  5
253
331
0
  5
254
331
0
  5
255
331
0
  5
256
331
0
  5
257
331
0
  5
258
331
0
  5
259
331
0
  5
25A
331
0
  5
25B
331
0
  5
25C
331
0
  5
25D
331
0
  5
25E
331
0
  5
25F
331
0
  5
260
331
0
  5
261
331
0
  5
262
331
0
  5
263
331
0
  5
264
331
0
  5
265
331
0
  5
266
331
0
  5
267
331
0
  5
268
331
0
  5
269
331
0
  5
26A
331
0
  5
26B
331
0
  5
26C
331
0
  5
26D
331
0
  5
26E
331
0
  5
26F
331
0
  5
270
331
0
  5
271
331
0
  5
272
331
0
  5
273
331
0
  5
274
331
0
  5
275
331
0
  5
276
331
0
  5
277
331
0
  5
278
331
0
  5
279
331
0
  5
27A
331
0
  5
27B
331
0
  5
27C
331
0
  5
27D
331
0
  5
27E
331
0
  5
27F
331
0
  5
280
331
0
  5
281
331
0
  5
282
331
0
  5
283
331
0
  5
284
331
0
  5
285
331
0
  5
286
331
0
  5
287
331
0
  5
288
331
0
  5
289
331
0
  5
28A
331
0
  5
28B
331
0
  5
28C
331
0
  5
28D
331
0
  5
28E
331
0
  5
28F
331
0
  5
290
331
0
  5
2C1
331
2C1
  5
2C2
331
2C2
  5
2C3
331
2C3
  5
2C4
331
2C4
  5
9A
  0
DICTIONARY
  5
2C7
102
{ACAD_REACTORS
330
2C5
102
}
330
2C5
100
AcDbDictionary
281
     1
  0
LAYOUT
  5
1E
102
{ACAD_REACTORS
330
1A
102
}
330
1A
100
AcDbPlotSettings
  1

  2
none_device
  4

  6

 40
0.0
 41
0.0
 42
0.0
 43
0.0
 44
0.0
 45
0.0
 46
0.0
 47
0.0
 48
0.0
 49
0.0
140
0.0
141
0.0
142
1.0
143
1.0
 70
   688
 72
     1
 73
     0
 74
     5
  7

 75
    16
147
1.0
148
0.0
149
0.0
100
AcDbLayout
  1
Layout1
 70
     1
 71
     1
 10
0.0
 20
0.0
 11
420.0
 21
297.0
 12
0.0
 22
0.0
 32
0.0
 14
1.000000000000000E+20
 24
1.000000000000000E+20
 34
1.000000000000000E+20
 15
-1.000000000000000E+20
 25
-1.000000000000000E+20
 35
-1.000000000000000E+20
146
0.0
 13
0.0
 23
0.0
 33
0.0
 16
1.0
 26
0.0
 36
0.0
 17
0.0
 27
1.0
 37
0.0
 76
     0
330
1B
  0
LAYOUT
  5
26
102
{ACAD_REACTORS
330
1A
102
}
330
1A
100
AcDbPlotSettings
  1

  2
none_device
  4

  6

 40
0.0
 41
0.0
 42
0.0
 43
0.0
 44
0.0
 45
0.0
 46
0.0
 47
0.0
 48
0.0
 49
0.0
140
0.0
141
0.0
142
1.0
143
1.0
 70
   688
 72
     1
 73
     0
 74
     5
  7

 75
    16
147
1.0
148
0.0
149
0.0
100
AcDbLayout
  1
Layout2
 70
     1
 71
     2
 10
0.0
 20
0.0
 11
0.0
 21
0.0
 12
0.0
 22
0.0
 32
0.0
 14
0.0
 24
0.0
 34
0.0
 15
0.0
 25
0.0
 35
0.0
146
0.0
 13
0.0
 23
0.0
 33
0.0
 16
1.0
 26
0.0
 36
0.0
 17
0.0
 27
1.0
 37
0.0
 76
     0
330
23
  0
LAYOUT
  5
22
102
{ACAD_REACTORS
330
1A
102
}
330
1A
100
AcDbPlotSettings
  1

  2
none_device
  4
ANSI_A_(11.00_x_8.50_Inches)
  6

 40
6.35
 41
19.05
 42
6.35000508
 43
19.05000254
 44
279.4
 45
215.9
 46
141.4017210063067
 47
86.81919848395582
 48
0.0
 49
0.0
140
0.0
141
0.0
142
0.0813487781070241
143
1.0
 70
  1696
 72
     0
 73
     0
 74
     0
  7

 75
     0
147
0.0235690232323232
148
0.0
149
0.0
100
AcDbLayout
  1
Model
 70
     1
 71
     0
 10
0.0
 20
0.0
 11
420.0
 21
297.0
 12
0.0
 22
0.0
 32
0.0
 14
-57.98500000000006
 24
-49.97073246008785
 34
0.0
 15
56.15968704837716
 25
46.31089146707806
 35
0.0
146
0.0
 13
0.0
 23
0.0
 33
0.0
 16
1.0
 26
0.0
 36
0.0
 17
0.0
 27
1.0
 37
0.0
 76
     0
330
1F
331
29
  0
MLINESTYLE
  5
18
102
{ACAD_REACTORS
330
17
102
}
330
17
100
AcDbMlineStyle
  2
Standard
 70
     0
  3

 62
   256
 51
90.0
 52
90.0
 71
     2
 49
0.5
 62
   256
  6
BYLAYER
 49
-0.5
 62
   256
  6
BYLAYER
  0
ACDBPLACEHOLDER
  5
F
102
{ACAD_REACTORS
330
E
102
}
330
E
  0
SCALE
  5
48
102
{ACAD_REACTORS
330
47
102
}
330
47
100
AcDbScale
 70
     0
300
1:1
140
1.0
141
1.0
290
     1
  0
SCALE
  5
49
102
{ACAD_REACTORS
330
47
102
}
330
47
100
AcDbScale
 70
     0
300
1:2
140
1.0
141
2.0
290
     0
  0
SCALE
  5
4A
102
{ACAD_REACTORS
330
47
102
}
330
47
100
AcDbScale
 70
     0
300
1:4
140
1.0
141
4.0
290
     0
  0
SCALE
  5
4B
102
{ACAD_REACTORS
330
47
102
}
330
47
100
AcDbScale
 70
     0
300
1:5
140
1.0
141
5.0
290
     0
  0
SCALE
  5
4C
102
{ACAD_REACTORS
330
47
102
}
330
47
100
AcDbScale
 70
     0
300
1:8
140
1.0
141
8.0
290
     0
  0
SCALE
  5
4D
102
{ACAD_REACTORS
330
47
102
}
330
47
100
AcDbScale
 70
     0
300
1:10
140
1.0
141
10.0
290
     0
  0
SCALE
  5
4E
102
{ACAD_REACTORS
330
47
102
}
330
47
100
AcDbScale
 70
     0
300
1:16
140
1.0
141
16.0
290
     0
  0
SCALE
  5
4F
102
{ACAD_REACTORS
330
47
102
}
330
47
100
AcDbScale
 70
     0
300
1:20
140
1.0
141
20.0
290
     0
  0
SCALE
  5
50
102
{ACAD_REACTORS
330
47
102
}
330
47
100
AcDbScale
 70
     0
300
1:30
140
1.0
141
30.0
290
     0
  0
SCALE
  5
51
102
{ACAD_REACTORS
330
47
102
}
330
47
100
AcDbScale
 70
     0
300
1:40
140
1.0
141
40.0
290
     0
  0
SCALE
  5
52
102
{ACAD_REACTORS
330
47
102
}
330
47
100
AcDbScale
 70
     0
300
1:50
140
1.0
141
50.0
290
     0
  0
SCALE
  5
53
102
{ACAD_REACTORS
330
47
102
}
330
47
100
AcDbScale
 70
     0
300
1:100
140
1.0
141
100.0
290
     0
  0
SCALE
  5
54
102
{ACAD_REACTORS
330
47
102
}
330
47
100
AcDbScale
 70
     0
300
2:1
140
2.0
141
1.0
290
     0
  0
SCALE
  5
55
102
{ACAD_REACTORS
330
47
102
}
330
47
100
AcDbScale
 70
     0
300
4:1
140
4.0
141
1.0
290
     0
  0
SCALE
  5
56
102
{ACAD_REACTORS
330
47
102
}
330
47
100
AcDbScale
 70
     0
300
8:1
140
8.0
141
1.0
290
     0
  0
SCALE
  5
57
102
{ACAD_REACTORS
330
47
102
}
330
47
100
AcDbScale
 70
     0
300
10:1
140
10.0
141
1.0
290
     0
  0
SCALE
  5
58
102
{ACAD_REACTORS
330
47
102
}
330
47
100
AcDbScale
 70
     0
300
100:1
140
100.0
141
1.0
290
     0
  0
SCALE
  5
59
102
{ACAD_REACTORS
330
47
102
}
330
47
100
AcDbScale
 70
     0
300
1/128" = 1'-0"
140
0.0078125
141
12.0
290
     0
  0
SCALE
  5
5A
102
{ACAD_REACTORS
330
47
102
}
330
47
100
AcDbScale
 70
     0
300
1/64" = 1'-0"
140
0.015625
141
12.0
290
     0
  0
SCALE
  5
5B
102
{ACAD_REACTORS
330
47
102
}
330
47
100
AcDbScale
 70
     0
300
1/32" = 1'-0"
140
0.03125
141
12.0
290
     0
  0
SCALE
  5
5C
102
{ACAD_REACTORS
330
47
102
}
330
47
100
AcDbScale
 70
     0
300
1/16" = 1'-0"
140
0.0625
141
12.0
290
     0
  0
SCALE
  5
5D
102
{ACAD_REACTORS
330
47
102
}
330
47
100
AcDbScale
 70
     0
300
3/32" = 1'-0"
140
0.09375
141
12.0
290
     0
  0
SCALE
  5
5E
102
{ACAD_REACTORS
330
47
102
}
330
47
100
AcDbScale
 70
     0
300
1/8" = 1'-0"
140
0.125
141
12.0
290
     0
  0
SCALE
  5
5F
102
{ACAD_REACTORS
330
47
102
}
330
47
100
AcDbScale
 70
     0
300
3/16" = 1'-0"
140
0.1875
141
12.0
290
     0
  0
SCALE
  5
60
102
{ACAD_REACTORS
330
47
102
}
330
47
100
AcDbScale
 70
     0
300
1/4" = 1'-0"
140
0.25
141
12.0
290
     0
  0
SCALE
  5
61
102
{ACAD_REACTORS
330
47
102
}
330
47
100
AcDbScale
 70
     0
300
3/8" = 1'-0"
140
0.375
141
12.0
290
     0
  0
SCALE
  5
62
102
{ACAD_REACTORS
330
47
102
}
330
47
100
AcDbScale
 70
     0
300
1/2" = 1'-0"
140
0.5
141
12.0
290
     0
  0
SCALE
  5
63
102
{ACAD_REACTORS
330
47
102
}
330
47
100
AcDbScale
 70
     0
300
3/4" = 1'-0"
140
0.75
141
12.0
290
     0
  0
SCALE
  5
64
102
{ACAD_REACTORS
330
47
102
}
330
47
100
AcDbScale
 70
     0
300
1" = 1'-0"
140
1.0
141
12.0
290
     0
  0
SCALE
  5
65
102
{ACAD_REACTORS
330
47
102
}
330
47
100
AcDbScale
 70
     0
300
1-1/2" = 1'-0"
140
1.5
141
12.0
290
     0
  0
SCALE
  5
66
102
{ACAD_REACTORS
330
47
102
}
330
47
100
AcDbScale
 70
     0
300
3" = 1'-0"
140
3.0
141
12.0
290
     0
  0
SCALE
  5
67
102
{ACAD_REACTORS
330
47
102
}
330
47
100
AcDbScale
 70
     0
300
6" = 1'-0"
140
6.0
141
12.0
290
     0
  0
SCALE
  5
68
102
{ACAD_REACTORS
330
47
102
}
330
47
100
AcDbScale
 70
     0
300
1'-0" = 1'-0"
140
12.0
141
12.0
290
     0
  0
ENDSEC
  0
EOF
