  0
SECTION
  2
HEADER
  9
$ACADVER
  1
AC1015
  9
$ACADMAINTVER
 70
     6
  9
$DWGCODEPAGE
  3
ANSI_949
  9
$INSBASE
 10
0.0
 20
0.0
 30
0.0
  9
$EXTMIN
 10
-70.68500000000004
 20
-49.97073246008785
 30
0.0
  9
$EXTMAX
 10
68.85968704837724
 20
49.4832080054322
 30
0.0
  9
$LIMMIN
 10
0.0
 20
0.0
  9
$LIMMAX
 10
420.0
 20
297.0
  9
$ORTHOMODE
 70
     1
  9
$REGENMODE
 70
     1
  9
$FILLMODE
 70
     1
  9
$QTEXTMODE
 70
     0
  9
$MIRRTEXT
 70
     1
  9
$LTSCALE
 40
1.0
  9
$ATTMODE
 70
     1
  9
$TEXTSIZE
 40
3.5
  9
$TRACEWID
 40
1.0
  9
$TEXTSTYLE
  7
Standard
  9
$CLAYER
  8
0
  9
$CELTYPE
  6
ByLayer
  9
$CECOLOR
 62
   256
  9
$CELTSCALE
 40
1.0
  9
$DISPSILH
 70
     0
  9
$DIMSCALE
 40
1.0
  9
$DIMASZ
 40
3.302
  9
$DIMEXO
 40
1.0
  9
$DIMDLI
 40
3.75
  9
$DIMRND
 40
0.0
  9
$DIMDLE
 40
0.0
  9
$DIMEXE
 40
1.0
  9
$DIMTP
 40
0.0
  9
$DIMTM
 40
0.0
  9
$DIMTXT
 40
3.5
  9
$DIMCEN
 40
2.5
  9
$DIMTSZ
 40
0.0
  9
$DIMTOL
 70
     0
  9
$DIMLIM
 70
     0
  9
$DIMTIH
 70
     1
  9
$DIMTOH
 70
     1
  9
$DIMSE1
 70
     0
  9
$DIMSE2
 70
     0
  9
$DIMTAD
 70
     1
  9
$DIMZIN
 70
     0
  9
$DIMBLK
  1

  9
$DIMASO
 70
     1
  9
$DIMSHO
 70
     1
  9
$DIMPOST
  1

  9
$DIMAPOST
  1

  9
$DIMALT
 70
     0
  9
$DIMALTD
 70
     3
  9
$DIMALTF
 40
0.0393700787401575
  9
$DIMLFAC
 40
1.0
  9
$DIMTOFL
 70
     1
  9
$DIMTVP
 40
0.0
  9
$DIMTIX
 70
     0
  9
$DIMSOXD
 70
     0
  9
$DIMSAH
 70
     0
  9
$DIMBLK1
  1

  9
$DIMBLK2
  1

  9
$DIMSTYLE
  2
ISO-25
  9
$DIMCLRD
 70
     0
  9
$DIMCLRE
 70
     0
  9
$DIMCLRT
 70
     0
  9
$DIMTFAC
 40
1.0
  9
$DIMGAP
 40
1.524
  9
$DIMJUST
 70
     0
  9
$DIMSD1
 70
     0
  9
$DIMSD2
 70
     0
  9
$DIMTOLJ
 70
     0
  9
$DIMTZIN
 70
     0
  9
$DIMALTZ
 70
     0
  9
$DIMALTTZ
 70
     0
  9
$DIMUPT
 70
     0
  9
$DIMDEC
 70
     2
  9
$DIMTDEC
 70
     2
  9
$DIMALTU
 70
     2
  9
$DIMALTTD
 70
     3
  9
$DIMTXSTY
  7
Standard
  9
$DIMAUNIT
 70
     0
  9
$DIMADEC
 70
     2
  9
$DIMALTRND
 40
0.0
  9
$DIMAZIN
 70
     0
  9
$DIMDSEP
 70
    44
  9
$DIMATFIT
 70
     3
  9
$DIMFRAC
 70
     0
  9
$DIMLDRBLK
  1

  9
$DIMLUNIT
 70
     2
  9
$DIMLWD
 70
    -2
  9
$DIMLWE
 70
    -2
  9
$DIMTMOVE
 70
     0
  9
$LUNITS
 70
     2
  9
$LUPREC
 70
     2
  9
$SKETCHINC
 40
1.0
  9
$FILLETRAD
 40
10.0
  9
$AUNITS
 70
     0
  9
$AUPREC
 70
     2
  9
$MENU
  1
.
  9
$ELEVATION
 40
0.0
  9
$PELEVATION
 40
0.0
  9
$THICKNESS
 40
0.0
  9
$LIMCHECK
 70
     0
  9
$CHAMFERA
 40
0.0
  9
$CHAMFERB
 40
0.0
  9
$CHAMFERC
 40
0.0
  9
$CHAMFERD
 40
0.0
  9
$SKPOLY
 70
     0
  9
$TDCREATE
 40
2458263.619242905
  9
$TDUCREATE
 40
2458263.244242905
  9
$TDUPDATE
 40
2459731.347548356
  9
$TDUUPDATE
 40
2459730.972548356
  9
$TDINDWG
 40
0.0004398032
  9
$TDUSRTIMER
 40
0.0001351736
  9
$USRTIMER
 70
     1
  9
$ANGBASE
 50
0.0
  9
$ANGDIR
 70
     0
  9
$PDMODE
 70
     0
  9
$PDSIZE
 40
-1.0
  9
$PLINEWID
 40
0.0
  9
$SPLFRAME
 70
     0
  9
$SPLINETYPE
 70
     6
  9
$SPLINESEGS
 70
     8
  9
$HANDSEED
  5
2CD
  9
$SURFTAB1
 70
     6
  9
$SURFTAB2
 70
     6
  9
$SURFTYPE
 70
     6
  9
$SURFU
 70
     6
  9
$SURFV
 70
     6
  9
$UCSBASE
  2

  9
$UCSNAME
  2

  9
$UCSORG
 10
0.0
 20
0.0
 30
0.0
  9
$UCSXDIR
 10
1.0
 20
0.0
 30
0.0
  9
$UCSYDIR
 10
0.0
 20
1.0
 30
0.0
  9
$UCSORTHOREF
  2

  9
$UCSORTHOVIEW
 70
     0
  9
$UCSORGTOP
 10
0.0
 20
0.0
 30
0.0
  9
$UCSORGBOTTOM
 10
0.0
 20
0.0
 30
0.0
  9
$UCSORGLEFT
 10
0.0
 20
0.0
 30
0.0
  9
$UCSORGRIGHT
 10
0.0
 20
0.0
 30
0.0
  9
$UCSORGFRONT
 10
0.0
 20
0.0
 30
0.0
  9
$UCSORGBACK
 10
0.0
 20
0.0
 30
0.0
  9
$PUCSBASE
  2

  9
$PUCSNAME
  2

  9
$PUCSORG
 10
0.0
 20
0.0
 30
0.0
  9
$PUCSXDIR
 10
1.0
 20
0.0
 30
0.0
  9
$PUCSYDIR
 10
0.0
 20
1.0
 30
0.0
  9
$PUCSORTHOREF
  2

  9
$PUCSORTHOVIEW
 70
     0
  9
$PUCSORGTOP
 10
0.0
 20
0.0
 30
0.0
  9
$PUCSORGBOTTOM
 10
0.0
 20
0.0
 30
0.0
  9
$PUCSORGLEFT
 10
0.0
 20
0.0
 30
0.0
  9
$PUCSORGRIGHT
 10
0.0
 20
0.0
 30
0.0
  9
$PUCSORGFRONT
 10
0.0
 20
0.0
 30
0.0
  9
$PUCSORGBACK
 10
0.0
 20
0.0
 30
0.0
  9
$USERI1
 70
     0
  9
$USERI2
 70
     0
  9
$USERI3
 70
     0
  9
$USERI4
 70
     0
  9
$USERI5
 70
     0
  9
$USERR1
 40
0.0
  9
$USERR2
 40
0.0
  9
$USERR3
 40
0.0
  9
$USERR4
 40
0.0
  9
$USERR5
 40
0.0
  9
$WORLDVIEW
 70
     1
  9
$SHADEDGE
 70
     3
  9
$SHADEDIF
 70
    70
  9
$TILEMODE
 70
     1
  9
$MAXACTVP
 70
    64
  9
$PINSBASE
 10
0.0
 20
0.0
 30
0.0
  9
$PLIMCHECK
 70
     0
  9
$PEXTMIN
 10
1.000000000000000E+20
 20
1.000000000000000E+20
 30
1.000000000000000E+20
  9
$PEXTMAX
 10
-1.000000000000000E+20
 20
-1.000000000000000E+20
 30
-1.000000000000000E+20
  9
$PLIMMIN
 10
0.0
 20
0.0
  9
$PLIMMAX
 10
0.0
 20
0.0
  9
$UNITMODE
 70
     0
  9
$VISRETAIN
 70
     1
  9
$PLINEGEN
 70
     0
  9
$PSLTSCALE
 70
     1
  9
$TREEDEPTH
 70
  3020
  9
$CMLSTYLE
  2
Standard
  9
$CMLJUST
 70
     0
  9
$CMLSCALE
 40
20.0
  9
$PROXYGRAPHICS
 70
     1
  9
$MEASUREMENT
 70
     1
  9
$CELWEIGHT
370
    -1
  9
$ENDCAPS
280
     0
  9
$JOINSTYLE
280
     0
  9
$LWDISPLAY
290
     1
  9
$INSUNITS
 70
     4
  9
$HYPERLINKBASE
  1

  9
$STYLESHEET
  1

  9
$XEDIT
290
     1
  9
$CEPSNTYPE
380
     0
  9
$PSTYLEMODE
290
     1
  9
$FINGERPRINTGUID
  2
{3C92511A-2EA6-494C-A598-9DFA0FC93CEA}
  9
$VERSIONGUID
  2
{FAEB1C32-E019-11D5-929B-00C0DF256EC4}
  9
$EXTNAMES
290
     1
  9
$PSVPSCALE
 40
0.0
  9
$OLESTARTUP
290
     0
  0
ENDSEC
  0
SECTION
  2
CLASSES
  0
CLASS
  1
ACDBDICTIONARYWDFLT
  2
AcDbDictionaryWithDefault
  3
ObjectDBX Classes
 90
        0
280
     0
281
     0
  0
CLASS
  1
VISUALSTYLE
  2
AcDbVisualStyle
  3
ObjectDBX Classes
 90
     4095
280
     0
281
     0
  0
CLASS
  1
MATERIAL
  2
AcDbMaterial
  3
ObjectDBX Classes
 90
     1153
280
     0
281
     0
  0
CLASS
  1
SCALE
  2
AcDbScale
  3
ObjectDBX Classes
 90
     1153
280
     0
281
     0
  0
CLASS
  1
TABLESTYLE
  2
AcDbTableStyle
  3
ObjectDBX Classes
 90
     4095
280
     0
281
     0
  0
CLASS
  1
MLEADERSTYLE
  2
AcDbMLeaderStyle
  3
ACDB_MLEADERSTYLE_CLASS
 90
     4095
280
     0
281
     0
  0
CLASS
  1
SUN
  2
AcDbSun
  3
SCENEOE
 90
     1153
280
     0
281
     0
  0
CLASS
  1
ACDBPLACEHOLDER
  2
AcDbPlaceHolder
  3
ObjectDBX Classes
 90
        0
280
     0
281
     0
  0
CLASS
  1
LAYOUT
  2
AcDbLayout
  3
ObjectDBX Classes
 90
        0
280
     0
281
     0
  0
CLASS
  1
RASTERVARIABLES
  2
AcDbRasterVariables
  3
ISM
 90
        0
280
     0
281
     0
  0
CLASS
  1
SORTENTSTABLE
  2
AcDbSortentsTable
  3
ObjectDBX Classes
 90
        0
280
     0
281
     0
  0
ENDSEC
  0
SECTION
  2
TABLES
  0
TABLE
  2
VPORT
  5
8
330
0
100
AcDbSymbolTable
 70
     1
  0
VPORT
  5
29
330
8
100
AcDbSymbolTableRecord
100
AcDbViewportTableRecord
  2
*Active
 70
     0
 10
0.0
 20
0.0
 11
1.0
 21
1.0
 12
10.82099394799104
 22
25.93344932020094
 13
0.0
 23
0.0
 14
10.0
 24
10.0
 15
10.0
 25
10.0
 16
0.0
 26
0.0
 36
1.0
 17
0.0
 27
0.0
 37
0.0
 40
365.6764455737979
 41
1.531481481481481
 42
50.0
 43
0.0
 44
0.0
 50
0.0
 51
0.0
 71
    16
 72
  2000
 73
     1
 74
     3
 75
     0
 76
     0
 77
     0
 78
     0
281
     0
 65
     1
110
0.0
120
0.0
130
0.0
111
1.0
121
0.0
131
0.0
112
0.0
122
1.0
132
0.0
 79
     0
146
0.0
  0
ENDTAB
  0
TABLE
  2
LTYPE
  5
5
330
0
100
AcDbSymbolTable
 70
     6
  0
LTYPE
  5
14
330
5
100
AcDbSymbolTableRecord
100
AcDbLinetypeTableRecord
  2
ByBlock
 70
     0
  3

 72
    65
 73
     0
 40
0.0
  0
LTYPE
  5
15
330
5
100
AcDbSymbolTableRecord
100
AcDbLinetypeTableRecord
  2
ByLayer
 70
     0
  3

 72
    65
 73
     0
 40
0.0
  0
LTYPE
  5
16
330
5
100
AcDbSymbolTableRecord
100
AcDbLinetypeTableRecord
  2
Continuous
 70
     0
  3
Solid line
 72
    65
 73
     0
 40
0.0
  0
LTYPE
  5
6E
330
5
100
AcDbSymbolTableRecord
100
AcDbLinetypeTableRecord
  2
HIDDEN
 70
     0
  3
Hidden __ __ __ __ __ __ __ __ __ __ __ __ __ __
 72
    65
 73
     2
 40
1.905
 49
1.27
 74
     0
 49
-0.635
 74
     0
  0
LTYPE
  5
6F
330
5
100
AcDbSymbolTableRecord
100
AcDbLinetypeTableRecord
  2
PHANTOM
 70
     0
  3
Phantom ______  __  __  ______  __  __  ______
 72
    65
 73
     6
 40
12.7
 49
6.35
 74
     0
 49
-1.27
 74
     0
 49
1.27
 74
     0
 49
-1.27
 74
     0
 49
1.27
 74
     0
 49
-1.27
 74
     0
  0
LTYPE
  5
70
330
5
100
AcDbSymbolTableRecord
100
AcDbLinetypeTableRecord
  2
CENTER
 70
     0
  3
Center ____ _ ____ _ ____ _ ____ _ ____ _ ____
 72
    65
 73
     4
 40
10.16
 49
6.35
 74
     0
 49
-1.27
 74
     0
 49
1.27
 74
     0
 49
-1.27
 74
     0
  0
LTYPE
  5
71
330
5
100
AcDbSymbolTableRecord
100
AcDbLinetypeTableRecord
  2
CENTERX2
 70
     0
  3
Center (2x) ________  __  ________  __  _____
 72
    65
 73
     4
 40
20.32
 49
12.7
 74
     0
 49
-2.54
 74
     0
 49
2.54
 74
     0
 49
-2.54
 74
     0
  0
LTYPE
  5
72
330
5
100
AcDbSymbolTableRecord
100
AcDbLinetypeTableRecord
  2
DOT2
 70
     0
  3
Dot (.5x) ........................................
 72
    65
 73
     2
 40
0.635
 49
0.0
 74
     0
 49
-0.635
 74
     0
  0
ENDTAB
  0
TABLE
  2
LAYER
  5
2
102
{ACAD_XDICTIONARY
360
212
102
}
330
0
100
AcDbSymbolTable
 70
    17
  0
LAYER
  5
10
330
2
100
AcDbSymbolTableRecord
100
AcDbLayerTableRecord
  2
0
 70
     0
 62
     7
  6
Continuous
370
    -3
390
F
  0
LAYER
  5
73
330
2
100
AcDbSymbolTableRecord
100
AcDbLayerTableRecord
  2
FORMAT
 70
     0
 62
     2
  6
Continuous
370
    -3
390
F
  0
LAYER
  5
74
330
2
100
AcDbSymbolTableRecord
100
AcDbLayerTableRecord
  2
외형선
 70
     0
 62
   100
  6
Continuous
370
    35
390
F
  0
LAYER
  5
75
330
2
100
AcDbSymbolTableRecord
100
AcDbLayerTableRecord
  2
숨은선
 70
     0
 62
     2
  6
HIDDEN
370
    25
390
F
  0
LAYER
  5
76
330
2
100
AcDbSymbolTableRecord
100
AcDbLayerTableRecord
  2
중심선
 70
     0
 62
     1
  6
CENTERX2
370
    -3
390
F
  0
LAYER
  5
77
330
2
100
AcDbSymbolTableRecord
100
AcDbLayerTableRecord
  2
파단선
 70
     0
 62
     4
  6
Continuous
370
    -3
390
F
  0
LAYER
  5
78
330
2
100
AcDbSymbolTableRecord
100
AcDbLayerTableRecord
  2
해칭선
 70
     0
 62
     4
  6
Continuous
370
    -3
390
F
  0
LAYER
  5
79
330
2
100
AcDbSymbolTableRecord
100
AcDbLayerTableRecord
  2
가는실선
 70
     0
 62
     4
  6
Continuous
370
    -3
390
F
  0
LAYER
  5
7A
330
2
100
AcDbSymbolTableRecord
100
AcDbLayerTableRecord
  2
치수_보조선
 70
     0
 62
     4
  6
Continuous
370
    -3
390
F
  0
LAYER
  5
7B
330
2
100
AcDbSymbolTableRecord
100
AcDbLayerTableRecord
  2
치수문자_일반주서
 70
     0
 62
     7
  6
Continuous
370
    25
390
F
  0
LAYER
  5
7C
330
2
100
AcDbSymbolTableRecord
100
AcDbLayerTableRecord
  2
개별주서
 70
     0
 62
   100
  6
Continuous
370
    35
390
F
  0
LAYER
  5
7D
330
2
100
AcDbSymbolTableRecord
100
AcDbLayerTableRecord
  2
중간선
 70
     0
 62
     2
  6
Continuous
370
    25
390
F
  0
LAYER
  5
7E
330
2
100
AcDbSymbolTableRecord
100
AcDbLayerTableRecord
  2
윤곽선
 70
     0
 62
     3
  6
Continuous
370
    50
390
F
  0
LAYER
  5
7F
330
2
100
AcDbSymbolTableRecord
100
AcDbLayerTableRecord
  2
중심마크
 70
     0
 62
   100
  6
Continuous
370
    35
390
F
  0
LAYER
  5
80
330
2
100
AcDbSymbolTableRecord
100
AcDbLayerTableRecord
  2
가상선
 70
     0
 62
     4
  6
PHANTOM
370
    -3
390
F
  0
LAYER
  5
81
330
2
100
AcDbSymbolTableRecord
100
AcDbLayerTableRecord
  2
특수지정선
 70
     0
 62
     5
  6
CENTERX2
370
    70
390
F
  0
LAYER
  5
156
330
2
100
AcDbSymbolTableRecord
100
AcDbLayerTableRecord
  2
Defpoints
 70
     0
 62
     7
  6
Continuous
290
     0
370
    -3
390
F
  0
ENDTAB
  0
TABLE
  2
STYLE
  5
3
330
0
100
AcDbSymbolTable
 70
     2
  0
STYLE
  5
11
330
3
100
AcDbSymbolTableRecord
100
AcDbTextStyleTableRecord
  2
Standard
 70
     0
 40
0.0
 41
1.0
 50
0.0
 71
     0
 42
3.5
  3
txt
  4

  0
STYLE
  5
97
330
3
100
AcDbSymbolTableRecord
100
AcDbTextStyleTableRecord
  2
SLDTEXTSTYLE0
 70
     0
 40
0.0
 41
0.75
 50
0.0
 71
     0
 42
3.5
  3
TXT
  4

  0
ENDTAB
  0
TABLE
  2
VIEW
  5
6
330
0
100
AcDbSymbolTable
 70
     0
  0
ENDTAB
  0
TABLE
  2
UCS
  5
7
330
0
100
AcDbSymbolTable
 70
     0
  0
ENDTAB
  0
TABLE
  2
APPID
  5
9
330
0
100
AcDbSymbolTable
 70
     2
  0
APPID
  5
12
330
9
100
AcDbSymbolTableRecord
100
AcDbRegAppTableRecord
  2
ACAD
 70
     0
  0
APPID
  5
187
330
9
100
AcDbSymbolTableRecord
100
AcDbRegAppTableRecord
  2
PE_URL
 70
     0
  0
ENDTAB
  0
TABLE
  2
DIMSTYLE
  5
A
330
0
100
AcDbSymbolTable
 70
     5
100
AcDbDimStyleTable
  0
DIMSTYLE
105
27
330
A
100
AcDbSymbolTableRecord
100
AcDbDimStyleTableRecord
  2
ISO-25
 70
     0
 41
2.5
 42
0.625
 43
3.75
 44
1.25
 73
     0
 74
     0
 77
     1
 78
     8
140
2.5
141
2.5
143
0.03937007874016
147
0.625
171
     3
172
     1
178
     0
271
     2
272
     2
274
     3
278
    44
283
     0
284
     8
340
11
  0
DIMSTYLE
105
DC
102
{ACAD_REACTORS
330
DB
330
104
102
}
330
A
100
AcDbSymbolTableRecord
100
AcDbDimStyleTableRecord
  2
SLDDIMSTYLE0
 70
     0
 41
3.302
 44
0.0
 45
0.000000001
 73
     0
 74
     0
 77
     1
 78
     4
 79
     1
140
3.5
143
0.0393700787401575
147
0.875
148
0.000000001
170
     1
173
     1
178
     0
271
     2
272
     2
276
     2
284
    12
340
97
  0
DIMSTYLE
105
F0
102
{ACAD_REACTORS
330
EF
102
}
330
A
100
AcDbSymbolTableRecord
100
AcDbDimStyleTableRecord
  2
SLDDIMSTYLE1
 70
     0
 41
3.302
 44
0.0
 45
0.000000001
 73
     0
 74
     0
 77
     1
 78
    12
 79
     3
140
3.5
143
0.0393700787401575
147
0.875
148
0.000000001
170
     1
172
     1
173
     1
178
     0
271
     2
272
     2
276
     2
284
    12
289
     0
340
97
  0
DIMSTYLE
105
118
102
{ACAD_REACTORS
330
117
102
}
330
A
100
AcDbSymbolTableRecord
100
AcDbDimStyleTableRecord
  2
SLDDIMSTYLE2
 70
     0
 41
3.302
 44
0.0
 45
0.000000001
 73
     0
 74
     0
 77
     1
 78
    12
 79
     3
140
3.5
143
0.0393700787401575
147
0.875
148
0.000000001
170
     1
173
     1
178
     0
271
     2
272
     2
276
     2
284
    12
340
97
  0
DIMSTYLE
105
186
102
{ACAD_REACTORS
330
1FA
330
1D3
330
1E0
330
1ED
102
}
330
A
100
AcDbSymbolTableRecord
100
AcDbDimStyleTableRecord
  2
SLDDIMSTYLE3
 70
     0
 41
3.302
 44
0.0
 45
0.000000001
 73
     0
 74
     0
 77
     1
 78
    12
 79
     3
140
3.5
143
0.0393700787401575
147
0.875
148
0.000000001
170
     1
172
     1
173
     1
178
     0
271
     2
272
     2
276
     2
284
    12
289
     0
340
97
  0
ENDTAB
  0
TABLE
  2
BLOCK_RECORD
  5
1
330
0
100
AcDbSymbolTable
 70
    15
  0
BLOCK_RECORD
  5
1F
102
{ACAD_XDICTIONARY
360
2C8
102
}
330
1
100
AcDbSymbolTableRecord
100
AcDbBlockTableRecord
  2
*Model_Space
340
22
  0
BLOCK_RECORD
  5
1B
330
1
100
AcDbSymbolTableRecord
100
AcDbBlockTableRecord
  2
*Paper_Space
340
1E
  0
BLOCK_RECORD
  5
23
330
1
100
AcDbSymbolTableRecord
100
AcDbBlockTableRecord
  2
*Paper_Space0
340
26
  0
BLOCK_RECORD
  5
82
330
1
100
AcDbSymbolTableRecord
100
AcDbBlockTableRecord
  2
블럭10
340
0
102
{BLKREFS
331
D4
102
}
  0
BLOCK_RECORD
  5
DD
330
1
100
AcDbSymbolTableRecord
100
AcDbBlockTableRecord
  2
_D
340
0
  0
BLOCK_RECORD
  5
F1
330
1
100
AcDbSymbolTableRecord
100
AcDbBlockTableRecord
  2
_D_1
340
0
  0
BLOCK_RECORD
  5
105
330
1
100
AcDbSymbolTableRecord
100
AcDbBlockTableRecord
  2
_D_2
340
0
  0
BLOCK_RECORD
  5
119
330
1
100
AcDbSymbolTableRecord
100
AcDbBlockTableRecord
  2
_D_3
340
0
  0
BLOCK_RECORD
  5
12B
330
1
100
AcDbSymbolTableRecord
100
AcDbBlockTableRecord
  2
SW_DOWELSYMBOL_0
340
0
102
{BLKREFS
331
131
331
207
331
0
102
}
  0
BLOCK_RECORD
  5
216
330
1
100
AcDbSymbolTableRecord
100
AcDbBlockTableRecord
  2
*D8
340
0
  0
BLOCK_RECORD
  5
222
330
1
100
AcDbSymbolTableRecord
100
AcDbBlockTableRecord
  2
*D9
340
0
  0
BLOCK_RECORD
  5
22E
330
1
100
AcDbSymbolTableRecord
100
AcDbBlockTableRecord
  2
*D10
340
0
  0
BLOCK_RECORD
  5
23A
330
1
100
AcDbSymbolTableRecord
100
AcDbBlockTableRecord
  2
*D11
340
0
  0
BLOCK_RECORD
  5
294
330
1
100
AcDbSymbolTableRecord
100
AcDbBlockTableRecord
  2
*D12
340
0
  0
BLOCK_RECORD
  5
2A0
330
1
100
AcDbSymbolTableRecord
100
AcDbBlockTableRecord
  2
*D13
340
0
  0
BLOCK_RECORD
  5
2AC
330
1
100
AcDbSymbolTableRecord
100
AcDbBlockTableRecord
  2
*D14
340
0
  0
BLOCK_RECORD
  5
2B8
330
1
100
AcDbSymbolTableRecord
100
AcDbBlockTableRecord
  2
*D15
340
0
  0
ENDTAB
  0
ENDSEC
  0
SECTION
  2
BLOCKS
  0
BLOCK
  5
20
330
1F
100
AcDbEntity
  8
0
100
AcDbBlockBegin
  2
*Model_Space
 70
     0
 10
0.0
 20
0.0
 30
0.0
  3
*Model_Space
  1
*Model_Space
  0
ENDBLK
  5
21
330
1F
100
AcDbEntity
  8
0
100
AcDbBlockEnd
  0
BLOCK
  5
1C
330
1B
100
AcDbEntity
 67
     1
  8
0
100
AcDbBlockBegin
  2
*Paper_Space
 70
     0
 10
0.0
 20
0.0
 30
0.0
  3
*Paper_Space
  1
*Paper_Space
  0
ENDBLK
  5
1D
330
1B
100
AcDbEntity
 67
     1
  8
0
100
AcDbBlockEnd
  0
BLOCK
  5
24
330
23
100
AcDbEntity
  8
0
100
AcDbBlockBegin
  2
*Paper_Space0
 70
     0
 10
0.0
 20
0.0
 30
0.0
  3
*Paper_Space0
  1
*Paper_Space0
  0
ENDBLK
  5
25
330
23
100
AcDbEntity
  8
0
100
AcDbBlockEnd
  0
BLOCK
  5
83
330
82
100
AcDbEntity
  8
0
100
AcDbBlockBegin
  2
블럭10
 70
     2
 10
0.0
 20
0.0
 30
0.0
  3
블럭10
  1
블럭10
  0
ELLIPSE
  5
85
330
82
100
AcDbEntity
  8
중심선
100
AcDbEllipse
 10
20.54032771741204
 20
12.0471743016438
 30
0.0
 11
6.600054785286829
 21
-1.261213355974178E-13
 31
0.0
210
0.0
220
0.0
230
1.0
 40
0.636358354079598
 41
0.9219305317359503
 42
6.513795318482858
  0
ELLIPSE
  5
86
330
82
100
AcDbEntity
  8
중심선
100
AcDbEllipse
 10
20.54032771746488
 20
12.04717430159265
 30
0.0
 11
3.960054785062283
 21
1.540847449632565E-10
 31
0.0
210
0.0
220
0.0
230
1.0
 40
0.3939339440162632
 41
1.131841032648279
 42
5.62031148352944
  0
LINE
  5
87
330
82
100
AcDbEntity
  8
중심선
100
AcDbLine
 10
2.268634060543552
 20
16.24717430164393
 30
0.0
 11
5.714909304380834
 21
16.24717430164393
 31
0.0
  0
LINE
  5
88
330
82
100
AcDbEntity
  8
중심선
100
AcDbLine
 10
5.245725140726316
 20
7.84717430164391
 30
0.0
 11
8.692000384563599
 21
7.84717430164391
 31
0.0
  0
LINE
  5
89
330
82
100
AcDbEntity
  8
중심선
100
AcDbLine
 10
15.74043728645272
 20
16.24717430164393
 30
0.0
 11
8.692000384563599
 21
7.84717430164391
 31
0.0
  0
LINE
  5
8A
330
82
100
AcDbEntity
  8
중심선
100
AcDbLine
 10
0.1404042013395286
 20
13.71084872107135
 30
0.0
 11
3.58671253028996
 21
13.71088815037384
 31
0.0
  0
LINE
  5
8B
330
82
100
AcDbEntity
  8
중심선
100
AcDbLine
 10
2.750260043222114
 20
10.84717430164391
 30
0.0
 11
6.196535287059397
 21
10.84717430164391
 31
0.0
  0
LINE
  5
8C
330
82
100
AcDbEntity
  8
중심선
100
AcDbLine
 10
12.29416204261559
 20
16.24717430164393
 30
0.0
 11
5.245725140726316
 21
7.84717430164391
 31
0.0
  0
LINE
  5
8D
330
82
100
AcDbEntity
  8
중심선
100
AcDbLine
 10
10.72767329541681
 20
16.24717430164393
 30
0.0
 11
6.196535287059397
 21
10.84717430164391
 31
0.0
  0
LINE
  5
8E
330
82
100
AcDbEntity
  8
중심선
100
AcDbLine
 10
7.28139805157953
 20
16.24717430164393
 30
0.0
 11
2.750260043222114
 21
10.84717430164391
 31
0.0
  0
LINE
  5
8F
330
82
100
AcDbEntity
  8
중심선
100
AcDbLine
 10
5.714909304380834
 20
16.24717430164393
 30
0.0
 11
3.58671253028996
 21
13.71088815037384
 31
0.0
  0
LINE
  5
90
330
82
100
AcDbEntity
  8
중심선
100
AcDbLine
 10
2.268634060543552
 20
16.24717430164393
 30
0.0
 11
0.1404042013395286
 21
13.71084872107135
 31
0.0
  0
LINE
  5
91
330
82
100
AcDbEntity
  8
중심선
100
AcDbLine
 10
7.28139805157953
 20
16.24717430164393
 30
0.0
 11
10.72767329541681
 21
16.24717430164393
 31
0.0
  0
LINE
  5
92
330
82
100
AcDbEntity
  8
중심선
100
AcDbLine
 10
12.29416204261559
 20
16.24717430164393
 30
0.0
 11
15.74043728645272
 21
16.24717430164393
 31
0.0
  0
LINE
  5
93
330
82
100
AcDbEntity
  8
중심선
100
AcDbLine
 10
19.22036997980202
 20
11.08717430171403
 30
0.0
 11
23.66174974927406
 21
11.08717430171406
 31
0.0
  0
LINE
  5
94
330
82
100
AcDbEntity
  8
중심선
100
AcDbLine
 10
19.22039502424796
 20
13.00717430171391
 30
0.0
 11
19.22036997980202
 21
11.08717430171403
 31
0.0
  0
LINE
  5
95
330
82
100
AcDbEntity
  8
중심선
100
AcDbLine
 10
19.22039502424796
 20
13.00717430171391
 30
0.0
 11
26.96566020931264
 21
13.00717430171391
 31
0.0
  0
LINE
  5
96
330
82
100
AcDbEntity
  8
중심선
100
AcDbLine
 10
22.22332737316547
 20
13.45928029700563
 30
0.0
 11
24.52862924686651
 21
15.39360700705356
 31
0.0
  0
ATTDEF
  5
98
330
82
100
AcDbEntity
  8
FORMAT
 62
     2
100
AcDbText
 10
-9.18129528874128
 20
2.075366912832191
 30
0.0
 40
4.233333333333333
  1
E5253048 [ 2 FLUTE ]
 41
0.75
  7
SLDTEXTSTYLE0
 11
-9.18129528874128
 21
-0.0412997538344756
 31
0.0
100
AcDbAttributeDefinition
  3

  2
AUTOATTR0
 70
     0
 74
     1
  0
ENDBLK
  5
84
330
82
100
AcDbEntity
  8
0
100
AcDbBlockEnd
  0
BLOCK
  5
DE
330
DD
100
AcDbEntity
  8
0
100
AcDbBlockBegin
  2
_D
 70
     0
 10
0.0
 20
0.0
 30
0.0
  3
_D
  1
_D
  0
LINE
  5
E0
330
DD
100
AcDbEntity
  8
치수문자_일반주서
 62
     0
370
    -2
100
AcDbLine
 10
48.09999999999999
 20
9.580524543786256
 30
0.0
 11
48.09999999999999
 21
45.1082080054322
 31
0.0
  0
LINE
  5
E1
330
DD
100
AcDbEntity
  8
치수문자_일반주서
 62
     0
370
    -2
100
AcDbLine
 10
-53.50000000000001
 20
8.588574928723888
 30
0.0
 11
-53.50000000000001
 21
45.1082080054322
 31
0.0
  0
LINE
  5
E2
330
DD
100
AcDbEntity
  8
치수문자_일반주서
 62
     0
370
    -2
100
AcDbLine
 10
44.79799999999999
 20
45.1082080054322
 30
0.0
 11
-50.19800000000001
 21
45.1082080054322
 31
0.0
  0
SOLID
  5
E3
330
DD
100
AcDbEntity
  8
치수문자_일반주서
 62
     0
100
AcDbTrace
 10
44.79799999999999
 20
44.55787467209886
 30
0.0
 11
44.79799999999999
 21
45.65854133876553
 31
0.0
 12
48.09999999999999
 22
45.1082080054322
 32
0.0
 13
48.09999999999999
 23
45.1082080054322
 33
0.0
  0
SOLID
  5
E4
330
DD
100
AcDbEntity
  8
치수문자_일반주서
 62
     0
100
AcDbTrace
 10
-50.19800000000001
 20
45.65854133876553
 30
0.0
 11
-50.19800000000001
 21
44.55787467209886
 31
0.0
 12
-53.50000000000001
 22
45.1082080054322
 32
0.0
 13
-53.50000000000001
 23
45.1082080054322
 33
0.0
  0
MTEXT
  5
E5
330
DD
100
AcDbEntity
  8
치수문자_일반주서
 62
     0
100
AcDbMText
 10
-2.700000000000003
 20
49.4832080054322
 30
0.0
 40
3.5
 41
0.0
 71
     2
 72
     1
  1
\A1;101.60 [4]
  7
SLDTEXTSTYLE0
 73
     1
 44
1.0
  0
POINT
  5
E6
330
DD
100
AcDbEntity
  8
Defpoints
 62
     0
100
AcDbPoint
 10
48.09999999999999
 20
9.518024543786256
 30
0.0
  0
POINT
  5
E7
330
DD
100
AcDbEntity
  8
Defpoints
 62
     0
100
AcDbPoint
 10
-53.50000000000001
 20
8.526074928723888
 30
0.0
  0
POINT
  5
E8
330
DD
100
AcDbEntity
  8
Defpoints
 62
     0
100
AcDbPoint
 10
-53.50000000000001
 20
45.1082080054322
 30
0.0
  0
ENDBLK
  5
DF
330
DD
100
AcDbEntity
  8
0
100
AcDbBlockEnd
  0
BLOCK
  5
F2
330
F1
100
AcDbEntity
  8
0
100
AcDbBlockBegin
  2
_D_1
 70
     0
 10
0.0
 20
0.0
 30
0.0
  3
_D_1
  1
_D_1
  0
LINE
  5
F4
330
F1
100
AcDbEntity
  8
치수문자_일반주서
 62
     0
370
    -2
100
AcDbLine
 10
-52.56250000000001
 20
9.526074928723899
 30
0.0
 11
-66.31000000000003
 21
9.526074928723851
 31
0.0
  0
LINE
  5
F5
330
F1
100
AcDbEntity
  8
치수문자_일반주서
 62
     0
370
    -2
100
AcDbLine
 10
-52.56250000000001
 20
-9.523925071276112
 30
0.0
 11
-66.30999999999996
 21
-9.52392507127616
 31
0.0
  0
LINE
  5
F6
330
F1
100
AcDbEntity
  8
치수문자_일반주서
 62
     0
370
    -2
100
AcDbLine
 10
-66.31000000000002
 20
6.224074928723851
 30
0.0
 11
-66.30999999999997
 21
-6.221925071276161
 31
0.0
  0
SOLID
  5
F7
330
F1
100
AcDbEntity
  8
치수문자_일반주서
 62
     0
100
AcDbTrace
 10
-65.75966666666669
 20
6.224074928723853
 30
0.0
 11
-66.86033333333334
 21
6.22407492872385
 31
0.0
 12
-66.31000000000003
 22
9.526074928723851
 32
0.0
 13
-66.31000000000003
 23
9.526074928723851
 33
0.0
  0
SOLID
  5
F8
330
F1
100
AcDbEntity
  8
치수문자_일반주서
 62
     0
100
AcDbTrace
 10
-66.8603333333333
 20
-6.221925071276162
 30
0.0
 11
-65.75966666666665
 21
-6.221925071276159
 31
0.0
 12
-66.30999999999996
 22
-9.52392507127616
 32
0.0
 13
-66.30999999999996
 23
-9.52392507127616
 33
0.0
  0
MTEXT
  5
F9
330
F1
100
AcDbEntity
  8
치수문자_일반주서
 62
     0
100
AcDbMText
 10
-70.685
 20
0.0010749287238847
 30
0.0
 40
3.5
 41
0.0
 71
     2
 72
     1
  1
\A1;%%c19.05 [3/4]
  7
SLDTEXTSTYLE0
 11
-3.729883127349605E-15
 21
1.0
 31
0.0
 73
     1
 44
1.0
  0
POINT
  5
FA
330
F1
100
AcDbEntity
  8
Defpoints
 62
     0
100
AcDbPoint
 10
-52.50000000000001
 20
9.526074928723899
 30
0.0
  0
POINT
  5
FB
330
F1
100
AcDbEntity
  8
Defpoints
 62
     0
100
AcDbPoint
 10
-52.50000000000001
 20
-9.523925071276112
 30
0.0
  0
POINT
  5
FC
330
F1
100
AcDbEntity
  8
Defpoints
 62
     0
100
AcDbPoint
 10
-66.31
 20
-9.52392507127616
 30
0.0
  0
ENDBLK
  5
F3
330
F1
100
AcDbEntity
  8
0
100
AcDbBlockEnd
  0
BLOCK
  5
106
330
105
100
AcDbEntity
  8
0
100
AcDbBlockBegin
  2
_D_2
 70
     0
 10
0.0
 20
0.0
 30
0.0
  3
_D_2
  1
_D_2
  0
LINE
  5
108
330
105
100
AcDbEntity
  8
치수문자_일반주서
 62
     0
370
    -2
100
AcDbLine
 10
48.09999999999999
 20
9.580524543786256
 30
0.0
 11
48.09999999999999
 21
29.75464205728772
 31
0.0
  0
LINE
  5
109
330
105
100
AcDbEntity
  8
치수문자_일반주서
 62
     0
370
    -2
100
AcDbLine
 10
10.00000000000061
 20
5.829969230100212
 30
0.0
 11
10.00000000000061
 21
29.75464205728772
 31
0.0
  0
LINE
  5
10A
330
105
100
AcDbEntity
  8
치수문자_일반주서
 62
     0
370
    -2
100
AcDbLine
 10
44.79799999999999
 20
29.75464205728772
 30
0.0
 11
13.30200000000061
 21
29.75464205728772
 31
0.0
  0
SOLID
  5
10B
330
105
100
AcDbEntity
  8
치수문자_일반주서
 62
     0
100
AcDbTrace
 10
44.79799999999999
 20
29.20430872395439
 30
0.0
 11
44.79799999999999
 21
30.30497539062106
 31
0.0
 12
48.09999999999999
 22
29.75464205728772
 32
0.0
 13
48.09999999999999
 23
29.75464205728772
 33
0.0
  0
SOLID
  5
10C
330
105
100
AcDbEntity
  8
치수문자_일반주서
 62
     0
100
AcDbTrace
 10
13.30200000000061
 20
30.30497539062106
 30
0.0
 11
13.30200000000061
 21
29.20430872395439
 31
0.0
 12
10.00000000000061
 22
29.75464205728772
 32
0.0
 13
10.00000000000061
 23
29.75464205728772
 33
0.0
  0
MTEXT
  5
10D
330
105
100
AcDbEntity
  8
치수문자_일반주서
 62
     0
100
AcDbMText
 10
29.05000000000141
 20
34.12964205728773
 30
0.0
 40
3.5
 41
0.0
 71
     2
 72
     1
  1
\A1;38.10 [1 1/2]
  7
SLDTEXTSTYLE0
 73
     1
 44
1.0
  0
POINT
  5
10E
330
105
100
AcDbEntity
  8
Defpoints
 62
     0
100
AcDbPoint
 10
48.09999999999999
 20
9.518024543786256
 30
0.0
  0
POINT
  5
10F
330
105
100
AcDbEntity
  8
Defpoints
 62
     0
100
AcDbPoint
 10
10.00000000000061
 20
5.767469230100212
 30
0.0
  0
POINT
  5
110
330
105
100
AcDbEntity
  8
Defpoints
 62
     0
100
AcDbPoint
 10
10.00000000000061
 20
29.75464205728868
 30
0.0
  0
ENDBLK
  5
107
330
105
100
AcDbEntity
  8
0
100
AcDbBlockEnd
  0
BLOCK
  5
11A
330
119
100
AcDbEntity
  8
0
100
AcDbBlockBegin
  2
_D_3
 70
     0
 10
0.0
 20
0.0
 30
0.0
  3
_D_3
  1
_D_3
  0
LINE
  5
11C
330
119
100
AcDbEntity
  8
치수문자_일반주서
 62
     0
370
    -2
100
AcDbLine
 10
48.16249999999999
 20
9.518024543786256
 30
0.0
 11
68.30935371504384
 21
9.518024543786325
 31
0.0
  0
LINE
  5
11D
330
119
100
AcDbEntity
  8
치수문자_일반주서
 62
     0
370
    -2
100
AcDbLine
 10
48.16249999999999
 20
-9.515874686338464
 30
0.0
 11
68.30935371504391
 21
-9.515874686338393
 31
0.0
  0
LINE
  5
11E
330
119
100
AcDbEntity
  8
치수문자_일반주서
 62
     0
370
    -2
100
AcDbLine
 10
68.30935371504384
 20
9.518024543786325
 30
0.0
 11
68.30935371504368
 21
48.49486390149638
 31
0.0
  0
LINE
  5
11F
330
119
100
AcDbEntity
  8
치수문자_일반주서
 62
     0
370
    -2
100
AcDbLine
 10
68.30935371504386
 20
6.216024543786325
 30
0.0
 11
68.3093537150439
 21
-6.213874686338393
 31
0.0
  0
SOLID
  5
120
330
119
100
AcDbEntity
  8
치수문자_일반주서
 62
     0
100
AcDbTrace
 10
68.85968704837718
 20
6.216024543786327
 30
0.0
 11
67.75902038171053
 21
6.216024543786324
 31
0.0
 12
68.30935371504384
 22
9.518024543786325
 32
0.0
 13
68.30935371504384
 23
9.518024543786325
 33
0.0
  0
SOLID
  5
121
330
119
100
AcDbEntity
  8
치수문자_일반주서
 62
     0
100
AcDbTrace
 10
67.75902038171057
 20
-6.213874686338395
 30
0.0
 11
68.85968704837722
 21
-6.213874686338391
 31
0.0
 12
68.30935371504391
 22
-9.515874686338393
 32
0.0
 13
68.30935371504391
 23
-9.515874686338393
 33
0.0
  0
MTEXT
  5
122
330
119
100
AcDbEntity
  8
치수문자_일반주서
 62
     0
100
AcDbMText
 10
63.93435371504374
 20
34.71361390149637
 30
0.0
 40
3.5
 41
0.0
 71
     2
 72
     1
  1
\A1;%%c19.03 [3/4]
  7
SLDTEXTSTYLE0
 11
-3.733038234412489E-15
 21
1.0
 31
0.0
 73
     1
 44
1.0
  0
POINT
  5
123
330
119
100
AcDbEntity
  8
Defpoints
 62
     0
100
AcDbPoint
 10
48.09999999999999
 20
9.518024543786256
 30
0.0
  0
POINT
  5
124
330
119
100
AcDbEntity
  8
Defpoints
 62
     0
100
AcDbPoint
 10
48.09999999999999
 20
-9.515874686338464
 30
0.0
  0
POINT
  5
125
330
119
100
AcDbEntity
  8
Defpoints
 62
     0
100
AcDbPoint
 10
68.30935371504374
 20
-9.515874686338393
 30
0.0
  0
ENDBLK
  5
11B
330
119
100
AcDbEntity
  8
0
100
AcDbBlockEnd
  0
BLOCK
  5
12C
330
12B
100
AcDbEntity
  8
0
100
AcDbBlockBegin
  2
SW_DOWELSYMBOL_0
 70
     0
 10
0.0
 20
0.0
 30
0.0
  3
SW_DOWELSYMBOL_0
  1
SW_DOWELSYMBOL_0
  0
CIRCLE
  5
12E
330
12B
100
AcDbEntity
  8
외형선
 62
     0
100
AcDbCircle
 10
0.0
 20
0.0
 30
0.0
 40
3.000000000000004
  0
HATCH
  5
12F
330
12B
100
AcDbEntity
  8
0
  6
Continuous
 62
     0
370
    35
100
AcDbHatch
 10
0.0
 20
0.0
 30
0.0
210
0.0
220
0.0
230
1.0
  2
SOLID
 70
     1
 71
     0
 91
        1
 92
        0
 93
        3
 72
     2
 10
0.0000000000000087
 20
0.0
 40
3.000000000000004
 50
0.0
 51
90.0
 73
     1
 72
     1
 10
0.0000000000000087
 20
3.000000000000004
 11
0.0000000000000087
 21
0.0
 72
     1
 10
0.0000000000000087
 20
0.0
 11
3.000000000000013
 21
0.0
 97
        0
 75
     0
 76
     1
 98
        1
 10
0.0
 20
0.0
  0
HATCH
  5
130
330
12B
100
AcDbEntity
  8
0
  6
Continuous
 62
     0
370
    35
100
AcDbHatch
 10
0.0
 20
0.0
 30
0.0
210
0.0
220
0.0
230
1.0
  2
SOLID
 70
     1
 71
     0
 91
        1
 92
        0
 93
        3
 72
     2
 10
0.0000000000000087
 20
0.0
 40
3.000000000000004
 50
180.0
 51
270.0000000000007
 73
     1
 72
     1
 10
0.0000000000000087
 20
-3.000000000000004
 11
0.0000000000000087
 21
0.0
 72
     1
 10
0.0000000000000087
 20
0.0
 11
-2.999999999999996
 21
0.0
 97
        0
 75
     0
 76
     1
 98
        1
 10
0.0
 20
0.0
  0
ENDBLK
  5
12D
330
12B
100
AcDbEntity
  8
0
100
AcDbBlockEnd
  0
BLOCK
  5
217
330
216
100
AcDbEntity
  8
0
100
AcDbBlockBegin
  2
*D8
 70
     1
 10
0.0
 20
0.0
 30
0.0
  3
*D8
  1

  0
LINE
  5
219
330
216
100
AcDbEntity
  8
치수문자_일반주서
 62
     0
370
    -2
100
AcDbLine
 10
115.975
 20
22.44111111009289
 30
0.0
 11
115.975
 21
48.46446936603498
 31
0.0
  0
LINE
  5
21A
330
216
100
AcDbEntity
  8
치수문자_일반주서
 62
     0
370
    -2
100
AcDbLine
 10
14.37500000000004
 20
21.99375
 30
0.0
 11
14.37500000000002
 21
48.46446936603498
 31
0.0
  0
LINE
  5
21B
330
216
100
AcDbEntity
  8
치수문자_일반주서
 62
     0
370
    -2
100
AcDbLine
 10
112.673
 20
48.46446936603498
 30
0.0
 11
17.67700000000002
 21
48.46446936603498
 31
0.0
  0
SOLID
  5
21C
330
216
100
AcDbEntity
  8
치수문자_일반주서
 62
     0
100
AcDbTrace
 10
112.673
 20
47.91413603270164
 30
0.0
 11
112.673
 21
49.01480269936831
 31
0.0
 12
115.975
 22
48.46446936603498
 32
0.0
 13
115.975
 23
48.46446936603498
 33
0.0
  0
SOLID
  5
21D
330
216
100
AcDbEntity
  8
치수문자_일반주서
 62
     0
100
AcDbTrace
 10
17.67700000000002
 20
49.01480269936831
 30
0.0
 11
17.67700000000002
 21
47.91413603270164
 31
0.0
 12
14.37500000000002
 22
48.46446936603498
 32
0.0
 13
14.37500000000002
 23
48.46446936603498
 33
0.0
  0
MTEXT
  5
21E
330
216
100
AcDbEntity
  8
치수문자_일반주서
 62
     0
100
AcDbMText
 10
65.31347048023962
 20
52.83946936603498
 30
0.0
 40
3.5
 41
0.0
 71
     2
 72
     1
  1
\A1;101.6 [4]
  7
SLDTEXTSTYLE0
 73
     1
 44
1.0
  0
POINT
  5
21F
330
216
100
AcDbEntity
  8
Defpoints
 62
     0
100
AcDbPoint
 10
115.975
 20
22.37861111009289
 30
0.0
  0
POINT
  5
220
330
216
100
AcDbEntity
  8
Defpoints
 62
     0
100
AcDbPoint
 10
14.37500000000004
 20
21.93125
 30
0.0
  0
POINT
  5
221
330
216
100
AcDbEntity
  8
Defpoints
 62
     0
100
AcDbPoint
 10
14.37500000000004
 20
48.46446936603498
 30
0.0
  0
ENDBLK
  5
218
330
216
100
AcDbEntity
  8
0
100
AcDbBlockEnd
  0
BLOCK
  5
223
330
222
100
AcDbEntity
  8
0
100
AcDbBlockBegin
  2
*D9
 70
     1
 10
0.0
 20
0.0
 30
0.0
  3
*D9
  1

  0
LINE
  5
225
330
222
100
AcDbEntity
  8
치수문자_일반주서
 62
     0
370
    -2
100
AcDbLine
 10
115.975
 20
22.44111111009289
 30
0.0
 11
115.975
 21
38.43090310367573
 31
0.0
  0
LINE
  5
226
330
222
100
AcDbEntity
  8
치수문자_일반주서
 62
     0
370
    -2
100
AcDbLine
 10
77.87500000000004
 20
22.12352139411347
 30
0.0
 11
77.87500000000004
 21
38.43090310367573
 31
0.0
  0
LINE
  5
227
330
222
100
AcDbEntity
  8
치수문자_일반주서
 62
     0
370
    -2
100
AcDbLine
 10
112.673
 20
38.43090310367573
 30
0.0
 11
81.17700000000005
 21
38.43090310367573
 31
0.0
  0
SOLID
  5
228
330
222
100
AcDbEntity
  8
치수문자_일반주서
 62
     0
100
AcDbTrace
 10
112.673
 20
37.8805697703424
 30
0.0
 11
112.673
 21
38.98123643700907
 31
0.0
 12
115.975
 22
38.43090310367573
 32
0.0
 13
115.975
 23
38.43090310367573
 33
0.0
  0
SOLID
  5
229
330
222
100
AcDbEntity
  8
치수문자_일반주서
 62
     0
100
AcDbTrace
 10
81.17700000000005
 20
38.98123643700907
 30
0.0
 11
81.17700000000005
 21
37.8805697703424
 31
0.0
 12
77.87500000000004
 22
38.43090310367573
 32
0.0
 13
77.87500000000004
 23
38.43090310367573
 33
0.0
  0
MTEXT
  5
22A
330
222
100
AcDbEntity
  8
치수문자_일반주서
 62
     0
100
AcDbMText
 10
96.92500000000004
 20
42.80590310367573
 30
0.0
 40
3.5
 41
0.0
 71
     2
 72
     1
  1
\A1;38.1 [1 1/2]
  7
SLDTEXTSTYLE0
 73
     1
 44
1.0
  0
POINT
  5
22B
330
222
100
AcDbEntity
  8
Defpoints
 62
     0
100
AcDbPoint
 10
115.975
 20
22.37861111009289
 30
0.0
  0
POINT
  5
22C
330
222
100
AcDbEntity
  8
Defpoints
 62
     0
100
AcDbPoint
 10
77.87500000000004
 20
22.06102139411347
 30
0.0
  0
POINT
  5
22D
330
222
100
AcDbEntity
  8
Defpoints
 62
     0
100
AcDbPoint
 10
77.87500000000004
 20
38.43090310367573
 30
0.0
  0
ENDBLK
  5
224
330
222
100
AcDbEntity
  8
0
100
AcDbBlockEnd
  0
BLOCK
  5
22F
330
22E
100
AcDbEntity
  8
0
100
AcDbBlockBegin
  2
*D10
 70
     1
 10
0.0
 20
0.0
 30
0.0
  3
*D10
  1

  0
LINE
  5
231
330
22E
100
AcDbEntity
  8
치수문자_일반주서
 62
     0
370
    -2
100
AcDbLine
 10
14.81250000000004
 20
22.43125000000001
 30
0.0
 11
4.375000000000024
 21
22.43124999999996
 31
0.0
  0
LINE
  5
232
330
22E
100
AcDbEntity
  8
치수문자_일반주서
 62
     0
370
    -2
100
AcDbLine
 10
14.81250000000004
 20
3.381250000000003
 30
0.0
 11
4.375000000000091
 21
3.381249999999961
 31
0.0
  0
LINE
  5
233
330
22E
100
AcDbEntity
  8
치수문자_일반주서
 62
     0
370
    -2
100
AcDbLine
 10
4.375000000000036
 20
19.12924999999996
 30
0.0
 11
4.375000000000079
 21
6.68324999999996
 31
0.0
  0
SOLID
  5
234
330
22E
100
AcDbEntity
  8
치수문자_일반주서
 62
     0
100
AcDbTrace
 10
4.925333333333369
 20
19.12924999999997
 30
0.0
 11
3.824666666666702
 21
19.12924999999996
 31
0.0
 12
4.375000000000024
 22
22.43124999999996
 32
0.0
 13
4.375000000000024
 23
22.43124999999996
 33
0.0
  0
SOLID
  5
235
330
22E
100
AcDbEntity
  8
치수문자_일반주서
 62
     0
100
AcDbTrace
 10
3.824666666666745
 20
6.683249999999958
 30
0.0
 11
4.925333333333413
 21
6.683249999999962
 31
0.0
 12
4.375000000000091
 22
3.381249999999961
 32
0.0
 13
4.375000000000091
 23
3.381249999999961
 33
0.0
  0
MTEXT
  5
236
330
22E
100
AcDbEntity
  8
치수문자_일반주서
 62
     0
100
AcDbMText
 10
0.0000000000000568
 20
12.90625000000004
 30
0.0
 40
3.5
 41
0.0
 71
     2
 72
     1
  1
\A1;%%c19.05 [3/4]
  7
SLDTEXTSTYLE0
 11
-3.496765431890257E-15
 21
1.0
 31
0.0
 73
     1
 44
1.0
  0
POINT
  5
237
330
22E
100
AcDbEntity
  8
Defpoints
 62
     0
100
AcDbPoint
 10
14.87500000000004
 20
22.43125000000001
 30
0.0
  0
POINT
  5
238
330
22E
100
AcDbEntity
  8
Defpoints
 62
     0
100
AcDbPoint
 10
14.87500000000004
 20
3.381250000000003
 30
0.0
  0
POINT
  5
239
330
22E
100
AcDbEntity
  8
Defpoints
 62
     0
100
AcDbPoint
 10
4.375000000000085
 20
3.381249999999964
 30
0.0
  0
ENDBLK
  5
230
330
22E
100
AcDbEntity
  8
0
100
AcDbBlockEnd
  0
BLOCK
  5
23B
330
23A
100
AcDbEntity
  8
0
100
AcDbBlockBegin
  2
*D11
 70
     1
 10
0.0
 20
0.0
 30
0.0
  3
*D11
  1

  0
LINE
  5
23D
330
23A
100
AcDbEntity
  8
치수문자_일반주서
 62
     0
370
    -2
100
AcDbLine
 10
115.1725818844313
 20
3.381250000000004
 30
0.0
 11
128.3978122873062
 21
3.381250000000051
 31
0.0
  0
LINE
  5
23E
330
23A
100
AcDbEntity
  8
치수문자_일반주서
 62
     0
370
    -2
100
AcDbLine
 10
115.1725818844312
 20
22.43125000000001
 30
0.0
 11
128.3978122873061
 21
22.43125000000006
 31
0.0
  0
LINE
  5
23F
330
23A
100
AcDbEntity
  8
치수문자_일반주서
 62
     0
370
    -2
100
AcDbLine
 10
128.3978122873062
 20
6.683250000000051
 30
0.0
 11
128.3978122873061
 21
19.12925000000006
 31
0.0
  0
SOLID
  5
240
330
23A
100
AcDbEntity
  8
치수문자_일반주서
 62
     0
100
AcDbTrace
 10
127.8474789539728
 20
6.683250000000049
 30
0.0
 11
128.9481456206395
 21
6.683250000000053
 31
0.0
 12
128.3978122873062
 22
3.381250000000051
 32
0.0
 13
128.3978122873062
 23
3.381250000000051
 33
0.0
  0
SOLID
  5
241
330
23A
100
AcDbEntity
  8
치수문자_일반주서
 62
     0
100
AcDbTrace
 10
128.9481456206394
 20
19.12925000000006
 30
0.0
 11
127.8474789539728
 21
19.12925000000006
 31
0.0
 12
128.3978122873061
 22
22.43125000000006
 32
0.0
 13
128.3978122873061
 23
22.43125000000006
 33
0.0
  0
MTEXT
  5
242
330
23A
100
AcDbEntity
  8
치수문자_일반주서
 62
     0
100
AcDbMText
 10
124.0228122873061
 20
12.90625
 30
0.0
 40
3.5
 41
0.0
 71
     2
 72
     1
  1
\A1;%%c19.05 [3/4]
  7
SLDTEXTSTYLE0
 11
-2.983906501879684E-15
 21
1.0
 31
0.0
 73
     1
 44
1.0
  0
POINT
  5
243
330
23A
100
AcDbEntity
  8
Defpoints
 62
     0
100
AcDbPoint
 10
115.1100818844313
 20
3.381250000000003
 30
0.0
  0
POINT
  5
244
330
23A
100
AcDbEntity
  8
Defpoints
 62
     0
100
AcDbPoint
 10
115.1100818844312
 20
22.43125000000001
 30
0.0
  0
POINT
  5
245
330
23A
100
AcDbEntity
  8
Defpoints
 62
     0
100
AcDbPoint
 10
128.3978122873061
 20
22.43125000000006
 30
0.0
  0
ENDBLK
  5
23C
330
23A
100
AcDbEntity
  8
0
100
AcDbBlockEnd
  0
BLOCK
  5
295
330
294
100
AcDbEntity
  8
0
100
AcDbBlockBegin
  2
*D12
 70
     1
 10
0.0
 20
0.0
 30
0.0
  3
*D12
  1

  0
LINE
  5
297
330
294
100
AcDbEntity
  8
치수문자_일반주서
 62
     0
370
    -2
100
AcDbLine
 10
188.9871155710829
 20
-48.43320760529338
 30
0.0
 11
188.9871155710829
 21
-22.40984934935129
 31
0.0
  0
LINE
  5
298
330
294
100
AcDbEntity
  8
치수문자_일반주서
 62
     0
370
    -2
100
AcDbLine
 10
87.38711557108289
 20
-48.88056871538627
 30
0.0
 11
87.38711557108289
 21
-22.40984934935129
 31
0.0
  0
LINE
  5
299
330
294
100
AcDbEntity
  8
치수문자_일반주서
 62
     0
370
    -2
100
AcDbLine
 10
185.6851155710829
 20
-22.40984934935129
 30
0.0
 11
90.6891155710829
 21
-22.40984934935129
 31
0.0
  0
SOLID
  5
29A
330
294
100
AcDbEntity
  8
치수문자_일반주서
 62
     0
100
AcDbTrace
 10
185.6851155710829
 20
-22.96018268268462
 30
0.0
 11
185.6851155710829
 21
-21.85951601601796
 31
0.0
 12
188.9871155710829
 22
-22.40984934935129
 32
0.0
 13
188.9871155710829
 23
-22.40984934935129
 33
0.0
  0
SOLID
  5
29B
330
294
100
AcDbEntity
  8
치수문자_일반주서
 62
     0
100
AcDbTrace
 10
90.6891155710829
 20
-21.85951601601796
 30
0.0
 11
90.6891155710829
 21
-22.96018268268462
 31
0.0
 12
87.38711557108289
 22
-22.40984934935129
 32
0.0
 13
87.38711557108289
 23
-22.40984934935129
 33
0.0
  0
MTEXT
  5
29C
330
294
100
AcDbEntity
  8
치수문자_일반주서
 62
     0
100
AcDbMText
 10
138.3255860513225
 20
-18.03484934935129
 30
0.0
 40
3.5
 41
0.0
 71
     2
 72
     1
  1
\A1;101.6 [4]
  7
SLDTEXTSTYLE0
 73
     1
 44
1.0
  0
POINT
  5
29D
330
294
100
AcDbEntity
  8
Defpoints
 62
     0
100
AcDbPoint
 10
188.9871155710829
 20
-48.49570760529338
 30
0.0
  0
POINT
  5
29E
330
294
100
AcDbEntity
  8
Defpoints
 62
     0
100
AcDbPoint
 10
87.38711557108289
 20
-48.94306871538627
 30
0.0
  0
POINT
  5
29F
330
294
100
AcDbEntity
  8
Defpoints
 62
     0
100
AcDbPoint
 10
87.38711557108289
 20
-22.40984934935129
 30
0.0
  0
ENDBLK
  5
296
330
294
100
AcDbEntity
  8
0
100
AcDbBlockEnd
  0
BLOCK
  5
2A1
330
2A0
100
AcDbEntity
  8
0
100
AcDbBlockBegin
  2
*D13
 70
     1
 10
0.0
 20
0.0
 30
0.0
  3
*D13
  1

  0
LINE
  5
2A3
330
2A0
100
AcDbEntity
  8
치수문자_일반주서
 62
     0
370
    -2
100
AcDbLine
 10
188.9871155710829
 20
-48.43320760529338
 30
0.0
 11
188.9871155710829
 21
-32.44341561171053
 31
0.0
  0
LINE
  5
2A4
330
2A0
100
AcDbEntity
  8
치수문자_일반주서
 62
     0
370
    -2
100
AcDbLine
 10
150.8871155710829
 20
-48.7507973212728
 30
0.0
 11
150.8871155710829
 21
-32.44341561171053
 31
0.0
  0
LINE
  5
2A5
330
2A0
100
AcDbEntity
  8
치수문자_일반주서
 62
     0
370
    -2
100
AcDbLine
 10
185.6851155710829
 20
-32.44341561171053
 30
0.0
 11
154.1891155710829
 21
-32.44341561171053
 31
0.0
  0
SOLID
  5
2A6
330
2A0
100
AcDbEntity
  8
치수문자_일반주서
 62
     0
100
AcDbTrace
 10
185.6851155710829
 20
-32.99374894504387
 30
0.0
 11
185.6851155710829
 21
-31.8930822783772
 31
0.0
 12
188.9871155710829
 22
-32.44341561171053
 32
0.0
 13
188.9871155710829
 23
-32.44341561171053
 33
0.0
  0
SOLID
  5
2A7
330
2A0
100
AcDbEntity
  8
치수문자_일반주서
 62
     0
100
AcDbTrace
 10
154.1891155710829
 20
-31.8930822783772
 30
0.0
 11
154.1891155710829
 21
-32.99374894504387
 31
0.0
 12
150.8871155710829
 22
-32.44341561171053
 32
0.0
 13
150.8871155710829
 23
-32.44341561171053
 33
0.0
  0
MTEXT
  5
2A8
330
2A0
100
AcDbEntity
  8
치수문자_일반주서
 62
     0
100
AcDbMText
 10
169.9371155710829
 20
-28.06841561171053
 30
0.0
 40
3.5
 41
0.0
 71
     2
 72
     1
  1
\A1;38.1 [1 1/2]
  7
SLDTEXTSTYLE0
 73
     1
 44
1.0
  0
POINT
  5
2A9
330
2A0
100
AcDbEntity
  8
Defpoints
 62
     0
100
AcDbPoint
 10
188.9871155710829
 20
-48.49570760529338
 30
0.0
  0
POINT
  5
2AA
330
2A0
100
AcDbEntity
  8
Defpoints
 62
     0
100
AcDbPoint
 10
150.8871155710829
 20
-48.8132973212728
 30
0.0
  0
POINT
  5
2AB
330
2A0
100
AcDbEntity
  8
Defpoints
 62
     0
100
AcDbPoint
 10
150.8871155710829
 20
-32.44341561171053
 30
0.0
  0
ENDBLK
  5
2A2
330
2A0
100
AcDbEntity
  8
0
100
AcDbBlockEnd
  0
BLOCK
  5
2AD
330
2AC
100
AcDbEntity
  8
0
100
AcDbBlockBegin
  2
*D14
 70
     1
 10
0.0
 20
0.0
 30
0.0
  3
*D14
  1

  0
LINE
  5
2AF
330
2AC
100
AcDbEntity
  8
치수문자_일반주서
 62
     0
370
    -2
100
AcDbLine
 10
87.82461557108289
 20
-48.44306871538626
 30
0.0
 11
77.38711557108287
 21
-48.4430687153863
 31
0.0
  0
LINE
  5
2B0
330
2AC
100
AcDbEntity
  8
치수문자_일반주서
 62
     0
370
    -2
100
AcDbLine
 10
87.82461557108289
 20
-67.49306871538626
 30
0.0
 11
77.38711557108294
 21
-67.4930687153863
 31
0.0
  0
LINE
  5
2B1
330
2AC
100
AcDbEntity
  8
치수문자_일반주서
 62
     0
370
    -2
100
AcDbLine
 10
77.38711557108289
 20
-51.7450687153863
 30
0.0
 11
77.38711557108293
 21
-64.1910687153863
 31
0.0
  0
SOLID
  5
2B2
330
2AC
100
AcDbEntity
  8
치수문자_일반주서
 62
     0
100
AcDbTrace
 10
77.93744890441621
 20
-51.7450687153863
 30
0.0
 11
76.83678223774956
 21
-51.7450687153863
 31
0.0
 12
77.38711557108287
 22
-48.4430687153863
 32
0.0
 13
77.38711557108287
 23
-48.4430687153863
 33
0.0
  0
SOLID
  5
2B3
330
2AC
100
AcDbEntity
  8
치수문자_일반주서
 62
     0
100
AcDbTrace
 10
76.8367822377496
 20
-64.1910687153863
 30
0.0
 11
77.93744890441626
 21
-64.1910687153863
 31
0.0
 12
77.38711557108294
 22
-67.4930687153863
 32
0.0
 13
77.38711557108294
 23
-67.4930687153863
 33
0.0
  0
MTEXT
  5
2B4
330
2AC
100
AcDbEntity
  8
치수문자_일반주서
 62
     0
100
AcDbMText
 10
73.0121155710829
 20
-57.96806871538622
 30
0.0
 40
3.5
 41
0.0
 71
     2
 72
     1
  1
\A1;%%c19.05 [3/4]
  7
SLDTEXTSTYLE0
 11
-3.729883127349608E-15
 21
1.0
 31
0.0
 73
     1
 44
1.0
  0
POINT
  5
2B5
330
2AC
100
AcDbEntity
  8
Defpoints
 62
     0
100
AcDbPoint
 10
87.88711557108289
 20
-48.44306871538626
 30
0.0
  0
POINT
  5
2B6
330
2AC
100
AcDbEntity
  8
Defpoints
 62
     0
100
AcDbPoint
 10
87.88711557108289
 20
-67.49306871538626
 30
0.0
  0
POINT
  5
2B7
330
2AC
100
AcDbEntity
  8
Defpoints
 62
     0
100
AcDbPoint
 10
77.38711557108293
 20
-67.4930687153863
 30
0.0
  0
ENDBLK
  5
2AE
330
2AC
100
AcDbEntity
  8
0
100
AcDbBlockEnd
  0
BLOCK
  5
2B9
330
2B8
100
AcDbEntity
  8
0
100
AcDbBlockBegin
  2
*D15
 70
     1
 10
0.0
 20
0.0
 30
0.0
  3
*D15
  1

  0
LINE
  5
2BB
330
2B8
100
AcDbEntity
  8
치수문자_일반주서
 62
     0
370
    -2
100
AcDbLine
 10
188.1846974555141
 20
-67.49306871538626
 30
0.0
 11
201.409927858389
 21
-67.49306871538622
 31
0.0
  0
LINE
  5
2BC
330
2B8
100
AcDbEntity
  8
치수문자_일반주서
 62
     0
370
    -2
100
AcDbLine
 10
188.1846974555141
 20
-48.44306871538625
 30
0.0
 11
201.409927858389
 21
-48.44306871538621
 31
0.0
  0
LINE
  5
2BD
330
2B8
100
AcDbEntity
  8
치수문자_일반주서
 62
     0
370
    -2
100
AcDbLine
 10
201.409927858389
 20
-64.19106871538621
 30
0.0
 11
201.409927858389
 21
-51.74506871538621
 31
0.0
  0
SOLID
  5
2BE
330
2B8
100
AcDbEntity
  8
치수문자_일반주서
 62
     0
100
AcDbTrace
 10
200.8595945250557
 20
-64.19106871538621
 30
0.0
 11
201.9602611917223
 21
-64.19106871538621
 31
0.0
 12
201.409927858389
 22
-67.49306871538622
 32
0.0
 13
201.409927858389
 23
-67.49306871538622
 33
0.0
  0
SOLID
  5
2BF
330
2B8
100
AcDbEntity
  8
치수문자_일반주서
 62
     0
100
AcDbTrace
 10
201.9602611917223
 20
-51.74506871538621
 30
0.0
 11
200.8595945250556
 21
-51.74506871538621
 31
0.0
 12
201.409927858389
 22
-48.44306871538621
 32
0.0
 13
201.409927858389
 23
-48.44306871538621
 33
0.0
  0
MTEXT
  5
2C0
330
2B8
100
AcDbEntity
  8
치수문자_일반주서
 62
     0
100
AcDbMText
 10
197.034927858389
 20
-57.96806871538627
 30
0.0
 40
3.5
 41
0.0
 71
     2
 72
     1
  1
\A1;%%c19.05 [3/4]
  7
SLDTEXTSTYLE0
 11
-2.983906501879684E-15
 21
1.0
 31
0.0
 73
     1
 44
1.0
  0
POINT
  5
2C1
330
2B8
100
AcDbEntity
  8
Defpoints
 62
     0
100
AcDbPoint
 10
188.1221974555141
 20
-67.49306871538626
 30
0.0
  0
POINT
  5
2C2
330
2B8
100
AcDbEntity
  8
Defpoints
 62
     0
100
AcDbPoint
 10
188.1221974555141
 20
-48.44306871538625
 30
0.0
  0
POINT
  5
2C3
330
2B8
100
AcDbEntity
  8
Defpoints
 62
     0
100
AcDbPoint
 10
201.4099278583889
 20
-48.4430687153862
 30
0.0
  0
ENDBLK
  5
2BA
330
2B8
100
AcDbEntity
  8
0
100
AcDbBlockEnd
  0
ENDSEC
  0
SECTION
  2
ENTITIES
  0
LINE
  5
99
330
1F
100
AcDbEntity
  8
0
  6
Continuous
 62
     4
370
    25
100
AcDbLine
 10
6.950275800350309
 20
9.526074928723894
 30
0.0
 11
-20.00692500000002
 21
9.526074928723892
 31
0.0
  0
LINE
  5
9A
330
1F
100
AcDbEntity
  8
0
  6
Continuous
 62
     4
370
    25
100
AcDbLine
 10
-52.50000000000001
 20
-9.52392507127611
 30
0.0
 11
6.950275800350306
 21
-9.523925071276107
 31
0.0
  0
LINE
  5
9B
330
1F
100
AcDbEntity
  8
0
  6
Continuous
 62
     4
370
    25
100
AcDbLine
 10
-52.50000000000001
 20
9.526074928723887
 30
0.0
 11
-53.50000000000001
 21
8.526074928723888
 31
0.0
  0
LINE
  5
9C
330
1F
100
AcDbEntity
  8
0
  6
Continuous
 62
     4
370
    25
100
AcDbLine
 10
-53.50000000000001
 20
-8.523925071276109
 30
0.0
 11
-52.50000000000001
 21
-9.523925071276107
 31
0.0
  0
ARC
  5
9D
330
1F
100
AcDbEntity
  8
0
  6
Continuous
 62
     4
370
    25
100
AcDbCircle
 10
7.902775800350304
 20
-7.799541759407188
 30
0.0
 40
0.9525000000000003
100
AcDbArc
 50
102.7579356746172
 51
159.4346719629549
  0
SPLINE
  5
9E
330
1F
100
AcDbEntity
  8
0
  6
Continuous
 62
     4
370
    25
100
AcDbSpline
210
0.0
220
0.0
230
1.0
 70
     8
 71
     3
 72
     9
 73
     5
 74
     0
 42
0.000000001
 43
0.00000001
 40
0.0
 40
0.0
 40
0.0
 40
0.0
 40
0.3326985748470996
 40
1.0
 40
1.0
 40
1.0
 40
1.0
 10
7.719264563637652
 20
-6.847145915891175
 30
0.0
 10
7.970883146727307
 20
-6.794512520285282
 30
0.0
 10
8.727179091804
 20
-6.636311074336553
 30
0.0
 10
9.490580891259794
 20
-6.527251898669736
 30
0.0
 10
10.00000000000093
 20
-6.454476555321266
 30
0.0
  0
SPLINE
  5
9F
330
1F
100
AcDbEntity
  8
0
  6
Continuous
 62
     4
370
    25
100
AcDbSpline
210
0.0
220
0.0
230
1.0
 70
     8
 71
     3
 72
     9
 73
     5
 74
     0
 42
0.000000001
 43
0.00000001
 40
0.0
 40
0.0
 40
0.0
 40
0.0
 40
0.4985247816188
 40
1.0
 40
1.0
 40
1.0
 40
1.0
 10
10.00000000000093
 20
6.456626412769053
 30
0.0
 10
9.490847656627007
 20
6.531246637123823
 30
0.0
 10
8.46952963564395
 20
6.680928713333687
 30
0.0
 10
7.457723171415815
 20
6.896390281764345
 30
0.0
 10
6.950327303807502
 20
7.004438918845866
 30
0.0
  0
SPLINE
  5
A0
330
1F
100
AcDbEntity
  8
0
  6
Continuous
 62
     1
370
    25
100
AcDbSpline
210
0.0
220
0.0
230
1.0
 70
     8
 71
     3
 72
    10
 73
     6
 74
     0
 42
0.000000001
 43
0.00000001
 40
0.0
 40
0.0
 40
0.0
 40
0.0
 40
0.4986084808761478
 40
0.686370282973484
 40
1.0
 40
1.0
 40
1.0
 40
1.0
 10
33.85166180615336
 20
2.442099438446784
 30
0.0
 10
33.59866477362654
 20
2.651408052879275
 30
0.0
 10
33.25039623936142
 20
2.939536350786227
 30
0.0
 10
32.74323064578424
 20
3.386105718174885
 30
0.0
 10
32.48780801259868
 20
3.618101721601251
 30
0.0
 10
32.32803640675233
 20
3.76321953498796
 30
0.0
  0
LINE
  5
A1
330
1F
100
AcDbEntity
  8
0
  6
Continuous
 62
     1
370
    25
100
AcDbLine
 10
21.23400080909671
 20
9.526074928723897
 30
0.0
 11
18.56743086131939
 21
9.526074928723897
 31
0.0
  0
LINE
  5
A2
330
1F
100
AcDbEntity
  8
0
  6
Continuous
 62
     1
370
    25
100
AcDbLine
 10
18.5674308613194
 20
-9.52392507127611
 30
0.0
 11
21.23400080909671
 21
-9.52392507127611
 31
0.0
  0
SPLINE
  5
A3
330
1F
100
AcDbEntity
  8
0
  6
Continuous
 62
     1
370
    25
100
AcDbSpline
210
0.0
220
0.0
230
1.0
 70
     8
 71
     3
 72
    16
 73
    12
 74
     0
 42
0.000000001
 43
0.00000001
 40
0.0
 40
0.0
 40
0.0
 40
0.0
 40
0.1941720139669036
 40
0.3522959434866412
 40
0.4783096698708971
 40
0.5808812543787809
 40
0.6641828517565965
 40
0.7295639255449898
 40
0.8001341023675773
 40
0.9036991479347433
 40
1.0
 40
1.0
 40
1.0
 40
1.0
 10
32.03476951006986
 20
7.570010962297178
 30
0.0
 10
31.76698852660371
 20
7.546819357268798
 30
0.0
 10
31.28114016828124
 20
7.504741674663954
 30
0.0
 10
30.58350776807984
 20
7.464786951500987
 30
0.0
 10
29.9784927638182
 20
7.446481071122559
 30
0.0
 10
29.48825890817601
 20
7.439814079517732
 30
0.0
 10
29.09553923302878
 20
7.43907775190234
 30
0.0
 10
28.76840086320921
 20
7.442612886213988
 30
0.0
 10
28.42626052908669
 20
7.449888851169704
 30
0.0
 10
28.02139796817299
 20
7.462497768114085
 30
0.0
 10
27.72228616279208
 20
7.478633303519045
 30
0.0
 10
27.57816591985832
 20
7.4864078454816
 30
0.0
  0
SPLINE
  5
A4
330
1F
100
AcDbEntity
  8
0
  6
Continuous
 62
     1
370
    25
100
AcDbSpline
210
0.0
220
0.0
230
1.0
 70
     8
 71
     3
 72
    25
 73
    21
 74
     0
 42
0.000000001
 43
0.00000001
 40
0.0
 40
0.0
 40
0.0
 40
0.0
 40
0.0496213043095171
 40
0.093306880058656
 40
0.1316407302373808
 40
0.1659869383864845
 40
0.2197224060798303
 40
0.2676130018378585
 40
0.30813300674357
 40
0.3486357127468914
 40
0.4295496596358367
 40
0.5189257462930795
 40
0.5740574536983691
 40
0.6116247073872514
 40
0.6464295994259235
 40
0.6907742841395366
 40
0.7453771335296635
 40
0.8124591480647826
 40
0.8966346743566441
 40
1.0
 40
1.0
 40
1.0
 40
1.0
 10
23.76435444617414
 20
-7.925029498925874
 30
0.0
 10
23.86927737022651
 20
-7.906641647704584
 30
0.0
 10
24.06657227865722
 20
-7.872065510452332
 30
0.0
 10
24.37928078967193
 20
-7.817709793189
 30
0.0
 10
24.68253447868044
 20
-7.768922650643606
 30
0.0
 10
25.04507478306191
 20
-7.717436802800925
 30
0.0
 10
25.44554705068207
 20
-7.67209357483133
 30
0.0
 10
25.85768462339272
 20
-7.625808902416049
 30
0.0
 10
26.23913142785721
 20
-7.585884951289313
 30
0.0
 10
26.68470905826536
 20
-7.544332935501119
 30
0.0
 10
27.28153003700679
 20
-7.498118497528861
 30
0.0
 10
27.91405925816706
 20
-7.464504977039325
 30
0.0
 10
28.4262825378363
 20
-7.447626138815274
 30
0.0
 10
28.76839638550534
 20
-7.440485989218744
 30
0.0
 10
29.09554074460247
 20
-7.436920143514175
 30
0.0
 10
29.48825835140465
 20
-7.437667077042722
 30
0.0
 10
29.97849296572232
 20
-7.444330178365129
 30
0.0
 10
30.58350769339395
 20
-7.462637477022233
 30
0.0
 10
31.28114019413404
 20
-7.502591684649978
 30
0.0
 10
31.76698853578978
 20
-7.544669452717345
 30
0.0
 10
32.03476951006986
 20
-7.567861104849388
 30
0.0
  0
SPLINE
  5
A5
330
1F
100
AcDbEntity
  8
0
  6
Continuous
 62
     1
370
    25
100
AcDbSpline
210
0.0
220
0.0
230
1.0
 70
     8
 71
     3
 72
    16
 73
    12
 74
     0
 42
0.000000001
 43
0.00000001
 40
0.0
 40
0.0
 40
0.0
 40
0.0
 40
0.1823841237764758
 40
0.3057963013879125
 40
0.3823717293960797
 40
0.4679089912320402
 40
0.6315530842439341
 40
0.7811281007597892
 40
0.8892766344200357
 40
0.9804499315243187
 40
1.0
 40
1.0
 40
1.0
 40
1.0
 10
36.44992080124801
 20
-7.163019256180577
 30
0.0
 10
36.69621164391911
 20
-7.097872091571598
 30
0.0
 10
37.10915783240883
 20
-6.988642397830541
 30
0.0
 10
37.6243316010263
 20
-6.867452286432559
 30
0.0
 10
38.0225109166289
 20
-6.780359289183221
 30
0.0
 10
38.47201736068559
 20
-6.68842972791338
 30
0.0
 10
39.01654483062438
 20
-6.588788365102843
 30
0.0
 10
39.58935752766091
 20
-6.498728760428667
 30
0.0
 10
40.06369706743671
 20
-6.43617108180743
 30
0.0
 10
40.36215006651319
 20
-6.40046121147931
 30
0.0
 10
40.51294066717497
 20
-6.386115387040436
 30
0.0
 10
40.5395652784572
 20
-6.383582390968189
 30
0.0
  0
SPLINE
  5
A6
330
1F
100
AcDbEntity
  8
0
  6
Continuous
 62
     1
370
    25
100
AcDbSpline
210
0.0
220
0.0
230
1.0
 70
     8
 71
     3
 72
    18
 73
    14
 74
     0
 42
0.000000001
 43
0.00000001
 40
0.0
 40
0.0
 40
0.0
 40
0.0
 40
0.1452850443514744
 40
0.2654330586139974
 40
0.3589997213011253
 40
0.4553415573041972
 40
0.5360150385710155
 40
0.6058400797578861
 40
0.6615456444464701
 40
0.7241883520433636
 40
0.8032277296035832
 40
0.9168628173928481
 40
1.0
 40
1.0
 40
1.0
 40
1.0
 10
16.13234476520298
 20
6.515696609012406
 30
0.0
 10
15.84542848682128
 20
6.475853103432426
 30
0.0
 10
15.32123781270922
 20
6.403059763972013
 30
0.0
 10
14.60250681502855
 20
6.336167400741121
 30
0.0
 10
13.97334831568953
 20
6.294419496143436
 30
0.0
 10
13.38621794573726
 20
6.273165222000148
 30
0.0
 10
12.86601847677786
 20
6.267504248042593
 30
0.0
 10
12.4474585125588
 20
6.271899762705313
 30
0.0
 10
12.06173958000079
 20
6.282760367937755
 30
0.0
 10
11.65914429346019
 20
6.300928253349526
 30
0.0
 10
11.13820958298366
 20
6.335118985025707
 30
0.0
 10
10.57478784414419
 20
6.38554159755997
 30
0.0
 10
10.17148211326364
 20
6.436177711502963
 30
0.0
 10
10.00108360067251
 20
6.457571700823279
 30
0.0
  0
SPLINE
  5
A7
330
1F
100
AcDbEntity
  8
0
  6
Continuous
 62
     1
370
    25
100
AcDbSpline
210
0.0
220
0.0
230
1.0
 70
     8
 71
     3
 72
     9
 73
     5
 74
     0
 42
0.000000001
 43
0.00000001
 40
0.0
 40
0.0
 40
0.0
 40
0.0
 40
0.8153160157839523
 40
1.0
 40
1.0
 40
1.0
 40
1.0
 10
10.00108360067251
 20
-6.455421843375493
 30
0.0
 10
10.17157267168747
 20
-6.432890851463295
 30
0.0
 10
10.38068063438464
 20
-6.405256177942827
 30
0.0
 10
10.58901902993697
 20
-6.38669049419776
 30
0.0
 10
10.62749579489276
 20
-6.383261709754026
 30
0.0
  0
SPLINE
  5
A8
330
1F
100
AcDbEntity
  8
0
  6
Continuous
 62
     1
370
    25
100
AcDbSpline
210
0.0
220
0.0
230
1.0
 70
     8
 71
     3
 72
    25
 73
    21
 74
     0
 42
0.000000001
 43
0.00000001
 40
0.0
 40
0.0
 40
0.0
 40
0.0
 40
0.091953045879095
 40
0.1686517802760872
 40
0.2323147780751881
 40
0.2854752458157814
 40
0.3283472220646143
 40
0.3708749900292995
 40
0.4249475124477378
 40
0.4868822562131395
 40
0.5532059516895428
 40
0.6063015126312729
 40
0.6604490657290695
 40
0.7309863150668467
 40
0.7736540286732893
 40
0.812046170281257
 40
0.8444507037288571
 40
0.875975545277655
 40
0.9270690801243574
 40
1.0
 40
1.0
 40
1.0
 40
1.0
 10
46.05623652032531
 20
6.515729757830286
 30
0.0
 10
45.80543558610088
 20
6.479559009224697
 30
0.0
 10
45.34543968659072
 20
6.413217964314965
 30
0.0
 10
44.62551513944624
 20
6.33787218336447
 30
0.0
 10
43.95178533006504
 20
6.296762333479124
 30
0.0
 10
43.39055831599806
 20
6.276067938573981
 30
0.0
 10
42.92636007016619
 20
6.268286705154848
 30
0.0
 10
42.49347573325738
 20
6.269495733822256
 30
0.0
 10
41.9788149890935
 20
6.281521142164865
 30
0.0
 10
41.39488782889093
 20
6.31079930219678
 30
0.0
 10
40.81121828284874
 20
6.356318776912835
 30
0.0
 10
40.25212588129298
 20
6.414481537737437
 30
0.0
 10
39.68019453247285
 20
6.487349743201987
 30
0.0
 10
39.14271485638766
 20
6.570464652681809
 30
0.0
 10
38.65411718899361
 20
6.656981752874387
 30
0.0
 10
38.28610617302017
 20
6.728200854855701
 30
0.0
 10
37.95127802918604
 20
6.797773494804624
 30
0.0
 10
37.57354573256667
 20
6.88130984545688
 30
0.0
 10
37.07867553868297
 20
6.998629348028124
 30
0.0
 10
36.68274339606624
 20
7.103500838132506
 30
0.0
 10
36.44992080124801
 20
7.16516911362837
 30
0.0
  0
SPLINE
  5
A9
330
1F
100
AcDbEntity
  8
0
  6
Continuous
 62
     4
370
    25
100
AcDbSpline
210
0.0
220
0.0
230
1.0
 70
     8
 71
     3
 72
    14
 73
    10
 74
     0
 42
0.000000001
 43
0.00000001
 40
0.0
 40
0.0
 40
0.0
 40
0.0
 40
0.25
 40
0.25
 40
0.5
 40
0.5
 40
0.75
 40
0.75
 40
1.0
 40
1.0
 40
1.0
 40
1.0
 10
10.00000000000011
 20
-3.633803705004163
 30
0.0
 10
9.74587545434964
 20
-3.398778848924022
 30
0.0
 10
9.493687520826743
 20
-3.160476274936268
 30
0.0
 10
8.98535797809165
 20
-2.676393034360342
 30
0.0
 10
8.730099221173123
 20
-2.430878480165412
 30
0.0
 10
8.219846757005696
 20
-1.935244606641881
 30
0.0
 10
7.964855677906689
 20
-1.685127851002875
 30
0.0
 10
7.457588301807816
 20
-1.182720846052917
 30
0.0
 10
7.205010184751782
 20
-0.9303358435813548
 30
0.0
 10
6.950459287472126
 20
-0.6765710641137178
 30
0.0
  0
LINE
  5
AA
330
1F
100
AcDbEntity
  8
0
  6
Continuous
 62
     4
370
    25
100
AcDbLine
 10
9.99999999999999
 20
-3.633803705004054
 30
0.0
 11
9.999999999999991
 21
-5.923968170718219
 31
0.0
  0
SPLINE
  5
AB
330
1F
100
AcDbEntity
  8
0
  6
Continuous
 62
     4
370
    25
100
AcDbSpline
210
0.0
220
0.0
230
1.0
 70
     8
 71
     3
 72
    14
 73
    10
 74
     0
 42
0.000000001
 43
0.00000001
 40
0.0
 40
0.0
 40
0.0
 40
0.0
 40
0.25
 40
0.25
 40
0.5
 40
0.5
 40
0.75
 40
0.75
 40
1.0
 40
1.0
 40
1.0
 40
1.0
 10
10.00000000000011
 20
-5.923968170718313
 30
0.0
 10
9.745860189378883
 20
-5.724870895381175
 30
0.0
 10
9.493657117279284
 20
-5.519963044355941
 30
0.0
 10
8.985296777293025
 20
-5.097731955087893
 30
0.0
 10
8.730022563381786
 20
-4.880627590223177
 30
0.0
 10
8.21973951311759
 20
-4.436489646004751
 30
0.0
 10
7.964733305700658
 20
-4.209458377484076
 30
0.0
 10
7.45743643553882
 20
-3.747707297493213
 30
0.0
 10
7.204842396771618
 20
-3.512910496667053
 30
0.0
 10
6.950275800350313
 20
-3.273998342765242
 30
0.0
  0
LINE
  5
AC
330
1F
100
AcDbEntity
  8
0
  6
Continuous
 62
     4
370
    25
100
AcDbLine
 10
6.950275800350302
 20
-9.523925071276107
 30
0.0
 11
6.950275800350313
 21
-3.273997976284803
 31
0.0
  0
LINE
  5
AD
330
1F
100
AcDbEntity
  8
0
  6
Continuous
 62
     4
370
    25
100
AcDbLine
 10
-52.50000000000001
 20
9.526074928723887
 30
0.0
 11
-52.50000000000001
 21
-9.523925071276116
 31
0.0
  0
LINE
  5
AE
330
1F
100
AcDbEntity
  8
0
  6
Continuous
 62
     4
370
    25
100
AcDbLine
 10
6.950275800350309
 20
-0.6761638831785415
 30
0.0
 11
6.950275800350302
 21
9.526074928723894
 31
0.0
  0
LINE
  5
AF
330
1F
100
AcDbEntity
  8
0
  6
Continuous
 62
     4
370
    25
100
AcDbLine
 10
-53.50000000000001
 20
8.526074928723888
 30
0.0
 11
-53.50000000000001
 21
-8.523925071276098
 31
0.0
  0
SPLINE
  5
B0
330
1F
100
AcDbEntity
  8
0
  6
Continuous
 62
     4
370
    25
100
AcDbSpline
210
0.0
220
0.0
230
1.0
 70
    24
 71
     3
 72
     8
 73
     4
 74
     0
 42
0.000000001
 43
0.00000001
 40
0.0
 40
0.0
 40
0.0
 40
0.0
 40
1.0
 40
1.0
 40
1.0
 40
1.0
 10
9.99999999999999
 20
-2.631907527788264
 30
0.0
 10
9.99999999999999
 20
-2.933526460500366
 30
0.0
 10
9.99999999999999
 20
-3.269494727140299
 30
0.0
 10
9.99999999999999
 20
-3.633803704997458
 30
0.0
  0
SPLINE
  5
B1
330
1F
100
AcDbEntity
  8
0
  6
Continuous
 62
     4
370
    25
100
AcDbSpline
210
0.0
220
0.0
230
1.0
 70
     8
 71
     3
 72
    14
 73
    10
 74
     0
 42
0.000000001
 43
0.00000001
 40
0.0
 40
0.0
 40
0.0
 40
0.0
 40
0.2499999999999999
 40
0.2499999999999999
 40
0.4999999999999999
 40
0.4999999999999999
 40
0.7499999999999999
 40
0.7499999999999999
 40
1.0
 40
1.0
 40
1.0
 40
1.0
 10
10.0000000000014
 20
-2.631907527789395
 30
0.0
 10
9.745875454350818
 20
-2.427528516682827
 30
0.0
 10
9.49368752082782
 20
-2.220861865663388
 30
0.0
 10
8.985357978092516
 20
-1.802153290211703
 30
0.0
 10
8.730099221173878
 20
-1.590344002616065
 30
0.0
 10
8.219846757006234
 20
-1.163839219825259
 30
0.0
 10
7.964855677907115
 20
-0.9491459283476582
 30
0.0
 10
7.457588301808026
 20
-0.5189538554798161
 30
0.0
 10
7.205010184751889
 20
-0.303371980340306
 30
0.0
 10
6.950459287472126
 20
-0.0871367939312826
 30
0.0
  0
SPLINE
  5
B2
330
1F
100
AcDbEntity
  8
0
  6
Continuous
 62
     4
370
    25
100
AcDbSpline
210
0.0
220
0.0
230
1.0
 70
     8
 71
     3
 72
    14
 73
    10
 74
     0
 42
0.000000001
 43
0.00000001
 40
0.0
 40
0.0
 40
0.0
 40
0.0
 40
0.2500000000000001
 40
0.2500000000000001
 40
0.5000000000000002
 40
0.5000000000000002
 40
0.7500000000000001
 40
0.7500000000000001
 40
1.0
 40
1.0
 40
1.0
 40
1.0
 10
10.00000000000061
 20
5.767469230100214
 30
0.0
 10
9.745866512920488
 20
5.90044775057516
 30
0.0
 10
9.493669712005058
 20
6.026942371858413
 30
0.0
 10
8.985322129836215
 20
6.267450941674584
 30
0.0
 10
8.730054319011177
 20
6.381296169932826
 30
0.0
 10
8.21978393908206
 20
6.595022321748511
 30
0.0
 10
7.964783998588325
 20
6.694902175210736
 30
0.0
 10
7.457499346360932
 20
6.879818789583896
 30
0.0
 10
7.204911903286258
 20
6.964919578430087
 30
0.0
 10
6.950351810250971
 20
7.042701537964712
 30
0.0
  0
SPLINE
  5
B3
330
1F
100
AcDbEntity
  8
0
  6
Continuous
 62
     4
370
    25
100
AcDbSpline
210
0.0
220
0.0
230
1.0
 70
    24
 71
     3
 72
    14
 73
    10
 74
     0
 42
0.000000001
 43
0.00000001
 40
0.0
 40
0.0
 40
0.0
 40
0.0
 40
0.25
 40
0.25
 40
0.5
 40
0.5
 40
0.75
 40
0.75
 40
1.0
 40
1.0
 40
1.0
 40
1.0
 10
9.99999999999999
 20
5.767469230100538
 30
0.0
 10
9.999999999999991
 20
5.226233556640304
 30
0.0
 10
9.999999999999993
 20
4.619332261197735
 30
0.0
 10
9.999999999999995
 20
3.304478649771436
 30
0.0
 10
9.999999999999995
 20
2.596771849158012
 30
0.0
 10
9.999999999999995
 20
1.128772655497649
 30
0.0
 10
9.999999999999995
 20
0.3689041760551078
 30
0.0
 10
9.999999999999993
 20
-1.147251349755091
 30
0.0
 10
9.999999999999991
 20
-1.90313436721414
 30
0.0
 10
9.99999999999999
 20
-2.631907527788265
 30
0.0
  0
SPLINE
  5
B4
330
1F
100
AcDbEntity
  8
0
  6
Continuous
 62
     4
370
    25
100
AcDbSpline
210
0.0
220
0.0
230
1.0
 70
     8
 71
     3
 72
     9
 73
     5
 74
     0
 42
0.000000001
 43
0.00000001
 40
0.0
 40
0.0
 40
0.0
 40
0.0
 40
0.8412933716598354
 40
1.0
 40
1.0
 40
1.0
 40
1.0
 10
7.716012216842834
 20
-6.830954724045092
 30
0.0
 10
7.708570493385223
 20
-6.853178638000769
 30
0.0
 10
7.699724918573516
 20
-6.879595004400794
 30
0.0
 10
7.692041098735216
 20
-6.866142258232008
 30
0.0
 10
7.690821625595905
 20
-6.864007218245646
 30
0.0
  0
SPLINE
  5
B5
330
1F
100
AcDbEntity
  8
0
  6
Continuous
 62
     4
370
    25
100
AcDbSpline
210
0.0
220
0.0
230
1.0
 70
    24
 71
     3
 72
    11
 73
     7
 74
     0
 42
0.000000001
 43
0.00000001
 40
0.0
 40
0.0
 40
0.0
 40
0.0
 40
0.2387453555722764
 40
0.5122473088086477
 40
0.7936950855345078
 40
1.0
 40
1.0
 40
1.0
 40
1.0
 10
9.999999999999988
 20
-5.995739952285363
 30
0.0
 10
9.999999999999988
 20
-6.066190133339057
 30
0.0
 10
9.99999999999999
 20
-6.217346647204359
 30
0.0
 10
9.999999999999988
 20
-6.362871402685603
 30
0.0
 10
9.999999999999988
 20
-6.449736093692992
 30
0.0
 10
9.99999999999999
 20
-6.447770212457924
 30
0.0
 10
9.999999999999988
 20
-6.446938703032401
 30
0.0
  0
SPLINE
  5
B6
330
1F
100
AcDbEntity
  8
0
  6
Continuous
 62
     4
370
    25
100
AcDbSpline
210
0.0
220
0.0
230
1.0
 70
    24
 71
     3
 72
    11
 73
     7
 74
     0
 42
0.000000001
 43
0.00000001
 40
0.0
 40
0.0
 40
0.0
 40
0.0
 40
0.0640514475656203
 40
0.3757099594749027
 40
0.6883414880907176
 40
1.0
 40
1.0
 40
1.0
 40
1.0
 10
9.999999999999988
 20
6.449088560480187
 30
0.0
 10
9.999999999999988
 20
6.450625678877288
 30
0.0
 10
9.999999999999988
 20
6.459642035456766
 30
0.0
 10
9.999999999999988
 20
6.364890636161452
 30
0.0
 10
9.999999999999988
 20
6.148840074001442
 30
0.0
 10
9.999999999999988
 20
5.894460686400776
 30
0.0
 10
9.999999999999988
 20
5.767469230100535
 30
0.0
  0
SPLINE
  5
B7
330
1F
100
AcDbEntity
  8
0
  6
Continuous
 62
     1
370
    25
100
AcDbSpline
210
0.0
220
0.0
230
1.0
 70
     8
 71
     3
 72
    26
 73
    22
 74
     0
 42
0.000000001
 43
0.00000001
 40
0.0
 40
0.0
 40
0.0
 40
0.0
 40
0.0547301970533263
 40
0.1093869369730014
 40
0.1640925814180599
 40
0.2188443604753143
 40
0.273506051259479
 40
0.3281920536009474
 40
0.3829545627002924
 40
0.4376261511232314
 40
0.4922974380644332
 40
0.5470598140985088
 40
0.6017462387604234
 40
0.6564077491504837
 40
0.7111591291501727
 40
0.765865316405939
 40
0.8205219971681602
 40
0.8752515343022124
 40
0.9299823894928961
 40
0.9846391915406466
 40
1.0
 40
1.0
 40
1.0
 40
1.0
 10
48.09999999999999
 20
-9.037586850709948
 30
0.0
 10
47.60964946727402
 20
-8.862308611643668
 30
0.0
 10
46.62960653474608
 20
-8.511987386401218
 30
0.0
 10
45.16119554081104
 20
-7.725875099741858
 30
0.0
 10
43.69146668263379
 20
-6.771936611411322
 30
0.0
 10
42.22048121053757
 20
-5.653926499372329
 30
0.0
 10
40.75193035307748
 20
-4.401023476835106
 30
0.0
 10
39.2827233285359
 20
-3.043498262082457
 30
0.0
 10
37.81144574249117
 20
-1.615558808642356
 30
0.0
 10
36.34262521740893
 20
-0.1470650239347621
 30
0.0
 10
34.87381282783374
 20
1.324953398921757
 30
0.0
 10
33.40253887226374
 20
2.763380660424696
 30
0.0
 10
31.93332055285144
 20
4.138014107705884
 30
0.0
 10
30.46477478497313
 20
5.414671444318659
 30
0.0
 10
28.99379981797244
 20
6.560943453197146
 30
0.0
 10
27.5240579279837
 20
7.552669213360769
 30
0.0
 10
26.05564368587661
 20
8.364146043740552
 30
0.0
 10
24.58528715894513
 20
8.980733440099252
 30
0.0
 10
23.11480555395609
 20
9.366943590687862
 30
0.0
 10
21.99867045401239
 20
9.540407346597942
 30
0.0
 10
21.37157590233949
 20
9.509889764566571
 30
0.0
 10
21.23400080909671
 20
9.503194667021377
 30
0.0
  0
SPLINE
  5
B8
330
1F
100
AcDbEntity
  8
0
  6
Continuous
 62
     1
370
    25
100
AcDbSpline
210
0.0
220
0.0
230
1.0
 70
     8
 71
     3
 72
    16
 73
    12
 74
     0
 42
0.000000001
 43
0.00000001
 40
0.0
 40
0.0
 40
0.0
 40
0.0
 40
0.1202450037516647
 40
0.2403935607851451
 40
0.3605087008731699
 40
0.480653746324457
 40
0.6008917576297806
 40
0.7211434566215406
 40
0.8412957194983725
 40
0.9614110547498754
 40
1.0
 40
1.0
 40
1.0
 40
1.0
 10
48.09999999999999
 20
-7.513885889383362
 30
0.0
 10
47.52798762274546
 20
-7.309609380578714
 30
0.0
 10
46.38442167080466
 20
-6.901220210100373
 30
0.0
 10
44.67023449426632
 20
-6.000215118000978
 30
0.0
 10
42.95663191219619
 20
-4.922884587846533
 30
0.0
 10
41.24250602115941
 20
-3.681449631043954
 30
0.0
 10
39.52701734521545
 20
-2.32292103189776
 30
0.0
 10
37.81135724917004
 20
-0.8874991125307489
 30
0.0
 10
36.09708832879662
 20
0.5710289333749496
 30
0.0
 10
34.77128687345543
 20
1.702350726005868
 30
0.0
 10
34.0166202496562
 20
2.302821773701254
 30
0.0
 10
33.83312306271305
 20
2.448826306852864
 30
0.0
  0
LINE
  5
B9
330
1F
100
AcDbEntity
  8
0
  6
Continuous
 62
     1
370
    25
100
AcDbLine
 10
48.0999999999997
 20
-9.037586850709951
 30
0.0
 11
48.09999999999999
 21
-7.513885889383361
 31
0.0
  0
SPLINE
  5
BA
330
1F
100
AcDbEntity
  8
0
  6
Continuous
 62
     1
370
    25
100
AcDbSpline
210
0.0
220
0.0
230
1.0
 70
     8
 71
     3
 72
    33
 73
    29
 74
     0
 42
0.000000001
 43
0.00000001
 40
0.0
 40
0.0
 40
0.0
 40
0.0
 40
0.0219256526090886
 40
0.0605261055617473
 40
0.09911775493033
 40
0.1377779062646317
 40
0.1763843257061525
 40
0.2155747985056839
 40
0.2548300158437949
 40
0.2940514631297758
 40
0.3332382956588112
 40
0.3724782345388726
 40
0.411717198427458
 40
0.4509039412163185
 40
0.4901261894436362
 40
0.5293808212121919
 40
0.5685710248653686
 40
0.607779100134072
 40
0.6470416209699146
 40
0.6862388332318154
 40
0.7254362685277435
 40
0.7646988878210869
 40
0.8039066506462053
 40
0.8430969877396449
 40
0.8823519147783847
 40
0.9215737614104256
 40
0.9607605479355217
 40
1.0
 40
1.0
 40
1.0
 40
1.0
 10
10.62749579489276
 20
6.385411567201814
 30
0.0
 10
10.9015539043644
 20
6.590575432741543
 30
0.0
 10
11.65809558454487
 20
7.156933479387154
 30
0.0
 10
12.89560968174837
 20
7.912365287977476
 30
0.0
 10
14.34170454294854
 20
8.638790023368388
 30
0.0
 10
15.79039033167945
 20
9.158386768769867
 30
0.0
 10
17.24454199103868
 20
9.47126370414023
 30
0.0
 10
18.70560714866348
 20
9.562893827644547
 30
0.0
 10
20.17660900932399
 20
9.428021928534951
 30
0.0
 10
21.64632992775795
 20
9.069157122892678
 30
0.0
 10
23.11474931037893
 20
8.494350660032078
 30
0.0
 10
24.58516806510165
 20
7.718392744117184
 30
0.0
 10
26.0555493247792
 20
6.759241582325538
 30
0.0
 10
27.52396505273697
 20
5.638390758956721
 30
0.0
 10
28.99371521865604
 20
4.384232799217179
 30
0.0
 10
30.46469609526563
 20
3.027044626220178
 30
0.0
 10
31.93324840087247
 20
1.596021018901087
 30
0.0
 10
33.40247347919005
 20
0.1275164665707945
 30
0.0
 10
34.87375391672763
 20
-1.342124282944351
 30
0.0
 10
36.34257271981512
 20
-2.78202658348803
 30
0.0
 10
37.81139991995556
 20
-4.155703204596658
 30
0.0
 10
39.28268409693528
 20
-5.428693051893674
 30
0.0
 10
40.75189754691074
 20
-6.574415406065479
 30
0.0
 10
42.22045500402429
 20
-7.563714066435356
 30
0.0
 10
43.691447094707
 20
-8.37321334609883
 30
0.0
 10
45.1611824237754
 20
-8.980154899453659
 30
0.0
 10
46.62959997841451
 20
-9.390025683032631
 30
0.0
 10
47.60964728255199
 20
-9.473906242477453
 30
0.0
 10
48.09999999999999
 20
-9.51587468633846
 30
0.0
  0
SPLINE
  5
BB
330
1F
100
AcDbEntity
  8
0
  6
Continuous
 62
     1
370
    25
100
AcDbSpline
210
0.0
220
0.0
230
1.0
 70
     8
 71
     3
 72
    19
 73
    15
 74
     0
 42
0.000000001
 43
0.00000001
 40
0.0
 40
0.0
 40
0.0
 40
0.0
 40
0.0032373480303081
 40
0.0968352631955731
 40
0.1905087339407898
 40
0.2842045181266358
 40
0.3778146376631866
 40
0.4713905999487424
 40
0.564985875272094
 40
0.6586537597198663
 40
0.7523538723086187
 40
0.8459674537639115
 40
0.939543911651481
 40
0.9999999999999999
 40
0.9999999999999999
 40
0.9999999999999999
 40
0.9999999999999999
 10
34.44283846420726
 20
-0.9084236225823753
 30
0.0
 10
34.42308013719179
 20
-0.8949460838395831
 30
0.0
 10
33.83207083607974
 20
-0.491807156801633
 30
0.0
 10
32.66931844507685
 20
0.3346938989221128
 30
0.0
 10
30.95395504903467
 20
1.524262009405813
 30
0.0
 10
29.23830005162319
 20
2.669165147939693
 30
0.0
 10
27.52392793910673
 20
3.727082727724401
 30
0.0
 10
25.81027599442667
 20
4.66463420621889
 30
0.0
 10
24.09621269555616
 20
5.451661674934872
 30
0.0
 10
22.38092295977511
 20
6.061835193516603
 30
0.0
 10
20.66521484815604
 20
6.478342604076785
 30
0.0
 10
18.95076770425582
 20
6.677175412345996
 30
0.0
 10
17.43937213476446
 20
6.690217938933917
 30
0.0
 10
16.49921308066293
 20
6.547173140645511
 30
0.0
 10
16.13021094296338
 20
6.491029623093935
 30
0.0
  0
LINE
  5
BC
330
1F
100
AcDbEntity
  8
0
  6
Continuous
 62
     1
370
    25
100
AcDbLine
 10
48.09999999999999
 20
-9.515874686338464
 30
0.0
 11
48.09999999999938
 21
-9.037586850709934
 31
0.0
  0
SPLINE
  5
BD
330
1F
100
AcDbEntity
  8
0
  6
Continuous
 62
     1
370
    25
100
AcDbSpline
210
0.0
220
0.0
230
1.0
 70
     8
 71
     3
 72
    20
 73
    16
 74
     0
 42
0.000000001
 43
0.00000001
 40
0.0
 40
0.0
 40
0.0
 40
0.0
 40
0.0029746044807649
 40
0.0865213117907382
 40
0.1701793853580134
 40
0.2538394736706061
 40
0.3373863663743225
 40
0.4210070930088742
 40
0.5046997650067769
 40
0.5882544107818174
 40
0.670565813859395
 40
0.7529917391472744
 40
0.8352716194385518
 40
0.9175702841661803
 40
1.0
 40
1.0
 40
1.0
 40
1.0
 10
27.57608653215586
 20
-7.485654993126785
 30
0.0
 10
27.55865859430509
 20
-7.497395637193845
 30
0.0
 10
27.05173807616346
 20
-7.838891769711283
 30
0.0
 10
26.05573150991275
 20
-8.350378716231635
 30
0.0
 10
24.58524987785805
 20
-8.979020678735422
 30
0.0
 10
23.11486675354549
 20
-9.374664517678386
 30
0.0
 10
21.64644637389226
 20
-9.553094949173358
 30
0.0
 10
20.17673348055275
 20
-9.502845164961835
 30
0.0
 10
18.70573816606327
 20
-9.22751732777808
 30
0.0
 10
17.2446680771116
 20
-8.734875981149225
 30
0.0
 10
15.79050170746589
 20
-8.04079033014325
 30
0.0
 10
14.34178123605031
 20
-7.166684833271605
 30
0.0
 10
12.89568643935951
 20
-6.124297197010546
 30
0.0
 10
11.44908497678177
 20
-4.946954601350179
 30
0.0
 10
10.48328444261712
 20
-4.071752761947688
 30
0.0
 10
9.999999999997064
 20
-3.63380370500135
 30
0.0
  0
SPLINE
  5
BE
330
1F
100
AcDbEntity
  8
0
  6
Continuous
 62
     4
370
    25
100
AcDbSpline
210
0.0
220
0.0
230
1.0
 70
    24
 71
     3
 72
     8
 73
     4
 74
     0
 42
0.000000001
 43
0.00000001
 40
0.0
 40
0.0
 40
0.0
 40
0.0
 40
1.0
 40
1.0
 40
1.0
 40
1.0
 10
9.999999999999996
 20
-2.63190752778827
 30
0.0
 10
9.999999999999996
 20
-2.933526460500373
 30
0.0
 10
9.999999999999996
 20
-3.26949472714031
 30
0.0
 10
9.999999999999996
 20
-3.633803704997472
 30
0.0
  0
SPLINE
  5
BF
330
1F
100
AcDbEntity
  8
0
  6
Continuous
 62
     1
370
    25
100
AcDbSpline
210
0.0
220
0.0
230
1.0
 70
     8
 71
     3
 72
    16
 73
    12
 74
     0
 42
0.000000001
 43
0.00000001
 40
0.0
 40
0.0
 40
0.0
 40
0.0
 40
0.1005323684165978
 40
0.2251792425167902
 40
0.349719907471671
 40
0.4742150244918998
 40
0.5987302136501133
 40
0.723330919254064
 40
0.8479822872776562
 40
0.9238745403238429
 40
1.0
 40
1.0
 40
1.0
 40
1.0
 10
23.76520772095667
 20
-7.904777080664674
 30
0.0
 10
23.30387765892157
 20
-7.976713138864413
 30
0.0
 10
22.27055918094829
 20
-8.137840419064709
 30
0.0
 10
20.66521825836826
 20
-8.07589486315441
 30
0.0
 10
18.95084359282507
 20
-7.777058169200194
 30
0.0
 10
17.23723554827261
 20
-7.219295510142356
 30
0.0
 10
15.52320110947599
 20
-6.430142348820824
 30
0.0
 10
13.80824631330681
 20
-5.432722010756498
 30
0.0
 10
12.31484110663016
 20
-4.41237287037233
 30
0.0
 10
11.04747635559474
 20
-3.462760488319086
 30
0.0
 10
10.34951569328792
 20
-2.909141612327945
 30
0.0
 10
10.0000000000014
 20
-2.631907527789396
 30
0.0
  0
SPLINE
  5
C0
330
1F
100
AcDbEntity
  8
0
  6
Continuous
 62
     1
370
    25
100
AcDbSpline
210
0.0
220
0.0
230
1.0
 70
     8
 71
     3
 72
    13
 73
     9
 74
     0
 42
0.000000001
 43
0.00000001
 40
0.0
 40
0.0
 40
0.0
 40
0.0
 40
0.1690997735489279
 40
0.3379306783020649
 40
0.5067230778836065
 40
0.6758150917951632
 40
0.844672092814943
 40
0.9999999999999999
 40
0.9999999999999999
 40
0.9999999999999999
 40
0.9999999999999999
 10
10.00000000000012
 20
-5.923968170718322
 30
0.0
 10
10.48327514151522
 20
-6.288625410451649
 30
0.0
 10
11.44905701662502
 20
-7.017360084571046
 30
0.0
 10
12.89563321944754
 20
-7.912636033234756
 30
0.0
 10
14.34169161389407
 20
-8.636814284485345
 30
0.0
 10
15.79041850343264
 20
-9.153110056656761
 30
0.0
 10
17.1985293409617
 20
-9.471133919933504
 30
0.0
 10
18.12400453052006
 20
-9.500321323298735
 30
0.0
 10
18.5674308613194
 20
-9.514305991203203
 30
0.0
  0
SPLINE
  5
C1
330
1F
100
AcDbEntity
  8
0
  6
Continuous
 62
     1
370
    25
100
AcDbSpline
210
0.0
220
0.0
230
1.0
 70
     8
 71
     3
 72
    13
 73
     9
 74
     0
 42
0.000000001
 43
0.00000001
 40
0.0
 40
0.0
 40
0.0
 40
0.0
 40
0.0279844596091273
 40
0.22224712488316
 40
0.4168299561943969
 40
0.6112488111673252
 40
0.8054938766215859
 40
1.0
 40
1.0
 40
1.0
 40
1.0
 10
40.54050193066574
 20
6.386459439199306
 30
0.0
 10
40.6110108811563
 20
6.441604056075518
 30
0.0
 10
41.17097922587096
 20
6.879551857273155
 30
0.0
 10
42.22038995942993
 20
7.55712673093427
 30
0.0
 10
43.6914645135957
 20
8.377703016607725
 30
0.0
 10
45.1611777852346
 20
8.981681679358745
 30
0.0
 10
46.62960113943538
 20
9.392331495998366
 30
0.0
 10
47.60964766973216
 20
9.47610810836574
 30
0.0
 10
48.09999999999999
 20
9.518024543786254
 30
0.0
  0
SPLINE
  5
C2
330
1F
100
AcDbEntity
  8
0
  6
Continuous
 62
     1
370
    25
100
AcDbSpline
210
0.0
220
0.0
230
1.0
 70
     8
 71
     3
 72
    15
 73
    11
 74
     0
 42
0.000000001
 43
0.00000001
 40
0.0
 40
0.0
 40
0.0
 40
0.0
 40
0.0129435813911723
 40
0.1678394143502637
 40
0.3228583396240179
 40
0.4778954051883895
 40
0.6328008042713165
 40
0.7876573000763916
 40
0.9425487366675045
 40
1.0
 40
1.0
 40
1.0
 40
1.0
 10
43.09999999999999
 20
3.820332728390279
 30
0.0
 10
43.05224746582922
 20
3.853237942251988
 30
0.0
 10
42.43304037570886
 20
4.279919836289915
 30
0.0
 10
41.24254534271425
 20
5.053220636710805
 30
0.0
 10
39.52697217566526
 20
6.002853155971976
 30
0.0
 10
37.81135323744357
 20
6.75745749642734
 30
0.0
 10
36.09708102878906
 20
7.298175396613242
 30
0.0
 10
34.38343825721357
 20
7.587027975743057
 30
0.0
 10
33.0292281042304
 20
7.66856711714146
 30
0.0
 10
32.2458011234415
 20
7.568416319236156
 30
0.0
 10
32.03383777461304
 20
7.541319603099987
 30
0.0
  0
SPLINE
  5
C3
330
1F
100
AcDbEntity
  8
0
  6
Continuous
 62
     1
370
    25
100
AcDbSpline
210
0.0
220
0.0
230
1.0
 70
    24
 71
     3
 72
     8
 73
     4
 74
     0
 42
0.000000001
 43
0.00000001
 40
0.0
 40
0.0
 40
0.0
 40
0.0
 40
1.0
 40
1.0
 40
1.0
 40
1.0
 10
43.09999999999999
 20
1.834784839967815
 30
0.0
 10
43.09999999999999
 20
2.525947940547773
 30
0.0
 10
43.09999999999999
 20
3.193467519352216
 30
0.0
 10
43.09999999999999
 20
3.82033272839028
 30
0.0
  0
SPLINE
  5
C4
330
1F
100
AcDbEntity
  8
0
  6
Continuous
 62
     1
370
    25
100
AcDbSpline
210
0.0
220
0.0
230
1.0
 70
     8
 71
     3
 72
    12
 73
     8
 74
     0
 42
0.000000001
 43
0.00000001
 40
0.0
 40
0.0
 40
0.0
 40
0.0
 40
0.5
 40
0.5
 40
0.75
 40
0.75
 40
1.0
 40
1.0
 40
1.0
 40
1.0
 10
48.09999999999999
 20
-2.544414132208473
 30
0.0
 10
47.24087526318955
 20
-1.867279834678621
 30
0.0
 10
46.39238695688949
 20
-1.163513899255649
 30
0.0
 10
45.13629642070018
 20
-0.0661967246377732
 30
0.0
 10
44.71927218818319
 20
0.3076500699370004
 30
0.0
 10
43.89666457882859
 20
1.066431095201104
 30
0.0
 10
43.4936986870141
 20
1.448898214515328
 30
0.0
 10
43.10000000000009
 20
1.834784839967771
 30
0.0
  0
SPLINE
  5
C5
330
1F
100
AcDbEntity
  8
0
  6
Continuous
 62
     1
370
    25
100
AcDbSpline
210
0.0
220
0.0
230
1.0
 70
    24
 71
     3
 72
    10
 73
     6
 74
     0
 42
0.000000001
 43
0.00000001
 40
0.0
 40
0.0
 40
0.0
 40
0.0
 40
0.5
 40
0.5
 40
1.0
 40
1.0
 40
1.0
 40
1.0
 10
48.09999999999999
 20
-7.51388588938336
 30
0.0
 10
48.09999999999999
 20
-6.937805551537345
 30
0.0
 10
48.09999999999999
 20
-6.20990595548522
 30
0.0
 10
48.09999999999999
 20
-4.517609447186333
 30
0.0
 10
48.1
 20
-3.554678466339833
 30
0.0
 10
48.09999999999999
 20
-2.544414132208778
 30
0.0
  0
LINE
  5
C6
330
1F
100
AcDbEntity
  8
0
  6
Continuous
 62
     1
370
    25
100
AcDbLine
 10
43.09999999999999
 20
2.938794364020484
 30
0.0
 11
48.09999999999999
 21
0.0010749287238979
 31
0.0
  0
LINE
  5
C7
330
1F
100
AcDbEntity
  8
0
  6
Continuous
 62
     1
370
    25
100
AcDbLine
 10
48.09999999999999
 20
0.0010749287238979
 30
0.0
 11
48.09999999999999
 21
-2.54441413220847
 31
0.0
  0
SPLINE
  5
C8
330
1F
100
AcDbEntity
  8
0
  6
Continuous
 62
     1
370
    25
100
AcDbSpline
210
0.0
220
0.0
230
1.0
 70
     8
 71
     3
 72
    24
 73
    20
 74
     0
 42
0.000000001
 43
0.00000001
 40
0.0
 40
0.0
 40
0.0
 40
0.0
 40
0.0134857417608155
 40
0.0782646775347313
 40
0.143058229595312
 40
0.2079013419987522
 40
0.2727590883478568
 40
0.3375606436227599
 40
0.4023397960147059
 40
0.4671316169127125
 40
0.5319710656724832
 40
0.5968316509454833
 40
0.6616354763918564
 40
0.7264149537034433
 40
0.7912051513942507
 40
0.8560410431675849
 40
0.9209040308252945
 40
0.9603897069478922
 40
1.0
 40
1.0
 40
1.0
 40
1.0
 10
36.45364142198788
 20
-7.142936834890332
 30
0.0
 10
36.33473162896772
 20
-7.181227706879977
 30
0.0
 10
35.644637100131
 20
-7.403449280001071
 30
0.0
 10
34.3834760298838
 20
-7.582554661425799
 30
0.0
 10
32.66936334717112
 20
-7.65417080156054
 30
0.0
 10
30.95398024759308
 20
-7.458704316931434
 30
0.0
 10
29.23826212692186
 20
-7.027565254013958
 30
0.0
 10
27.52392601588323
 20
-6.367645666136343
 30
0.0
 10
25.81029730694866
 20
-5.502418679858226
 30
0.0
 10
24.09626474490462
 20
-4.459117226057359
 30
0.0
 10
22.3809583763295
 20
-3.271768844193228
 30
0.0
 10
20.66518042187015
 20
-1.979005322857939
 30
0.0
 10
18.95077243568179
 20
-0.6216695894134976
 30
0.0
 10
17.23715124284401
 20
0.7555486410480612
 30
0.0
 10
15.5231029090889
 20
2.108296197203459
 30
0.0
 10
13.80813025831888
 20
3.393781384370215
 30
0.0
 10
12.31484899249257
 20
4.413319490355906
 30
0.0
 10
11.04737255625721
 20
5.200897613693413
 30
0.0
 10
10.3494906933289
 20
5.578413763776124
 30
0.0
 10
10.00000000000061
 20
5.767469230100214
 30
0.0
  0
SPLINE
  5
C9
330
1F
100
AcDbEntity
  8
0
  6
Continuous
 62
     4
370
    25
100
AcDbSpline
210
0.0
220
0.0
230
1.0
 70
    24
 71
     3
 72
    14
 73
    10
 74
     0
 42
0.000000001
 43
0.00000001
 40
0.0
 40
0.0
 40
0.0
 40
0.0
 40
0.25
 40
0.25
 40
0.5
 40
0.5
 40
0.75
 40
0.75
 40
1.0
 40
1.0
 40
1.0
 40
1.0
 10
9.99999999999999
 20
5.767469230100538
 30
0.0
 10
9.999999999999991
 20
5.226233556640304
 30
0.0
 10
9.999999999999993
 20
4.619332261197735
 30
0.0
 10
9.999999999999995
 20
3.304478649771436
 30
0.0
 10
9.999999999999995
 20
2.596771849158012
 30
0.0
 10
9.999999999999995
 20
1.128772655497649
 30
0.0
 10
9.999999999999995
 20
0.3689041760551078
 30
0.0
 10
9.999999999999993
 20
-1.147251349755091
 30
0.0
 10
9.999999999999991
 20
-1.90313436721414
 30
0.0
 10
9.99999999999999
 20
-2.631907527788265
 30
0.0
  0
SPLINE
  5
CA
330
1F
100
AcDbEntity
  8
0
  6
Continuous
 62
     4
370
    25
100
AcDbSpline
210
0.0
220
0.0
230
1.0
 70
    24
 71
     3
 72
    11
 73
     7
 74
     0
 42
0.000000001
 43
0.00000001
 40
0.0
 40
0.0
 40
0.0
 40
0.0
 40
0.0826772961982974
 40
0.3881336464045574
 40
0.6945436497937401
 40
1.0
 40
1.0
 40
1.0
 40
1.0
 10
9.999999999999998
 20
6.448186300350903
 30
0.0
 10
9.999999999999998
 20
6.450397887793057
 30
0.0
 10
10.0
 20
6.460780320912376
 30
0.0
 10
9.999999999999998
 20
6.365531202439413
 30
0.0
 10
9.999999999999998
 20
6.14868030653471
 30
0.0
 10
9.999999999999998
 20
5.894407485943543
 30
0.0
 10
9.999999999999998
 20
5.767469230100532
 30
0.0
  0
SPLINE
  5
CB
330
1F
100
AcDbEntity
  8
0
  6
Continuous
 62
     1
370
    25
100
AcDbSpline
210
0.0
220
0.0
230
1.0
 70
    24
 71
     3
 72
     8
 73
     4
 74
     0
 42
0.000000001
 43
0.00000001
 40
0.0
 40
0.0
 40
0.0
 40
0.0
 40
1.0
 40
1.0
 40
1.0
 40
1.0
 10
43.11474882202972
 20
5.334902119025299
 30
0.0
 10
43.10984286635315
 20
5.330785533426517
 30
0.0
 10
43.10492657400991
 20
5.326660274334528
 30
0.0
 10
43.1
 20
5.322526387899845
 30
0.0
  0
SPLINE
  5
CC
330
1F
100
AcDbEntity
  8
0
  6
Continuous
 62
     1
370
    25
100
AcDbSpline
210
0.0
220
0.0
230
1.0
 70
    24
 71
     3
 72
     8
 73
     4
 74
     0
 42
0.000000001
 43
0.00000001
 40
0.0
 40
0.0
 40
0.0
 40
0.0
 40
1.0
 40
1.0
 40
1.0
 40
1.0
 10
43.1
 20
3.820332728390272
 30
0.0
 10
43.1
 20
4.407890405146201
 30
0.0
 10
43.09999999999999
 20
4.922728688806273
 30
0.0
 10
43.09999999999999
 20
5.322526387902801
 30
0.0
  0
SPLINE
  5
CD
330
1F
100
AcDbEntity
  8
0
  6
Continuous
 62
     1
370
    25
100
AcDbSpline
210
0.0
220
0.0
230
1.0
 70
     8
 71
     3
 72
     9
 73
     5
 74
     0
 42
0.000000001
 43
0.00000001
 40
0.0
 40
0.0
 40
0.0
 40
0.0
 40
0.8389902582317775
 40
1.0
 40
1.0
 40
1.0
 40
1.0
 10
48.09999999999999
 20
6.668574928723898
 30
0.0
 10
47.52797025674757
 20
6.662319369443141
 30
0.0
 10
46.84616288456424
 20
6.654863312332368
 30
0.0
 10
46.16460502757359
 20
6.520934523064034
 30
0.0
 10
46.05486757301942
 20
6.49937068328861
 30
0.0
  0
SPLINE
  5
CE
330
1F
100
AcDbEntity
  8
0
  6
Continuous
 62
     1
370
    25
100
AcDbSpline
210
0.0
220
0.0
230
1.0
 70
     8
 71
     3
 72
    10
 73
     6
 74
     0
 42
0.000000001
 43
0.00000001
 40
0.0
 40
0.0
 40
0.0
 40
0.0
 40
0.5
 40
0.5
 40
1.0
 40
1.0
 40
1.0
 40
1.0
 10
48.09999999999999
 20
6.668574928723897
 30
0.0
 10
47.27801137772728
 20
6.392388234418071
 30
0.0
 10
46.45136092561798
 20
6.139312902246153
 30
0.0
 10
44.78941061716404
 20
5.692523283920076
 30
0.0
 10
43.95410114551637
 20
5.499532816135503
 30
0.0
 10
43.11474882201002
 20
5.334902119018591
 30
0.0
  0
SPLINE
  5
CF
330
1F
100
AcDbEntity
  8
0
  6
Continuous
 62
     4
370
    25
100
AcDbSpline
210
0.0
220
0.0
230
1.0
 70
    24
 71
     3
 72
    11
 73
     7
 74
     0
 42
0.000000001
 43
0.00000001
 40
0.0
 40
0.0
 40
0.0
 40
0.0
 40
0.2445619000271569
 40
0.5247412566497492
 40
0.8130604297774081
 40
1.0
 40
1.0
 40
1.0
 40
1.0
 10
10.0
 20
-5.995749952285365
 30
0.0
 10
10.0
 20
-6.066215144664086
 30
0.0
 10
10.0
 20
-6.217407924875436
 30
0.0
 10
10.0
 20
-6.362592747466541
 30
0.0
 10
10.0
 20
-6.447931524963552
 30
0.0
 10
10.0
 20
-6.446571427391379
 30
0.0
 10
10.0
 20
-6.446036442903117
 30
0.0
  0
SPLINE
  5
D0
330
1F
100
AcDbEntity
  8
0
  6
Continuous
 62
     1
370
    25
100
AcDbSpline
210
0.0
220
0.0
230
1.0
 70
    24
 71
     3
 72
    10
 73
     6
 74
     0
 42
0.000000001
 43
0.00000001
 40
0.0
 40
0.0
 40
0.0
 40
0.0
 40
0.5
 40
0.5
 40
1.0
 40
1.0
 40
1.0
 40
1.0
 10
48.09999999999999
 20
6.668574928723898
 30
0.0
 10
48.09999999999999
 20
7.072742174813561
 30
0.0
 10
48.09999999999999
 20
7.542421944683187
 30
0.0
 10
48.09999999999999
 20
8.527808836876044
 30
0.0
 10
48.09999999999999
 20
9.040999404732924
 30
0.0
 10
48.09999999999999
 20
9.518024543786256
 30
0.0
  0
LINE
  5
D1
330
1F
100
AcDbEntity
  8
0
  6
Continuous
 62
     1
370
    25
100
AcDbLine
 10
48.09999999999999
 20
0.0010749287238979
 30
0.0
 11
48.09999999999999
 21
6.668574928723898
 31
0.0
  0
LINE
  5
D2
330
1F
100
AcDbEntity
  8
중심선
100
AcDbLine
 10
-56.49999999999999
 20
0.0010749287238931
 30
0.0
 11
55.09999999999999
 21
0.0010749287238983
 31
0.0
  0
CIRCLE
  5
D3
330
1F
100
AcDbEntity
  8
외형선
100
AcDbCircle
 10
0.0000000000000087
 20
0.0
 30
0.0
 40
3.000000000000004
  0
INSERT
  5
D4
330
1F
100
AcDbEntity
  8
0
  6
Continuous
 62
     7
100
AcDbBlockReference
 66
     1
  2
블럭10
 10
-16.6381869743017
 20
-52.04609937292004
 30
0.0
  0
ATTRIB
  5
D5
330
D4
100
AcDbEntity
  8
FORMAT
 62
     2
100
AcDbText
 10
-25.81948226304298
 20
-49.97073246008785
 30
0.0
 40
4.233333333333333
  1
E5253048 [ 2 FLUTE ]
 41
0.75
  7
SLDTEXTSTYLE0
 11
-25.81948226304298
 21
-52.08739912675452
 31
0.0
100
AcDbAttribute
  2
AUTOATTR0
 70
     0
 74
     1
  0
SEQEND
  5
D6
330
D4
100
AcDbEntity
  8
0
  6
Continuous
 62
     7
  0
HATCH
  5
D7
330
1F
100
AcDbEntity
  8
중심선
100
AcDbHatch
 10
0.0
 20
0.0
 30
0.0
210
0.0
220
0.0
230
1.0
  2
SOLID
 70
     1
 71
     0
 91
        1
 92
        0
 93
        4
 72
     1
 10
-10.92327766992085
 20
-35.7989250712761
 11
-14.36955291375813
 21
-35.7989250712761
 72
     1
 10
-14.36955291375813
 20
-35.7989250712761
 11
-16.49778277296215
 21
-38.3352506518487
 72
     1
 10
-16.49778277296215
 20
-38.3352506518487
 11
-13.05147444401172
 21
-38.33521122254621
 72
     1
 10
-13.05147444401172
 20
-38.33521122254621
 11
-10.92327766992085
 21
-35.7989250712761
 97
        0
 75
     0
 76
     1
 98
        1
 10
0.0
 20
0.0
  0
HATCH
  5
D8
330
1F
100
AcDbEntity
  8
중심선
100
AcDbHatch
 10
0.0
 20
0.0
 30
0.0
210
0.0
220
0.0
230
1.0
  2
SOLID
 70
     1
 71
     0
 91
        1
 92
        0
 93
        4
 72
     1
 10
-5.910513678884898
 20
-35.7989250712761
 11
-9.356788922722181
 21
-35.7989250712761
 72
     1
 10
-9.356788922722181
 20
-35.7989250712761
 11
-13.88792693107957
 21
-41.19892507127612
 72
     1
 10
-13.88792693107957
 20
-41.19892507127612
 11
-10.44165168724229
 21
-41.19892507127612
 72
     1
 10
-10.44165168724229
 20
-41.19892507127612
 11
-5.910513678884898
 21
-35.7989250712761
 97
        0
 75
     0
 76
     1
 98
        1
 10
0.0
 20
0.0
  0
HATCH
  5
D9
330
1F
100
AcDbEntity
  8
중심선
100
AcDbHatch
 10
0.0
 20
0.0
 30
0.0
210
0.0
220
0.0
230
1.0
  2
SOLID
 70
     1
 71
     0
 91
        1
 92
        0
 93
        4
 72
     1
 10
-0.8977496878490032
 20
-35.79892507127613
 11
-4.344024931686119
 21
-35.7989250712761
 72
     1
 10
-4.344024931686119
 20
-35.7989250712761
 11
-11.39246183357537
 21
-44.19892507127612
 72
     1
 10
-11.39246183357537
 20
-44.19892507127612
 11
-7.946186589738086
 21
-44.19892507127612
 72
     1
 10
-7.946186589738086
 20
-44.19892507127612
 11
-0.8977496878490028
 21
-35.79892507127613
 97
        0
 75
     0
 76
     1
 98
        1
 10
0.0
 20
0.0
  0
HATCH
  5
DA
330
1F
100
AcDbEntity
  8
중심선
100
AcDbHatch
 10
0.0
 20
0.0
 30
0.0
210
0.0
220
0.0
230
1.0
  2
SOLID
 70
     1
 71
     0
 91
        1
 92
        0
 93
        6
 72
     3
 10
3.902140743163196
 20
-39.99892507132738
 11
3.960054785062284
 21
1.540850780301639E-10
 40
0.3939339440162633
 50
17.09539180608433
 51
320.0019657685079
 73
     0
 72
     1
 10
5.585140398863792
 20
-38.58681907591441
 11
7.89044227256483
 21
-36.65249236586649
 72
     3
 10
3.902140743110349
 20
-39.99892507127625
 11
6.600054785286829
 21
-1.249000902703301E-13
 40
0.6363583540795982
 50
39.99873849337408
 51
368.4976242363724
 73
     1
 72
     1
 10
10.32747323501096
 20
-39.03892507120613
 11
2.582208049946273
 21
-39.0389250712061
 72
     1
 10
2.582208049946272
 20
-39.0389250712061
 11
2.582183005500338
 21
-40.95892507120602
 72
     1
 10
2.582183005500338
 20
-40.95892507120602
 11
7.023562774972376
 21
-40.95892507120599
 97
        0
 75
     0
 76
     1
 98
        1
 10
0.0
 20
0.0
  0
DIMENSION
  5
DB
330
1F
100
AcDbEntity
  8
치수문자_일반주서
100
AcDbDimension
  2
_D
 10
-53.50000000000001
 20
45.1082080054322
 30
0.0
 11
-2.700000000000003
 21
45.1082080054322
 31
0.0
 70
   160
  1
<>
 71
     2
 42
101.6
  3
SLDDIMSTYLE0
100
AcDbAlignedDimension
 13
48.09999999999999
 23
9.518024543786256
 33
0.0
 14
-53.50000000000001
 24
8.526074928723888
 34
0.0
100
AcDbRotatedDimension
1001
ACAD
1000
DSTYLE
1002
{
1070
   273
1070
     7
1002
}
  0
DIMENSION
  5
EF
330
1F
100
AcDbEntity
  8
치수문자_일반주서
100
AcDbDimension
  2
_D_1
 10
-66.30999999999996
 20
-9.52392507127616
 30
0.0
 11
-66.31
 21
0.001074928723901
 31
0.0
 70
   160
  1
%%c<>
 71
     2
 42
19.05000000000001
  3
SLDDIMSTYLE1
100
AcDbAlignedDimension
 13
-52.50000000000001
 23
9.526074928723899
 33
0.0
 14
-52.50000000000001
 24
-9.523925071276112
 34
0.0
 50
90.0000000000002
100
AcDbRotatedDimension
1001
ACAD
1000
DSTYLE
1002
{
1070
   273
1070
     7
1002
}
  0
DIMENSION
  5
104
330
1F
100
AcDbEntity
  8
치수문자_일반주서
100
AcDbDimension
  2
_D_2
 10
10.00000000000061
 20
29.75464205728772
 30
0.0
 11
29.05000000000141
 21
29.75464205728772
 31
0.0
 70
   160
  1
<>
 71
     2
 42
38.09999999999919
  3
SLDDIMSTYLE0
100
AcDbAlignedDimension
 13
48.09999999999999
 23
9.518024543786256
 33
0.0
 14
10.00000000000061
 24
5.767469230100212
 34
0.0
 50
-0.0000000000028957
100
AcDbRotatedDimension
1001
ACAD
1000
DSTYLE
1002
{
1070
   273
1070
     7
1002
}
  0
DIMENSION
  5
117
330
1F
100
AcDbEntity
  8
치수문자_일반주서
100
AcDbDimension
  2
_D_3
 10
68.30935371504391
 20
-9.515874686338393
 30
0.0
 11
68.30935371504374
 21
34.71361390149638
 31
0.0
 70
   160
  1
%%c<>
 71
     2
 42
19.03389923012472
  3
SLDDIMSTYLE2
100
AcDbAlignedDimension
 13
48.09999999999999
 23
9.518024543786256
 33
0.0
 14
48.09999999999999
 24
-9.515874686338464
 34
0.0
 50
90.0000000000002
100
AcDbRotatedDimension
1001
ACAD
1000
DSTYLE
1002
{
1070
   273
1070
     7
1002
}
  0
INSERT
  5
131
330
1F
100
AcDbEntity
  8
외형선
100
AcDbBlockReference
  2
SW_DOWELSYMBOL_0
 10
0.0000000000000087
 20
0.0
 30
0.0
  0
LINE
  5
2C4
330
1F
100
AcDbEntity
  8
0
  6
Continuous
 62
     4
370
    15
100
AcDbLine
 10
-33.494325
 20
7.621074928723885
 30
0.0
 11
-21.91192499999998
 21
7.621074928723885
 31
0.0
  0
LINE
  5
2C5
330
1F
100
AcDbEntity
  8
0
  6
Continuous
 62
     4
370
    15
100
AcDbLine
 10
-33.494325
 20
7.621074928723871
 30
0.0
 11
-35.39932500000013
 21
9.5260749287239
 31
0.0
  0
LINE
  5
2C6
330
1F
100
AcDbEntity
  8
0
  6
Continuous
 62
     4
370
    15
100
AcDbLine
 10
-21.91192499999998
 20
7.621074928723871
 30
0.0
 11
-20.00692500000001
 21
9.5260749287239
 31
0.0
  0
LINE
  5
2C7
330
1F
100
AcDbEntity
  8
0
  6
Continuous
 62
     4
370
    25
100
AcDbLine
 10
-35.39932500000013
 20
9.526074928723892
 30
0.0
 11
-52.5
 21
9.52607492872389
 31
0.0
  0
ENDSEC
  0
SECTION
  2
OBJECTS
  0
DICTIONARY
  5
C
330
0
100
AcDbDictionary
281
     1
  3
ACAD_GROUP
350
D
  3
ACAD_IMAGE_VARS
350
155
  3
ACAD_LAYOUT
350
1A
  3
ACAD_MLINESTYLE
350
17
  3
ACAD_PLOTSETTINGS
350
19
  3
ACAD_PLOTSTYLENAME
350
E
  3
ACAD_SCALELIST
350
47
  3
APPDATA
350
153
  3
DWGPROPS
350
2CC
  0
DICTIONARY
  5
212
330
2
100
AcDbDictionary
280
     1
281
     1
  3
ACAD_LAYERSTATES
360
213
  0
DICTIONARY
  5
2C8
330
1F
100
AcDbDictionary
280
     1
281
     1
  3
ACAD_SORTENTS
360
2C9
  3
DIM_BOUNDING_BOXES_V1
360
2CA
  0
DICTIONARY
  5
D
102
{ACAD_REACTORS
330
C
102
}
330
C
100
AcDbDictionary
281
     1
  0
RASTERVARIABLES
  5
155
102
{ACAD_REACTORS
330
C
102
}
330
C
100
AcDbRasterVariables
 90
        0
 70
     1
 71
     1
 72
     1
  0
DICTIONARY
  5
1A
102
{ACAD_REACTORS
330
C
102
}
330
C
100
AcDbDictionary
281
     1
  3
Layout1
350
1E
  3
Layout2
350
26
  3
Model
350
22
  0
DICTIONARY
  5
17
102
{ACAD_REACTORS
330
C
102
}
330
C
100
AcDbDictionary
281
     1
  3
Standard
350
18
  0
DICTIONARY
  5
19
102
{ACAD_REACTORS
330
C
102
}
330
C
100
AcDbDictionary
281
     1
  0
ACDBDICTIONARYWDFLT
  5
E
102
{ACAD_REACTORS
330
C
102
}
330
C
100
AcDbDictionary
281
     1
  3
Normal
350
F
100
AcDbDictionaryWithDefault
340
F
  0
DICTIONARY
  5
47
102
{ACAD_REACTORS
330
C
102
}
330
C
100
AcDbDictionary
281
     1
  3
A0
350
48
  3
A1
350
49
  3
A2
350
4A
  3
A3
350
4B
  3
A4
350
4C
  3
A5
350
4D
  3
A6
350
4E
  3
A7
350
4F
  3
A8
350
50
  3
A9
350
51
  3
B0
350
52
  3
B1
350
53
  3
B2
350
54
  3
B3
350
55
  3
B4
350
56
  3
B5
350
57
  3
B6
350
58
  3
B7
350
59
  3
B8
350
5A
  3
B9
350
5B
  3
C0
350
5C
  3
C1
350
5D
  3
C2
350
5E
  3
C3
350
5F
  3
C4
350
60
  3
C5
350
61
  3
C6
350
62
  3
C7
350
63
  3
C8
350
64
  3
C9
350
65
  3
D0
350
66
  3
D1
350
67
  3
D2
350
68
  0
DICTIONARY
  5
153
102
{ACAD_REACTORS
330
C
102
}
330
C
100
AcDbDictionary
281
     1
  0
XRECORD
  5
2CC
102
{ACAD_REACTORS
330
C
102
}
330
C
100
AcDbXrecord
280
     1
  1
DWGPROPS COOKIE
  2

  3

  4

  6

  7

  8
12016016
  9

300
=
301
=
302
=
303
=
304
=
305
=
306
=
307
=
308
=
309
=
 40
0.0
 41
2458263.244242905
 42
2459730.972548356
  1

 90
        0
  0
DICTIONARY
  5
213
102
{ACAD_REACTORS
330
212
102
}
330
212
100
AcDbDictionary
281
     1
  0
SORTENTSTABLE
  5
2C9
102
{ACAD_REACTORS
330
2C8
102
}
330
2C8
100
AcDbSortentsTable
330
1F
331
9A
  5
9B
331
9B
  5
9C
331
9C
  5
9D
331
9D
  5
9E
331
9E
  5
9F
331
9F
  5
A0
331
A0
  5
A1
331
A1
  5
A2
331
A2
  5
A3
331
A3
  5
A4
331
A4
  5
A5
331
A5
  5
A6
331
A6
  5
A7
331
A7
  5
A8
331
A8
  5
A9
331
A9
  5
AA
331
AA
  5
AB
331
AB
  5
AC
331
AC
  5
AD
331
AD
  5
AE
331
AE
  5
AF
331
AF
  5
B0
331
B0
  5
B1
331
B1
  5
B2
331
B2
  5
B3
331
B3
  5
B4
331
B4
  5
B5
331
B5
  5
B6
331
B6
  5
B7
331
B7
  5
B8
331
B8
  5
B9
331
B9
  5
BA
331
BA
  5
BB
331
BB
  5
BC
331
BC
  5
BD
331
BD
  5
BE
331
BE
  5
BF
331
BF
  5
C0
331
C0
  5
C1
331
C1
  5
C2
331
C2
  5
C3
331
C3
  5
C4
331
C4
  5
C5
331
C5
  5
C6
331
C6
  5
C7
331
C7
  5
C8
331
C8
  5
C9
331
C9
  5
CA
331
CA
  5
CB
331
CB
  5
CC
331
CC
  5
CD
331
CD
  5
CE
331
CE
  5
CF
331
CF
  5
D0
331
D0
  5
D1
331
D1
  5
D2
331
D2
  5
D3
331
D3
  5
D4
331
D4
  5
D7
331
D7
  5
D8
331
D8
  5
D9
331
D9
  5
DA
331
DA
  5
DB
331
DB
  5
EF
331
EF
  5
104
331
104
  5
117
331
117
  5
131
331
131
  5
246
331
0
  5
247
331
0
  5
248
331
0
  5
249
331
0
  5
24A
331
0
  5
24B
331
0
  5
24C
331
0
  5
24D
331
0
  5
24E
331
0
  5
24F
331
0
  5
250
331
0
  5
251
331
0
  5
252
331
0
  5
253
331
0
  5
254
331
0
  5
255
331
0
  5
256
331
0
  5
257
331
0
  5
258
331
0
  5
259
331
0
  5
25A
331
0
  5
25B
331
0
  5
25C
331
0
  5
25D
331
0
  5
25E
331
0
  5
25F
331
0
  5
260
331
0
  5
261
331
0
  5
262
331
0
  5
263
331
0
  5
264
331
0
  5
265
331
0
  5
266
331
0
  5
267
331
0
  5
268
331
0
  5
269
331
0
  5
26A
331
0
  5
26B
331
0
  5
26C
331
0
  5
26D
331
0
  5
26E
331
0
  5
26F
331
0
  5
270
331
0
  5
271
331
0
  5
272
331
0
  5
273
331
0
  5
274
331
0
  5
275
331
0
  5
276
331
0
  5
277
331
0
  5
278
331
0
  5
279
331
0
  5
27A
331
0
  5
27B
331
0
  5
27C
331
0
  5
27D
331
0
  5
27E
331
0
  5
27F
331
0
  5
280
331
0
  5
281
331
0
  5
282
331
0
  5
283
331
0
  5
284
331
0
  5
285
331
0
  5
286
331
0
  5
287
331
0
  5
288
331
0
  5
289
331
0
  5
28A
331
0
  5
28B
331
0
  5
28C
331
0
  5
28D
331
0
  5
28E
331
0
  5
28F
331
0
  5
290
331
0
  5
291
331
0
  5
292
331
0
  5
293
331
0
  5
2C4
331
2C4
  5
2C5
331
2C5
  5
2C6
331
2C6
  5
2C7
331
2C7
  5
9A
  0
DICTIONARY
  5
2CA
102
{ACAD_REACTORS
330
2C8
102
}
330
2C8
100
AcDbDictionary
281
     1
  0
LAYOUT
  5
1E
102
{ACAD_REACTORS
330
1A
102
}
330
1A
100
AcDbPlotSettings
  1

  2
none_device
  4

  6

 40
0.0
 41
0.0
 42
0.0
 43
0.0
 44
0.0
 45
0.0
 46
0.0
 47
0.0
 48
0.0
 49
0.0
140
0.0
141
0.0
142
1.0
143
1.0
 70
   688
 72
     1
 73
     0
 74
     5
  7

 75
    16
147
1.0
148
0.0
149
0.0
100
AcDbLayout
  1
Layout1
 70
     1
 71
     1
 10
0.0
 20
0.0
 11
420.0
 21
297.0
 12
0.0
 22
0.0
 32
0.0
 14
1.000000000000000E+20
 24
1.000000000000000E+20
 34
1.000000000000000E+20
 15
-1.000000000000000E+20
 25
-1.000000000000000E+20
 35
-1.000000000000000E+20
146
0.0
 13
0.0
 23
0.0
 33
0.0
 16
1.0
 26
0.0
 36
0.0
 17
0.0
 27
1.0
 37
0.0
 76
     0
330
1B
  0
LAYOUT
  5
26
102
{ACAD_REACTORS
330
1A
102
}
330
1A
100
AcDbPlotSettings
  1

  2
none_device
  4

  6

 40
0.0
 41
0.0
 42
0.0
 43
0.0
 44
0.0
 45
0.0
 46
0.0
 47
0.0
 48
0.0
 49
0.0
140
0.0
141
0.0
142
1.0
143
1.0
 70
   688
 72
     1
 73
     0
 74
     5
  7

 75
    16
147
1.0
148
0.0
149
0.0
100
AcDbLayout
  1
Layout2
 70
     1
 71
     2
 10
0.0
 20
0.0
 11
0.0
 21
0.0
 12
0.0
 22
0.0
 32
0.0
 14
0.0
 24
0.0
 34
0.0
 15
0.0
 25
0.0
 35
0.0
146
0.0
 13
0.0
 23
0.0
 33
0.0
 16
1.0
 26
0.0
 36
0.0
 17
0.0
 27
1.0
 37
0.0
 76
     0
330
23
  0
LAYOUT
  5
22
102
{ACAD_REACTORS
330
1A
102
}
330
1A
100
AcDbPlotSettings
  1

  2
none_device
  4
ANSI_A_(11.00_x_8.50_Inches)
  6

 40
6.35
 41
19.05
 42
6.35000508
 43
19.05000254
 44
279.4
 45
215.9
 46
140.711870598188
 47
84.00086236503385
 48
0.0
 49
0.0
140
0.0
141
0.0
142
0.0743790296482818
143
1.0
 70
  1696
 72
     0
 73
     0
 74
     0
  7

 75
     0
147
0.0235690232323232
148
0.0
149
0.0
100
AcDbLayout
  1
Model
 70
     1
 71
     0
 10
0.0
 20
0.0
 11
420.0
 21
297.0
 12
0.0
 22
0.0
 32
0.0
 14
-70.68500000000004
 24
-49.97073246008785
 34
0.0
 15
68.85968704837724
 25
49.4832080054322
 35
0.0
146
0.0
 13
0.0
 23
0.0
 33
0.0
 16
1.0
 26
0.0
 36
0.0
 17
0.0
 27
1.0
 37
0.0
 76
     0
330
1F
331
29
  0
MLINESTYLE
  5
18
102
{ACAD_REACTORS
330
17
102
}
330
17
100
AcDbMlineStyle
  2
Standard
 70
     0
  3

 62
   256
 51
90.0
 52
90.0
 71
     2
 49
0.5
 62
   256
  6
BYLAYER
 49
-0.5
 62
   256
  6
BYLAYER
  0
ACDBPLACEHOLDER
  5
F
102
{ACAD_REACTORS
330
E
102
}
330
E
  0
SCALE
  5
48
102
{ACAD_REACTORS
330
47
102
}
330
47
100
AcDbScale
 70
     0
300
1:1
140
1.0
141
1.0
290
     1
  0
SCALE
  5
49
102
{ACAD_REACTORS
330
47
102
}
330
47
100
AcDbScale
 70
     0
300
1:2
140
1.0
141
2.0
290
     0
  0
SCALE
  5
4A
102
{ACAD_REACTORS
330
47
102
}
330
47
100
AcDbScale
 70
     0
300
1:4
140
1.0
141
4.0
290
     0
  0
SCALE
  5
4B
102
{ACAD_REACTORS
330
47
102
}
330
47
100
AcDbScale
 70
     0
300
1:5
140
1.0
141
5.0
290
     0
  0
SCALE
  5
4C
102
{ACAD_REACTORS
330
47
102
}
330
47
100
AcDbScale
 70
     0
300
1:8
140
1.0
141
8.0
290
     0
  0
SCALE
  5
4D
102
{ACAD_REACTORS
330
47
102
}
330
47
100
AcDbScale
 70
     0
300
1:10
140
1.0
141
10.0
290
     0
  0
SCALE
  5
4E
102
{ACAD_REACTORS
330
47
102
}
330
47
100
AcDbScale
 70
     0
300
1:16
140
1.0
141
16.0
290
     0
  0
SCALE
  5
4F
102
{ACAD_REACTORS
330
47
102
}
330
47
100
AcDbScale
 70
     0
300
1:20
140
1.0
141
20.0
290
     0
  0
SCALE
  5
50
102
{ACAD_REACTORS
330
47
102
}
330
47
100
AcDbScale
 70
     0
300
1:30
140
1.0
141
30.0
290
     0
  0
SCALE
  5
51
102
{ACAD_REACTORS
330
47
102
}
330
47
100
AcDbScale
 70
     0
300
1:40
140
1.0
141
40.0
290
     0
  0
SCALE
  5
52
102
{ACAD_REACTORS
330
47
102
}
330
47
100
AcDbScale
 70
     0
300
1:50
140
1.0
141
50.0
290
     0
  0
SCALE
  5
53
102
{ACAD_REACTORS
330
47
102
}
330
47
100
AcDbScale
 70
     0
300
1:100
140
1.0
141
100.0
290
     0
  0
SCALE
  5
54
102
{ACAD_REACTORS
330
47
102
}
330
47
100
AcDbScale
 70
     0
300
2:1
140
2.0
141
1.0
290
     0
  0
SCALE
  5
55
102
{ACAD_REACTORS
330
47
102
}
330
47
100
AcDbScale
 70
     0
300
4:1
140
4.0
141
1.0
290
     0
  0
SCALE
  5
56
102
{ACAD_REACTORS
330
47
102
}
330
47
100
AcDbScale
 70
     0
300
8:1
140
8.0
141
1.0
290
     0
  0
SCALE
  5
57
102
{ACAD_REACTORS
330
47
102
}
330
47
100
AcDbScale
 70
     0
300
10:1
140
10.0
141
1.0
290
     0
  0
SCALE
  5
58
102
{ACAD_REACTORS
330
47
102
}
330
47
100
AcDbScale
 70
     0
300
100:1
140
100.0
141
1.0
290
     0
  0
SCALE
  5
59
102
{ACAD_REACTORS
330
47
102
}
330
47
100
AcDbScale
 70
     0
300
1/128" = 1'-0"
140
0.0078125
141
12.0
290
     0
  0
SCALE
  5
5A
102
{ACAD_REACTORS
330
47
102
}
330
47
100
AcDbScale
 70
     0
300
1/64" = 1'-0"
140
0.015625
141
12.0
290
     0
  0
SCALE
  5
5B
102
{ACAD_REACTORS
330
47
102
}
330
47
100
AcDbScale
 70
     0
300
1/32" = 1'-0"
140
0.03125
141
12.0
290
     0
  0
SCALE
  5
5C
102
{ACAD_REACTORS
330
47
102
}
330
47
100
AcDbScale
 70
     0
300
1/16" = 1'-0"
140
0.0625
141
12.0
290
     0
  0
SCALE
  5
5D
102
{ACAD_REACTORS
330
47
102
}
330
47
100
AcDbScale
 70
     0
300
3/32" = 1'-0"
140
0.09375
141
12.0
290
     0
  0
SCALE
  5
5E
102
{ACAD_REACTORS
330
47
102
}
330
47
100
AcDbScale
 70
     0
300
1/8" = 1'-0"
140
0.125
141
12.0
290
     0
  0
SCALE
  5
5F
102
{ACAD_REACTORS
330
47
102
}
330
47
100
AcDbScale
 70
     0
300
3/16" = 1'-0"
140
0.1875
141
12.0
290
     0
  0
SCALE
  5
60
102
{ACAD_REACTORS
330
47
102
}
330
47
100
AcDbScale
 70
     0
300
1/4" = 1'-0"
140
0.25
141
12.0
290
     0
  0
SCALE
  5
61
102
{ACAD_REACTORS
330
47
102
}
330
47
100
AcDbScale
 70
     0
300
3/8" = 1'-0"
140
0.375
141
12.0
290
     0
  0
SCALE
  5
62
102
{ACAD_REACTORS
330
47
102
}
330
47
100
AcDbScale
 70
     0
300
1/2" = 1'-0"
140
0.5
141
12.0
290
     0
  0
SCALE
  5
63
102
{ACAD_REACTORS
330
47
102
}
330
47
100
AcDbScale
 70
     0
300
3/4" = 1'-0"
140
0.75
141
12.0
290
     0
  0
SCALE
  5
64
102
{ACAD_REACTORS
330
47
102
}
330
47
100
AcDbScale
 70
     0
300
1" = 1'-0"
140
1.0
141
12.0
290
     0
  0
SCALE
  5
65
102
{ACAD_REACTORS
330
47
102
}
330
47
100
AcDbScale
 70
     0
300
1-1/2" = 1'-0"
140
1.5
141
12.0
290
     0
  0
SCALE
  5
66
102
{ACAD_REACTORS
330
47
102
}
330
47
100
AcDbScale
 70
     0
300
3" = 1'-0"
140
3.0
141
12.0
290
     0
  0
SCALE
  5
67
102
{ACAD_REACTORS
330
47
102
}
330
47
100
AcDbScale
 70
     0
300
6" = 1'-0"
140
6.0
141
12.0
290
     0
  0
SCALE
  5
68
102
{ACAD_REACTORS
330
47
102
}
330
47
100
AcDbScale
 70
     0
300
1'-0" = 1'-0"
140
12.0
141
12.0
290
     0
  0
ENDSEC
  0
EOF
