  0
SECTION
  2
HEADER
  9
$ACADVER
  1
AC1015
  9
$ACADMAINTVER
 70
     6
  9
$DWGCODEPAGE
  3
ANSI_949
  9
$INSBASE
 10
0.0
 20
0.0
 30
0.0
  9
$EXTMIN
 10
-70.68500000000003
 20
-49.97073246008785
 30
0.0
  9
$EXTMAX
 10
68.85968704837725
 20
52.65552454378631
 30
0.0
  9
$LIMMIN
 10
0.0
 20
0.0
  9
$LIMMAX
 10
420.0
 20
297.0
  9
$ORTHOMODE
 70
     0
  9
$REGENMODE
 70
     1
  9
$FILLMODE
 70
     1
  9
$QTEXTMODE
 70
     0
  9
$MIRRTEXT
 70
     1
  9
$LTSCALE
 40
1.0
  9
$ATTMODE
 70
     1
  9
$TEXTSIZE
 40
3.5
  9
$TRACEWID
 40
1.0
  9
$TEXTSTYLE
  7
Standard
  9
$CLAYER
  8
0
  9
$CELTYPE
  6
ByLayer
  9
$CECOLOR
 62
   256
  9
$CELTSCALE
 40
1.0
  9
$DISPSILH
 70
     0
  9
$DIMSCALE
 40
1.0
  9
$DIMASZ
 40
3.302
  9
$DIMEXO
 40
1.0
  9
$DIMDLI
 40
3.75
  9
$DIMRND
 40
0.0
  9
$DIMDLE
 40
0.0
  9
$DIMEXE
 40
1.0
  9
$DIMTP
 40
0.0
  9
$DIMTM
 40
0.0
  9
$DIMTXT
 40
3.5
  9
$DIMCEN
 40
2.5
  9
$DIMTSZ
 40
0.0
  9
$DIMTOL
 70
     0
  9
$DIMLIM
 70
     0
  9
$DIMTIH
 70
     1
  9
$DIMTOH
 70
     1
  9
$DIMSE1
 70
     0
  9
$DIMSE2
 70
     0
  9
$DIMTAD
 70
     1
  9
$DIMZIN
 70
     0
  9
$DIMBLK
  1

  9
$DIMASO
 70
     1
  9
$DIMSHO
 70
     1
  9
$DIMPOST
  1

  9
$DIMAPOST
  1

  9
$DIMALT
 70
     0
  9
$DIMALTD
 70
     3
  9
$DIMALTF
 40
0.0393700787401575
  9
$DIMLFAC
 40
1.0
  9
$DIMTOFL
 70
     1
  9
$DIMTVP
 40
0.0
  9
$DIMTIX
 70
     0
  9
$DIMSOXD
 70
     0
  9
$DIMSAH
 70
     0
  9
$DIMBLK1
  1

  9
$DIMBLK2
  1

  9
$DIMSTYLE
  2
ISO-25
  9
$DIMCLRD
 70
     0
  9
$DIMCLRE
 70
     0
  9
$DIMCLRT
 70
     0
  9
$DIMTFAC
 40
1.0
  9
$DIMGAP
 40
1.524
  9
$DIMJUST
 70
     0
  9
$DIMSD1
 70
     0
  9
$DIMSD2
 70
     0
  9
$DIMTOLJ
 70
     0
  9
$DIMTZIN
 70
     0
  9
$DIMALTZ
 70
     0
  9
$DIMALTTZ
 70
     0
  9
$DIMUPT
 70
     0
  9
$DIMDEC
 70
     2
  9
$DIMTDEC
 70
     2
  9
$DIMALTU
 70
     2
  9
$DIMALTTD
 70
     3
  9
$DIMTXSTY
  7
Standard
  9
$DIMAUNIT
 70
     0
  9
$DIMADEC
 70
     2
  9
$DIMALTRND
 40
0.0
  9
$DIMAZIN
 70
     0
  9
$DIMDSEP
 70
    44
  9
$DIMATFIT
 70
     3
  9
$DIMFRAC
 70
     0
  9
$DIMLDRBLK
  1

  9
$DIMLUNIT
 70
     2
  9
$DIMLWD
 70
    -2
  9
$DIMLWE
 70
    -2
  9
$DIMTMOVE
 70
     0
  9
$LUNITS
 70
     2
  9
$LUPREC
 70
     2
  9
$SKETCHINC
 40
1.0
  9
$FILLETRAD
 40
10.0
  9
$AUNITS
 70
     0
  9
$AUPREC
 70
     2
  9
$MENU
  1
.
  9
$ELEVATION
 40
0.0
  9
$PELEVATION
 40
0.0
  9
$THICKNESS
 40
0.0
  9
$LIMCHECK
 70
     0
  9
$CHAMFERA
 40
0.0
  9
$CHAMFERB
 40
0.0
  9
$CHAMFERC
 40
0.0
  9
$CHAMFERD
 40
0.0
  9
$SKPOLY
 70
     0
  9
$TDCREATE
 40
2458263.619431945
  9
$TDUCREATE
 40
2458263.244431945
  9
$TDUPDATE
 40
2459731.348789109
  9
$TDUUPDATE
 40
2459730.973789109
  9
$TDINDWG
 40
0.0013173264
  9
$TDUSRTIMER
 40
0.0008271412
  9
$USRTIMER
 70
     1
  9
$ANGBASE
 50
0.0
  9
$ANGDIR
 70
     0
  9
$PDMODE
 70
     0
  9
$PDSIZE
 40
-1.0
  9
$PLINEWID
 40
0.0
  9
$SPLFRAME
 70
     0
  9
$SPLINETYPE
 70
     6
  9
$SPLINESEGS
 70
     8
  9
$HANDSEED
  5
2DD
  9
$SURFTAB1
 70
     6
  9
$SURFTAB2
 70
     6
  9
$SURFTYPE
 70
     6
  9
$SURFU
 70
     6
  9
$SURFV
 70
     6
  9
$UCSBASE
  2

  9
$UCSNAME
  2

  9
$UCSORG
 10
0.0
 20
0.0
 30
0.0
  9
$UCSXDIR
 10
1.0
 20
0.0
 30
0.0
  9
$UCSYDIR
 10
0.0
 20
1.0
 30
0.0
  9
$UCSORTHOREF
  2

  9
$UCSORTHOVIEW
 70
     0
  9
$UCSORGTOP
 10
0.0
 20
0.0
 30
0.0
  9
$UCSORGBOTTOM
 10
0.0
 20
0.0
 30
0.0
  9
$UCSORGLEFT
 10
0.0
 20
0.0
 30
0.0
  9
$UCSORGRIGHT
 10
0.0
 20
0.0
 30
0.0
  9
$UCSORGFRONT
 10
0.0
 20
0.0
 30
0.0
  9
$UCSORGBACK
 10
0.0
 20
0.0
 30
0.0
  9
$PUCSBASE
  2

  9
$PUCSNAME
  2

  9
$PUCSORG
 10
0.0
 20
0.0
 30
0.0
  9
$PUCSXDIR
 10
1.0
 20
0.0
 30
0.0
  9
$PUCSYDIR
 10
0.0
 20
1.0
 30
0.0
  9
$PUCSORTHOREF
  2

  9
$PUCSORTHOVIEW
 70
     0
  9
$PUCSORGTOP
 10
0.0
 20
0.0
 30
0.0
  9
$PUCSORGBOTTOM
 10
0.0
 20
0.0
 30
0.0
  9
$PUCSORGLEFT
 10
0.0
 20
0.0
 30
0.0
  9
$PUCSORGRIGHT
 10
0.0
 20
0.0
 30
0.0
  9
$PUCSORGFRONT
 10
0.0
 20
0.0
 30
0.0
  9
$PUCSORGBACK
 10
0.0
 20
0.0
 30
0.0
  9
$USERI1
 70
     0
  9
$USERI2
 70
     0
  9
$USERI3
 70
     0
  9
$USERI4
 70
     0
  9
$USERI5
 70
     0
  9
$USERR1
 40
0.0
  9
$USERR2
 40
0.0
  9
$USERR3
 40
0.0
  9
$USERR4
 40
0.0
  9
$USERR5
 40
0.0
  9
$WORLDVIEW
 70
     1
  9
$SHADEDGE
 70
     3
  9
$SHADEDIF
 70
    70
  9
$TILEMODE
 70
     1
  9
$MAXACTVP
 70
    64
  9
$PINSBASE
 10
0.0
 20
0.0
 30
0.0
  9
$PLIMCHECK
 70
     0
  9
$PEXTMIN
 10
1.000000000000000E+20
 20
1.000000000000000E+20
 30
1.000000000000000E+20
  9
$PEXTMAX
 10
-1.000000000000000E+20
 20
-1.000000000000000E+20
 30
-1.000000000000000E+20
  9
$PLIMMIN
 10
0.0
 20
0.0
  9
$PLIMMAX
 10
0.0
 20
0.0
  9
$UNITMODE
 70
     0
  9
$VISRETAIN
 70
     1
  9
$PLINEGEN
 70
     0
  9
$PSLTSCALE
 70
     1
  9
$TREEDEPTH
 70
  3020
  9
$CMLSTYLE
  2
Standard
  9
$CMLJUST
 70
     0
  9
$CMLSCALE
 40
20.0
  9
$PROXYGRAPHICS
 70
     1
  9
$MEASUREMENT
 70
     1
  9
$CELWEIGHT
370
    -1
  9
$ENDCAPS
280
     0
  9
$JOINSTYLE
280
     0
  9
$LWDISPLAY
290
     1
  9
$INSUNITS
 70
     4
  9
$HYPERLINKBASE
  1

  9
$STYLESHEET
  1

  9
$XEDIT
290
     1
  9
$CEPSNTYPE
380
     0
  9
$PSTYLEMODE
290
     1
  9
$FINGERPRINTGUID
  2
{DD965F2B-5FBF-4B1C-817F-40487967079E}
  9
$VERSIONGUID
  2
{FAEB1C32-E019-11D5-929B-00C0DF256EC4}
  9
$EXTNAMES
290
     1
  9
$PSVPSCALE
 40
0.0
  9
$OLESTARTUP
290
     0
  0
ENDSEC
  0
SECTION
  2
CLASSES
  0
CLASS
  1
ACDBDICTIONARYWDFLT
  2
AcDbDictionaryWithDefault
  3
ObjectDBX Classes
 90
        0
280
     0
281
     0
  0
CLASS
  1
VISUALSTYLE
  2
AcDbVisualStyle
  3
ObjectDBX Classes
 90
     4095
280
     0
281
     0
  0
CLASS
  1
MATERIAL
  2
AcDbMaterial
  3
ObjectDBX Classes
 90
     1153
280
     0
281
     0
  0
CLASS
  1
SCALE
  2
AcDbScale
  3
ObjectDBX Classes
 90
     1153
280
     0
281
     0
  0
CLASS
  1
TABLESTYLE
  2
AcDbTableStyle
  3
ObjectDBX Classes
 90
     4095
280
     0
281
     0
  0
CLASS
  1
MLEADERSTYLE
  2
AcDbMLeaderStyle
  3
ACDB_MLEADERSTYLE_CLASS
 90
     4095
280
     0
281
     0
  0
CLASS
  1
SUN
  2
AcDbSun
  3
SCENEOE
 90
     1153
280
     0
281
     0
  0
CLASS
  1
ACDBPLACEHOLDER
  2
AcDbPlaceHolder
  3
ObjectDBX Classes
 90
        0
280
     0
281
     0
  0
CLASS
  1
LAYOUT
  2
AcDbLayout
  3
ObjectDBX Classes
 90
        0
280
     0
281
     0
  0
CLASS
  1
RASTERVARIABLES
  2
AcDbRasterVariables
  3
ISM
 90
        0
280
     0
281
     0
  0
CLASS
  1
SORTENTSTABLE
  2
AcDbSortentsTable
  3
ObjectDBX Classes
 90
        0
280
     0
281
     0
  0
ENDSEC
  0
SECTION
  2
TABLES
  0
TABLE
  2
VPORT
  5
8
330
0
100
AcDbSymbolTable
 70
     1
  0
VPORT
  5
29
330
8
100
AcDbSymbolTableRecord
100
AcDbViewportTableRecord
  2
*Active
 70
     0
 10
0.0
 20
0.0
 11
1.0
 21
1.0
 12
146.5439647907614
 22
-23.64503885334763
 13
0.0
 23
0.0
 14
10.0
 24
10.0
 15
10.0
 25
10.0
 16
0.0
 26
0.0
 36
1.0
 17
0.0
 27
0.0
 37
0.0
 40
301.134971954396
 41
1.531481481481481
 42
50.0
 43
0.0
 44
0.0
 50
0.0
 51
0.0
 71
    16
 72
  2000
 73
     1
 74
     3
 75
     0
 76
     0
 77
     0
 78
     0
281
     0
 65
     1
110
0.0
120
0.0
130
0.0
111
1.0
121
0.0
131
0.0
112
0.0
122
1.0
132
0.0
 79
     0
146
0.0
  0
ENDTAB
  0
TABLE
  2
LTYPE
  5
5
330
0
100
AcDbSymbolTable
 70
     6
  0
LTYPE
  5
14
330
5
100
AcDbSymbolTableRecord
100
AcDbLinetypeTableRecord
  2
ByBlock
 70
     0
  3

 72
    65
 73
     0
 40
0.0
  0
LTYPE
  5
15
330
5
100
AcDbSymbolTableRecord
100
AcDbLinetypeTableRecord
  2
ByLayer
 70
     0
  3

 72
    65
 73
     0
 40
0.0
  0
LTYPE
  5
16
330
5
100
AcDbSymbolTableRecord
100
AcDbLinetypeTableRecord
  2
Continuous
 70
     0
  3
Solid line
 72
    65
 73
     0
 40
0.0
  0
LTYPE
  5
6E
330
5
100
AcDbSymbolTableRecord
100
AcDbLinetypeTableRecord
  2
HIDDEN
 70
     0
  3
Hidden __ __ __ __ __ __ __ __ __ __ __ __ __ __
 72
    65
 73
     2
 40
1.905
 49
1.27
 74
     0
 49
-0.635
 74
     0
  0
LTYPE
  5
6F
330
5
100
AcDbSymbolTableRecord
100
AcDbLinetypeTableRecord
  2
PHANTOM
 70
     0
  3
Phantom ______  __  __  ______  __  __  ______
 72
    65
 73
     6
 40
12.7
 49
6.35
 74
     0
 49
-1.27
 74
     0
 49
1.27
 74
     0
 49
-1.27
 74
     0
 49
1.27
 74
     0
 49
-1.27
 74
     0
  0
LTYPE
  5
70
330
5
100
AcDbSymbolTableRecord
100
AcDbLinetypeTableRecord
  2
CENTER
 70
     0
  3
Center ____ _ ____ _ ____ _ ____ _ ____ _ ____
 72
    65
 73
     4
 40
10.16
 49
6.35
 74
     0
 49
-1.27
 74
     0
 49
1.27
 74
     0
 49
-1.27
 74
     0
  0
LTYPE
  5
71
330
5
100
AcDbSymbolTableRecord
100
AcDbLinetypeTableRecord
  2
CENTERX2
 70
     0
  3
Center (2x) ________  __  ________  __  _____
 72
    65
 73
     4
 40
20.32
 49
12.7
 74
     0
 49
-2.54
 74
     0
 49
2.54
 74
     0
 49
-2.54
 74
     0
  0
LTYPE
  5
72
330
5
100
AcDbSymbolTableRecord
100
AcDbLinetypeTableRecord
  2
DOT2
 70
     0
  3
Dot (.5x) ........................................
 72
    65
 73
     2
 40
0.635
 49
0.0
 74
     0
 49
-0.635
 74
     0
  0
ENDTAB
  0
TABLE
  2
LAYER
  5
2
102
{ACAD_XDICTIONARY
360
212
102
}
330
0
100
AcDbSymbolTable
 70
    17
  0
LAYER
  5
10
330
2
100
AcDbSymbolTableRecord
100
AcDbLayerTableRecord
  2
0
 70
     0
 62
     7
  6
Continuous
370
    -3
390
F
  0
LAYER
  5
73
330
2
100
AcDbSymbolTableRecord
100
AcDbLayerTableRecord
  2
FORMAT
 70
     0
 62
     2
  6
Continuous
370
    -3
390
F
  0
LAYER
  5
74
330
2
100
AcDbSymbolTableRecord
100
AcDbLayerTableRecord
  2
외형선
 70
     0
 62
   100
  6
Continuous
370
    35
390
F
  0
LAYER
  5
75
330
2
100
AcDbSymbolTableRecord
100
AcDbLayerTableRecord
  2
숨은선
 70
     0
 62
     2
  6
HIDDEN
370
    25
390
F
  0
LAYER
  5
76
330
2
100
AcDbSymbolTableRecord
100
AcDbLayerTableRecord
  2
중심선
 70
     0
 62
     1
  6
CENTERX2
370
    -3
390
F
  0
LAYER
  5
77
330
2
100
AcDbSymbolTableRecord
100
AcDbLayerTableRecord
  2
파단선
 70
     0
 62
     4
  6
Continuous
370
    -3
390
F
  0
LAYER
  5
78
330
2
100
AcDbSymbolTableRecord
100
AcDbLayerTableRecord
  2
해칭선
 70
     0
 62
     4
  6
Continuous
370
    -3
390
F
  0
LAYER
  5
79
330
2
100
AcDbSymbolTableRecord
100
AcDbLayerTableRecord
  2
가는실선
 70
     0
 62
     4
  6
Continuous
370
    -3
390
F
  0
LAYER
  5
7A
330
2
100
AcDbSymbolTableRecord
100
AcDbLayerTableRecord
  2
치수_보조선
 70
     0
 62
     4
  6
Continuous
370
    -3
390
F
  0
LAYER
  5
7B
330
2
100
AcDbSymbolTableRecord
100
AcDbLayerTableRecord
  2
치수문자_일반주서
 70
     0
 62
     7
  6
Continuous
370
    25
390
F
  0
LAYER
  5
7C
330
2
100
AcDbSymbolTableRecord
100
AcDbLayerTableRecord
  2
개별주서
 70
     0
 62
   100
  6
Continuous
370
    35
390
F
  0
LAYER
  5
7D
330
2
100
AcDbSymbolTableRecord
100
AcDbLayerTableRecord
  2
중간선
 70
     0
 62
     2
  6
Continuous
370
    25
390
F
  0
LAYER
  5
7E
330
2
100
AcDbSymbolTableRecord
100
AcDbLayerTableRecord
  2
윤곽선
 70
     0
 62
     3
  6
Continuous
370
    50
390
F
  0
LAYER
  5
7F
330
2
100
AcDbSymbolTableRecord
100
AcDbLayerTableRecord
  2
중심마크
 70
     0
 62
   100
  6
Continuous
370
    35
390
F
  0
LAYER
  5
80
330
2
100
AcDbSymbolTableRecord
100
AcDbLayerTableRecord
  2
가상선
 70
     0
 62
     4
  6
PHANTOM
370
    -3
390
F
  0
LAYER
  5
81
330
2
100
AcDbSymbolTableRecord
100
AcDbLayerTableRecord
  2
특수지정선
 70
     0
 62
     5
  6
CENTERX2
370
    70
390
F
  0
LAYER
  5
153
330
2
100
AcDbSymbolTableRecord
100
AcDbLayerTableRecord
  2
Defpoints
 70
     0
 62
     7
  6
Continuous
290
     0
370
    -3
390
F
  0
ENDTAB
  0
TABLE
  2
STYLE
  5
3
330
0
100
AcDbSymbolTable
 70
     2
  0
STYLE
  5
11
330
3
100
AcDbSymbolTableRecord
100
AcDbTextStyleTableRecord
  2
Standard
 70
     0
 40
0.0
 41
1.0
 50
0.0
 71
     0
 42
3.5
  3
txt
  4

  0
STYLE
  5
97
330
3
100
AcDbSymbolTableRecord
100
AcDbTextStyleTableRecord
  2
SLDTEXTSTYLE0
 70
     0
 40
0.0
 41
0.75
 50
0.0
 71
     0
 42
3.5
  3
TXT
  4

  0
ENDTAB
  0
TABLE
  2
VIEW
  5
6
330
0
100
AcDbSymbolTable
 70
     0
  0
ENDTAB
  0
TABLE
  2
UCS
  5
7
330
0
100
AcDbSymbolTable
 70
     0
  0
ENDTAB
  0
TABLE
  2
APPID
  5
9
330
0
100
AcDbSymbolTable
 70
     2
  0
APPID
  5
12
330
9
100
AcDbSymbolTableRecord
100
AcDbRegAppTableRecord
  2
ACAD
 70
     0
  0
APPID
  5
183
330
9
100
AcDbSymbolTableRecord
100
AcDbRegAppTableRecord
  2
PE_URL
 70
     0
  0
ENDTAB
  0
TABLE
  2
DIMSTYLE
  5
A
330
0
100
AcDbSymbolTable
 70
     5
100
AcDbDimStyleTable
  0
DIMSTYLE
105
27
330
A
100
AcDbSymbolTableRecord
100
AcDbDimStyleTableRecord
  2
ISO-25
 70
     0
 41
2.5
 42
0.625
 43
3.75
 44
1.25
 73
     0
 74
     0
 77
     1
 78
     8
140
2.5
141
2.5
143
0.03937007874016
147
0.625
171
     3
172
     1
178
     0
271
     2
272
     2
274
     3
278
    44
283
     0
284
     8
340
11
  0
DIMSTYLE
105
D9
102
{ACAD_REACTORS
330
D8
330
101
102
}
330
A
100
AcDbSymbolTableRecord
100
AcDbDimStyleTableRecord
  2
SLDDIMSTYLE0
 70
     0
 41
3.302
 44
0.0
 45
0.000000001
 73
     0
 74
     0
 77
     1
 78
     4
 79
     1
140
3.5
143
0.0393700787401575
147
0.875
148
0.000000001
170
     1
173
     1
178
     0
271
     2
272
     2
276
     2
284
    12
340
97
  0
DIMSTYLE
105
ED
102
{ACAD_REACTORS
330
EC
102
}
330
A
100
AcDbSymbolTableRecord
100
AcDbDimStyleTableRecord
  2
SLDDIMSTYLE1
 70
     0
 41
3.302
 44
0.0
 45
0.000000001
 73
     0
 74
     0
 77
     1
 78
     4
 79
     1
140
3.5
143
0.0393700787401575
147
0.875
148
0.000000001
170
     1
172
     1
173
     1
178
     0
271
     2
272
     2
276
     2
284
    12
289
     0
340
97
  0
DIMSTYLE
105
115
102
{ACAD_REACTORS
330
114
102
}
330
A
100
AcDbSymbolTableRecord
100
AcDbDimStyleTableRecord
  2
SLDDIMSTYLE2
 70
     0
 41
3.302
 44
0.0
 45
0.000000001
 73
     0
 74
     0
 77
     1
 78
    12
 79
     3
140
3.5
143
0.0393700787401575
147
0.875
148
0.000000001
170
     1
173
     1
178
     0
271
     2
272
     2
276
     2
284
    12
340
97
  0
DIMSTYLE
105
182
102
{ACAD_REACTORS
330
1F8
330
1D1
330
1DE
330
1EB
102
}
330
A
100
AcDbSymbolTableRecord
100
AcDbDimStyleTableRecord
  2
SLDDIMSTYLE3
 70
     0
 41
3.302
 44
0.0
 45
0.000000001
 73
     0
 74
     0
 77
     1
 78
    12
 79
     3
140
3.5
143
0.0393700787401575
147
0.875
148
0.000000001
170
     1
172
     1
173
     1
178
     0
271
     2
272
     2
276
     2
284
    12
289
     0
340
97
  0
ENDTAB
  0
TABLE
  2
BLOCK_RECORD
  5
1
330
0
100
AcDbSymbolTable
 70
    15
  0
BLOCK_RECORD
  5
1F
102
{ACAD_XDICTIONARY
360
2CF
102
}
330
1
100
AcDbSymbolTableRecord
100
AcDbBlockTableRecord
  2
*Model_Space
340
22
  0
BLOCK_RECORD
  5
1B
330
1
100
AcDbSymbolTableRecord
100
AcDbBlockTableRecord
  2
*Paper_Space
340
1E
  0
BLOCK_RECORD
  5
23
330
1
100
AcDbSymbolTableRecord
100
AcDbBlockTableRecord
  2
*Paper_Space0
340
26
  0
BLOCK_RECORD
  5
82
330
1
100
AcDbSymbolTableRecord
100
AcDbBlockTableRecord
  2
블럭10
340
0
102
{BLKREFS
331
D1
102
}
  0
BLOCK_RECORD
  5
DA
330
1
100
AcDbSymbolTableRecord
100
AcDbBlockTableRecord
  2
_D
340
0
  0
BLOCK_RECORD
  5
EE
330
1
100
AcDbSymbolTableRecord
100
AcDbBlockTableRecord
  2
_D_1
340
0
  0
BLOCK_RECORD
  5
102
330
1
100
AcDbSymbolTableRecord
100
AcDbBlockTableRecord
  2
_D_2
340
0
  0
BLOCK_RECORD
  5
116
330
1
100
AcDbSymbolTableRecord
100
AcDbBlockTableRecord
  2
_D_3
340
0
  0
BLOCK_RECORD
  5
128
330
1
100
AcDbSymbolTableRecord
100
AcDbBlockTableRecord
  2
SW_DOWELSYMBOL_0
340
0
102
{BLKREFS
331
12E
331
205
331
0
102
}
  0
BLOCK_RECORD
  5
216
330
1
100
AcDbSymbolTableRecord
100
AcDbBlockTableRecord
  2
*D8
340
0
  0
BLOCK_RECORD
  5
222
330
1
100
AcDbSymbolTableRecord
100
AcDbBlockTableRecord
  2
*D9
340
0
  0
BLOCK_RECORD
  5
22E
330
1
100
AcDbSymbolTableRecord
100
AcDbBlockTableRecord
  2
*D10
340
0
  0
BLOCK_RECORD
  5
23A
330
1
100
AcDbSymbolTableRecord
100
AcDbBlockTableRecord
  2
*D11
340
0
  0
BLOCK_RECORD
  5
298
330
1
100
AcDbSymbolTableRecord
100
AcDbBlockTableRecord
  2
*D12
340
0
  0
BLOCK_RECORD
  5
2A4
330
1
100
AcDbSymbolTableRecord
100
AcDbBlockTableRecord
  2
*D13
340
0
  0
BLOCK_RECORD
  5
2B0
330
1
100
AcDbSymbolTableRecord
100
AcDbBlockTableRecord
  2
*D14
340
0
  0
BLOCK_RECORD
  5
2BC
330
1
100
AcDbSymbolTableRecord
100
AcDbBlockTableRecord
  2
*D15
340
0
  0
ENDTAB
  0
ENDSEC
  0
SECTION
  2
BLOCKS
  0
BLOCK
  5
20
330
1F
100
AcDbEntity
  8
0
100
AcDbBlockBegin
  2
*Model_Space
 70
     0
 10
0.0
 20
0.0
 30
0.0
  3
*Model_Space
  1
*Model_Space
  0
ENDBLK
  5
21
330
1F
100
AcDbEntity
  8
0
100
AcDbBlockEnd
  0
BLOCK
  5
1C
330
1B
100
AcDbEntity
 67
     1
  8
0
100
AcDbBlockBegin
  2
*Paper_Space
 70
     0
 10
0.0
 20
0.0
 30
0.0
  3
*Paper_Space
  1
*Paper_Space
  0
ENDBLK
  5
1D
330
1B
100
AcDbEntity
 67
     1
  8
0
100
AcDbBlockEnd
  0
BLOCK
  5
24
330
23
100
AcDbEntity
  8
0
100
AcDbBlockBegin
  2
*Paper_Space0
 70
     0
 10
0.0
 20
0.0
 30
0.0
  3
*Paper_Space0
  1
*Paper_Space0
  0
ENDBLK
  5
25
330
23
100
AcDbEntity
  8
0
100
AcDbBlockEnd
  0
BLOCK
  5
83
330
82
100
AcDbEntity
  8
0
100
AcDbBlockBegin
  2
블럭10
 70
     2
 10
0.0
 20
0.0
 30
0.0
  3
블럭10
  1
블럭10
  0
ELLIPSE
  5
85
330
82
100
AcDbEntity
  8
중심선
100
AcDbEllipse
 10
20.54032771741204
 20
12.0471743016438
 30
0.0
 11
6.600054785286829
 21
-1.261213355974178E-13
 31
0.0
210
0.0
220
0.0
230
1.0
 40
0.636358354079598
 41
0.9219305317359503
 42
6.513795318482858
  0
ELLIPSE
  5
86
330
82
100
AcDbEntity
  8
중심선
100
AcDbEllipse
 10
20.54032771746488
 20
12.04717430159265
 30
0.0
 11
3.960054785062283
 21
1.540847449632565E-10
 31
0.0
210
0.0
220
0.0
230
1.0
 40
0.3939339440162632
 41
1.131841032648279
 42
5.62031148352944
  0
LINE
  5
87
330
82
100
AcDbEntity
  8
중심선
100
AcDbLine
 10
2.268634060543552
 20
16.24717430164393
 30
0.0
 11
5.714909304380834
 21
16.24717430164393
 31
0.0
  0
LINE
  5
88
330
82
100
AcDbEntity
  8
중심선
100
AcDbLine
 10
5.245725140726316
 20
7.84717430164391
 30
0.0
 11
8.692000384563599
 21
7.84717430164391
 31
0.0
  0
LINE
  5
89
330
82
100
AcDbEntity
  8
중심선
100
AcDbLine
 10
15.74043728645272
 20
16.24717430164393
 30
0.0
 11
8.692000384563599
 21
7.84717430164391
 31
0.0
  0
LINE
  5
8A
330
82
100
AcDbEntity
  8
중심선
100
AcDbLine
 10
0.1404042013395286
 20
13.71084872107135
 30
0.0
 11
3.58671253028996
 21
13.71088815037384
 31
0.0
  0
LINE
  5
8B
330
82
100
AcDbEntity
  8
중심선
100
AcDbLine
 10
2.750260043222114
 20
10.84717430164391
 30
0.0
 11
6.196535287059397
 21
10.84717430164391
 31
0.0
  0
LINE
  5
8C
330
82
100
AcDbEntity
  8
중심선
100
AcDbLine
 10
12.29416204261559
 20
16.24717430164393
 30
0.0
 11
5.245725140726316
 21
7.84717430164391
 31
0.0
  0
LINE
  5
8D
330
82
100
AcDbEntity
  8
중심선
100
AcDbLine
 10
10.72767329541681
 20
16.24717430164393
 30
0.0
 11
6.196535287059397
 21
10.84717430164391
 31
0.0
  0
LINE
  5
8E
330
82
100
AcDbEntity
  8
중심선
100
AcDbLine
 10
7.28139805157953
 20
16.24717430164393
 30
0.0
 11
2.750260043222114
 21
10.84717430164391
 31
0.0
  0
LINE
  5
8F
330
82
100
AcDbEntity
  8
중심선
100
AcDbLine
 10
5.714909304380834
 20
16.24717430164393
 30
0.0
 11
3.58671253028996
 21
13.71088815037384
 31
0.0
  0
LINE
  5
90
330
82
100
AcDbEntity
  8
중심선
100
AcDbLine
 10
2.268634060543552
 20
16.24717430164393
 30
0.0
 11
0.1404042013395286
 21
13.71084872107135
 31
0.0
  0
LINE
  5
91
330
82
100
AcDbEntity
  8
중심선
100
AcDbLine
 10
7.28139805157953
 20
16.24717430164393
 30
0.0
 11
10.72767329541681
 21
16.24717430164393
 31
0.0
  0
LINE
  5
92
330
82
100
AcDbEntity
  8
중심선
100
AcDbLine
 10
12.29416204261559
 20
16.24717430164393
 30
0.0
 11
15.74043728645272
 21
16.24717430164393
 31
0.0
  0
LINE
  5
93
330
82
100
AcDbEntity
  8
중심선
100
AcDbLine
 10
19.22036997980202
 20
11.08717430171403
 30
0.0
 11
23.66174974927406
 21
11.08717430171406
 31
0.0
  0
LINE
  5
94
330
82
100
AcDbEntity
  8
중심선
100
AcDbLine
 10
19.22039502424796
 20
13.00717430171391
 30
0.0
 11
19.22036997980202
 21
11.08717430171403
 31
0.0
  0
LINE
  5
95
330
82
100
AcDbEntity
  8
중심선
100
AcDbLine
 10
19.22039502424796
 20
13.00717430171391
 30
0.0
 11
26.96566020931264
 21
13.00717430171391
 31
0.0
  0
LINE
  5
96
330
82
100
AcDbEntity
  8
중심선
100
AcDbLine
 10
22.22332737316547
 20
13.45928029700563
 30
0.0
 11
24.52862924686651
 21
15.39360700705356
 31
0.0
  0
ATTDEF
  5
98
330
82
100
AcDbEntity
  8
FORMAT
 62
     2
100
AcDbText
 10
-9.18129528874128
 20
2.075366912832191
 30
0.0
 40
4.233333333333333
  1
E5253064 [ 2 FLUTE ]
 41
0.75
  7
SLDTEXTSTYLE0
 11
-9.18129528874128
 21
-0.0412997538344756
 31
0.0
100
AcDbAttributeDefinition
  3

  2
AUTOATTR0
 70
     0
 74
     1
  0
ENDBLK
  5
84
330
82
100
AcDbEntity
  8
0
100
AcDbBlockEnd
  0
BLOCK
  5
DB
330
DA
100
AcDbEntity
  8
0
100
AcDbBlockBegin
  2
_D
 70
     0
 10
0.0
 20
0.0
 30
0.0
  3
_D
  1
_D
  0
LINE
  5
DD
330
DA
100
AcDbEntity
  8
치수문자_일반주서
 62
     0
370
    -2
100
AcDbLine
 10
48.09999999999999
 20
12.75284108214037
 30
0.0
 11
48.09999999999999
 21
48.28052454378631
 31
0.0
  0
LINE
  5
DE
330
DA
100
AcDbEntity
  8
치수문자_일반주서
 62
     0
370
    -2
100
AcDbLine
 10
-53.5
 20
11.76357492872388
 30
0.0
 11
-53.5
 21
48.28052454378631
 31
0.0
  0
LINE
  5
DF
330
DA
100
AcDbEntity
  8
치수문자_일반주서
 62
     0
370
    -2
100
AcDbLine
 10
44.79799999999999
 20
48.28052454378631
 30
0.0
 11
-50.198
 21
48.28052454378631
 31
0.0
  0
SOLID
  5
E0
330
DA
100
AcDbEntity
  8
치수문자_일반주서
 62
     0
100
AcDbTrace
 10
44.79799999999999
 20
47.73019121045298
 30
0.0
 11
44.79799999999999
 21
48.83085787711965
 31
0.0
 12
48.09999999999999
 22
48.28052454378631
 32
0.0
 13
48.09999999999999
 23
48.28052454378631
 33
0.0
  0
SOLID
  5
E1
330
DA
100
AcDbEntity
  8
치수문자_일반주서
 62
     0
100
AcDbTrace
 10
-50.198
 20
48.83085787711965
 30
0.0
 11
-50.198
 21
47.73019121045298
 31
0.0
 12
-53.5
 22
48.28052454378631
 32
0.0
 13
-53.5
 23
48.28052454378631
 33
0.0
  0
MTEXT
  5
E2
330
DA
100
AcDbEntity
  8
치수문자_일반주서
 62
     0
100
AcDbMText
 10
-2.700000000000003
 20
52.65552454378631
 30
0.0
 40
3.5
 41
0.0
 71
     2
 72
     1
  1
\A1;101.60 [4]
  7
SLDTEXTSTYLE0
 73
     1
 44
1.0
  0
POINT
  5
E3
330
DA
100
AcDbEntity
  8
Defpoints
 62
     0
100
AcDbPoint
 10
48.09999999999999
 20
12.69034108214037
 30
0.0
  0
POINT
  5
E4
330
DA
100
AcDbEntity
  8
Defpoints
 62
     0
100
AcDbPoint
 10
-53.5
 20
11.70107492872388
 30
0.0
  0
POINT
  5
E5
330
DA
100
AcDbEntity
  8
Defpoints
 62
     0
100
AcDbPoint
 10
-53.5
 20
48.28052454378631
 30
0.0
  0
ENDBLK
  5
DC
330
DA
100
AcDbEntity
  8
0
100
AcDbBlockEnd
  0
BLOCK
  5
EF
330
EE
100
AcDbEntity
  8
0
100
AcDbBlockBegin
  2
_D_1
 70
     0
 10
0.0
 20
0.0
 30
0.0
  3
_D_1
  1
_D_1
  0
LINE
  5
F1
330
EE
100
AcDbEntity
  8
치수문자_일반주서
 62
     0
370
    -2
100
AcDbLine
 10
-52.56250000000001
 20
12.70107492872388
 30
0.0
 11
-66.31000000000004
 21
12.70107492872383
 31
0.0
  0
LINE
  5
F2
330
EE
100
AcDbEntity
  8
치수문자_일반주서
 62
     0
370
    -2
100
AcDbLine
 10
-52.56250000000001
 20
-12.69892507127612
 30
0.0
 11
-66.30999999999996
 21
-12.69892507127617
 31
0.0
  0
LINE
  5
F3
330
EE
100
AcDbEntity
  8
치수문자_일반주서
 62
     0
370
    -2
100
AcDbLine
 10
-66.31000000000003
 20
9.399074928723834
 30
0.0
 11
-66.30999999999997
 21
-9.396925071276172
 31
0.0
  0
SOLID
  5
F4
330
EE
100
AcDbEntity
  8
치수문자_일반주서
 62
     0
100
AcDbTrace
 10
-65.7596666666667
 20
9.399074928723836
 30
0.0
 11
-66.86033333333336
 21
9.399074928723833
 31
0.0
 12
-66.31000000000004
 22
12.70107492872383
 32
0.0
 13
-66.31000000000004
 23
12.70107492872383
 33
0.0
  0
SOLID
  5
F5
330
EE
100
AcDbEntity
  8
치수문자_일반주서
 62
     0
100
AcDbTrace
 10
-66.8603333333333
 20
-9.396925071276174
 30
0.0
 11
-65.75966666666665
 21
-9.39692507127617
 31
0.0
 12
-66.30999999999996
 22
-12.69892507127617
 32
0.0
 13
-66.30999999999996
 23
-12.69892507127617
 33
0.0
  0
MTEXT
  5
F6
330
EE
100
AcDbEntity
  8
치수문자_일반주서
 62
     0
100
AcDbMText
 10
-70.685
 20
0.0010749287238708
 30
0.0
 40
3.5
 41
0.0
 71
     2
 72
     1
  1
\A1;%%c25.40 [1]
  7
SLDTEXTSTYLE0
 11
-3.356894814614646E-15
 21
1.0
 31
0.0
 73
     1
 44
1.0
  0
POINT
  5
F7
330
EE
100
AcDbEntity
  8
Defpoints
 62
     0
100
AcDbPoint
 10
-52.50000000000001
 20
12.70107492872388
 30
0.0
  0
POINT
  5
F8
330
EE
100
AcDbEntity
  8
Defpoints
 62
     0
100
AcDbPoint
 10
-52.50000000000001
 20
-12.69892507127612
 30
0.0
  0
POINT
  5
F9
330
EE
100
AcDbEntity
  8
Defpoints
 62
     0
100
AcDbPoint
 10
-66.30999999999996
 20
-12.69892507127617
 30
0.0
  0
ENDBLK
  5
F0
330
EE
100
AcDbEntity
  8
0
100
AcDbBlockEnd
  0
BLOCK
  5
103
330
102
100
AcDbEntity
  8
0
100
AcDbBlockBegin
  2
_D_2
 70
     0
 10
0.0
 20
0.0
 30
0.0
  3
_D_2
  1
_D_2
  0
LINE
  5
105
330
102
100
AcDbEntity
  8
치수문자_일반주서
 62
     0
370
    -2
100
AcDbLine
 10
48.09999999999999
 20
12.75284108214037
 30
0.0
 11
48.09999999999999
 21
32.92695859564088
 31
0.0
  0
LINE
  5
106
330
102
100
AcDbEntity
  8
치수문자_일반주서
 62
     0
370
    -2
100
AcDbLine
 10
9.999999999999995
 20
12.69959480212399
 30
0.0
 11
9.999999999999993
 21
32.92695859564088
 31
0.0
  0
LINE
  5
107
330
102
100
AcDbEntity
  8
치수문자_일반주서
 62
     0
370
    -2
100
AcDbLine
 10
44.79799999999999
 20
32.92695859564088
 30
0.0
 11
13.30199999999999
 21
32.92695859564088
 31
0.0
  0
SOLID
  5
108
330
102
100
AcDbEntity
  8
치수문자_일반주서
 62
     0
100
AcDbTrace
 10
44.79799999999999
 20
32.37662526230754
 30
0.0
 11
44.79799999999999
 21
33.47729192897421
 31
0.0
 12
48.09999999999999
 22
32.92695859564088
 32
0.0
 13
48.09999999999999
 23
32.92695859564088
 33
0.0
  0
SOLID
  5
109
330
102
100
AcDbEntity
  8
치수문자_일반주서
 62
     0
100
AcDbTrace
 10
13.30199999999999
 20
33.47729192897421
 30
0.0
 11
13.30199999999999
 21
32.37662526230754
 31
0.0
 12
9.999999999999993
 22
32.92695859564088
 32
0.0
 13
9.999999999999993
 23
32.92695859564088
 33
0.0
  0
MTEXT
  5
10A
330
102
100
AcDbEntity
  8
치수문자_일반주서
 62
     0
100
AcDbMText
 10
29.05
 20
37.30195859564088
 30
0.0
 40
3.5
 41
0.0
 71
     2
 72
     1
  1
\A1;38.10 [1 1/2]
  7
SLDTEXTSTYLE0
 73
     1
 44
1.0
  0
POINT
  5
10B
330
102
100
AcDbEntity
  8
Defpoints
 62
     0
100
AcDbPoint
 10
48.09999999999999
 20
12.69034108214037
 30
0.0
  0
POINT
  5
10C
330
102
100
AcDbEntity
  8
Defpoints
 62
     0
100
AcDbPoint
 10
9.999999999999995
 20
12.63709480212399
 30
0.0
  0
POINT
  5
10D
330
102
100
AcDbEntity
  8
Defpoints
 62
     0
100
AcDbPoint
 10
9.999999999999995
 20
32.92695859564088
 30
0.0
  0
ENDBLK
  5
104
330
102
100
AcDbEntity
  8
0
100
AcDbBlockEnd
  0
BLOCK
  5
117
330
116
100
AcDbEntity
  8
0
100
AcDbBlockBegin
  2
_D_3
 70
     0
 10
0.0
 20
0.0
 30
0.0
  3
_D_3
  1
_D_3
  0
LINE
  5
119
330
116
100
AcDbEntity
  8
치수문자_일반주서
 62
     0
370
    -2
100
AcDbLine
 10
48.16249999999999
 20
12.69034108214037
 30
0.0
 11
68.30935371504386
 21
12.69034108214044
 31
0.0
  0
LINE
  5
11A
330
116
100
AcDbEntity
  8
치수문자_일반주서
 62
     0
370
    -2
100
AcDbLine
 10
48.16249999999999
 20
-12.68819122469258
 30
0.0
 11
68.30935371504394
 21
-12.68819122469251
 31
0.0
  0
LINE
  5
11B
330
116
100
AcDbEntity
  8
치수문자_일반주서
 62
     0
370
    -2
100
AcDbLine
 10
68.30935371504386
 20
12.69034108214044
 30
0.0
 11
68.30935371504378
 21
37.42984108214044
 31
0.0
  0
LINE
  5
11C
330
116
100
AcDbEntity
  8
치수문자_일반주서
 62
     0
370
    -2
100
AcDbLine
 10
68.30935371504387
 20
9.38834108214044
 30
0.0
 11
68.30935371504393
 21
-9.38619122469251
 31
0.0
  0
SOLID
  5
11D
330
116
100
AcDbEntity
  8
치수문자_일반주서
 62
     0
100
AcDbTrace
 10
68.8596870483772
 20
9.388341082140442
 30
0.0
 11
67.75902038171054
 21
9.388341082140439
 31
0.0
 12
68.30935371504386
 22
12.69034108214044
 32
0.0
 13
68.30935371504386
 23
12.69034108214044
 33
0.0
  0
SOLID
  5
11E
330
116
100
AcDbEntity
  8
치수문자_일반주서
 62
     0
100
AcDbTrace
 10
67.7590203817106
 20
-9.386191224692512
 30
0.0
 11
68.85968704837725
 21
-9.386191224692508
 31
0.0
 12
68.30935371504394
 22
-12.68819122469251
 32
0.0
 13
68.30935371504394
 23
-12.68819122469251
 33
0.0
  0
MTEXT
  5
11F
330
116
100
AcDbEntity
  8
치수문자_일반주서
 62
     0
100
AcDbMText
 10
63.93435371504381
 20
27.36734108214043
 30
0.0
 40
3.5
 41
0.0
 71
     2
 72
     1
  1
\A1;%%c25.4 [1]
  7
SLDTEXTSTYLE0
 11
-3.359734410971242E-15
 21
1.0
 31
0.0
 73
     1
 44
1.0
  0
POINT
  5
120
330
116
100
AcDbEntity
  8
Defpoints
 62
     0
100
AcDbPoint
 10
48.09999999999999
 20
12.69034108214037
 30
0.0
  0
POINT
  5
121
330
116
100
AcDbEntity
  8
Defpoints
 62
     0
100
AcDbPoint
 10
48.09999999999999
 20
-12.68819122469258
 30
0.0
  0
POINT
  5
122
330
116
100
AcDbEntity
  8
Defpoints
 62
     0
100
AcDbPoint
 10
68.30935371504394
 20
-12.68819122469251
 30
0.0
  0
ENDBLK
  5
118
330
116
100
AcDbEntity
  8
0
100
AcDbBlockEnd
  0
BLOCK
  5
129
330
128
100
AcDbEntity
  8
0
100
AcDbBlockBegin
  2
SW_DOWELSYMBOL_0
 70
     0
 10
0.0
 20
0.0
 30
0.0
  3
SW_DOWELSYMBOL_0
  1
SW_DOWELSYMBOL_0
  0
CIRCLE
  5
12B
330
128
100
AcDbEntity
  8
외형선
 62
     0
100
AcDbCircle
 10
0.0
 20
0.0
 30
0.0
 40
3.000000000000004
  0
HATCH
  5
12C
330
128
100
AcDbEntity
  8
0
  6
Continuous
 62
     0
370
    35
100
AcDbHatch
 10
0.0
 20
0.0
 30
0.0
210
0.0
220
0.0
230
1.0
  2
SOLID
 70
     1
 71
     0
 91
        1
 92
        0
 93
        3
 72
     2
 10
0.0000000000000087
 20
0.0
 40
3.000000000000004
 50
0.0
 51
90.0
 73
     1
 72
     1
 10
0.0000000000000087
 20
3.000000000000004
 11
0.0000000000000087
 21
0.0
 72
     1
 10
0.0000000000000087
 20
0.0
 11
3.000000000000013
 21
0.0
 97
        0
 75
     0
 76
     1
 98
        1
 10
0.0
 20
0.0
  0
HATCH
  5
12D
330
128
100
AcDbEntity
  8
0
  6
Continuous
 62
     0
370
    35
100
AcDbHatch
 10
0.0
 20
0.0
 30
0.0
210
0.0
220
0.0
230
1.0
  2
SOLID
 70
     1
 71
     0
 91
        1
 92
        0
 93
        3
 72
     2
 10
0.0000000000000087
 20
0.0
 40
3.000000000000004
 50
180.0
 51
270.0000000000007
 73
     1
 72
     1
 10
0.0000000000000087
 20
-3.000000000000004
 11
0.0000000000000087
 21
0.0
 72
     1
 10
0.0000000000000087
 20
0.0
 11
-2.999999999999996
 21
0.0
 97
        0
 75
     0
 76
     1
 98
        1
 10
0.0
 20
0.0
  0
ENDBLK
  5
12A
330
128
100
AcDbEntity
  8
0
100
AcDbBlockEnd
  0
BLOCK
  5
217
330
216
100
AcDbEntity
  8
0
100
AcDbBlockBegin
  2
*D8
 70
     1
 10
0.0
 20
0.0
 30
0.0
  3
*D8
  1

  0
LINE
  5
219
330
216
100
AcDbEntity
  8
치수문자_일반주서
 62
     0
370
    -2
100
AcDbLine
 10
115.975
 20
25.17201358484582
 30
0.0
 11
115.975
 21
51.1953718407879
 31
0.0
  0
LINE
  5
21A
330
216
100
AcDbEntity
  8
치수문자_일반주서
 62
     0
370
    -2
100
AcDbLine
 10
14.37499999999996
 20
24.96250000000003
 30
0.0
 11
14.37499999999996
 21
51.1953718407879
 31
0.0
  0
LINE
  5
21B
330
216
100
AcDbEntity
  8
치수문자_일반주서
 62
     0
370
    -2
100
AcDbLine
 10
112.673
 20
51.1953718407879
 30
0.0
 11
17.67699999999996
 21
51.1953718407879
 31
0.0
  0
SOLID
  5
21C
330
216
100
AcDbEntity
  8
치수문자_일반주서
 62
     0
100
AcDbTrace
 10
112.673
 20
50.64503850745457
 30
0.0
 11
112.673
 21
51.74570517412123
 31
0.0
 12
115.975
 22
51.1953718407879
 32
0.0
 13
115.975
 23
51.1953718407879
 33
0.0
  0
SOLID
  5
21D
330
216
100
AcDbEntity
  8
치수문자_일반주서
 62
     0
100
AcDbTrace
 10
17.67699999999996
 20
51.74570517412123
 30
0.0
 11
17.67699999999996
 21
50.64503850745457
 31
0.0
 12
14.37499999999996
 22
51.1953718407879
 32
0.0
 13
14.37499999999996
 23
51.1953718407879
 33
0.0
  0
MTEXT
  5
21E
330
216
100
AcDbEntity
  8
치수문자_일반주서
 62
     0
100
AcDbMText
 10
65.31347048023953
 20
55.5703718407879
 30
0.0
 40
3.5
 41
0.0
 71
     2
 72
     1
  1
\A1;101.6 [4]
  7
SLDTEXTSTYLE0
 73
     1
 44
1.0
  0
POINT
  5
21F
330
216
100
AcDbEntity
  8
Defpoints
 62
     0
100
AcDbPoint
 10
115.975
 20
25.10951358484582
 30
0.0
  0
POINT
  5
220
330
216
100
AcDbEntity
  8
Defpoints
 62
     0
100
AcDbPoint
 10
14.37499999999996
 20
24.90000000000003
 30
0.0
  0
POINT
  5
221
330
216
100
AcDbEntity
  8
Defpoints
 62
     0
100
AcDbPoint
 10
14.37499999999996
 20
51.1953718407879
 30
0.0
  0
ENDBLK
  5
218
330
216
100
AcDbEntity
  8
0
100
AcDbBlockEnd
  0
BLOCK
  5
223
330
222
100
AcDbEntity
  8
0
100
AcDbBlockBegin
  2
*D9
 70
     1
 10
0.0
 20
0.0
 30
0.0
  3
*D9
  1

  0
LINE
  5
225
330
222
100
AcDbEntity
  8
치수문자_일반주서
 62
     0
370
    -2
100
AcDbLine
 10
115.975
 20
22.23486111009293
 30
0.0
 11
115.975
 21
38.22465310367576
 31
0.0
  0
LINE
  5
226
330
222
100
AcDbEntity
  8
치수문자_일반주서
 62
     0
370
    -2
100
AcDbLine
 10
77.87499999999996
 20
21.9172713941135
 30
0.0
 11
77.87499999999996
 21
38.22465310367576
 31
0.0
  0
LINE
  5
227
330
222
100
AcDbEntity
  8
치수문자_일반주서
 62
     0
370
    -2
100
AcDbLine
 10
112.6729999999999
 20
38.22465310367576
 30
0.0
 11
81.17699999999996
 21
38.22465310367576
 31
0.0
  0
SOLID
  5
228
330
222
100
AcDbEntity
  8
치수문자_일반주서
 62
     0
100
AcDbTrace
 10
112.6729999999999
 20
37.67431977034243
 30
0.0
 11
112.6729999999999
 21
38.7749864370091
 31
0.0
 12
115.975
 22
38.22465310367576
 32
0.0
 13
115.975
 23
38.22465310367576
 33
0.0
  0
SOLID
  5
229
330
222
100
AcDbEntity
  8
치수문자_일반주서
 62
     0
100
AcDbTrace
 10
81.17699999999996
 20
38.7749864370091
 30
0.0
 11
81.17699999999996
 21
37.67431977034243
 31
0.0
 12
77.87499999999996
 22
38.22465310367576
 32
0.0
 13
77.87499999999996
 23
38.22465310367576
 33
0.0
  0
MTEXT
  5
22A
330
222
100
AcDbEntity
  8
치수문자_일반주서
 62
     0
100
AcDbMText
 10
96.92499999999995
 20
42.59965310367576
 30
0.0
 40
3.5
 41
0.0
 71
     2
 72
     1
  1
\A1;38.1 [1 1/2]
  7
SLDTEXTSTYLE0
 73
     1
 44
1.0
  0
POINT
  5
22B
330
222
100
AcDbEntity
  8
Defpoints
 62
     0
100
AcDbPoint
 10
115.975
 20
22.17236111009293
 30
0.0
  0
POINT
  5
22C
330
222
100
AcDbEntity
  8
Defpoints
 62
     0
100
AcDbPoint
 10
77.87499999999996
 20
21.8547713941135
 30
0.0
  0
POINT
  5
22D
330
222
100
AcDbEntity
  8
Defpoints
 62
     0
100
AcDbPoint
 10
77.87499999999996
 20
38.22465310367576
 30
0.0
  0
ENDBLK
  5
224
330
222
100
AcDbEntity
  8
0
100
AcDbBlockEnd
  0
BLOCK
  5
22F
330
22E
100
AcDbEntity
  8
0
100
AcDbBlockBegin
  2
*D10
 70
     1
 10
0.0
 20
0.0
 30
0.0
  3
*D10
  1

  0
LINE
  5
231
330
22E
100
AcDbEntity
  8
치수문자_일반주서
 62
     0
370
    -2
100
AcDbLine
 10
14.81249999999996
 20
25.40000000000004
 30
0.0
 11
4.374999999999956
 21
25.4
 31
0.0
  0
LINE
  5
232
330
22E
100
AcDbEntity
  8
치수문자_일반주서
 62
     0
370
    -2
100
AcDbLine
 10
14.81249999999996
 20
0.0000000000000406
 30
0.0
 11
4.375000000000044
 21
0.0000000000000018
 31
0.0
  0
LINE
  5
233
330
22E
100
AcDbEntity
  8
치수문자_일반주서
 62
     0
370
    -2
100
AcDbLine
 10
4.374999999999967
 20
22.098
 30
0.0
 11
4.375000000000033
 21
3.302000000000002
 31
0.0
  0
SOLID
  5
234
330
22E
100
AcDbEntity
  8
치수문자_일반주서
 62
     0
100
AcDbTrace
 10
4.925333333333301
 20
22.09800000000001
 30
0.0
 11
3.824666666666634
 21
22.098
 31
0.0
 12
4.374999999999956
 22
25.4
 32
0.0
 13
4.374999999999956
 23
25.4
 33
0.0
  0
SOLID
  5
235
330
22E
100
AcDbEntity
  8
치수문자_일반주서
 62
     0
100
AcDbTrace
 10
3.824666666666699
 20
3.302
 30
0.0
 11
4.925333333333366
 21
3.302000000000004
 31
0.0
 12
4.375000000000044
 22
0.0000000000000018
 32
0.0
 13
4.375000000000044
 23
0.0000000000000018
 33
0.0
  0
MTEXT
  5
236
330
22E
100
AcDbEntity
  8
치수문자_일반주서
 62
     0
100
AcDbMText
 10
0.0
 20
12.70000000000009
 30
0.0
 40
3.5
 41
0.0
 71
     2
 72
     1
  1
\A1;%%c25.4 [1]
  7
SLDTEXTSTYLE0
 11
-3.496765431890257E-15
 21
1.0
 31
0.0
 73
     1
 44
1.0
  0
POINT
  5
237
330
22E
100
AcDbEntity
  8
Defpoints
 62
     0
100
AcDbPoint
 10
14.87499999999996
 20
25.40000000000004
 30
0.0
  0
POINT
  5
238
330
22E
100
AcDbEntity
  8
Defpoints
 62
     0
100
AcDbPoint
 10
14.87499999999996
 20
0.0000000000000409
 30
0.0
  0
POINT
  5
239
330
22E
100
AcDbEntity
  8
Defpoints
 62
     0
100
AcDbPoint
 10
4.375000000000043
 20
0.0000000000000016
 30
0.0
  0
ENDBLK
  5
230
330
22E
100
AcDbEntity
  8
0
100
AcDbBlockEnd
  0
BLOCK
  5
23B
330
23A
100
AcDbEntity
  8
0
100
AcDbBlockBegin
  2
*D11
 70
     1
 10
0.0
 20
0.0
 30
0.0
  3
*D11
  1

  0
LINE
  5
23D
330
23A
100
AcDbEntity
  8
치수문자_일반주서
 62
     0
370
    -2
100
AcDbLine
 10
114.8838755214296
 20
0.0000000000000411
 30
0.0
 11
128.1091059243044
 21
0.0000000000000924
 31
0.0
  0
LINE
  5
23E
330
23A
100
AcDbEntity
  8
치수문자_일반주서
 62
     0
370
    -2
100
AcDbLine
 10
114.8838755214294
 20
25.40000000000004
 30
0.0
 11
128.1091059243043
 21
25.40000000000009
 31
0.0
  0
LINE
  5
23F
330
23A
100
AcDbEntity
  8
치수문자_일반주서
 62
     0
370
    -2
100
AcDbLine
 10
128.1091059243044
 20
3.302000000000092
 30
0.0
 11
128.1091059243043
 21
22.09800000000009
 31
0.0
  0
SOLID
  5
240
330
23A
100
AcDbEntity
  8
치수문자_일반주서
 62
     0
100
AcDbTrace
 10
127.5587725909711
 20
3.302000000000091
 30
0.0
 11
128.6594392576377
 21
3.302000000000094
 31
0.0
 12
128.1091059243044
 22
0.0000000000000924
 32
0.0
 13
128.1091059243044
 23
0.0000000000000924
 33
0.0
  0
SOLID
  5
241
330
23A
100
AcDbEntity
  8
치수문자_일반주서
 62
     0
100
AcDbTrace
 10
128.6594392576376
 20
22.09800000000009
 30
0.0
 11
127.558772590971
 21
22.09800000000009
 31
0.0
 12
128.1091059243043
 22
25.40000000000009
 32
0.0
 13
128.1091059243043
 23
25.40000000000009
 33
0.0
  0
MTEXT
  5
242
330
23A
100
AcDbEntity
  8
치수문자_일반주서
 62
     0
100
AcDbMText
 10
123.7341059243044
 20
12.70000000000003
 30
0.0
 40
3.5
 41
0.0
 71
     2
 72
     1
  1
\A1;%%c25.4 [1]
  7
SLDTEXTSTYLE0
 11
-3.356894814614647E-15
 21
1.0
 31
0.0
 73
     1
 44
1.0
  0
POINT
  5
243
330
23A
100
AcDbEntity
  8
Defpoints
 62
     0
100
AcDbPoint
 10
114.8213755214296
 20
0.0000000000000409
 30
0.0
  0
POINT
  5
244
330
23A
100
AcDbEntity
  8
Defpoints
 62
     0
100
AcDbPoint
 10
114.8213755214294
 20
25.40000000000004
 30
0.0
  0
POINT
  5
245
330
23A
100
AcDbEntity
  8
Defpoints
 62
     0
100
AcDbPoint
 10
128.1091059243043
 20
25.40000000000009
 30
0.0
  0
ENDBLK
  5
23C
330
23A
100
AcDbEntity
  8
0
100
AcDbBlockEnd
  0
BLOCK
  5
299
330
298
100
AcDbEntity
  8
0
100
AcDbBlockBegin
  2
*D12
 70
     1
 10
0.0
 20
0.0
 30
0.0
  3
*D12
  1

  0
LINE
  5
29B
330
298
100
AcDbEntity
  8
치수문자_일반주서
 62
     0
370
    -2
100
AcDbLine
 10
236.9345328335732
 20
-54.11866753840588
 30
0.0
 11
236.9345328335732
 21
-28.0953092824638
 31
0.0
  0
LINE
  5
29C
330
298
100
AcDbEntity
  8
치수문자_일반주서
 62
     0
370
    -2
100
AcDbLine
 10
135.3345328335732
 20
-54.32818112325167
 30
0.0
 11
135.3345328335732
 21
-28.0953092824638
 31
0.0
  0
LINE
  5
29D
330
298
100
AcDbEntity
  8
치수문자_일반주서
 62
     0
370
    -2
100
AcDbLine
 10
233.6325328335732
 20
-28.0953092824638
 30
0.0
 11
138.6365328335732
 21
-28.0953092824638
 31
0.0
  0
SOLID
  5
29E
330
298
100
AcDbEntity
  8
치수문자_일반주서
 62
     0
100
AcDbTrace
 10
233.6325328335732
 20
-28.64564261579714
 30
0.0
 11
233.6325328335732
 21
-27.54497594913047
 31
0.0
 12
236.9345328335732
 22
-28.0953092824638
 32
0.0
 13
236.9345328335732
 23
-28.0953092824638
 33
0.0
  0
SOLID
  5
29F
330
298
100
AcDbEntity
  8
치수문자_일반주서
 62
     0
100
AcDbTrace
 10
138.6365328335732
 20
-27.54497594913047
 30
0.0
 11
138.6365328335732
 21
-28.64564261579714
 31
0.0
 12
135.3345328335732
 22
-28.0953092824638
 32
0.0
 13
135.3345328335732
 23
-28.0953092824638
 33
0.0
  0
MTEXT
  5
2A0
330
298
100
AcDbEntity
  8
치수문자_일반주서
 62
     0
100
AcDbMText
 10
186.2730033138128
 20
-23.7203092824638
 30
0.0
 40
3.5
 41
0.0
 71
     2
 72
     1
  1
\A1;101.6 [4]
  7
SLDTEXTSTYLE0
 73
     1
 44
1.0
  0
POINT
  5
2A1
330
298
100
AcDbEntity
  8
Defpoints
 62
     0
100
AcDbPoint
 10
236.9345328335732
 20
-54.18116753840588
 30
0.0
  0
POINT
  5
2A2
330
298
100
AcDbEntity
  8
Defpoints
 62
     0
100
AcDbPoint
 10
135.3345328335732
 20
-54.39068112325167
 30
0.0
  0
POINT
  5
2A3
330
298
100
AcDbEntity
  8
Defpoints
 62
     0
100
AcDbPoint
 10
135.3345328335732
 20
-28.0953092824638
 30
0.0
  0
ENDBLK
  5
29A
330
298
100
AcDbEntity
  8
0
100
AcDbBlockEnd
  0
BLOCK
  5
2A5
330
2A4
100
AcDbEntity
  8
0
100
AcDbBlockBegin
  2
*D13
 70
     1
 10
0.0
 20
0.0
 30
0.0
  3
*D13
  1

  0
LINE
  5
2A7
330
2A4
100
AcDbEntity
  8
치수문자_일반주서
 62
     0
370
    -2
100
AcDbLine
 10
236.9345328335732
 20
-57.05582001315878
 30
0.0
 11
236.9345328335732
 21
-41.06602801957594
 31
0.0
  0
LINE
  5
2A8
330
2A4
100
AcDbEntity
  8
치수문자_일반주서
 62
     0
370
    -2
100
AcDbLine
 10
198.8345328335732
 20
-57.3734097291382
 30
0.0
 11
198.8345328335732
 21
-41.06602801957594
 31
0.0
  0
LINE
  5
2A9
330
2A4
100
AcDbEntity
  8
치수문자_일반주서
 62
     0
370
    -2
100
AcDbLine
 10
233.6325328335732
 20
-41.06602801957594
 30
0.0
 11
202.1365328335732
 21
-41.06602801957594
 31
0.0
  0
SOLID
  5
2AA
330
2A4
100
AcDbEntity
  8
치수문자_일반주서
 62
     0
100
AcDbTrace
 10
233.6325328335732
 20
-41.61636135290927
 30
0.0
 11
233.6325328335732
 21
-40.5156946862426
 31
0.0
 12
236.9345328335732
 22
-41.06602801957594
 32
0.0
 13
236.9345328335732
 23
-41.06602801957594
 33
0.0
  0
SOLID
  5
2AB
330
2A4
100
AcDbEntity
  8
치수문자_일반주서
 62
     0
100
AcDbTrace
 10
202.1365328335732
 20
-40.5156946862426
 30
0.0
 11
202.1365328335732
 21
-41.61636135290927
 31
0.0
 12
198.8345328335732
 22
-41.06602801957594
 32
0.0
 13
198.8345328335732
 23
-41.06602801957594
 33
0.0
  0
MTEXT
  5
2AC
330
2A4
100
AcDbEntity
  8
치수문자_일반주서
 62
     0
100
AcDbMText
 10
217.8845328335732
 20
-36.69102801957594
 30
0.0
 40
3.5
 41
0.0
 71
     2
 72
     1
  1
\A1;38.1 [1 1/2]
  7
SLDTEXTSTYLE0
 73
     1
 44
1.0
  0
POINT
  5
2AD
330
2A4
100
AcDbEntity
  8
Defpoints
 62
     0
100
AcDbPoint
 10
236.9345328335732
 20
-57.11832001315878
 30
0.0
  0
POINT
  5
2AE
330
2A4
100
AcDbEntity
  8
Defpoints
 62
     0
100
AcDbPoint
 10
198.8345328335732
 20
-57.4359097291382
 30
0.0
  0
POINT
  5
2AF
330
2A4
100
AcDbEntity
  8
Defpoints
 62
     0
100
AcDbPoint
 10
198.8345328335732
 20
-41.06602801957594
 30
0.0
  0
ENDBLK
  5
2A6
330
2A4
100
AcDbEntity
  8
0
100
AcDbBlockEnd
  0
BLOCK
  5
2B1
330
2B0
100
AcDbEntity
  8
0
100
AcDbBlockBegin
  2
*D14
 70
     1
 10
0.0
 20
0.0
 30
0.0
  3
*D14
  1

  0
LINE
  5
2B3
330
2B0
100
AcDbEntity
  8
치수문자_일반주서
 62
     0
370
    -2
100
AcDbLine
 10
135.7720328335732
 20
-53.89068112325166
 30
0.0
 11
125.3345328335732
 21
-53.8906811232517
 31
0.0
  0
LINE
  5
2B4
330
2B0
100
AcDbEntity
  8
치수문자_일반주서
 62
     0
370
    -2
100
AcDbLine
 10
135.7720328335732
 20
-79.29068112325166
 30
0.0
 11
125.3345328335733
 21
-79.29068112325169
 31
0.0
  0
LINE
  5
2B5
330
2B0
100
AcDbEntity
  8
치수문자_일반주서
 62
     0
370
    -2
100
AcDbLine
 10
125.3345328335732
 20
-57.1926811232517
 30
0.0
 11
125.3345328335733
 21
-75.98868112325168
 31
0.0
  0
SOLID
  5
2B6
330
2B0
100
AcDbEntity
  8
치수문자_일반주서
 62
     0
100
AcDbTrace
 10
125.8848661669065
 20
-57.1926811232517
 30
0.0
 11
124.7841995002399
 21
-57.1926811232517
 31
0.0
 12
125.3345328335732
 22
-53.8906811232517
 32
0.0
 13
125.3345328335732
 23
-53.8906811232517
 33
0.0
  0
SOLID
  5
2B7
330
2B0
100
AcDbEntity
  8
치수문자_일반주서
 62
     0
100
AcDbTrace
 10
124.7841995002399
 20
-75.98868112325168
 30
0.0
 11
125.8848661669066
 21
-75.98868112325168
 31
0.0
 12
125.3345328335733
 22
-79.29068112325169
 32
0.0
 13
125.3345328335733
 23
-79.29068112325169
 33
0.0
  0
MTEXT
  5
2B8
330
2B0
100
AcDbEntity
  8
치수문자_일반주서
 62
     0
100
AcDbMText
 10
120.9595328335732
 20
-66.59068112325161
 30
0.0
 40
3.5
 41
0.0
 71
     2
 72
     1
  1
\A1;%%c25.4 [1]
  7
SLDTEXTSTYLE0
 11
-3.356894814614646E-15
 21
1.0
 31
0.0
 73
     1
 44
1.0
  0
POINT
  5
2B9
330
2B0
100
AcDbEntity
  8
Defpoints
 62
     0
100
AcDbPoint
 10
135.8345328335732
 20
-53.89068112325166
 30
0.0
  0
POINT
  5
2BA
330
2B0
100
AcDbEntity
  8
Defpoints
 62
     0
100
AcDbPoint
 10
135.8345328335732
 20
-79.29068112325166
 30
0.0
  0
POINT
  5
2BB
330
2B0
100
AcDbEntity
  8
Defpoints
 62
     0
100
AcDbPoint
 10
125.3345328335733
 20
-79.2906811232517
 30
0.0
  0
ENDBLK
  5
2B2
330
2B0
100
AcDbEntity
  8
0
100
AcDbBlockEnd
  0
BLOCK
  5
2BD
330
2BC
100
AcDbEntity
  8
0
100
AcDbBlockBegin
  2
*D15
 70
     1
 10
0.0
 20
0.0
 30
0.0
  3
*D15
  1

  0
LINE
  5
2BF
330
2BC
100
AcDbEntity
  8
치수문자_일반주서
 62
     0
370
    -2
100
AcDbLine
 10
235.8434083550028
 20
-79.29068112325166
 30
0.0
 11
249.0686387578776
 21
-79.2906811232516
 31
0.0
  0
LINE
  5
2C0
330
2BC
100
AcDbEntity
  8
치수문자_일반주서
 62
     0
370
    -2
100
AcDbLine
 10
235.8434083550027
 20
-53.89068112325166
 30
0.0
 11
249.0686387578776
 21
-53.8906811232516
 31
0.0
  0
LINE
  5
2C1
330
2BC
100
AcDbEntity
  8
치수문자_일반주서
 62
     0
370
    -2
100
AcDbLine
 10
249.0686387578776
 20
-75.9886811232516
 30
0.0
 11
249.0686387578776
 21
-57.1926811232516
 31
0.0
  0
SOLID
  5
2C2
330
2BC
100
AcDbEntity
  8
치수문자_일반주서
 62
     0
100
AcDbTrace
 10
248.5183054245443
 20
-75.9886811232516
 30
0.0
 11
249.618972091211
 21
-75.9886811232516
 31
0.0
 12
249.0686387578776
 22
-79.2906811232516
 32
0.0
 13
249.0686387578776
 23
-79.2906811232516
 33
0.0
  0
SOLID
  5
2C3
330
2BC
100
AcDbEntity
  8
치수문자_일반주서
 62
     0
100
AcDbTrace
 10
249.6189720912109
 20
-57.1926811232516
 30
0.0
 11
248.5183054245442
 21
-57.1926811232516
 31
0.0
 12
249.0686387578776
 22
-53.8906811232516
 32
0.0
 13
249.0686387578776
 23
-53.8906811232516
 33
0.0
  0
MTEXT
  5
2C4
330
2BC
100
AcDbEntity
  8
치수문자_일반주서
 62
     0
100
AcDbMText
 10
244.6936387578776
 20
-66.59068112325167
 30
0.0
 40
3.5
 41
0.0
 71
     2
 72
     1
  1
\A1;%%c25.4 [1]
  7
SLDTEXTSTYLE0
 11
-3.356894814614648E-15
 21
1.0
 31
0.0
 73
     1
 44
1.0
  0
POINT
  5
2C5
330
2BC
100
AcDbEntity
  8
Defpoints
 62
     0
100
AcDbPoint
 10
235.7809083550028
 20
-79.29068112325166
 30
0.0
  0
POINT
  5
2C6
330
2BC
100
AcDbEntity
  8
Defpoints
 62
     0
100
AcDbPoint
 10
235.7809083550027
 20
-53.89068112325166
 30
0.0
  0
POINT
  5
2C7
330
2BC
100
AcDbEntity
  8
Defpoints
 62
     0
100
AcDbPoint
 10
249.0686387578776
 20
-53.89068112325161
 30
0.0
  0
ENDBLK
  5
2BE
330
2BC
100
AcDbEntity
  8
0
100
AcDbBlockEnd
  0
ENDSEC
  0
SECTION
  2
ENTITIES
  0
LINE
  5
99
330
1F
100
AcDbEntity
  8
0
  6
Continuous
 62
     4
370
    25
100
AcDbLine
 10
6.949997385962036
 20
12.70107492872389
 30
0.0
 11
-16.09127914949589
 21
12.70107492872389
 31
0.0
  0
LINE
  5
9A
330
1F
100
AcDbEntity
  8
0
  6
Continuous
 62
     4
370
    25
100
AcDbLine
 10
9.99999999999999
 20
12.70107492872389
 30
0.0
 11
8.723397074967746
 21
12.70107492872389
 31
0.0
  0
LINE
  5
9B
330
1F
100
AcDbEntity
  8
0
  6
Continuous
 62
     4
370
    25
100
AcDbLine
 10
8.72339707496781
 20
-12.69892507127611
 30
0.0
 11
9.999999999999988
 21
-12.69892507127611
 31
0.0
  0
LINE
  5
9C
330
1F
100
AcDbEntity
  8
0
  6
Continuous
 62
     4
370
    25
100
AcDbLine
 10
-52.50000000000001
 20
-12.69892507127611
 30
0.0
 11
6.94999738596204
 21
-12.69892507127611
 31
0.0
  0
LINE
  5
9E
330
1F
100
AcDbEntity
  8
0
  6
Continuous
 62
     4
370
    25
100
AcDbLine
 10
-53.5
 20
-11.6989250712761
 30
0.0
 11
-52.50000000000001
 21
-12.69892507127611
 31
0.0
  0
SPLINE
  5
9F
330
1F
100
AcDbEntity
  8
0
  6
Continuous
 62
     4
370
    25
100
AcDbSpline
210
0.0
220
0.0
230
1.0
 70
     8
 71
     3
 72
    10
 73
     6
 74
     0
 42
0.000000001
 43
0.00000001
 40
0.0
 40
0.0
 40
0.0
 40
0.0
 40
0.4987269710619557
 40
0.6863040383831285
 40
0.9999999999999999
 40
0.9999999999999999
 40
0.9999999999999999
 40
0.9999999999999999
 10
29.10299968996388
 20
3.255493137862359
 30
0.0
 10
28.76521497803502
 20
3.534845554625567
 30
0.0
 10
28.3003854714069
 20
3.91926569406266
 30
0.0
 10
27.62345431171373
 20
4.514815326547306
 30
0.0
 10
27.28310694999053
 20
4.823965653562088
 30
0.0
 10
27.07011804622742
 20
5.017431496562907
 30
0.0
  0
LINE
  5
A0
330
1F
100
AcDbEntity
  8
0
  6
Continuous
 62
     4
370
    25
100
AcDbLine
 10
25.02738622095643
 20
3.59781977744339
 30
0.0
 11
24.97032002774537
 21
3.652279519081212
 31
0.0
  0
LINE
  5
A1
330
1F
100
AcDbEntity
  8
0
  6
Continuous
 62
     1
370
    25
100
AcDbLine
 10
12.2770135848294
 20
12.7010749287239
 30
0.0
 11
9.999999999999995
 21
12.7010749287239
 31
0.0
  0
SPLINE
  5
A2
330
1F
100
AcDbEntity
  8
0
  6
Continuous
 62
     1
370
    25
100
AcDbSpline
210
0.0
220
0.0
230
1.0
 70
     8
 71
     3
 72
    22
 73
    18
 74
     0
 42
0.000000001
 43
0.00000001
 40
0.0
 40
0.0
 40
0.0
 40
0.0
 40
0.0776125235301555
 40
0.1469931129901628
 40
0.2087898527191613
 40
0.2643859490375724
 40
0.3158527451146174
 40
0.3903254375177537
 40
0.4576113234425055
 40
0.5099808085563755
 40
0.5587420479740727
 40
0.6234310690308967
 40
0.7067207126028793
 40
0.7777671094719352
 40
0.8299407402256628
 40
0.9154321227552736
 40
1.0
 40
1.0
 40
1.0
 40
1.0
 10
26.67937739550154
 20
10.09298380768176
 30
0.0
 10
26.56335645340115
 20
10.08206145101185
 30
0.0
 10
26.34362027326315
 20
10.06137521205099
 30
0.0
 10
25.99497650616592
 20
10.02892021087498
 30
0.0
 10
25.65387154381765
 20
10.0007389357848
 30
0.0
 10
25.31662757131959
 20
9.978120609612155
 30
0.0
 10
24.92812332837899
 20
9.95890882419197
 30
0.0
 10
24.51677246230733
 20
9.947033362187812
 30
0.0
 10
24.10384975923299
 20
9.935134633563742
 30
0.0
 10
23.73928735657231
 20
9.926628466986648
 30
0.0
 10
23.39791002423275
 20
9.921158553374912
 30
0.0
 10
22.98371607960169
 20
9.91818241515911
 30
0.0
 10
22.51971546630688
 20
9.919857422596825
 30
0.0
 10
22.08216945137836
 20
9.926822887596726
 30
0.0
 10
21.68407689277996
 20
9.938362622411102
 30
0.0
 10
21.25964630829574
 20
9.953047199453966
 30
0.0
 10
20.91222741943748
 20
9.97191267379001
 30
0.0
 10
20.73946130258827
 20
9.981294186563446
 30
0.0
  0
SPLINE
  5
A3
330
1F
100
AcDbEntity
  8
0
  6
Continuous
 62
     1
370
    25
100
AcDbSpline
210
0.0
220
0.0
230
1.0
 70
     8
 71
     3
 72
    31
 73
    27
 74
     0
 42
0.000000001
 43
0.00000001
 40
0.0
 40
0.0
 40
0.0
 40
0.0
 40
0.0526925210762584
 40
0.0956298990852593
 40
0.1311151165553702
 40
0.1610867558735584
 40
0.1861549788122759
 40
0.2110665372298627
 40
0.2472139692284248
 40
0.3075040553743928
 40
0.3504129134726401
 40
0.3916370016740214
 40
0.4405353730457618
 40
0.49548523966969
 40
0.5536965332040417
 40
0.5940376937970566
 40
0.6320279897283865
 40
0.6797139543672404
 40
0.7258509947832871
 40
0.7529328340457574
 40
0.7743396655554186
 40
0.7908019625350877
 40
0.8177893752860872
 40
0.8618353895014854
 40
0.9227118536197397
 40
1.0
 40
1.0
 40
1.0
 40
1.0
 10
45.39149091073002
 20
8.689588685882127
 30
0.0
 10
45.19700849076547
 20
8.661009777503908
 30
0.0
 10
44.84404883320512
 20
8.609142869860209
 30
0.0
 10
44.28678139040159
 20
8.540991411328706
 30
0.0
 10
43.77831803914076
 20
8.490627598182064
 30
0.0
 10
43.36017226016357
 20
8.453801060781457
 30
0.0
 10
43.00537979751229
 20
8.427101362430244
 30
0.0
 10
42.66149992066034
 20
8.405266425997338
 30
0.0
 10
42.14215553783347
 20
8.378582342411471
 30
0.0
 10
41.54530256976197
 20
8.361033599177507
 30
0.0
 10
40.92687945771572
 20
8.356937084716641
 30
0.0
 10
40.35760512713266
 20
8.363936353252003
 30
0.0
 10
39.73566221208344
 20
8.384095033010274
 30
0.0
 10
39.04104280779338
 20
8.42258594486937
 30
0.0
 10
38.38368281095318
 20
8.475446807320694
 30
0.0
 10
37.79812214821013
 20
8.535426412650303
 30
0.0
 10
37.25782063765217
 20
8.599741710728045
 30
0.0
 10
36.69432761375092
 20
8.677022325014741
 30
0.0
 10
36.17538883950434
 20
8.758462282380323
 30
0.0
 10
35.76917776112821
 20
8.828548667826482
 30
0.0
 10
35.49096217819288
 20
8.879445900089198
 30
0.0
 10
35.21447799464659
 20
8.9320411928729
 30
0.0
 10
34.84162102932111
 20
9.006077826488344
 30
0.0
 10
34.27749874098202
 20
9.126036113917094
 30
0.0
 10
33.49606661506109
 20
9.306691864360149
 30
0.0
 10
32.90035569896922
 20
9.464757163860256
 30
0.0
 10
32.56711991364689
 20
9.553177591937494
 30
0.0
  0
SPLINE
  5
A4
330
1F
100
AcDbEntity
  8
0
  6
Continuous
 62
     1
370
    25
100
AcDbSpline
210
0.0
220
0.0
230
1.0
 70
     8
 71
     3
 72
    19
 73
    15
 74
     0
 42
0.000000001
 43
0.00000001
 40
0.0
 40
0.0
 40
0.0
 40
0.0
 40
0.124006439460684
 40
0.2254223741959
 40
0.3041346064352652
 40
0.3938818921644291
 40
0.4799151652543468
 40
0.5942314691757756
 40
0.6833864554963528
 40
0.7414757782972392
 40
0.8054813511872649
 40
0.9009274926147951
 40
0.996161655378817
 40
1.0
 40
1.0
 40
1.0
 40
1.0
 10
32.56711991364688
 20
-9.55102773448971
 30
0.0
 10
32.79470224306819
 20
-9.490104421135996
 30
0.0
 10
33.20840776712242
 20
-9.379356318055196
 30
0.0
 10
33.76323553906433
 20
-9.243495310569186
 30
0.0
 10
34.25491575340506
 20
-9.129954613685635
 30
0.0
 10
34.7107993979988
 20
-9.031096830716976
 30
0.0
 10
35.23233963341094
 20
-8.925335828281115
 30
0.0
 10
35.75732133740033
 20
-8.827361868155547
 30
0.0
 10
36.23039392394611
 20
-8.747690407636247
 30
0.0
 10
36.61390841287957
 20
-8.68819591621634
 30
0.0
 10
37.01002880633275
 20
-8.630961553198835
 30
0.0
 10
37.47382988015466
 20
-8.571274678169415
 30
0.0
 10
37.82829528604845
 20
-8.529760131556621
 30
0.0
 10
38.00744083814749
 20
-8.512324400158237
 30
0.0
 10
38.01438143533692
 20
-8.511648891406155
 30
0.0
  0
SPLINE
  5
A5
330
1F
100
AcDbEntity
  8
0
  6
Continuous
 62
     1
370
    25
100
AcDbSpline
210
0.0
220
0.0
230
1.0
 70
     8
 71
     3
 72
    27
 73
    23
 74
     0
 42
0.000000001
 43
0.00000001
 40
0.0
 40
0.0
 40
0.0
 40
0.0
 40
0.0684091595066614
 40
0.1184809001810821
 40
0.1498855615982723
 40
0.174356465196204
 40
0.2019080881927204
 40
0.2630963019203122
 40
0.3201757038250117
 40
0.3786547657003597
 40
0.4371109838498981
 40
0.5045841273056385
 40
0.5642139043905011
 40
0.6157926461516887
 40
0.6575529413634951
 40
0.6940531431825889
 40
0.7214497623407856
 40
0.7522004110423492
 40
0.7936505160126801
 40
0.8487813259558252
 40
0.917513195527216
 40
1.0
 40
1.0
 40
1.0
 40
1.0
 10
15.65183040194125
 20
-10.56707991524416
 30
0.0
 10
15.90252735337897
 20
-10.52467615733424
 30
0.0
 10
16.33672067914409
 20
-10.45123518182073
 30
0.0
 10
16.88593345623184
 20
-10.36880587630658
 30
0.0
 10
17.27741388053201
 20
-10.31358881025144
 30
0.0
 10
17.58806352484923
 20
-10.2720012076802
 30
0.0
 10
18.006684158425
 20
-10.2186456456081
 30
0.0
 10
18.5427667951698
 20
-10.15623155194895
 30
0.0
 10
19.19302470008451
 20
-10.09091211209554
 30
0.0
 10
19.83395103801141
 20
-10.03635736422959
 30
0.0
 10
20.51289606137521
 20
-9.989130447365813
 30
0.0
 10
21.19486127089024
 20
-9.953310389347267
 30
0.0
 10
21.85163174178782
 20
-9.9304091042799
 30
0.0
 10
22.41636766433969
 20
-9.919386622415756
 30
0.0
 10
22.88860105483798
 20
-9.91624112215298
 30
0.0
 10
23.27399546342473
 20
-9.91774262075797
 30
0.0
 10
23.63506641224733
 20
-9.92251487297102
 30
0.0
 10
24.01949089725428
 20
-9.930318066260089
 30
0.0
 10
24.49869570359555
 20
-9.945146559919422
 30
0.0
 10
25.10399162176917
 20
-9.972821035538667
 30
0.0
 10
25.846265748662
 20
-10.0186808741675
 30
0.0
 10
26.38532901480914
 20
-10.06536738130553
 30
0.0
 10
26.67937739550154
 20
-10.09083395023397
 30
0.0
  0
LINE
  5
A6
330
1F
100
AcDbEntity
  8
0
  6
Continuous
 62
     1
370
    25
100
AcDbLine
 10
9.999999999999996
 20
-12.69892507127611
 30
0.0
 11
12.27701358482939
 21
-12.69892507127611
 31
0.0
  0
SPLINE
  5
A7
330
1F
100
AcDbEntity
  8
0
  6
Continuous
 62
     4
370
    25
100
AcDbSpline
210
0.0
220
0.0
230
1.0
 70
     8
 71
     3
 72
    10
 73
     6
 74
     0
 42
0.000000001
 43
0.00000001
 40
0.0
 40
0.0
 40
0.0
 40
0.0
 40
0.5
 40
0.5
 40
1.0
 40
1.0
 40
1.0
 40
1.0
 10
9.999999999999991
 20
12.63709480212399
 30
0.0
 10
9.491337954564807
 20
12.68805462457127
 30
0.0
 10
8.980689915766268
 20
12.70860588722676
 30
0.0
 10
7.966421303850259
 20
12.68863098137107
 30
0.0
 10
7.45937735414267
 20
12.64818795586697
 30
0.0
 10
6.949997385962038
 20
12.57738205358296
 30
0.0
  0
LINE
  5
A8
330
1F
100
AcDbEntity
  8
0
  6
Continuous
 62
     4
370
    25
100
AcDbLine
 10
6.949997385962038
 20
-11.59752287339215
 30
0.0
 11
6.949997385962038
 21
12.70107492872389
 31
0.0
  0
SPLINE
  5
A9
330
1F
100
AcDbEntity
  8
0
  6
Continuous
 62
     4
370
    25
100
AcDbSpline
210
0.0
220
0.0
230
1.0
 70
     8
 71
     3
 72
    10
 73
     6
 74
     0
 42
0.000000001
 43
0.00000001
 40
0.0
 40
0.0
 40
0.0
 40
0.0
 40
0.5
 40
0.5
 40
1.0
 40
1.0
 40
1.0
 40
1.0
 10
9.999999999999991
 20
-12.49510528788418
 30
0.0
 10
9.491337664742554
 20
-12.40440118517676
 30
0.0
 10
8.980689333867613
 20
-12.28344299573519
 30
0.0
 10
7.966420152038182
 20
-11.98380205885818
 30
0.0
 10
7.459375902945369
 20
-11.80488382298263
 30
0.0
 10
6.949995644574192
 20
-11.59774457373787
 30
0.0
  0
LINE
  5
AA
330
1F
100
AcDbEntity
  8
0
  6
Continuous
 62
     4
370
    25
100
AcDbLine
 10
9.999999999999991
 20
-12.49510528788418
 30
0.0
 11
9.999999999999991
 21
-12.69892507127611
 31
0.0
  0
SPLINE
  5
AB
330
1F
100
AcDbEntity
  8
0
  6
Continuous
 62
     4
370
    25
100
AcDbSpline
210
0.0
220
0.0
230
1.0
 70
     8
 71
     3
 72
     9
 73
     5
 74
     0
 42
0.000000001
 43
0.00000001
 40
0.0
 40
0.0
 40
0.0
 40
0.0
 40
0.859193546166782
 40
1.0
 40
1.0
 40
1.0
 40
1.0
 10
6.94999738596204
 20
-12.57523219613517
 30
0.0
 10
7.457712483870274
 20
-12.64180425007441
 30
0.0
 10
8.048633004832475
 20
-12.71928627288086
 30
0.0
 10
8.640112889845424
 20
-12.69045789116312
 30
0.0
 10
8.72339707496778
 20
-12.6863986689637
 30
0.0
  0
LINE
  5
AC
330
1F
100
AcDbEntity
  8
0
  6
Continuous
 62
     4
370
    25
100
AcDbLine
 10
6.94999738596204
 20
-12.69892507127611
 30
0.0
 11
6.94999738596204
 21
-12.57523177843564
 31
0.0
  0
LINE
  5
AD
330
1F
100
AcDbEntity
  8
0
  6
Continuous
 62
     4
370
    25
100
AcDbLine
 10
-52.50000000000001
 20
10.8174290782198
 30
0.0
 11
-52.50000000000001
 21
-12.6989250712761
 31
0.0
  0
LINE
  5
AE
330
1F
100
AcDbEntity
  8
0
  6
Continuous
 62
     4
370
    25
100
AcDbLine
 10
-53.5
 20
10.8174290782198
 30
0.0
 11
-53.5
 21
-11.6989250712761
 31
0.0
  0
SPLINE
  5
AF
330
1F
100
AcDbEntity
  8
0
  6
Continuous
 62
     4
370
    25
100
AcDbSpline
210
0.0
220
0.0
230
1.0
 70
    24
 71
     3
 72
    14
 73
    10
 74
     0
 42
0.000000001
 43
0.00000001
 40
0.0
 40
0.0
 40
0.0
 40
0.0
 40
0.25
 40
0.25
 40
0.5
 40
0.5
 40
0.75
 40
0.75
 40
1.0
 40
1.0
 40
1.0
 40
1.0
 10
9.999999999999991
 20
8.802178621518193
 30
0.0
 10
9.999999999999991
 20
8.409998837264562
 30
0.0
 10
9.999999999999991
 20
7.875974922151892
 30
0.0
 10
9.999999999999991
 20
6.535222443581492
 30
0.0
 10
9.999999999999991
 20
5.728615382661073
 30
0.0
 10
9.999999999999991
 20
3.909681927331223
 30
0.0
 10
9.99999999999999
 20
2.898324736713159
 30
0.0
 10
9.999999999999991
 20
0.777408107904724
 30
0.0
 10
9.999999999999991
 20
-0.3309340451036191
 30
0.0
 10
9.999999999999991
 20
-1.432139828498491
 30
0.0
  0
SPLINE
  5
B0
330
1F
100
AcDbEntity
  8
0
  6
Continuous
 62
     4
370
    25
100
AcDbSpline
210
0.0
220
0.0
230
1.0
 70
     8
 71
     3
 72
    10
 73
     6
 74
     0
 42
0.000000001
 43
0.00000001
 40
0.0
 40
0.0
 40
0.0
 40
0.0
 40
0.5
 40
0.5
 40
1.0
 40
1.0
 40
1.0
 40
1.0
 10
9.999999999999991
 20
-1.432139828498492
 30
0.0
 10
9.491337834531258
 20
-1.029547634112851
 30
0.0
 10
8.980689674765586
 20
-0.6229796166854913
 30
0.0
 10
7.966420826812726
 20
0.1893361871293969
 30
0.0
 10
7.459376753110963
 20
0.5959940606505515
 30
0.0
 10
6.949996664744246
 20
1.000869206833518
 30
0.0
  0
SPLINE
  5
B1
330
1F
100
AcDbEntity
  8
0
  6
Continuous
 62
     4
370
    25
100
AcDbSpline
210
0.0
220
0.0
230
1.0
 70
     8
 71
     3
 72
    10
 73
     6
 74
     0
 42
0.000000001
 43
0.00000001
 40
0.0
 40
0.0
 40
0.0
 40
0.0
 40
0.5
 40
0.5
 40
1.0
 40
1.0
 40
1.0
 40
1.0
 10
9.999999999999991
 20
8.802178621518193
 30
0.0
 10
9.491337873228652
 20
8.852373054988954
 30
0.0
 10
8.980689752461346
 20
8.881406604271353
 30
0.0
 10
7.966420980603973
 20
8.896653795264923
 30
0.0
 10
7.459376946876466
 20
8.882958447226606
 30
0.0
 10
6.949996897256321
 20
8.84792692602631
 30
0.0
  0
SPLINE
  5
B2
330
1F
100
AcDbEntity
  8
0
  6
Continuous
 62
     4
370
    25
100
AcDbSpline
210
0.0
220
0.0
230
1.0
 70
    24
 71
     3
 72
    14
 73
    10
 74
     0
 42
0.000000001
 43
0.00000001
 40
0.0
 40
0.0
 40
0.0
 40
0.0
 40
0.25
 40
0.25
 40
0.5
 40
0.5
 40
0.75
 40
0.75
 40
1.0
 40
1.0
 40
1.0
 40
1.0
 10
9.999999999999991
 20
-1.432139828498492
 30
0.0
 10
9.999999999999991
 20
-2.379325369252333
 30
0.0
 10
9.999999999999991
 20
-3.322489161247454
 30
0.0
 10
9.999999999999991
 20
-5.130209119552418
 30
0.0
 10
9.999999999999991
 20
-5.994193144177068
 30
0.0
 10
9.999999999999991
 20
-7.576451922384271
 30
0.0
 10
9.99999999999999
 20
-8.294269767662875
 30
0.0
 10
9.999999999999991
 20
-9.537906429934916
 30
0.0
 10
9.99999999999999
 20
-10.06359728799932
 30
0.0
 10
9.999999999999991
 20
-10.48526987382321
 30
0.0
  0
SPLINE
  5
B3
330
1F
100
AcDbEntity
  8
0
  6
Continuous
 62
     4
370
    25
100
AcDbSpline
210
0.0
220
0.0
230
1.0
 70
     8
 71
     3
 72
    10
 73
     6
 74
     0
 42
0.000000001
 43
0.00000001
 40
0.0
 40
0.0
 40
0.0
 40
0.0
 40
0.5000000000000001
 40
0.5000000000000001
 40
1.0
 40
1.0
 40
1.0
 40
1.0
 10
9.999999999999991
 20
-10.48526987382322
 30
0.0
 10
9.491337664742554
 20
-10.38268750065745
 30
0.0
 10
8.980689333867613
 20
-10.2546828448676
 30
0.0
 10
7.966420152038182
 20
-9.950735300508974
 30
0.0
 10
7.459375902945369
 20
-9.77453520405228
 30
0.0
 10
6.949995644574193
 20
-9.574991785314973
 30
0.0
  0
SPLINE
  5
B4
330
1F
100
AcDbEntity
  8
0
  6
Continuous
 62
     4
370
    25
100
AcDbSpline
210
0.0
220
0.0
230
1.0
 70
    24
 71
     3
 72
     8
 73
     4
 74
     0
 42
0.000000001
 43
0.00000001
 40
0.0
 40
0.0
 40
0.0
 40
0.0
 40
1.0
 40
1.0
 40
1.0
 40
1.0
 10
9.999999999999991
 20
-10.48526987382322
 30
0.0
 10
9.999999999999991
 20
-11.15948668976639
 30
0.0
 10
9.999999999999991
 20
-11.83375654058105
 30
0.0
 10
9.999999999999991
 20
-12.49510528788081
 30
0.0
  0
SPLINE
  5
B5
330
1F
100
AcDbEntity
  8
0
  6
Continuous
 62
     4
370
    25
100
AcDbSpline
210
0.0
220
0.0
230
1.0
 70
    24
 71
     3
 72
    10
 73
     6
 74
     0
 42
0.000000001
 43
0.00000001
 40
0.0
 40
0.0
 40
0.0
 40
0.0
 40
0.5
 40
0.5
 40
1.0
 40
1.0
 40
1.0
 40
1.0
 10
9.999999999999991
 20
12.63709480212398
 30
0.0
 10
9.999999999999991
 20
12.03037872848228
 30
0.0
 10
9.99999999999999
 20
11.35841235031156
 30
0.0
 10
9.999999999999991
 20
10.03124217606597
 30
0.0
 10
9.99999999999999
 20
9.379568721578133
 30
0.0
 10
9.999999999999991
 20
8.802178621518193
 30
0.0
  0
SPLINE
  5
B6
330
1F
100
AcDbEntity
  8
0
  6
Continuous
 62
     1
370
    25
100
AcDbSpline
210
0.0
220
0.0
230
1.0
 70
     8
 71
     3
 72
    28
 73
    24
 74
     0
 42
0.000000001
 43
0.00000001
 40
0.0
 40
0.0
 40
0.0
 40
0.0
 40
0.0478812136045647
 40
0.0957132346048223
 40
0.1435780100345075
 40
0.191473675721242
 40
0.239309006550525
 40
0.2871606329627035
 40
0.3350634892567162
 40
0.3829054376534721
 40
0.4307472124994657
 40
0.4786499922102281
 40
0.5265018617342221
 40
0.5743370886833656
 40
0.6222325246812319
 40
0.670097612630384
 40
0.7179295994867326
 40
0.7658104328174288
 40
0.8136920258139807
 40
0.8615240824281277
 40
0.9120353757488957
 40
0.9625872457656823
 40
0.9999999999999999
 40
0.9999999999999999
 40
0.9999999999999999
 40
0.9999999999999999
 10
48.09999999999999
 20
-12.05047411052122
 30
0.0
 10
47.52806159666587
 20
-11.84901920191009
 30
0.0
 10
46.38477239288918
 20
-11.44631635712771
 30
0.0
 10
44.67131457600166
 20
-10.57445767871454
 30
0.0
 10
42.95668036755544
 20
-9.526183992441977
 30
0.0
 10
41.24092399936038
 20
-8.301131567106987
 30
0.0
 10
39.52734163419444
 20
-6.92474111092567
 30
0.0
 10
37.81317315077789
 20
-5.422220171354457
 30
0.0
 10
36.09715567121544
 20
-3.822670175863323
 30
0.0
 10
34.38333306517991
 20
-2.151685025793816
 30
0.0
 10
32.66951670202038
 20
-0.4414782271194491
 30
0.0
 10
30.9535020036384
 20
1.274831203980631
 30
0.0
 10
29.23932487459349
 20
2.969637847187156
 30
0.0
 10
27.52574633340566
 20
4.610774212460673
 30
0.0
 10
25.80999833047685
 20
6.166311382692832
 30
0.0
 10
24.09535299812189
 20
7.610637486609181
 30
0.0
 10
22.38189686853154
 20
8.917010637980551
 30
0.0
 10
20.66668202118244
 20
10.06026615668178
 30
0.0
 10
18.95144499387973
 20
11.02001368340352
 30
0.0
 10
17.20638136120217
 20
11.79605405889597
 30
0.0
 10
15.42847694071302
 20
12.34874376681083
 30
0.0
 10
13.77376721813518
 20
12.66368184641639
 30
0.0
 10
12.72364659397867
 20
12.67256752515046
 30
0.0
 10
12.2770135848294
 20
12.67634674568955
 30
0.0
  0
SPLINE
  5
B7
330
1F
100
AcDbEntity
  8
0
  6
Continuous
 62
     1
370
    25
100
AcDbSpline
210
0.0
220
0.0
230
1.0
 70
     8
 71
     3
 72
    17
 73
    13
 74
     0
 42
0.000000001
 43
0.00000001
 40
0.0
 40
0.0
 40
0.0
 40
0.0
 40
0.1082318990136187
 40
0.2164094634059733
 40
0.3245618647384967
 40
0.4327184071432382
 40
0.5409083729200805
 40
0.6491542256225767
 40
0.7573678339771859
 40
0.8655353255679665
 40
0.973685924998177
 40
1.0
 40
1.0
 40
1.0
 40
1.0
 10
48.09999999999999
 20
-10.01887282875245
 30
0.0
 10
47.41375932059204
 20
-9.77658125070792
 30
0.0
 10
46.04162246859664
 20
-9.292119729933857
 30
0.0
 10
43.98431366414216
 20
-8.251548448907519
 30
0.0
 10
41.92762894915396
 20
-7.013806068286503
 30
0.0
 10
39.87083108473934
 20
-5.58735449621005
 30
0.0
 10
37.81324889772645
 20
-4.015496420203901
 30
0.0
 10
35.75462549594982
 20
-2.339074934240828
 30
0.0
 10
33.69658124701532
 20
-0.5990849205209708
 30
0.0
 10
31.63949986964398
 20
1.149070990499317
 30
0.0
 10
30.10167521135049
 20
2.454619221026605
 30
0.0
 10
29.24935123458831
 20
3.131668040153924
 30
0.0
 10
29.08255562715382
 20
3.264163161877639
 30
0.0
  0
LINE
  5
B8
330
1F
100
AcDbEntity
  8
0
  6
Continuous
 62
     1
370
    25
100
AcDbLine
 10
48.10000000000024
 20
-12.05047411052121
 30
0.0
 11
48.09999999999999
 21
-10.01887282875245
 31
0.0
  0
SPLINE
  5
B9
330
1F
100
AcDbEntity
  8
0
  6
Continuous
 62
     1
370
    25
100
AcDbSpline
210
0.0
220
0.0
230
1.0
 70
     8
 71
     3
 72
    62
 73
    58
 74
     0
 42
0.000000001
 43
0.00000001
 40
0.0
 40
0.0
 40
0.0
 40
0.0
 40
0.0624999999999999
 40
0.0624999999999999
 40
0.1249999999999998
 40
0.1249999999999998
 40
0.1562499999999998
 40
0.1562499999999998
 40
0.1874999999999997
 40
0.1874999999999997
 40
0.2187499999999997
 40
0.2187499999999997
 40
0.2499999999999997
 40
0.2499999999999997
 40
0.2812499999999997
 40
0.2812499999999997
 40
0.3124999999999997
 40
0.3124999999999997
 40
0.3437499999999997
 40
0.3437499999999997
 40
0.3749999999999997
 40
0.3749999999999997
 40
0.4062499999999997
 40
0.4062499999999997
 40
0.4374999999999997
 40
0.4374999999999997
 40
0.4687499999999997
 40
0.4687499999999997
 40
0.4999999999999997
 40
0.4999999999999997
 40
0.5312499999999997
 40
0.5312499999999997
 40
0.5624999999999996
 40
0.5624999999999996
 40
0.5937499999999996
 40
0.5937499999999996
 40
0.6249999999999994
 40
0.6249999999999994
 40
0.6874999999999994
 40
0.6874999999999994
 40
0.7499999999999994
 40
0.7499999999999994
 40
0.7812499999999996
 40
0.7812499999999996
 40
0.8124999999999997
 40
0.8124999999999997
 40
0.8437499999999997
 40
0.8437499999999997
 40
0.8749999999999998
 40
0.8749999999999998
 40
0.9062499999999998
 40
0.9062499999999998
 40
0.9374999999999999
 40
0.9374999999999999
 40
0.9687499999999999
 40
0.9687499999999999
 40
1.0
 40
1.0
 40
1.0
 40
1.0
 10
48.1
 20
-12.68819122469258
 30
0.0
 10
47.31004996093209
 20
-12.65561527383772
 30
0.0
 10
46.50914704902323
 20
-12.54812238702691
 30
0.0
 10
44.92727900350383
 20
-12.18873764089318
 30
0.0
 10
44.12838516550777
 20
-11.93562575131896
 30
0.0
 10
42.94064563288116
 20
-11.45470610403917
 30
0.0
 10
42.54504915400538
 20
-11.27746329284469
 30
0.0
 10
41.74965331540065
 20
-10.88979244672526
 30
0.0
 10
41.35133770282508
 20
-10.679561546433
 30
0.0
 10
40.55871101400462
 20
-10.22918601509617
 30
0.0
 10
40.16380317244508
 20
-9.988985246224875
 30
0.0
 10
39.36868769387031
 20
-9.47893838621749
 30
0.0
 10
38.97026398560914
 20
-9.209422364645397
 30
0.0
 10
38.17692927347216
 20
-8.645015037303727
 30
0.0
 10
37.78246427592243
 20
-8.35028593832351
 30
0.0
 10
36.98772243995728
 20
-7.735791981236187
 30
0.0
 10
36.58923761592123
 20
-7.416439571188432
 30
0.0
 10
35.79528746707292
 20
-6.757751453139393
 30
0.0
 10
35.40101934753951
 20
-6.418794920448405
 30
0.0
 10
34.60674429057526
 20
-5.721450219079
 30
0.0
 10
34.20824535475442
 20
-5.363463497409263
 30
0.0
 10
33.4137725961145
 20
-4.633571707054923
 30
0.0
 10
33.01945531181701
 20
-4.262208417481448
 30
0.0
 10
32.22573998773477
 20
-3.506514668491557
 30
0.0
 10
31.82727394967985
 20
-3.12245444010011
 30
0.0
 10
31.03237161241458
 20
-2.3469501775853
 30
0.0
 10
30.63775913974887
 20
-1.956118207831592
 30
0.0
 10
29.84469628374754
 20
-1.168618043224928
 30
0.0
 10
29.44631014004653
 20
-0.771961248174313
 30
0.0
 10
28.65107142333336
 20
0.0219513260563163
 30
0.0
 10
28.25591785381874
 20
0.4186364444195348
 30
0.0
 10
27.46359994642226
 20
1.210295572987922
 30
0.0
 10
27.06534066218785
 20
1.60563077419093
 30
0.0
 10
26.26985889684195
 20
2.390092897179993
 30
0.0
 10
25.87391853297461
 20
2.778801133919504
 30
0.0
 10
25.08243776424754
 20
3.546841639193444
 30
0.0
 10
24.6843522546306
 20
3.926986302526997
 30
0.0
 10
23.49090517262006
 20
5.048206316249191
 30
0.0
 10
22.70117542635228
 20
5.768607893659568
 30
0.0
 10
21.10980037415245
 20
7.137135203584108
 30
0.0
 10
20.32009072555034
 20
7.781828388623773
 30
0.0
 10
19.12661548909672
 20
8.67738103173095
 30
0.0
 10
18.72857051076721
 20
8.963632717024344
 30
0.0
 10
17.9372688688557
 20
9.507980018490676
 30
0.0
 10
17.54114098124329
 20
9.766762471299117
 30
0.0
 10
16.74562168399165
 20
10.25562502862559
 30
0.0
 10
16.34739352109536
 20
10.4854331868754
 30
0.0
 10
15.55523627271848
 20
10.91290717452531
 30
0.0
 10
15.15994446612605
 20
11.11086893747824
 30
0.0
 10
14.36464946992743
 20
11.47442104228313
 30
0.0
 10
13.96628502536149
 20
11.63970665317146
 30
0.0
 10
13.17336429798581
 20
11.9352219814245
 30
0.0
 10
12.77866292879832
 20
12.06553915757414
 30
0.0
 10
11.98368558649885
 20
12.29105234869827
 30
0.0
 10
11.58523181682866
 20
12.38600370327418
 30
0.0
 10
10.79164003553563
 20
12.5391085262177
 30
0.0
 10
10.39728322993827
 20
12.59729336020273
 30
0.0
 10
9.999999999999995
 20
12.637094802124
 30
0.0
  0
SPLINE
  5
BA
330
1F
100
AcDbEntity
  8
0
  6
Continuous
 62
     1
370
    25
100
AcDbSpline
210
0.0
220
0.0
230
1.0
 70
     8
 71
     3
 72
    17
 73
    13
 74
     0
 42
0.000000001
 43
0.00000001
 40
0.0
 40
0.0
 40
0.0
 40
0.0
 40
0.0625946407219679
 40
0.1569924969167563
 40
0.2623388156634553
 40
0.3677000765767969
 40
0.4730993211420472
 40
0.5785403867960348
 40
0.6839382009074231
 40
0.7892987004098165
 40
0.8946449302375814
 40
1.0
 40
1.0
 40
1.0
 40
1.0
 10
29.88472754340603
 20
-1.206255979425999
 30
0.0
 10
29.46974737649383
 20
-0.9186053820731764
 30
0.0
 10
28.42894305486101
 20
-0.1971540725496856
 30
0.0
 10
26.69059700505533
 20
1.025630459529849
 30
0.0
 10
24.66832454402386
 20
2.419458323022637
 30
0.0
 10
22.5732161121486
 20
3.798920980015617
 30
0.0
 10
20.47723916651915
 20
5.075105073682856
 30
0.0
 10
18.38062683313501
 20
6.21288854269164
 30
0.0
 10
16.28468518524332
 20
7.183442202292917
 30
0.0
 10
14.18955669913419
 20
7.95415920600802
 30
0.0
 10
12.09480968021479
 20
8.525979455452877
 30
0.0
 10
10.69828942365594
 20
8.710109657780054
 30
0.0
 10
9.999999999999986
 20
8.802178621518193
 30
0.0
  0
SPLINE
  5
BB
330
1F
100
AcDbEntity
  8
0
  6
Continuous
 62
     4
370
    25
100
AcDbSpline
210
0.0
220
0.0
230
1.0
 70
    24
 71
     3
 72
    10
 73
     6
 74
     0
 42
0.000000001
 43
0.00000001
 40
0.0
 40
0.0
 40
0.0
 40
0.0
 40
0.5
 40
0.5
 40
1.0
 40
1.0
 40
1.0
 40
1.0
 10
9.999999999999995
 20
12.63709480212398
 30
0.0
 10
9.999999999999995
 20
12.03037872848228
 30
0.0
 10
9.999999999999995
 20
11.35841235031156
 30
0.0
 10
9.999999999999995
 20
10.03124217606597
 30
0.0
 10
9.999999999999995
 20
9.379568721578137
 30
0.0
 10
9.999999999999995
 20
8.802178621518193
 30
0.0
  0
LINE
  5
BC
330
1F
100
AcDbEntity
  8
0
  6
Continuous
 62
     1
370
    25
100
AcDbLine
 10
48.09999999999999
 20
-12.68819122469258
 30
0.0
 11
48.10000000000024
 21
-12.05047411052121
 31
0.0
  0
SPLINE
  5
BD
330
1F
100
AcDbEntity
  8
0
  6
Continuous
 62
     1
370
    25
100
AcDbSpline
210
0.0
220
0.0
230
1.0
 70
     8
 71
     3
 72
    10
 73
     6
 74
     0
 42
0.000000001
 43
0.00000001
 40
0.0
 40
0.0
 40
0.0
 40
0.0
 40
0.5
 40
0.5
 40
1.0
 40
1.0
 40
1.0
 40
1.0
 10
48.09999999999997
 20
-3.392910485852577
 30
0.0
 10
47.25065312275194
 20
-2.723486749818424
 30
0.0
 10
46.40915908231565
 20
-2.03435953034438
 30
0.0
 10
44.7420326616278
 20
-0.6163067400145281
 30
0.0
 10
43.914802676068
 20
0.1139105948318655
 30
0.0
 10
43.10000000000083
 20
0.8640623159772283
 30
0.0
  0
LINE
  5
BE
330
1F
100
AcDbEntity
  8
0
  6
Continuous
 62
     1
370
    25
100
AcDbLine
 10
43.1
 20
2.938794364020484
 30
0.0
 11
48.09999999999999
 21
0.0010749287238979
 31
0.0
  0
LINE
  5
BF
330
1F
100
AcDbEntity
  8
0
  6
Continuous
 62
     1
370
    25
100
AcDbLine
 10
48.09999999999999
 20
0.0010749287238979
 30
0.0
 11
48.09999999999999
 21
-3.392910485852593
 31
0.0
  0
SPLINE
  5
C0
330
1F
100
AcDbEntity
  8
0
  6
Continuous
 62
     1
370
    25
100
AcDbSpline
210
0.0
220
0.0
230
1.0
 70
     8
 71
     3
 72
    15
 73
    11
 74
     0
 42
0.000000001
 43
0.00000001
 40
0.0
 40
0.0
 40
0.0
 40
0.0
 40
0.1264842206190572
 40
0.2529070104188669
 40
0.3792987109396116
 40
0.5056899005766634
 40
0.6321111602222125
 40
0.7563448351925628
 40
0.8805652502640838
 40
1.0
 40
1.0
 40
1.0
 40
1.0
 10
43.1
 20
3.898569123843202
 30
0.0
 10
42.40755249430335
 20
4.399858270724819
 30
0.0
 10
41.02299379061192
 20
5.402193098521927
 30
0.0
 10
38.94698917848804
 20
6.734100798800953
 30
0.0
 10
36.87163991821267
 20
7.893865718944404
 30
0.0
 10
34.79629735138904
 20
8.840807657541419
 30
0.0
 10
32.73264439550255
 20
9.54997536996379
 30
0.0
 10
30.68032962475864
 20
9.999644400772324
 30
0.0
 10
28.66637300461815
 20
10.20734072401919
 30
0.0
 10
27.33286945286588
 20
10.12739360062734
 30
0.0
 10
26.67921344232592
 20
10.08820516527461
 30
0.0
  0
SPLINE
  5
C1
330
1F
100
AcDbEntity
  8
0
  6
Continuous
 62
     1
370
    25
100
AcDbSpline
210
0.0
220
0.0
230
1.0
 70
    24
 71
     3
 72
     8
 73
     4
 74
     0
 42
0.000000001
 43
0.00000001
 40
0.0
 40
0.0
 40
0.0
 40
0.0
 40
1.0
 40
1.0
 40
1.0
 40
1.0
 10
43.10000000000001
 20
0.8640623159742506
 30
0.0
 10
43.10000000000001
 20
1.906898389118227
 30
0.0
 10
43.10000000000002
 20
2.929703198189663
 30
0.0
 10
43.10000000000002
 20
3.898569123843195
 30
0.0
  0
LINE
  5
C2
330
1F
100
AcDbEntity
  8
0
  6
Continuous
 62
     1
370
    25
100
AcDbLine
 10
48.09999999999999
 20
-10.01887282875244
 30
0.0
 11
48.09999999999999
 21
-3.392910485852575
 31
0.0
  0
SPLINE
  5
C3
330
1F
100
AcDbEntity
  8
0
  6
Continuous
 62
     1
370
    25
100
AcDbSpline
210
0.0
220
0.0
230
1.0
 70
     8
 71
     3
 72
     9
 73
     5
 74
     0
 42
0.000000001
 43
0.00000001
 40
0.0
 40
0.0
 40
0.0
 40
0.0
 40
0.7349479836058951
 40
1.0
 40
1.0
 40
1.0
 40
1.0
 10
48.09999999999999
 20
8.891074928723897
 30
0.0
 10
47.43576273676098
 20
8.881118728633085
 30
0.0
 10
46.53197460745685
 20
8.867571919453527
 30
0.0
 10
45.6284471002305
 20
8.70732157695239
 30
0.0
 10
45.38896531257261
 20
8.664846900544617
 30
0.0
  0
SPLINE
  5
C4
330
1F
100
AcDbEntity
  8
0
  6
Continuous
 62
     1
370
    25
100
AcDbSpline
210
0.0
220
0.0
230
1.0
 70
     8
 71
     3
 72
     8
 73
     4
 74
     0
 42
0.000000001
 43
0.00000001
 40
0.0
 40
0.0
 40
0.0
 40
0.0
 40
1.0
 40
1.0
 40
1.0
 40
1.0
 10
48.09999999999999
 20
8.891074928723897
 30
0.0
 10
46.44717930000382
 20
8.335980308061217
 30
0.0
 10
44.78061701313072
 20
7.851981846112313
 30
0.0
 10
43.09999999999977
 20
7.463998297094602
 30
0.0
  0
SPLINE
  5
C5
330
1F
100
AcDbEntity
  8
0
  6
Continuous
 62
     1
370
    25
100
AcDbSpline
210
0.0
220
0.0
230
1.0
 70
    24
 71
     3
 72
    10
 73
     6
 74
     0
 42
0.000000001
 43
0.00000001
 40
0.0
 40
0.0
 40
0.0
 40
0.0
 40
0.4999999999999998
 40
0.4999999999999998
 40
1.0
 40
1.0
 40
1.0
 40
1.0
 10
43.10000000000002
 20
3.898569123843199
 30
0.0
 10
43.10000000000002
 20
4.6480626908312
 30
0.0
 10
43.10000000000002
 20
5.343431435515027
 30
0.0
 10
43.10000000000001
 20
6.55342379529434
 30
0.0
 10
43.10000000000002
 20
7.067378138871765
 30
0.0
 10
43.10000000000001
 20
7.463998297094473
 30
0.0
  0
SPLINE
  5
C6
330
1F
100
AcDbEntity
  8
0
  6
Continuous
 62
     1
370
    25
100
AcDbSpline
210
0.0
220
0.0
230
1.0
 70
     8
 71
     3
 72
    18
 73
    14
 74
     0
 42
0.000000001
 43
0.00000001
 40
0.0
 40
0.0
 40
0.0
 40
0.0
 40
0.0836840937742233
 40
0.1740625462619166
 40
0.2643933180841418
 40
0.3547050282264018
 40
0.4468697127490633
 40
0.5390638817443963
 40
0.6313009212150252
 40
0.7235079779126884
 40
0.8156791823958495
 40
0.9078360087971972
 40
0.9999999999999999
 40
0.9999999999999999
 40
0.9999999999999999
 40
0.9999999999999999
 10
32.56925142033358
 20
-9.541840785148139
 30
0.0
 10
31.93959376691781
 20
-9.696611410961362
 30
0.0
 10
30.62990862265907
 20
-10.01853363059228
 30
0.0
 10
28.64053531125445
 20
-10.19152065511822
 30
0.0
 10
26.60183192333382
 20
-10.12785362394059
 30
0.0
 10
24.54983059983681
 20
-9.795764056764433
 30
0.0
 10
22.48362871832388
 20
-9.204901240008825
 30
0.0
 10
20.40278349486842
 20
-8.362980455279352
 30
0.0
 10
18.32104252541979
 20
-7.297391717882869
 30
0.0
 10
16.23990315738447
 20
-6.036259583358612
 30
0.0
 10
14.15965463262524
 20
-4.612789097802668
 30
0.0
 10
12.07985899743012
 20
-3.068609239537028
 30
0.0
 10
10.69330429823381
 20
-1.977643767949707
 30
0.0
 10
9.999999999999972
 20
-1.432139828498478
 30
0.0
  0
SPLINE
  5
C7
330
1F
100
AcDbEntity
  8
0
  6
Continuous
 62
     4
370
    25
100
AcDbSpline
210
0.0
220
0.0
230
1.0
 70
    24
 71
     3
 72
    14
 73
    10
 74
     0
 42
0.000000001
 43
0.00000001
 40
0.0
 40
0.0
 40
0.0
 40
0.0
 40
0.25
 40
0.25
 40
0.5
 40
0.5
 40
0.75
 40
0.75
 40
1.0
 40
1.0
 40
1.0
 40
1.0
 10
9.999999999999995
 20
8.802178621518193
 30
0.0
 10
9.999999999999995
 20
8.409998837264562
 30
0.0
 10
9.999999999999995
 20
7.875974922151892
 30
0.0
 10
9.999999999999995
 20
6.535222443581489
 30
0.0
 10
9.999999999999995
 20
5.728615382661072
 30
0.0
 10
9.999999999999995
 20
3.909681927331221
 30
0.0
 10
9.999999999999995
 20
2.898324736713156
 30
0.0
 10
9.999999999999995
 20
0.7774081079047205
 30
0.0
 10
9.999999999999995
 20
-0.3309340451036227
 30
0.0
 10
9.999999999999995
 20
-1.432139828498494
 30
0.0
  0
SPLINE
  5
C8
330
1F
100
AcDbEntity
  8
0
  6
Continuous
 62
     1
370
    25
100
AcDbSpline
210
0.0
220
0.0
230
1.0
 70
     8
 71
     3
 72
    11
 73
     7
 74
     0
 42
0.000000001
 43
0.00000001
 40
0.0
 40
0.0
 40
0.0
 40
0.0
 40
0.0397967248323997
 40
0.3601275655577335
 40
0.680100922513203
 40
1.0
 40
1.0
 40
1.0
 40
1.0
 10
15.65373563742462
 20
-10.555251223185
 30
0.0
 10
15.57873896128652
 20
-10.57201100890948
 30
0.0
 10
14.90008084265292
 20
-10.72367325894745
 30
0.0
 10
13.61746182313865
 20
-10.80357841879787
 30
0.0
 10
11.80843162489061
 20
-10.79218487447419
 30
0.0
 10
10.60276388839431
 20
-10.58756695636296
 30
0.0
 10
9.999999999999995
 20
-10.48526987382322
 30
0.0
  0
SPLINE
  5
C9
330
1F
100
AcDbEntity
  8
0
  6
Continuous
 62
     4
370
    25
100
AcDbSpline
210
0.0
220
0.0
230
1.0
 70
    24
 71
     3
 72
    14
 73
    10
 74
     0
 42
0.000000001
 43
0.00000001
 40
0.0
 40
0.0
 40
0.0
 40
0.0
 40
0.25
 40
0.25
 40
0.5
 40
0.5
 40
0.75
 40
0.75
 40
1.0
 40
1.0
 40
1.0
 40
1.0
 10
9.999999999999995
 20
-1.432139828498495
 30
0.0
 10
9.999999999999995
 20
-2.379325369252336
 30
0.0
 10
9.999999999999995
 20
-3.322489161247458
 30
0.0
 10
9.999999999999995
 20
-5.130209119552421
 30
0.0
 10
9.999999999999995
 20
-5.994193144177072
 30
0.0
 10
9.999999999999995
 20
-7.576451922384273
 30
0.0
 10
9.999999999999995
 20
-8.294269767662879
 30
0.0
 10
9.999999999999995
 20
-9.537906429934916
 30
0.0
 10
9.999999999999995
 20
-10.06359728799932
 30
0.0
 10
9.999999999999995
 20
-10.48526987382322
 30
0.0
  0
LINE
  5
CA
330
1F
100
AcDbEntity
  8
0
  6
Continuous
 62
     1
370
    25
100
AcDbLine
 10
48.09999999999999
 20
0.0010749287238979
 30
0.0
 11
48.09999999999999
 21
8.891074928723896
 31
0.0
  0
SPLINE
  5
CB
330
1F
100
AcDbEntity
  8
0
  6
Continuous
 62
     1
370
    25
100
AcDbSpline
210
0.0
220
0.0
230
1.0
 70
     8
 71
     3
 72
    14
 73
    10
 74
     0
 42
0.000000001
 43
0.00000001
 40
0.0
 40
0.0
 40
0.0
 40
0.0
 40
0.0067186745882317
 40
0.1664414307642955
 40
0.3259989441605449
 40
0.4944938183346692
 40
0.6631240476905874
 40
0.8315801164956035
 40
1.0
 40
1.0
 40
1.0
 40
1.0
 10
20.73885186856011
 20
-9.979549406991929
 30
0.0
 10
20.71479718026371
 20
-9.995583903298831
 30
0.0
 10
20.11889144259718
 20
-10.39280577672898
 30
0.0
 10
18.95140493023068
 20
-11.00567869731547
 30
0.0
 10
17.20639524113214
 20
-11.79591013617608
 30
0.0
 10
15.42846324201115
 20
-12.35187599660424
 30
0.0
 10
13.61742643893665
 20
-12.66820674314013
 30
0.0
 10
11.80840961720744
 20
-12.74456556171171
 30
0.0
 10
10.60276003772676
 20
-12.57825275770123
 30
0.0
 10
9.999999999999995
 20
-12.49510528788418
 30
0.0
  0
SPLINE
  5
CC
330
1F
100
AcDbEntity
  8
0
  6
Continuous
 62
     4
370
    25
100
AcDbSpline
210
0.0
220
0.0
230
1.0
 70
    24
 71
     3
 72
     8
 73
     4
 74
     0
 42
0.000000001
 43
0.00000001
 40
0.0
 40
0.0
 40
0.0
 40
0.0
 40
1.0
 40
1.0
 40
1.0
 40
1.0
 10
9.999999999999995
 20
-10.48526987382322
 30
0.0
 10
9.999999999999995
 20
-11.1594866897664
 30
0.0
 10
9.999999999999995
 20
-11.83375654058106
 30
0.0
 10
9.999999999999995
 20
-12.49510528788082
 30
0.0
  0
SPLINE
  5
CD
330
1F
100
AcDbEntity
  8
0
  6
Continuous
 62
     1
370
    25
100
AcDbSpline
210
0.0
220
0.0
230
1.0
 70
     8
 71
     3
 72
    13
 73
     9
 74
     0
 42
0.000000001
 43
0.00000001
 40
0.0
 40
0.0
 40
0.0
 40
0.0
 40
0.1499330389739077
 40
0.3198524034186461
 40
0.4899860877037371
 40
0.6600100445708555
 40
0.8299176519617614
 40
1.0
 40
1.0
 40
1.0
 40
1.0
 10
38.01560586749491
 20
8.514662577596658
 30
0.0
 10
38.51959991475221
 20
8.880141233682288
 30
0.0
 10
39.5947712607555
 20
9.659817463466101
 30
0.0
 10
41.2409001715042
 20
10.64619376608455
 30
0.0
 10
42.95668704322166
 20
11.49410333767409
 30
0.0
 10
44.67131300040063
 20
12.12508159702648
 30
0.0
 10
46.38477289587703
 20
12.55311911360483
 30
0.0
 10
47.52806176437159
 20
12.64458475612091
 30
0.0
 10
48.10000000000001
 20
12.69034108214037
 30
0.0
  0
LINE
  5
CE
330
1F
100
AcDbEntity
  8
0
  6
Continuous
 62
     1
370
    25
100
AcDbLine
 10
48.09999999999999
 20
8.891074928723896
 30
0.0
 11
48.09999999999999
 21
12.69034108214037
 31
0.0
  0
LINE
  5
CF
330
1F
100
AcDbEntity
  8
중심선
100
AcDbLine
 10
-56.49999999999999
 20
0.0010749287238931
 30
0.0
 11
55.10000000000002
 21
0.0010749287238983
 31
0.0
  0
CIRCLE
  5
D0
330
1F
100
AcDbEntity
  8
외형선
100
AcDbCircle
 10
0.0000000000000087
 20
0.0
 30
0.0
 40
3.000000000000004
  0
INSERT
  5
D1
330
1F
100
AcDbEntity
  8
0
  6
Continuous
 62
     7
100
AcDbBlockReference
 66
     1
  2
블럭10
 10
-16.6381869743017
 20
-52.04609937292004
 30
0.0
  0
ATTRIB
  5
D2
330
D1
100
AcDbEntity
  8
FORMAT
 62
     2
100
AcDbText
 10
-25.81948226304298
 20
-49.97073246008785
 30
0.0
 40
4.233333333333333
  1
E5253064 [ 2 FLUTE ]
 41
0.75
  7
SLDTEXTSTYLE0
 11
-25.81948226304298
 21
-52.08739912675452
 31
0.0
100
AcDbAttribute
  2
AUTOATTR0
 70
     0
 74
     1
  0
SEQEND
  5
D3
330
D1
100
AcDbEntity
  8
0
  6
Continuous
 62
     7
  0
HATCH
  5
D4
330
1F
100
AcDbEntity
  8
중심선
100
AcDbHatch
 10
0.0
 20
0.0
 30
0.0
210
0.0
220
0.0
230
1.0
  2
SOLID
 70
     1
 71
     0
 91
        1
 92
        0
 93
        4
 72
     1
 10
-10.92327766992085
 20
-35.7989250712761
 11
-14.36955291375813
 21
-35.7989250712761
 72
     1
 10
-14.36955291375813
 20
-35.7989250712761
 11
-16.49778277296215
 21
-38.3352506518487
 72
     1
 10
-16.49778277296215
 20
-38.3352506518487
 11
-13.05147444401172
 21
-38.33521122254621
 72
     1
 10
-13.05147444401172
 20
-38.33521122254621
 11
-10.92327766992085
 21
-35.7989250712761
 97
        0
 75
     0
 76
     1
 98
        1
 10
0.0
 20
0.0
  0
HATCH
  5
D5
330
1F
100
AcDbEntity
  8
중심선
100
AcDbHatch
 10
0.0
 20
0.0
 30
0.0
210
0.0
220
0.0
230
1.0
  2
SOLID
 70
     1
 71
     0
 91
        1
 92
        0
 93
        4
 72
     1
 10
-5.910513678884898
 20
-35.7989250712761
 11
-9.356788922722181
 21
-35.7989250712761
 72
     1
 10
-9.356788922722181
 20
-35.7989250712761
 11
-13.88792693107957
 21
-41.19892507127612
 72
     1
 10
-13.88792693107957
 20
-41.19892507127612
 11
-10.44165168724229
 21
-41.19892507127612
 72
     1
 10
-10.44165168724229
 20
-41.19892507127612
 11
-5.910513678884898
 21
-35.7989250712761
 97
        0
 75
     0
 76
     1
 98
        1
 10
0.0
 20
0.0
  0
HATCH
  5
D6
330
1F
100
AcDbEntity
  8
중심선
100
AcDbHatch
 10
0.0
 20
0.0
 30
0.0
210
0.0
220
0.0
230
1.0
  2
SOLID
 70
     1
 71
     0
 91
        1
 92
        0
 93
        4
 72
     1
 10
-0.8977496878490032
 20
-35.79892507127613
 11
-4.344024931686119
 21
-35.7989250712761
 72
     1
 10
-4.344024931686119
 20
-35.7989250712761
 11
-11.39246183357537
 21
-44.19892507127612
 72
     1
 10
-11.39246183357537
 20
-44.19892507127612
 11
-7.946186589738086
 21
-44.19892507127612
 72
     1
 10
-7.946186589738086
 20
-44.19892507127612
 11
-0.8977496878490028
 21
-35.79892507127613
 97
        0
 75
     0
 76
     1
 98
        1
 10
0.0
 20
0.0
  0
HATCH
  5
D7
330
1F
100
AcDbEntity
  8
중심선
100
AcDbHatch
 10
0.0
 20
0.0
 30
0.0
210
0.0
220
0.0
230
1.0
  2
SOLID
 70
     1
 71
     0
 91
        1
 92
        0
 93
        6
 72
     3
 10
3.902140743163196
 20
-39.99892507132738
 11
3.960054785062284
 21
1.540850780301639E-10
 40
0.3939339440162633
 50
17.09539180608433
 51
320.0019657685079
 73
     0
 72
     1
 10
5.585140398863792
 20
-38.58681907591441
 11
7.89044227256483
 21
-36.65249236586649
 72
     3
 10
3.902140743110349
 20
-39.99892507127625
 11
6.600054785286829
 21
-1.249000902703301E-13
 40
0.6363583540795982
 50
39.99873849337408
 51
368.4976242363724
 73
     1
 72
     1
 10
10.32747323501096
 20
-39.03892507120613
 11
2.582208049946273
 21
-39.0389250712061
 72
     1
 10
2.582208049946272
 20
-39.0389250712061
 11
2.582183005500338
 21
-40.95892507120602
 72
     1
 10
2.582183005500338
 20
-40.95892507120602
 11
7.023562774972376
 21
-40.95892507120599
 97
        0
 75
     0
 76
     1
 98
        1
 10
0.0
 20
0.0
  0
DIMENSION
  5
D8
330
1F
100
AcDbEntity
  8
치수문자_일반주서
100
AcDbDimension
  2
_D
 10
-53.5
 20
48.28052454378631
 30
0.0
 11
-2.700000000000003
 21
48.28052454378631
 31
0.0
 70
   160
  1
<>
 71
     2
 42
101.6
  3
SLDDIMSTYLE0
100
AcDbAlignedDimension
 13
48.09999999999999
 23
12.69034108214037
 33
0.0
 14
-53.5
 24
11.70107492872388
 34
0.0
100
AcDbRotatedDimension
1001
ACAD
1000
DSTYLE
1002
{
1070
   171
1070
     6
1070
   273
1070
     7
1002
}
  0
DIMENSION
  5
EC
330
1F
100
AcDbEntity
  8
치수문자_일반주서
100
AcDbDimension
  2
_D_1
 10
-66.30999999999996
 20
-12.69892507127617
 30
0.0
 11
-66.31
 21
0.0010749287238854
 31
0.0
 70
   160
  1
%%c<>
 71
     2
 42
25.40000000000001
  3
SLDDIMSTYLE1
100
AcDbAlignedDimension
 13
-52.50000000000001
 23
12.70107492872388
 33
0.0
 14
-52.50000000000001
 24
-12.69892507127612
 34
0.0
 50
90.0000000000002
100
AcDbRotatedDimension
1001
ACAD
1000
DSTYLE
1002
{
1070
   171
1070
     6
1070
   273
1070
     7
1002
}
  0
DIMENSION
  5
101
330
1F
100
AcDbEntity
  8
치수문자_일반주서
100
AcDbDimension
  2
_D_2
 10
9.999999999999993
 20
32.92695859564088
 30
0.0
 11
29.05
 21
32.92695859564088
 31
0.0
 70
   160
  1
<>
 71
     2
 42
38.1
  3
SLDDIMSTYLE0
100
AcDbAlignedDimension
 13
48.09999999999999
 23
12.69034108214037
 33
0.0
 14
9.999999999999995
 24
12.63709480212399
 34
0.0
100
AcDbRotatedDimension
1001
ACAD
1000
DSTYLE
1002
{
1070
   171
1070
     6
1070
   273
1070
     7
1002
}
  0
DIMENSION
  5
114
330
1F
100
AcDbEntity
  8
치수문자_일반주서
100
AcDbDimension
  2
_D_3
 10
68.30935371504394
 20
-12.68819122469251
 30
0.0
 11
68.30935371504381
 21
27.36734108214044
 31
0.0
 70
   160
  1
%%c<>
 71
     2
 42
25.37853230683295
  3
SLDDIMSTYLE2
100
AcDbAlignedDimension
 13
48.09999999999999
 23
12.69034108214037
 33
0.0
 14
48.09999999999999
 24
-12.68819122469258
 34
0.0
 50
90.0000000000002
100
AcDbRotatedDimension
1001
ACAD
1000
DSTYLE
1002
{
1070
   271
1070
     1
1070
   171
1070
     6
1070
   273
1070
     7
1002
}
  0
INSERT
  5
12E
330
1F
100
AcDbEntity
  8
외형선
100
AcDbBlockReference
  2
SW_DOWELSYMBOL_0
 10
0.0000000000000087
 20
0.0
 30
0.0
  0
LINE
  5
2D2
330
1F
100
AcDbEntity
  8
0
  6
Continuous
 62
     4
370
    15
100
AcDbLine
 10
-31.08132499999991
 20
10.8174290782198
 30
0.0
 11
-17.97492500000001
 21
10.8174290782198
 31
0.0
  0
LINE
  5
2D3
330
1F
100
AcDbEntity
  8
0
  6
Continuous
 62
     4
370
    15
100
AcDbLine
 10
-31.08132499999991
 20
10.8174290782198
 30
0.0
 11
-32.96497085050397
 21
12.70107492872389
 31
0.0
  0
LINE
  5
2D4
330
1F
100
AcDbEntity
  8
0
  6
Continuous
 62
     4
370
    15
100
AcDbLine
 10
-17.97492500000001
 20
10.8174290782198
 30
0.0
 11
-16.09127914949589
 21
12.70107492872389
 31
0.0
  0
LINE
  5
2D5
330
1F
100
AcDbEntity
  8
0
  6
Continuous
 62
     4
370
    15
100
AcDbLine
 10
-53.5
 20
10.8174290782198
 30
0.0
 11
-40.79999999999998
 21
10.8174290782198
 31
0.0
  0
LINE
  5
2D6
330
1F
100
AcDbEntity
  8
0
  6
Continuous
 62
     4
370
    15
100
AcDbLine
 10
-40.79999999999998
 20
10.8174290782198
 30
0.0
 11
-38.91635414949591
 21
12.70107492872389
 31
0.0
  0
LINE
  5
2D7
330
1F
100
AcDbEntity
  8
0
  6
Continuous
 62
     4
370
    25
100
AcDbLine
 10
-32.96497085050398
 20
12.70107492872389
 30
0.0
 11
-38.91635414949591
 21
12.70107492872389
 31
0.0
  0
ENDSEC
  0
SECTION
  2
OBJECTS
  0
DICTIONARY
  5
C
330
0
100
AcDbDictionary
281
     1
  3
ACAD_GROUP
350
D
  3
ACAD_IMAGE_VARS
350
152
  3
ACAD_LAYOUT
350
1A
  3
ACAD_MLINESTYLE
350
17
  3
ACAD_PLOTSETTINGS
350
19
  3
ACAD_PLOTSTYLENAME
350
E
  3
ACAD_SCALELIST
350
47
  3
APPDATA
350
150
  3
DWGPROPS
350
2DC
  0
DICTIONARY
  5
212
330
2
100
AcDbDictionary
280
     1
281
     1
  3
ACAD_LAYERSTATES
360
213
  0
DICTIONARY
  5
2CF
330
1F
100
AcDbDictionary
280
     1
281
     1
  3
ACAD_SORTENTS
360
2D8
  3
DIM_BOUNDING_BOXES_V1
360
2D9
  0
DICTIONARY
  5
D
102
{ACAD_REACTORS
330
C
102
}
330
C
100
AcDbDictionary
281
     1
  0
RASTERVARIABLES
  5
152
102
{ACAD_REACTORS
330
C
102
}
330
C
100
AcDbRasterVariables
 90
        0
 70
     1
 71
     1
 72
     1
  0
DICTIONARY
  5
1A
102
{ACAD_REACTORS
330
C
102
}
330
C
100
AcDbDictionary
281
     1
  3
Layout1
350
1E
  3
Layout2
350
26
  3
Model
350
22
  0
DICTIONARY
  5
17
102
{ACAD_REACTORS
330
C
102
}
330
C
100
AcDbDictionary
281
     1
  3
Standard
350
18
  0
DICTIONARY
  5
19
102
{ACAD_REACTORS
330
C
102
}
330
C
100
AcDbDictionary
281
     1
  0
ACDBDICTIONARYWDFLT
  5
E
102
{ACAD_REACTORS
330
C
102
}
330
C
100
AcDbDictionary
281
     1
  3
Normal
350
F
100
AcDbDictionaryWithDefault
340
F
  0
DICTIONARY
  5
47
102
{ACAD_REACTORS
330
C
102
}
330
C
100
AcDbDictionary
281
     1
  3
A0
350
48
  3
A1
350
49
  3
A2
350
4A
  3
A3
350
4B
  3
A4
350
4C
  3
A5
350
4D
  3
A6
350
4E
  3
A7
350
4F
  3
A8
350
50
  3
A9
350
51
  3
B0
350
52
  3
B1
350
53
  3
B2
350
54
  3
B3
350
55
  3
B4
350
56
  3
B5
350
57
  3
B6
350
58
  3
B7
350
59
  3
B8
350
5A
  3
B9
350
5B
  3
C0
350
5C
  3
C1
350
5D
  3
C2
350
5E
  3
C3
350
5F
  3
C4
350
60
  3
C5
350
61
  3
C6
350
62
  3
C7
350
63
  3
C8
350
64
  3
C9
350
65
  3
D0
350
66
  3
D1
350
67
  3
D2
350
68
  0
DICTIONARY
  5
150
102
{ACAD_REACTORS
330
C
102
}
330
C
100
AcDbDictionary
281
     1
  0
XRECORD
  5
2DC
102
{ACAD_REACTORS
330
C
102
}
330
C
100
AcDbXrecord
280
     1
  1
DWGPROPS COOKIE
  2

  3

  4

  6

  7

  8
12016016
  9

300
=
301
=
302
=
303
=
304
=
305
=
306
=
307
=
308
=
309
=
 40
0.0
 41
2458263.244431945
 42
2459730.973789109
  1

 90
        0
  0
DICTIONARY
  5
213
102
{ACAD_REACTORS
330
212
102
}
330
212
100
AcDbDictionary
281
     1
  0
SORTENTSTABLE
  5
2D8
102
{ACAD_REACTORS
330
2CF
102
}
330
2CF
100
AcDbSortentsTable
330
1F
331
9A
  5
9B
331
9B
  5
9C
331
9C
  5
9D
331
0
  5
9E
331
9E
  5
9F
331
9F
  5
A0
331
A0
  5
A1
331
A1
  5
A2
331
A2
  5
A3
331
A3
  5
A4
331
A4
  5
A5
331
A5
  5
A6
331
A6
  5
A7
331
A7
  5
A8
331
A8
  5
A9
331
A9
  5
AA
331
AA
  5
AB
331
AB
  5
AC
331
AC
  5
AD
331
AD
  5
AE
331
AE
  5
AF
331
AF
  5
B0
331
B0
  5
B1
331
B1
  5
B2
331
B2
  5
B3
331
B3
  5
B4
331
B4
  5
B5
331
B5
  5
B6
331
B6
  5
B7
331
B7
  5
B8
331
B8
  5
B9
331
B9
  5
BA
331
BA
  5
BB
331
BB
  5
BC
331
BC
  5
BD
331
BD
  5
BE
331
BE
  5
BF
331
BF
  5
C0
331
C0
  5
C1
331
C1
  5
C2
331
C2
  5
C3
331
C3
  5
C4
331
C4
  5
C5
331
C5
  5
C6
331
C6
  5
C7
331
C7
  5
C8
331
C8
  5
C9
331
C9
  5
CA
331
CA
  5
CB
331
CB
  5
CC
331
CC
  5
CD
331
CD
  5
CE
331
CE
  5
CF
331
CF
  5
D0
331
D0
  5
D1
331
D1
  5
D4
331
D4
  5
D5
331
D5
  5
D6
331
D6
  5
D7
331
D7
  5
D8
331
D8
  5
EC
331
EC
  5
101
331
101
  5
114
331
114
  5
12E
331
12E
  5
246
331
0
  5
247
331
0
  5
248
331
0
  5
249
331
0
  5
24A
331
0
  5
24B
331
0
  5
24C
331
0
  5
24D
331
0
  5
24E
331
0
  5
24F
331
0
  5
250
331
0
  5
251
331
0
  5
252
331
0
  5
253
331
0
  5
254
331
0
  5
255
331
0
  5
256
331
0
  5
257
331
0
  5
258
331
0
  5
259
331
0
  5
25A
331
0
  5
25B
331
0
  5
25C
331
0
  5
25D
331
0
  5
25E
331
0
  5
25F
331
0
  5
260
331
0
  5
261
331
0
  5
262
331
0
  5
263
331
0
  5
264
331
0
  5
265
331
0
  5
266
331
0
  5
267
331
0
  5
268
331
0
  5
269
331
0
  5
26A
331
0
  5
26B
331
0
  5
26C
331
0
  5
26D
331
0
  5
26E
331
0
  5
26F
331
0
  5
270
331
0
  5
271
331
0
  5
272
331
0
  5
273
331
0
  5
274
331
0
  5
275
331
0
  5
276
331
0
  5
277
331
0
  5
278
331
0
  5
279
331
0
  5
27A
331
0
  5
27B
331
0
  5
27C
331
0
  5
27D
331
0
  5
27E
331
0
  5
27F
331
0
  5
280
331
0
  5
281
331
0
  5
282
331
0
  5
283
331
0
  5
284
331
0
  5
285
331
0
  5
286
331
0
  5
287
331
0
  5
288
331
0
  5
289
331
0
  5
28A
331
0
  5
28B
331
0
  5
28C
331
0
  5
28D
331
0
  5
28E
331
0
  5
28F
331
0
  5
290
331
0
  5
291
331
0
  5
292
331
0
  5
293
331
0
  5
294
331
0
  5
295
331
0
  5
296
331
0
  5
297
331
0
  5
2C8
331
0
  5
2C9
331
0
  5
2CA
331
0
  5
2CB
331
0
  5
2CC
331
0
  5
2CD
331
0
  5
2D1
331
0
  5
2D2
331
2D2
  5
2D3
331
2D3
  5
2D4
331
2D4
  5
2D5
331
2D5
  5
2D6
331
2D6
  5
2D7
331
2D7
  5
9A
  0
DICTIONARY
  5
2D9
102
{ACAD_REACTORS
330
2CF
102
}
330
2CF
100
AcDbDictionary
281
     1
  0
LAYOUT
  5
1E
102
{ACAD_REACTORS
330
1A
102
}
330
1A
100
AcDbPlotSettings
  1

  2
none_device
  4

  6

 40
0.0
 41
0.0
 42
0.0
 43
0.0
 44
0.0
 45
0.0
 46
0.0
 47
0.0
 48
0.0
 49
0.0
140
0.0
141
0.0
142
1.0
143
1.0
 70
   688
 72
     1
 73
     0
 74
     5
  7

 75
    16
147
1.0
148
0.0
149
0.0
100
AcDbLayout
  1
Layout1
 70
     1
 71
     1
 10
0.0
 20
0.0
 11
420.0
 21
297.0
 12
0.0
 22
0.0
 32
0.0
 14
1.000000000000000E+20
 24
1.000000000000000E+20
 34
1.000000000000000E+20
 15
-1.000000000000000E+20
 25
-1.000000000000000E+20
 35
-1.000000000000000E+20
146
0.0
 13
0.0
 23
0.0
 33
0.0
 16
1.0
 26
0.0
 36
0.0
 17
0.0
 27
1.0
 37
0.0
 76
     0
330
1B
  0
LAYOUT
  5
26
102
{ACAD_REACTORS
330
1A
102
}
330
1A
100
AcDbPlotSettings
  1

  2
none_device
  4

  6

 40
0.0
 41
0.0
 42
0.0
 43
0.0
 44
0.0
 45
0.0
 46
0.0
 47
0.0
 48
0.0
 49
0.0
140
0.0
141
0.0
142
1.0
143
1.0
 70
   688
 72
     1
 73
     0
 74
     5
  7

 75
    16
147
1.0
148
0.0
149
0.0
100
AcDbLayout
  1
Layout2
 70
     1
 71
     2
 10
0.0
 20
0.0
 11
0.0
 21
0.0
 12
0.0
 22
0.0
 32
0.0
 14
0.0
 24
0.0
 34
0.0
 15
0.0
 25
0.0
 35
0.0
146
0.0
 13
0.0
 23
0.0
 33
0.0
 16
1.0
 26
0.0
 36
0.0
 17
0.0
 27
1.0
 37
0.0
 76
     0
330
23
  0
LAYOUT
  5
22
102
{ACAD_REACTORS
330
1A
102
}
330
1A
100
AcDbPlotSettings
  1

  2
none_device
  4
ANSI_A_(11.00_x_8.50_Inches)
  6

 40
6.35
 41
19.05
 42
6.35000508
 43
19.05000254
 44
279.4
 45
215.9
 46
140.711870598188
 47
81.00424877661219
 48
0.0
 49
0.0
140
0.0
141
0.0
142
0.0743790296482818
143
1.0
 70
  1696
 72
     0
 73
     0
 74
     0
  7

 75
     0
147
0.0235690232323232
148
0.0
149
0.0
100
AcDbLayout
  1
Model
 70
     1
 71
     0
 10
0.0
 20
0.0
 11
420.0
 21
297.0
 12
0.0
 22
0.0
 32
0.0
 14
-70.68500000000003
 24
-49.97073246008785
 34
0.0
 15
68.85968704837725
 25
52.65552454378631
 35
0.0
146
0.0
 13
0.0
 23
0.0
 33
0.0
 16
1.0
 26
0.0
 36
0.0
 17
0.0
 27
1.0
 37
0.0
 76
     0
330
1F
331
29
  0
MLINESTYLE
  5
18
102
{ACAD_REACTORS
330
17
102
}
330
17
100
AcDbMlineStyle
  2
Standard
 70
     0
  3

 62
   256
 51
90.0
 52
90.0
 71
     2
 49
0.5
 62
   256
  6
BYLAYER
 49
-0.5
 62
   256
  6
BYLAYER
  0
ACDBPLACEHOLDER
  5
F
102
{ACAD_REACTORS
330
E
102
}
330
E
  0
SCALE
  5
48
102
{ACAD_REACTORS
330
47
102
}
330
47
100
AcDbScale
 70
     0
300
1:1
140
1.0
141
1.0
290
     1
  0
SCALE
  5
49
102
{ACAD_REACTORS
330
47
102
}
330
47
100
AcDbScale
 70
     0
300
1:2
140
1.0
141
2.0
290
     0
  0
SCALE
  5
4A
102
{ACAD_REACTORS
330
47
102
}
330
47
100
AcDbScale
 70
     0
300
1:4
140
1.0
141
4.0
290
     0
  0
SCALE
  5
4B
102
{ACAD_REACTORS
330
47
102
}
330
47
100
AcDbScale
 70
     0
300
1:5
140
1.0
141
5.0
290
     0
  0
SCALE
  5
4C
102
{ACAD_REACTORS
330
47
102
}
330
47
100
AcDbScale
 70
     0
300
1:8
140
1.0
141
8.0
290
     0
  0
SCALE
  5
4D
102
{ACAD_REACTORS
330
47
102
}
330
47
100
AcDbScale
 70
     0
300
1:10
140
1.0
141
10.0
290
     0
  0
SCALE
  5
4E
102
{ACAD_REACTORS
330
47
102
}
330
47
100
AcDbScale
 70
     0
300
1:16
140
1.0
141
16.0
290
     0
  0
SCALE
  5
4F
102
{ACAD_REACTORS
330
47
102
}
330
47
100
AcDbScale
 70
     0
300
1:20
140
1.0
141
20.0
290
     0
  0
SCALE
  5
50
102
{ACAD_REACTORS
330
47
102
}
330
47
100
AcDbScale
 70
     0
300
1:30
140
1.0
141
30.0
290
     0
  0
SCALE
  5
51
102
{ACAD_REACTORS
330
47
102
}
330
47
100
AcDbScale
 70
     0
300
1:40
140
1.0
141
40.0
290
     0
  0
SCALE
  5
52
102
{ACAD_REACTORS
330
47
102
}
330
47
100
AcDbScale
 70
     0
300
1:50
140
1.0
141
50.0
290
     0
  0
SCALE
  5
53
102
{ACAD_REACTORS
330
47
102
}
330
47
100
AcDbScale
 70
     0
300
1:100
140
1.0
141
100.0
290
     0
  0
SCALE
  5
54
102
{ACAD_REACTORS
330
47
102
}
330
47
100
AcDbScale
 70
     0
300
2:1
140
2.0
141
1.0
290
     0
  0
SCALE
  5
55
102
{ACAD_REACTORS
330
47
102
}
330
47
100
AcDbScale
 70
     0
300
4:1
140
4.0
141
1.0
290
     0
  0
SCALE
  5
56
102
{ACAD_REACTORS
330
47
102
}
330
47
100
AcDbScale
 70
     0
300
8:1
140
8.0
141
1.0
290
     0
  0
SCALE
  5
57
102
{ACAD_REACTORS
330
47
102
}
330
47
100
AcDbScale
 70
     0
300
10:1
140
10.0
141
1.0
290
     0
  0
SCALE
  5
58
102
{ACAD_REACTORS
330
47
102
}
330
47
100
AcDbScale
 70
     0
300
100:1
140
100.0
141
1.0
290
     0
  0
SCALE
  5
59
102
{ACAD_REACTORS
330
47
102
}
330
47
100
AcDbScale
 70
     0
300
1/128" = 1'-0"
140
0.0078125
141
12.0
290
     0
  0
SCALE
  5
5A
102
{ACAD_REACTORS
330
47
102
}
330
47
100
AcDbScale
 70
     0
300
1/64" = 1'-0"
140
0.015625
141
12.0
290
     0
  0
SCALE
  5
5B
102
{ACAD_REACTORS
330
47
102
}
330
47
100
AcDbScale
 70
     0
300
1/32" = 1'-0"
140
0.03125
141
12.0
290
     0
  0
SCALE
  5
5C
102
{ACAD_REACTORS
330
47
102
}
330
47
100
AcDbScale
 70
     0
300
1/16" = 1'-0"
140
0.0625
141
12.0
290
     0
  0
SCALE
  5
5D
102
{ACAD_REACTORS
330
47
102
}
330
47
100
AcDbScale
 70
     0
300
3/32" = 1'-0"
140
0.09375
141
12.0
290
     0
  0
SCALE
  5
5E
102
{ACAD_REACTORS
330
47
102
}
330
47
100
AcDbScale
 70
     0
300
1/8" = 1'-0"
140
0.125
141
12.0
290
     0
  0
SCALE
  5
5F
102
{ACAD_REACTORS
330
47
102
}
330
47
100
AcDbScale
 70
     0
300
3/16" = 1'-0"
140
0.1875
141
12.0
290
     0
  0
SCALE
  5
60
102
{ACAD_REACTORS
330
47
102
}
330
47
100
AcDbScale
 70
     0
300
1/4" = 1'-0"
140
0.25
141
12.0
290
     0
  0
SCALE
  5
61
102
{ACAD_REACTORS
330
47
102
}
330
47
100
AcDbScale
 70
     0
300
3/8" = 1'-0"
140
0.375
141
12.0
290
     0
  0
SCALE
  5
62
102
{ACAD_REACTORS
330
47
102
}
330
47
100
AcDbScale
 70
     0
300
1/2" = 1'-0"
140
0.5
141
12.0
290
     0
  0
SCALE
  5
63
102
{ACAD_REACTORS
330
47
102
}
330
47
100
AcDbScale
 70
     0
300
3/4" = 1'-0"
140
0.75
141
12.0
290
     0
  0
SCALE
  5
64
102
{ACAD_REACTORS
330
47
102
}
330
47
100
AcDbScale
 70
     0
300
1" = 1'-0"
140
1.0
141
12.0
290
     0
  0
SCALE
  5
65
102
{ACAD_REACTORS
330
47
102
}
330
47
100
AcDbScale
 70
     0
300
1-1/2" = 1'-0"
140
1.5
141
12.0
290
     0
  0
SCALE
  5
66
102
{ACAD_REACTORS
330
47
102
}
330
47
100
AcDbScale
 70
     0
300
3" = 1'-0"
140
3.0
141
12.0
290
     0
  0
SCALE
  5
67
102
{ACAD_REACTORS
330
47
102
}
330
47
100
AcDbScale
 70
     0
300
6" = 1'-0"
140
6.0
141
12.0
290
     0
  0
SCALE
  5
68
102
{ACAD_REACTORS
330
47
102
}
330
47
100
AcDbScale
 70
     0
300
1'-0" = 1'-0"
140
12.0
141
12.0
290
     0
  0
ENDSEC
  0
EOF
