  0
SECTION
  2
HEADER
  9
$ACADVER
  1
AC1015
  9
$ACADMAINTVER
 70
     6
  9
$DWGCODEPAGE
  3
ANSI_949
  9
$INSBASE
 10
0.0
 20
0.0
 30
0.0
  9
$EXTMIN
 10
-57.98500000000006
 20
-49.97073246008785
 30
0.0
  9
$EXTMAX
 10
81.55968704837716
 20
46.3108914670781
 30
0.0
  9
$LIMMIN
 10
0.0
 20
0.0
  9
$LIMMAX
 10
420.0
 20
297.0
  9
$ORTHOMODE
 70
     1
  9
$REGENMODE
 70
     1
  9
$FILLMODE
 70
     1
  9
$QTEXTMODE
 70
     0
  9
$MIRRTEXT
 70
     1
  9
$LTSCALE
 40
1.0
  9
$ATTMODE
 70
     1
  9
$TEXTSIZE
 40
3.5
  9
$TRACEWID
 40
1.0
  9
$TEXTSTYLE
  7
Standard
  9
$CLAYER
  8
0
  9
$CELTYPE
  6
ByLayer
  9
$CECOLOR
 62
   256
  9
$CELTSCALE
 40
1.0
  9
$DISPSILH
 70
     0
  9
$DIMSCALE
 40
1.0
  9
$DIMASZ
 40
3.302
  9
$DIMEXO
 40
1.0
  9
$DIMDLI
 40
3.75
  9
$DIMRND
 40
0.0
  9
$DIMDLE
 40
0.0
  9
$DIMEXE
 40
1.0
  9
$DIMTP
 40
0.0
  9
$DIMTM
 40
0.0
  9
$DIMTXT
 40
3.5
  9
$DIMCEN
 40
2.5
  9
$DIMTSZ
 40
0.0
  9
$DIMTOL
 70
     0
  9
$DIMLIM
 70
     0
  9
$DIMTIH
 70
     1
  9
$DIMTOH
 70
     1
  9
$DIMSE1
 70
     0
  9
$DIMSE2
 70
     0
  9
$DIMTAD
 70
     1
  9
$DIMZIN
 70
     0
  9
$DIMBLK
  1

  9
$DIMASO
 70
     1
  9
$DIMSHO
 70
     1
  9
$DIMPOST
  1

  9
$DIMAPOST
  1

  9
$DIMALT
 70
     0
  9
$DIMALTD
 70
     3
  9
$DIMALTF
 40
0.0393700787401575
  9
$DIMLFAC
 40
1.0
  9
$DIMTOFL
 70
     1
  9
$DIMTVP
 40
0.0
  9
$DIMTIX
 70
     0
  9
$DIMSOXD
 70
     0
  9
$DIMSAH
 70
     0
  9
$DIMBLK1
  1

  9
$DIMBLK2
  1

  9
$DIMSTYLE
  2
ISO-25
  9
$DIMCLRD
 70
     0
  9
$DIMCLRE
 70
     0
  9
$DIMCLRT
 70
     0
  9
$DIMTFAC
 40
1.0
  9
$DIMGAP
 40
1.524
  9
$DIMJUST
 70
     0
  9
$DIMSD1
 70
     0
  9
$DIMSD2
 70
     0
  9
$DIMTOLJ
 70
     0
  9
$DIMTZIN
 70
     0
  9
$DIMALTZ
 70
     0
  9
$DIMALTTZ
 70
     0
  9
$DIMUPT
 70
     0
  9
$DIMDEC
 70
     2
  9
$DIMTDEC
 70
     2
  9
$DIMALTU
 70
     2
  9
$DIMALTTD
 70
     3
  9
$DIMTXSTY
  7
Standard
  9
$DIMAUNIT
 70
     0
  9
$DIMADEC
 70
     2
  9
$DIMALTRND
 40
0.0
  9
$DIMAZIN
 70
     0
  9
$DIMDSEP
 70
    44
  9
$DIMATFIT
 70
     3
  9
$DIMFRAC
 70
     0
  9
$DIMLDRBLK
  1

  9
$DIMLUNIT
 70
     2
  9
$DIMLWD
 70
    -2
  9
$DIMLWE
 70
    -2
  9
$DIMTMOVE
 70
     0
  9
$LUNITS
 70
     2
  9
$LUPREC
 70
     2
  9
$SKETCHINC
 40
1.0
  9
$FILLETRAD
 40
10.0
  9
$AUNITS
 70
     0
  9
$AUPREC
 70
     2
  9
$MENU
  1
.
  9
$ELEVATION
 40
0.0
  9
$PELEVATION
 40
0.0
  9
$THICKNESS
 40
0.0
  9
$LIMCHECK
 70
     0
  9
$CHAMFERA
 40
0.0
  9
$CHAMFERB
 40
0.0
  9
$CHAMFERC
 40
0.0
  9
$CHAMFERD
 40
0.0
  9
$SKPOLY
 70
     0
  9
$TDCREATE
 40
2458263.619621157
  9
$TDUCREATE
 40
2458263.244621157
  9
$TDUPDATE
 40
2459731.345539445
  9
$TDUUPDATE
 40
2459730.970539445
  9
$TDINDWG
 40
0.0004600463
  9
$TDUSRTIMER
 40
0.0001438194
  9
$USRTIMER
 70
     1
  9
$ANGBASE
 50
0.0
  9
$ANGDIR
 70
     0
  9
$PDMODE
 70
     0
  9
$PDSIZE
 40
-1.0
  9
$PLINEWID
 40
0.0
  9
$SPLFRAME
 70
     0
  9
$SPLINETYPE
 70
     6
  9
$SPLINESEGS
 70
     8
  9
$HANDSEED
  5
2C6
  9
$SURFTAB1
 70
     6
  9
$SURFTAB2
 70
     6
  9
$SURFTYPE
 70
     6
  9
$SURFU
 70
     6
  9
$SURFV
 70
     6
  9
$UCSBASE
  2

  9
$UCSNAME
  2

  9
$UCSORG
 10
0.0
 20
0.0
 30
0.0
  9
$UCSXDIR
 10
1.0
 20
0.0
 30
0.0
  9
$UCSYDIR
 10
0.0
 20
1.0
 30
0.0
  9
$UCSORTHOREF
  2

  9
$UCSORTHOVIEW
 70
     0
  9
$UCSORGTOP
 10
0.0
 20
0.0
 30
0.0
  9
$UCSORGBOTTOM
 10
0.0
 20
0.0
 30
0.0
  9
$UCSORGLEFT
 10
0.0
 20
0.0
 30
0.0
  9
$UCSORGRIGHT
 10
0.0
 20
0.0
 30
0.0
  9
$UCSORGFRONT
 10
0.0
 20
0.0
 30
0.0
  9
$UCSORGBACK
 10
0.0
 20
0.0
 30
0.0
  9
$PUCSBASE
  2

  9
$PUCSNAME
  2

  9
$PUCSORG
 10
0.0
 20
0.0
 30
0.0
  9
$PUCSXDIR
 10
1.0
 20
0.0
 30
0.0
  9
$PUCSYDIR
 10
0.0
 20
1.0
 30
0.0
  9
$PUCSORTHOREF
  2

  9
$PUCSORTHOVIEW
 70
     0
  9
$PUCSORGTOP
 10
0.0
 20
0.0
 30
0.0
  9
$PUCSORGBOTTOM
 10
0.0
 20
0.0
 30
0.0
  9
$PUCSORGLEFT
 10
0.0
 20
0.0
 30
0.0
  9
$PUCSORGRIGHT
 10
0.0
 20
0.0
 30
0.0
  9
$PUCSORGFRONT
 10
0.0
 20
0.0
 30
0.0
  9
$PUCSORGBACK
 10
0.0
 20
0.0
 30
0.0
  9
$USERI1
 70
     0
  9
$USERI2
 70
     0
  9
$USERI3
 70
     0
  9
$USERI4
 70
     0
  9
$USERI5
 70
     0
  9
$USERR1
 40
0.0
  9
$USERR2
 40
0.0
  9
$USERR3
 40
0.0
  9
$USERR4
 40
0.0
  9
$USERR5
 40
0.0
  9
$WORLDVIEW
 70
     1
  9
$SHADEDGE
 70
     3
  9
$SHADEDIF
 70
    70
  9
$TILEMODE
 70
     1
  9
$MAXACTVP
 70
    64
  9
$PINSBASE
 10
0.0
 20
0.0
 30
0.0
  9
$PLIMCHECK
 70
     0
  9
$PEXTMIN
 10
1.000000000000000E+20
 20
1.000000000000000E+20
 30
1.000000000000000E+20
  9
$PEXTMAX
 10
-1.000000000000000E+20
 20
-1.000000000000000E+20
 30
-1.000000000000000E+20
  9
$PLIMMIN
 10
0.0
 20
0.0
  9
$PLIMMAX
 10
0.0
 20
0.0
  9
$UNITMODE
 70
     0
  9
$VISRETAIN
 70
     1
  9
$PLINEGEN
 70
     0
  9
$PSLTSCALE
 70
     1
  9
$TREEDEPTH
 70
  3020
  9
$CMLSTYLE
  2
Standard
  9
$CMLJUST
 70
     0
  9
$CMLSCALE
 40
20.0
  9
$PROXYGRAPHICS
 70
     1
  9
$MEASUREMENT
 70
     1
  9
$CELWEIGHT
370
    -1
  9
$ENDCAPS
280
     0
  9
$JOINSTYLE
280
     0
  9
$LWDISPLAY
290
     1
  9
$INSUNITS
 70
     4
  9
$HYPERLINKBASE
  1

  9
$STYLESHEET
  1

  9
$XEDIT
290
     1
  9
$CEPSNTYPE
380
     0
  9
$PSTYLEMODE
290
     1
  9
$FINGERPRINTGUID
  2
{936BD51E-F9E6-47F8-870B-15E33E2F5324}
  9
$VERSIONGUID
  2
{FAEB1C32-E019-11D5-929B-00C0DF256EC4}
  9
$EXTNAMES
290
     1
  9
$PSVPSCALE
 40
0.0
  9
$OLESTARTUP
290
     0
  0
ENDSEC
  0
SECTION
  2
CLASSES
  0
CLASS
  1
ACDBDICTIONARYWDFLT
  2
AcDbDictionaryWithDefault
  3
ObjectDBX Classes
 90
        0
280
     0
281
     0
  0
CLASS
  1
VISUALSTYLE
  2
AcDbVisualStyle
  3
ObjectDBX Classes
 90
     4095
280
     0
281
     0
  0
CLASS
  1
MATERIAL
  2
AcDbMaterial
  3
ObjectDBX Classes
 90
     1153
280
     0
281
     0
  0
CLASS
  1
SCALE
  2
AcDbScale
  3
ObjectDBX Classes
 90
     1153
280
     0
281
     0
  0
CLASS
  1
TABLESTYLE
  2
AcDbTableStyle
  3
ObjectDBX Classes
 90
     4095
280
     0
281
     0
  0
CLASS
  1
MLEADERSTYLE
  2
AcDbMLeaderStyle
  3
ACDB_MLEADERSTYLE_CLASS
 90
     4095
280
     0
281
     0
  0
CLASS
  1
SUN
  2
AcDbSun
  3
SCENEOE
 90
     1153
280
     0
281
     0
  0
CLASS
  1
ACDBPLACEHOLDER
  2
AcDbPlaceHolder
  3
ObjectDBX Classes
 90
        0
280
     0
281
     0
  0
CLASS
  1
LAYOUT
  2
AcDbLayout
  3
ObjectDBX Classes
 90
        0
280
     0
281
     0
  0
CLASS
  1
RASTERVARIABLES
  2
AcDbRasterVariables
  3
ISM
 90
        0
280
     0
281
     0
  0
CLASS
  1
SORTENTSTABLE
  2
AcDbSortentsTable
  3
ObjectDBX Classes
 90
        0
280
     0
281
     0
  0
ENDSEC
  0
SECTION
  2
TABLES
  0
TABLE
  2
VPORT
  5
8
330
0
100
AcDbSymbolTable
 70
     1
  0
VPORT
  5
29
330
8
100
AcDbSymbolTableRecord
100
AcDbViewportTableRecord
  2
*Active
 70
     0
 10
0.0
 20
0.0
 11
1.0
 21
1.0
 12
32.0530549141606
 22
-43.38908713459076
 13
0.0
 23
0.0
 14
10.0
 24
10.0
 15
10.0
 25
10.0
 16
0.0
 26
0.0
 36
1.0
 17
0.0
 27
0.0
 37
0.0
 40
283.9473409636799
 41
1.531481481481481
 42
50.0
 43
0.0
 44
0.0
 50
0.0
 51
0.0
 71
    16
 72
  2000
 73
     1
 74
     3
 75
     0
 76
     0
 77
     0
 78
     0
281
     0
 65
     1
110
0.0
120
0.0
130
0.0
111
1.0
121
0.0
131
0.0
112
0.0
122
1.0
132
0.0
 79
     0
146
0.0
  0
ENDTAB
  0
TABLE
  2
LTYPE
  5
5
330
0
100
AcDbSymbolTable
 70
     6
  0
LTYPE
  5
14
330
5
100
AcDbSymbolTableRecord
100
AcDbLinetypeTableRecord
  2
ByBlock
 70
     0
  3

 72
    65
 73
     0
 40
0.0
  0
LTYPE
  5
15
330
5
100
AcDbSymbolTableRecord
100
AcDbLinetypeTableRecord
  2
ByLayer
 70
     0
  3

 72
    65
 73
     0
 40
0.0
  0
LTYPE
  5
16
330
5
100
AcDbSymbolTableRecord
100
AcDbLinetypeTableRecord
  2
Continuous
 70
     0
  3
Solid line
 72
    65
 73
     0
 40
0.0
  0
LTYPE
  5
6E
330
5
100
AcDbSymbolTableRecord
100
AcDbLinetypeTableRecord
  2
HIDDEN
 70
     0
  3
Hidden __ __ __ __ __ __ __ __ __ __ __ __ __ __
 72
    65
 73
     2
 40
1.905
 49
1.27
 74
     0
 49
-0.635
 74
     0
  0
LTYPE
  5
6F
330
5
100
AcDbSymbolTableRecord
100
AcDbLinetypeTableRecord
  2
PHANTOM
 70
     0
  3
Phantom ______  __  __  ______  __  __  ______
 72
    65
 73
     6
 40
12.7
 49
6.35
 74
     0
 49
-1.27
 74
     0
 49
1.27
 74
     0
 49
-1.27
 74
     0
 49
1.27
 74
     0
 49
-1.27
 74
     0
  0
LTYPE
  5
70
330
5
100
AcDbSymbolTableRecord
100
AcDbLinetypeTableRecord
  2
CENTER
 70
     0
  3
Center ____ _ ____ _ ____ _ ____ _ ____ _ ____
 72
    65
 73
     4
 40
10.16
 49
6.35
 74
     0
 49
-1.27
 74
     0
 49
1.27
 74
     0
 49
-1.27
 74
     0
  0
LTYPE
  5
71
330
5
100
AcDbSymbolTableRecord
100
AcDbLinetypeTableRecord
  2
CENTERX2
 70
     0
  3
Center (2x) ________  __  ________  __  _____
 72
    65
 73
     4
 40
20.32
 49
12.7
 74
     0
 49
-2.54
 74
     0
 49
2.54
 74
     0
 49
-2.54
 74
     0
  0
LTYPE
  5
72
330
5
100
AcDbSymbolTableRecord
100
AcDbLinetypeTableRecord
  2
DOT2
 70
     0
  3
Dot (.5x) ........................................
 72
    65
 73
     2
 40
0.635
 49
0.0
 74
     0
 49
-0.635
 74
     0
  0
ENDTAB
  0
TABLE
  2
LAYER
  5
2
102
{ACAD_XDICTIONARY
360
214
102
}
330
0
100
AcDbSymbolTable
 70
    17
  0
LAYER
  5
10
330
2
100
AcDbSymbolTableRecord
100
AcDbLayerTableRecord
  2
0
 70
     0
 62
     7
  6
Continuous
370
    -3
390
F
  0
LAYER
  5
73
330
2
100
AcDbSymbolTableRecord
100
AcDbLayerTableRecord
  2
FORMAT
 70
     0
 62
     2
  6
Continuous
370
    -3
390
F
  0
LAYER
  5
74
330
2
100
AcDbSymbolTableRecord
100
AcDbLayerTableRecord
  2
외형선
 70
     0
 62
   100
  6
Continuous
370
    35
390
F
  0
LAYER
  5
75
330
2
100
AcDbSymbolTableRecord
100
AcDbLayerTableRecord
  2
숨은선
 70
     0
 62
     2
  6
HIDDEN
370
    25
390
F
  0
LAYER
  5
76
330
2
100
AcDbSymbolTableRecord
100
AcDbLayerTableRecord
  2
중심선
 70
     0
 62
     1
  6
CENTERX2
370
    -3
390
F
  0
LAYER
  5
77
330
2
100
AcDbSymbolTableRecord
100
AcDbLayerTableRecord
  2
파단선
 70
     0
 62
     4
  6
Continuous
370
    -3
390
F
  0
LAYER
  5
78
330
2
100
AcDbSymbolTableRecord
100
AcDbLayerTableRecord
  2
해칭선
 70
     0
 62
     4
  6
Continuous
370
    -3
390
F
  0
LAYER
  5
79
330
2
100
AcDbSymbolTableRecord
100
AcDbLayerTableRecord
  2
가는실선
 70
     0
 62
     4
  6
Continuous
370
    -3
390
F
  0
LAYER
  5
7A
330
2
100
AcDbSymbolTableRecord
100
AcDbLayerTableRecord
  2
치수_보조선
 70
     0
 62
     4
  6
Continuous
370
    -3
390
F
  0
LAYER
  5
7B
330
2
100
AcDbSymbolTableRecord
100
AcDbLayerTableRecord
  2
치수문자_일반주서
 70
     0
 62
     7
  6
Continuous
370
    25
390
F
  0
LAYER
  5
7C
330
2
100
AcDbSymbolTableRecord
100
AcDbLayerTableRecord
  2
개별주서
 70
     0
 62
   100
  6
Continuous
370
    35
390
F
  0
LAYER
  5
7D
330
2
100
AcDbSymbolTableRecord
100
AcDbLayerTableRecord
  2
중간선
 70
     0
 62
     2
  6
Continuous
370
    25
390
F
  0
LAYER
  5
7E
330
2
100
AcDbSymbolTableRecord
100
AcDbLayerTableRecord
  2
윤곽선
 70
     0
 62
     3
  6
Continuous
370
    50
390
F
  0
LAYER
  5
7F
330
2
100
AcDbSymbolTableRecord
100
AcDbLayerTableRecord
  2
중심마크
 70
     0
 62
   100
  6
Continuous
370
    35
390
F
  0
LAYER
  5
80
330
2
100
AcDbSymbolTableRecord
100
AcDbLayerTableRecord
  2
가상선
 70
     0
 62
     4
  6
PHANTOM
370
    -3
390
F
  0
LAYER
  5
81
330
2
100
AcDbSymbolTableRecord
100
AcDbLayerTableRecord
  2
특수지정선
 70
     0
 62
     5
  6
CENTERX2
370
    70
390
F
  0
LAYER
  5
162
330
2
100
AcDbSymbolTableRecord
100
AcDbLayerTableRecord
  2
Defpoints
 70
     0
 62
     7
  6
Continuous
290
     0
370
    -3
390
F
  0
ENDTAB
  0
TABLE
  2
STYLE
  5
3
330
0
100
AcDbSymbolTable
 70
     2
  0
STYLE
  5
11
330
3
100
AcDbSymbolTableRecord
100
AcDbTextStyleTableRecord
  2
Standard
 70
     0
 40
0.0
 41
1.0
 50
0.0
 71
     0
 42
3.5
  3
txt
  4

  0
STYLE
  5
97
330
3
100
AcDbSymbolTableRecord
100
AcDbTextStyleTableRecord
  2
SLDTEXTSTYLE0
 70
     0
 40
0.0
 41
0.75
 50
0.0
 71
     0
 42
3.5
  3
TXT
  4

  0
ENDTAB
  0
TABLE
  2
VIEW
  5
6
330
0
100
AcDbSymbolTable
 70
     0
  0
ENDTAB
  0
TABLE
  2
UCS
  5
7
330
0
100
AcDbSymbolTable
 70
     0
  0
ENDTAB
  0
TABLE
  2
APPID
  5
9
330
0
100
AcDbSymbolTable
 70
     1
  0
APPID
  5
12
330
9
100
AcDbSymbolTableRecord
100
AcDbRegAppTableRecord
  2
ACAD
 70
     0
  0
ENDTAB
  0
TABLE
  2
DIMSTYLE
  5
A
330
0
100
AcDbSymbolTable
 70
     5
100
AcDbDimStyleTable
  0
DIMSTYLE
105
27
330
A
100
AcDbSymbolTableRecord
100
AcDbDimStyleTableRecord
  2
ISO-25
 70
     0
 41
2.5
 42
0.625
 43
3.75
 44
1.25
 73
     0
 74
     0
 77
     1
 78
     8
140
2.5
141
2.5
143
0.03937007874016
147
0.625
171
     3
172
     1
178
     0
271
     2
272
     2
274
     3
278
    44
283
     0
284
     8
340
11
  0
DIMSTYLE
105
E8
102
{ACAD_REACTORS
330
E7
330
110
330
1D5
102
}
330
A
100
AcDbSymbolTableRecord
100
AcDbDimStyleTableRecord
  2
SLDDIMSTYLE0
 70
     0
 41
3.302
 44
0.0
 45
0.000000001
 73
     0
 74
     0
 77
     1
 78
     4
 79
     1
140
3.5
143
0.0393700787401575
147
0.875
148
0.000000001
170
     1
173
     1
178
     0
271
     2
272
     2
276
     2
284
    12
340
97
  0
DIMSTYLE
105
FC
102
{ACAD_REACTORS
330
FB
330
1E2
330
1EF
102
}
330
A
100
AcDbSymbolTableRecord
100
AcDbDimStyleTableRecord
  2
SLDDIMSTYLE1
 70
     0
 41
3.302
 44
0.0
 45
0.000000001
 73
     0
 74
     0
 77
     1
 78
     4
 79
     1
140
3.5
143
0.0393700787401575
147
0.875
148
0.000000001
170
     1
172
     1
173
     1
178
     0
271
     2
272
     2
276
     2
284
    12
289
     0
340
97
  0
DIMSTYLE
105
124
102
{ACAD_REACTORS
330
123
330
1FC
102
}
330
A
100
AcDbSymbolTableRecord
100
AcDbDimStyleTableRecord
  2
SLDDIMSTYLE2
 70
     0
 41
3.302
 44
0.0
 45
0.000000001
 73
     0
 74
     0
 77
     1
 78
    12
 79
     3
140
3.5
143
0.0393700787401575
147
0.875
148
0.000000001
170
     1
173
     1
178
     0
271
     2
272
     2
276
     2
284
    12
340
97
  0
DIMSTYLE
105
191
102
{ACAD_REACTORS
102
}
330
A
100
AcDbSymbolTableRecord
100
AcDbDimStyleTableRecord
  2
SLDDIMSTYLE3
 70
     0
 41
3.302
 44
0.0
 45
0.000000001
 73
     0
 74
     0
 77
     1
 78
    12
 79
     3
140
3.5
143
0.0393700787401575
147
0.875
148
0.000000001
170
     1
172
     1
173
     1
178
     0
271
     2
272
     2
276
     2
284
    12
289
     0
340
97
  0
ENDTAB
  0
TABLE
  2
BLOCK_RECORD
  5
1
330
0
100
AcDbSymbolTable
 70
    15
  0
BLOCK_RECORD
  5
1F
102
{ACAD_XDICTIONARY
360
2C2
102
}
330
1
100
AcDbSymbolTableRecord
100
AcDbBlockTableRecord
  2
*Model_Space
340
22
  0
BLOCK_RECORD
  5
1B
330
1
100
AcDbSymbolTableRecord
100
AcDbBlockTableRecord
  2
*Paper_Space
340
1E
  0
BLOCK_RECORD
  5
23
330
1
100
AcDbSymbolTableRecord
100
AcDbBlockTableRecord
  2
*Paper_Space0
340
26
  0
BLOCK_RECORD
  5
82
330
1
100
AcDbSymbolTableRecord
100
AcDbBlockTableRecord
  2
블럭10
340
0
102
{BLKREFS
331
E0
102
}
  0
BLOCK_RECORD
  5
E9
330
1
100
AcDbSymbolTableRecord
100
AcDbBlockTableRecord
  2
_D
340
0
  0
BLOCK_RECORD
  5
FD
330
1
100
AcDbSymbolTableRecord
100
AcDbBlockTableRecord
  2
_D_1
340
0
  0
BLOCK_RECORD
  5
111
330
1
100
AcDbSymbolTableRecord
100
AcDbBlockTableRecord
  2
_D_2
340
0
  0
BLOCK_RECORD
  5
125
330
1
100
AcDbSymbolTableRecord
100
AcDbBlockTableRecord
  2
_D_3
340
0
  0
BLOCK_RECORD
  5
137
330
1
100
AcDbSymbolTableRecord
100
AcDbBlockTableRecord
  2
SW_DOWELSYMBOL_0
340
0
102
{BLKREFS
331
13D
331
20A
331
0
102
}
  0
BLOCK_RECORD
  5
218
330
1
100
AcDbSymbolTableRecord
100
AcDbBlockTableRecord
  2
*D8
340
0
  0
BLOCK_RECORD
  5
224
330
1
100
AcDbSymbolTableRecord
100
AcDbBlockTableRecord
  2
*D9
340
0
  0
BLOCK_RECORD
  5
230
330
1
100
AcDbSymbolTableRecord
100
AcDbBlockTableRecord
  2
*D10
340
0
  0
BLOCK_RECORD
  5
23C
330
1
100
AcDbSymbolTableRecord
100
AcDbBlockTableRecord
  2
*D11
340
0
  0
BLOCK_RECORD
  5
28D
330
1
100
AcDbSymbolTableRecord
100
AcDbBlockTableRecord
  2
*D12
340
0
  0
BLOCK_RECORD
  5
299
330
1
100
AcDbSymbolTableRecord
100
AcDbBlockTableRecord
  2
*D13
340
0
  0
BLOCK_RECORD
  5
2A5
330
1
100
AcDbSymbolTableRecord
100
AcDbBlockTableRecord
  2
*D14
340
0
  0
BLOCK_RECORD
  5
2B1
330
1
100
AcDbSymbolTableRecord
100
AcDbBlockTableRecord
  2
*D15
340
0
  0
ENDTAB
  0
ENDSEC
  0
SECTION
  2
BLOCKS
  0
BLOCK
  5
20
330
1F
100
AcDbEntity
  8
0
100
AcDbBlockBegin
  2
*Model_Space
 70
     0
 10
0.0
 20
0.0
 30
0.0
  3
*Model_Space
  1
*Model_Space
  0
ENDBLK
  5
21
330
1F
100
AcDbEntity
  8
0
100
AcDbBlockEnd
  0
BLOCK
  5
1C
330
1B
100
AcDbEntity
 67
     1
  8
0
100
AcDbBlockBegin
  2
*Paper_Space
 70
     0
 10
0.0
 20
0.0
 30
0.0
  3
*Paper_Space
  1
*Paper_Space
  0
ENDBLK
  5
1D
330
1B
100
AcDbEntity
 67
     1
  8
0
100
AcDbBlockEnd
  0
BLOCK
  5
24
330
23
100
AcDbEntity
  8
0
100
AcDbBlockBegin
  2
*Paper_Space0
 70
     0
 10
0.0
 20
0.0
 30
0.0
  3
*Paper_Space0
  1
*Paper_Space0
  0
ENDBLK
  5
25
330
23
100
AcDbEntity
  8
0
100
AcDbBlockEnd
  0
BLOCK
  5
83
330
82
100
AcDbEntity
  8
0
100
AcDbBlockBegin
  2
블럭10
 70
     2
 10
0.0
 20
0.0
 30
0.0
  3
블럭10
  1
블럭10
  0
ELLIPSE
  5
85
330
82
100
AcDbEntity
  8
중심선
100
AcDbEllipse
 10
20.54032771741204
 20
12.0471743016438
 30
0.0
 11
6.600054785286829
 21
-1.261213355974178E-13
 31
0.0
210
0.0
220
0.0
230
1.0
 40
0.636358354079598
 41
0.9219305317359503
 42
6.513795318482858
  0
ELLIPSE
  5
86
330
82
100
AcDbEntity
  8
중심선
100
AcDbEllipse
 10
20.54032771746488
 20
12.04717430159265
 30
0.0
 11
3.960054785062283
 21
1.540847449632565E-10
 31
0.0
210
0.0
220
0.0
230
1.0
 40
0.3939339440162632
 41
1.131841032648279
 42
5.62031148352944
  0
LINE
  5
87
330
82
100
AcDbEntity
  8
중심선
100
AcDbLine
 10
2.268634060543552
 20
16.24717430164393
 30
0.0
 11
5.714909304380834
 21
16.24717430164393
 31
0.0
  0
LINE
  5
88
330
82
100
AcDbEntity
  8
중심선
100
AcDbLine
 10
5.245725140726316
 20
7.84717430164391
 30
0.0
 11
8.692000384563599
 21
7.84717430164391
 31
0.0
  0
LINE
  5
89
330
82
100
AcDbEntity
  8
중심선
100
AcDbLine
 10
15.74043728645272
 20
16.24717430164393
 30
0.0
 11
8.692000384563599
 21
7.84717430164391
 31
0.0
  0
LINE
  5
8A
330
82
100
AcDbEntity
  8
중심선
100
AcDbLine
 10
0.1404042013395286
 20
13.71084872107135
 30
0.0
 11
3.58671253028996
 21
13.71088815037384
 31
0.0
  0
LINE
  5
8B
330
82
100
AcDbEntity
  8
중심선
100
AcDbLine
 10
2.750260043222114
 20
10.84717430164391
 30
0.0
 11
6.196535287059397
 21
10.84717430164391
 31
0.0
  0
LINE
  5
8C
330
82
100
AcDbEntity
  8
중심선
100
AcDbLine
 10
12.29416204261559
 20
16.24717430164393
 30
0.0
 11
5.245725140726316
 21
7.84717430164391
 31
0.0
  0
LINE
  5
8D
330
82
100
AcDbEntity
  8
중심선
100
AcDbLine
 10
10.72767329541681
 20
16.24717430164393
 30
0.0
 11
6.196535287059397
 21
10.84717430164391
 31
0.0
  0
LINE
  5
8E
330
82
100
AcDbEntity
  8
중심선
100
AcDbLine
 10
7.28139805157953
 20
16.24717430164393
 30
0.0
 11
2.750260043222114
 21
10.84717430164391
 31
0.0
  0
LINE
  5
8F
330
82
100
AcDbEntity
  8
중심선
100
AcDbLine
 10
5.714909304380834
 20
16.24717430164393
 30
0.0
 11
3.58671253028996
 21
13.71088815037384
 31
0.0
  0
LINE
  5
90
330
82
100
AcDbEntity
  8
중심선
100
AcDbLine
 10
2.268634060543552
 20
16.24717430164393
 30
0.0
 11
0.1404042013395286
 21
13.71084872107135
 31
0.0
  0
LINE
  5
91
330
82
100
AcDbEntity
  8
중심선
100
AcDbLine
 10
7.28139805157953
 20
16.24717430164393
 30
0.0
 11
10.72767329541681
 21
16.24717430164393
 31
0.0
  0
LINE
  5
92
330
82
100
AcDbEntity
  8
중심선
100
AcDbLine
 10
12.29416204261559
 20
16.24717430164393
 30
0.0
 11
15.74043728645272
 21
16.24717430164393
 31
0.0
  0
LINE
  5
93
330
82
100
AcDbEntity
  8
중심선
100
AcDbLine
 10
19.22036997980202
 20
11.08717430171403
 30
0.0
 11
23.66174974927406
 21
11.08717430171406
 31
0.0
  0
LINE
  5
94
330
82
100
AcDbEntity
  8
중심선
100
AcDbLine
 10
19.22039502424796
 20
13.00717430171391
 30
0.0
 11
19.22036997980202
 21
11.08717430171403
 31
0.0
  0
LINE
  5
95
330
82
100
AcDbEntity
  8
중심선
100
AcDbLine
 10
19.22039502424796
 20
13.00717430171391
 30
0.0
 11
26.96566020931264
 21
13.00717430171391
 31
0.0
  0
LINE
  5
96
330
82
100
AcDbEntity
  8
중심선
100
AcDbLine
 10
22.22332737316547
 20
13.45928029700563
 30
0.0
 11
24.52862924686651
 21
15.39360700705356
 31
0.0
  0
ATTDEF
  5
98
330
82
100
AcDbEntity
  8
FORMAT
 62
     2
100
AcDbText
 10
-9.18129528874128
 20
2.075366912832191
 30
0.0
 40
4.233333333333333
  1
E5253901 [ 2 FLUTE ]
 41
0.75
  7
SLDTEXTSTYLE0
 11
-9.18129528874128
 21
-0.0412997538344756
 31
0.0
100
AcDbAttributeDefinition
  3

  2
AUTOATTR0
 70
     0
 74
     1
  0
ENDBLK
  5
84
330
82
100
AcDbEntity
  8
0
100
AcDbBlockEnd
  0
BLOCK
  5
EA
330
E9
100
AcDbEntity
  8
0
100
AcDbBlockBegin
  2
_D
 70
     0
 10
0.0
 20
0.0
 30
0.0
  3
_D
  1
_D
  0
LINE
  5
EC
330
E9
100
AcDbEntity
  8
치수문자_일반주서
 62
     0
370
    -2
100
AcDbLine
 10
60.79999999999999
 20
6.408208005432144
 30
0.0
 11
60.79999999999999
 21
41.93589146707809
 31
0.0
  0
LINE
  5
ED
330
E9
100
AcDbEntity
  8
치수문자_일반주서
 62
     0
370
    -2
100
AcDbLine
 10
-40.8
 20
5.413574928723885
 30
0.0
 11
-40.8
 21
41.93589146707809
 31
0.0
  0
LINE
  5
EE
330
E9
100
AcDbEntity
  8
치수문자_일반주서
 62
     0
370
    -2
100
AcDbLine
 10
57.49799999999999
 20
41.93589146707809
 30
0.0
 11
-37.498
 21
41.93589146707809
 31
0.0
  0
SOLID
  5
EF
330
E9
100
AcDbEntity
  8
치수문자_일반주서
 62
     0
100
AcDbTrace
 10
57.49799999999999
 20
41.38555813374475
 30
0.0
 11
57.49799999999999
 21
42.48622480041142
 31
0.0
 12
60.79999999999999
 22
41.93589146707809
 32
0.0
 13
60.79999999999999
 23
41.93589146707809
 33
0.0
  0
SOLID
  5
F0
330
E9
100
AcDbEntity
  8
치수문자_일반주서
 62
     0
100
AcDbTrace
 10
-37.498
 20
42.48622480041142
 30
0.0
 11
-37.498
 21
41.38555813374475
 31
0.0
 12
-40.8
 22
41.93589146707809
 32
0.0
 13
-40.8
 23
41.93589146707809
 33
0.0
  0
MTEXT
  5
F1
330
E9
100
AcDbEntity
  8
치수문자_일반주서
 62
     0
100
AcDbMText
 10
9.999999999999993
 20
46.31089146707809
 30
0.0
 40
3.5
 41
0.0
 71
     2
 72
     1
  1
\A1;101.60 [4]
  7
SLDTEXTSTYLE0
 73
     1
 44
1.0
  0
POINT
  5
F2
330
E9
100
AcDbEntity
  8
Defpoints
 62
     0
100
AcDbPoint
 10
60.79999999999999
 20
6.345708005432144
 30
0.0
  0
POINT
  5
F3
330
E9
100
AcDbEntity
  8
Defpoints
 62
     0
100
AcDbPoint
 10
-40.8
 20
5.351074928723885
 30
0.0
  0
POINT
  5
F4
330
E9
100
AcDbEntity
  8
Defpoints
 62
     0
100
AcDbPoint
 10
-40.8
 20
41.93589146707809
 30
0.0
  0
ENDBLK
  5
EB
330
E9
100
AcDbEntity
  8
0
100
AcDbBlockEnd
  0
BLOCK
  5
FE
330
FD
100
AcDbEntity
  8
0
100
AcDbBlockBegin
  2
_D_1
 70
     0
 10
0.0
 20
0.0
 30
0.0
  3
_D_1
  1
_D_1
  0
LINE
  5
100
330
FD
100
AcDbEntity
  8
치수문자_일반주서
 62
     0
370
    -2
100
AcDbLine
 10
-39.86250000000002
 20
6.351074928723888
 30
0.0
 11
-53.61000000000004
 21
6.35107492872384
 31
0.0
  0
LINE
  5
101
330
FD
100
AcDbEntity
  8
치수문자_일반주서
 62
     0
370
    -2
100
AcDbLine
 10
-39.86250000000002
 20
-6.348925071276101
 30
0.0
 11
-53.61
 21
-6.348925071276149
 31
0.0
  0
LINE
  5
102
330
FD
100
AcDbEntity
  8
치수문자_일반주서
 62
     0
370
    -2
100
AcDbLine
 10
-53.61000000000003
 20
3.04907492872384
 30
0.0
 11
-53.61000000000001
 21
-3.046925071276149
 31
0.0
  0
SOLID
  5
103
330
FD
100
AcDbEntity
  8
치수문자_일반주서
 62
     0
100
AcDbTrace
 10
-53.05966666666669
 20
3.049074928723842
 30
0.0
 11
-54.16033333333336
 21
3.049074928723838
 31
0.0
 12
-53.61000000000004
 22
6.35107492872384
 32
0.0
 13
-53.61000000000004
 23
6.35107492872384
 33
0.0
  0
SOLID
  5
104
330
FD
100
AcDbEntity
  8
치수문자_일반주서
 62
     0
100
AcDbTrace
 10
-54.16033333333335
 20
-3.046925071276151
 30
0.0
 11
-53.05966666666668
 21
-3.046925071276148
 31
0.0
 12
-53.61
 22
-6.348925071276149
 32
0.0
 13
-53.61
 23
-6.348925071276149
 33
0.0
  0
MTEXT
  5
105
330
FD
100
AcDbEntity
  8
치수문자_일반주서
 62
     0
100
AcDbMText
 10
-57.98500000000002
 20
0.001074928723876
 30
0.0
 40
3.5
 41
0.0
 71
     2
 72
     1
  1
\A1;%%c12.70 [1/2]
  7
SLDTEXTSTYLE0
 11
-3.356894814614650E-15
 21
1.0
 31
0.0
 73
     1
 44
1.0
  0
POINT
  5
106
330
FD
100
AcDbEntity
  8
Defpoints
 62
     0
100
AcDbPoint
 10
-39.80000000000002
 20
6.351074928723888
 30
0.0
  0
POINT
  5
107
330
FD
100
AcDbEntity
  8
Defpoints
 62
     0
100
AcDbPoint
 10
-39.80000000000002
 20
-6.348925071276101
 30
0.0
  0
POINT
  5
108
330
FD
100
AcDbEntity
  8
Defpoints
 62
     0
100
AcDbPoint
 10
-53.61
 20
-6.348925071276149
 30
0.0
  0
ENDBLK
  5
FF
330
FD
100
AcDbEntity
  8
0
100
AcDbBlockEnd
  0
BLOCK
  5
112
330
111
100
AcDbEntity
  8
0
100
AcDbBlockBegin
  2
_D_2
 70
     0
 10
0.0
 20
0.0
 30
0.0
  3
_D_2
  1
_D_2
  0
LINE
  5
114
330
111
100
AcDbEntity
  8
치수문자_일반주서
 62
     0
370
    -2
100
AcDbLine
 10
60.79999999999999
 20
6.408208005432144
 30
0.0
 11
60.79999999999999
 21
26.58232551893264
 31
0.0
  0
LINE
  5
115
330
111
100
AcDbEntity
  8
치수문자_일반주서
 62
     0
370
    -2
100
AcDbLine
 10
9.999999999999998
 20
5.089546280479662
 30
0.0
 11
10.0
 21
26.58232551893264
 31
0.0
  0
LINE
  5
116
330
111
100
AcDbEntity
  8
치수문자_일반주서
 62
     0
370
    -2
100
AcDbLine
 10
57.49799999999999
 20
26.58232551893264
 30
0.0
 11
13.302
 21
26.58232551893264
 31
0.0
  0
SOLID
  5
117
330
111
100
AcDbEntity
  8
치수문자_일반주서
 62
     0
100
AcDbTrace
 10
57.49799999999999
 20
26.03199218559931
 30
0.0
 11
57.49799999999999
 21
27.13265885226598
 31
0.0
 12
60.79999999999999
 22
26.58232551893264
 32
0.0
 13
60.79999999999999
 23
26.58232551893264
 33
0.0
  0
SOLID
  5
118
330
111
100
AcDbEntity
  8
치수문자_일반주서
 62
     0
100
AcDbTrace
 10
13.302
 20
27.13265885226598
 30
0.0
 11
13.302
 21
26.03199218559931
 31
0.0
 12
10.0
 22
26.58232551893264
 32
0.0
 13
10.0
 23
26.58232551893264
 33
0.0
  0
MTEXT
  5
119
330
111
100
AcDbEntity
  8
치수문자_일반주서
 62
     0
100
AcDbMText
 10
35.39999999999999
 20
30.95732551893264
 30
0.0
 40
3.5
 41
0.0
 71
     2
 72
     1
  1
\A1;50.80 [2]
  7
SLDTEXTSTYLE0
 73
     1
 44
1.0
  0
POINT
  5
11A
330
111
100
AcDbEntity
  8
Defpoints
 62
     0
100
AcDbPoint
 10
60.79999999999999
 20
6.345708005432144
 30
0.0
  0
POINT
  5
11B
330
111
100
AcDbEntity
  8
Defpoints
 62
     0
100
AcDbPoint
 10
9.999999999999998
 20
5.027046280479662
 30
0.0
  0
POINT
  5
11C
330
111
100
AcDbEntity
  8
Defpoints
 62
     0
100
AcDbPoint
 10
9.999999999999998
 20
26.58232551893264
 30
0.0
  0
ENDBLK
  5
113
330
111
100
AcDbEntity
  8
0
100
AcDbBlockEnd
  0
BLOCK
  5
126
330
125
100
AcDbEntity
  8
0
100
AcDbBlockBegin
  2
_D_3
 70
     0
 10
0.0
 20
0.0
 30
0.0
  3
_D_3
  1
_D_3
  0
LINE
  5
128
330
125
100
AcDbEntity
  8
치수문자_일반주서
 62
     0
370
    -2
100
AcDbLine
 10
60.86249999999999
 20
6.345708005432144
 30
0.0
 11
81.0093537150438
 21
6.345708005432215
 31
0.0
  0
LINE
  5
129
330
125
100
AcDbEntity
  8
치수문자_일반주서
 62
     0
370
    -2
100
AcDbLine
 10
60.86249999999999
 20
-6.343558147984352
 30
0.0
 11
81.00935371504384
 21
-6.343558147984282
 31
0.0
  0
LINE
  5
12A
330
125
100
AcDbEntity
  8
치수문자_일반주서
 62
     0
370
    -2
100
AcDbLine
 10
81.0093537150438
 20
6.345708005432215
 30
0.0
 11
81.0093537150437
 21
36.77270800543221
 31
0.0
  0
LINE
  5
12B
330
125
100
AcDbEntity
  8
치수문자_일반주서
 62
     0
370
    -2
100
AcDbLine
 10
81.00935371504382
 20
3.043708005432215
 30
0.0
 11
81.00935371504383
 21
-3.041558147984283
 31
0.0
  0
SOLID
  5
12C
330
125
100
AcDbEntity
  8
치수문자_일반주서
 62
     0
100
AcDbTrace
 10
81.55968704837714
 20
3.043708005432217
 30
0.0
 11
80.45902038171049
 21
3.043708005432213
 31
0.0
 12
81.0093537150438
 22
6.345708005432215
 32
0.0
 13
81.0093537150438
 23
6.345708005432215
 33
0.0
  0
SOLID
  5
12D
330
125
100
AcDbEntity
  8
치수문자_일반주서
 62
     0
100
AcDbTrace
 10
80.4590203817105
 20
-3.041558147984285
 30
0.0
 11
81.55968704837716
 21
-3.041558147984281
 31
0.0
 12
81.00935371504384
 22
-6.343558147984282
 32
0.0
 13
81.00935371504384
 23
-6.343558147984282
 33
0.0
  0
MTEXT
  5
12E
330
125
100
AcDbEntity
  8
치수문자_일반주서
 62
     0
100
AcDbMText
 10
76.63435371504374
 20
23.2102080054322
 30
0.0
 40
3.5
 41
0.0
 71
     2
 72
     1
  1
\A1;%%c12.69 [1/2]
  7
SLDTEXTSTYLE0
 11
-3.359734410971236E-15
 21
1.0
 31
0.0
 73
     1
 44
1.0
  0
POINT
  5
12F
330
125
100
AcDbEntity
  8
Defpoints
 62
     0
100
AcDbPoint
 10
60.79999999999999
 20
6.345708005432144
 30
0.0
  0
POINT
  5
130
330
125
100
AcDbEntity
  8
Defpoints
 62
     0
100
AcDbPoint
 10
60.79999999999999
 20
-6.343558147984352
 30
0.0
  0
POINT
  5
131
330
125
100
AcDbEntity
  8
Defpoints
 62
     0
100
AcDbPoint
 10
81.00935371504384
 20
-6.343558147984282
 30
0.0
  0
ENDBLK
  5
127
330
125
100
AcDbEntity
  8
0
100
AcDbBlockEnd
  0
BLOCK
  5
138
330
137
100
AcDbEntity
  8
0
100
AcDbBlockBegin
  2
SW_DOWELSYMBOL_0
 70
     0
 10
0.0
 20
0.0
 30
0.0
  3
SW_DOWELSYMBOL_0
  1
SW_DOWELSYMBOL_0
  0
CIRCLE
  5
13A
330
137
100
AcDbEntity
  8
외형선
 62
     0
100
AcDbCircle
 10
0.0
 20
0.0
 30
0.0
 40
3.000000000000004
  0
HATCH
  5
13B
330
137
100
AcDbEntity
  8
0
  6
Continuous
 62
     0
370
    35
100
AcDbHatch
 10
0.0
 20
0.0
 30
0.0
210
0.0
220
0.0
230
1.0
  2
SOLID
 70
     1
 71
     0
 91
        1
 92
        0
 93
        3
 72
     2
 10
0.0000000000000087
 20
0.0
 40
3.000000000000004
 50
0.0
 51
90.0
 73
     1
 72
     1
 10
0.0000000000000087
 20
3.000000000000004
 11
0.0000000000000087
 21
0.0
 72
     1
 10
0.0000000000000087
 20
0.0
 11
3.000000000000013
 21
0.0
 97
        0
 75
     0
 76
     1
 98
        1
 10
0.0
 20
0.0
  0
HATCH
  5
13C
330
137
100
AcDbEntity
  8
0
  6
Continuous
 62
     0
370
    35
100
AcDbHatch
 10
0.0
 20
0.0
 30
0.0
210
0.0
220
0.0
230
1.0
  2
SOLID
 70
     1
 71
     0
 91
        1
 92
        0
 93
        3
 72
     2
 10
0.0000000000000087
 20
0.0
 40
3.000000000000004
 50
180.0
 51
270.0000000000007
 73
     1
 72
     1
 10
0.0000000000000087
 20
-3.000000000000004
 11
0.0000000000000087
 21
0.0
 72
     1
 10
0.0000000000000087
 20
0.0
 11
-2.999999999999996
 21
0.0
 97
        0
 75
     0
 76
     1
 98
        1
 10
0.0
 20
0.0
  0
ENDBLK
  5
139
330
137
100
AcDbEntity
  8
0
100
AcDbBlockEnd
  0
BLOCK
  5
219
330
218
100
AcDbEntity
  8
0
100
AcDbBlockBegin
  2
*D8
 70
     1
 10
0.0
 20
0.0
 30
0.0
  3
*D8
  1

  0
LINE
  5
21B
330
218
100
AcDbEntity
  8
치수문자_일반주서
 62
     0
370
    -2
100
AcDbLine
 10
93.38500000000005
 20
18.87588307670825
 30
0.0
 11
93.38500000000005
 21
54.40356653835418
 31
0.0
  0
LINE
  5
21C
330
218
100
AcDbEntity
  8
치수문자_일반주서
 62
     0
370
    -2
100
AcDbLine
 10
17.18500000000004
 20
17.88125
 30
0.0
 11
17.18500000000004
 21
54.40356653835418
 31
0.0
  0
LINE
  5
21D
330
218
100
AcDbEntity
  8
치수문자_일반주서
 62
     0
370
    -2
100
AcDbLine
 10
90.08300000000004
 20
54.40356653835418
 30
0.0
 11
20.48700000000004
 21
54.40356653835418
 31
0.0
  0
SOLID
  5
21E
330
218
100
AcDbEntity
  8
치수문자_일반주서
 62
     0
100
AcDbTrace
 10
90.08300000000004
 20
53.85323320502085
 30
0.0
 11
90.08300000000004
 21
54.95389987168752
 31
0.0
 12
93.38500000000005
 22
54.40356653835418
 32
0.0
 13
93.38500000000005
 23
54.40356653835418
 33
0.0
  0
SOLID
  5
21F
330
218
100
AcDbEntity
  8
치수문자_일반주서
 62
     0
100
AcDbTrace
 10
20.48700000000004
 20
54.95389987168752
 30
0.0
 11
20.48700000000004
 21
53.85323320502085
 31
0.0
 12
17.18500000000004
 22
54.40356653835418
 32
0.0
 13
17.18500000000004
 23
54.40356653835418
 33
0.0
  0
MTEXT
  5
220
330
218
100
AcDbEntity
  8
치수문자_일반주서
 62
     0
100
AcDbMText
 10
55.28500000000005
 20
58.77856653835418
 30
0.0
 40
3.5
 41
0.0
 71
     2
 72
     1
  1
\A1;76.20 [3]
  7
SLDTEXTSTYLE0
 73
     1
 44
1.0
  0
POINT
  5
221
330
218
100
AcDbEntity
  8
Defpoints
 62
     0
100
AcDbPoint
 10
93.38500000000005
 20
18.81338307670825
 30
0.0
  0
POINT
  5
222
330
218
100
AcDbEntity
  8
Defpoints
 62
     0
100
AcDbPoint
 10
17.18500000000004
 20
17.81875
 30
0.0
  0
POINT
  5
223
330
218
100
AcDbEntity
  8
Defpoints
 62
     0
100
AcDbPoint
 10
17.18500000000004
 20
54.40356653835418
 30
0.0
  0
ENDBLK
  5
21A
330
218
100
AcDbEntity
  8
0
100
AcDbBlockEnd
  0
BLOCK
  5
225
330
224
100
AcDbEntity
  8
0
100
AcDbBlockBegin
  2
*D9
 70
     1
 10
0.0
 20
0.0
 30
0.0
  3
*D9
  1

  0
LINE
  5
227
330
224
100
AcDbEntity
  8
치수문자_일반주서
 62
     0
370
    -2
100
AcDbLine
 10
18.12250000000004
 20
18.81875
 30
0.0
 11
4.37500000000002
 21
18.81874999999995
 31
0.0
  0
LINE
  5
228
330
224
100
AcDbEntity
  8
치수문자_일반주서
 62
     0
370
    -2
100
AcDbLine
 10
18.12250000000004
 20
6.118750000000015
 30
0.0
 11
4.375000000000065
 21
6.118749999999965
 31
0.0
  0
LINE
  5
229
330
224
100
AcDbEntity
  8
치수문자_일반주서
 62
     0
370
    -2
100
AcDbLine
 10
4.375000000000032
 20
15.51674999999995
 30
0.0
 11
4.375000000000053
 21
9.420749999999964
 31
0.0
  0
SOLID
  5
22A
330
224
100
AcDbEntity
  8
치수문자_일반주서
 62
     0
100
AcDbTrace
 10
4.925333333333366
 20
15.51674999999995
 30
0.0
 11
3.824666666666698
 21
15.51674999999995
 31
0.0
 12
4.37500000000002
 22
18.81874999999995
 32
0.0
 13
4.37500000000002
 23
18.81874999999995
 33
0.0
  0
SOLID
  5
22B
330
224
100
AcDbEntity
  8
치수문자_일반주서
 62
     0
100
AcDbTrace
 10
3.82466666666672
 20
9.420749999999963
 30
0.0
 11
4.925333333333387
 21
9.420749999999966
 31
0.0
 12
4.375000000000065
 22
6.118749999999965
 32
0.0
 13
4.375000000000065
 23
6.118749999999965
 33
0.0
  0
MTEXT
  5
22C
330
224
100
AcDbEntity
  8
치수문자_일반주서
 62
     0
100
AcDbMText
 10
0.0000000000000426
 20
12.46874999999999
 30
0.0
 40
3.5
 41
0.0
 71
     2
 72
     1
  1
\A1;%%c12.70 [1/2]
  7
SLDTEXTSTYLE0
 11
-3.496765431890260E-15
 21
1.0
 31
0.0
 73
     1
 44
1.0
  0
POINT
  5
22D
330
224
100
AcDbEntity
  8
Defpoints
 62
     0
100
AcDbPoint
 10
18.18500000000004
 20
18.81875
 30
0.0
  0
POINT
  5
22E
330
224
100
AcDbEntity
  8
Defpoints
 62
     0
100
AcDbPoint
 10
18.18500000000004
 20
6.118750000000015
 30
0.0
  0
POINT
  5
22F
330
224
100
AcDbEntity
  8
Defpoints
 62
     0
100
AcDbPoint
 10
4.375000000000064
 20
6.118749999999963
 30
0.0
  0
ENDBLK
  5
226
330
224
100
AcDbEntity
  8
0
100
AcDbBlockEnd
  0
BLOCK
  5
231
330
230
100
AcDbEntity
  8
0
100
AcDbBlockBegin
  2
*D10
 70
     1
 10
0.0
 20
0.0
 30
0.0
  3
*D10
  1

  0
LINE
  5
233
330
230
100
AcDbEntity
  8
치수문자_일반주서
 62
     0
370
    -2
100
AcDbLine
 10
93.38500000000005
 20
18.87588307670825
 30
0.0
 11
93.38500000000005
 21
39.05000059020875
 31
0.0
  0
LINE
  5
234
330
230
100
AcDbEntity
  8
치수문자_일반주서
 62
     0
370
    -2
100
AcDbLine
 10
67.98500000000006
 20
16.37624851707942
 30
0.0
 11
67.98500000000006
 21
39.05000059020875
 31
0.0
  0
LINE
  5
235
330
230
100
AcDbEntity
  8
치수문자_일반주서
 62
     0
370
    -2
100
AcDbLine
 10
90.08300000000004
 20
39.05000059020875
 30
0.0
 11
71.28700000000006
 21
39.05000059020875
 31
0.0
  0
SOLID
  5
236
330
230
100
AcDbEntity
  8
치수문자_일반주서
 62
     0
100
AcDbTrace
 10
90.08300000000004
 20
38.49966725687541
 30
0.0
 11
90.08300000000004
 21
39.60033392354208
 31
0.0
 12
93.38500000000005
 22
39.05000059020875
 32
0.0
 13
93.38500000000005
 23
39.05000059020875
 33
0.0
  0
SOLID
  5
237
330
230
100
AcDbEntity
  8
치수문자_일반주서
 62
     0
100
AcDbTrace
 10
71.28700000000006
 20
39.60033392354208
 30
0.0
 11
71.28700000000006
 21
38.49966725687541
 31
0.0
 12
67.98500000000006
 22
39.05000059020875
 32
0.0
 13
67.98500000000006
 23
39.05000059020875
 33
0.0
  0
MTEXT
  5
238
330
230
100
AcDbEntity
  8
치수문자_일반주서
 62
     0
100
AcDbMText
 10
80.68500000000006
 20
43.42500059020875
 30
0.0
 40
3.5
 41
0.0
 71
     2
 72
     1
  1
\A1;25.40 [1]
  7
SLDTEXTSTYLE0
 73
     1
 44
1.0
  0
POINT
  5
239
330
230
100
AcDbEntity
  8
Defpoints
 62
     0
100
AcDbPoint
 10
93.38500000000005
 20
18.81338307670825
 30
0.0
  0
POINT
  5
23A
330
230
100
AcDbEntity
  8
Defpoints
 62
     0
100
AcDbPoint
 10
67.98500000000006
 20
16.31374851707942
 30
0.0
  0
POINT
  5
23B
330
230
100
AcDbEntity
  8
Defpoints
 62
     0
100
AcDbPoint
 10
67.98500000000006
 20
39.05000059020875
 30
0.0
  0
ENDBLK
  5
232
330
230
100
AcDbEntity
  8
0
100
AcDbBlockEnd
  0
BLOCK
  5
23D
330
23C
100
AcDbEntity
  8
0
100
AcDbBlockBegin
  2
*D11
 70
     1
 10
0.0
 20
0.0
 30
0.0
  3
*D11
  1

  0
LINE
  5
23F
330
23C
100
AcDbEntity
  8
치수문자_일반주서
 62
     0
370
    -2
100
AcDbLine
 10
93.44750000000005
 20
18.81338307670825
 30
0.0
 11
113.5943537150439
 21
18.81338307670832
 31
0.0
  0
LINE
  5
240
330
23C
100
AcDbEntity
  8
치수문자_일반주서
 62
     0
370
    -2
100
AcDbLine
 10
93.44750000000005
 20
6.124116923291771
 30
0.0
 11
113.5943537150439
 21
6.124116923291847
 31
0.0
  0
LINE
  5
241
330
23C
100
AcDbEntity
  8
치수문자_일반주서
 62
     0
370
    -2
100
AcDbLine
 10
113.5943537150439
 20
18.81338307670832
 30
0.0
 11
113.5943537150438
 21
49.24038307670833
 31
0.0
  0
LINE
  5
242
330
23C
100
AcDbEntity
  8
치수문자_일반주서
 62
     0
370
    -2
100
AcDbLine
 10
113.5943537150439
 20
15.51138307670832
 30
0.0
 11
113.5943537150439
 21
9.426116923291847
 31
0.0
  0
SOLID
  5
243
330
23C
100
AcDbEntity
  8
치수문자_일반주서
 62
     0
100
AcDbTrace
 10
114.1446870483772
 20
15.51138307670833
 30
0.0
 11
113.0440203817105
 21
15.51138307670832
 31
0.0
 12
113.5943537150439
 22
18.81338307670832
 32
0.0
 13
113.5943537150439
 23
18.81338307670832
 33
0.0
  0
SOLID
  5
244
330
23C
100
AcDbEntity
  8
치수문자_일반주서
 62
     0
100
AcDbTrace
 10
113.0440203817106
 20
9.426116923291845
 30
0.0
 11
114.1446870483772
 21
9.426116923291849
 31
0.0
 12
113.5943537150439
 22
6.124116923291847
 32
0.0
 13
113.5943537150439
 23
6.124116923291847
 33
0.0
  0
MTEXT
  5
245
330
23C
100
AcDbEntity
  8
치수문자_일반주서
 62
     0
100
AcDbMText
 10
109.2193537150438
 20
35.67788307670831
 30
0.0
 40
3.5
 41
0.0
 71
     2
 72
     1
  1
\A1;%%c12.69 [1/2]
  7
SLDTEXTSTYLE0
 11
-3.359734410971241E-15
 21
1.0
 31
0.0
 73
     1
 44
1.0
  0
POINT
  5
246
330
23C
100
AcDbEntity
  8
Defpoints
 62
     0
100
AcDbPoint
 10
93.38500000000005
 20
18.81338307670825
 30
0.0
  0
POINT
  5
247
330
23C
100
AcDbEntity
  8
Defpoints
 62
     0
100
AcDbPoint
 10
93.38500000000005
 20
6.124116923291771
 30
0.0
  0
POINT
  5
248
330
23C
100
AcDbEntity
  8
Defpoints
 62
     0
100
AcDbPoint
 10
113.5943537150439
 20
6.124116923291846
 30
0.0
  0
ENDBLK
  5
23E
330
23C
100
AcDbEntity
  8
0
100
AcDbBlockEnd
  0
BLOCK
  5
28E
330
28D
100
AcDbEntity
  8
0
100
AcDbBlockBegin
  2
*D12
 70
     1
 10
0.0
 20
0.0
 30
0.0
  3
*D12
  1

  0
LINE
  5
290
330
28D
100
AcDbEntity
  8
치수문자_일반주서
 62
     0
370
    -2
100
AcDbLine
 10
150.2141169830621
 20
-82.1281740561735
 30
0.0
 11
150.2141169830621
 21
-46.60049059452757
 31
0.0
  0
LINE
  5
291
330
28D
100
AcDbEntity
  8
치수문자_일반주서
 62
     0
370
    -2
100
AcDbLine
 10
74.0141169830621
 20
-83.12280713288175
 30
0.0
 11
74.0141169830621
 21
-46.60049059452757
 31
0.0
  0
LINE
  5
292
330
28D
100
AcDbEntity
  8
치수문자_일반주서
 62
     0
370
    -2
100
AcDbLine
 10
146.9121169830621
 20
-46.60049059452757
 30
0.0
 11
77.3161169830621
 21
-46.60049059452757
 31
0.0
  0
SOLID
  5
293
330
28D
100
AcDbEntity
  8
치수문자_일반주서
 62
     0
100
AcDbTrace
 10
146.9121169830621
 20
-47.15082392786091
 30
0.0
 11
146.9121169830621
 21
-46.05015726119424
 31
0.0
 12
150.2141169830621
 22
-46.60049059452757
 32
0.0
 13
150.2141169830621
 23
-46.60049059452757
 33
0.0
  0
SOLID
  5
294
330
28D
100
AcDbEntity
  8
치수문자_일반주서
 62
     0
100
AcDbTrace
 10
77.3161169830621
 20
-46.05015726119424
 30
0.0
 11
77.3161169830621
 21
-47.15082392786091
 31
0.0
 12
74.0141169830621
 22
-46.60049059452757
 32
0.0
 13
74.0141169830621
 23
-46.60049059452757
 33
0.0
  0
MTEXT
  5
295
330
28D
100
AcDbEntity
  8
치수문자_일반주서
 62
     0
100
AcDbMText
 10
112.1141169830621
 20
-42.22549059452757
 30
0.0
 40
3.5
 41
0.0
 71
     2
 72
     1
  1
\A1;76.20 [3]
  7
SLDTEXTSTYLE0
 73
     1
 44
1.0
  0
POINT
  5
296
330
28D
100
AcDbEntity
  8
Defpoints
 62
     0
100
AcDbPoint
 10
150.2141169830621
 20
-82.1906740561735
 30
0.0
  0
POINT
  5
297
330
28D
100
AcDbEntity
  8
Defpoints
 62
     0
100
AcDbPoint
 10
74.0141169830621
 20
-83.18530713288175
 30
0.0
  0
POINT
  5
298
330
28D
100
AcDbEntity
  8
Defpoints
 62
     0
100
AcDbPoint
 10
74.0141169830621
 20
-46.60049059452757
 30
0.0
  0
ENDBLK
  5
28F
330
28D
100
AcDbEntity
  8
0
100
AcDbBlockEnd
  0
BLOCK
  5
29A
330
299
100
AcDbEntity
  8
0
100
AcDbBlockBegin
  2
*D13
 70
     1
 10
0.0
 20
0.0
 30
0.0
  3
*D13
  1

  0
LINE
  5
29C
330
299
100
AcDbEntity
  8
치수문자_일반주서
 62
     0
370
    -2
100
AcDbLine
 10
74.9516169830621
 20
-82.18530713288175
 30
0.0
 11
61.20411698306207
 21
-82.1853071328818
 31
0.0
  0
LINE
  5
29D
330
299
100
AcDbEntity
  8
치수문자_일반주서
 62
     0
370
    -2
100
AcDbLine
 10
74.9516169830621
 20
-94.88530713288174
 30
0.0
 11
61.20411698306211
 21
-94.88530713288179
 31
0.0
  0
LINE
  5
29E
330
299
100
AcDbEntity
  8
치수문자_일반주서
 62
     0
370
    -2
100
AcDbLine
 10
61.20411698306209
 20
-85.48730713288181
 30
0.0
 11
61.2041169830621
 21
-91.58330713288179
 31
0.0
  0
SOLID
  5
29F
330
299
100
AcDbEntity
  8
치수문자_일반주서
 62
     0
100
AcDbTrace
 10
61.75445031639542
 20
-85.48730713288181
 30
0.0
 11
60.65378364972875
 21
-85.48730713288181
 31
0.0
 12
61.20411698306207
 22
-82.1853071328818
 32
0.0
 13
61.20411698306207
 23
-82.1853071328818
 33
0.0
  0
SOLID
  5
2A0
330
299
100
AcDbEntity
  8
치수문자_일반주서
 62
     0
100
AcDbTrace
 10
60.65378364972877
 20
-91.58330713288179
 30
0.0
 11
61.75445031639543
 21
-91.58330713288179
 31
0.0
 12
61.20411698306211
 22
-94.88530713288179
 32
0.0
 13
61.20411698306211
 23
-94.88530713288179
 33
0.0
  0
MTEXT
  5
2A1
330
299
100
AcDbEntity
  8
치수문자_일반주서
 62
     0
100
AcDbMText
 10
56.82911698306209
 20
-88.53530713288175
 30
0.0
 40
3.5
 41
0.0
 71
     2
 72
     1
  1
\A1;%%c12.70 [1/2]
  7
SLDTEXTSTYLE0
 11
-3.356894814614650E-15
 21
1.0
 31
0.0
 73
     1
 44
1.0
  0
POINT
  5
2A2
330
299
100
AcDbEntity
  8
Defpoints
 62
     0
100
AcDbPoint
 10
75.0141169830621
 20
-82.18530713288175
 30
0.0
  0
POINT
  5
2A3
330
299
100
AcDbEntity
  8
Defpoints
 62
     0
100
AcDbPoint
 10
75.0141169830621
 20
-94.88530713288174
 30
0.0
  0
POINT
  5
2A4
330
299
100
AcDbEntity
  8
Defpoints
 62
     0
100
AcDbPoint
 10
61.20411698306211
 20
-94.88530713288179
 30
0.0
  0
ENDBLK
  5
29B
330
299
100
AcDbEntity
  8
0
100
AcDbBlockEnd
  0
BLOCK
  5
2A6
330
2A5
100
AcDbEntity
  8
0
100
AcDbBlockBegin
  2
*D14
 70
     1
 10
0.0
 20
0.0
 30
0.0
  3
*D14
  1

  0
LINE
  5
2A8
330
2A5
100
AcDbEntity
  8
치수문자_일반주서
 62
     0
370
    -2
100
AcDbLine
 10
150.2141169830621
 20
-82.1281740561735
 30
0.0
 11
150.2141169830621
 21
-61.95405654267301
 31
0.0
  0
LINE
  5
2A9
330
2A5
100
AcDbEntity
  8
치수문자_일반주서
 62
     0
370
    -2
100
AcDbLine
 10
124.8141169830621
 20
-84.62780861580234
 30
0.0
 11
124.8141169830621
 21
-61.95405654267301
 31
0.0
  0
LINE
  5
2AA
330
2A5
100
AcDbEntity
  8
치수문자_일반주서
 62
     0
370
    -2
100
AcDbLine
 10
146.9121169830621
 20
-61.95405654267301
 30
0.0
 11
128.1161169830621
 21
-61.95405654267301
 31
0.0
  0
SOLID
  5
2AB
330
2A5
100
AcDbEntity
  8
치수문자_일반주서
 62
     0
100
AcDbTrace
 10
146.9121169830621
 20
-62.50438987600634
 30
0.0
 11
146.9121169830621
 21
-61.40372320933967
 31
0.0
 12
150.2141169830621
 22
-61.95405654267301
 32
0.0
 13
150.2141169830621
 23
-61.95405654267301
 33
0.0
  0
SOLID
  5
2AC
330
2A5
100
AcDbEntity
  8
치수문자_일반주서
 62
     0
100
AcDbTrace
 10
128.1161169830621
 20
-61.40372320933967
 30
0.0
 11
128.1161169830621
 21
-62.50438987600634
 31
0.0
 12
124.8141169830621
 22
-61.95405654267301
 32
0.0
 13
124.8141169830621
 23
-61.95405654267301
 33
0.0
  0
MTEXT
  5
2AD
330
2A5
100
AcDbEntity
  8
치수문자_일반주서
 62
     0
100
AcDbMText
 10
137.5141169830621
 20
-57.57905654267301
 30
0.0
 40
3.5
 41
0.0
 71
     2
 72
     1
  1
\A1;25.40 [1]
  7
SLDTEXTSTYLE0
 73
     1
 44
1.0
  0
POINT
  5
2AE
330
2A5
100
AcDbEntity
  8
Defpoints
 62
     0
100
AcDbPoint
 10
150.2141169830621
 20
-82.1906740561735
 30
0.0
  0
POINT
  5
2AF
330
2A5
100
AcDbEntity
  8
Defpoints
 62
     0
100
AcDbPoint
 10
124.8141169830621
 20
-84.69030861580234
 30
0.0
  0
POINT
  5
2B0
330
2A5
100
AcDbEntity
  8
Defpoints
 62
     0
100
AcDbPoint
 10
124.8141169830621
 20
-61.95405654267301
 30
0.0
  0
ENDBLK
  5
2A7
330
2A5
100
AcDbEntity
  8
0
100
AcDbBlockEnd
  0
BLOCK
  5
2B2
330
2B1
100
AcDbEntity
  8
0
100
AcDbBlockBegin
  2
*D15
 70
     1
 10
0.0
 20
0.0
 30
0.0
  3
*D15
  1

  0
LINE
  5
2B4
330
2B1
100
AcDbEntity
  8
치수문자_일반주서
 62
     0
370
    -2
100
AcDbLine
 10
150.2766169830621
 20
-82.1906740561735
 30
0.0
 11
170.4234706981059
 21
-82.19067405617344
 31
0.0
  0
LINE
  5
2B5
330
2B1
100
AcDbEntity
  8
치수문자_일반주서
 62
     0
370
    -2
100
AcDbLine
 10
150.2766169830621
 20
-94.87994020958999
 30
0.0
 11
170.423470698106
 21
-94.87994020958992
 31
0.0
  0
LINE
  5
2B6
330
2B1
100
AcDbEntity
  8
치수문자_일반주서
 62
     0
370
    -2
100
AcDbLine
 10
170.4234706981059
 20
-82.19067405617344
 30
0.0
 11
170.4234706981058
 21
-51.76367405617343
 31
0.0
  0
LINE
  5
2B7
330
2B1
100
AcDbEntity
  8
치수문자_일반주서
 62
     0
370
    -2
100
AcDbLine
 10
170.423470698106
 20
-85.49267405617344
 30
0.0
 11
170.423470698106
 21
-91.57794020958991
 31
0.0
  0
SOLID
  5
2B8
330
2B1
100
AcDbEntity
  8
치수문자_일반주서
 62
     0
100
AcDbTrace
 10
170.9738040314393
 20
-85.49267405617344
 30
0.0
 11
169.8731373647726
 21
-85.49267405617344
 31
0.0
 12
170.4234706981059
 22
-82.19067405617344
 32
0.0
 13
170.4234706981059
 23
-82.19067405617344
 33
0.0
  0
SOLID
  5
2B9
330
2B1
100
AcDbEntity
  8
치수문자_일반주서
 62
     0
100
AcDbTrace
 10
169.8731373647726
 20
-91.57794020958991
 30
0.0
 11
170.9738040314393
 21
-91.57794020958991
 31
0.0
 12
170.423470698106
 22
-94.87994020958992
 32
0.0
 13
170.423470698106
 23
-94.87994020958992
 33
0.0
  0
MTEXT
  5
2BA
330
2B1
100
AcDbEntity
  8
치수문자_일반주서
 62
     0
100
AcDbMText
 10
166.0484706981059
 20
-65.32617405617346
 30
0.0
 40
3.5
 41
0.0
 71
     2
 72
     1
  1
\A1;%%c12.69 [1/2]
  7
SLDTEXTSTYLE0
 11
-4.479645881294985E-15
 21
1.0
 31
0.0
 73
     1
 44
1.0
  0
POINT
  5
2BB
330
2B1
100
AcDbEntity
  8
Defpoints
 62
     0
100
AcDbPoint
 10
150.2141169830621
 20
-82.1906740561735
 30
0.0
  0
POINT
  5
2BC
330
2B1
100
AcDbEntity
  8
Defpoints
 62
     0
100
AcDbPoint
 10
150.2141169830621
 20
-94.87994020958999
 30
0.0
  0
POINT
  5
2BD
330
2B1
100
AcDbEntity
  8
Defpoints
 62
     0
100
AcDbPoint
 10
170.4234706981059
 20
-94.87994020958992
 30
0.0
  0
ENDBLK
  5
2B3
330
2B1
100
AcDbEntity
  8
0
100
AcDbBlockEnd
  0
ENDSEC
  0
SECTION
  2
ENTITIES
  0
LINE
  5
99
330
1F
100
AcDbEntity
  8
0
  6
Continuous
 62
     4
370
    25
100
AcDbLine
 10
7.969699607162352
 20
6.351074928723893
 30
0.0
 11
-11.06612499999995
 21
6.351074928723892
 31
0.0
  0
LINE
  5
9A
330
1F
100
AcDbEntity
  8
0
  6
Continuous
 62
     4
370
    25
100
AcDbLine
 10
-39.8
 20
-6.348925071276109
 30
0.0
 11
7.969699607162352
 21
-6.348925071276106
 31
0.0
  0
LINE
  5
9B
330
1F
100
AcDbEntity
  8
0
  6
Continuous
 62
     4
370
    25
100
AcDbLine
 10
-39.8
 20
6.351074928723887
 30
0.0
 11
-40.8
 21
5.351074928723885
 31
0.0
  0
LINE
  5
9C
330
1F
100
AcDbEntity
  8
0
  6
Continuous
 62
     4
370
    25
100
AcDbLine
 10
-40.8
 20
-5.348925071276105
 30
0.0
 11
-39.8
 21
-6.348925071276105
 31
0.0
  0
SPLINE
  5
9D
330
1F
100
AcDbEntity
  8
0
  6
Continuous
 62
     4
370
    25
100
AcDbSpline
210
0.0
220
0.0
230
1.0
 70
     8
 71
     3
 72
     9
 73
     5
 74
     0
 42
0.000000001
 43
0.00000001
 40
0.0
 40
0.0
 40
0.0
 40
0.0
 40
0.5555778589993704
 40
1.0
 40
1.0
 40
1.0
 40
1.0
 10
9.999999999999998
 20
5.02935874180749
 30
0.0
 10
9.623846363547885
 20
5.003429432129242
 30
0.0
 10
8.946796998892514
 20
4.956758548366976
 30
0.0
 10
8.261763205443255
 20
4.961407626211742
 30
0.0
 10
7.957319020300753
 20
4.963473779341192
 30
0.0
  0
SPLINE
  5
9E
330
1F
100
AcDbEntity
  8
0
  6
Continuous
 62
     4
370
    25
100
AcDbSpline
210
0.0
220
0.0
230
1.0
 70
     8
 71
     3
 72
    11
 73
     7
 74
     0
 42
0.000000001
 43
0.00000001
 40
0.0
 40
0.0
 40
0.0
 40
0.0
 40
0.2265561391983904
 40
0.4808097861537102
 40
0.7662468786474642
 40
1.0
 40
1.0
 40
1.0
 40
1.0
 10
7.957319020300753
 20
-4.96132342720656
 30
0.0
 10
8.094971319000482
 20
-4.959623256732768
 30
0.0
 10
8.387104529495508
 20
-4.956015062292213
 30
0.0
 10
8.873355043824484
 20
-4.962766703862745
 30
0.0
 10
9.362338615562553
 20
-4.976942816456344
 30
0.0
 10
9.685266657208368
 20
-4.989090425947198
 30
0.0
 10
9.830657374702358
 20
-4.994559599979625
 30
0.0
  0
SPLINE
  5
9F
330
1F
100
AcDbEntity
  8
0
  6
Continuous
 62
     4
370
    25
100
AcDbSpline
210
0.0
220
0.0
230
1.0
 70
     8
 71
     3
 72
     9
 73
     5
 74
     0
 42
0.000000001
 43
0.00000001
 40
0.0
 40
0.0
 40
0.0
 40
0.0
 40
0.4369178282296704
 40
1.0
 40
1.0
 40
1.0
 40
1.0
 10
11.40215686410195
 20
1.628696323767561
 30
0.0
 10
11.25442533474229
 20
1.75060065983809
 30
0.0
 10
10.91630333601717
 20
2.029610414520035
 30
0.0
 10
10.57811943836169
 20
2.336313335494407
 30
0.0
 10
10.38769411481209
 20
2.50901228232496
 30
0.0
  0
SPLINE
  5
A0
330
1F
100
AcDbEntity
  8
0
  6
Continuous
 62
     4
370
    25
100
AcDbSpline
210
0.0
220
0.0
230
1.0
 70
     8
 71
     3
 72
     9
 73
     5
 74
     0
 42
0.000000001
 43
0.00000001
 40
0.0
 40
0.0
 40
0.0
 40
0.0
 40
0.436917828229666
 40
1.0
 40
1.0
 40
1.0
 40
1.0
 10
51.30038356469233
 20
1.628696323767566
 30
0.0
 10
51.15265203533267
 20
1.750600659838093
 30
0.0
 10
50.81453003660757
 20
2.029610414520037
 30
0.0
 10
50.47634613895208
 20
2.33631333549441
 30
0.0
 10
50.28592081540247
 20
2.509012282324965
 30
0.0
  0
SPLINE
  5
A1
330
1F
100
AcDbEntity
  8
0
  6
Continuous
 62
     1
370
    25
100
AcDbSpline
210
0.0
220
0.0
230
1.0
 70
     8
 71
     3
 72
     9
 73
     5
 74
     0
 42
0.000000001
 43
0.00000001
 40
0.0
 40
0.0
 40
0.0
 40
0.0
 40
0.4369178282296615
 40
1.0
 40
1.0
 40
1.0
 40
1.0
 10
31.35127021439708
 20
1.628696323767597
 30
0.0
 10
31.20353868503745
 20
1.750600659838118
 30
0.0
 10
30.86541668631234
 20
2.029610414520053
 30
0.0
 10
30.52723278865688
 20
2.336313335494415
 30
0.0
 10
30.33680746510728
 20
2.509012282324965
 30
0.0
  0
LINE
  5
A2
330
1F
100
AcDbEntity
  8
0
  6
Continuous
 62
     1
370
    25
100
AcDbLine
 10
21.16365625931061
 20
-6.348925071276112
 30
0.0
 11
22.94017054484056
 21
-6.348925071276112
 31
0.0
  0
LINE
  5
A3
330
1F
100
AcDbEntity
  8
0
  6
Continuous
 62
     1
370
    25
100
AcDbLine
 10
42.88900429254041
 20
6.351074928723898
 30
0.0
 11
41.11238544352044
 21
6.351074928723898
 31
0.0
  0
LINE
  5
A4
330
1F
100
AcDbEntity
  8
0
  6
Continuous
 62
     1
370
    25
100
AcDbLine
 10
41.11115240024419
 20
-6.348925071276112
 30
0.0
 11
42.8890042925404
 21
-6.348925071276112
 31
0.0
  0
LINE
  5
A5
330
1F
100
AcDbEntity
  8
0
  6
Continuous
 62
     1
370
    25
100
AcDbLine
 10
22.94017054484055
 20
6.351074928723898
 30
0.0
 11
21.16249018474016
 21
6.351074928723898
 31
0.0
  0
SPLINE
  5
A6
330
1F
100
AcDbEntity
  8
0
  6
Continuous
 62
     4
370
    25
100
AcDbSpline
210
0.0
220
0.0
230
1.0
 70
     8
 71
     3
 72
     9
 73
     5
 74
     0
 42
0.000000001
 43
0.00000001
 40
0.0
 40
0.0
 40
0.0
 40
0.0
 40
0.471972118139295
 40
1.0
 40
1.0
 40
1.0
 40
1.0
 10
10.02579687140412
 20
-5.025840448493465
 30
0.0
 10
10.0969493990764
 20
-5.031609165278708
 30
0.0
 10
10.24770518514444
 20
-5.043831744883592
 30
0.0
 10
10.39859163680781
 20
-5.058460589364859
 30
0.0
 10
10.4782638902811
 20
-5.066185027130373
 30
0.0
  0
SPLINE
  5
A7
330
1F
100
AcDbEntity
  8
0
  6
Continuous
 62
     1
370
    25
100
AcDbSpline
210
0.0
220
0.0
230
1.0
 70
     8
 71
     3
 72
    18
 73
    14
 74
     0
 42
0.000000001
 43
0.00000001
 40
0.0
 40
0.0
 40
0.0
 40
0.0
 40
0.1466355490040299
 40
0.2587565519042052
 40
0.3371923649606813
 40
0.3888799606060787
 40
0.4418125595092463
 40
0.498623649862567
 40
0.5664120795959303
 40
0.6282881883372072
 40
0.7127362650276674
 40
0.8366541232546338
 40
1.0
 40
1.0
 40
1.0
 40
1.0
 10
44.57441623542298
 20
-5.283097667810761
 30
0.0
 10
44.84742316874375
 20
-5.238570975311695
 30
0.0
 10
45.32917764909887
 20
-5.159998122432474
 30
0.0
 10
45.95051549304708
 20
-5.083975328540374
 30
0.0
 10
46.39507857367852
 20
-5.040089279196395
 30
0.0
 10
46.72521769114962
 20
-5.013388650652939
 30
0.0
 10
47.01926005535683
 20
-4.993539897935705
 30
0.0
 10
47.34460092021652
 20
-4.976347760576202
 30
0.0
 10
47.68669579694711
 20
-4.964079431312419
 30
0.0
 10
48.07611395491468
 20
-4.957094040768454
 30
0.0
 10
48.57081625348375
 20
-4.958348746385193
 30
0.0
 10
49.25387341757588
 20
-4.977952219848541
 30
0.0
 10
49.78705843891289
 20
-5.02062476086914
 30
0.0
 10
50.09024176550363
 20
-5.044889514046681
 30
0.0
  0
SPLINE
  5
A8
330
1F
100
AcDbEntity
  8
0
  6
Continuous
 62
     1
370
    25
100
AcDbSpline
210
0.0
220
0.0
230
1.0
 70
     8
 71
     3
 72
    14
 73
    10
 74
     0
 42
0.000000001
 43
0.00000001
 40
0.0
 40
0.0
 40
0.0
 40
0.0
 40
0.2568867420590802
 40
0.4489230842036857
 40
0.5896668800445397
 40
0.7201040308131462
 40
0.8430384910270534
 40
0.9554267490507874
 40
1.0
 40
1.0
 40
1.0
 40
1.0
 10
30.1413532506522
 20
5.04706009762798
 30
0.0
 10
29.88307371316029
 20
5.025944117174371
 30
0.0
 10
29.43171664572975
 20
4.989042831435619
 30
0.0
 10
28.84331490963585
 20
4.966235519396442
 30
0.0
 10
28.37901848115019
 20
4.958978418495517
 30
0.0
 10
27.98469261414227
 20
4.960904668448426
 30
0.0
 10
27.61916955621205
 20
4.970021771155942
 30
0.0
 10
27.33977147927253
 20
4.980919705028604
 30
0.0
 10
27.18473127755063
 20
4.990322468063875
 30
0.0
 10
27.14070363113091
 20
4.992992624073011
 30
0.0
  0
SPLINE
  5
A9
330
1F
100
AcDbEntity
  8
0
  6
Continuous
 62
     1
370
    25
100
AcDbSpline
210
0.0
220
0.0
230
1.0
 70
     8
 71
     3
 72
    17
 73
    13
 74
     0
 42
0.000000001
 43
0.00000001
 40
0.0
 40
0.0
 40
0.0
 40
0.0
 40
0.1494993350857133
 40
0.2682986972669454
 40
0.3738579309903566
 40
0.4808236079449466
 40
0.5791992623240997
 40
0.6601862659002204
 40
0.7104992198744388
 40
0.7840916664083797
 40
0.8803316776340689
 40
1.0
 40
1.0
 40
1.0
 40
1.0
 10
24.62551160121429
 20
-5.28306152131517
 30
0.0
 10
24.8804733043185
 20
-5.240524829560238
 30
0.0
 10
25.33803983969206
 20
-5.164186436634613
 30
0.0
 10
26.04007140675494
 20
-5.07739097905504
 30
0.0
 10
26.67767779912684
 20
-5.018851711922968
 30
0.0
 10
27.26014192287499
 20
-4.981007412582023
 30
0.0
 10
27.78832422156238
 20
-4.961726162793999
 30
0.0
 10
28.20952409209829
 20
-4.956940854404253
 30
0.0
 10
28.58385215665947
 20
-4.959356963032541
 30
0.0
 10
28.98780618214129
 20
-4.968981531494784
 30
0.0
 10
29.51928703857613
 20
-4.993189626526522
 30
0.0
 10
29.91952131247028
 20
-5.026466409366008
 30
0.0
 10
30.1413532506522
 20
-5.044910240180193
 30
0.0
  0
SPLINE
  5
AA
330
1F
100
AcDbEntity
  8
0
  6
Continuous
 62
     1
370
    25
100
AcDbSpline
210
0.0
220
0.0
230
1.0
 70
     8
 71
     3
 72
    14
 73
    10
 74
     0
 42
0.000000001
 43
0.00000001
 40
0.0
 40
0.0
 40
0.0
 40
0.0
 40
0.2323060069467102
 40
0.4082227847068625
 40
0.5502330566450988
 40
0.6895108106305228
 40
0.7867088247467092
 40
0.8942124675778133
 40
1.0
 40
1.0
 40
1.0
 40
1.0
 10
50.09024176550363
 20
5.047039371494473
 30
0.0
 10
49.87667108250877
 20
5.028589287936181
 30
0.0
 10
49.50137119211934
 20
4.996167636050237
 30
0.0
 10
48.94392168335345
 20
4.969354389194287
 30
0.0
 10
48.45664007103517
 20
4.960057976574651
 30
0.0
 10
48.066864921822
 20
4.959546243849693
 30
0.0
 10
47.72187400486811
 20
4.965672048552269
 30
0.0
 10
47.40953249599883
 20
4.975456216793745
 30
0.0
 10
47.19517284788344
 20
4.987157902162088
 30
0.0
 10
47.08885537742043
 20
4.992961669799581
 30
0.0
  0
SPLINE
  5
AB
330
1F
100
AcDbEntity
  8
0
  6
Continuous
 62
     4
370
    25
100
AcDbSpline
210
0.0
220
0.0
230
1.0
 70
     8
 71
     3
 72
     9
 73
     5
 74
     0
 42
0.000000001
 43
0.00000001
 40
0.0
 40
0.0
 40
0.0
 40
0.0
 40
0.4995385919841956
 40
1.0
 40
1.0
 40
1.0
 40
1.0
 10
10.4782638902815
 20
5.068334884578181
 30
0.0
 10
10.39859229201507
 20
5.060622512738645
 30
0.0
 10
10.23910191520561
 20
5.045183521711141
 30
0.0
 10
10.07974965600835
 20
5.032288027755257
 30
0.0
 10
9.999999999999998
 20
5.025834330693036
 30
0.0
  0
SPLINE
  5
AC
330
1F
100
AcDbEntity
  8
0
  6
Continuous
 62
     1
370
    25
100
AcDbSpline
210
0.0
220
0.0
230
1.0
 70
     8
 71
     3
 72
    14
 73
    10
 74
     0
 42
0.000000001
 43
0.00000001
 40
0.0
 40
0.0
 40
0.0
 40
0.0
 40
0.1534080593128951
 40
0.2941446337447881
 40
0.466665345729608
 40
0.643630082696355
 40
0.7965260727605565
 40
0.9318655316337755
 40
1.0
 40
1.0
 40
1.0
 40
1.0
 10
13.13413843750246
 20
-4.77500086936702
 30
0.0
 10
13.22521935665103
 20
-4.749097816990225
 30
0.0
 10
13.39985792338663
 20
-4.699431300847784
 30
0.0
 10
13.8096005864569
 20
-4.590900525199937
 30
0.0
 10
14.31197243582368
 20
-4.487267883546455
 30
0.0
 10
14.82007704494744
 20
-4.396150788043877
 30
0.0
 10
15.29525878623755
 20
-4.321974381105134
 30
0.0
 10
15.61660846316589
 20
-4.280511608874629
 30
0.0
 10
15.79961659769186
 20
-4.262260894919111
 30
0.0
 10
15.86089797227283
 20
-4.256149533578944
 30
0.0
  0
SPLINE
  5
AD
330
1F
100
AcDbEntity
  8
0
  6
Continuous
 62
     1
370
    25
100
AcDbSpline
210
0.0
220
0.0
230
1.0
 70
     8
 71
     3
 72
    15
 73
    11
 74
     0
 42
0.000000001
 43
0.00000001
 40
0.0
 40
0.0
 40
0.0
 40
0.0
 40
0.2370156638150284
 40
0.4130166507547002
 40
0.5306050342825884
 40
0.6293519445033949
 40
0.7245908534938685
 40
0.8164501495592013
 40
0.9186129463848598
 40
1.0
 40
1.0
 40
1.0
 40
1.0
 10
53.03257031410273
 20
-4.774945047264316
 30
0.0
 10
53.25307232965341
 20
-4.717274530375107
 30
0.0
 10
53.6373127738566
 20
-4.616779553167769
 30
0.0
 10
54.12539635165306
 20
-4.509623204630121
 30
0.0
 10
54.47954855610686
 20
-4.439983632238881
 30
0.0
 10
54.75861148218637
 20
-4.390654002057979
 30
0.0
 10
55.01482559111227
 20
-4.34956406606768
 30
0.0
 10
55.27309550583796
 20
-4.312509038164642
 30
0.0
 10
55.5208375896745
 20
-4.280417616917014
 30
0.0
 10
55.68705954355004
 20
-4.263193582059844
 30
0.0
 10
55.76076330871025
 20
-4.255556346480391
 30
0.0
  0
SPLINE
  5
AE
330
1F
100
AcDbEntity
  8
0
  6
Continuous
 62
     1
370
    25
100
AcDbSpline
210
0.0
220
0.0
230
1.0
 70
     8
 71
     3
 72
    21
 73
    17
 74
     0
 42
0.000000001
 43
0.00000001
 40
0.0
 40
0.0
 40
0.0
 40
0.0
 40
0.1193557772361796
 40
0.2155730320428794
 40
0.2870838838293852
 40
0.3437175599140906
 40
0.4052727847758912
 40
0.4720878761696378
 40
0.5367852966284058
 40
0.5940781538478619
 40
0.6449509590877774
 40
0.6933398866565212
 40
0.7405965659133833
 40
0.7966348595273209
 40
0.8829561829628634
 40
1.0
 40
1.0
 40
1.0
 40
1.0
 10
39.48763010853884
 20
4.344166514180994
 30
0.0
 10
39.23831199935154
 20
4.310348221668371
 30
0.0
 10
38.78800903132383
 20
4.249267710743183
 30
0.0
 10
38.18395386864223
 20
4.203329853206472
 30
0.0
 10
37.70141596219278
 20
4.182937224238441
 30
0.0
 10
37.28105970134477
 20
4.178061583631783
 30
0.0
 10
36.87964564532063
 20
4.184124177703604
 30
0.0
 10
36.46655958776424
 20
4.202122950435972
 30
0.0
 10
36.06069944538973
 20
4.231542818963091
 30
0.0
 10
35.68256692264337
 20
4.269474234780144
 30
0.0
 10
35.33070211532032
 20
4.312652497464736
 30
0.0
 10
35.00454382664188
 20
4.359536684463082
 30
0.0
 10
34.67104165462217
 20
4.41441174143069
 30
0.0
 10
34.26860230149602
 20
4.490713992367631
 30
0.0
 10
33.74002344714014
 20
4.605828587120016
 30
0.0
 10
33.32328153661438
 20
4.714536496669969
 30
0.0
 10
33.08343185631071
 20
4.777101735954741
 30
0.0
  0
SPLINE
  5
AF
330
1F
100
AcDbEntity
  8
0
  6
Continuous
 62
     1
370
    25
100
AcDbSpline
210
0.0
220
0.0
230
1.0
 70
     8
 71
     3
 72
    15
 73
    11
 74
     0
 42
0.000000001
 43
0.00000001
 40
0.0
 40
0.0
 40
0.0
 40
0.0
 40
0.2436670378855607
 40
0.4325495049757672
 40
0.5657095408065546
 40
0.6624753952498188
 40
0.7603443906986744
 40
0.860181435895977
 40
0.9665003162066204
 40
1.0
 40
1.0
 40
1.0
 40
1.0
 10
33.08343185631071
 20
-4.774951878506952
 30
0.0
 10
33.29654494436338
 20
-4.719078002318231
 30
0.0
 10
33.6748561084049
 20
-4.619892582344196
 30
0.0
 10
34.16841170849916
 20
-4.509959612709692
 30
0.0
 10
34.54054073557118
 20
-4.436035341129081
 30
0.0
 10
34.84636371476171
 20
-4.382906241042561
 30
0.0
 10
35.1235740109121
 20
-4.339655625514436
 30
0.0
 10
35.41427104304223
 20
-4.300155921866038
 30
0.0
 10
35.64404874080412
 20
-4.271761658476178
 30
0.0
 10
35.7744816130399
 20
-4.259188725766712
 30
0.0
 10
35.80573254172852
 20
-4.256176326999626
 30
0.0
  0
SPLINE
  5
B0
330
1F
100
AcDbEntity
  8
0
  6
Continuous
 62
     1
370
    25
100
AcDbSpline
210
0.0
220
0.0
230
1.0
 70
     8
 71
     3
 72
    22
 73
    18
 74
     0
 42
0.000000001
 43
0.00000001
 40
0.0
 40
0.0
 40
0.0
 40
0.0
 40
0.1284267966372692
 40
0.2285064955978134
 40
0.2984424388867208
 40
0.3535501556584021
 40
0.4168806356432669
 40
0.4882225018397854
 40
0.5558615588024475
 40
0.6068791525313162
 40
0.6505997700404959
 40
0.6899109994970335
 40
0.730668535912858
 40
0.7729273231242598
 40
0.8232493278019398
 40
0.8985690339015987
 40
1.0
 40
1.0
 40
1.0
 40
1.0
 10
59.43657158280683
 20
4.344140881062344
 30
0.0
 10
59.1638929381198
 20
4.307560470778824
 30
0.0
 10
58.67872284003052
 20
4.242473887758098
 30
0.0
 10
58.04497414979627
 20
4.198410860614382
 30
0.0
 10
57.56031196401779
 20
4.181075804712604
 30
0.0
 10
57.14650349438186
 20
4.178448102882893
 30
0.0
 10
56.73671371428917
 20
4.186856191641021
 30
0.0
 10
56.30269364503903
 20
4.208753821095017
 30
0.0
 10
55.89823427466757
 20
4.24169846633366
 30
0.0
 10
55.55500612254181
 20
4.278682410845995
 30
0.0
 10
55.27306404078556
 20
4.314542934485498
 30
0.0
 10
55.01483395852523
 20
4.351744760732112
 30
0.0
 10
54.758609128419
 20
4.392795184944739
 30
0.0
 10
54.47954932373045
 20
4.442136318682371
 30
0.0
 10
54.12539601106072
 20
4.511771806860755
 30
0.0
 10
53.6373129128185
 20
4.618929922745049
 30
0.0
 10
53.2530723803219
 20
4.719424574556247
 30
0.0
 10
53.03257031410275
 20
4.777094904712108
 30
0.0
  0
SPLINE
  5
B1
330
1F
100
AcDbEntity
  8
0
  6
Continuous
 62
     1
370
    25
100
AcDbSpline
210
0.0
220
0.0
230
1.0
 70
     8
 71
     3
 72
    23
 73
    19
 74
     0
 42
0.000000001
 43
0.00000001
 40
0.0
 40
0.0
 40
0.0
 40
0.0
 40
0.081780856740618
 40
0.1203656581900609
 40
0.1592936573748961
 40
0.2581875251318092
 40
0.3424638205641262
 40
0.4113424236887283
 40
0.4778338963522943
 40
0.5422436052518084
 40
0.5917349180402506
 40
0.6392495486967698
 40
0.6907163345980261
 40
0.7486216846692056
 40
0.8132162118874671
 40
0.874239955031536
 40
0.93441116299795
 40
1.0
 40
1.0
 40
1.0
 40
1.0
 10
19.538567419412
 20
4.344174069029457
 30
0.0
 10
19.42844735296122
 20
4.326019452602737
 30
0.0
 10
19.26637184034681
 20
4.299299356452104
 30
0.0
 10
18.94844184209746
 20
4.256413988138062
 30
0.0
 10
18.55579253220649
 20
4.216920194377971
 30
0.0
 10
18.01119098693227
 20
4.189408037074587
 30
0.0
 10
17.41012712392482
 20
4.176687256418319
 30
0.0
 10
16.92352035474261
 20
4.184030457705727
 30
0.0
 10
16.48023685670337
 20
4.204139905182453
 30
0.0
 10
16.07824117142431
 20
4.234653470577959
 30
0.0
 10
15.73787034049002
 20
4.269535922547435
 30
0.0
 10
15.43572165330876
 20
4.305541885874409
 30
0.0
 10
15.07129479032213
 20
4.357682903483091
 30
0.0
 10
14.65827840958029
 20
4.427304266714583
 30
0.0
 10
14.22242912176938
 20
4.506947496019837
 30
0.0
 10
13.78351311580406
 20
4.60005336349753
 30
0.0
 10
13.39983898376752
 20
4.70156060346604
 30
0.0
 10
13.22521286469989
 20
4.751240628839678
 30
0.0
 10
13.13413843750246
 20
4.777150726814807
 30
0.0
  0
SPLINE
  5
B2
330
1F
100
AcDbEntity
  8
0
  6
Continuous
 62
     4
370
    25
100
AcDbSpline
210
0.0
220
0.0
230
1.0
 70
     8
 71
     3
 72
    12
 73
     8
 74
     0
 42
0.000000001
 43
0.00000001
 40
0.0
 40
0.0
 40
0.0
 40
0.0
 40
0.2500000000000001
 40
0.2500000000000001
 40
0.5000000000000001
 40
0.5000000000000001
 40
1.0
 40
1.0
 40
1.0
 40
1.0
 10
9.99999999999999
 20
2.859400015145523
 30
0.0
 10
9.830174437508331
 20
3.01063245336535
 30
0.0
 10
9.6605038003086
 20
3.15876359982223
 30
0.0
 10
9.323090057156298
 20
3.44744997541168
 30
0.0
 10
9.155852429180435
 20
3.587879652292273
 30
0.0
 10
8.649176610210919
 20
3.998675356930039
 30
0.0
 10
8.307855198459034
 20
4.257551145532431
 30
0.0
 10
7.969499837977525
 20
4.496476591016558
 30
0.0
  0
LINE
  5
B3
330
1F
100
AcDbEntity
  8
0
  6
Continuous
 62
     4
370
    25
100
AcDbLine
 10
9.99999999999999
 20
2.859400015145523
 30
0.0
 11
9.999999999999995
 21
1.182195355403876
 31
0.0
  0
SPLINE
  5
B4
330
1F
100
AcDbEntity
  8
0
  6
Continuous
 62
     4
370
    25
100
AcDbSpline
210
0.0
220
0.0
230
1.0
 70
     8
 71
     3
 72
    12
 73
     8
 74
     0
 42
0.000000001
 43
0.00000001
 40
0.0
 40
0.0
 40
0.0
 40
0.0
 40
0.5
 40
0.5
 40
0.75
 40
0.75
 40
1.0
 40
1.0
 40
1.0
 40
1.0
 10
7.969699607162312
 20
3.082827622234991
 30
0.0
 10
8.308022838404653
 20
2.787076725538325
 30
0.0
 10
8.649310258626903
 20
2.477270889295985
 30
0.0
 10
9.155935178392408
 20
2.000361284959212
 30
0.0
 10
9.323156272172353
 20
1.839624213463732
 30
0.0
 10
9.660537191797804
 20
1.513658840636851
 30
0.0
 10
9.830191148664445
 20
1.348583736719848
 30
0.0
 10
9.999999999999872
 20
1.182195355403996
 30
0.0
  0
LINE
  5
B5
330
1F
100
AcDbEntity
  8
0
  6
Continuous
 62
     4
370
    25
100
AcDbLine
 10
7.969699607162414
 20
-6.348925071276106
 30
0.0
 11
7.969699607162312
 21
3.082825681050664
 31
0.0
  0
LINE
  5
B6
330
1F
100
AcDbEntity
  8
0
  6
Continuous
 62
     4
370
    25
100
AcDbLine
 10
7.969699607162352
 20
4.496668794867786
 30
0.0
 11
7.969699607162412
 21
6.351074928723893
 31
0.0
  0
LINE
  5
B7
330
1F
100
AcDbEntity
  8
0
  6
Continuous
 62
     4
370
    25
100
AcDbLine
 10
-39.8
 20
6.351074928723887
 30
0.0
 11
-39.8
 21
-6.348925071276105
 31
0.0
  0
LINE
  5
B8
330
1F
100
AcDbEntity
  8
0
  6
Continuous
 62
     4
370
    25
100
AcDbLine
 10
-40.8
 20
5.351074928723885
 30
0.0
 11
-40.8
 21
-5.348925071276105
 31
0.0
  0
SPLINE
  5
B9
330
1F
100
AcDbEntity
  8
0
  6
Continuous
 62
     4
370
    25
100
AcDbSpline
210
0.0
220
0.0
230
1.0
 70
    24
 71
     3
 72
    10
 73
     6
 74
     0
 42
0.000000001
 43
0.00000001
 40
0.0
 40
0.0
 40
0.0
 40
0.0
 40
0.1894727877384011
 40
0.588683093522363
 40
1.0
 40
1.0
 40
1.0
 40
1.0
 10
9.999999999999996
 20
1.111761329030656
 30
0.0
 10
9.999999999999996
 20
1.097097465145509
 30
0.0
 10
9.999999999999996
 20
1.051537525599904
 30
0.0
 10
10.00000000000001
 20
0.9010798087753348
 30
0.0
 10
9.999999999999993
 20
0.732953937255628
 30
0.0
 10
9.999999999999988
 20
0.6476353787591328
 30
0.0
  0
SPLINE
  5
BA
330
1F
100
AcDbEntity
  8
0
  6
Continuous
 62
     4
370
    25
100
AcDbSpline
210
0.0
220
0.0
230
1.0
 70
     8
 71
     3
 72
    12
 73
     8
 74
     0
 42
0.000000001
 43
0.00000001
 40
0.0
 40
0.0
 40
0.0
 40
0.0
 40
0.25
 40
0.25
 40
0.5000000000000001
 40
0.5000000000000001
 40
1.0
 40
1.0
 40
1.0
 40
1.0
 10
10.00000000000001
 20
0.6476353787591196
 30
0.0
 10
9.830186457425059
 20
0.7649183752706318
 30
0.0
 10
9.660527817971396
 20
0.8814743558325152
 30
0.0
 10
9.323137683950355
 20
1.112029324537727
 30
0.0
 10
9.1559119486391
 20
1.225918943475195
 30
0.0
 10
8.649272740195887
 20
1.564441737106921
 30
0.0
 10
8.307975777683149
 20
1.785180968624748
 30
0.0
 10
7.969643526886266
 20
1.996759996206625
 30
0.0
  0
SPLINE
  5
BB
330
1F
100
AcDbEntity
  8
0
  6
Continuous
 62
     4
370
    25
100
AcDbSpline
210
0.0
220
0.0
230
1.0
 70
    24
 71
     3
 72
    18
 73
    14
 74
     0
 42
0.000000001
 43
0.00000001
 40
0.0
 40
0.0
 40
0.0
 40
0.0
 40
0.0481873757270167
 40
0.1805209482745333
 40
0.2472108982367405
 40
0.347584275050178
 40
0.4486545616505081
 40
0.5519228631700346
 40
0.6559506738517614
 40
0.749161539099287
 40
0.8429295779887441
 40
0.9384424088340018
 40
1.0
 40
1.0
 40
1.0
 40
1.0
 10
9.99999999999999
 20
5.027352266786059
 30
0.0
 10
9.999999999999988
 20
5.028443668308567
 30
0.0
 10
9.999999999999982
 20
5.032532308430984
 30
0.0
 10
9.999999999999988
 20
4.991385974070843
 30
0.0
 10
9.999999999999986
 20
4.899933919032669
 30
0.0
 10
9.999999999999988
 20
4.782248580890401
 30
0.0
 10
9.999999999999988
 20
4.601888624136837
 30
0.0
 10
9.999999999999988
 20
4.372412242943092
 30
0.0
 10
9.999999999999988
 20
4.10396857356771
 30
0.0
 10
9.999999999999988
 20
3.804972205458759
 30
0.0
 10
9.999999999999986
 20
3.478991087474832
 30
0.0
 10
9.99999999999999
 20
3.164282060742269
 30
0.0
 10
9.999999999999988
 20
2.945243563022728
 30
0.0
 10
9.999999999999988
 20
2.859400015144137
 30
0.0
  0
SPLINE
  5
BC
330
1F
100
AcDbEntity
  8
0
  6
Continuous
 62
     4
370
    25
100
AcDbSpline
210
0.0
220
0.0
230
1.0
 70
     8
 71
     3
 72
    12
 73
     8
 74
     0
 42
0.000000001
 43
0.00000001
 40
0.0
 40
0.0
 40
0.0
 40
0.0
 40
0.25
 40
0.25
 40
0.5
 40
0.5
 40
1.0
 40
1.0
 40
1.0
 40
1.0
 10
10.00000000000001
 20
-5.024896423031876
 30
0.0
 10
9.830184225453932
 20
-5.005189728617773
 30
0.0
 10
9.660523358145872
 20
-4.980118466094207
 30
0.0
 10
9.323128840155281
 20
-4.919556616153115
 30
0.0
 10
9.155900896514282
 20
-4.884123410887502
 30
0.0
 10
8.649254889885139
 20
-4.762032051448786
 30
0.0
 10
8.307953387400891
 20
-4.659626027148639
 30
0.0
 10
7.969616845352046
 20
-4.538125686050264
 30
0.0
  0
SPLINE
  5
BD
330
1F
100
AcDbEntity
  8
0
  6
Continuous
 62
     4
370
    25
100
AcDbSpline
210
0.0
220
0.0
230
1.0
 70
    24
 71
     3
 72
    14
 73
    10
 74
     0
 42
0.000000001
 43
0.00000001
 40
0.0
 40
0.0
 40
0.0
 40
0.0
 40
0.2499999999999999
 40
0.2499999999999999
 40
0.4999999999999999
 40
0.4999999999999999
 40
0.7499999999999999
 40
0.7499999999999999
 40
1.0
 40
1.0
 40
1.0
 40
1.0
 10
9.999999999999991
 20
0.6476353787591335
 30
0.0
 10
9.999999999999991
 20
0.086445066323416
 30
0.0
 10
9.999999999999991
 20
-0.4880425493325446
 30
0.0
 10
9.999999999999991
 20
-1.609490254698021
 30
0.0
 10
9.999999999999991
 20
-2.155851636479045
 30
0.0
 10
9.999999999999991
 20
-3.164024083046149
 30
0.0
 10
9.999999999999991
 20
-3.625297951402804
 30
0.0
 10
9.999999999999991
 20
-4.422534738296013
 30
0.0
 10
9.999999999999991
 20
-4.758354320632677
 30
0.0
 10
9.999999999999991
 20
-5.024896423031874
 30
0.0
  0
SPLINE
  5
BE
330
1F
100
AcDbEntity
  8
0
  6
Continuous
 62
     1
370
    25
100
AcDbSpline
210
0.0
220
0.0
230
1.0
 70
     8
 71
     3
 72
    24
 73
    20
 74
     0
 42
0.000000001
 43
0.00000001
 40
0.0
 40
0.0
 40
0.0
 40
0.0
 40
0.0614873073964853
 40
0.122856634634739
 40
0.1843533937456407
 40
0.2458310508943964
 40
0.3072007926926018
 40
0.3687061976716541
 40
0.430174613272238
 40
0.4915451841678777
 40
0.5530584285746079
 40
0.6145180118256545
 40
0.6758898263112751
 40
0.737410103166296
 40
0.798861263743571
 40
0.8602347362443219
 40
0.9217612380847006
 40
0.9832043861191087
 40
0.9999999999999999
 40
0.9999999999999999
 40
0.9999999999999999
 40
0.9999999999999999
 10
60.8
 20
-6.024699590898668
 30
0.0
 10
60.43266505828232
 20
-5.891533613178613
 30
0.0
 10
59.69870000705351
 20
-5.625457172962501
 30
0.0
 10
58.59951622597416
 20
-5.008101836261563
 30
0.0
 10
57.49804694170688
 20
-4.254910352794425
 30
0.0
 10
56.39692038697843
 20
-3.370712688841143
 30
0.0
 10
55.29772964245706
 20
-2.384561697368387
 30
0.0
 10
54.1961062637392
 20
-1.328963012371879
 30
0.0
 10
53.09514561636441
 20
-0.2330021810974889
 30
0.0
 10
51.99594045296958
 20
0.8718301057059434
 30
0.0
 10
50.89417733789534
 20
1.947938588384721
 30
0.0
 10
49.79337531542509
 20
2.966761499279883
 30
0.0
 10
48.69414808323445
 20
3.897942748586584
 30
0.0
 10
47.59226013748819
 20
4.710446760254017
 30
0.0
 10
46.49160748421288
 20
5.381885246467863
 30
0.0
 10
45.39235783556824
 20
5.896487151503575
 30
0.0
 10
44.29033269941925
 20
6.218706160797342
 30
0.0
 10
43.45603257820996
 20
6.363669961430233
 30
0.0
 10
42.989216327037
 20
6.337727195930587
 30
0.0
 10
42.88900429254041
 20
6.33215802968015
 30
0.0
  0
SPLINE
  5
BF
330
1F
100
AcDbEntity
  8
0
  6
Continuous
 62
     1
370
    25
100
AcDbSpline
210
0.0
220
0.0
230
1.0
 70
     8
 71
     3
 72
    24
 73
    20
 74
     0
 42
0.000000001
 43
0.00000001
 40
0.0
 40
0.0
 40
0.0
 40
0.0
 40
0.0267434249519855
 40
0.0908985252528384
 40
0.1552153485444829
 40
0.2193825618332584
 40
0.2835424223631671
 40
0.3478598349008866
 40
0.3639431670773005
 40
0.4281977419532715
 40
0.4923290269141046
 40
0.5565934788836969
 40
0.6208379691976409
 40
0.6849696873759067
 40
0.7492431743253343
 40
0.8134780071705401
 40
0.8776105917601911
 40
0.9418922709547183
 40
1.0
 40
1.0
 40
1.0
 40
1.0
 10
27.13924297391204
 20
-4.99175592339888
 30
0.0
 10
26.98648819476447
 20
-5.089990269161691
 30
0.0
 10
26.46728827273633
 20
-5.423880082267099
 30
0.0
 10
25.58152072294804
 20
-5.831548472482274
 30
0.0
 10
24.47912890861299
 20
-6.195240481389147
 30
0.0
 10
23.37922436248417
 20
-6.365165419244121
 30
0.0
 10
22.2800059128568
 20
-6.346205320362413
 30
0.0
 10
21.45147730579498
 20
-6.189328977809599
 30
0.0
 10
20.62747451674332
 20
-5.945318168111419
 30
0.0
 10
19.8000467306781
 20
-5.617452111028828
 30
0.0
 10
18.701404013543
 20
-5.010250360654728
 30
0.0
 10
17.5997894914044
 20
-4.254333085427626
 30
0.0
 10
16.49870211220649
 20
-3.370871640150565
 30
0.0
 10
15.39949991904888
 20
-2.384501862752451
 30
0.0
 10
14.29788322166261
 20
-1.329043296446853
 30
0.0
 10
13.19690732356847
 20
-0.2327413048408478
 30
0.0
 10
12.09775643521689
 20
0.8708675093982615
 30
0.0
 10
11.03078743966681
 20
1.9172164709985
 30
0.0
 10
10.3318430316866
 20
2.556081375759487
 30
0.0
 10
9.999999999999988
 20
2.859400015144136
 30
0.0
  0
SPLINE
  5
C0
330
1F
100
AcDbEntity
  8
0
  6
Continuous
 62
     1
370
    25
100
AcDbSpline
210
0.0
220
0.0
230
1.0
 70
     8
 71
     3
 72
    16
 73
    12
 74
     0
 42
0.000000001
 43
0.00000001
 40
0.0
 40
0.0
 40
0.0
 40
0.0
 40
0.1157519782937384
 40
0.2312639429094557
 40
0.3470351475799612
 40
0.4627674955154175
 40
0.5782803035722699
 40
0.6940690954247534
 40
0.809782644089821
 40
0.9252971389815681
 40
1.0
 40
1.0
 40
1.0
 40
1.0
 10
60.79999999999999
 20
-5.008898950014274
 30
0.0
 10
60.43268453578954
 20
-4.878386135025503
 30
0.0
 10
59.69881524217487
 20
-4.617631125569667
 30
0.0
 10
58.59939187085661
 20
-4.046508858594954
 30
0.0
 10
57.4980653576287
 20
-3.366284904000147
 30
0.0
 10
56.39702601397302
 20
-2.582206097768665
 30
0.0
 10
55.29759663394616
 20
-1.719760575909936
 30
0.0
 10
54.19614496143486
 20
-0.8073359481581176
 30
0.0
 10
53.09523022522236
 20
0.127907633584942
 30
0.0
 10
52.12605181663508
 20
0.9570191014374719
 30
0.0
 10
51.52235197755409
 20
1.444770432072128
 30
0.0
 10
51.28526475194356
 20
1.636321932142191
 30
0.0
  0
SPLINE
  5
C1
330
1F
100
AcDbEntity
  8
0
  6
Continuous
 62
     1
370
    25
100
AcDbSpline
210
0.0
220
0.0
230
1.0
 70
     8
 71
     3
 72
    20
 73
    16
 74
     0
 42
0.000000001
 43
0.00000001
 40
0.0
 40
0.0
 40
0.0
 40
0.0
 40
0.0111543101905792
 40
0.0941792951697667
 40
0.1771939976888209
 40
0.2604290083377278
 40
0.3434464953323104
 40
0.4264684584697196
 40
0.5097031104478497
 40
0.5927137029201166
 40
0.6757435298870452
 40
0.7589766406215183
 40
0.8419809424206206
 40
0.9250192359871188
 40
0.9999999999999999
 40
0.9999999999999999
 40
0.9999999999999999
 40
0.9999999999999999
 10
24.6265397497657
 20
-5.273803183136724
 30
0.0
 10
24.57725461595776
 20
-5.285275409617609
 30
0.0
 10
24.1611249687564
 20
-5.382138970477721
 30
0.0
 10
23.37935596557593
 20
-5.413780988657421
 30
0.0
 10
22.27949097205557
 20
-5.352780314777569
 30
0.0
 10
21.17741937898343
 20
-5.116677037600171
 30
0.0
 10
20.0775630317141
 20
-4.730666126906243
 30
0.0
 10
18.97766448668272
 20
-4.201384528092526
 30
0.0
 10
17.87558578751853
 20
-3.548309147515085
 30
0.0
 10
16.77580217417449
 20
-2.786831860507597
 30
0.0
 10
15.67582471558796
 20
-1.941884062246496
 30
0.0
 10
14.57375310467408
 20
-1.040826453599642
 30
0.0
 10
13.47406657272835
 20
-0.1069366746282672
 30
0.0
 10
12.41028969391903
 20
0.8027702309258361
 30
0.0
 10
11.71200280918271
 20
1.373483692832387
 30
0.0
 10
11.38066249542718
 20
1.64428983521615
 30
0.0
  0
LINE
  5
C2
330
1F
100
AcDbEntity
  8
0
  6
Continuous
 62
     1
370
    25
100
AcDbLine
 10
60.79999999999971
 20
-6.02469959089867
 30
0.0
 11
60.79999999999999
 21
-5.008898950014274
 31
0.0
  0
SPLINE
  5
C3
330
1F
100
AcDbEntity
  8
0
  6
Continuous
 62
     1
370
    25
100
AcDbSpline
210
0.0
220
0.0
230
1.0
 70
     8
 71
     3
 72
    30
 73
    26
 74
     0
 42
0.000000001
 43
0.00000001
 40
0.0
 40
0.0
 40
0.0
 40
0.0
 40
0.0247520495123998
 40
0.070271170719566
 40
0.115903789839999
 40
0.1614745875929509
 40
0.2069952458089637
 40
0.2526318826484995
 40
0.2981970422098498
 40
0.3437195446532169
 40
0.3893595997435588
 40
0.4349194259228829
 40
0.4804440797121809
 40
0.5260869533498751
 40
0.5716417512451871
 40
0.6171688633824312
 40
0.6628139556701005
 40
0.7083640306514187
 40
0.7538939080054429
 40
0.7995406188930447
 40
0.8450862765859332
 40
0.8906192258757841
 40
0.936266955201894
 40
0.9818085014709755
 40
1.0
 40
1.0
 40
1.0
 40
1.0
 10
47.08914190412021
 20
-4.990637707821524
 30
0.0
 10
46.88985086992663
 20
-5.116017400234614
 30
0.0
 10
46.32406280135965
 20
-5.471970864448279
 30
0.0
 10
45.39239294160035
 20
-5.887335585566263
 30
0.0
 10
44.29034216441739
 20
-6.226938621842541
 30
0.0
 10
43.18984902287571
 20
-6.373304955042453
 30
0.0
 10
42.09055186386295
 20
-6.33028922172657
 30
0.0
 10
40.98845693621146
 20
-6.097425191801158
 30
0.0
 10
39.88808630938426
 20
-5.681766061308044
 30
0.0
 10
38.78874847687742
 20
-5.094931994027163
 30
0.0
 10
37.68657041199208
 20
-4.357203840019114
 30
0.0
 10
36.58632922266316
 20
-3.487669665689856
 30
0.0
 10
35.48693940560511
 20
-2.51262094920731
 30
0.0
 10
34.38469364234162
 20
-1.464960628423102
 30
0.0
 10
33.28457422879326
 20
-0.3713537771739358
 30
0.0
 10
32.18512503051078
 20
0.7341365536488772
 30
0.0
 10
31.08282594147628
 20
1.814794789078737
 30
0.0
 10
29.98282099518083
 20
2.843422684589351
 30
0.0
 10
28.88330463810582
 20
3.787072780831178
 30
0.0
 10
27.78096779244619
 20
4.615294056364486
 30
0.0
 10
26.68106561548573
 20
5.306297217478386
 30
0.0
 10
25.58149065395608
 20
5.84129333524124
 30
0.0
 10
24.47907060909763
 20
6.188482351407151
 30
0.0
 10
23.59940121654136
 20
6.353922123755229
 30
0.0
 10
23.08655395215045
 20
6.333933922096245
 30
0.0
 10
22.94017054484055
 20
6.328228634639336
 30
0.0
  0
SPLINE
  5
C4
330
1F
100
AcDbEntity
  8
0
  6
Continuous
 62
     1
370
    25
100
AcDbSpline
210
0.0
220
0.0
230
1.0
 70
     8
 71
     3
 72
    20
 73
    16
 74
     0
 42
0.000000001
 43
0.00000001
 40
0.0
 40
0.0
 40
0.0
 40
0.0
 40
0.0216630737342565
 40
0.1047605368039838
 40
0.1877591892311526
 40
0.2709863887829928
 40
0.354072741122401
 40
0.4370750281799043
 40
0.5203089633552831
 40
0.6033848055049642
 40
0.6863913324485253
 40
0.7696308215434304
 40
0.8526967546329234
 40
0.9357081264802101
 40
1.0
 40
1.0
 40
1.0
 40
1.0
 10
44.5771520177604
 20
-5.267554348020041
 30
0.0
 10
44.48146605863196
 20
-5.288661048842709
 30
0.0
 10
44.01873798200408
 20
-5.390731019866587
 30
0.0
 10
43.18990277853354
 20
-5.415375190398445
 30
0.0
 10
42.09040330885737
 20
-5.331695342771904
 30
0.0
 10
40.98854922616334
 20
-5.076375444380397
 30
0.0
 10
39.88814276120566
 20
-4.671949860513052
 30
0.0
 10
38.78859456811782
 20
-4.125713567860767
 30
0.0
 10
37.68667509363764
 20
-3.457971954345262
 30
0.0
 10
36.58637534895563
 20
-2.68520984818095
 30
0.0
 10
35.48678560908606
 20
-1.831104203646657
 30
0.0
 10
34.38480543150185
 20
-0.9244327571627401
 30
0.0
 10
33.28462214999353
 20
0.0105324076918297
 30
0.0
 10
32.26852063606289
 20
0.8798702174532818
 30
0.0
 10
31.61766879553667
 20
1.408660158171056
 30
0.0
 10
31.3335984472768
 20
1.639455453294696
 30
0.0
  0
SPLINE
  5
C5
330
1F
100
AcDbEntity
  8
0
  6
Continuous
 62
     1
370
    25
100
AcDbSpline
210
0.0
220
0.0
230
1.0
 70
     8
 71
     3
 72
    22
 73
    18
 74
     0
 42
0.000000001
 43
0.00000001
 40
0.0
 40
0.0
 40
0.0
 40
0.0
 40
0.0666333112866449
 40
0.1332665796507362
 40
0.2018045032307535
 40
0.2703423499773859
 40
0.3369759810604372
 40
0.4036094464930925
 40
0.4721487704120403
 40
0.5406878734842615
 40
0.607754367859416
 40
0.6748206934377924
 40
0.743834584150493
 40
0.8128487372169669
 40
0.8798887076179781
 40
0.946928895851093
 40
1.0
 40
1.0
 40
1.0
 40
1.0
 10
9.999999999999996
 20
1.182195355403874
 30
0.0
 10
10.24795520200616
 20
0.937021088946892
 30
0.0
 10
10.74386544629551
 20
0.4466727139645298
 30
0.0
 10
11.49443642596488
 20
-0.3067481636768437
 30
0.0
 10
12.25274612867683
 20
-1.061179860163415
 30
0.0
 10
13.01032827846383
 20
-1.801506370963433
 30
0.0
 10
13.76180911083888
 20
-2.508296397143829
 30
0.0
 10
14.51213654543849
 20
-3.181647684681272
 30
0.0
 10
15.2708651313283
 20
-3.815054772801655
 30
0.0
 10
16.02998654710466
 20
-4.396031107762775
 30
0.0
 10
16.78475275656668
 20
-4.909622783738375
 30
0.0
 10
17.54067885993055
 20
-5.356174298327331
 30
0.0
 10
18.30352699281366
 20
-5.729955591044341
 30
0.0
 10
19.06732451665405
 20
-6.020797613534115
 30
0.0
 10
19.82245069831863
 20
-6.220470625668948
 30
0.0
 10
20.51946076866096
 20
-6.334178238050439
 30
0.0
 10
20.96624493655866
 20
-6.338592627670752
 30
0.0
 10
21.16365625931062
 20
-6.340543123137477
 30
0.0
  0
SPLINE
  5
C6
330
1F
100
AcDbEntity
  8
0
  6
Continuous
 62
     1
370
    25
100
AcDbSpline
210
0.0
220
0.0
230
1.0
 70
     8
 71
     3
 72
    39
 73
    35
 74
     0
 42
0.000000001
 43
0.00000001
 40
0.0
 40
0.0
 40
0.0
 40
0.0
 40
0.0293475894681172
 40
0.0601665819820135
 40
0.0901082472946179
 40
0.1200499949141501
 40
0.1508601671493163
 40
0.1816703790412476
 40
0.2116346599910734
 40
0.2415989670428151
 40
0.2724325181524825
 40
0.3032660773684618
 40
0.3332493164242407
 40
0.3632325516393494
 40
0.3940861988745744
 40
0.4249398309813676
 40
0.4549258085769483
 40
0.4849117485824939
 40
0.5157685102633122
 40
0.5466252201589238
 40
0.5765984857827732
 40
0.6065716466854766
 40
0.6374153619305138
 40
0.6682589526949787
 40
0.69820085187823
 40
0.7281428725439851
 40
0.7589544619909895
 40
0.789766138829206
 40
0.8197046378477655
 40
0.849643205848775
 40
0.8804496517237705
 40
0.9112561300105883
 40
0.9552902389112932
 40
1.0
 40
1.0
 40
1.0
 40
1.0
 10
35.80620520492776
 20
4.258629804597692
 30
0.0
 10
36.05062223224914
 20
4.435140085293387
 30
0.0
 10
36.55171064798111
 20
4.797010360386448
 30
0.0
 10
37.30304527254142
 20
5.253629621941743
 30
0.0
 10
38.05811468423616
 20
5.643867653673107
 30
0.0
 10
38.81428142788819
 20
5.953637624553379
 30
0.0
 10
39.57665310039143
 20
6.181170259397064
 30
0.0
 10
40.3399999448509
 20
6.319266590744218
 30
0.0
 10
41.09555401406006
 20
6.365496885345325
 30
0.0
 10
41.85185062061723
 20
6.323315452384325
 30
0.0
 10
42.61504618055835
 20
6.188879865779906
 30
0.0
 10
43.37860425154444
 20
5.965248590344071
 30
0.0
 10
44.13495797268894
 20
5.657802211537425
 30
0.0
 10
44.8913883549776
 20
5.27165045534177
 30
0.0
 10
45.65537032107038
 20
4.805223603401494
 30
0.0
 10
46.41900950446582
 20
4.269178584201842
 30
0.0
 10
47.17594721850286
 20
3.677262495408531
 30
0.0
 10
47.93218906128504
 20
3.033565777952449
 30
0.0
 10
48.69658859207992
 20
2.340362355969267
 30
0.0
 10
49.45994885613727
 20
1.612513634517805
 30
0.0
 10
50.21715545665374
 20
0.8698768576283626
 30
0.0
 10
50.97292574159054
 20
0.1139162359808999
 30
0.0
 10
51.73729612714558
 20
-0.6497330431349345
 30
0.0
 10
52.50040093113317
 20
-1.404643354044917
 30
0.0
 10
53.25606697139806
 20
-2.131879336614617
 30
0.0
 10
54.01242968333619
 20
-2.828154033595846
 30
0.0
 10
54.77473412243712
 20
-3.491714431114529
 30
0.0
 10
55.53819335784745
 20
-4.103652923229276
 30
0.0
 10
56.29315736140143
 20
-4.651977226146432
 30
0.0
 10
57.04916123628003
 20
-5.134657933583575
 30
0.0
 10
57.81147324201642
 20
-5.548958099451235
 30
0.0
 10
58.69199503146622
 20
-5.931687918465028
 30
0.0
 10
59.68709899990397
 20
-6.241556337610994
 30
0.0
 10
60.42715485949909
 20
-6.309385405470222
 30
0.0
 10
60.79999999999999
 20
-6.343558147984353
 30
0.0
  0
SPLINE
  5
C7
330
1F
100
AcDbEntity
  8
0
  6
Continuous
 62
     1
370
    25
100
AcDbSpline
210
0.0
220
0.0
230
1.0
 70
     8
 71
     3
 72
    19
 73
    15
 74
     0
 42
0.000000001
 43
0.00000001
 40
0.0
 40
0.0
 40
0.0
 40
0.0
 40
0.0649842982167434
 40
0.1552124176396842
 40
0.2452896146278994
 40
0.3356221269575845
 40
0.4258357583898917
 40
0.5159158094526756
 40
0.6062590267363883
 40
0.6964588756007696
 40
0.7865424939444089
 40
0.8768950260339753
 40
0.9670817985550715
 40
0.9999999999999999
 40
0.9999999999999999
 40
0.9999999999999999
 40
0.9999999999999999
 10
51.687160663467
 20
-0.5984582716284395
 30
0.0
 10
51.42278281298327
 20
-0.4149829221039478
 30
0.0
 10
50.79132680791727
 20
0.0232406697243481
 30
0.0
 10
49.79356830037874
 20
0.7233979414494911
 30
0.0
 10
48.69387954936053
 20
1.473725653849556
 30
0.0
 10
47.59243606488747
 20
2.178016015130368
 30
0.0
 10
46.49180956870149
 20
2.81813659648922
 30
0.0
 10
45.39207823534561
 20
3.374676476758615
 30
0.0
 10
44.29056932426952
 20
3.828551734146774
 30
0.0
 10
43.19003311090212
 20
4.168145486219153
 30
0.0
 10
42.09028587521164
 20
4.385238190417408
 30
0.0
 10
40.98869005815894
 20
4.46192788689677
 30
0.0
 10
40.12078061512118
 20
4.442409041241631
 30
0.0
 10
39.62033007398765
 20
4.352773586746492
 30
0.0
 10
39.48650987813753
 20
4.328805116159001
 30
0.0
  0
SPLINE
  5
C8
330
1F
100
AcDbEntity
  8
0
  6
Continuous
 62
     1
370
    25
100
AcDbSpline
210
0.0
220
0.0
230
1.0
 70
     8
 71
     3
 72
     9
 73
     5
 74
     0
 42
0.000000001
 43
0.00000001
 40
0.0
 40
0.0
 40
0.0
 40
0.0
 40
0.2890128630329262
 40
1.0
 40
1.0
 40
1.0
 40
1.0
 10
11.78857059874703
 20
-0.5977937569757756
 30
0.0
 10
11.61618467601758
 20
-0.4788402008274397
 30
0.0
 10
11.0197201418082
 20
-0.0672545194843081
 30
0.0
 10
10.4237366187434
 20
0.3505685504837469
 30
0.0
 10
10.0
 20
0.6476353787591275
 30
0.0
  0
SPLINE
  5
C9
330
1F
100
AcDbEntity
  8
0
  6
Continuous
 62
     4
370
    25
100
AcDbSpline
210
0.0
220
0.0
230
1.0
 70
    24
 71
     3
 72
    10
 73
     6
 74
     0
 42
0.000000001
 43
0.00000001
 40
0.0
 40
0.0
 40
0.0
 40
0.0
 40
0.1894410875707815
 40
0.5886670066906302
 40
1.0
 40
1.0
 40
1.0
 40
1.0
 10
9.999999999999995
 20
1.111751329030656
 30
0.0
 10
9.999999999999995
 20
1.097090293028639
 30
0.0
 10
9.999999999999995
 20
1.051532762247118
 30
0.0
 10
10.0
 20
0.9010794375850094
 30
0.0
 10
9.999999999999993
 20
0.7329538122995439
 30
0.0
 10
9.999999999999988
 20
0.6476353787591329
 30
0.0
  0
SPLINE
  5
CA
330
1F
100
AcDbEntity
  8
0
  6
Continuous
 62
     1
370
    25
100
AcDbSpline
210
0.0
220
0.0
230
1.0
 70
     8
 71
     3
 72
    42
 73
    38
 74
     0
 42
0.000000001
 43
0.00000001
 40
0.0
 40
0.0
 40
0.0
 40
0.0
 40
0.0069341948369905
 40
0.0364807121483818
 40
0.0662333729009975
 40
0.0966315794434454
 40
0.1272546565179971
 40
0.1567897539688501
 40
0.1865307348581483
 40
0.2169169071833697
 40
0.2475271003918965
 40
0.2770777715974012
 40
0.3068342352532403
 40
0.3372358618413047
 40
0.3678616303023068
 40
0.3974339746396418
 40
0.4272126095738703
 40
0.4576370553398519
 40
0.4882864027798989
 40
0.5178639666732149
 40
0.5476481708178167
 40
0.5780783133019399
 40
0.6087336731028355
 40
0.638301440203128
 40
0.6680757005272766
 40
0.6984957777363406
 40
0.7291409678317046
 40
0.7586815461276032
 40
0.7884282304294072
 40
0.8188205376594446
 40
0.849437477021336
 40
0.8789709922806714
 40
0.9087102630357304
 40
0.9390944043051853
 40
0.9697024443189038
 40
0.9992583362321137
 40
1.0
 40
1.0
 40
1.0
 40
1.0
 10
15.86067958882355
 20
4.257973264689961
 30
0.0
 10
15.91899741666144
 20
4.302906098471295
 30
0.0
 10
16.22580677816418
 20
4.539297173963392
 30
0.0
 10
16.78390890133864
 20
4.908125010094198
 30
0.0
 10
17.5389480217963
 20
5.35811523193432
 30
0.0
 10
18.30221843633182
 20
5.731770810135397
 30
0.0
 10
19.06585759826818
 20
6.021808201693644
 30
0.0
 10
19.82059678818063
 20
6.224515908409921
 30
0.0
 10
20.57754990516561
 20
6.338980152298418
 30
0.0
 10
21.33872060088815
 20
6.364144687638115
 30
0.0
 10
22.10343089453301
 20
6.296907958351027
 30
0.0
 10
22.8577607121857
 20
6.139809017550356
 30
0.0
 10
23.6149753867399
 20
5.898207322897153
 30
0.0
 10
24.37733889391671
 20
5.567570585296446
 30
0.0
 10
25.14115191234865
 20
5.157833612493635
 30
0.0
 10
25.89800637012708
 20
4.67670618539597
 30
0.0
 10
26.65336352289551
 20
4.130998208843152
 30
0.0
 10
27.41913855267369
 20
3.520397256573958
 30
0.0
 10
28.1805302795918
 20
2.857487133060995
 30
0.0
 10
28.94018689019486
 20
2.161958939733911
 30
0.0
 10
29.69353001145986
 20
1.433570534209774
 30
0.0
 10
30.46092986894589
 20
0.6805579073091171
 30
0.0
 10
31.22137607871825
 20
-0.0856571116946252
 30
0.0
 10
31.98121636610873
 20
-0.8400558160491987
 30
0.0
 10
32.73466913683428
 20
-1.585064763242114
 30
0.0
 10
33.50087133249625
 20
-2.31268707820263
 30
0.0
 10
34.2624853919047
 20
-3.00727349059726
 30
0.0
 10
35.01976253474059
 20
-3.652397930250282
 30
0.0
 10
35.77517754976859
 20
-4.244552992746345
 30
0.0
 10
36.53779950551932
 20
-4.784122132199883
 30
0.0
 10
37.30170911727307
 20
-5.250952487856861
 30
0.0
 10
38.05607388294484
 20
-5.641899119930467
 30
0.0
 10
38.81314924900109
 20
-5.950101591382936
 30
0.0
 10
39.57417803780456
 20
-6.181226505319995
 30
0.0
 10
40.33900275310968
 20
-6.309894900928716
 30
0.0
 10
40.84966664801792
 20
-6.362836482625709
 30
0.0
 10
41.10490435304173
 20
-6.348205688199939
 30
0.0
 10
41.11115240024418
 20
-6.347847536201302
 30
0.0
  0
SPLINE
  5
CB
330
1F
100
AcDbEntity
  8
0
  6
Continuous
 62
     1
370
    25
100
AcDbSpline
210
0.0
220
0.0
230
1.0
 70
     8
 71
     3
 72
    13
 73
     9
 74
     0
 42
0.000000001
 43
0.00000001
 40
0.0
 40
0.0
 40
0.0
 40
0.0
 40
0.1052393855183114
 40
0.2542466662280542
 40
0.406483330667903
 40
0.5598412325113223
 40
0.7782450400476524
 40
1.0
 40
1.0
 40
1.0
 40
1.0
 10
55.76037469192252
 20
4.257747952691221
 30
0.0
 10
55.93681941507307
 20
4.38856328023464
 30
0.0
 10
56.36309026807756
 20
4.704598581615778
 30
0.0
 10
57.04800120802757
 20
5.13390014614752
 30
0.0
 10
57.80915839720378
 20
5.551931511336225
 30
0.0
 10
58.69159483408126
 20
5.933035565919574
 30
0.0
 10
59.68694151664734
 20
6.243853976338696
 30
0.0
 10
60.42710209931024
 20
6.311584772741498
 30
0.0
 10
60.79999999999999
 20
6.345708005432144
 30
0.0
  0
SPLINE
  5
CC
330
1F
100
AcDbEntity
  8
0
  6
Continuous
 62
     1
370
    25
100
AcDbSpline
210
0.0
220
0.0
230
1.0
 70
    24
 71
     3
 72
    10
 73
     6
 74
     0
 42
0.000000001
 43
0.00000001
 40
0.0
 40
0.0
 40
0.0
 40
0.0
 40
0.5
 40
0.5
 40
1.0
 40
1.0
 40
1.0
 40
1.0
 10
60.79999999999999
 20
4.446074928723898
 30
0.0
 10
60.79999999999999
 20
4.715519759450343
 30
0.0
 10
60.79999999999999
 20
5.028639606030094
 30
0.0
 10
60.79999999999999
 20
5.685564200825337
 30
0.0
 10
60.79999999999999
 20
6.027691246063255
 30
0.0
 10
60.79999999999999
 20
6.345708005432144
 30
0.0
  0
SPLINE
  5
CD
330
1F
100
AcDbEntity
  8
0
  6
Continuous
 62
     1
370
    25
100
AcDbSpline
210
0.0
220
0.0
230
1.0
 70
     8
 71
     3
 72
     9
 73
     5
 74
     0
 42
0.000000001
 43
0.00000001
 40
0.0
 40
0.0
 40
0.0
 40
0.0
 40
0.8072541918755318
 40
1.0
 40
1.0
 40
1.0
 40
1.0
 10
60.79999999999999
 20
4.446074928723898
 30
0.0
 10
60.43269325640982
 20
4.441550626086189
 30
0.0
 10
59.97768571691747
 20
4.435946068459554
 30
0.0
 10
59.52310950885114
 20
4.348906473816857
 30
0.0
 10
59.43549185027324
 20
4.332129956808624
 30
0.0
  0
SPLINE
  5
CE
330
1F
100
AcDbEntity
  8
0
  6
Continuous
 62
     1
370
    25
100
AcDbSpline
210
0.0
220
0.0
230
1.0
 70
     8
 71
     3
 72
    19
 73
    15
 74
     0
 42
0.000000001
 43
0.00000001
 40
0.0
 40
0.0
 40
0.0
 40
0.0
 40
0.0538106191882884
 40
0.1439611836056721
 40
0.2340649751552939
 40
0.3244396266559248
 40
0.4145799469688721
 40
0.5046908677798784
 40
0.5950678755610443
 40
0.685198661379965
 40
0.7753174227766685
 40
0.865695394282867
 40
0.9558173557738695
 40
1.0
 40
1.0
 40
1.0
 40
1.0
 10
31.73938554059123
 20
-0.5990416576636107
 30
0.0
 10
31.52040728832223
 20
-0.4476208513360412
 30
0.0
 10
30.93456812021601
 20
-0.0425201699042522
 30
0.0
 10
29.98295127216577
 20
0.6277267237874768
 30
0.0
 10
28.88307013453273
 20
1.38156190800824
 30
0.0
 10
27.78133593124223
 20
2.092252796624807
 30
0.0
 10
26.68119765537858
 20
2.742265038762822
 30
0.0
 10
25.58125560453446
 20
3.310115926105282
 30
0.0
 10
24.47950970050638
 20
3.777296386795412
 30
0.0
 10
23.37943207197517
 20
4.132337725430192
 30
0.0
 10
22.27944783956995
 20
4.365063891236018
 30
0.0
 10
21.17765766178703
 20
4.459758557446068
 30
0.0
 10
20.2645071465902
 20
4.44914460259802
 30
0.0
 10
19.71841409380196
 20
4.357784383152993
 30
0.0
 10
19.53876399962336
 20
4.32772930015262
 30
0.0
  0
LINE
  5
CF
330
1F
100
AcDbEntity
  8
0
  6
Continuous
 62
     1
370
    25
100
AcDbLine
 10
60.79999999999999
 20
-6.343558147984352
 30
0.0
 11
60.79999999999961
 21
-6.024699590898607
 31
0.0
  0
SPLINE
  5
D0
330
1F
100
AcDbEntity
  8
0
  6
Continuous
 62
     1
370
    25
100
AcDbSpline
210
0.0
220
0.0
230
1.0
 70
     8
 71
     3
 72
    14
 73
    10
 74
     0
 42
0.000000001
 43
0.00000001
 40
0.0
 40
0.0
 40
0.0
 40
0.0
 40
0.25
 40
0.25
 40
0.5
 40
0.5
 40
0.75
 40
0.75
 40
1.0
 40
1.0
 40
1.0
 40
1.0
 10
60.79999999999999
 20
-1.69591777856434
 30
0.0
 10
60.39339605261826
 20
-1.375442777314352
 30
0.0
 10
59.99126840355312
 20
-1.046621625457832
 30
0.0
 10
59.19590781788824
 20
-0.3723949467571858
 30
0.0
 10
58.80267090604143
 20
-0.0269968318434052
 30
0.0
 10
58.02613103676926
 20
0.6823214610498531
 30
0.0
 10
57.64057144125633
 20
1.048682046619653
 30
0.0
 10
56.90826047961392
 20
1.778384313140585
 30
0.0
 10
56.55853512561868
 20
2.144110529212449
 30
0.0
 10
56.22992703883075
 20
2.510961469259529
 30
0.0
  0
LINE
  5
D1
330
1F
100
AcDbEntity
  8
0
  6
Continuous
 62
     1
370
    25
100
AcDbLine
 10
56.35275512375333
 20
2.614026470018502
 30
0.0
 11
60.79999999999999
 21
0.0010749287238995
 31
0.0
  0
LINE
  5
D2
330
1F
100
AcDbEntity
  8
0
  6
Continuous
 62
     1
370
    25
100
AcDbLine
 10
60.79999999999999
 20
0.0010749287238995
 30
0.0
 11
60.79999999999999
 21
-1.695917778564345
 31
0.0
  0
SPLINE
  5
D3
330
1F
100
AcDbEntity
  8
0
  6
Continuous
 62
     1
370
    25
100
AcDbSpline
210
0.0
220
0.0
230
1.0
 70
     8
 71
     3
 72
    28
 73
    24
 74
     0
 42
0.000000001
 43
0.00000001
 40
0.0
 40
0.0
 40
0.0
 40
0.0
 40
0.045333028648695
 40
0.093463916918855
 40
0.1415481984885715
 40
0.1895562696951547
 40
0.2376932652722352
 40
0.2857702312218208
 40
0.3337797433129856
 40
0.3819221446580148
 40
0.4299921512227627
 40
0.4780034642659232
 40
0.5261505694650407
 40
0.574213973275077
 40
0.6222274472351825
 40
0.6703785540482662
 40
0.7184357121084312
 40
0.7664517068274974
 40
0.8146061127368313
 40
0.8626573824065211
 40
0.9106762575831749
 40
0.958833259842155
 40
1.0
 40
1.0
 40
1.0
 40
1.0
 10
53.03369312749056
 20
-4.770864683302649
 30
0.0
 10
52.68800552829789
 20
-4.854519126938065
 30
0.0
 10
51.97529521500291
 20
-5.026990991335741
 30
0.0
 10
50.89428441400918
 20
-5.102101613496954
 30
0.0
 10
49.7935126506985
 20
-5.037861246156845
 30
0.0
 10
48.69397932726123
 20
-4.818897462346865
 30
0.0
 10
47.5923796327274
 20
-4.457188305283032
 30
0.0
 10
46.49174418921505
 20
-3.961380887343286
 30
0.0
 10
45.39218390286709
 20
-3.345730593941985
 30
0.0
 10
44.29049925948517
 20
-2.631844789562959
 30
0.0
 10
43.18997520235966
 20
-1.837991072512801
 30
0.0
 10
42.09038719313885
 20
-0.9877420857138143
 30
0.0
 10
40.98862743456003
 20
-0.1106098572782168
 30
0.0
 10
39.88820935274818
 20
0.7715579813807327
 30
0.0
 10
38.788587645063
 20
1.631610939112433
 30
0.0
 10
37.68676398967032
 20
2.440156816000084
 30
0.0
 10
36.58644616838487
 20
3.177422578693859
 30
0.0
 10
35.4867845893773
 20
3.819998555222914
 30
0.0
 10
34.38490936797157
 20
4.346044996053733
 30
0.0
 10
33.2846818560091
 20
4.744342010296219
 30
0.0
 10
32.18499003774311
 20
4.996293891623513
 30
0.0
 10
31.13557779754381
 20
5.107695454031536
 30
0.0
 10
30.45426090265092
 20
5.059772215973926
 30
0.0
 10
30.1402615692338
 20
5.037685775848815
 30
0.0
  0
SPLINE
  5
D4
330
1F
100
AcDbEntity
  8
0
  6
Continuous
 62
     1
370
    25
100
AcDbSpline
210
0.0
220
0.0
230
1.0
 70
     8
 71
     3
 72
    10
 73
     6
 74
     0
 42
0.000000001
 43
0.00000001
 40
0.0
 40
0.0
 40
0.0
 40
0.0
 40
0.2426504546269268
 40
0.5943729463794319
 40
1.0
 40
1.0
 40
1.0
 40
1.0
 10
13.13503127448867
 20
-4.759646552246728
 30
0.0
 10
12.88160790670237
 20
-4.827902768110169
 30
0.0
 10
12.2608466803361
 20
-4.995096553894912
 30
0.0
 10
11.21479788205975
 20
-5.107414798912537
 30
0.0
 10
10.42370146232589
 20
-5.053677471341008
 30
0.0
 10
10.0
 20
-5.024896423031875
 30
0.0
  0
SPLINE
  5
D5
330
1F
100
AcDbEntity
  8
0
  6
Continuous
 62
     1
370
    25
100
AcDbSpline
210
0.0
220
0.0
230
1.0
 70
     8
 71
     3
 72
    13
 73
     9
 74
     0
 42
0.000000001
 43
0.00000001
 40
0.0
 40
0.0
 40
0.0
 40
0.0
 40
0.1939841702424854
 40
0.3882354675956037
 40
0.5522402917042929
 40
0.7159553736552038
 40
0.8800929761198673
 40
1.0
 40
1.0
 40
1.0
 40
1.0
 10
56.80308316176175
 20
2.99189655953024
 30
0.0
 10
56.36903758263542
 20
3.26063315632603
 30
0.0
 10
55.50034871921287
 20
3.798476415323122
 30
0.0
 10
54.263626915671
 20
4.379067665834725
 30
0.0
 10
53.09528681323213
 20
4.784708783855392
 30
0.0
 10
51.99579398845745
 20
5.017023939413091
 30
0.0
 10
50.99289501691472
 20
5.109363119217397
 30
0.0
 10
50.35732656606965
 20
5.055011950661545
 30
0.0
 10
50.08902674855988
 20
5.032068066984515
 30
0.0
  0
SPLINE
  5
D6
330
1F
100
AcDbEntity
  8
0
  6
Continuous
 62
     1
370
    25
100
AcDbSpline
210
0.0
220
0.0
230
1.0
 70
     8
 71
     3
 72
    28
 73
    24
 74
     0
 42
0.000000001
 43
0.00000001
 40
0.0
 40
0.0
 40
0.0
 40
0.0
 40
0.0398276802494769
 40
0.0885866819564475
 40
0.137233029501035
 40
0.1858554579260256
 40
0.2346163767251276
 40
0.283257486918309
 40
0.3318835596807693
 40
0.3806456837250986
 40
0.4292819193476758
 40
0.4779120000830852
 40
0.5266746174421015
 40
0.5753063415518682
 40
0.6239407936678518
 40
0.6727031923767803
 40
0.7213307682879461
 40
0.7699699549436583
 40
0.8187314230528976
 40
0.8673552143154827
 40
0.9159994984010215
 40
0.9647593240255496
 40
1.0
 40
1.0
 40
1.0
 40
1.0
 10
33.08582608856746
 20
-4.763745706965602
 30
0.0
 10
32.78585653560678
 20
-4.840738657363805
 30
0.0
 10
32.11864952735795
 20
-5.011990158005842
 30
0.0
 10
31.08305685449098
 20
-5.099037757331486
 30
0.0
 10
29.9829265816045
 20
-5.054763939906933
 30
0.0
 10
28.88316728046359
 20
-4.854309079443285
 30
0.0
 10
27.78121965838125
 20
-4.510498152853006
 30
0.0
 10
26.6811674009338
 20
-4.030312151483758
 30
0.0
 10
25.58135220283102
 20
-3.428850443727173
 30
0.0
 10
24.47938524015973
 20
-2.726748481823781
 30
0.0
 10
23.37941001651868
 20
-1.940908514934275
 30
0.0
 10
22.27953177600374
 20
-1.096580376587611
 30
0.0
 10
21.17755704271849
 20
-0.2220126948308287
 30
0.0
 10
20.07765293188682
 20
0.6618607166566377
 30
0.0
 10
18.97770582064979
 20
1.525814692368217
 30
0.0
 10
17.87573457599925
 20
2.341707132520547
 30
0.0
 10
16.77589558124591
 20
3.089932061485519
 30
0.0
 10
15.67587436111002
 20
3.745260281892772
 30
0.0
 10
14.57391559917567
 20
4.28642143171833
 30
0.0
 10
13.47414417543214
 20
4.702676763644232
 30
0.0
 10
12.37401202125213
 20
4.970561418349831
 30
0.0
 10
11.37314852720449
 20
5.101834590253361
 30
0.0
 10
10.74018069450273
 20
5.061385020894205
 30
0.0
 10
10.47463211003138
 20
5.044415239286265
 30
0.0
  0
SPLINE
  5
D7
330
1F
100
AcDbEntity
  8
0
  6
Continuous
 62
     1
370
    25
100
AcDbSpline
210
0.0
220
0.0
230
1.0
 70
    24
 71
     3
 72
     8
 73
     4
 74
     0
 42
0.000000001
 43
0.00000001
 40
0.0
 40
0.0
 40
0.0
 40
0.0
 40
0.0007770953413342
 40
0.0007770953413342
 40
0.0007770953413342
 40
0.0007770953413342
 10
56.80308316102736
 20
2.991896560003932
 30
0.0
 10
56.61207862499013
 20
2.8316247242619
 30
0.0
 10
56.42101687863807
 20
2.671304883365742
 30
0.0
 10
56.2299270388222
 20
2.510961469254515
 30
0.0
  0
SPLINE
  5
D8
330
1F
100
AcDbEntity
  8
0
  6
Continuous
 62
     1
370
    25
100
AcDbSpline
210
0.0
220
0.0
230
1.0
 70
    24
 71
     3
 72
    10
 73
     6
 74
     0
 42
0.000000001
 43
0.00000001
 40
0.0
 40
0.0
 40
0.0
 40
0.0
 40
0.4999999999999998
 40
0.4999999999999998
 40
1.0
 40
1.0
 40
1.0
 40
1.0
 10
60.79999999999999
 20
-5.008898950014271
 30
0.0
 10
60.79999999999998
 20
-4.624845391450262
 30
0.0
 10
60.79999999999999
 20
-4.139578994082174
 30
0.0
 10
60.79999999999999
 20
-3.011381321882916
 30
0.0
 10
60.80000000000002
 20
-2.369427334651916
 30
0.0
 10
60.8
 20
-1.695917778564545
 30
0.0
  0
SPLINE
  5
D9
330
1F
100
AcDbEntity
  8
0
  6
Continuous
 62
     4
370
    25
100
AcDbSpline
210
0.0
220
0.0
230
1.0
 70
    24
 71
     3
 72
    13
 73
     9
 74
     0
 42
0.000000001
 43
0.00000001
 40
0.0
 40
0.0
 40
0.0
 40
0.0
 40
0.0561787561348081
 40
0.198339190374861
 40
0.4132638275231015
 40
0.6344212937086713
 40
0.8339370507328219
 40
1.0
 40
1.0
 40
1.0
 40
1.0
 10
9.999999999999991
 20
5.016056461532265
 30
0.0
 10
9.99999999999999
 20
5.01496412165224
 30
0.0
 10
9.999999999999984
 20
5.011107613920061
 30
0.0
 10
9.999999999999988
 20
4.89795419055633
 30
0.0
 10
9.999999999999986
 20
4.625122528886669
 30
0.0
 10
9.999999999999986
 20
4.130302757696764
 30
0.0
 10
9.999999999999986
 20
3.539745617574543
 30
0.0
 10
9.999999999999986
 20
3.071911950729507
 30
0.0
 10
9.999999999999986
 20
2.859400015144138
 30
0.0
  0
SPLINE
  5
DA
330
1F
100
AcDbEntity
  8
0
  6
Continuous
 62
     4
370
    25
100
AcDbSpline
210
0.0
220
0.0
230
1.0
 70
    24
 71
     3
 72
    14
 73
    10
 74
     0
 42
0.000000001
 43
0.00000001
 40
0.0
 40
0.0
 40
0.0
 40
0.0
 40
0.2499999999999999
 40
0.2499999999999999
 40
0.4999999999999999
 40
0.4999999999999999
 40
0.7499999999999999
 40
0.7499999999999999
 40
1.0
 40
1.0
 40
1.0
 40
1.0
 10
9.999999999999991
 20
0.6476353787591335
 30
0.0
 10
9.999999999999991
 20
0.086445066323416
 30
0.0
 10
9.999999999999991
 20
-0.4880425493325446
 30
0.0
 10
9.999999999999991
 20
-1.609490254698021
 30
0.0
 10
9.999999999999991
 20
-2.155851636479045
 30
0.0
 10
9.999999999999991
 20
-3.164024083046149
 30
0.0
 10
9.999999999999991
 20
-3.625297951402804
 30
0.0
 10
9.999999999999991
 20
-4.422534738296013
 30
0.0
 10
9.999999999999991
 20
-4.758354320632677
 30
0.0
 10
9.999999999999991
 20
-5.024896423031874
 30
0.0
  0
SPLINE
  5
DB
330
1F
100
AcDbEntity
  8
0
  6
Continuous
 62
     1
370
    25
100
AcDbSpline
210
0.0
220
0.0
230
1.0
 70
    24
 71
     3
 72
     8
 73
     4
 74
     0
 42
0.000000001
 43
0.00000001
 40
0.0
 40
0.0
 40
0.0
 40
0.0
 40
1.0
 40
1.0
 40
1.0
 40
1.0
 10
57.4763692667785
 20
3.556850683016512
 30
0.0
 10
57.27368842038037
 20
3.386781259557139
 30
0.0
 10
57.04708561047551
 20
3.196638925342247
 30
0.0
 10
56.80308316102735
 20
2.991896560003935
 30
0.0
  0
SPLINE
  5
DC
330
1F
100
AcDbEntity
  8
0
  6
Continuous
 62
     1
370
    25
100
AcDbSpline
210
0.0
220
0.0
230
1.0
 70
     8
 71
     3
 72
     8
 73
     4
 74
     0
 42
0.000000001
 43
0.00000001
 40
0.0
 40
0.0
 40
0.0
 40
0.0
 40
1.0
 40
1.0
 40
1.0
 40
1.0
 10
60.79999999999999
 20
4.446074928723898
 30
0.0
 10
59.7041570212935
 20
4.077617353544919
 30
0.0
 10
58.59527622082203
 20
3.774886447828998
 30
0.0
 10
57.4763692667753
 20
3.556850683013817
 30
0.0
  0
LINE
  5
DD
330
1F
100
AcDbEntity
  8
0
  6
Continuous
 62
     1
370
    25
100
AcDbLine
 10
60.79999999999999
 20
0.0010749287238995
 30
0.0
 11
60.79999999999999
 21
4.446074928723897
 31
0.0
  0
LINE
  5
DE
330
1F
100
AcDbEntity
  8
중심선
100
AcDbLine
 10
-43.79999999999999
 20
0.0010749287238931
 30
0.0
 11
63.79999999999999
 21
0.0010749287238997
 31
0.0
  0
CIRCLE
  5
DF
330
1F
100
AcDbEntity
  8
외형선
100
AcDbCircle
 10
0.0000000000000087
 20
0.0
 30
0.0
 40
3.000000000000004
  0
INSERT
  5
E0
330
1F
100
AcDbEntity
  8
0
  6
Continuous
 62
     7
100
AcDbBlockReference
 66
     1
  2
블럭10
 10
-16.6381869743017
 20
-52.04609937292004
 30
0.0
  0
ATTRIB
  5
E1
330
E0
100
AcDbEntity
  8
FORMAT
 62
     2
100
AcDbText
 10
-25.81948226304298
 20
-49.97073246008785
 30
0.0
 40
4.233333333333333
  1
E5253901 [ 2 FLUTE ]
 41
0.75
  7
SLDTEXTSTYLE0
 11
-25.81948226304298
 21
-52.08739912675452
 31
0.0
100
AcDbAttribute
  2
AUTOATTR0
 70
     0
 74
     1
  0
SEQEND
  5
E2
330
E0
100
AcDbEntity
  8
0
  6
Continuous
 62
     7
  0
HATCH
  5
E3
330
1F
100
AcDbEntity
  8
중심선
100
AcDbHatch
 10
0.0
 20
0.0
 30
0.0
210
0.0
220
0.0
230
1.0
  2
SOLID
 70
     1
 71
     0
 91
        1
 92
        0
 93
        4
 72
     1
 10
-10.92327766992085
 20
-35.7989250712761
 11
-14.36955291375813
 21
-35.7989250712761
 72
     1
 10
-14.36955291375813
 20
-35.7989250712761
 11
-16.49778277296215
 21
-38.3352506518487
 72
     1
 10
-16.49778277296215
 20
-38.3352506518487
 11
-13.05147444401172
 21
-38.33521122254621
 72
     1
 10
-13.05147444401172
 20
-38.33521122254621
 11
-10.92327766992085
 21
-35.7989250712761
 97
        0
 75
     0
 76
     1
 98
        1
 10
0.0
 20
0.0
  0
HATCH
  5
E4
330
1F
100
AcDbEntity
  8
중심선
100
AcDbHatch
 10
0.0
 20
0.0
 30
0.0
210
0.0
220
0.0
230
1.0
  2
SOLID
 70
     1
 71
     0
 91
        1
 92
        0
 93
        4
 72
     1
 10
-5.910513678884898
 20
-35.7989250712761
 11
-9.356788922722181
 21
-35.7989250712761
 72
     1
 10
-9.356788922722181
 20
-35.7989250712761
 11
-13.88792693107957
 21
-41.19892507127612
 72
     1
 10
-13.88792693107957
 20
-41.19892507127612
 11
-10.44165168724229
 21
-41.19892507127612
 72
     1
 10
-10.44165168724229
 20
-41.19892507127612
 11
-5.910513678884898
 21
-35.7989250712761
 97
        0
 75
     0
 76
     1
 98
        1
 10
0.0
 20
0.0
  0
HATCH
  5
E5
330
1F
100
AcDbEntity
  8
중심선
100
AcDbHatch
 10
0.0
 20
0.0
 30
0.0
210
0.0
220
0.0
230
1.0
  2
SOLID
 70
     1
 71
     0
 91
        1
 92
        0
 93
        4
 72
     1
 10
-0.8977496878490032
 20
-35.79892507127613
 11
-4.344024931686119
 21
-35.7989250712761
 72
     1
 10
-4.344024931686119
 20
-35.7989250712761
 11
-11.39246183357537
 21
-44.19892507127612
 72
     1
 10
-11.39246183357537
 20
-44.19892507127612
 11
-7.946186589738086
 21
-44.19892507127612
 72
     1
 10
-7.946186589738086
 20
-44.19892507127612
 11
-0.8977496878490028
 21
-35.79892507127613
 97
        0
 75
     0
 76
     1
 98
        1
 10
0.0
 20
0.0
  0
HATCH
  5
E6
330
1F
100
AcDbEntity
  8
중심선
100
AcDbHatch
 10
0.0
 20
0.0
 30
0.0
210
0.0
220
0.0
230
1.0
  2
SOLID
 70
     1
 71
     0
 91
        1
 92
        0
 93
        6
 72
     3
 10
3.902140743163196
 20
-39.99892507132738
 11
3.960054785062284
 21
1.540850780301639E-10
 40
0.3939339440162633
 50
17.09539180608433
 51
320.0019657685079
 73
     0
 72
     1
 10
5.585140398863792
 20
-38.58681907591441
 11
7.89044227256483
 21
-36.65249236586649
 72
     3
 10
3.902140743110349
 20
-39.99892507127625
 11
6.600054785286829
 21
-1.249000902703301E-13
 40
0.6363583540795982
 50
39.99873849337408
 51
368.4976242363724
 73
     1
 72
     1
 10
10.32747323501096
 20
-39.03892507120613
 11
2.582208049946273
 21
-39.0389250712061
 72
     1
 10
2.582208049946272
 20
-39.0389250712061
 11
2.582183005500338
 21
-40.95892507120602
 72
     1
 10
2.582183005500338
 20
-40.95892507120602
 11
7.023562774972376
 21
-40.95892507120599
 97
        0
 75
     0
 76
     1
 98
        1
 10
0.0
 20
0.0
  0
DIMENSION
  5
E7
330
1F
100
AcDbEntity
  8
치수문자_일반주서
100
AcDbDimension
  2
_D
 10
-40.8
 20
41.93589146707809
 30
0.0
 11
9.999999999999993
 21
41.93589146707809
 31
0.0
 70
   160
  1
<>
 71
     2
 42
101.6
  3
SLDDIMSTYLE0
100
AcDbAlignedDimension
 13
60.79999999999999
 23
6.345708005432144
 33
0.0
 14
-40.8
 24
5.351074928723885
 34
0.0
100
AcDbRotatedDimension
1001
ACAD
1000
DSTYLE
1002
{
1070
   171
1070
     6
1070
   273
1070
     7
1002
}
  0
DIMENSION
  5
FB
330
1F
100
AcDbEntity
  8
치수문자_일반주서
100
AcDbDimension
  2
_D_1
 10
-53.61
 20
-6.348925071276149
 30
0.0
 11
-53.61000000000002
 21
0.0010749287238906
 31
0.0
 70
   160
  1
%%c<>
 71
     2
 42
12.69999999999999
  3
SLDDIMSTYLE1
100
AcDbAlignedDimension
 13
-39.80000000000002
 23
6.351074928723888
 33
0.0
 14
-39.80000000000002
 24
-6.348925071276101
 34
0.0
 50
90.0000000000002
100
AcDbRotatedDimension
1001
ACAD
1000
DSTYLE
1002
{
1070
   171
1070
     6
1070
   273
1070
     7
1002
}
  0
DIMENSION
  5
110
330
1F
100
AcDbEntity
  8
치수문자_일반주서
100
AcDbDimension
  2
_D_2
 10
10.0
 20
26.58232551893264
 30
0.0
 11
35.39999999999999
 21
26.58232551893264
 31
0.0
 70
   160
  1
<>
 71
     2
 42
50.79999999999999
  3
SLDDIMSTYLE0
100
AcDbAlignedDimension
 13
60.79999999999999
 23
6.345708005432144
 33
0.0
 14
9.999999999999998
 24
5.027046280479662
 34
0.0
 50
0.000000000000016
100
AcDbRotatedDimension
1001
ACAD
1000
DSTYLE
1002
{
1070
   171
1070
     6
1070
   273
1070
     7
1002
}
  0
DIMENSION
  5
123
330
1F
100
AcDbEntity
  8
치수문자_일반주서
100
AcDbDimension
  2
_D_3
 10
81.00935371504384
 20
-6.343558147984282
 30
0.0
 11
81.00935371504374
 21
23.21020800543221
 31
0.0
 70
   160
  1
%%c<>
 71
     2
 42
12.6892661534165
  3
SLDDIMSTYLE2
100
AcDbAlignedDimension
 13
60.79999999999999
 23
6.345708005432144
 33
0.0
 14
60.79999999999999
 24
-6.343558147984352
 34
0.0
 50
90.0000000000002
100
AcDbRotatedDimension
1001
ACAD
1000
DSTYLE
1002
{
1070
   171
1070
     6
1070
   273
1070
     7
1002
}
  0
INSERT
  5
13D
330
1F
100
AcDbEntity
  8
외형선
100
AcDbBlockReference
  2
SW_DOWELSYMBOL_0
 10
0.0000000000000087
 20
0.0
 30
0.0
  0
LINE
  5
2BE
330
1F
100
AcDbEntity
  8
0
  6
Continuous
 62
     4
370
    15
100
AcDbLine
 10
-23.76612499999996
 20
4.827074928723874
 30
0.0
 11
-12.59012500000009
 21
4.827074928723874
 31
0.0
  0
LINE
  5
2BF
330
1F
100
AcDbEntity
  8
0
  6
Continuous
 62
     4
370
    15
100
AcDbLine
 10
-23.76612499999996
 20
4.827074928723874
 30
0.0
 11
-25.29012499999996
 21
6.351074928723875
 31
0.0
  0
LINE
  5
2C0
330
1F
100
AcDbEntity
  8
0
  6
Continuous
 62
     4
370
    15
100
AcDbLine
 10
-12.59012499999997
 20
4.827074928723874
 30
0.0
 11
-11.06612499999997
 21
6.351074928723875
 31
0.0
  0
LINE
  5
2C1
330
1F
100
AcDbEntity
  8
0
  6
Continuous
 62
     4
370
    25
100
AcDbLine
 10
-25.29012499999998
 20
6.351074928723891
 30
0.0
 11
-39.8
 21
6.35107492872389
 31
0.0
  0
ENDSEC
  0
SECTION
  2
OBJECTS
  0
DICTIONARY
  5
C
330
0
100
AcDbDictionary
281
     1
  3
ACAD_GROUP
350
D
  3
ACAD_IMAGE_VARS
350
161
  3
ACAD_LAYOUT
350
1A
  3
ACAD_MLINESTYLE
350
17
  3
ACAD_PLOTSETTINGS
350
19
  3
ACAD_PLOTSTYLENAME
350
E
  3
ACAD_SCALELIST
350
47
  3
APPDATA
350
15F
  3
DWGPROPS
350
2C5
  0
DICTIONARY
  5
214
330
2
100
AcDbDictionary
280
     1
281
     1
  3
ACAD_LAYERSTATES
360
215
  0
DICTIONARY
  5
2C2
330
1F
100
AcDbDictionary
280
     1
281
     1
  3
ACAD_SORTENTS
360
2C3
  3
DIM_BOUNDING_BOXES_V1
360
2C4
  0
DICTIONARY
  5
D
102
{ACAD_REACTORS
330
C
102
}
330
C
100
AcDbDictionary
281
     1
  0
RASTERVARIABLES
  5
161
102
{ACAD_REACTORS
330
C
102
}
330
C
100
AcDbRasterVariables
 90
        0
 70
     1
 71
     1
 72
     1
  0
DICTIONARY
  5
1A
102
{ACAD_REACTORS
330
C
102
}
330
C
100
AcDbDictionary
281
     1
  3
Layout1
350
1E
  3
Layout2
350
26
  3
Model
350
22
  0
DICTIONARY
  5
17
102
{ACAD_REACTORS
330
C
102
}
330
C
100
AcDbDictionary
281
     1
  3
Standard
350
18
  0
DICTIONARY
  5
19
102
{ACAD_REACTORS
330
C
102
}
330
C
100
AcDbDictionary
281
     1
  0
ACDBDICTIONARYWDFLT
  5
E
102
{ACAD_REACTORS
330
C
102
}
330
C
100
AcDbDictionary
281
     1
  3
Normal
350
F
100
AcDbDictionaryWithDefault
340
F
  0
DICTIONARY
  5
47
102
{ACAD_REACTORS
330
C
102
}
330
C
100
AcDbDictionary
281
     1
  3
A0
350
48
  3
A1
350
49
  3
A2
350
4A
  3
A3
350
4B
  3
A4
350
4C
  3
A5
350
4D
  3
A6
350
4E
  3
A7
350
4F
  3
A8
350
50
  3
A9
350
51
  3
B0
350
52
  3
B1
350
53
  3
B2
350
54
  3
B3
350
55
  3
B4
350
56
  3
B5
350
57
  3
B6
350
58
  3
B7
350
59
  3
B8
350
5A
  3
B9
350
5B
  3
C0
350
5C
  3
C1
350
5D
  3
C2
350
5E
  3
C3
350
5F
  3
C4
350
60
  3
C5
350
61
  3
C6
350
62
  3
C7
350
63
  3
C8
350
64
  3
C9
350
65
  3
D0
350
66
  3
D1
350
67
  3
D2
350
68
  0
DICTIONARY
  5
15F
102
{ACAD_REACTORS
330
C
102
}
330
C
100
AcDbDictionary
281
     1
  0
XRECORD
  5
2C5
102
{ACAD_REACTORS
330
C
102
}
330
C
100
AcDbXrecord
280
     1
  1
DWGPROPS COOKIE
  2

  3

  4

  6

  7

  8
12016016
  9

300
=
301
=
302
=
303
=
304
=
305
=
306
=
307
=
308
=
309
=
 40
0.0
 41
2458263.244621157
 42
2459730.970539445
  1

 90
        0
  0
DICTIONARY
  5
215
102
{ACAD_REACTORS
330
214
102
}
330
214
100
AcDbDictionary
281
     1
  0
SORTENTSTABLE
  5
2C3
102
{ACAD_REACTORS
330
2C2
102
}
330
2C2
100
AcDbSortentsTable
330
1F
331
9A
  5
9B
331
9B
  5
9C
331
9C
  5
9D
331
9D
  5
9E
331
9E
  5
9F
331
9F
  5
A0
331
A0
  5
A1
331
A1
  5
A2
331
A2
  5
A3
331
A3
  5
A4
331
A4
  5
A5
331
A5
  5
A6
331
A6
  5
A7
331
A7
  5
A8
331
A8
  5
A9
331
A9
  5
AA
331
AA
  5
AB
331
AB
  5
AC
331
AC
  5
AD
331
AD
  5
AE
331
AE
  5
AF
331
AF
  5
B0
331
B0
  5
B1
331
B1
  5
B2
331
B2
  5
B3
331
B3
  5
B4
331
B4
  5
B5
331
B5
  5
B6
331
B6
  5
B7
331
B7
  5
B8
331
B8
  5
B9
331
B9
  5
BA
331
BA
  5
BB
331
BB
  5
BC
331
BC
  5
BD
331
BD
  5
BE
331
BE
  5
BF
331
BF
  5
C0
331
C0
  5
C1
331
C1
  5
C2
331
C2
  5
C3
331
C3
  5
C4
331
C4
  5
C5
331
C5
  5
C6
331
C6
  5
C7
331
C7
  5
C8
331
C8
  5
C9
331
C9
  5
CA
331
CA
  5
CB
331
CB
  5
CC
331
CC
  5
CD
331
CD
  5
CE
331
CE
  5
CF
331
CF
  5
D0
331
D0
  5
D1
331
D1
  5
D2
331
D2
  5
D3
331
D3
  5
D4
331
D4
  5
D5
331
D5
  5
D6
331
D6
  5
D7
331
D7
  5
D8
331
D8
  5
D9
331
D9
  5
DA
331
DA
  5
DB
331
DB
  5
DC
331
DC
  5
DD
331
DD
  5
DE
331
DE
  5
DF
331
DF
  5
E0
331
E0
  5
E3
331
E3
  5
E4
331
E4
  5
E5
331
E5
  5
E6
331
E6
  5
E7
331
E7
  5
FB
331
FB
  5
110
331
110
  5
123
331
123
  5
13D
331
13D
  5
249
331
0
  5
24A
331
0
  5
24B
331
0
  5
24C
331
0
  5
24D
331
0
  5
24E
331
0
  5
24F
331
0
  5
250
331
0
  5
251
331
0
  5
252
331
0
  5
253
331
0
  5
254
331
0
  5
255
331
0
  5
256
331
0
  5
257
331
0
  5
258
331
0
  5
259
331
0
  5
25A
331
0
  5
25B
331
0
  5
25C
331
0
  5
25D
331
0
  5
25E
331
0
  5
25F
331
0
  5
260
331
0
  5
261
331
0
  5
262
331
0
  5
263
331
0
  5
264
331
0
  5
265
331
0
  5
266
331
0
  5
267
331
0
  5
268
331
0
  5
269
331
0
  5
26A
331
0
  5
26B
331
0
  5
26C
331
0
  5
26D
331
0
  5
26E
331
0
  5
26F
331
0
  5
270
331
0
  5
271
331
0
  5
272
331
0
  5
273
331
0
  5
274
331
0
  5
275
331
0
  5
276
331
0
  5
277
331
0
  5
278
331
0
  5
279
331
0
  5
27A
331
0
  5
27B
331
0
  5
27C
331
0
  5
27D
331
0
  5
27E
331
0
  5
27F
331
0
  5
280
331
0
  5
281
331
0
  5
282
331
0
  5
283
331
0
  5
284
331
0
  5
285
331
0
  5
286
331
0
  5
287
331
0
  5
288
331
0
  5
289
331
0
  5
28A
331
0
  5
28B
331
0
  5
28C
331
0
  5
2BE
331
2BE
  5
2BF
331
2BF
  5
2C0
331
2C0
  5
2C1
331
2C1
  5
9A
  0
DICTIONARY
  5
2C4
102
{ACAD_REACTORS
330
2C2
102
}
330
2C2
100
AcDbDictionary
281
     1
  0
LAYOUT
  5
1E
102
{ACAD_REACTORS
330
1A
102
}
330
1A
100
AcDbPlotSettings
  1

  2
none_device
  4

  6

 40
0.0
 41
0.0
 42
0.0
 43
0.0
 44
0.0
 45
0.0
 46
0.0
 47
0.0
 48
0.0
 49
0.0
140
0.0
141
0.0
142
1.0
143
1.0
 70
   688
 72
     1
 73
     0
 74
     5
  7

 75
    16
147
1.0
148
0.0
149
0.0
100
AcDbLayout
  1
Layout1
 70
     1
 71
     1
 10
0.0
 20
0.0
 11
420.0
 21
297.0
 12
0.0
 22
0.0
 32
0.0
 14
1.000000000000000E+20
 24
1.000000000000000E+20
 34
1.000000000000000E+20
 15
-1.000000000000000E+20
 25
-1.000000000000000E+20
 35
-1.000000000000000E+20
146
0.0
 13
0.0
 23
0.0
 33
0.0
 16
1.0
 26
0.0
 36
0.0
 17
0.0
 27
1.0
 37
0.0
 76
     0
330
1B
  0
LAYOUT
  5
26
102
{ACAD_REACTORS
330
1A
102
}
330
1A
100
AcDbPlotSettings
  1

  2
none_device
  4

  6

 40
0.0
 41
0.0
 42
0.0
 43
0.0
 44
0.0
 45
0.0
 46
0.0
 47
0.0
 48
0.0
 49
0.0
140
0.0
141
0.0
142
1.0
143
1.0
 70
   688
 72
     1
 73
     0
 74
     5
  7

 75
    16
147
1.0
148
0.0
149
0.0
100
AcDbLayout
  1
Layout2
 70
     1
 71
     2
 10
0.0
 20
0.0
 11
0.0
 21
0.0
 12
0.0
 22
0.0
 32
0.0
 14
0.0
 24
0.0
 34
0.0
 15
0.0
 25
0.0
 35
0.0
146
0.0
 13
0.0
 23
0.0
 33
0.0
 16
1.0
 26
0.0
 36
0.0
 17
0.0
 27
1.0
 37
0.0
 76
     0
330
23
  0
LAYOUT
  5
22
102
{ACAD_REACTORS
330
1A
102
}
330
1A
100
AcDbPlotSettings
  1

  2
none_device
  4
ANSI_A_(11.00_x_8.50_Inches)
  6

 40
6.35
 41
19.05
 42
6.35000508
 43
19.05000254
 44
279.4
 45
215.9
 46
116.7186832142453
 47
86.99747595345553
 48
0.0
 49
0.0
140
0.0
141
0.0
142
0.0743790296482818
143
1.0
 70
  1696
 72
     0
 73
     0
 74
     0
  7

 75
     0
147
0.0235690232323232
148
0.0
149
0.0
100
AcDbLayout
  1
Model
 70
     1
 71
     0
 10
0.0
 20
0.0
 11
420.0
 21
297.0
 12
0.0
 22
0.0
 32
0.0
 14
-57.98500000000006
 24
-49.97073246008785
 34
0.0
 15
81.55968704837716
 25
46.3108914670781
 35
0.0
146
0.0
 13
0.0
 23
0.0
 33
0.0
 16
1.0
 26
0.0
 36
0.0
 17
0.0
 27
1.0
 37
0.0
 76
     0
330
1F
331
29
  0
MLINESTYLE
  5
18
102
{ACAD_REACTORS
330
17
102
}
330
17
100
AcDbMlineStyle
  2
Standard
 70
     0
  3

 62
   256
 51
90.0
 52
90.0
 71
     2
 49
0.5
 62
   256
  6
BYLAYER
 49
-0.5
 62
   256
  6
BYLAYER
  0
ACDBPLACEHOLDER
  5
F
102
{ACAD_REACTORS
330
E
102
}
330
E
  0
SCALE
  5
48
102
{ACAD_REACTORS
330
47
102
}
330
47
100
AcDbScale
 70
     0
300
1:1
140
1.0
141
1.0
290
     1
  0
SCALE
  5
49
102
{ACAD_REACTORS
330
47
102
}
330
47
100
AcDbScale
 70
     0
300
1:2
140
1.0
141
2.0
290
     0
  0
SCALE
  5
4A
102
{ACAD_REACTORS
330
47
102
}
330
47
100
AcDbScale
 70
     0
300
1:4
140
1.0
141
4.0
290
     0
  0
SCALE
  5
4B
102
{ACAD_REACTORS
330
47
102
}
330
47
100
AcDbScale
 70
     0
300
1:5
140
1.0
141
5.0
290
     0
  0
SCALE
  5
4C
102
{ACAD_REACTORS
330
47
102
}
330
47
100
AcDbScale
 70
     0
300
1:8
140
1.0
141
8.0
290
     0
  0
SCALE
  5
4D
102
{ACAD_REACTORS
330
47
102
}
330
47
100
AcDbScale
 70
     0
300
1:10
140
1.0
141
10.0
290
     0
  0
SCALE
  5
4E
102
{ACAD_REACTORS
330
47
102
}
330
47
100
AcDbScale
 70
     0
300
1:16
140
1.0
141
16.0
290
     0
  0
SCALE
  5
4F
102
{ACAD_REACTORS
330
47
102
}
330
47
100
AcDbScale
 70
     0
300
1:20
140
1.0
141
20.0
290
     0
  0
SCALE
  5
50
102
{ACAD_REACTORS
330
47
102
}
330
47
100
AcDbScale
 70
     0
300
1:30
140
1.0
141
30.0
290
     0
  0
SCALE
  5
51
102
{ACAD_REACTORS
330
47
102
}
330
47
100
AcDbScale
 70
     0
300
1:40
140
1.0
141
40.0
290
     0
  0
SCALE
  5
52
102
{ACAD_REACTORS
330
47
102
}
330
47
100
AcDbScale
 70
     0
300
1:50
140
1.0
141
50.0
290
     0
  0
SCALE
  5
53
102
{ACAD_REACTORS
330
47
102
}
330
47
100
AcDbScale
 70
     0
300
1:100
140
1.0
141
100.0
290
     0
  0
SCALE
  5
54
102
{ACAD_REACTORS
330
47
102
}
330
47
100
AcDbScale
 70
     0
300
2:1
140
2.0
141
1.0
290
     0
  0
SCALE
  5
55
102
{ACAD_REACTORS
330
47
102
}
330
47
100
AcDbScale
 70
     0
300
4:1
140
4.0
141
1.0
290
     0
  0
SCALE
  5
56
102
{ACAD_REACTORS
330
47
102
}
330
47
100
AcDbScale
 70
     0
300
8:1
140
8.0
141
1.0
290
     0
  0
SCALE
  5
57
102
{ACAD_REACTORS
330
47
102
}
330
47
100
AcDbScale
 70
     0
300
10:1
140
10.0
141
1.0
290
     0
  0
SCALE
  5
58
102
{ACAD_REACTORS
330
47
102
}
330
47
100
AcDbScale
 70
     0
300
100:1
140
100.0
141
1.0
290
     0
  0
SCALE
  5
59
102
{ACAD_REACTORS
330
47
102
}
330
47
100
AcDbScale
 70
     0
300
1/128" = 1'-0"
140
0.0078125
141
12.0
290
     0
  0
SCALE
  5
5A
102
{ACAD_REACTORS
330
47
102
}
330
47
100
AcDbScale
 70
     0
300
1/64" = 1'-0"
140
0.015625
141
12.0
290
     0
  0
SCALE
  5
5B
102
{ACAD_REACTORS
330
47
102
}
330
47
100
AcDbScale
 70
     0
300
1/32" = 1'-0"
140
0.03125
141
12.0
290
     0
  0
SCALE
  5
5C
102
{ACAD_REACTORS
330
47
102
}
330
47
100
AcDbScale
 70
     0
300
1/16" = 1'-0"
140
0.0625
141
12.0
290
     0
  0
SCALE
  5
5D
102
{ACAD_REACTORS
330
47
102
}
330
47
100
AcDbScale
 70
     0
300
3/32" = 1'-0"
140
0.09375
141
12.0
290
     0
  0
SCALE
  5
5E
102
{ACAD_REACTORS
330
47
102
}
330
47
100
AcDbScale
 70
     0
300
1/8" = 1'-0"
140
0.125
141
12.0
290
     0
  0
SCALE
  5
5F
102
{ACAD_REACTORS
330
47
102
}
330
47
100
AcDbScale
 70
     0
300
3/16" = 1'-0"
140
0.1875
141
12.0
290
     0
  0
SCALE
  5
60
102
{ACAD_REACTORS
330
47
102
}
330
47
100
AcDbScale
 70
     0
300
1/4" = 1'-0"
140
0.25
141
12.0
290
     0
  0
SCALE
  5
61
102
{ACAD_REACTORS
330
47
102
}
330
47
100
AcDbScale
 70
     0
300
3/8" = 1'-0"
140
0.375
141
12.0
290
     0
  0
SCALE
  5
62
102
{ACAD_REACTORS
330
47
102
}
330
47
100
AcDbScale
 70
     0
300
1/2" = 1'-0"
140
0.5
141
12.0
290
     0
  0
SCALE
  5
63
102
{ACAD_REACTORS
330
47
102
}
330
47
100
AcDbScale
 70
     0
300
3/4" = 1'-0"
140
0.75
141
12.0
290
     0
  0
SCALE
  5
64
102
{ACAD_REACTORS
330
47
102
}
330
47
100
AcDbScale
 70
     0
300
1" = 1'-0"
140
1.0
141
12.0
290
     0
  0
SCALE
  5
65
102
{ACAD_REACTORS
330
47
102
}
330
47
100
AcDbScale
 70
     0
300
1-1/2" = 1'-0"
140
1.5
141
12.0
290
     0
  0
SCALE
  5
66
102
{ACAD_REACTORS
330
47
102
}
330
47
100
AcDbScale
 70
     0
300
3" = 1'-0"
140
3.0
141
12.0
290
     0
  0
SCALE
  5
67
102
{ACAD_REACTORS
330
47
102
}
330
47
100
AcDbScale
 70
     0
300
6" = 1'-0"
140
6.0
141
12.0
290
     0
  0
SCALE
  5
68
102
{ACAD_REACTORS
330
47
102
}
330
47
100
AcDbScale
 70
     0
300
1'-0" = 1'-0"
140
12.0
141
12.0
290
     0
  0
ENDSEC
  0
EOF
