  0
SECTION
  2
HEADER
  9
$ACADVER
  1
AC1015
  9
$ACADMAINTVER
 70
     6
  9
$DWGCODEPAGE
  3
ANSI_949
  9
$INSBASE
 10
0.0
 20
0.0
 30
0.0
  9
$EXTMIN
 10
-70.68500000000003
 20
-49.97073246008785
 30
0.0
  9
$EXTMAX
 10
106.9596870483773
 20
52.65552454378632
 30
0.0
  9
$LIMMIN
 10
0.0
 20
0.0
  9
$LIMMAX
 10
420.0
 20
297.0
  9
$ORTHOMODE
 70
     1
  9
$REGENMODE
 70
     1
  9
$FILLMODE
 70
     1
  9
$QTEXTMODE
 70
     0
  9
$MIRRTEXT
 70
     1
  9
$LTSCALE
 40
1.0
  9
$ATTMODE
 70
     1
  9
$TEXTSIZE
 40
3.5
  9
$TRACEWID
 40
1.0
  9
$TEXTSTYLE
  7
Standard
  9
$CLAYER
  8
0
  9
$CELTYPE
  6
ByLayer
  9
$CECOLOR
 62
   256
  9
$CELTSCALE
 40
1.0
  9
$DISPSILH
 70
     0
  9
$DIMSCALE
 40
1.0
  9
$DIMASZ
 40
3.302
  9
$DIMEXO
 40
1.0
  9
$DIMDLI
 40
3.75
  9
$DIMRND
 40
0.0
  9
$DIMDLE
 40
0.0
  9
$DIMEXE
 40
1.0
  9
$DIMTP
 40
0.0
  9
$DIMTM
 40
0.0
  9
$DIMTXT
 40
3.5
  9
$DIMCEN
 40
2.5
  9
$DIMTSZ
 40
0.0
  9
$DIMTOL
 70
     0
  9
$DIMLIM
 70
     0
  9
$DIMTIH
 70
     1
  9
$DIMTOH
 70
     1
  9
$DIMSE1
 70
     0
  9
$DIMSE2
 70
     0
  9
$DIMTAD
 70
     1
  9
$DIMZIN
 70
     0
  9
$DIMBLK
  1

  9
$DIMASO
 70
     1
  9
$DIMSHO
 70
     1
  9
$DIMPOST
  1

  9
$DIMAPOST
  1

  9
$DIMALT
 70
     0
  9
$DIMALTD
 70
     3
  9
$DIMALTF
 40
0.0393700787401575
  9
$DIMLFAC
 40
1.0
  9
$DIMTOFL
 70
     1
  9
$DIMTVP
 40
0.0
  9
$DIMTIX
 70
     0
  9
$DIMSOXD
 70
     0
  9
$DIMSAH
 70
     0
  9
$DIMBLK1
  1

  9
$DIMBLK2
  1

  9
$DIMSTYLE
  2
ISO-25
  9
$DIMCLRD
 70
     0
  9
$DIMCLRE
 70
     0
  9
$DIMCLRT
 70
     0
  9
$DIMTFAC
 40
1.0
  9
$DIMGAP
 40
1.524
  9
$DIMJUST
 70
     0
  9
$DIMSD1
 70
     0
  9
$DIMSD2
 70
     0
  9
$DIMTOLJ
 70
     0
  9
$DIMTZIN
 70
     0
  9
$DIMALTZ
 70
     0
  9
$DIMALTTZ
 70
     0
  9
$DIMUPT
 70
     0
  9
$DIMDEC
 70
     2
  9
$DIMTDEC
 70
     2
  9
$DIMALTU
 70
     2
  9
$DIMALTTD
 70
     3
  9
$DIMTXSTY
  7
Standard
  9
$DIMAUNIT
 70
     0
  9
$DIMADEC
 70
     2
  9
$DIMALTRND
 40
0.0
  9
$DIMAZIN
 70
     0
  9
$DIMDSEP
 70
    44
  9
$DIMATFIT
 70
     3
  9
$DIMFRAC
 70
     0
  9
$DIMLDRBLK
  1

  9
$DIMLUNIT
 70
     2
  9
$DIMLWD
 70
    -2
  9
$DIMLWE
 70
    -2
  9
$DIMTMOVE
 70
     0
  9
$LUNITS
 70
     2
  9
$LUPREC
 70
     2
  9
$SKETCHINC
 40
1.0
  9
$FILLETRAD
 40
10.0
  9
$AUNITS
 70
     0
  9
$AUPREC
 70
     2
  9
$MENU
  1
.
  9
$ELEVATION
 40
0.0
  9
$PELEVATION
 40
0.0
  9
$THICKNESS
 40
0.0
  9
$LIMCHECK
 70
     0
  9
$CHAMFERA
 40
0.0
  9
$CHAMFERB
 40
0.0
  9
$CHAMFERC
 40
0.0
  9
$CHAMFERD
 40
0.0
  9
$SKPOLY
 70
     0
  9
$TDCREATE
 40
2458263.619999433
  9
$TDUCREATE
 40
2458263.244999433
  9
$TDUPDATE
 40
2459731.34916191
  9
$TDUUPDATE
 40
2459730.97416191
  9
$TDINDWG
 40
0.0008028704
  9
$TDUSRTIMER
 40
0.000365081
  9
$USRTIMER
 70
     1
  9
$ANGBASE
 50
0.0
  9
$ANGDIR
 70
     0
  9
$PDMODE
 70
     0
  9
$PDSIZE
 40
-1.0
  9
$PLINEWID
 40
0.0
  9
$SPLFRAME
 70
     0
  9
$SPLINETYPE
 70
     6
  9
$SPLINESEGS
 70
     8
  9
$HANDSEED
  5
2B1
  9
$SURFTAB1
 70
     6
  9
$SURFTAB2
 70
     6
  9
$SURFTYPE
 70
     6
  9
$SURFU
 70
     6
  9
$SURFV
 70
     6
  9
$UCSBASE
  2

  9
$UCSNAME
  2

  9
$UCSORG
 10
0.0
 20
0.0
 30
0.0
  9
$UCSXDIR
 10
1.0
 20
0.0
 30
0.0
  9
$UCSYDIR
 10
0.0
 20
1.0
 30
0.0
  9
$UCSORTHOREF
  2

  9
$UCSORTHOVIEW
 70
     0
  9
$UCSORGTOP
 10
0.0
 20
0.0
 30
0.0
  9
$UCSORGBOTTOM
 10
0.0
 20
0.0
 30
0.0
  9
$UCSORGLEFT
 10
0.0
 20
0.0
 30
0.0
  9
$UCSORGRIGHT
 10
0.0
 20
0.0
 30
0.0
  9
$UCSORGFRONT
 10
0.0
 20
0.0
 30
0.0
  9
$UCSORGBACK
 10
0.0
 20
0.0
 30
0.0
  9
$PUCSBASE
  2

  9
$PUCSNAME
  2

  9
$PUCSORG
 10
0.0
 20
0.0
 30
0.0
  9
$PUCSXDIR
 10
1.0
 20
0.0
 30
0.0
  9
$PUCSYDIR
 10
0.0
 20
1.0
 30
0.0
  9
$PUCSORTHOREF
  2

  9
$PUCSORTHOVIEW
 70
     0
  9
$PUCSORGTOP
 10
0.0
 20
0.0
 30
0.0
  9
$PUCSORGBOTTOM
 10
0.0
 20
0.0
 30
0.0
  9
$PUCSORGLEFT
 10
0.0
 20
0.0
 30
0.0
  9
$PUCSORGRIGHT
 10
0.0
 20
0.0
 30
0.0
  9
$PUCSORGFRONT
 10
0.0
 20
0.0
 30
0.0
  9
$PUCSORGBACK
 10
0.0
 20
0.0
 30
0.0
  9
$USERI1
 70
     0
  9
$USERI2
 70
     0
  9
$USERI3
 70
     0
  9
$USERI4
 70
     0
  9
$USERI5
 70
     0
  9
$USERR1
 40
0.0
  9
$USERR2
 40
0.0
  9
$USERR3
 40
0.0
  9
$USERR4
 40
0.0
  9
$USERR5
 40
0.0
  9
$WORLDVIEW
 70
     1
  9
$SHADEDGE
 70
     3
  9
$SHADEDIF
 70
    70
  9
$TILEMODE
 70
     1
  9
$MAXACTVP
 70
    64
  9
$PINSBASE
 10
0.0
 20
0.0
 30
0.0
  9
$PLIMCHECK
 70
     0
  9
$PEXTMIN
 10
1.000000000000000E+20
 20
1.000000000000000E+20
 30
1.000000000000000E+20
  9
$PEXTMAX
 10
-1.000000000000000E+20
 20
-1.000000000000000E+20
 30
-1.000000000000000E+20
  9
$PLIMMIN
 10
0.0
 20
0.0
  9
$PLIMMAX
 10
0.0
 20
0.0
  9
$UNITMODE
 70
     0
  9
$VISRETAIN
 70
     1
  9
$PLINEGEN
 70
     0
  9
$PSLTSCALE
 70
     1
  9
$TREEDEPTH
 70
  3020
  9
$CMLSTYLE
  2
Standard
  9
$CMLJUST
 70
     0
  9
$CMLSCALE
 40
20.0
  9
$PROXYGRAPHICS
 70
     1
  9
$MEASUREMENT
 70
     1
  9
$CELWEIGHT
370
    -1
  9
$ENDCAPS
280
     0
  9
$JOINSTYLE
280
     0
  9
$LWDISPLAY
290
     1
  9
$INSUNITS
 70
     4
  9
$HYPERLINKBASE
  1

  9
$STYLESHEET
  1

  9
$XEDIT
290
     1
  9
$CEPSNTYPE
380
     0
  9
$PSTYLEMODE
290
     1
  9
$FINGERPRINTGUID
  2
{8B66F137-6189-4449-92E9-725283406264}
  9
$VERSIONGUID
  2
{FAEB1C32-E019-11D5-929B-00C0DF256EC4}
  9
$EXTNAMES
290
     1
  9
$PSVPSCALE
 40
0.0
  9
$OLESTARTUP
290
     0
  0
ENDSEC
  0
SECTION
  2
CLASSES
  0
CLASS
  1
ACDBDICTIONARYWDFLT
  2
AcDbDictionaryWithDefault
  3
ObjectDBX Classes
 90
        0
280
     0
281
     0
  0
CLASS
  1
VISUALSTYLE
  2
AcDbVisualStyle
  3
ObjectDBX Classes
 90
     4095
280
     0
281
     0
  0
CLASS
  1
MATERIAL
  2
AcDbMaterial
  3
ObjectDBX Classes
 90
     1153
280
     0
281
     0
  0
CLASS
  1
SCALE
  2
AcDbScale
  3
ObjectDBX Classes
 90
     1153
280
     0
281
     0
  0
CLASS
  1
TABLESTYLE
  2
AcDbTableStyle
  3
ObjectDBX Classes
 90
     4095
280
     0
281
     0
  0
CLASS
  1
MLEADERSTYLE
  2
AcDbMLeaderStyle
  3
ACDB_MLEADERSTYLE_CLASS
 90
     4095
280
     0
281
     0
  0
CLASS
  1
SUN
  2
AcDbSun
  3
SCENEOE
 90
     1153
280
     0
281
     0
  0
CLASS
  1
ACDBPLACEHOLDER
  2
AcDbPlaceHolder
  3
ObjectDBX Classes
 90
        0
280
     0
281
     0
  0
CLASS
  1
LAYOUT
  2
AcDbLayout
  3
ObjectDBX Classes
 90
        0
280
     0
281
     0
  0
CLASS
  1
RASTERVARIABLES
  2
AcDbRasterVariables
  3
ISM
 90
        0
280
     0
281
     0
  0
CLASS
  1
SORTENTSTABLE
  2
AcDbSortentsTable
  3
ObjectDBX Classes
 90
        0
280
     0
281
     0
  0
ENDSEC
  0
SECTION
  2
TABLES
  0
TABLE
  2
VPORT
  5
8
330
0
100
AcDbSymbolTable
 70
     1
  0
VPORT
  5
29
330
8
100
AcDbSymbolTableRecord
100
AcDbViewportTableRecord
  2
*Active
 70
     0
 10
0.0
 20
0.0
 11
1.0
 21
1.0
 12
151.0250660420685
 22
-33.76684252309313
 13
0.0
 23
0.0
 14
10.0
 24
10.0
 15
10.0
 25
10.0
 16
0.0
 26
0.0
 36
1.0
 17
0.0
 27
0.0
 37
0.0
 40
301.1349719543963
 41
1.531481481481481
 42
50.0
 43
0.0
 44
0.0
 50
0.0
 51
0.0
 71
    16
 72
  2000
 73
     1
 74
     3
 75
     0
 76
     0
 77
     0
 78
     0
281
     0
 65
     1
110
0.0
120
0.0
130
0.0
111
1.0
121
0.0
131
0.0
112
0.0
122
1.0
132
0.0
 79
     0
146
0.0
  0
ENDTAB
  0
TABLE
  2
LTYPE
  5
5
330
0
100
AcDbSymbolTable
 70
     6
  0
LTYPE
  5
14
330
5
100
AcDbSymbolTableRecord
100
AcDbLinetypeTableRecord
  2
ByBlock
 70
     0
  3

 72
    65
 73
     0
 40
0.0
  0
LTYPE
  5
15
330
5
100
AcDbSymbolTableRecord
100
AcDbLinetypeTableRecord
  2
ByLayer
 70
     0
  3

 72
    65
 73
     0
 40
0.0
  0
LTYPE
  5
16
330
5
100
AcDbSymbolTableRecord
100
AcDbLinetypeTableRecord
  2
Continuous
 70
     0
  3
Solid line
 72
    65
 73
     0
 40
0.0
  0
LTYPE
  5
6E
330
5
100
AcDbSymbolTableRecord
100
AcDbLinetypeTableRecord
  2
HIDDEN
 70
     0
  3
Hidden __ __ __ __ __ __ __ __ __ __ __ __ __ __
 72
    65
 73
     2
 40
1.905
 49
1.27
 74
     0
 49
-0.635
 74
     0
  0
LTYPE
  5
6F
330
5
100
AcDbSymbolTableRecord
100
AcDbLinetypeTableRecord
  2
PHANTOM
 70
     0
  3
Phantom ______  __  __  ______  __  __  ______
 72
    65
 73
     6
 40
12.7
 49
6.35
 74
     0
 49
-1.27
 74
     0
 49
1.27
 74
     0
 49
-1.27
 74
     0
 49
1.27
 74
     0
 49
-1.27
 74
     0
  0
LTYPE
  5
70
330
5
100
AcDbSymbolTableRecord
100
AcDbLinetypeTableRecord
  2
CENTER
 70
     0
  3
Center ____ _ ____ _ ____ _ ____ _ ____ _ ____
 72
    65
 73
     4
 40
10.16
 49
6.35
 74
     0
 49
-1.27
 74
     0
 49
1.27
 74
     0
 49
-1.27
 74
     0
  0
LTYPE
  5
71
330
5
100
AcDbSymbolTableRecord
100
AcDbLinetypeTableRecord
  2
CENTERX2
 70
     0
  3
Center (2x) ________  __  ________  __  _____
 72
    65
 73
     4
 40
20.32
 49
12.7
 74
     0
 49
-2.54
 74
     0
 49
2.54
 74
     0
 49
-2.54
 74
     0
  0
LTYPE
  5
72
330
5
100
AcDbSymbolTableRecord
100
AcDbLinetypeTableRecord
  2
DOT2
 70
     0
  3
Dot (.5x) ........................................
 72
    65
 73
     2
 40
0.635
 49
0.0
 74
     0
 49
-0.635
 74
     0
  0
ENDTAB
  0
TABLE
  2
LAYER
  5
2
102
{ACAD_XDICTIONARY
360
21F
102
}
330
0
100
AcDbSymbolTable
 70
    17
  0
LAYER
  5
10
330
2
100
AcDbSymbolTableRecord
100
AcDbLayerTableRecord
  2
0
 70
     0
 62
     7
  6
Continuous
370
    -3
390
F
  0
LAYER
  5
73
330
2
100
AcDbSymbolTableRecord
100
AcDbLayerTableRecord
  2
FORMAT
 70
     0
 62
     2
  6
Continuous
370
    -3
390
F
  0
LAYER
  5
74
330
2
100
AcDbSymbolTableRecord
100
AcDbLayerTableRecord
  2
외형선
 70
     0
 62
   100
  6
Continuous
370
    35
390
F
  0
LAYER
  5
75
330
2
100
AcDbSymbolTableRecord
100
AcDbLayerTableRecord
  2
숨은선
 70
     0
 62
     2
  6
HIDDEN
370
    25
390
F
  0
LAYER
  5
76
330
2
100
AcDbSymbolTableRecord
100
AcDbLayerTableRecord
  2
중심선
 70
     0
 62
     1
  6
CENTERX2
370
    -3
390
F
  0
LAYER
  5
77
330
2
100
AcDbSymbolTableRecord
100
AcDbLayerTableRecord
  2
파단선
 70
     0
 62
     4
  6
Continuous
370
    -3
390
F
  0
LAYER
  5
78
330
2
100
AcDbSymbolTableRecord
100
AcDbLayerTableRecord
  2
해칭선
 70
     0
 62
     4
  6
Continuous
370
    -3
390
F
  0
LAYER
  5
79
330
2
100
AcDbSymbolTableRecord
100
AcDbLayerTableRecord
  2
가는실선
 70
     0
 62
     4
  6
Continuous
370
    -3
390
F
  0
LAYER
  5
7A
330
2
100
AcDbSymbolTableRecord
100
AcDbLayerTableRecord
  2
치수_보조선
 70
     0
 62
     4
  6
Continuous
370
    -3
390
F
  0
LAYER
  5
7B
330
2
100
AcDbSymbolTableRecord
100
AcDbLayerTableRecord
  2
치수문자_일반주서
 70
     0
 62
     7
  6
Continuous
370
    25
390
F
  0
LAYER
  5
7C
330
2
100
AcDbSymbolTableRecord
100
AcDbLayerTableRecord
  2
개별주서
 70
     0
 62
   100
  6
Continuous
370
    35
390
F
  0
LAYER
  5
7D
330
2
100
AcDbSymbolTableRecord
100
AcDbLayerTableRecord
  2
중간선
 70
     0
 62
     2
  6
Continuous
370
    25
390
F
  0
LAYER
  5
7E
330
2
100
AcDbSymbolTableRecord
100
AcDbLayerTableRecord
  2
윤곽선
 70
     0
 62
     3
  6
Continuous
370
    50
390
F
  0
LAYER
  5
7F
330
2
100
AcDbSymbolTableRecord
100
AcDbLayerTableRecord
  2
중심마크
 70
     0
 62
   100
  6
Continuous
370
    35
390
F
  0
LAYER
  5
80
330
2
100
AcDbSymbolTableRecord
100
AcDbLayerTableRecord
  2
가상선
 70
     0
 62
     4
  6
PHANTOM
370
    -3
390
F
  0
LAYER
  5
81
330
2
100
AcDbSymbolTableRecord
100
AcDbLayerTableRecord
  2
특수지정선
 70
     0
 62
     5
  6
CENTERX2
370
    70
390
F
  0
LAYER
  5
15D
330
2
100
AcDbSymbolTableRecord
100
AcDbLayerTableRecord
  2
Defpoints
 70
     0
 62
     7
  6
Continuous
290
     0
370
    -3
390
F
  0
ENDTAB
  0
TABLE
  2
STYLE
  5
3
330
0
100
AcDbSymbolTable
 70
     2
  0
STYLE
  5
11
330
3
100
AcDbSymbolTableRecord
100
AcDbTextStyleTableRecord
  2
Standard
 70
     0
 40
0.0
 41
1.0
 50
0.0
 71
     0
 42
3.5
  3
txt
  4

  0
STYLE
  5
97
330
3
100
AcDbSymbolTableRecord
100
AcDbTextStyleTableRecord
  2
SLDTEXTSTYLE0
 70
     0
 40
0.0
 41
0.75
 50
0.0
 71
     0
 42
3.5
  3
TXT
  4

  0
ENDTAB
  0
TABLE
  2
VIEW
  5
6
330
0
100
AcDbSymbolTable
 70
     0
  0
ENDTAB
  0
TABLE
  2
UCS
  5
7
330
0
100
AcDbSymbolTable
 70
     0
  0
ENDTAB
  0
TABLE
  2
APPID
  5
9
330
0
100
AcDbSymbolTable
 70
     2
  0
APPID
  5
12
330
9
100
AcDbSymbolTableRecord
100
AcDbRegAppTableRecord
  2
ACAD
 70
     0
  0
APPID
  5
18F
330
9
100
AcDbSymbolTableRecord
100
AcDbRegAppTableRecord
  2
PE_URL
 70
     0
  0
ENDTAB
  0
TABLE
  2
DIMSTYLE
  5
A
330
0
100
AcDbSymbolTable
 70
     5
100
AcDbDimStyleTable
  0
DIMSTYLE
105
27
330
A
100
AcDbSymbolTableRecord
100
AcDbDimStyleTableRecord
  2
ISO-25
 70
     0
 41
2.5
 42
0.625
 43
3.75
 44
1.25
 73
     0
 74
     0
 77
     1
 78
     8
140
2.5
141
2.5
143
0.03937007874016
147
0.625
171
     3
172
     1
178
     0
271
     2
272
     2
274
     3
278
    44
283
     0
284
     8
340
11
  0
DIMSTYLE
105
E3
102
{ACAD_REACTORS
330
E2
330
10B
102
}
330
A
100
AcDbSymbolTableRecord
100
AcDbDimStyleTableRecord
  2
SLDDIMSTYLE0
 70
     0
 41
3.302
 44
0.0
 45
0.000000001
 73
     0
 74
     0
 77
     1
 78
     4
 79
     1
140
3.5
143
0.0393700787401575
147
0.875
148
0.000000001
170
     1
173
     1
178
     0
271
     2
272
     2
276
     2
284
    12
340
97
  0
DIMSTYLE
105
F7
102
{ACAD_REACTORS
330
F6
102
}
330
A
100
AcDbSymbolTableRecord
100
AcDbDimStyleTableRecord
  2
SLDDIMSTYLE1
 70
     0
 41
3.302
 44
0.0
 45
0.000000001
 73
     0
 74
     0
 77
     1
 78
     4
 79
     1
140
3.5
143
0.0393700787401575
147
0.875
148
0.000000001
170
     1
172
     1
173
     1
178
     0
271
     2
272
     2
276
     2
284
    12
289
     0
340
97
  0
DIMSTYLE
105
11F
102
{ACAD_REACTORS
330
11E
102
}
330
A
100
AcDbSymbolTableRecord
100
AcDbDimStyleTableRecord
  2
SLDDIMSTYLE2
 70
     0
 41
3.302
 44
0.0
 45
0.000000001
 73
     0
 74
     0
 77
     1
 78
    12
 79
     3
140
3.5
143
0.0393700787401575
147
0.875
148
0.000000001
170
     1
173
     1
178
     0
271
     2
272
     2
276
     2
284
    12
340
97
  0
DIMSTYLE
105
18E
102
{ACAD_REACTORS
330
1DE
330
1EB
330
1F8
330
205
102
}
330
A
100
AcDbSymbolTableRecord
100
AcDbDimStyleTableRecord
  2
SLDDIMSTYLE3
 70
     0
 41
3.302
 44
0.0
 45
0.000000001
 73
     0
 74
     0
 77
     1
 78
    12
 79
     3
140
3.5
143
0.0393700787401575
147
0.875
148
0.000000001
170
     1
172
     1
173
     1
178
     0
271
     2
272
     2
276
     2
284
    12
289
     0
340
97
  0
ENDTAB
  0
TABLE
  2
BLOCK_RECORD
  5
1
330
0
100
AcDbSymbolTable
 70
    15
  0
BLOCK_RECORD
  5
1F
102
{ACAD_XDICTIONARY
360
2AC
102
}
330
1
100
AcDbSymbolTableRecord
100
AcDbBlockTableRecord
  2
*Model_Space
340
22
  0
BLOCK_RECORD
  5
1B
330
1
100
AcDbSymbolTableRecord
100
AcDbBlockTableRecord
  2
*Paper_Space
340
1E
  0
BLOCK_RECORD
  5
23
330
1
100
AcDbSymbolTableRecord
100
AcDbBlockTableRecord
  2
*Paper_Space0
340
26
  0
BLOCK_RECORD
  5
82
330
1
100
AcDbSymbolTableRecord
100
AcDbBlockTableRecord
  2
블럭10
340
0
102
{BLKREFS
331
DB
102
}
  0
BLOCK_RECORD
  5
E4
330
1
100
AcDbSymbolTableRecord
100
AcDbBlockTableRecord
  2
_D
340
0
  0
BLOCK_RECORD
  5
F8
330
1
100
AcDbSymbolTableRecord
100
AcDbBlockTableRecord
  2
_D_1
340
0
  0
BLOCK_RECORD
  5
10C
330
1
100
AcDbSymbolTableRecord
100
AcDbBlockTableRecord
  2
_D_2
340
0
  0
BLOCK_RECORD
  5
120
330
1
100
AcDbSymbolTableRecord
100
AcDbBlockTableRecord
  2
_D_3
340
0
  0
BLOCK_RECORD
  5
132
330
1
100
AcDbSymbolTableRecord
100
AcDbBlockTableRecord
  2
SW_DOWELSYMBOL_0
340
0
102
{BLKREFS
331
138
331
212
331
0
102
}
  0
BLOCK_RECORD
  5
1DF
330
1
100
AcDbSymbolTableRecord
100
AcDbBlockTableRecord
  2
*D8
340
0
  0
BLOCK_RECORD
  5
1EC
330
1
100
AcDbSymbolTableRecord
100
AcDbBlockTableRecord
  2
*D9
340
0
  0
BLOCK_RECORD
  5
1F9
330
1
100
AcDbSymbolTableRecord
100
AcDbBlockTableRecord
  2
*D10
340
0
  0
BLOCK_RECORD
  5
206
330
1
100
AcDbSymbolTableRecord
100
AcDbBlockTableRecord
  2
*D11
340
0
  0
BLOCK_RECORD
  5
275
330
1
100
AcDbSymbolTableRecord
100
AcDbBlockTableRecord
  2
*D12
340
0
  0
BLOCK_RECORD
  5
281
330
1
100
AcDbSymbolTableRecord
100
AcDbBlockTableRecord
  2
*D13
340
0
  0
BLOCK_RECORD
  5
28D
330
1
100
AcDbSymbolTableRecord
100
AcDbBlockTableRecord
  2
*D14
340
0
  0
BLOCK_RECORD
  5
299
330
1
100
AcDbSymbolTableRecord
100
AcDbBlockTableRecord
  2
*D15
340
0
  0
ENDTAB
  0
ENDSEC
  0
SECTION
  2
BLOCKS
  0
BLOCK
  5
20
330
1F
100
AcDbEntity
  8
0
100
AcDbBlockBegin
  2
*Model_Space
 70
     0
 10
0.0
 20
0.0
 30
0.0
  3
*Model_Space
  1
*Model_Space
  0
ENDBLK
  5
21
330
1F
100
AcDbEntity
  8
0
100
AcDbBlockEnd
  0
BLOCK
  5
1C
330
1B
100
AcDbEntity
 67
     1
  8
0
100
AcDbBlockBegin
  2
*Paper_Space
 70
     0
 10
0.0
 20
0.0
 30
0.0
  3
*Paper_Space
  1
*Paper_Space
  0
ENDBLK
  5
1D
330
1B
100
AcDbEntity
 67
     1
  8
0
100
AcDbBlockEnd
  0
BLOCK
  5
24
330
23
100
AcDbEntity
  8
0
100
AcDbBlockBegin
  2
*Paper_Space0
 70
     0
 10
0.0
 20
0.0
 30
0.0
  3
*Paper_Space0
  1
*Paper_Space0
  0
ENDBLK
  5
25
330
23
100
AcDbEntity
  8
0
100
AcDbBlockEnd
  0
BLOCK
  5
83
330
82
100
AcDbEntity
  8
0
100
AcDbBlockBegin
  2
블럭10
 70
     2
 10
0.0
 20
0.0
 30
0.0
  3
블럭10
  1
블럭10
  0
ELLIPSE
  5
85
330
82
100
AcDbEntity
  8
중심선
100
AcDbEllipse
 10
20.54032771741204
 20
12.0471743016438
 30
0.0
 11
6.600054785286829
 21
-1.261213355974178E-13
 31
0.0
210
0.0
220
0.0
230
1.0
 40
0.636358354079598
 41
0.9219305317359503
 42
6.513795318482858
  0
ELLIPSE
  5
86
330
82
100
AcDbEntity
  8
중심선
100
AcDbEllipse
 10
20.54032771746488
 20
12.04717430159265
 30
0.0
 11
3.960054785062283
 21
1.540847449632565E-10
 31
0.0
210
0.0
220
0.0
230
1.0
 40
0.3939339440162632
 41
1.131841032648279
 42
5.62031148352944
  0
LINE
  5
87
330
82
100
AcDbEntity
  8
중심선
100
AcDbLine
 10
2.268634060543552
 20
16.24717430164393
 30
0.0
 11
5.714909304380834
 21
16.24717430164393
 31
0.0
  0
LINE
  5
88
330
82
100
AcDbEntity
  8
중심선
100
AcDbLine
 10
5.245725140726316
 20
7.84717430164391
 30
0.0
 11
8.692000384563599
 21
7.84717430164391
 31
0.0
  0
LINE
  5
89
330
82
100
AcDbEntity
  8
중심선
100
AcDbLine
 10
15.74043728645272
 20
16.24717430164393
 30
0.0
 11
8.692000384563599
 21
7.84717430164391
 31
0.0
  0
LINE
  5
8A
330
82
100
AcDbEntity
  8
중심선
100
AcDbLine
 10
0.1404042013395286
 20
13.71084872107135
 30
0.0
 11
3.58671253028996
 21
13.71088815037384
 31
0.0
  0
LINE
  5
8B
330
82
100
AcDbEntity
  8
중심선
100
AcDbLine
 10
2.750260043222114
 20
10.84717430164391
 30
0.0
 11
6.196535287059397
 21
10.84717430164391
 31
0.0
  0
LINE
  5
8C
330
82
100
AcDbEntity
  8
중심선
100
AcDbLine
 10
12.29416204261559
 20
16.24717430164393
 30
0.0
 11
5.245725140726316
 21
7.84717430164391
 31
0.0
  0
LINE
  5
8D
330
82
100
AcDbEntity
  8
중심선
100
AcDbLine
 10
10.72767329541681
 20
16.24717430164393
 30
0.0
 11
6.196535287059397
 21
10.84717430164391
 31
0.0
  0
LINE
  5
8E
330
82
100
AcDbEntity
  8
중심선
100
AcDbLine
 10
7.28139805157953
 20
16.24717430164393
 30
0.0
 11
2.750260043222114
 21
10.84717430164391
 31
0.0
  0
LINE
  5
8F
330
82
100
AcDbEntity
  8
중심선
100
AcDbLine
 10
5.714909304380834
 20
16.24717430164393
 30
0.0
 11
3.58671253028996
 21
13.71088815037384
 31
0.0
  0
LINE
  5
90
330
82
100
AcDbEntity
  8
중심선
100
AcDbLine
 10
2.268634060543552
 20
16.24717430164393
 30
0.0
 11
0.1404042013395286
 21
13.71084872107135
 31
0.0
  0
LINE
  5
91
330
82
100
AcDbEntity
  8
중심선
100
AcDbLine
 10
7.28139805157953
 20
16.24717430164393
 30
0.0
 11
10.72767329541681
 21
16.24717430164393
 31
0.0
  0
LINE
  5
92
330
82
100
AcDbEntity
  8
중심선
100
AcDbLine
 10
12.29416204261559
 20
16.24717430164393
 30
0.0
 11
15.74043728645272
 21
16.24717430164393
 31
0.0
  0
LINE
  5
93
330
82
100
AcDbEntity
  8
중심선
100
AcDbLine
 10
19.22036997980202
 20
11.08717430171403
 30
0.0
 11
23.66174974927406
 21
11.08717430171406
 31
0.0
  0
LINE
  5
94
330
82
100
AcDbEntity
  8
중심선
100
AcDbLine
 10
19.22039502424796
 20
13.00717430171391
 30
0.0
 11
19.22036997980202
 21
11.08717430171403
 31
0.0
  0
LINE
  5
95
330
82
100
AcDbEntity
  8
중심선
100
AcDbLine
 10
19.22039502424796
 20
13.00717430171391
 30
0.0
 11
26.96566020931264
 21
13.00717430171391
 31
0.0
  0
LINE
  5
96
330
82
100
AcDbEntity
  8
중심선
100
AcDbLine
 10
22.22332737316547
 20
13.45928029700563
 30
0.0
 11
24.52862924686651
 21
15.39360700705356
 31
0.0
  0
ATTDEF
  5
98
330
82
100
AcDbEntity
  8
FORMAT
 62
     2
100
AcDbText
 10
-9.18129528874128
 20
2.075366912832191
 30
0.0
 40
4.233333333333333
  1
E5253903 [ 2 FLUTE ]
 41
0.75
  7
SLDTEXTSTYLE0
 11
-9.18129528874128
 21
-0.0412997538344756
 31
0.0
100
AcDbAttributeDefinition
  3

  2
AUTOATTR0
 70
     0
 74
     1
  0
ENDBLK
  5
84
330
82
100
AcDbEntity
  8
0
100
AcDbBlockEnd
  0
BLOCK
  5
E5
330
E4
100
AcDbEntity
  8
0
100
AcDbBlockBegin
  2
_D
 70
     0
 10
0.0
 20
0.0
 30
0.0
  3
_D
  1
_D
  0
LINE
  5
E7
330
E4
100
AcDbEntity
  8
치수문자_일반주서
 62
     0
370
    -2
100
AcDbLine
 10
86.20000000000002
 20
12.75284108214038
 30
0.0
 11
86.20000000000002
 21
48.28052454378633
 31
0.0
  0
LINE
  5
E8
330
E4
100
AcDbEntity
  8
치수문자_일반주서
 62
     0
370
    -2
100
AcDbLine
 10
-53.49999999999999
 20
11.76357492872388
 30
0.0
 11
-53.5
 21
48.28052454378633
 31
0.0
  0
LINE
  5
E9
330
E4
100
AcDbEntity
  8
치수문자_일반주서
 62
     0
370
    -2
100
AcDbLine
 10
82.89800000000002
 20
48.28052454378633
 30
0.0
 11
-50.198
 21
48.28052454378633
 31
0.0
  0
SOLID
  5
EA
330
E4
100
AcDbEntity
  8
치수문자_일반주서
 62
     0
100
AcDbTrace
 10
82.89800000000002
 20
47.73019121045299
 30
0.0
 11
82.89800000000002
 21
48.83085787711966
 31
0.0
 12
86.20000000000002
 22
48.28052454378633
 32
0.0
 13
86.20000000000002
 23
48.28052454378633
 33
0.0
  0
SOLID
  5
EB
330
E4
100
AcDbEntity
  8
치수문자_일반주서
 62
     0
100
AcDbTrace
 10
-50.198
 20
48.83085787711966
 30
0.0
 11
-50.198
 21
47.73019121045299
 31
0.0
 12
-53.5
 22
48.28052454378633
 32
0.0
 13
-53.5
 23
48.28052454378633
 33
0.0
  0
MTEXT
  5
EC
330
E4
100
AcDbEntity
  8
치수문자_일반주서
 62
     0
100
AcDbMText
 10
16.35000000000001
 20
52.65552454378633
 30
0.0
 40
3.5
 41
0.0
 71
     2
 72
     1
  1
\A1;139.70 [5 1/2]
  7
SLDTEXTSTYLE0
 73
     1
 44
1.0
  0
POINT
  5
ED
330
E4
100
AcDbEntity
  8
Defpoints
 62
     0
100
AcDbPoint
 10
86.20000000000002
 20
12.69034108214038
 30
0.0
  0
POINT
  5
EE
330
E4
100
AcDbEntity
  8
Defpoints
 62
     0
100
AcDbPoint
 10
-53.49999999999999
 20
11.70107492872388
 30
0.0
  0
POINT
  5
EF
330
E4
100
AcDbEntity
  8
Defpoints
 62
     0
100
AcDbPoint
 10
-53.49999999999999
 20
48.28052454378633
 30
0.0
  0
ENDBLK
  5
E6
330
E4
100
AcDbEntity
  8
0
100
AcDbBlockEnd
  0
BLOCK
  5
F9
330
F8
100
AcDbEntity
  8
0
100
AcDbBlockBegin
  2
_D_1
 70
     0
 10
0.0
 20
0.0
 30
0.0
  3
_D_1
  1
_D_1
  0
LINE
  5
FB
330
F8
100
AcDbEntity
  8
치수문자_일반주서
 62
     0
370
    -2
100
AcDbLine
 10
-52.56250000000001
 20
12.70107492872388
 30
0.0
 11
-66.31000000000004
 21
12.70107492872383
 31
0.0
  0
LINE
  5
FC
330
F8
100
AcDbEntity
  8
치수문자_일반주서
 62
     0
370
    -2
100
AcDbLine
 10
-52.56250000000001
 20
-12.69892507127612
 30
0.0
 11
-66.30999999999996
 21
-12.69892507127617
 31
0.0
  0
LINE
  5
FD
330
F8
100
AcDbEntity
  8
치수문자_일반주서
 62
     0
370
    -2
100
AcDbLine
 10
-66.31000000000003
 20
9.399074928723834
 30
0.0
 11
-66.30999999999997
 21
-9.396925071276172
 31
0.0
  0
SOLID
  5
FE
330
F8
100
AcDbEntity
  8
치수문자_일반주서
 62
     0
100
AcDbTrace
 10
-65.7596666666667
 20
9.399074928723836
 30
0.0
 11
-66.86033333333336
 21
9.399074928723833
 31
0.0
 12
-66.31000000000004
 22
12.70107492872383
 32
0.0
 13
-66.31000000000004
 23
12.70107492872383
 33
0.0
  0
SOLID
  5
FF
330
F8
100
AcDbEntity
  8
치수문자_일반주서
 62
     0
100
AcDbTrace
 10
-66.8603333333333
 20
-9.396925071276174
 30
0.0
 11
-65.75966666666665
 21
-9.39692507127617
 31
0.0
 12
-66.30999999999996
 22
-12.69892507127617
 32
0.0
 13
-66.30999999999996
 23
-12.69892507127617
 33
0.0
  0
MTEXT
  5
100
330
F8
100
AcDbEntity
  8
치수문자_일반주서
 62
     0
100
AcDbMText
 10
-70.685
 20
0.0010749287238708
 30
0.0
 40
3.5
 41
0.0
 71
     2
 72
     1
  1
\A1;%%c25.40 [1]
  7
SLDTEXTSTYLE0
 11
-3.356894814614646E-15
 21
1.0
 31
0.0
 73
     1
 44
1.0
  0
POINT
  5
101
330
F8
100
AcDbEntity
  8
Defpoints
 62
     0
100
AcDbPoint
 10
-52.50000000000001
 20
12.70107492872388
 30
0.0
  0
POINT
  5
102
330
F8
100
AcDbEntity
  8
Defpoints
 62
     0
100
AcDbPoint
 10
-52.50000000000001
 20
-12.69892507127612
 30
0.0
  0
POINT
  5
103
330
F8
100
AcDbEntity
  8
Defpoints
 62
     0
100
AcDbPoint
 10
-66.30999999999996
 20
-12.69892507127617
 30
0.0
  0
ENDBLK
  5
FA
330
F8
100
AcDbEntity
  8
0
100
AcDbBlockEnd
  0
BLOCK
  5
10D
330
10C
100
AcDbEntity
  8
0
100
AcDbBlockBegin
  2
_D_2
 70
     0
 10
0.0
 20
0.0
 30
0.0
  3
_D_2
  1
_D_2
  0
LINE
  5
10F
330
10C
100
AcDbEntity
  8
치수문자_일반주서
 62
     0
370
    -2
100
AcDbLine
 10
86.20000000000002
 20
12.75284108214038
 30
0.0
 11
86.20000000000002
 21
32.92695859564089
 31
0.0
  0
LINE
  5
110
330
10C
100
AcDbEntity
  8
치수문자_일반주서
 62
     0
370
    -2
100
AcDbLine
 10
9.999999999999995
 20
12.76357492872389
 30
0.0
 11
9.999999999999993
 21
32.92695859564089
 31
0.0
  0
LINE
  5
111
330
10C
100
AcDbEntity
  8
치수문자_일반주서
 62
     0
370
    -2
100
AcDbLine
 10
82.89800000000002
 20
32.92695859564089
 30
0.0
 11
13.30199999999999
 21
32.92695859564089
 31
0.0
  0
SOLID
  5
112
330
10C
100
AcDbEntity
  8
치수문자_일반주서
 62
     0
100
AcDbTrace
 10
82.89800000000002
 20
32.37662526230756
 30
0.0
 11
82.89800000000002
 21
33.47729192897422
 31
0.0
 12
86.20000000000002
 22
32.92695859564089
 32
0.0
 13
86.20000000000002
 23
32.92695859564089
 33
0.0
  0
SOLID
  5
113
330
10C
100
AcDbEntity
  8
치수문자_일반주서
 62
     0
100
AcDbTrace
 10
13.30199999999999
 20
33.47729192897422
 30
0.0
 11
13.30199999999999
 21
32.37662526230756
 31
0.0
 12
9.999999999999993
 22
32.92695859564089
 32
0.0
 13
9.999999999999993
 23
32.92695859564089
 33
0.0
  0
MTEXT
  5
114
330
10C
100
AcDbEntity
  8
치수문자_일반주서
 62
     0
100
AcDbMText
 10
48.1
 20
37.30195859564089
 30
0.0
 40
3.5
 41
0.0
 71
     2
 72
     1
  1
\A1;76.20 [3]
  7
SLDTEXTSTYLE0
 73
     1
 44
1.0
  0
POINT
  5
115
330
10C
100
AcDbEntity
  8
Defpoints
 62
     0
100
AcDbPoint
 10
86.20000000000002
 20
12.69034108214038
 30
0.0
  0
POINT
  5
116
330
10C
100
AcDbEntity
  8
Defpoints
 62
     0
100
AcDbPoint
 10
9.999999999999995
 20
12.70107492872389
 30
0.0
  0
POINT
  5
117
330
10C
100
AcDbEntity
  8
Defpoints
 62
     0
100
AcDbPoint
 10
9.999999999999995
 20
32.92695859564089
 30
0.0
  0
ENDBLK
  5
10E
330
10C
100
AcDbEntity
  8
0
100
AcDbBlockEnd
  0
BLOCK
  5
121
330
120
100
AcDbEntity
  8
0
100
AcDbBlockBegin
  2
_D_3
 70
     0
 10
0.0
 20
0.0
 30
0.0
  3
_D_3
  1
_D_3
  0
LINE
  5
123
330
120
100
AcDbEntity
  8
치수문자_일반주서
 62
     0
370
    -2
100
AcDbLine
 10
86.26250000000002
 20
12.69034108214038
 30
0.0
 11
106.4093537150439
 21
12.69034108214045
 31
0.0
  0
LINE
  5
124
330
120
100
AcDbEntity
  8
치수문자_일반주서
 62
     0
370
    -2
100
AcDbLine
 10
86.26250000000002
 20
-12.68819122469259
 30
0.0
 11
106.4093537150439
 21
-12.68819122469252
 31
0.0
  0
LINE
  5
125
330
120
100
AcDbEntity
  8
치수문자_일반주서
 62
     0
370
    -2
100
AcDbLine
 10
106.4093537150439
 20
12.69034108214045
 30
0.0
 11
106.4093537150438
 21
38.74234108214046
 31
0.0
  0
LINE
  5
126
330
120
100
AcDbEntity
  8
치수문자_일반주서
 62
     0
370
    -2
100
AcDbLine
 10
106.4093537150439
 20
9.388341082140455
 30
0.0
 11
106.4093537150439
 21
-9.386191224692517
 31
0.0
  0
SOLID
  5
127
330
120
100
AcDbEntity
  8
치수문자_일반주서
 62
     0
100
AcDbTrace
 10
106.9596870483772
 20
9.388341082140457
 30
0.0
 11
105.8590203817106
 21
9.388341082140453
 31
0.0
 12
106.4093537150439
 22
12.69034108214045
 32
0.0
 13
106.4093537150439
 23
12.69034108214045
 33
0.0
  0
SOLID
  5
128
330
120
100
AcDbEntity
  8
치수문자_일반주서
 62
     0
100
AcDbTrace
 10
105.8590203817106
 20
-9.386191224692519
 30
0.0
 11
106.9596870483773
 21
-9.386191224692515
 31
0.0
 12
106.4093537150439
 22
-12.68819122469252
 32
0.0
 13
106.4093537150439
 23
-12.68819122469252
 33
0.0
  0
MTEXT
  5
129
330
120
100
AcDbEntity
  8
치수문자_일반주서
 62
     0
100
AcDbMText
 10
102.0343537150438
 20
27.36734108214044
 30
0.0
 40
3.5
 41
0.0
 71
     2
 72
     1
  1
\A1;%%c25.38 [1]
  7
SLDTEXTSTYLE0
 11
-3.359734410971238E-15
 21
1.0
 31
0.0
 73
     1
 44
1.0
  0
POINT
  5
12A
330
120
100
AcDbEntity
  8
Defpoints
 62
     0
100
AcDbPoint
 10
86.20000000000002
 20
12.69034108214038
 30
0.0
  0
POINT
  5
12B
330
120
100
AcDbEntity
  8
Defpoints
 62
     0
100
AcDbPoint
 10
86.20000000000002
 20
-12.68819122469259
 30
0.0
  0
POINT
  5
12C
330
120
100
AcDbEntity
  8
Defpoints
 62
     0
100
AcDbPoint
 10
106.4093537150439
 20
-12.68819122469252
 30
0.0
  0
ENDBLK
  5
122
330
120
100
AcDbEntity
  8
0
100
AcDbBlockEnd
  0
BLOCK
  5
133
330
132
100
AcDbEntity
  8
0
100
AcDbBlockBegin
  2
SW_DOWELSYMBOL_0
 70
     0
 10
0.0
 20
0.0
 30
0.0
  3
SW_DOWELSYMBOL_0
  1
SW_DOWELSYMBOL_0
  0
CIRCLE
  5
135
330
132
100
AcDbEntity
  8
외형선
 62
     0
100
AcDbCircle
 10
0.0
 20
0.0
 30
0.0
 40
3.000000000000004
  0
HATCH
  5
136
330
132
100
AcDbEntity
  8
0
  6
Continuous
 62
     0
370
    35
100
AcDbHatch
 10
0.0
 20
0.0
 30
0.0
210
0.0
220
0.0
230
1.0
  2
SOLID
 70
     1
 71
     0
 91
        1
 92
        0
 93
        3
 72
     2
 10
0.0000000000000087
 20
0.0
 40
3.000000000000004
 50
0.0
 51
90.0
 73
     1
 72
     1
 10
0.0000000000000087
 20
3.000000000000004
 11
0.0000000000000087
 21
0.0
 72
     1
 10
0.0000000000000087
 20
0.0
 11
3.000000000000013
 21
0.0
 97
        0
 75
     0
 76
     1
 98
        1
 10
0.0
 20
0.0
  0
HATCH
  5
137
330
132
100
AcDbEntity
  8
0
  6
Continuous
 62
     0
370
    35
100
AcDbHatch
 10
0.0
 20
0.0
 30
0.0
210
0.0
220
0.0
230
1.0
  2
SOLID
 70
     1
 71
     0
 91
        1
 92
        0
 93
        3
 72
     2
 10
0.0000000000000087
 20
0.0
 40
3.000000000000004
 50
180.0
 51
270.0000000000007
 73
     1
 72
     1
 10
0.0000000000000087
 20
-3.000000000000004
 11
0.0000000000000087
 21
0.0
 72
     1
 10
0.0000000000000087
 20
0.0
 11
-2.999999999999996
 21
0.0
 97
        0
 75
     0
 76
     1
 98
        1
 10
0.0
 20
0.0
  0
ENDBLK
  5
134
330
132
100
AcDbEntity
  8
0
100
AcDbBlockEnd
  0
BLOCK
  5
1E0
330
1DF
100
AcDbEntity
  8
0
100
AcDbBlockBegin
  2
*D8
 70
     1
 10
0.0
 20
0.0
 30
0.0
  3
*D8
  1

  0
LINE
  5
1E1
330
1DF
100
AcDbEntity
  8
치수문자_일반주서
 62
     0
370
    -2
100
AcDbLine
 10
115.975
 20
25.17201358484582
 30
0.0
 11
115.975
 21
51.1953718407879
 31
0.0
  0
LINE
  5
1E2
330
1DF
100
AcDbEntity
  8
치수문자_일반주서
 62
     0
370
    -2
100
AcDbLine
 10
14.375
 20
24.96250000000003
 30
0.0
 11
14.375
 21
51.1953718407879
 31
0.0
  0
LINE
  5
1E3
330
1DF
100
AcDbEntity
  8
치수문자_일반주서
 62
     0
370
    -2
100
AcDbLine
 10
112.673
 20
51.1953718407879
 30
0.0
 11
17.677
 21
51.1953718407879
 31
0.0
  0
SOLID
  5
1E4
330
1DF
100
AcDbEntity
  8
치수문자_일반주서
 62
     0
100
AcDbTrace
 10
112.673
 20
50.64503850745457
 30
0.0
 11
112.673
 21
51.74570517412123
 31
0.0
 12
115.975
 22
51.1953718407879
 32
0.0
 13
115.975
 23
51.1953718407879
 33
0.0
  0
SOLID
  5
1E5
330
1DF
100
AcDbEntity
  8
치수문자_일반주서
 62
     0
100
AcDbTrace
 10
17.677
 20
51.74570517412123
 30
0.0
 11
17.677
 21
50.64503850745457
 31
0.0
 12
14.375
 22
51.1953718407879
 32
0.0
 13
14.375
 23
51.1953718407879
 33
0.0
  0
MTEXT
  5
1E6
330
1DF
100
AcDbEntity
  8
치수문자_일반주서
 62
     0
100
AcDbMText
 10
65.31347048023954
 20
55.5703718407879
 30
0.0
 40
3.5
 41
0.0
 71
     2
 72
     1
  1
\A1;101.6 [4]
  7
SLDTEXTSTYLE0
 73
     1
 44
1.0
  0
POINT
  5
1E7
330
1DF
100
AcDbEntity
  8
Defpoints
 62
     0
100
AcDbPoint
 10
115.975
 20
25.10951358484582
 30
0.0
  0
POINT
  5
1E8
330
1DF
100
AcDbEntity
  8
Defpoints
 62
     0
100
AcDbPoint
 10
14.375
 20
24.90000000000003
 30
0.0
  0
POINT
  5
1E9
330
1DF
100
AcDbEntity
  8
Defpoints
 62
     0
100
AcDbPoint
 10
14.375
 20
51.1953718407879
 30
0.0
  0
ENDBLK
  5
1EA
330
1DF
100
AcDbEntity
  8
0
100
AcDbBlockEnd
  0
BLOCK
  5
1ED
330
1EC
100
AcDbEntity
  8
0
100
AcDbBlockBegin
  2
*D9
 70
     1
 10
0.0
 20
0.0
 30
0.0
  3
*D9
  1

  0
LINE
  5
1EE
330
1EC
100
AcDbEntity
  8
치수문자_일반주서
 62
     0
370
    -2
100
AcDbLine
 10
115.975
 20
22.23486111009292
 30
0.0
 11
115.975
 21
38.22465310367576
 31
0.0
  0
LINE
  5
1EF
330
1EC
100
AcDbEntity
  8
치수문자_일반주서
 62
     0
370
    -2
100
AcDbLine
 10
77.87499999999997
 20
21.9172713941135
 30
0.0
 11
77.87499999999997
 21
38.22465310367576
 31
0.0
  0
LINE
  5
1F0
330
1EC
100
AcDbEntity
  8
치수문자_일반주서
 62
     0
370
    -2
100
AcDbLine
 10
112.673
 20
38.22465310367576
 30
0.0
 11
81.17699999999998
 21
38.22465310367576
 31
0.0
  0
SOLID
  5
1F1
330
1EC
100
AcDbEntity
  8
치수문자_일반주서
 62
     0
100
AcDbTrace
 10
112.673
 20
37.67431977034243
 30
0.0
 11
112.673
 21
38.7749864370091
 31
0.0
 12
115.975
 22
38.22465310367576
 32
0.0
 13
115.975
 23
38.22465310367576
 33
0.0
  0
SOLID
  5
1F2
330
1EC
100
AcDbEntity
  8
치수문자_일반주서
 62
     0
100
AcDbTrace
 10
81.17699999999998
 20
38.7749864370091
 30
0.0
 11
81.17699999999998
 21
37.67431977034243
 31
0.0
 12
77.87499999999997
 22
38.22465310367576
 32
0.0
 13
77.87499999999997
 23
38.22465310367576
 33
0.0
  0
MTEXT
  5
1F3
330
1EC
100
AcDbEntity
  8
치수문자_일반주서
 62
     0
100
AcDbMText
 10
96.92499999999998
 20
42.59965310367576
 30
0.0
 40
3.5
 41
0.0
 71
     2
 72
     1
  1
\A1;38.1 [1 1/2]
  7
SLDTEXTSTYLE0
 73
     1
 44
1.0
  0
POINT
  5
1F4
330
1EC
100
AcDbEntity
  8
Defpoints
 62
     0
100
AcDbPoint
 10
115.975
 20
22.17236111009292
 30
0.0
  0
POINT
  5
1F5
330
1EC
100
AcDbEntity
  8
Defpoints
 62
     0
100
AcDbPoint
 10
77.87499999999997
 20
21.8547713941135
 30
0.0
  0
POINT
  5
1F6
330
1EC
100
AcDbEntity
  8
Defpoints
 62
     0
100
AcDbPoint
 10
77.87499999999997
 20
38.22465310367576
 30
0.0
  0
ENDBLK
  5
1F7
330
1EC
100
AcDbEntity
  8
0
100
AcDbBlockEnd
  0
BLOCK
  5
1FA
330
1F9
100
AcDbEntity
  8
0
100
AcDbBlockBegin
  2
*D10
 70
     1
 10
0.0
 20
0.0
 30
0.0
  3
*D10
  1

  0
LINE
  5
1FB
330
1F9
100
AcDbEntity
  8
치수문자_일반주서
 62
     0
370
    -2
100
AcDbLine
 10
14.8125
 20
25.40000000000004
 30
0.0
 11
4.374999999999984
 21
25.4
 31
0.0
  0
LINE
  5
1FC
330
1F9
100
AcDbEntity
  8
치수문자_일반주서
 62
     0
370
    -2
100
AcDbLine
 10
14.8125
 20
0.0000000000000424
 30
0.0
 11
4.375000000000073
 21
0.0000000000000036
 31
0.0
  0
LINE
  5
1FD
330
1F9
100
AcDbEntity
  8
치수문자_일반주서
 62
     0
370
    -2
100
AcDbLine
 10
4.374999999999996
 20
22.098
 30
0.0
 11
4.375000000000061
 21
3.302000000000004
 31
0.0
  0
SOLID
  5
1FE
330
1F9
100
AcDbEntity
  8
치수문자_일반주서
 62
     0
100
AcDbTrace
 10
4.925333333333329
 20
22.09800000000001
 30
0.0
 11
3.824666666666662
 21
22.098
 31
0.0
 12
4.374999999999984
 22
25.4
 32
0.0
 13
4.374999999999984
 23
25.4
 33
0.0
  0
SOLID
  5
1FF
330
1F9
100
AcDbEntity
  8
치수문자_일반주서
 62
     0
100
AcDbTrace
 10
3.824666666666728
 20
3.302000000000002
 30
0.0
 11
4.925333333333395
 21
3.302000000000005
 31
0.0
 12
4.375000000000073
 22
0.0000000000000036
 32
0.0
 13
4.375000000000073
 23
0.0000000000000036
 33
0.0
  0
MTEXT
  5
200
330
1F9
100
AcDbEntity
  8
치수문자_일반주서
 62
     0
100
AcDbMText
 10
0.0000000000000284
 20
12.70000000000009
 30
0.0
 40
3.5
 41
0.0
 71
     2
 72
     1
  1
\A1;%%c25.4 [1]
  7
SLDTEXTSTYLE0
 11
-3.496765431890257E-15
 21
1.0
 31
0.0
 73
     1
 44
1.0
  0
POINT
  5
201
330
1F9
100
AcDbEntity
  8
Defpoints
 62
     0
100
AcDbPoint
 10
14.875
 20
25.40000000000004
 30
0.0
  0
POINT
  5
202
330
1F9
100
AcDbEntity
  8
Defpoints
 62
     0
100
AcDbPoint
 10
14.875
 20
0.0000000000000426
 30
0.0
  0
POINT
  5
203
330
1F9
100
AcDbEntity
  8
Defpoints
 62
     0
100
AcDbPoint
 10
4.375000000000071
 20
0.0000000000000034
 30
0.0
  0
ENDBLK
  5
204
330
1F9
100
AcDbEntity
  8
0
100
AcDbBlockEnd
  0
BLOCK
  5
207
330
206
100
AcDbEntity
  8
0
100
AcDbBlockBegin
  2
*D11
 70
     1
 10
0.0
 20
0.0
 30
0.0
  3
*D11
  1

  0
LINE
  5
208
330
206
100
AcDbEntity
  8
치수문자_일반주서
 62
     0
370
    -2
100
AcDbLine
 10
114.8838755214296
 20
0.0000000000000429
 30
0.0
 11
128.1091059243044
 21
0.0000000000000924
 31
0.0
  0
LINE
  5
209
330
206
100
AcDbEntity
  8
치수문자_일반주서
 62
     0
370
    -2
100
AcDbLine
 10
114.8838755214295
 20
25.40000000000004
 30
0.0
 11
128.1091059243043
 21
25.40000000000009
 31
0.0
  0
LINE
  5
20A
330
206
100
AcDbEntity
  8
치수문자_일반주서
 62
     0
370
    -2
100
AcDbLine
 10
128.1091059243044
 20
3.302000000000092
 30
0.0
 11
128.1091059243043
 21
22.09800000000009
 31
0.0
  0
SOLID
  5
20B
330
206
100
AcDbEntity
  8
치수문자_일반주서
 62
     0
100
AcDbTrace
 10
127.5587725909711
 20
3.302000000000091
 30
0.0
 11
128.6594392576378
 21
3.302000000000094
 31
0.0
 12
128.1091059243044
 22
0.0000000000000924
 32
0.0
 13
128.1091059243044
 23
0.0000000000000924
 33
0.0
  0
SOLID
  5
20C
330
206
100
AcDbEntity
  8
치수문자_일반주서
 62
     0
100
AcDbTrace
 10
128.6594392576377
 20
22.09800000000009
 30
0.0
 11
127.558772590971
 21
22.09800000000009
 31
0.0
 12
128.1091059243043
 22
25.40000000000009
 32
0.0
 13
128.1091059243043
 23
25.40000000000009
 33
0.0
  0
MTEXT
  5
20D
330
206
100
AcDbEntity
  8
치수문자_일반주서
 62
     0
100
AcDbMText
 10
123.7341059243044
 20
12.70000000000003
 30
0.0
 40
3.5
 41
0.0
 71
     2
 72
     1
  1
\A1;%%c25.4 [1]
  7
SLDTEXTSTYLE0
 11
-3.356894814614647E-15
 21
1.0
 31
0.0
 73
     1
 44
1.0
  0
POINT
  5
20E
330
206
100
AcDbEntity
  8
Defpoints
 62
     0
100
AcDbPoint
 10
114.8213755214296
 20
0.0000000000000426
 30
0.0
  0
POINT
  5
20F
330
206
100
AcDbEntity
  8
Defpoints
 62
     0
100
AcDbPoint
 10
114.8213755214295
 20
25.40000000000004
 30
0.0
  0
POINT
  5
210
330
206
100
AcDbEntity
  8
Defpoints
 62
     0
100
AcDbPoint
 10
128.1091059243043
 20
25.40000000000009
 30
0.0
  0
ENDBLK
  5
211
330
206
100
AcDbEntity
  8
0
100
AcDbBlockEnd
  0
BLOCK
  5
276
330
275
100
AcDbEntity
  8
0
100
AcDbBlockBegin
  2
*D12
 70
     1
 10
0.0
 20
0.0
 30
0.0
  3
*D12
  1

  0
LINE
  5
278
330
275
100
AcDbEntity
  8
치수문자_일반주서
 62
     0
370
    -2
100
AcDbLine
 10
192.7701782223616
 20
-79.31894450063689
 30
0.0
 11
192.7701782223616
 21
-53.2955862446948
 31
0.0
  0
LINE
  5
279
330
275
100
AcDbEntity
  8
치수문자_일반주서
 62
     0
370
    -2
100
AcDbLine
 10
91.17017822236161
 20
-79.52845808548267
 30
0.0
 11
91.17017822236161
 21
-53.2955862446948
 31
0.0
  0
LINE
  5
27A
330
275
100
AcDbEntity
  8
치수문자_일반주서
 62
     0
370
    -2
100
AcDbLine
 10
189.4681782223616
 20
-53.2955862446948
 30
0.0
 11
94.47217822236162
 21
-53.2955862446948
 31
0.0
  0
SOLID
  5
27B
330
275
100
AcDbEntity
  8
치수문자_일반주서
 62
     0
100
AcDbTrace
 10
189.4681782223616
 20
-53.84591957802814
 30
0.0
 11
189.4681782223616
 21
-52.74525291136147
 31
0.0
 12
192.7701782223616
 22
-53.2955862446948
 32
0.0
 13
192.7701782223616
 23
-53.2955862446948
 33
0.0
  0
SOLID
  5
27C
330
275
100
AcDbEntity
  8
치수문자_일반주서
 62
     0
100
AcDbTrace
 10
94.47217822236162
 20
-52.74525291136147
 30
0.0
 11
94.47217822236162
 21
-53.84591957802814
 31
0.0
 12
91.17017822236161
 22
-53.2955862446948
 32
0.0
 13
91.17017822236161
 23
-53.2955862446948
 33
0.0
  0
MTEXT
  5
27D
330
275
100
AcDbEntity
  8
치수문자_일반주서
 62
     0
100
AcDbMText
 10
142.1086487026012
 20
-48.9205862446948
 30
0.0
 40
3.5
 41
0.0
 71
     2
 72
     1
  1
\A1;101.6 [4]
  7
SLDTEXTSTYLE0
 73
     1
 44
1.0
  0
POINT
  5
27E
330
275
100
AcDbEntity
  8
Defpoints
 62
     0
100
AcDbPoint
 10
192.7701782223616
 20
-79.38144450063689
 30
0.0
  0
POINT
  5
27F
330
275
100
AcDbEntity
  8
Defpoints
 62
     0
100
AcDbPoint
 10
91.17017822236161
 20
-79.59095808548267
 30
0.0
  0
POINT
  5
280
330
275
100
AcDbEntity
  8
Defpoints
 62
     0
100
AcDbPoint
 10
91.17017822236161
 20
-53.2955862446948
 30
0.0
  0
ENDBLK
  5
277
330
275
100
AcDbEntity
  8
0
100
AcDbBlockEnd
  0
BLOCK
  5
282
330
281
100
AcDbEntity
  8
0
100
AcDbBlockBegin
  2
*D13
 70
     1
 10
0.0
 20
0.0
 30
0.0
  3
*D13
  1

  0
LINE
  5
284
330
281
100
AcDbEntity
  8
치수문자_일반주서
 62
     0
370
    -2
100
AcDbLine
 10
192.7701782223616
 20
-82.25609697538978
 30
0.0
 11
192.7701782223616
 21
-66.26630498180694
 31
0.0
  0
LINE
  5
285
330
281
100
AcDbEntity
  8
치수문자_일반주서
 62
     0
370
    -2
100
AcDbLine
 10
154.6701782223616
 20
-82.5736866913692
 30
0.0
 11
154.6701782223616
 21
-66.26630498180694
 31
0.0
  0
LINE
  5
286
330
281
100
AcDbEntity
  8
치수문자_일반주서
 62
     0
370
    -2
100
AcDbLine
 10
189.4681782223616
 20
-66.26630498180694
 30
0.0
 11
157.9721782223616
 21
-66.26630498180694
 31
0.0
  0
SOLID
  5
287
330
281
100
AcDbEntity
  8
치수문자_일반주서
 62
     0
100
AcDbTrace
 10
189.4681782223616
 20
-66.81663831514027
 30
0.0
 11
189.4681782223616
 21
-65.71597164847361
 31
0.0
 12
192.7701782223616
 22
-66.26630498180694
 32
0.0
 13
192.7701782223616
 23
-66.26630498180694
 33
0.0
  0
SOLID
  5
288
330
281
100
AcDbEntity
  8
치수문자_일반주서
 62
     0
100
AcDbTrace
 10
157.9721782223616
 20
-65.71597164847361
 30
0.0
 11
157.9721782223616
 21
-66.81663831514027
 31
0.0
 12
154.6701782223616
 22
-66.26630498180694
 32
0.0
 13
154.6701782223616
 23
-66.26630498180694
 33
0.0
  0
MTEXT
  5
289
330
281
100
AcDbEntity
  8
치수문자_일반주서
 62
     0
100
AcDbMText
 10
173.7201782223616
 20
-61.89130498180694
 30
0.0
 40
3.5
 41
0.0
 71
     2
 72
     1
  1
\A1;38.1 [1 1/2]
  7
SLDTEXTSTYLE0
 73
     1
 44
1.0
  0
POINT
  5
28A
330
281
100
AcDbEntity
  8
Defpoints
 62
     0
100
AcDbPoint
 10
192.7701782223616
 20
-82.31859697538978
 30
0.0
  0
POINT
  5
28B
330
281
100
AcDbEntity
  8
Defpoints
 62
     0
100
AcDbPoint
 10
154.6701782223616
 20
-82.6361866913692
 30
0.0
  0
POINT
  5
28C
330
281
100
AcDbEntity
  8
Defpoints
 62
     0
100
AcDbPoint
 10
154.6701782223616
 20
-66.26630498180694
 30
0.0
  0
ENDBLK
  5
283
330
281
100
AcDbEntity
  8
0
100
AcDbBlockEnd
  0
BLOCK
  5
28E
330
28D
100
AcDbEntity
  8
0
100
AcDbBlockBegin
  2
*D14
 70
     1
 10
0.0
 20
0.0
 30
0.0
  3
*D14
  1

  0
LINE
  5
290
330
28D
100
AcDbEntity
  8
치수문자_일반주서
 62
     0
370
    -2
100
AcDbLine
 10
91.60767822236161
 20
-79.09095808548267
 30
0.0
 11
81.1701782223616
 21
-79.09095808548271
 31
0.0
  0
LINE
  5
291
330
28D
100
AcDbEntity
  8
치수문자_일반주서
 62
     0
370
    -2
100
AcDbLine
 10
91.60767822236161
 20
-104.4909580854827
 30
0.0
 11
81.17017822236168
 21
-104.4909580854827
 31
0.0
  0
LINE
  5
292
330
28D
100
AcDbEntity
  8
치수문자_일반주서
 62
     0
370
    -2
100
AcDbLine
 10
81.17017822236161
 20
-82.39295808548272
 30
0.0
 11
81.17017822236167
 21
-101.1889580854827
 31
0.0
  0
SOLID
  5
293
330
28D
100
AcDbEntity
  8
치수문자_일반주서
 62
     0
100
AcDbTrace
 10
81.72051155569494
 20
-82.39295808548272
 30
0.0
 11
80.61984488902829
 21
-82.39295808548272
 31
0.0
 12
81.1701782223616
 22
-79.09095808548271
 32
0.0
 13
81.1701782223616
 23
-79.09095808548271
 33
0.0
  0
SOLID
  5
294
330
28D
100
AcDbEntity
  8
치수문자_일반주서
 62
     0
100
AcDbTrace
 10
80.61984488902834
 20
-101.1889580854827
 30
0.0
 11
81.720511555695
 21
-101.1889580854827
 31
0.0
 12
81.17017822236168
 22
-104.4909580854827
 32
0.0
 13
81.17017822236168
 23
-104.4909580854827
 33
0.0
  0
MTEXT
  5
295
330
28D
100
AcDbEntity
  8
치수문자_일반주서
 62
     0
100
AcDbMText
 10
76.79517822236164
 20
-91.79095808548261
 30
0.0
 40
3.5
 41
0.0
 71
     2
 72
     1
  1
\A1;%%c25.4 [1]
  7
SLDTEXTSTYLE0
 11
-3.356894814614648E-15
 21
1.0
 31
0.0
 73
     1
 44
1.0
  0
POINT
  5
296
330
28D
100
AcDbEntity
  8
Defpoints
 62
     0
100
AcDbPoint
 10
91.67017822236161
 20
-79.09095808548267
 30
0.0
  0
POINT
  5
297
330
28D
100
AcDbEntity
  8
Defpoints
 62
     0
100
AcDbPoint
 10
91.67017822236161
 20
-104.4909580854827
 30
0.0
  0
POINT
  5
298
330
28D
100
AcDbEntity
  8
Defpoints
 62
     0
100
AcDbPoint
 10
81.17017822236168
 20
-104.4909580854827
 30
0.0
  0
ENDBLK
  5
28F
330
28D
100
AcDbEntity
  8
0
100
AcDbBlockEnd
  0
BLOCK
  5
29A
330
299
100
AcDbEntity
  8
0
100
AcDbBlockBegin
  2
*D15
 70
     1
 10
0.0
 20
0.0
 30
0.0
  3
*D15
  1

  0
LINE
  5
29C
330
299
100
AcDbEntity
  8
치수문자_일반주서
 62
     0
370
    -2
100
AcDbLine
 10
191.6790537437912
 20
-104.4909580854827
 30
0.0
 11
204.904284146666
 21
-104.4909580854826
 31
0.0
  0
LINE
  5
29D
330
299
100
AcDbEntity
  8
치수문자_일반주서
 62
     0
370
    -2
100
AcDbLine
 10
191.6790537437911
 20
-79.09095808548267
 30
0.0
 11
204.904284146666
 21
-79.09095808548263
 31
0.0
  0
LINE
  5
29E
330
299
100
AcDbEntity
  8
치수문자_일반주서
 62
     0
370
    -2
100
AcDbLine
 10
204.904284146666
 20
-101.1889580854826
 30
0.0
 11
204.904284146666
 21
-82.39295808548263
 31
0.0
  0
SOLID
  5
29F
330
299
100
AcDbEntity
  8
치수문자_일반주서
 62
     0
100
AcDbTrace
 10
204.3539508133327
 20
-101.1889580854826
 30
0.0
 11
205.4546174799994
 21
-101.1889580854826
 31
0.0
 12
204.904284146666
 22
-104.4909580854826
 32
0.0
 13
204.904284146666
 23
-104.4909580854826
 33
0.0
  0
SOLID
  5
2A0
330
299
100
AcDbEntity
  8
치수문자_일반주서
 62
     0
100
AcDbTrace
 10
205.4546174799993
 20
-82.39295808548263
 30
0.0
 11
204.3539508133326
 21
-82.39295808548263
 31
0.0
 12
204.904284146666
 22
-79.09095808548263
 32
0.0
 13
204.904284146666
 23
-79.09095808548263
 33
0.0
  0
MTEXT
  5
2A1
330
299
100
AcDbEntity
  8
치수문자_일반주서
 62
     0
100
AcDbMText
 10
200.529284146666
 20
-91.79095808548267
 30
0.0
 40
3.5
 41
0.0
 71
     2
 72
     1
  1
\A1;%%c25.4 [1]
  7
SLDTEXTSTYLE0
 11
-3.356894814614648E-15
 21
1.0
 31
0.0
 73
     1
 44
1.0
  0
POINT
  5
2A2
330
299
100
AcDbEntity
  8
Defpoints
 62
     0
100
AcDbPoint
 10
191.6165537437912
 20
-104.4909580854827
 30
0.0
  0
POINT
  5
2A3
330
299
100
AcDbEntity
  8
Defpoints
 62
     0
100
AcDbPoint
 10
191.6165537437911
 20
-79.09095808548267
 30
0.0
  0
POINT
  5
2A4
330
299
100
AcDbEntity
  8
Defpoints
 62
     0
100
AcDbPoint
 10
204.904284146666
 20
-79.09095808548263
 30
0.0
  0
ENDBLK
  5
29B
330
299
100
AcDbEntity
  8
0
100
AcDbBlockEnd
  0
ENDSEC
  0
SECTION
  2
ENTITIES
  0
LINE
  5
99
330
1F
100
AcDbEntity
  8
0
  6
Continuous
 62
     4
370
    25
100
AcDbLine
 10
9.999999999999991
 20
12.70107492872389
 30
0.0
 11
-16.09127914949588
 21
12.70107492872389
 31
0.0
  0
LINE
  5
9A
330
1F
100
AcDbEntity
  8
0
  6
Continuous
 62
     4
370
    25
100
AcDbLine
 10
-52.49999999999999
 20
-12.69892507127611
 30
0.0
 11
9.999999999999995
 21
-12.69892507127611
 31
0.0
  0
LINE
  5
9C
330
1F
100
AcDbEntity
  8
0
  6
Continuous
 62
     4
370
    25
100
AcDbLine
 10
-53.49999999999999
 20
-11.6989250712761
 30
0.0
 11
-52.49999999999999
 21
-12.69892507127611
 31
0.0
  0
SPLINE
  5
9D
330
1F
100
AcDbEntity
  8
0
  6
Continuous
 62
     1
370
    25
100
AcDbSpline
210
0.0
220
0.0
230
1.0
 70
     8
 71
     3
 72
    10
 73
     6
 74
     0
 42
0.000000001
 43
0.00000001
 40
0.0
 40
0.0
 40
0.0
 40
0.0
 40
0.4987158369858776
 40
0.6862952616939472
 40
1.0
 40
1.0
 40
1.0
 40
1.0
 10
67.20311131306141
 20
3.255402793465122
 30
0.0
 10
66.86529358857267
 20
3.534780184428763
 30
0.0
 10
66.40041421952346
 20
3.919238357647342
 30
0.0
 10
65.72328849594372
 20
4.514962604493888
 30
0.0
 10
65.3829713642563
 20
4.824088175018541
 30
0.0
 10
65.17000015029426
 20
5.017539640993569
 30
0.0
  0
SPLINE
  5
9E
330
1F
100
AcDbEntity
  8
0
  6
Continuous
 62
     1
370
    25
100
AcDbSpline
210
0.0
220
0.0
230
1.0
 70
     8
 71
     3
 72
    10
 73
     6
 74
     0
 42
0.000000001
 43
0.00000001
 40
0.0
 40
0.0
 40
0.0
 40
0.0
 40
0.4986393200471287
 40
0.6861902068601425
 40
1.0
 40
1.0
 40
1.0
 40
1.0
 10
27.30475543970937
 20
3.255507342014574
 30
0.0
 10
26.9670129654402
 20
3.534823564856948
 30
0.0
 10
26.50223698615658
 20
3.919197698676734
 30
0.0
 10
25.82511398426405
 20
4.514915345004291
 30
0.0
 10
25.48474343306766
 20
4.824089752983719
 30
0.0
 10
25.27169997646495
 20
5.017607036830714
 30
0.0
  0
LINE
  5
9F
330
1F
100
AcDbEntity
  8
0
  6
Continuous
 62
     4
370
    25
100
AcDbLine
 10
9.99999999999999
 20
-12.69892507127611
 30
0.0
 11
10.4788389153532
 21
-12.69892507127611
 31
0.0
  0
LINE
  5
A0
330
1F
100
AcDbEntity
  8
0
  6
Continuous
 62
     1
370
    25
100
AcDbLine
 10
50.37856159133706
 20
12.7010749287239
 30
0.0
 11
46.82364131542304
 21
12.7010749287239
 31
0.0
  0
LINE
  5
A1
330
1F
100
AcDbEntity
  8
0
  6
Continuous
 62
     1
370
    25
100
AcDbLine
 10
46.82311162292579
 20
-12.69892507127611
 30
0.0
 11
50.37856159133704
 21
-12.69892507127611
 31
0.0
  0
LINE
  5
A2
330
1F
100
AcDbEntity
  8
0
  6
Continuous
 62
     4
370
    25
100
AcDbLine
 10
10.4788389153532
 20
12.7010749287239
 30
0.0
 11
9.999999999999995
 21
12.7010749287239
 31
0.0
  0
SPLINE
  5
A3
330
1F
100
AcDbEntity
  8
0
  6
Continuous
 62
     1
370
    25
100
AcDbSpline
210
0.0
220
0.0
230
1.0
 70
     8
 71
     3
 72
    27
 73
    23
 74
     0
 42
0.000000001
 43
0.00000001
 40
0.0
 40
0.0
 40
0.0
 40
0.0
 40
0.0830048540641527
 40
0.15058789991412
 40
0.2025557143843618
 40
0.2314812187886586
 40
0.2529038072797861
 40
0.2694832969661844
 40
0.2818154728899492
 40
0.2884743650503113
 40
0.2942869548951559
 40
0.2997606918617883
 40
0.3071774208935604
 40
0.3518112152962289
 40
0.4097369272356263
 40
0.4650529480435067
 40
0.5964193966083302
 40
0.7199477028258421
 40
0.7646267838621696
 40
0.824684855249739
 40
0.9031826902582454
 40
1.0
 40
1.0
 40
1.0
 40
1.0
 10
53.7519844022717
 20
-10.56705314059528
 30
0.0
 10
54.05977040832489
 20
-10.51535430295938
 30
0.0
 10
54.61815761106229
 20
-10.42156196424175
 30
0.0
 10
55.35700508740626
 20
-10.31535482255716
 30
0.0
 10
55.88413549038442
 20
-10.2460638752585
 30
0.0
 10
56.23214836688962
 20
-10.20308089805097
 30
0.0
 10
56.43412788095631
 20
-10.17786342511936
 30
0.0
 10
56.60172960301539
 20
-10.15796370307486
 30
0.0
 10
56.73116402633183
 20
-10.14379916315797
 30
0.0
 10
56.83052582133046
 20
-10.13400221172529
 30
0.0
 10
56.89282331868615
 20
-10.12876016129175
 30
0.0
 10
56.96030594090485
 20
-10.12276079428067
 30
0.0
 10
57.18423057086716
 20
-10.10172297746187
 30
0.0
 10
57.60774564484736
 20
-10.06286872502171
 30
0.0
 10
58.20402243507083
 20
-10.01638468203709
 30
0.0
 10
59.12265302742048
 20
-9.958479680865926
 30
0.0
 10
60.26656804856317
 20
-9.91629993960166
 30
0.0
 10
61.3759575166409
 20
-9.914429375969195
 30
0.0
 10
62.22044294791695
 20
-9.932857086547259
 30
0.0
 10
62.89781567002895
 20
-9.957646882126225
 30
0.0
 10
63.7682405149645
 20
-10.00478064500609
 30
0.0
 10
64.41968606493903
 20
-10.06022255631093
 30
0.0
 10
64.77944509021674
 20
-10.09084020036629
 30
0.0
  0
SPLINE
  5
A4
330
1F
100
AcDbEntity
  8
0
  6
Continuous
 62
     1
370
    25
100
AcDbSpline
210
0.0
220
0.0
230
1.0
 70
     8
 71
     3
 72
    16
 73
    12
 74
     0
 42
0.000000001
 43
0.00000001
 40
0.0
 40
0.0
 40
0.0
 40
0.0
 40
0.172930492962172
 40
0.3107187975690792
 40
0.4132847485264519
 40
0.533329415766261
 40
0.6443509724403778
 40
0.7531833497555119
 40
0.8605260811736356
 40
0.9672226592683824
 40
1.0
 40
1.0
 40
1.0
 40
1.0
 10
24.88108113384884
 20
10.09297738493451
 30
0.0
 10
24.53714432355874
 20
10.06359844240022
 30
0.0
 10
23.91916405702205
 20
10.01081081922435
 30
0.0
 10
23.10121964632132
 20
9.964939091513072
 30
0.0
 10
22.38833470040391
 20
9.936591653790757
 30
0.0
 10
21.727348448208
 20
9.921367671214693
 30
0.0
 10
21.05506094572869
 20
9.917473556691203
 30
0.0
 10
20.40686365200462
 20
9.924118316740863
 30
0.0
 10
19.76724830082031
 20
9.94195038466237
 30
0.0
 10
19.27833237082452
 20
9.960432164162466
 30
0.0
 10
19.00215246784008
 20
9.97777240779788
 30
0.0
 10
18.93724827027024
 20
9.981847485624543
 30
0.0
  0
SPLINE
  5
A5
330
1F
100
AcDbEntity
  8
0
  6
Continuous
 62
     1
370
    25
100
AcDbSpline
210
0.0
220
0.0
230
1.0
 70
     8
 71
     3
 72
    23
 73
    19
 74
     0
 42
0.000000001
 43
0.00000001
 40
0.0
 40
0.0
 40
0.0
 40
0.0
 40
0.0744159830841945
 40
0.1276781048607409
 40
0.1619205448167562
 40
0.1989492213416029
 40
0.2437520802077972
 40
0.2915203002305504
 40
0.3989541631497233
 40
0.4980323930515533
 40
0.5981500392232025
 40
0.6845009207692079
 40
0.7114538410129455
 40
0.7392139405789293
 40
0.78047156505414
 40
0.8378606358711691
 40
0.9110178005320243
 40
1.0
 40
1.0
 40
1.0
 40
1.0
 10
13.85341171853031
 20
-10.56711329133321
 30
0.0
 10
14.12549969966276
 20
-10.52119929601187
 30
0.0
 10
14.59233056511099
 20
-10.44242304840682
 30
0.0
 10
15.18437039837463
 20
-10.35464853041041
 30
0.0
 10
15.64578968916444
 20
-10.29075102985902
 30
0.0
 10
16.07517826393454
 20
-10.23519581054509
 30
0.0
 10
16.55249260581832
 20
-10.1781905705948
 30
0.0
 10
17.28852717020738
 20
-10.09943970911087
 30
0.0
 10
18.22367121921809
 20
-10.01872544490271
 30
0.0
 10
19.34908859837115
 20
-9.952427954949757
 30
0.0
 10
20.39903177929556
 20
-9.919604081555594
 30
0.0
 10
21.18310846129757
 20
-9.91518571078866
 30
0.0
 10
21.70119147598267
 20
-9.92043800877322
 30
0.0
 10
22.05393782546597
 20
-9.926685627186139
 30
0.0
 10
22.51739548077768
 20
-9.939255620282031
 30
0.0
 10
23.14799701336013
 20
-9.96507225293573
 30
0.0
 10
23.95412062601824
 20
-10.01138306236391
 30
0.0
 10
24.55262274252108
 20
-10.06267724385144
 30
0.0
 10
24.88108113384883
 20
-10.09082752748672
 30
0.0
  0
SPLINE
  5
A6
330
1F
100
AcDbEntity
  8
0
  6
Continuous
 62
     1
370
    25
100
AcDbSpline
210
0.0
220
0.0
230
1.0
 70
     8
 71
     3
 72
    14
 73
    10
 74
     0
 42
0.000000001
 43
0.00000001
 40
0.0
 40
0.0
 40
0.0
 40
0.0
 40
0.1977409094173058
 40
0.3423892752805918
 40
0.4372746324595507
 40
0.5227680673503561
 40
0.6101335002398887
 40
0.9584873858590648
 40
1.0
 40
1.0
 40
1.0
 40
1.0
 10
64.77944509021674
 20
10.09299005781408
 30
0.0
 10
64.38062567799265
 20
10.05929351357477
 30
0.0
 10
63.69006806944503
 20
10.00094779545524
 30
0.0
 10
62.81511856853539
 20
9.956208729553325
 30
0.0
 10
62.18162954000201
 20
9.93413377922993
 30
0.0
 10
61.65739039211085
 20
9.922689391124903
 30
0.0
 10
60.62361328475255
 20
9.913807331956273
 30
0.0
 10
59.6687820388003
 20
9.932040061381846
 30
0.0
 10
58.89771552239617
 20
9.977805228891443
 30
0.0
 10
58.81561309299488
 20
9.982678260406308
 30
0.0
  0
SPLINE
  5
A7
330
1F
100
AcDbEntity
  8
0
  6
Continuous
 62
     1
370
    25
100
AcDbSpline
210
0.0
220
0.0
230
1.0
 70
     8
 71
     3
 72
    14
 73
    10
 74
     0
 42
0.000000001
 43
0.00000001
 40
0.0
 40
0.0
 40
0.0
 40
0.0
 40
0.1608906356777076
 40
0.2816903306081254
 40
0.3616364912783558
 40
0.4194190342101561
 40
0.6654593933040219
 40
0.8847289344270369
 40
1.0
 40
1.0
 40
1.0
 40
1.0
 10
70.66708573583483
 20
-9.551037048491988
 30
0.0
 10
70.96082216490122
 20
-9.472823200961335
 30
0.0
 10
71.47510139232068
 20
-9.335884935559875
 30
0.0
 10
72.13272277140982
 20
-9.180093963110993
 30
0.0
 10
72.60223710448138
 20
-9.075965564577391
 30
0.0
 10
73.30261308812769
 20
-8.928560042585
 30
0.0
 10
74.26183106070239
 20
-8.753307023836092
 30
0.0
 10
75.31428618188416
 20
-8.593859094041113
 30
0.0
 10
75.92347338826802
 20
-8.538153159513024
 30
0.0
 10
76.13337812631107
 20
-8.518958830623601
 30
0.0
  0
SPLINE
  5
A8
330
1F
100
AcDbEntity
  8
0
  6
Continuous
 62
     1
370
    25
100
AcDbSpline
210
0.0
220
0.0
230
1.0
 70
     8
 71
     3
 72
    27
 73
    23
 74
     0
 42
0.000000001
 43
0.00000001
 40
0.0
 40
0.0
 40
0.0
 40
0.0
 40
0.0723966904459324
 40
0.1313025516848869
 40
0.1874413192835056
 40
0.2236403001217043
 40
0.2575569391075384
 40
0.2916257933075126
 40
0.3255778694459921
 40
0.3589322009796156
 40
0.4113759851220471
 40
0.4735994777954014
 40
0.5443621395420393
 40
0.6126488015727483
 40
0.661870939223217
 40
0.7012073143994204
 40
0.7588033685666954
 40
0.796295299513804
 40
0.8290568969324754
 40
0.8616855462540045
 40
0.9176326168395862
 40
1.0
 40
1.0
 40
1.0
 40
1.0
 10
43.57772800421588
 20
8.687276109883792
 30
0.0
 10
43.26168144180133
 20
8.642964526808939
 30
0.0
 10
42.68848231017444
 20
8.56259864418243
 30
0.0
 10
41.87926471892396
 20
8.479150243621325
 30
0.0
 10
41.2318839249497
 20
8.427348060182755
 30
0.0
 10
40.7110474642411
 20
8.396598568986954
 30
0.0
 10
40.27460070629325
 20
8.377192835873272
 30
0.0
 10
39.84166228968024
 20
8.364407916941643
 30
0.0
 10
39.40725386792175
 20
8.358138864652073
 30
0.0
 10
38.89597505490846
 20
8.358442715610977
 30
0.0
 10
38.26403980464757
 20
8.3709703167337
 30
0.0
 10
37.47371774401102
 20
8.406696066680674
 30
0.0
 10
36.61816554340808
 20
8.470280274454154
 30
0.0
 10
35.81986128479319
 20
8.554233047101372
 30
0.0
 10
35.16603681192318
 20
8.638623558835722
 30
0.0
 10
34.54583529606318
 20
8.729953864188747
 30
0.0
 10
33.93678437497283
 20
8.833075458979653
 30
0.0
 10
33.37034383128752
 20
8.940056957921314
 30
0.0
 10
32.92760020789027
 20
9.030062083581905
 30
0.0
 10
32.43767089501709
 20
9.136153248763788
 30
0.0
 10
31.71206455148562
 20
9.30318459185133
 30
0.0
 10
31.12090639946528
 20
9.459874590731207
 30
0.0
 10
30.76886690758918
 20
9.55318476060575
 30
0.0
  0
SPLINE
  5
A9
330
1F
100
AcDbEntity
  8
0
  6
Continuous
 62
     1
370
    25
100
AcDbSpline
210
0.0
220
0.0
230
1.0
 70
     8
 71
     3
 72
    16
 73
    12
 74
     0
 42
0.000000001
 43
0.00000001
 40
0.0
 40
0.0
 40
0.0
 40
0.0
 40
0.1931999213694152
 40
0.3412113293372094
 40
0.4629203327737483
 40
0.5828521755366071
 40
0.6717265664647962
 40
0.7368285084636998
 40
0.8380401588488514
 40
0.9361309369519757
 40
0.9999999999999999
 40
0.9999999999999999
 40
0.9999999999999999
 40
0.9999999999999999
 10
30.76886690758916
 20
-9.551034903157962
 30
0.0
 10
31.09510891988229
 20
-9.463806402152708
 30
0.0
 10
31.67128653895768
 20
-9.309751718418207
 30
0.0
 10
32.54763604119312
 20
-9.10773212168597
 30
0.0
 10
33.28613075919797
 20
-8.953886973971533
 30
0.0
 10
33.84531586755878
 20
-8.847574872487776
 30
0.0
 10
34.34101613093613
 20
-8.761984517963453
 30
0.0
 10
34.82636983747294
 20
-8.685906298482472
 30
0.0
 10
35.31961603595792
 20
-8.616010676446168
 30
0.0
 10
35.81102506587217
 20
-8.554577027716556
 30
0.0
 10
36.10424232358994
 20
-8.523673845317433
 30
0.0
 10
36.21987291069621
 20
-8.511487137235935
 30
0.0
  0
SPLINE
  5
AA
330
1F
100
AcDbEntity
  8
0
  6
Continuous
 62
     1
370
    25
100
AcDbSpline
210
0.0
220
0.0
230
1.0
 70
     8
 71
     3
 72
    24
 73
    20
 74
     0
 42
0.000000001
 43
0.00000001
 40
0.0
 40
0.0
 40
0.0
 40
0.0
 40
0.0756844614328275
 40
0.1327826009866743
 40
0.1716567172217182
 40
0.2068706453081534
 40
0.24392159900972
 40
0.2831661653545276
 40
0.3901541783907159
 40
0.5056720627840409
 40
0.5868059474592365
 40
0.6572511644445258
 40
0.716719525761978
 40
0.7654934912191201
 40
0.8214640288307175
 40
0.8460605816275798
 40
0.8800916204510667
 40
0.931512965435969
 40
1.0
 40
1.0
 40
1.0
 40
1.0
 10
83.5249413286947
 20
8.694524296339996
 30
0.0
 10
83.19895331515366
 20
8.648394796641389
 30
0.0
 10
82.62703226941989
 20
8.567464116337458
 30
0.0
 10
81.88996990914472
 20
8.490754114696232
 30
0.0
 10
81.32203405469974
 20
8.44233936930079
 30
0.0
 10
80.84194309668392
 20
8.409504490600561
 30
0.0
 10
80.36273525803828
 20
8.384523501458633
 30
0.0
 10
79.57828436929198
 20
8.35695456265785
 30
0.0
 10
78.4594400897815
 20
8.354042480832055
 30
0.0
 10
77.16030447513008
 20
8.415045572554922
 30
0.0
 10
76.01961079006085
 20
8.518323506581538
 30
0.0
 10
75.11540231790283
 20
8.629741979471413
 30
0.0
 10
74.3543921301936
 20
8.744169098564846
 30
0.0
 10
73.6517419424755
 20
8.866053106303113
 30
0.0
 10
73.0933282899889
 20
8.974848472040346
 30
0.0
 10
72.60229339041153
 20
9.078080782716574
 30
0.0
 10
72.13269618214416
 20
9.182260184040318
 30
0.0
 10
71.47511213669003
 20
9.338028180741958
 30
0.0
 10
70.96082607078183
 20
9.47497065466447
 30
0.0
 10
70.66708573583483
 20
9.553186905939784
 30
0.0
  0
SPLINE
  5
AB
330
1F
100
AcDbEntity
  8
0
  6
Continuous
 62
     4
370
    25
100
AcDbSpline
210
0.0
220
0.0
230
1.0
 70
     8
 71
     3
 72
    10
 73
     6
 74
     0
 42
0.000000001
 43
0.00000001
 40
0.0
 40
0.0
 40
0.0
 40
0.0
 40
0.5
 40
0.5
 40
1.0
 40
1.0
 40
1.0
 40
1.0
 10
9.999999999999993
 20
-12.68988573289901
 30
0.0
 10
9.490554274228861
 20
-12.67069762927978
 30
0.0
 10
8.984537846182235
 20
-12.62104918988354
 30
0.0
 10
7.968774308910016
 20
-12.46138847493797
 30
0.0
 10
7.457912640666549
 20
-12.35117603375623
 30
0.0
 10
6.949578003799986
 20
-12.21174315841558
 30
0.0
  0
LINE
  5
AC
330
1F
100
AcDbEntity
  8
0
  6
Continuous
 62
     4
370
    25
100
AcDbLine
 10
9.999999999999993
 20
-12.68988573289901
 30
0.0
 11
9.999999999999993
 21
-12.69892507127611
 31
0.0
  0
LINE
  5
AD
330
1F
100
AcDbEntity
  8
0
  6
Continuous
 62
     4
370
    25
100
AcDbLine
 10
9.999999999999991
 20
12.70107492872389
 30
0.0
 11
9.99999999999999
 21
12.33074228357008
 31
0.0
  0
SPLINE
  5
AE
330
1F
100
AcDbEntity
  8
0
  6
Continuous
 62
     4
370
    25
100
AcDbSpline
210
0.0
220
0.0
230
1.0
 70
     8
 71
     3
 72
    10
 73
     6
 74
     0
 42
0.000000001
 43
0.00000001
 40
0.0
 40
0.0
 40
0.0
 40
0.0
 40
0.5
 40
0.5
 40
1.0
 40
1.0
 40
1.0
 40
1.0
 10
6.949746540561613
 20
12.70105074421549
 30
0.0
 10
7.458053646007512
 20
12.70005884026421
 30
0.0
 10
7.968886895371769
 20
12.66844388461313
 30
0.0
 10
8.984593646188108
 20
12.54470355655253
 30
0.0
 10
9.490582425070022
 20
12.45267597039472
 30
0.0
 10
9.99999999999999
 20
12.33074228357008
 30
0.0
  0
LINE
  5
AF
330
1F
100
AcDbEntity
  8
0
  6
Continuous
 62
     4
370
    25
100
AcDbLine
 10
6.949746540561605
 20
-12.21159384002867
 30
0.0
 11
6.949746540561613
 21
12.70105075007004
 31
0.0
  0
LINE
  5
B0
330
1F
100
AcDbEntity
  8
0
  6
Continuous
 62
     4
370
    25
100
AcDbLine
 10
-52.49999999999999
 20
10.81742907821979
 30
0.0
 11
-52.49999999999999
 21
-12.69892507127611
 31
0.0
  0
LINE
  5
B1
330
1F
100
AcDbEntity
  8
0
  6
Continuous
 62
     4
370
    25
100
AcDbLine
 10
-53.49999999999999
 20
10.81742907821979
 30
0.0
 11
-53.49999999999999
 21
-11.69892507127609
 31
0.0
  0
SPLINE
  5
B2
330
1F
100
AcDbEntity
  8
0
  6
Continuous
 62
     4
370
    25
100
AcDbSpline
210
0.0
220
0.0
230
1.0
 70
     8
 71
     3
 72
    16
 73
    12
 74
     0
 42
0.000000001
 43
0.00000001
 40
0.0
 40
0.0
 40
0.0
 40
0.0
 40
0.125
 40
0.125
 40
0.25
 40
0.25
 40
0.5000000000000001
 40
0.5000000000000001
 40
0.7500000000000001
 40
0.7500000000000001
 40
1.0
 40
1.0
 40
1.0
 40
1.0
 10
7.886213662847915
 20
-1.182075997051777
 30
0.0
 10
7.785850405483179
 20
-1.102446011348952
 30
0.0
 10
7.703333638746918
 20
-1.009083470464806
 30
0.0
 10
7.556226972680808
 20
-0.8083179137748182
 30
0.0
 10
7.491750272780728
 20
-0.6996951056736632
 30
0.0
 10
7.320491076033012
 20
-0.3655631128968211
 30
0.0
 10
7.234788729960339
 20
-0.1331699530263322
 30
0.0
 10
7.09570898050248
 20
0.3426127959441957
 30
0.0
 10
7.043011182071547
 20
0.5875318270003463
 30
0.0
 10
6.970163545242304
 20
1.0805139140377
 30
0.0
 10
6.949746540561607
 20
1.328386141117858
 30
0.0
 10
6.949746540561605
 20
1.577494489604093
 30
0.0
  0
SPLINE
  5
B3
330
1F
100
AcDbEntity
  8
0
  6
Continuous
 62
     4
370
    25
100
AcDbSpline
210
0.0
220
0.0
230
1.0
 70
     8
 71
     3
 72
    18
 73
    14
 74
     0
 42
0.000000001
 43
0.00000001
 40
0.0
 40
0.0
 40
0.0
 40
0.0
 40
0.125
 40
0.125
 40
0.2500000000000001
 40
0.2500000000000001
 40
0.5000000000000001
 40
0.5000000000000001
 40
0.7500000000000002
 40
0.7500000000000002
 40
0.8750000000000001
 40
0.8750000000000001
 40
1.0
 40
1.0
 40
1.0
 40
1.0
 10
6.949746540561613
 20
10.76128592473277
 30
0.0
 10
6.949746540561614
 20
10.63004136728345
 30
0.0
 10
6.965162165880284
 20
10.50521028025898
 30
0.0
 10
7.015079943003564
 20
10.263465169769
 30
0.0
 10
7.049911571721107
 20
10.14745719213594
 30
0.0
 10
7.172106451201973
 20
9.821852159364573
 30
0.0
 10
7.279464576430854
 20
9.625951082124661
 30
0.0
 10
7.527763094431157
 20
9.283452503490157
 30
0.0
 10
7.669549173590712
 20
9.134210000785263
 30
0.0
 10
7.919732654022824
 20
8.95389503459249
 30
0.0
 10
8.007956365979119
 20
8.902462308159791
 30
0.0
 10
8.1973257848017
 20
8.821891763425533
 30
0.0
 10
8.29949114155016
 20
8.792591367762222
 30
0.0
 10
8.406973321700379
 20
8.780774348246691
 30
0.0
  0
SPLINE
  5
B4
330
1F
100
AcDbEntity
  8
0
  6
Continuous
 62
     4
370
    25
100
AcDbSpline
210
0.0
220
0.0
230
1.0
 70
    24
 71
     3
 72
    14
 73
    10
 74
     0
 42
0.000000001
 43
0.00000001
 40
0.0
 40
0.0
 40
0.0
 40
0.0
 40
0.25
 40
0.25
 40
0.5
 40
0.5
 40
0.75
 40
0.75
 40
1.0
 40
1.0
 40
1.0
 40
1.0
 10
9.999999999999991
 20
-2.837961778799507
 30
0.0
 10
9.999999999999991
 20
-3.740457848841956
 30
0.0
 10
9.999999999999991
 20
-4.623915352259466
 30
0.0
 10
9.999999999999991
 20
-6.283271745059055
 30
0.0
 10
9.999999999999991
 20
-7.058607270979604
 30
0.0
 10
9.999999999999991
 20
-8.440048886101362
 30
0.0
 10
9.999999999999991
 20
-9.045756056899304
 30
0.0
 10
9.999999999999993
 20
-10.05048412126957
 30
0.0
 10
9.999999999999993
 20
-10.44945713307821
 30
0.0
 10
9.999999999999993
 20
-10.7420864162948
 30
0.0
  0
SPLINE
  5
B5
330
1F
100
AcDbEntity
  8
0
  6
Continuous
 62
     4
370
    25
100
AcDbSpline
210
0.0
220
0.0
230
1.0
 70
     8
 71
     3
 72
    10
 73
     6
 74
     0
 42
0.000000001
 43
0.00000001
 40
0.0
 40
0.0
 40
0.0
 40
0.0
 40
0.5
 40
0.5
 40
1.0
 40
1.0
 40
1.0
 40
1.0
 10
10.0
 20
-10.7420864162948
 30
0.0
 10
9.490554274228868
 20
-10.69976547271359
 30
0.0
 10
8.984537846182246
 20
-10.6317178841408
 30
0.0
 10
7.968774308910022
 20
-10.44483439492414
 30
0.0
 10
7.457912640666549
 20
-10.32581112841642
 30
0.0
 10
6.949578003799986
 20
-10.18246727576322
 30
0.0
  0
SPLINE
  5
B6
330
1F
100
AcDbEntity
  8
0
  6
Continuous
 62
     4
370
    25
100
AcDbSpline
210
0.0
220
0.0
230
1.0
 70
     8
 71
     3
 72
     8
 73
     4
 74
     0
 42
0.000000001
 43
0.00000001
 40
0.0
 40
0.0
 40
0.0
 40
0.0
 40
1.0
 40
1.0
 40
1.0
 40
1.0
 10
9.999999999999982
 20
-2.837961778799505
 30
0.0
 10
9.293474679584754
 20
-2.296093566991907
 30
0.0
 10
8.592624721228642
 20
-1.742555040440625
 30
0.0
 10
7.886213662847906
 20
-1.182075997051775
 30
0.0
  0
SPLINE
  5
B7
330
1F
100
AcDbEntity
  8
0
  6
Continuous
 62
     4
370
    25
100
AcDbSpline
210
0.0
220
0.0
230
1.0
 70
     8
 71
     3
 72
     8
 73
     4
 74
     0
 42
0.000000001
 43
0.00000001
 40
0.0
 40
0.0
 40
0.0
 40
0.0
 40
1.0
 40
1.0
 40
1.0
 40
1.0
 10
9.999999999999972
 20
8.536944152634803
 30
0.0
 10
9.467261226974625
 20
8.640988768431587
 30
0.0
 10
8.938349197020736
 20
8.722352765432248
 30
0.0
 10
8.40697332169386
 20
8.78077434824741
 30
0.0
  0
SPLINE
  5
B8
330
1F
100
AcDbEntity
  8
0
  6
Continuous
 62
     4
370
    25
100
AcDbSpline
210
0.0
220
0.0
230
1.0
 70
    24
 71
     3
 72
    14
 73
    10
 74
     0
 42
0.000000001
 43
0.00000001
 40
0.0
 40
0.0
 40
0.0
 40
0.0
 40
0.2500000000000001
 40
0.2500000000000001
 40
0.5000000000000002
 40
0.5000000000000002
 40
0.7500000000000001
 40
0.7500000000000001
 40
1.0
 40
1.0
 40
1.0
 40
1.0
 10
9.99999999999999
 20
8.5369441526348
 30
0.0
 10
9.99999999999999
 20
7.999811295335763
 30
0.0
 10
9.99999999999999
 20
7.324261811923234
 30
0.0
 10
9.999999999999991
 20
5.722682160854776
 30
0.0
 10
9.999999999999991
 20
4.796943509639386
 30
0.0
 10
9.999999999999991
 20
2.775294774458386
 30
0.0
 10
9.999999999999991
 20
1.680461909460412
 30
0.0
 10
9.999999999999991
 20
-0.5654213315528415
 30
0.0
 10
9.999999999999991
 20
-1.715275231970497
 30
0.0
 10
9.999999999999991
 20
-2.837961778799505
 30
0.0
  0
SPLINE
  5
B9
330
1F
100
AcDbEntity
  8
0
  6
Continuous
 62
     4
370
    25
100
AcDbSpline
210
0.0
220
0.0
230
1.0
 70
    24
 71
     3
 72
     8
 73
     4
 74
     0
 42
0.000000001
 43
0.00000001
 40
0.0
 40
0.0
 40
0.0
 40
0.0
 40
1.0
 40
1.0
 40
1.0
 40
1.0
 10
9.999999999999993
 20
-10.7420864162948
 30
0.0
 10
9.999999999999993
 20
-11.40320650235114
 30
0.0
 10
9.999999999999993
 20
-12.05669839500218
 30
0.0
 10
9.999999999999993
 20
-12.6898857328869
 30
0.0
  0
SPLINE
  5
BA
330
1F
100
AcDbEntity
  8
0
  6
Continuous
 62
     4
370
    25
100
AcDbSpline
210
0.0
220
0.0
230
1.0
 70
    24
 71
     3
 72
    10
 73
     6
 74
     0
 42
0.000000001
 43
0.00000001
 40
0.0
 40
0.0
 40
0.0
 40
0.0
 40
0.5
 40
0.5
 40
1.0
 40
1.0
 40
1.0
 40
1.0
 10
9.99999999999999
 20
12.33074228357007
 30
0.0
 10
9.99999999999999
 20
11.76552095776872
 30
0.0
 10
9.99999999999999
 20
11.11931077939933
 30
0.0
 10
9.99999999999999
 20
9.805386265206279
 30
0.0
 10
9.99999999999999
 20
9.141306665429001
 30
0.0
 10
9.99999999999999
 20
8.5369441526348
 30
0.0
  0
SPLINE
  5
BB
330
1F
100
AcDbEntity
  8
0
  6
Continuous
 62
     1
370
    25
100
AcDbSpline
210
0.0
220
0.0
230
1.0
 70
     8
 71
     3
 72
    26
 73
    22
 74
     0
 42
0.000000001
 43
0.00000001
 40
0.0
 40
0.0
 40
0.0
 40
0.0
 40
0.055329556405068
 40
0.1106257209041177
 40
0.1659117693496485
 40
0.2212110484853769
 40
0.2765458063037768
 40
0.3318695660508471
 40
0.3871630308820335
 40
0.4424494955610298
 40
0.4977523039131569
 40
0.5530906611168366
 40
0.6084090357319183
 40
0.6637002162014203
 40
0.718987513295285
 40
0.7742942650027994
 40
0.8296346190176586
 40
0.8849480206978099
 40
0.9402373323973462
 40
0.9955258779833724
 40
1.0
 40
1.0
 40
1.0
 40
1.0
 10
86.2
 20
-12.05047411052122
 30
0.0
 10
85.5391552387098
 20
-11.81384137732712
 30
0.0
 10
84.21786454213841
 20
-11.34071872101189
 30
0.0
 10
82.23712467264613
 20
-10.27691062186407
 30
0.0
 10
80.25683042280951
 20
-8.984633723184192
 30
0.0
 10
78.27595203392417
 20
-7.468238762942084
 30
0.0
 10
76.29360821865342
 20
-5.772388866487964
 30
0.0
 10
74.31170612770724
 20
-3.935672009461757
 30
0.0
 10
72.33108722676505
 20
-2.003317513176341
 30
0.0
 10
70.35077671157144
 20
-0.0224415146390687
 30
0.0
 10
68.36974447579011
 20
1.959342809389317
 30
0.0
 10
66.38725663016805
 20
3.892899425260052
 30
0.0
 10
64.40557342863946
 20
5.732430749198545
 30
0.0
 10
62.42505654008892
 20
7.432736701079532
 30
0.0
 10
60.44471041425781
 20
8.95230789789062
 30
0.0
 10
58.46351073800793
 20
10.25530145665768
 30
0.0
 10
56.48093947033896
 20
11.30645850900474
 30
0.0
 10
54.49947386937713
 20
12.09224551754684
 30
0.0
 10
52.5189909058921
 20
12.55119518838296
 30
0.0
 10
51.14561456957894
 20
12.74368254816094
 30
0.0
 10
50.43198718496046
 20
12.69336958236053
 30
0.0
 10
50.37856159133705
 20
12.68960291067335
 30
0.0
  0
SPLINE
  5
BC
330
1F
100
AcDbEntity
  8
0
  6
Continuous
 62
     1
370
    25
100
AcDbSpline
210
0.0
220
0.0
230
1.0
 70
     8
 71
     3
 72
    13
 73
     9
 74
     0
 42
0.000000001
 43
0.00000001
 40
0.0
 40
0.0
 40
0.0
 40
0.0
 40
0.010723925444502
 40
0.2325644380987767
 40
0.4243505653081384
 40
0.6161415398942747
 40
0.808175546277482
 40
1.0
 40
1.0
 40
1.0
 40
1.0
 10
18.93411159587469
 20
-9.981800951169935
 30
0.0
 10
18.90216766857335
 20
-10.00330201093223
 30
0.0
 10
18.20941560292796
 20
-10.46958480150405
 30
0.0
 10
16.9449388571046
 20
-11.11268646314451
 30
0.0
 10
15.14275171138644
 20
-11.89269566155309
 30
0.0
 10
13.42938910535575
 20
-12.39203715186976
 30
0.0
 10
11.71377554554736
 20
-12.68788222410228
 30
0.0
 10
10.57105057303129
 20
-12.68921813973047
 30
0.0
 10
9.999999999995598
 20
-12.68988573289886
 30
0.0
  0
SPLINE
  5
BD
330
1F
100
AcDbEntity
  8
0
  6
Continuous
 62
     4
370
    25
100
AcDbSpline
210
0.0
220
0.0
230
1.0
 70
    24
 71
     3
 72
     8
 73
     4
 74
     0
 42
0.000000001
 43
0.00000001
 40
0.0
 40
0.0
 40
0.0
 40
0.0
 40
1.0
 40
1.0
 40
1.0
 40
1.0
 10
9.999999999999993
 20
-10.7420864162948
 30
0.0
 10
9.999999999999993
 20
-11.40320650235114
 30
0.0
 10
9.999999999999993
 20
-12.05669839500218
 30
0.0
 10
9.999999999999993
 20
-12.6898857328869
 30
0.0
  0
SPLINE
  5
BE
330
1F
100
AcDbEntity
  8
0
  6
Continuous
 62
     1
370
    25
100
AcDbSpline
210
0.0
220
0.0
230
1.0
 70
     8
 71
     3
 72
    19
 73
    15
 74
     0
 42
0.000000001
 43
0.00000001
 40
0.0
 40
0.0
 40
0.0
 40
0.0
 40
0.0867858134041019
 40
0.1734704772199934
 40
0.2602643232659727
 40
0.3470419372591426
 40
0.4337269489431328
 40
0.5205281490650903
 40
0.607297908641721
 40
0.69398361605114
 40
0.7807914914019789
 40
0.8675537417990373
 40
0.9542404927696831
 40
1.0
 40
1.0
 40
1.0
 40
1.0
 10
86.2
 20
-10.01887282875244
 30
0.0
 10
85.6492815785484
 20
-9.828524437636718
 30
0.0
 10
84.54848660255136
 20
-9.448049508040196
 30
0.0
 10
82.89845742542829
 20
-8.67149362528199
 30
0.0
 10
81.24682553870204
 20
-7.761791922973455
 30
0.0
 10
79.59543347251334
 20
-6.717805523296371
 30
0.0
 10
77.94540022048271
 20
-5.559874432050506
 30
0.0
 10
76.29366028187958
 20
-4.309634332062625
 30
0.0
 10
74.64238464634728
 20
-2.986241811711489
 30
0.0
 10
72.99234073229832
 20
-1.611096906502267
 30
0.0
 10
71.34050799835894
 20
-0.210166866238135
 30
0.0
 10
69.68932390349138
 20
1.19234083851452
 30
0.0
 10
68.29960979462741
 20
2.366560210065856
 30
0.0
 10
67.45906730016553
 20
3.043156745849898
 30
0.0
 10
67.16866415193648
 20
3.27691740086395
 30
0.0
  0
SPLINE
  5
BF
330
1F
100
AcDbEntity
  8
0
  6
Continuous
 62
     1
370
    25
100
AcDbSpline
210
0.0
220
0.0
230
1.0
 70
     8
 71
     3
 72
    10
 73
     6
 74
     0
 42
0.000000001
 43
0.00000001
 40
0.0
 40
0.0
 40
0.0
 40
0.0
 40
0.0777463398434035
 40
0.5064336354748638
 40
1.0
 40
1.0
 40
1.0
 40
1.0
 10
13.85552377791759
 20
-10.55364921528153
 30
0.0
 10
13.75563890778331
 20
-10.57507945415386
 30
0.0
 10
13.10499660085377
 20
-10.71467437017272
 30
0.0
 10
11.81896203091143
 20
-10.81701284223314
 30
0.0
 10
10.63410494353477
 20
-10.7682063771744
 30
0.0
 10
10.0
 20
-10.7420864162948
 30
0.0
  0
LINE
  5
C0
330
1F
100
AcDbEntity
  8
0
  6
Continuous
 62
     1
370
    25
100
AcDbLine
 10
86.2
 20
-12.05047411052123
 30
0.0
 11
86.2
 21
-10.01887282875244
 31
0.0
  0
SPLINE
  5
C1
330
1F
100
AcDbEntity
  8
0
  6
Continuous
 62
     1
370
    25
100
AcDbSpline
210
0.0
220
0.0
230
1.0
 70
     8
 71
     3
 72
    33
 73
    29
 74
     0
 42
0.000000001
 43
0.00000001
 40
0.0
 40
0.0
 40
0.0
 40
0.0
 40
0.0073184579485715
 40
0.0483286252314716
 40
0.0893188193903341
 40
0.1302911615828972
 40
0.1712629360443035
 40
0.2122514309891665
 40
0.253261890198356
 40
0.2942487050655835
 40
0.3352199705483517
 40
0.376192978429203
 40
0.4171850082775996
 40
0.4581945715510091
 40
0.4991783134677342
 40
0.54014881052422
 40
0.581123359890156
 40
0.6221192303327614
 40
0.6631267099442566
 40
0.7041076856351283
 40
0.7450777226449476
 40
0.7860541213689043
 40
0.8270541376176763
 40
0.8680583461572429
 40
0.9035074093648462
 40
0.9389573685442707
 40
0.9744522488536079
 40
1.0
 40
1.0
 40
1.0
 40
1.0
 10
58.81749805517537
 20
-9.979294312725735
 30
0.0
 10
58.69958072849909
 20
-10.05747135125307
 30
0.0
 10
57.92089451764955
 20
-10.5737261173861
 30
0.0
 10
56.48089946468041
 20
-11.29237375425545
 30
0.0
 10
54.49947498678217
 20
-12.08815492017815
 30
0.0
 10
52.51902639672804
 20
-12.56872539742445
 30
0.0
 10
50.53862997199568
 20
-12.74979077717166
 30
0.0
 10
48.55724542064754
 20
-12.61957573463137
 30
0.0
 10
46.57466218367173
 20
-12.1833909936884
 30
0.0
 10
44.59337340966195
 20
-11.45098438325628
 30
0.0
 10
42.61300318145467
 20
-10.44054270876158
 30
0.0
 10
40.63252934295047
 20
-9.176483110354159
 30
0.0
 10
38.65094846764394
 20
-7.689399127491839
 30
0.0
 10
36.66841332837493
 20
-6.016039846466009
 30
0.0
 10
34.6873001482822
 20
-4.19591915213396
 30
0.0
 10
32.70697463361541
 20
-2.27416640837542
 30
0.0
 10
30.72640823985386
 20
-0.2970127537709739
 30
0.0
 10
28.74461547204296
 20
1.687349214514539
 30
0.0
 10
26.76219312506191
 20
3.630351626912804
 30
0.0
 10
24.78123990619797
 20
5.485806955685019
 30
0.0
 10
22.8009438970251
 20
7.207741501173294
 30
0.0
 10
20.8202514906598
 20
8.754785919785677
 30
0.0
 10
18.83828620458808
 20
10.08923518174278
 30
0.0
 10
16.94497320673347
 20
11.12891696398773
 30
0.0
 10
15.14273933906003
 20
11.89187211382633
 30
0.0
 10
13.42940657659339
 20
12.39284685038553
 30
0.0
 10
11.87348833740692
 20
12.66992718403563
 30
0.0
 10
10.89031828870124
 20
12.67547834896482
 30
0.0
 10
10.4788389153532
 20
12.67780163970116
 30
0.0
  0
SPLINE
  5
C2
330
1F
100
AcDbEntity
  8
0
  6
Continuous
 62
     1
370
    25
100
AcDbSpline
210
0.0
220
0.0
230
1.0
 70
     8
 71
     3
 72
    24
 73
    20
 74
     0
 42
0.000000001
 43
0.00000001
 40
0.0
 40
0.0
 40
0.0
 40
0.0
 40
0.0216909176781788
 40
0.084078590619087
 40
0.1464000786649021
 40
0.2086919149155916
 40
0.2710819429441607
 40
0.3333992781280827
 40
0.395693113336089
 40
0.4580850078650617
 40
0.5203984391326941
 40
0.5826945229704782
 40
0.6450877953411834
 40
0.7073975717588371
 40
0.7696961538292845
 40
0.8320903153303288
 40
0.8943966860773367
 40
0.95669801590604
 40
0.9999999999999999
 40
0.9999999999999999
 40
0.9999999999999999
 40
0.9999999999999999
 10
53.75497906478429
 20
-10.54639414666509
 30
0.0
 10
53.56354205805257
 20
-10.58510206903741
 30
0.0
 10
52.82149167746723
 20
-10.73514217370909
 30
0.0
 10
51.52792415275087
 20
-10.81181579382313
 30
0.0
 10
49.87719560062203
 20
-10.77269495984054
 30
0.0
 10
48.22701678404467
 20
-10.53931008669102
 30
0.0
 10
46.5748417982341
 20
-10.13189778985276
 30
0.0
 10
44.92415334997727
 20
-9.552165888833557
 30
0.0
 10
43.27394613242368
 20
-8.810913610331292
 30
0.0
 10
41.62172977847602
 20
-7.922358747019169
 30
0.0
 10
39.97112223248838
 20
-6.898927928396616
 30
0.0
 10
38.32086909744157
 20
-5.758519531223911
 30
0.0
 10
36.66862472857088
 20
-4.523004572288663
 30
0.0
 10
35.01809177713114
 20
-3.209313089329526
 30
0.0
 10
33.36778873863855
 20
-1.841225274639688
 30
0.0
 10
31.7155226724325
 20
-0.4438565352143132
 30
0.0
 10
30.06507259160682
 20
0.9611957116841151
 30
0.0
 10
28.58316790539464
 20
2.214944513642803
 30
0.0
 10
27.65033679100226
 20
2.970252702865513
 30
0.0
 10
27.26783517644734
 20
3.279962142663127
 30
0.0
  0
SPLINE
  5
C3
330
1F
100
AcDbEntity
  8
0
  6
Continuous
 62
     1
370
    25
100
AcDbSpline
210
0.0
220
0.0
230
1.0
 70
     8
 71
     3
 72
    32
 73
    28
 74
     0
 42
0.000000001
 43
0.00000001
 40
0.0
 40
0.0
 40
0.0
 40
0.0
 40
0.0406047009886924
 40
0.0812093887959926
 40
0.1229872473933144
 40
0.1647649874696845
 40
0.2053701898704492
 40
0.2459753516667351
 40
0.2877557148972072
 40
0.3295362262001353
 40
0.3702068277892373
 40
0.4108774588078147
 40
0.4527272480216047
 40
0.4945769826615646
 40
0.5352717554282054
 40
0.5759663904178114
 40
0.6178435814146709
 40
0.6597208814671898
 40
0.7003943404498241
 40
0.7410678743226123
 40
0.7829215061617527
 40
0.8247751364961402
 40
0.8654661075591901
 40
0.9061570003401771
 40
0.9480295504058621
 40
0.9899020044026289
 40
0.9999999999999999
 40
0.9999999999999999
 40
0.9999999999999999
 40
0.9999999999999999
 10
9.999999999999988
 20
12.33074228357008
 30
0.0
 10
10.49850344346834
 20
12.19470023242519
 30
0.0
 10
11.49551016857725
 20
11.92261617429836
 30
0.0
 10
13.00496551029325
 20
11.29862950541953
 30
0.0
 10
14.52995190196528
 20
10.51881848310704
 30
0.0
 10
16.05309001562311
 20
9.582939828866609
 30
0.0
 10
17.56279111407807
 20
8.520760207147616
 30
0.0
 10
19.07198865244194
 20
7.339542163649329
 30
0.0
 10
20.59505838642681
 20
6.040581801294261
 30
0.0
 10
22.12100310761343
 20
4.655588627457319
 30
0.0
 10
23.63194892336597
 20
3.215402973066382
 30
0.0
 10
25.14441371401613
 20
1.730313831445528
 30
0.0
 10
26.67162433917785
 20
0.2059806660791722
 30
0.0
 10
28.19804951356797
 20
-1.322675564259975
 30
0.0
 10
29.71168042543848
 20
-2.816548599370192
 30
0.0
 10
31.22375424166206
 20
-4.273286944195264
 30
0.0
 10
32.75045517878335
 20
-5.682203965888191
 30
0.0
 10
34.27828196551486
 20
-7.007279568134848
 30
0.0
 10
35.79012092058542
 20
-8.219827691815892
 30
0.0
 10
37.30304325146396
 20
-9.316664942101811
 30
0.0
 10
38.82990236558834
 20
-10.28969370554777
 30
0.0
 10
40.35694382002439
 20
-11.11441170244494
 30
0.0
 10
41.87031378283946
 20
-11.77061813385016
 30
0.0
 10
43.38250070670026
 20
-12.2672217392222
 30
0.0
 10
44.91037454355875
 20
-12.57614492845202
 30
0.0
 10
46.06154427092551
 20
-12.71292665222616
 30
0.0
 10
46.69921124578774
 20
-12.68736426328691
 30
0.0
 10
46.82311162292579
 20
-12.682397423612
 30
0.0
  0
SPLINE
  5
C4
330
1F
100
AcDbEntity
  8
0
  6
Continuous
 62
     1
370
    25
100
AcDbSpline
210
0.0
220
0.0
230
1.0
 70
     8
 71
     3
 72
    14
 73
    10
 74
     0
 42
0.000000001
 43
0.00000001
 40
0.0
 40
0.0
 40
0.0
 40
0.0
 40
0.0713850105987457
 40
0.2200388101320416
 40
0.3686927940944587
 40
0.5216581970499174
 40
0.6746234970348023
 40
0.8366349374730273
 40
1.0
 40
1.0
 40
1.0
 40
1.0
 10
76.12401215515956
 20
8.514975282950967
 30
0.0
 10
76.36384897050478
 20
8.695916034473802
 30
0.0
 10
77.10312752536916
 20
9.25365199802609
 30
0.0
 10
78.34090635728231
 20
10.05399286867256
 30
0.0
 10
79.85369509637438
 20
10.91578609570769
 30
0.0
 10
81.38065295410759
 20
11.62237685948351
 30
0.0
 10
82.95253609618611
 20
12.17488109489761
 30
0.0
 10
84.55795170525259
 20
12.56152807972477
 30
0.0
 10
85.65113462556927
 20
12.64728449420168
 30
0.0
 10
86.20000000000002
 20
12.69034108214038
 30
0.0
  0
SPLINE
  5
C5
330
1F
100
AcDbEntity
  8
0
  6
Continuous
 62
     1
370
    25
100
AcDbSpline
210
0.0
220
0.0
230
1.0
 70
    24
 71
     3
 72
    10
 73
     6
 74
     0
 42
0.000000001
 43
0.00000001
 40
0.0
 40
0.0
 40
0.0
 40
0.0
 40
0.5
 40
0.5
 40
1.0
 40
1.0
 40
1.0
 40
1.0
 10
86.2
 20
8.891074928723901
 30
0.0
 10
86.2
 20
9.429964590176784
 30
0.0
 10
86.2
 20
10.05620428333628
 30
0.0
 10
86.19999999999997
 20
11.37005347292677
 30
0.0
 10
86.2
 20
12.05430756340261
 30
0.0
 10
86.2
 20
12.69034108214039
 30
0.0
  0
SPLINE
  5
C6
330
1F
100
AcDbEntity
  8
0
  6
Continuous
 62
     1
370
    25
100
AcDbSpline
210
0.0
220
0.0
230
1.0
 70
     8
 71
     3
 72
     9
 73
     5
 74
     0
 42
0.000000001
 43
0.00000001
 40
0.0
 40
0.0
 40
0.0
 40
0.0
 40
0.9251352748894633
 40
1.0
 40
1.0
 40
1.0
 40
1.0
 10
86.2
 20
8.891074928723901
 30
0.0
 10
85.37446107041117
 20
8.88588537832613
 30
0.0
 10
84.48211705111359
 20
8.88027587392323
 30
0.0
 10
83.58977342618593
 20
8.695988387101359
 30
0.0
 10
83.52296836600156
 20
8.68219175505913
 30
0.0
  0
SPLINE
  5
C7
330
1F
100
AcDbEntity
  8
0
  6
Continuous
 62
     1
370
    25
100
AcDbSpline
210
0.0
220
0.0
230
1.0
 70
     8
 71
     3
 72
    15
 73
    11
 74
     0
 42
0.000000001
 43
0.00000001
 40
0.0
 40
0.0
 40
0.0
 40
0.0
 40
0.0725998305057669
 40
0.2096160794750624
 40
0.3466322321079122
 40
0.4836482904028004
 40
0.6206642563590168
 40
0.7576801319766387
 40
0.8946959192565141
 40
1.0
 40
1.0
 40
1.0
 40
1.0
 10
28.07426415332845
 20
-1.195343044827577
 30
0.0
 10
27.63685352170259
 20
-0.892867909103253
 30
0.0
 10
26.37392630708825
 20
-0.0195373290245065
 30
0.0
 10
24.28548405073704
 20
1.451725412411852
 30
0.0
 10
21.80893560557885
 20
3.133248265638439
 30
0.0
 10
19.33239656729504
 20
4.697867763668046
 30
0.0
 10
16.85583282723913
 20
6.085315430941688
 30
0.0
 10
14.37937131189389
 20
7.236852066360808
 30
0.0
 10
12.09362170433722
 20
8.06513398170353
 30
0.0
 10
10.63421093334309
 20
8.394020926224222
 30
0.0
 10
9.999999999999972
 20
8.536944152634803
 30
0.0
  0
SPLINE
  5
C8
330
1F
100
AcDbEntity
  8
0
  6
Continuous
 62
     4
370
    25
100
AcDbSpline
210
0.0
220
0.0
230
1.0
 70
    24
 71
     3
 72
    10
 73
     6
 74
     0
 42
0.000000001
 43
0.00000001
 40
0.0
 40
0.0
 40
0.0
 40
0.0
 40
0.5
 40
0.5
 40
1.0
 40
1.0
 40
1.0
 40
1.0
 10
9.99999999999999
 20
12.33074228357007
 30
0.0
 10
9.99999999999999
 20
11.76552095776872
 30
0.0
 10
9.99999999999999
 20
11.11931077939933
 30
0.0
 10
9.99999999999999
 20
9.805386265206284
 30
0.0
 10
9.99999999999999
 20
9.141306665429001
 30
0.0
 10
9.99999999999999
 20
8.5369441526348
 30
0.0
  0
SPLINE
  5
C9
330
1F
100
AcDbEntity
  8
0
  6
Continuous
 62
     1
370
    25
100
AcDbSpline
210
0.0
220
0.0
230
1.0
 70
     8
 71
     3
 72
    40
 73
    36
 74
     0
 42
0.000000001
 43
0.00000001
 40
0.0
 40
0.0
 40
0.0
 40
0.0
 40
0.0215127312126287
 40
0.0520210991750862
 40
0.0829734829803262
 40
0.1128516308656473
 40
0.143155626365528
 40
0.1736772730442736
 40
0.2046438639948815
 40
0.2345067261020503
 40
0.2647958989435308
 40
0.2953021993642769
 40
0.3262531083413296
 40
0.3561202276101733
 40
0.3864124159614735
 40
0.4169222296099791
 40
0.4478759132472451
 40
0.4777447962717776
 40
0.5080404027117068
 40
0.5385531754446962
 40
0.5695111657479186
 40
0.5993730805543614
 40
0.6296598153330984
 40
0.660164251651489
 40
0.6911120303342094
 40
0.7209909307631052
 40
0.7510784799716098
 40
0.7818192780222349
 40
0.8127877971049067
 40
0.8426528945311499
 40
0.8729433524467688
 40
0.9034513653886715
 40
0.9344031164969613
 40
0.9670651111023997
 40
1.0
 40
1.0
 40
1.0
 40
1.0
 10
36.22465509910585
 20
8.515864606888698
 30
0.0
 10
36.5828454555487
 20
8.780708417203334
 30
0.0
 10
37.44900493441275
 20
9.421141562865358
 30
0.0
 10
38.83156019392126
 20
10.29033605676241
 30
0.0
 10
40.35380479923754
 20
11.11497707256526
 30
0.0
 10
41.87039621186077
 20
11.77519008271483
 30
0.0
 10
43.38319660940972
 20
12.26661941506656
 30
0.0
 10
44.91113952683659
 20
12.58809761976561
 30
0.0
 10
46.43281618744403
 20
12.72537442669835
 30
0.0
 10
47.95186044932183
 20
12.68074857644516
 30
0.0
 10
49.46041316550659
 20
12.45769721681757
 30
0.0
 10
50.99041451461451
 20
12.05351504968771
 30
0.0
 10
52.51101795986011
 20
11.47625323678333
 30
0.0
 10
54.02813541519242
 20
10.73630483875675
 30
0.0
 10
55.54004516304917
 20
9.850276489432597
 30
0.0
 10
57.06685484064336
 20
8.809883322523893
 30
0.0
 10
58.58964028221832
 20
7.648770871591489
 30
0.0
 10
60.10719947783647
 20
6.380300144504885
 30
0.0
 10
61.6167760827574
 20
5.027381426636337
 30
0.0
 10
63.14718252371085
 20
3.588441490961251
 30
0.0
 10
64.6671092400359
 20
2.101107856616188
 30
0.0
 10
66.18563480628556
 20
0.5901360837794088
 30
0.0
 10
67.69595140838918
 20
-0.9223994609030293
 30
0.0
 10
69.22287729040488
 20
-2.441260855432152
 30
0.0
 10
70.74616353545473
 20
-3.915159902153102
 30
0.0
 10
72.25924355249327
 20
-5.329267805829715
 30
0.0
 10
73.7706499536361
 20
-6.663775703313888
 30
0.0
 10
75.30056662281103
 20
-7.918425292325518
 30
0.0
 10
76.82454106864253
 20
-9.056319345383585
 30
0.0
 10
78.34425379138158
 20
-10.0567640084027
 30
0.0
 10
79.85349938998188
 20
-10.91245614136982
 30
0.0
 10
81.38172737231342
 20
-11.62172800915193
 30
0.0
 10
82.95083082171011
 20
-12.17199224547954
 30
0.0
 10
84.5579042235864
 20
-12.55945150795588
 30
0.0
 10
85.65111875451203
 20
-12.64515913297103
 30
0.0
 10
86.20000000000002
 20
-12.68819122469259
 30
0.0
  0
SPLINE
  5
CA
330
1F
100
AcDbEntity
  8
0
  6
Continuous
 62
     1
370
    25
100
AcDbSpline
210
0.0
220
0.0
230
1.0
 70
     8
 71
     3
 72
    18
 73
    14
 74
     0
 42
0.000000001
 43
0.00000001
 40
0.0
 40
0.0
 40
0.0
 40
0.0
 40
0.0651328577170848
 40
0.1666171002860627
 40
0.2681012479102502
 40
0.3695853020586087
 40
0.4710692642008961
 40
0.5725531358076512
 40
0.6740369183501852
 40
0.7755206133005688
 40
0.8770042221316177
 40
0.9784877463168821
 40
1.0
 40
1.0
 40
1.0
 40
1.0
 10
67.97664232988063
 20
-1.198927937414591
 30
0.0
 10
67.44681457914837
 20
-0.8314387882836001
 30
0.0
 10
66.09145621514796
 20
0.1086393621448779
 30
0.0
 10
63.91056876103768
 20
1.641182931698986
 30
0.0
 10
61.43398062720687
 20
3.312991876923197
 30
0.0
 10
58.95739544142435
 20
4.860997402259586
 30
0.0
 10
56.48081312362283
 20
6.224181388495743
 30
0.0
 10
54.00423363593816
 20
7.35212917242074
 30
0.0
 10
51.52765693436319
 20
8.199391074840086
 30
0.0
 10
49.05108295710672
 20
8.743367788972144
 30
0.0
 10
46.57451171950548
 20
8.928066175308919
 30
0.0
 10
44.74847266156676
 20
8.891491852471527
 30
0.0
 10
43.74795751750547
 20
8.693972132759887
 30
0.0
 10
43.57296504243141
 20
8.65942546464253
 30
0.0
  0
LINE
  5
CB
330
1F
100
AcDbEntity
  8
0
  6
Continuous
 62
     1
370
    25
100
AcDbLine
 10
86.20000000000002
 20
-12.68819122469259
 30
0.0
 11
86.20000000000114
 21
-12.05047411052124
 31
0.0
  0
SPLINE
  5
CC
330
1F
100
AcDbEntity
  8
0
  6
Continuous
 62
     1
370
    25
100
AcDbSpline
210
0.0
220
0.0
230
1.0
 70
     8
 71
     3
 72
    10
 73
     6
 74
     0
 42
0.000000001
 43
0.00000001
 40
0.0
 40
0.0
 40
0.0
 40
0.0
 40
0.5
 40
0.5
 40
1.0
 40
1.0
 40
1.0
 40
1.0
 10
86.2
 20
-3.392910485852585
 30
0.0
 10
85.34606498588813
 20
-2.719870550356156
 30
0.0
 10
84.50236273912661
 20
-2.028723307197687
 30
0.0
 10
82.8352996898789
 20
-0.6104337887274388
 30
0.0
 10
82.01187891707116
 20
0.116602366604514
 30
0.0
 10
81.20000000000081
 20
0.8640623159772485
 30
0.0
  0
LINE
  5
CD
330
1F
100
AcDbEntity
  8
0
  6
Continuous
 62
     1
370
    25
100
AcDbLine
 10
81.19999999999999
 20
2.938794364020493
 30
0.0
 11
86.2
 21
0.0010749287239026
 31
0.0
  0
LINE
  5
CE
330
1F
100
AcDbEntity
  8
0
  6
Continuous
 62
     1
370
    25
100
AcDbLine
 10
86.2
 20
0.0010749287239026
 30
0.0
 11
86.2
 21
-3.392910485852587
 31
0.0
  0
SPLINE
  5
CF
330
1F
100
AcDbEntity
  8
0
  6
Continuous
 62
     1
370
    25
100
AcDbSpline
210
0.0
220
0.0
230
1.0
 70
     8
 71
     3
 72
    30
 73
    26
 74
     0
 42
0.000000001
 43
0.00000001
 40
0.0
 40
0.0
 40
0.0
 40
0.0
 40
0.0395427924222032
 40
0.0936123832934722
 40
0.1476819254930782
 40
0.2017514197622794
 40
0.237807630776282
 40
0.2738389203419085
 40
0.3099273896428211
 40
0.3459808374542834
 40
0.3820130181977322
 40
0.4181031768612305
 40
0.4541540092629922
 40
0.4901872296432815
 40
0.5262787873457978
 40
0.5623271522125793
 40
0.5983615606561421
 40
0.6344542270205262
 40
0.6885233233369937
 40
0.7425923791567266
 40
0.7966613952250647
 40
0.8507303722876817
 40
0.9047993110905789
 40
0.9588682123800788
 40
0.9999999999999999
 40
0.9999999999999999
 40
0.9999999999999999
 40
0.9999999999999999
 10
70.67496056552555
 20
-9.5125779916721
 30
0.0
 10
70.07122393764861
 20
-9.673076304779647
 30
0.0
 10
68.64195652492565
 20
-10.0530350452793
 30
0.0
 10
66.3871382249945
 20
-10.2150683513062
 30
0.0
 10
63.9106215458155
 20
-10.05265241419101
 30
0.0
 10
61.70880882640336
 20
-9.557914219426182
 30
0.0
 10
59.78329320400881
 20
-8.895108746632507
 30
0.0
 10
58.13314923219075
 20
-8.175350476026765
 30
0.0
 10
56.48114788431958
 20
-7.319183111698475
 30
0.0
 10
54.83027758391983
 20
-6.338597452926208
 30
0.0
 10
53.18008317560802
 20
-5.250170786194575
 30
0.0
 10
51.52803401509773
 20
-4.075188820556148
 30
0.0
 10
49.87724563180068
 20
-2.830029589721031
 30
0.0
 10
48.2270203986568
 20
-1.536303935804207
 30
0.0
 10
46.57492146598122
 20
-0.2190150566562877
 30
0.0
 10
44.92423064537437
 20
1.10374493053291
 30
0.0
 10
43.27389917110968
 20
2.408444870376203
 30
0.0
 10
41.34679759333867
 20
3.880459670306084
 30
0.0
 10
39.14483252455399
 20
5.46258233811156
 30
0.0
 10
36.66822980505134
 20
7.033929676363488
 30
0.0
 10
34.19168158966934
 20
8.338111468554844
 30
0.0
 10
31.71512183879716
 20
9.329520781281916
 30
0.0
 10
29.23856821304919
 20
9.954897425693536
 30
0.0
 10
26.9595375606616
 20
10.22593702693845
 30
0.0
 10
25.50602552792231
 20
10.10847090103269
 30
0.0
 10
24.87803061613638
 20
10.05771925418392
 30
0.0
  0
SPLINE
  5
D0
330
1F
100
AcDbEntity
  8
0
  6
Continuous
 62
     4
370
    25
100
AcDbSpline
210
0.0
220
0.0
230
1.0
 70
    24
 71
     3
 72
    14
 73
    10
 74
     0
 42
0.000000001
 43
0.00000001
 40
0.0
 40
0.0
 40
0.0
 40
0.0
 40
0.25
 40
0.25
 40
0.4999999999999999
 40
0.4999999999999999
 40
0.75
 40
0.75
 40
1.0
 40
1.0
 40
1.0
 40
1.0
 10
9.999999999999982
 20
-2.8379617787995
 30
0.0
 10
9.999999999999982
 20
-3.740457848841957
 30
0.0
 10
9.999999999999982
 20
-4.623915352259448
 30
0.0
 10
9.999999999999982
 20
-6.283271745059039
 30
0.0
 10
9.999999999999982
 20
-7.058607270979592
 30
0.0
 10
9.999999999999984
 20
-8.440048886101355
 30
0.0
 10
9.999999999999982
 20
-9.0457560568993
 30
0.0
 10
9.999999999999982
 20
-10.05048412126956
 30
0.0
 10
9.999999999999984
 20
-10.44945713307822
 30
0.0
 10
9.999999999999984
 20
-10.7420864162948
 30
0.0
  0
SPLINE
  5
D1
330
1F
100
AcDbEntity
  8
0
  6
Continuous
 62
     1
370
    25
100
AcDbSpline
210
0.0
220
0.0
230
1.0
 70
     8
 71
     3
 72
    15
 73
    11
 74
     0
 42
0.000000001
 43
0.00000001
 40
0.0
 40
0.0
 40
0.0
 40
0.0
 40
0.1493520033148018
 40
0.2987032528538434
 40
0.399272635873947
 40
0.4997419680049568
 40
0.6003567301090387
 40
0.7511315003963865
 40
0.9019061328954963
 40
1.0
 40
1.0
 40
1.0
 40
1.0
 10
81.2
 20
3.898569123843202
 30
0.0
 10
80.38226595641932
 20
4.488656126324805
 30
0.0
 10
78.74680199634084
 20
5.668827153133929
 30
0.0
 10
76.56053546348028
 20
7.023667099545075
 30
0.0
 10
74.64243008352072
 20
8.045145839864636
 30
0.0
 10
72.99229252162402
 20
8.787849227960445
 30
0.0
 10
71.06567986046322
 20
9.482797046119133
 30
0.0
 10
68.86375733033212
 20
10.00034023145311
 30
0.0
 10
66.67559341857809
 20
10.23056298407574
 30
0.0
 10
65.31297297493815
 20
10.10032608890551
 30
0.0
 10
64.77588327123846
 20
10.0489919879354
 30
0.0
  0
SPLINE
  5
D2
330
1F
100
AcDbEntity
  8
0
  6
Continuous
 62
     1
370
    25
100
AcDbSpline
210
0.0
220
0.0
230
1.0
 70
     8
 71
     3
 72
    16
 73
    12
 74
     0
 42
0.000000001
 43
0.00000001
 40
0.0
 40
0.0
 40
0.0
 40
0.0
 40
0.0739822172535874
 40
0.193182717816063
 40
0.3123831373224049
 40
0.4315834774193366
 40
0.5507837397542472
 40
0.6699839259751802
 40
0.789184037730821
 40
0.9083840766704792
 40
0.9999999999999999
 40
0.9999999999999999
 40
0.9999999999999999
 40
0.9999999999999999
 10
30.77564885980115
 20
-9.50582502084417
 30
0.0
 10
30.26328841046105
 20
-9.649106242068905
 30
0.0
 10
28.9254103665291
 20
-10.02324284888785
 30
0.0
 10
26.76201583724842
 20
-10.2085793245235
 30
0.0
 10
24.28546646832143
 20
-10.09103929164096
 30
0.0
 10
21.80891706704797
 20
-9.575626661777424
 30
0.0
 10
19.33237837490373
 20
-8.701187303158818
 30
0.0
 10
16.85580997999799
 20
-7.496258269832624
 30
0.0
 10
14.37936251075054
 20
-6.005643816969163
 30
0.0
 10
12.09353228923148
 20
-4.425971381337494
 30
0.0
 10
10.63419534391492
 20
-3.319018747064123
 30
0.0
 10
9.999999999999982
 20
-2.8379617787995
 30
0.0
  0
SPLINE
  5
D3
330
1F
100
AcDbEntity
  8
0
  6
Continuous
 62
     1
370
    25
100
AcDbSpline
210
0.0
220
0.0
230
1.0
 70
    24
 71
     3
 72
     8
 73
     4
 74
     0
 42
0.000000001
 43
0.00000001
 40
0.0
 40
0.0
 40
0.0
 40
0.0
 40
1.0
 40
1.0
 40
1.0
 40
1.0
 10
81.19999999999999
 20
0.8640623159658237
 30
0.0
 10
81.19999999999999
 20
1.906898389112719
 30
0.0
 10
81.19999999999999
 20
2.929703198187065
 30
0.0
 10
81.19999999999999
 20
3.898569123843213
 30
0.0
  0
SPLINE
  5
D4
330
1F
100
AcDbEntity
  8
0
  6
Continuous
 62
     1
370
    25
100
AcDbSpline
210
0.0
220
0.0
230
1.0
 70
    24
 71
     3
 72
    12
 73
     8
 74
     0
 42
0.000000001
 43
0.00000001
 40
0.0
 40
0.0
 40
0.0
 40
0.0
 40
0.5
 40
0.5
 40
0.75
 40
0.75
 40
1.0
 40
1.0
 40
1.0
 40
1.0
 10
86.2
 20
-10.01887282875244
 30
0.0
 10
86.2
 20
-9.250765711624421
 30
0.0
 10
86.19999999999999
 20
-8.280232916888247
 30
0.0
 10
86.20000000000002
 20
-6.587936408589362
 30
0.0
 10
86.20000000000003
 20
-5.985409628682103
 30
0.0
 10
86.20000000000003
 20
-4.724603676853907
 30
0.0
 10
86.20000000000002
 20
-4.066420041940362
 30
0.0
 10
86.2
 20
-3.392910485852994
 30
0.0
  0
SPLINE
  5
D5
330
1F
100
AcDbEntity
  8
0
  6
Continuous
 62
     1
370
    25
100
AcDbSpline
210
0.0
220
0.0
230
1.0
 70
     8
 71
     3
 72
     8
 73
     4
 74
     0
 42
0.000000001
 43
0.00000001
 40
0.0
 40
0.0
 40
0.0
 40
0.0
 40
1.0
 40
1.0
 40
1.0
 40
1.0
 10
86.2
 20
8.891074928723901
 30
0.0
 10
84.54717930000383
 20
8.335980308061222
 30
0.0
 10
82.8806170131307
 20
7.851981846112313
 30
0.0
 10
81.19999999999978
 20
7.463998297094607
 30
0.0
  0
SPLINE
  5
D6
330
1F
100
AcDbEntity
  8
0
  6
Continuous
 62
     1
370
    25
100
AcDbSpline
210
0.0
220
0.0
230
1.0
 70
    24
 71
     3
 72
    10
 73
     6
 74
     0
 42
0.000000001
 43
0.00000001
 40
0.0
 40
0.0
 40
0.0
 40
0.0
 40
0.5
 40
0.5
 40
1.0
 40
1.0
 40
1.0
 40
1.0
 10
81.20000000000002
 20
3.898569123843203
 30
0.0
 10
81.20000000000003
 20
4.648062690831203
 30
0.0
 10
81.20000000000003
 20
5.343431435515032
 30
0.0
 10
81.20000000000002
 20
6.553423795294347
 30
0.0
 10
81.20000000000002
 20
7.067378138871769
 30
0.0
 10
81.20000000000002
 20
7.463998297094478
 30
0.0
  0
SPLINE
  5
D7
330
1F
100
AcDbEntity
  8
0
  6
Continuous
 62
     4
370
    25
100
AcDbSpline
210
0.0
220
0.0
230
1.0
 70
    24
 71
     3
 72
    14
 73
    10
 74
     0
 42
0.000000001
 43
0.00000001
 40
0.0
 40
0.0
 40
0.0
 40
0.0
 40
0.2500000000000001
 40
0.2500000000000001
 40
0.5000000000000002
 40
0.5000000000000002
 40
0.7500000000000001
 40
0.7500000000000001
 40
1.0
 40
1.0
 40
1.0
 40
1.0
 10
9.99999999999999
 20
8.5369441526348
 30
0.0
 10
9.99999999999999
 20
7.999811295335763
 30
0.0
 10
9.99999999999999
 20
7.324261811923234
 30
0.0
 10
9.999999999999991
 20
5.722682160854776
 30
0.0
 10
9.999999999999991
 20
4.796943509639386
 30
0.0
 10
9.999999999999991
 20
2.775294774458386
 30
0.0
 10
9.999999999999991
 20
1.680461909460412
 30
0.0
 10
9.999999999999991
 20
-0.5654213315528415
 30
0.0
 10
9.999999999999991
 20
-1.715275231970497
 30
0.0
 10
9.999999999999991
 20
-2.837961778799505
 30
0.0
  0
LINE
  5
D8
330
1F
100
AcDbEntity
  8
0
  6
Continuous
 62
     1
370
    25
100
AcDbLine
 10
86.2
 20
0.0010749287239026
 30
0.0
 11
86.2
 21
8.8910749287239
 31
0.0
  0
LINE
  5
D9
330
1F
100
AcDbEntity
  8
중심선
100
AcDbLine
 10
-56.49999999999998
 20
0.0010749287238931
 30
0.0
 11
93.20000000000002
 21
0.0010749287239031
 31
0.0
  0
CIRCLE
  5
DA
330
1F
100
AcDbEntity
  8
외형선
100
AcDbCircle
 10
0.0000000000000087
 20
0.0
 30
0.0
 40
3.000000000000004
  0
INSERT
  5
DB
330
1F
100
AcDbEntity
  8
0
  6
Continuous
 62
     7
100
AcDbBlockReference
 66
     1
  2
블럭10
 10
-16.6381869743017
 20
-52.04609937292004
 30
0.0
  0
ATTRIB
  5
DC
330
DB
100
AcDbEntity
  8
FORMAT
 62
     2
100
AcDbText
 10
-25.81948226304298
 20
-49.97073246008785
 30
0.0
 40
4.233333333333333
  1
E5253903 [ 2 FLUTE ]
 41
0.75
  7
SLDTEXTSTYLE0
 11
-25.81948226304298
 21
-52.08739912675452
 31
0.0
100
AcDbAttribute
  2
AUTOATTR0
 70
     0
 74
     1
  0
SEQEND
  5
DD
330
DB
100
AcDbEntity
  8
0
  6
Continuous
 62
     7
  0
HATCH
  5
DE
330
1F
100
AcDbEntity
  8
중심선
100
AcDbHatch
 10
0.0
 20
0.0
 30
0.0
210
0.0
220
0.0
230
1.0
  2
SOLID
 70
     1
 71
     0
 91
        1
 92
        0
 93
        4
 72
     1
 10
-10.92327766992085
 20
-35.7989250712761
 11
-14.36955291375813
 21
-35.7989250712761
 72
     1
 10
-14.36955291375813
 20
-35.7989250712761
 11
-16.49778277296215
 21
-38.3352506518487
 72
     1
 10
-16.49778277296215
 20
-38.3352506518487
 11
-13.05147444401172
 21
-38.33521122254621
 72
     1
 10
-13.05147444401172
 20
-38.33521122254621
 11
-10.92327766992085
 21
-35.7989250712761
 97
        0
 75
     0
 76
     1
 98
        1
 10
0.0
 20
0.0
  0
HATCH
  5
DF
330
1F
100
AcDbEntity
  8
중심선
100
AcDbHatch
 10
0.0
 20
0.0
 30
0.0
210
0.0
220
0.0
230
1.0
  2
SOLID
 70
     1
 71
     0
 91
        1
 92
        0
 93
        4
 72
     1
 10
-5.910513678884898
 20
-35.7989250712761
 11
-9.356788922722181
 21
-35.7989250712761
 72
     1
 10
-9.356788922722181
 20
-35.7989250712761
 11
-13.88792693107957
 21
-41.19892507127612
 72
     1
 10
-13.88792693107957
 20
-41.19892507127612
 11
-10.44165168724229
 21
-41.19892507127612
 72
     1
 10
-10.44165168724229
 20
-41.19892507127612
 11
-5.910513678884898
 21
-35.7989250712761
 97
        0
 75
     0
 76
     1
 98
        1
 10
0.0
 20
0.0
  0
HATCH
  5
E0
330
1F
100
AcDbEntity
  8
중심선
100
AcDbHatch
 10
0.0
 20
0.0
 30
0.0
210
0.0
220
0.0
230
1.0
  2
SOLID
 70
     1
 71
     0
 91
        1
 92
        0
 93
        4
 72
     1
 10
-0.8977496878490032
 20
-35.79892507127613
 11
-4.344024931686119
 21
-35.7989250712761
 72
     1
 10
-4.344024931686119
 20
-35.7989250712761
 11
-11.39246183357537
 21
-44.19892507127612
 72
     1
 10
-11.39246183357537
 20
-44.19892507127612
 11
-7.946186589738086
 21
-44.19892507127612
 72
     1
 10
-7.946186589738086
 20
-44.19892507127612
 11
-0.8977496878490028
 21
-35.79892507127613
 97
        0
 75
     0
 76
     1
 98
        1
 10
0.0
 20
0.0
  0
HATCH
  5
E1
330
1F
100
AcDbEntity
  8
중심선
100
AcDbHatch
 10
0.0
 20
0.0
 30
0.0
210
0.0
220
0.0
230
1.0
  2
SOLID
 70
     1
 71
     0
 91
        1
 92
        0
 93
        6
 72
     3
 10
3.902140743163196
 20
-39.99892507132738
 11
3.960054785062284
 21
1.540850780301639E-10
 40
0.3939339440162633
 50
17.09539180608433
 51
320.0019657685079
 73
     0
 72
     1
 10
5.585140398863792
 20
-38.58681907591441
 11
7.89044227256483
 21
-36.65249236586649
 72
     3
 10
3.902140743110349
 20
-39.99892507127625
 11
6.600054785286829
 21
-1.249000902703301E-13
 40
0.6363583540795982
 50
39.99873849337408
 51
368.4976242363724
 73
     1
 72
     1
 10
10.32747323501096
 20
-39.03892507120613
 11
2.582208049946273
 21
-39.0389250712061
 72
     1
 10
2.582208049946272
 20
-39.0389250712061
 11
2.582183005500338
 21
-40.95892507120602
 72
     1
 10
2.582183005500338
 20
-40.95892507120602
 11
7.023562774972376
 21
-40.95892507120599
 97
        0
 75
     0
 76
     1
 98
        1
 10
0.0
 20
0.0
  0
DIMENSION
  5
E2
330
1F
100
AcDbEntity
  8
치수문자_일반주서
100
AcDbDimension
  2
_D
 10
-53.5
 20
48.28052454378633
 30
0.0
 11
16.35000000000001
 21
48.28052454378633
 31
0.0
 70
   160
  1
<>
 71
     2
 42
139.7
  3
SLDDIMSTYLE0
100
AcDbAlignedDimension
 13
86.20000000000002
 23
12.69034108214038
 33
0.0
 14
-53.49999999999999
 24
11.70107492872388
 34
0.0
 50
0.0000000000000058
100
AcDbRotatedDimension
1001
ACAD
1000
DSTYLE
1002
{
1070
   171
1070
     6
1070
   273
1070
     7
1002
}
  0
DIMENSION
  5
F6
330
1F
100
AcDbEntity
  8
치수문자_일반주서
100
AcDbDimension
  2
_D_1
 10
-66.30999999999996
 20
-12.69892507127617
 30
0.0
 11
-66.31
 21
0.0010749287238854
 31
0.0
 70
   160
  1
%%c<>
 71
     2
 42
25.40000000000001
  3
SLDDIMSTYLE1
100
AcDbAlignedDimension
 13
-52.50000000000001
 23
12.70107492872388
 33
0.0
 14
-52.50000000000001
 24
-12.69892507127612
 34
0.0
 50
90.0000000000002
100
AcDbRotatedDimension
1001
ACAD
1000
DSTYLE
1002
{
1070
   171
1070
     6
1070
   273
1070
     7
1002
}
  0
DIMENSION
  5
10B
330
1F
100
AcDbEntity
  8
치수문자_일반주서
100
AcDbDimension
  2
_D_2
 10
9.999999999999993
 20
32.92695859564089
 30
0.0
 11
48.1
 21
32.92695859564089
 31
0.0
 70
   160
  1
<>
 71
     2
 42
76.20000000000002
  3
SLDDIMSTYLE0
100
AcDbAlignedDimension
 13
86.20000000000002
 23
12.69034108214038
 33
0.0
 14
9.999999999999995
 24
12.70107492872389
 34
0.0
 50
-0.0000000000000107
100
AcDbRotatedDimension
1001
ACAD
1000
DSTYLE
1002
{
1070
   171
1070
     6
1070
   273
1070
     7
1002
}
  0
DIMENSION
  5
11E
330
1F
100
AcDbEntity
  8
치수문자_일반주서
100
AcDbDimension
  2
_D_3
 10
106.4093537150439
 20
-12.68819122469252
 30
0.0
 11
106.4093537150438
 21
27.36734108214046
 31
0.0
 70
   160
  1
%%c<>
 71
     2
 42
25.37853230683297
  3
SLDDIMSTYLE2
100
AcDbAlignedDimension
 13
86.20000000000002
 23
12.69034108214038
 33
0.0
 14
86.20000000000002
 24
-12.68819122469259
 34
0.0
 50
90.0000000000002
100
AcDbRotatedDimension
1001
ACAD
1000
DSTYLE
1002
{
1070
   171
1070
     6
1070
   273
1070
     7
1002
}
  0
INSERT
  5
138
330
1F
100
AcDbEntity
  8
외형선
100
AcDbBlockReference
  2
SW_DOWELSYMBOL_0
 10
0.0000000000000087
 20
0.0
 30
0.0
  0
LINE
  5
2A6
330
1F
100
AcDbEntity
  8
0
  6
Continuous
 62
     4
370
    15
100
AcDbLine
 10
-31.08132499999991
 20
10.81742907821979
 30
0.0
 11
-17.97492500000001
 21
10.81742907821979
 31
0.0
  0
LINE
  5
2A7
330
1F
100
AcDbEntity
  8
0
  6
Continuous
 62
     4
370
    15
100
AcDbLine
 10
-31.08132499999991
 20
10.8174290782198
 30
0.0
 11
-32.96497085050398
 21
12.70107492872389
 31
0.0
  0
LINE
  5
2A8
330
1F
100
AcDbEntity
  8
0
  6
Continuous
 62
     4
370
    15
100
AcDbLine
 10
-17.97492500000001
 20
10.8174290782198
 30
0.0
 11
-16.09127914949588
 21
12.70107492872389
 31
0.0
  0
LINE
  5
2A9
330
1F
100
AcDbEntity
  8
0
  6
Continuous
 62
     4
370
    15
100
AcDbLine
 10
-53.5
 20
10.81742907821979
 30
0.0
 11
-40.79999999999998
 21
10.81742907821979
 31
0.0
  0
LINE
  5
2AA
330
1F
100
AcDbEntity
  8
0
  6
Continuous
 62
     4
370
    15
100
AcDbLine
 10
-40.79999999999998
 20
10.8174290782198
 30
0.0
 11
-38.91635414949591
 21
12.70107492872389
 31
0.0
  0
LINE
  5
2AB
330
1F
100
AcDbEntity
  8
0
  6
Continuous
 62
     4
370
    25
100
AcDbLine
 10
-32.96497085050398
 20
12.70107492872389
 30
0.0
 11
-38.91635414949591
 21
12.70107492872389
 31
0.0
  0
ENDSEC
  0
SECTION
  2
OBJECTS
  0
DICTIONARY
  5
C
330
0
100
AcDbDictionary
281
     1
  3
ACAD_GROUP
350
D
  3
ACAD_IMAGE_VARS
350
15C
  3
ACAD_LAYOUT
350
1A
  3
ACAD_MLINESTYLE
350
17
  3
ACAD_PLOTSETTINGS
350
19
  3
ACAD_PLOTSTYLENAME
350
E
  3
ACAD_SCALELIST
350
47
  3
APPDATA
350
15A
  3
DWGPROPS
350
2B0
  0
DICTIONARY
  5
21F
330
2
100
AcDbDictionary
280
     1
281
     1
  3
ACAD_LAYERSTATES
360
220
  0
DICTIONARY
  5
2AC
330
1F
100
AcDbDictionary
280
     1
281
     1
  3
ACAD_SORTENTS
360
2AD
  3
DIM_BOUNDING_BOXES_V1
360
2AE
  0
DICTIONARY
  5
D
102
{ACAD_REACTORS
330
C
102
}
330
C
100
AcDbDictionary
281
     1
  0
RASTERVARIABLES
  5
15C
102
{ACAD_REACTORS
330
C
102
}
330
C
100
AcDbRasterVariables
 90
        0
 70
     1
 71
     1
 72
     1
  0
DICTIONARY
  5
1A
102
{ACAD_REACTORS
330
C
102
}
330
C
100
AcDbDictionary
281
     1
  3
Layout1
350
1E
  3
Layout2
350
26
  3
Model
350
22
  0
DICTIONARY
  5
17
102
{ACAD_REACTORS
330
C
102
}
330
C
100
AcDbDictionary
281
     1
  3
Standard
350
18
  0
DICTIONARY
  5
19
102
{ACAD_REACTORS
330
C
102
}
330
C
100
AcDbDictionary
281
     1
  0
ACDBDICTIONARYWDFLT
  5
E
102
{ACAD_REACTORS
330
C
102
}
330
C
100
AcDbDictionary
281
     1
  3
Normal
350
F
100
AcDbDictionaryWithDefault
340
F
  0
DICTIONARY
  5
47
102
{ACAD_REACTORS
330
C
102
}
330
C
100
AcDbDictionary
281
     1
  3
A0
350
48
  3
A1
350
49
  3
A2
350
4A
  3
A3
350
4B
  3
A4
350
4C
  3
A5
350
4D
  3
A6
350
4E
  3
A7
350
4F
  3
A8
350
50
  3
A9
350
51
  3
B0
350
52
  3
B1
350
53
  3
B2
350
54
  3
B3
350
55
  3
B4
350
56
  3
B5
350
57
  3
B6
350
58
  3
B7
350
59
  3
B8
350
5A
  3
B9
350
5B
  3
C0
350
5C
  3
C1
350
5D
  3
C2
350
5E
  3
C3
350
5F
  3
C4
350
60
  3
C5
350
61
  3
C6
350
62
  3
C7
350
63
  3
C8
350
64
  3
C9
350
65
  3
D0
350
66
  3
D1
350
67
  3
D2
350
68
  0
DICTIONARY
  5
15A
102
{ACAD_REACTORS
330
C
102
}
330
C
100
AcDbDictionary
281
     1
  0
XRECORD
  5
2B0
102
{ACAD_REACTORS
330
C
102
}
330
C
100
AcDbXrecord
280
     1
  1
DWGPROPS COOKIE
  2

  3

  4

  6

  7

  8
12016016
  9

300
=
301
=
302
=
303
=
304
=
305
=
306
=
307
=
308
=
309
=
 40
0.0
 41
2458263.244999433
 42
2459730.97416191
  1

 90
        0
  0
DICTIONARY
  5
220
102
{ACAD_REACTORS
330
21F
102
}
330
21F
100
AcDbDictionary
281
     1
  0
SORTENTSTABLE
  5
2AD
102
{ACAD_REACTORS
330
2AC
102
}
330
2AC
100
AcDbSortentsTable
330
1F
331
9A
  5
9B
331
0
  5
9C
331
9C
  5
9D
331
9D
  5
9E
331
9E
  5
9F
331
9F
  5
A0
331
A0
  5
A1
331
A1
  5
A2
331
A2
  5
A3
331
A3
  5
A4
331
A4
  5
A5
331
A5
  5
A6
331
A6
  5
A7
331
A7
  5
A8
331
A8
  5
A9
331
A9
  5
AA
331
AA
  5
AB
331
AB
  5
AC
331
AC
  5
AD
331
AD
  5
AE
331
AE
  5
AF
331
AF
  5
B0
331
B0
  5
B1
331
B1
  5
B2
331
B2
  5
B3
331
B3
  5
B4
331
B4
  5
B5
331
B5
  5
B6
331
B6
  5
B7
331
B7
  5
B8
331
B8
  5
B9
331
B9
  5
BA
331
BA
  5
BB
331
BB
  5
BC
331
BC
  5
BD
331
BD
  5
BE
331
BE
  5
BF
331
BF
  5
C0
331
C0
  5
C1
331
C1
  5
C2
331
C2
  5
C3
331
C3
  5
C4
331
C4
  5
C5
331
C5
  5
C6
331
C6
  5
C7
331
C7
  5
C8
331
C8
  5
C9
331
C9
  5
CA
331
CA
  5
CB
331
CB
  5
CC
331
CC
  5
CD
331
CD
  5
CE
331
CE
  5
CF
331
CF
  5
D0
331
D0
  5
D1
331
D1
  5
D2
331
D2
  5
D3
331
D3
  5
D4
331
D4
  5
D5
331
D5
  5
D6
331
D6
  5
D7
331
D7
  5
D8
331
D8
  5
D9
331
D9
  5
DA
331
DA
  5
DB
331
DB
  5
DE
331
DE
  5
DF
331
DF
  5
E0
331
E0
  5
E1
331
E1
  5
E2
331
E2
  5
F6
331
F6
  5
10B
331
10B
  5
11E
331
11E
  5
138
331
138
  5
223
331
0
  5
224
331
0
  5
225
331
0
  5
226
331
0
  5
227
331
0
  5
228
331
0
  5
229
331
0
  5
22A
331
0
  5
22B
331
0
  5
22C
331
0
  5
22D
331
0
  5
22E
331
0
  5
22F
331
0
  5
230
331
0
  5
231
331
0
  5
232
331
0
  5
233
331
0
  5
234
331
0
  5
235
331
0
  5
236
331
0
  5
237
331
0
  5
238
331
0
  5
239
331
0
  5
23A
331
0
  5
23B
331
0
  5
23C
331
0
  5
23D
331
0
  5
23E
331
0
  5
23F
331
0
  5
240
331
0
  5
241
331
0
  5
242
331
0
  5
243
331
0
  5
244
331
0
  5
245
331
0
  5
246
331
0
  5
247
331
0
  5
248
331
0
  5
249
331
0
  5
24A
331
0
  5
24B
331
0
  5
24C
331
0
  5
24D
331
0
  5
24E
331
0
  5
24F
331
0
  5
250
331
0
  5
251
331
0
  5
252
331
0
  5
253
331
0
  5
254
331
0
  5
255
331
0
  5
256
331
0
  5
257
331
0
  5
258
331
0
  5
259
331
0
  5
25A
331
0
  5
25B
331
0
  5
25C
331
0
  5
25D
331
0
  5
25E
331
0
  5
25F
331
0
  5
260
331
0
  5
261
331
0
  5
262
331
0
  5
263
331
0
  5
264
331
0
  5
265
331
0
  5
266
331
0
  5
267
331
0
  5
268
331
0
  5
269
331
0
  5
26A
331
0
  5
26B
331
0
  5
26C
331
0
  5
26D
331
0
  5
26E
331
0
  5
26F
331
0
  5
270
331
0
  5
271
331
0
  5
272
331
0
  5
273
331
0
  5
274
331
0
  5
2A5
331
0
  5
2A6
331
2A6
  5
2A7
331
2A7
  5
2A8
331
2A8
  5
2A9
331
2A9
  5
2AA
331
2AA
  5
2AB
331
2AB
  5
9A
  0
DICTIONARY
  5
2AE
102
{ACAD_REACTORS
330
2AC
102
}
330
2AC
100
AcDbDictionary
281
     1
  0
LAYOUT
  5
1E
102
{ACAD_REACTORS
330
1A
102
}
330
1A
100
AcDbPlotSettings
  1

  2
none_device
  4

  6

 40
0.0
 41
0.0
 42
0.0
 43
0.0
 44
0.0
 45
0.0
 46
0.0
 47
0.0
 48
0.0
 49
0.0
140
0.0
141
0.0
142
1.0
143
1.0
 70
   688
 72
     1
 73
     0
 74
     5
  7

 75
    16
147
1.0
148
0.0
149
0.0
100
AcDbLayout
  1
Layout1
 70
     1
 71
     1
 10
0.0
 20
0.0
 11
420.0
 21
297.0
 12
0.0
 22
0.0
 32
0.0
 14
1.000000000000000E+20
 24
1.000000000000000E+20
 34
1.000000000000000E+20
 15
-1.000000000000000E+20
 25
-1.000000000000000E+20
 35
-1.000000000000000E+20
146
0.0
 13
0.0
 23
0.0
 33
0.0
 16
1.0
 26
0.0
 36
0.0
 17
0.0
 27
1.0
 37
0.0
 76
     0
330
1B
  0
LAYOUT
  5
26
102
{ACAD_REACTORS
330
1A
102
}
330
1A
100
AcDbPlotSettings
  1

  2
none_device
  4

  6

 40
0.0
 41
0.0
 42
0.0
 43
0.0
 44
0.0
 45
0.0
 46
0.0
 47
0.0
 48
0.0
 49
0.0
140
0.0
141
0.0
142
1.0
143
1.0
 70
   688
 72
     1
 73
     0
 74
     5
  7

 75
    16
147
1.0
148
0.0
149
0.0
100
AcDbLayout
  1
Layout2
 70
     1
 71
     2
 10
0.0
 20
0.0
 11
0.0
 21
0.0
 12
0.0
 22
0.0
 32
0.0
 14
0.0
 24
0.0
 34
0.0
 15
0.0
 25
0.0
 35
0.0
146
0.0
 13
0.0
 23
0.0
 33
0.0
 16
1.0
 26
0.0
 36
0.0
 17
0.0
 27
1.0
 37
0.0
 76
     0
330
23
  0
LAYOUT
  5
22
102
{ACAD_REACTORS
330
1A
102
}
330
1A
100
AcDbPlotSettings
  1

  2
none_device
  4
ANSI_A_(11.00_x_8.50_Inches)
  6

 40
6.35
 41
19.05
 42
6.35000508
 43
19.05000254
 44
279.4
 45
215.9
 46
110.6334768613251
 47
82.63464511602693
 48
0.0
 49
0.0
140
0.0
141
0.0
142
0.0590204762007087
143
1.0
 70
  1696
 72
     0
 73
     0
 74
     0
  7

 75
     0
147
0.0235690232323232
148
0.0
149
0.0
100
AcDbLayout
  1
Model
 70
     1
 71
     0
 10
0.0
 20
0.0
 11
420.0
 21
297.0
 12
0.0
 22
0.0
 32
0.0
 14
-70.68500000000003
 24
-49.97073246008785
 34
0.0
 15
106.9596870483773
 25
52.65552454378632
 35
0.0
146
0.0
 13
0.0
 23
0.0
 33
0.0
 16
1.0
 26
0.0
 36
0.0
 17
0.0
 27
1.0
 37
0.0
 76
     0
330
1F
331
29
  0
MLINESTYLE
  5
18
102
{ACAD_REACTORS
330
17
102
}
330
17
100
AcDbMlineStyle
  2
Standard
 70
     0
  3

 62
   256
 51
90.0
 52
90.0
 71
     2
 49
0.5
 62
   256
  6
BYLAYER
 49
-0.5
 62
   256
  6
BYLAYER
  0
ACDBPLACEHOLDER
  5
F
102
{ACAD_REACTORS
330
E
102
}
330
E
  0
SCALE
  5
48
102
{ACAD_REACTORS
330
47
102
}
330
47
100
AcDbScale
 70
     0
300
1:1
140
1.0
141
1.0
290
     1
  0
SCALE
  5
49
102
{ACAD_REACTORS
330
47
102
}
330
47
100
AcDbScale
 70
     0
300
1:2
140
1.0
141
2.0
290
     0
  0
SCALE
  5
4A
102
{ACAD_REACTORS
330
47
102
}
330
47
100
AcDbScale
 70
     0
300
1:4
140
1.0
141
4.0
290
     0
  0
SCALE
  5
4B
102
{ACAD_REACTORS
330
47
102
}
330
47
100
AcDbScale
 70
     0
300
1:5
140
1.0
141
5.0
290
     0
  0
SCALE
  5
4C
102
{ACAD_REACTORS
330
47
102
}
330
47
100
AcDbScale
 70
     0
300
1:8
140
1.0
141
8.0
290
     0
  0
SCALE
  5
4D
102
{ACAD_REACTORS
330
47
102
}
330
47
100
AcDbScale
 70
     0
300
1:10
140
1.0
141
10.0
290
     0
  0
SCALE
  5
4E
102
{ACAD_REACTORS
330
47
102
}
330
47
100
AcDbScale
 70
     0
300
1:16
140
1.0
141
16.0
290
     0
  0
SCALE
  5
4F
102
{ACAD_REACTORS
330
47
102
}
330
47
100
AcDbScale
 70
     0
300
1:20
140
1.0
141
20.0
290
     0
  0
SCALE
  5
50
102
{ACAD_REACTORS
330
47
102
}
330
47
100
AcDbScale
 70
     0
300
1:30
140
1.0
141
30.0
290
     0
  0
SCALE
  5
51
102
{ACAD_REACTORS
330
47
102
}
330
47
100
AcDbScale
 70
     0
300
1:40
140
1.0
141
40.0
290
     0
  0
SCALE
  5
52
102
{ACAD_REACTORS
330
47
102
}
330
47
100
AcDbScale
 70
     0
300
1:50
140
1.0
141
50.0
290
     0
  0
SCALE
  5
53
102
{ACAD_REACTORS
330
47
102
}
330
47
100
AcDbScale
 70
     0
300
1:100
140
1.0
141
100.0
290
     0
  0
SCALE
  5
54
102
{ACAD_REACTORS
330
47
102
}
330
47
100
AcDbScale
 70
     0
300
2:1
140
2.0
141
1.0
290
     0
  0
SCALE
  5
55
102
{ACAD_REACTORS
330
47
102
}
330
47
100
AcDbScale
 70
     0
300
4:1
140
4.0
141
1.0
290
     0
  0
SCALE
  5
56
102
{ACAD_REACTORS
330
47
102
}
330
47
100
AcDbScale
 70
     0
300
8:1
140
8.0
141
1.0
290
     0
  0
SCALE
  5
57
102
{ACAD_REACTORS
330
47
102
}
330
47
100
AcDbScale
 70
     0
300
10:1
140
10.0
141
1.0
290
     0
  0
SCALE
  5
58
102
{ACAD_REACTORS
330
47
102
}
330
47
100
AcDbScale
 70
     0
300
100:1
140
100.0
141
1.0
290
     0
  0
SCALE
  5
59
102
{ACAD_REACTORS
330
47
102
}
330
47
100
AcDbScale
 70
     0
300
1/128" = 1'-0"
140
0.0078125
141
12.0
290
     0
  0
SCALE
  5
5A
102
{ACAD_REACTORS
330
47
102
}
330
47
100
AcDbScale
 70
     0
300
1/64" = 1'-0"
140
0.015625
141
12.0
290
     0
  0
SCALE
  5
5B
102
{ACAD_REACTORS
330
47
102
}
330
47
100
AcDbScale
 70
     0
300
1/32" = 1'-0"
140
0.03125
141
12.0
290
     0
  0
SCALE
  5
5C
102
{ACAD_REACTORS
330
47
102
}
330
47
100
AcDbScale
 70
     0
300
1/16" = 1'-0"
140
0.0625
141
12.0
290
     0
  0
SCALE
  5
5D
102
{ACAD_REACTORS
330
47
102
}
330
47
100
AcDbScale
 70
     0
300
3/32" = 1'-0"
140
0.09375
141
12.0
290
     0
  0
SCALE
  5
5E
102
{ACAD_REACTORS
330
47
102
}
330
47
100
AcDbScale
 70
     0
300
1/8" = 1'-0"
140
0.125
141
12.0
290
     0
  0
SCALE
  5
5F
102
{ACAD_REACTORS
330
47
102
}
330
47
100
AcDbScale
 70
     0
300
3/16" = 1'-0"
140
0.1875
141
12.0
290
     0
  0
SCALE
  5
60
102
{ACAD_REACTORS
330
47
102
}
330
47
100
AcDbScale
 70
     0
300
1/4" = 1'-0"
140
0.25
141
12.0
290
     0
  0
SCALE
  5
61
102
{ACAD_REACTORS
330
47
102
}
330
47
100
AcDbScale
 70
     0
300
3/8" = 1'-0"
140
0.375
141
12.0
290
     0
  0
SCALE
  5
62
102
{ACAD_REACTORS
330
47
102
}
330
47
100
AcDbScale
 70
     0
300
1/2" = 1'-0"
140
0.5
141
12.0
290
     0
  0
SCALE
  5
63
102
{ACAD_REACTORS
330
47
102
}
330
47
100
AcDbScale
 70
     0
300
3/4" = 1'-0"
140
0.75
141
12.0
290
     0
  0
SCALE
  5
64
102
{ACAD_REACTORS
330
47
102
}
330
47
100
AcDbScale
 70
     0
300
1" = 1'-0"
140
1.0
141
12.0
290
     0
  0
SCALE
  5
65
102
{ACAD_REACTORS
330
47
102
}
330
47
100
AcDbScale
 70
     0
300
1-1/2" = 1'-0"
140
1.5
141
12.0
290
     0
  0
SCALE
  5
66
102
{ACAD_REACTORS
330
47
102
}
330
47
100
AcDbScale
 70
     0
300
3" = 1'-0"
140
3.0
141
12.0
290
     0
  0
SCALE
  5
67
102
{ACAD_REACTORS
330
47
102
}
330
47
100
AcDbScale
 70
     0
300
6" = 1'-0"
140
6.0
141
12.0
290
     0
  0
SCALE
  5
68
102
{ACAD_REACTORS
330
47
102
}
330
47
100
AcDbScale
 70
     0
300
1'-0" = 1'-0"
140
12.0
141
12.0
290
     0
  0
ENDSEC
  0
EOF
