  0
SECTION
  2
HEADER
  9
$ACADVER
  1
AC1015
  9
$ACADMAINTVER
 70
     6
  9
$DWGCODEPAGE
  3
ANSI_949
  9
$INSBASE
 10
0.0
 20
0.0
 30
0.0
  9
$EXTMIN
 10
-39.50500000000007
 20
-49.97073246008785
 30
0.0
  9
$EXTMAX
 10
37.10968704837709
 20
41.15587709225263
 30
0.0
  9
$LIMMIN
 10
0.0
 20
0.0
  9
$LIMMAX
 10
420.0
 20
297.0
  9
$ORTHOMODE
 70
     0
  9
$REGENMODE
 70
     1
  9
$FILLMODE
 70
     1
  9
$QTEXTMODE
 70
     0
  9
$MIRRTEXT
 70
     1
  9
$LTSCALE
 40
1.0
  9
$ATTMODE
 70
     1
  9
$TEXTSIZE
 40
3.5
  9
$TRACEWID
 40
1.0
  9
$TEXTSTYLE
  7
Standard
  9
$CLAYER
  8
0
  9
$CELTYPE
  6
ByLayer
  9
$CECOLOR
 62
   256
  9
$CELTSCALE
 40
1.0
  9
$DISPSILH
 70
     0
  9
$DIMSCALE
 40
1.0
  9
$DIMASZ
 40
3.302
  9
$DIMEXO
 40
1.0
  9
$DIMDLI
 40
3.75
  9
$DIMRND
 40
0.0
  9
$DIMDLE
 40
0.0
  9
$DIMEXE
 40
1.0
  9
$DIMTP
 40
0.0
  9
$DIMTM
 40
0.0
  9
$DIMTXT
 40
3.5
  9
$DIMCEN
 40
2.5
  9
$DIMTSZ
 40
0.0
  9
$DIMTOL
 70
     0
  9
$DIMLIM
 70
     0
  9
$DIMTIH
 70
     1
  9
$DIMTOH
 70
     1
  9
$DIMSE1
 70
     0
  9
$DIMSE2
 70
     0
  9
$DIMTAD
 70
     1
  9
$DIMZIN
 70
     0
  9
$DIMBLK
  1

  9
$DIMASO
 70
     1
  9
$DIMSHO
 70
     1
  9
$DIMPOST
  1

  9
$DIMAPOST
  1

  9
$DIMALT
 70
     0
  9
$DIMALTD
 70
     3
  9
$DIMALTF
 40
0.0393700787401575
  9
$DIMLFAC
 40
1.0
  9
$DIMTOFL
 70
     1
  9
$DIMTVP
 40
0.0
  9
$DIMTIX
 70
     0
  9
$DIMSOXD
 70
     0
  9
$DIMSAH
 70
     0
  9
$DIMBLK1
  1

  9
$DIMBLK2
  1

  9
$DIMSTYLE
  2
ISO-25
  9
$DIMCLRD
 70
     0
  9
$DIMCLRE
 70
     0
  9
$DIMCLRT
 70
     0
  9
$DIMTFAC
 40
1.0
  9
$DIMGAP
 40
1.524
  9
$DIMJUST
 70
     0
  9
$DIMSD1
 70
     0
  9
$DIMSD2
 70
     0
  9
$DIMTOLJ
 70
     0
  9
$DIMTZIN
 70
     0
  9
$DIMALTZ
 70
     0
  9
$DIMALTTZ
 70
     0
  9
$DIMUPT
 70
     0
  9
$DIMDEC
 70
     2
  9
$DIMTDEC
 70
     2
  9
$DIMALTU
 70
     2
  9
$DIMALTTD
 70
     3
  9
$DIMTXSTY
  7
Standard
  9
$DIMAUNIT
 70
     0
  9
$DIMADEC
 70
     2
  9
$DIMALTRND
 40
0.0
  9
$DIMAZIN
 70
     0
  9
$DIMDSEP
 70
    44
  9
$DIMATFIT
 70
     3
  9
$DIMFRAC
 70
     0
  9
$DIMLDRBLK
  1

  9
$DIMLUNIT
 70
     2
  9
$DIMLWD
 70
    -2
  9
$DIMLWE
 70
    -2
  9
$DIMTMOVE
 70
     0
  9
$LUNITS
 70
     2
  9
$LUPREC
 70
     2
  9
$SKETCHINC
 40
1.0
  9
$FILLETRAD
 40
10.0
  9
$AUNITS
 70
     0
  9
$AUPREC
 70
     2
  9
$MENU
  1
.
  9
$ELEVATION
 40
0.0
  9
$PELEVATION
 40
0.0
  9
$THICKNESS
 40
0.0
  9
$LIMCHECK
 70
     0
  9
$CHAMFERA
 40
0.0
  9
$CHAMFERB
 40
0.0
  9
$CHAMFERC
 40
0.0
  9
$CHAMFERD
 40
0.0
  9
$SKPOLY
 70
     0
  9
$TDCREATE
 40
2458263.62056691
  9
$TDUCREATE
 40
2458263.24556691
  9
$TDUPDATE
 40
2459723.303772187
  9
$TDUUPDATE
 40
2459722.928772187
  9
$TDINDWG
 40
0.0013576157
  9
$TDUSRTIMER
 40
0.0008748727
  9
$USRTIMER
 70
     1
  9
$ANGBASE
 50
0.0
  9
$ANGDIR
 70
     0
  9
$PDMODE
 70
     0
  9
$PDSIZE
 40
-1.0
  9
$PLINEWID
 40
0.0
  9
$SPLFRAME
 70
     0
  9
$SPLINETYPE
 70
     6
  9
$SPLINESEGS
 70
     8
  9
$HANDSEED
  5
18D
  9
$SURFTAB1
 70
     6
  9
$SURFTAB2
 70
     6
  9
$SURFTYPE
 70
     6
  9
$SURFU
 70
     6
  9
$SURFV
 70
     6
  9
$UCSBASE
  2

  9
$UCSNAME
  2

  9
$UCSORG
 10
0.0
 20
0.0
 30
0.0
  9
$UCSXDIR
 10
1.0
 20
0.0
 30
0.0
  9
$UCSYDIR
 10
0.0
 20
1.0
 30
0.0
  9
$UCSORTHOREF
  2

  9
$UCSORTHOVIEW
 70
     0
  9
$UCSORGTOP
 10
0.0
 20
0.0
 30
0.0
  9
$UCSORGBOTTOM
 10
0.0
 20
0.0
 30
0.0
  9
$UCSORGLEFT
 10
0.0
 20
0.0
 30
0.0
  9
$UCSORGRIGHT
 10
0.0
 20
0.0
 30
0.0
  9
$UCSORGFRONT
 10
0.0
 20
0.0
 30
0.0
  9
$UCSORGBACK
 10
0.0
 20
0.0
 30
0.0
  9
$PUCSBASE
  2

  9
$PUCSNAME
  2

  9
$PUCSORG
 10
0.0
 20
0.0
 30
0.0
  9
$PUCSXDIR
 10
1.0
 20
0.0
 30
0.0
  9
$PUCSYDIR
 10
0.0
 20
1.0
 30
0.0
  9
$PUCSORTHOREF
  2

  9
$PUCSORTHOVIEW
 70
     0
  9
$PUCSORGTOP
 10
0.0
 20
0.0
 30
0.0
  9
$PUCSORGBOTTOM
 10
0.0
 20
0.0
 30
0.0
  9
$PUCSORGLEFT
 10
0.0
 20
0.0
 30
0.0
  9
$PUCSORGRIGHT
 10
0.0
 20
0.0
 30
0.0
  9
$PUCSORGFRONT
 10
0.0
 20
0.0
 30
0.0
  9
$PUCSORGBACK
 10
0.0
 20
0.0
 30
0.0
  9
$USERI1
 70
     0
  9
$USERI2
 70
     0
  9
$USERI3
 70
     0
  9
$USERI4
 70
     0
  9
$USERI5
 70
     0
  9
$USERR1
 40
0.0
  9
$USERR2
 40
0.0
  9
$USERR3
 40
0.0
  9
$USERR4
 40
0.0
  9
$USERR5
 40
0.0
  9
$WORLDVIEW
 70
     1
  9
$SHADEDGE
 70
     3
  9
$SHADEDIF
 70
    70
  9
$TILEMODE
 70
     1
  9
$MAXACTVP
 70
    64
  9
$PINSBASE
 10
0.0
 20
0.0
 30
0.0
  9
$PLIMCHECK
 70
     0
  9
$PEXTMIN
 10
1.000000000000000E+20
 20
1.000000000000000E+20
 30
1.000000000000000E+20
  9
$PEXTMAX
 10
-1.000000000000000E+20
 20
-1.000000000000000E+20
 30
-1.000000000000000E+20
  9
$PLIMMIN
 10
0.0
 20
0.0
  9
$PLIMMAX
 10
0.0
 20
0.0
  9
$UNITMODE
 70
     0
  9
$VISRETAIN
 70
     1
  9
$PLINEGEN
 70
     0
  9
$PSLTSCALE
 70
     1
  9
$TREEDEPTH
 70
  3020
  9
$CMLSTYLE
  2
Standard
  9
$CMLJUST
 70
     0
  9
$CMLSCALE
 40
20.0
  9
$PROXYGRAPHICS
 70
     1
  9
$MEASUREMENT
 70
     1
  9
$CELWEIGHT
370
    -1
  9
$ENDCAPS
280
     0
  9
$JOINSTYLE
280
     0
  9
$LWDISPLAY
290
     1
  9
$INSUNITS
 70
     4
  9
$HYPERLINKBASE
  1

  9
$STYLESHEET
  1

  9
$XEDIT
290
     1
  9
$CEPSNTYPE
380
     0
  9
$PSTYLEMODE
290
     1
  9
$FINGERPRINTGUID
  2
{20817D56-45E3-4FA2-999D-A21CA30B430F}
  9
$VERSIONGUID
  2
{FAEB1C32-E019-11D5-929B-00C0DF256EC4}
  9
$EXTNAMES
290
     1
  9
$PSVPSCALE
 40
0.0
  9
$OLESTARTUP
290
     0
  0
ENDSEC
  0
SECTION
  2
CLASSES
  0
CLASS
  1
ACDBDICTIONARYWDFLT
  2
AcDbDictionaryWithDefault
  3
ObjectDBX Classes
 90
        0
280
     0
281
     0
  0
CLASS
  1
VISUALSTYLE
  2
AcDbVisualStyle
  3
ObjectDBX Classes
 90
     4095
280
     0
281
     0
  0
CLASS
  1
MATERIAL
  2
AcDbMaterial
  3
ObjectDBX Classes
 90
     1153
280
     0
281
     0
  0
CLASS
  1
SCALE
  2
AcDbScale
  3
ObjectDBX Classes
 90
     1153
280
     0
281
     0
  0
CLASS
  1
TABLESTYLE
  2
AcDbTableStyle
  3
ObjectDBX Classes
 90
     4095
280
     0
281
     0
  0
CLASS
  1
MLEADERSTYLE
  2
AcDbMLeaderStyle
  3
ACDB_MLEADERSTYLE_CLASS
 90
     4095
280
     0
281
     0
  0
CLASS
  1
SUN
  2
AcDbSun
  3
SCENEOE
 90
     1153
280
     0
281
     0
  0
CLASS
  1
ACDBPLACEHOLDER
  2
AcDbPlaceHolder
  3
ObjectDBX Classes
 90
        0
280
     0
281
     0
  0
CLASS
  1
LAYOUT
  2
AcDbLayout
  3
ObjectDBX Classes
 90
        0
280
     0
281
     0
  0
CLASS
  1
RASTERVARIABLES
  2
AcDbRasterVariables
  3
ISM
 90
        0
280
     0
281
     0
  0
ENDSEC
  0
SECTION
  2
TABLES
  0
TABLE
  2
VPORT
  5
8
330
0
100
AcDbSymbolTable
 70
     1
  0
VPORT
  5
29
330
8
100
AcDbSymbolTableRecord
100
AcDbViewportTableRecord
  2
*Active
 70
     0
 10
0.0
 20
0.0
 11
1.0
 21
1.0
 12
-1.197656475811485
 22
-4.407427683917618
 13
0.0
 23
0.0
 14
10.0
 24
10.0
 15
10.0
 25
10.0
 16
0.0
 26
0.0
 36
1.0
 17
0.0
 27
0.0
 37
0.0
 40
92.9491417433873
 41
1.913499344692005
 42
50.0
 43
0.0
 44
0.0
 50
0.0
 51
0.0
 71
    16
 72
  2000
 73
     1
 74
     3
 75
     0
 76
     0
 77
     0
 78
     0
281
     0
 65
     1
110
0.0
120
0.0
130
0.0
111
1.0
121
0.0
131
0.0
112
0.0
122
1.0
132
0.0
 79
     0
146
0.0
  0
ENDTAB
  0
TABLE
  2
LTYPE
  5
5
330
0
100
AcDbSymbolTable
 70
     6
  0
LTYPE
  5
14
330
5
100
AcDbSymbolTableRecord
100
AcDbLinetypeTableRecord
  2
ByBlock
 70
     0
  3

 72
    65
 73
     0
 40
0.0
  0
LTYPE
  5
15
330
5
100
AcDbSymbolTableRecord
100
AcDbLinetypeTableRecord
  2
ByLayer
 70
     0
  3

 72
    65
 73
     0
 40
0.0
  0
LTYPE
  5
16
330
5
100
AcDbSymbolTableRecord
100
AcDbLinetypeTableRecord
  2
Continuous
 70
     0
  3
Solid line
 72
    65
 73
     0
 40
0.0
  0
LTYPE
  5
6E
330
5
100
AcDbSymbolTableRecord
100
AcDbLinetypeTableRecord
  2
HIDDEN
 70
     0
  3
Hidden __ __ __ __ __ __ __ __ __ __ __ __ __ __
 72
    65
 73
     2
 40
1.905
 49
1.27
 74
     0
 49
-0.635
 74
     0
  0
LTYPE
  5
6F
330
5
100
AcDbSymbolTableRecord
100
AcDbLinetypeTableRecord
  2
PHANTOM
 70
     0
  3
Phantom ______  __  __  ______  __  __  ______
 72
    65
 73
     6
 40
12.7
 49
6.35
 74
     0
 49
-1.27
 74
     0
 49
1.27
 74
     0
 49
-1.27
 74
     0
 49
1.27
 74
     0
 49
-1.27
 74
     0
  0
LTYPE
  5
70
330
5
100
AcDbSymbolTableRecord
100
AcDbLinetypeTableRecord
  2
CENTER
 70
     0
  3
Center ____ _ ____ _ ____ _ ____ _ ____ _ ____
 72
    65
 73
     4
 40
10.16
 49
6.35
 74
     0
 49
-1.27
 74
     0
 49
1.27
 74
     0
 49
-1.27
 74
     0
  0
LTYPE
  5
71
330
5
100
AcDbSymbolTableRecord
100
AcDbLinetypeTableRecord
  2
CENTERX2
 70
     0
  3
Center (2x) ________  __  ________  __  _____
 72
    65
 73
     4
 40
20.32
 49
12.7
 74
     0
 49
-2.54
 74
     0
 49
2.54
 74
     0
 49
-2.54
 74
     0
  0
LTYPE
  5
72
330
5
100
AcDbSymbolTableRecord
100
AcDbLinetypeTableRecord
  2
DOT2
 70
     0
  3
Dot (.5x) ........................................
 72
    65
 73
     2
 40
0.635
 49
0.0
 74
     0
 49
-0.635
 74
     0
  0
ENDTAB
  0
TABLE
  2
LAYER
  5
2
330
0
100
AcDbSymbolTable
 70
    17
  0
LAYER
  5
10
330
2
100
AcDbSymbolTableRecord
100
AcDbLayerTableRecord
  2
0
 70
     0
 62
     7
  6
Continuous
370
    -3
390
F
  0
LAYER
  5
73
330
2
100
AcDbSymbolTableRecord
100
AcDbLayerTableRecord
  2
FORMAT
 70
     0
 62
     2
  6
Continuous
370
    -3
390
F
  0
LAYER
  5
74
330
2
100
AcDbSymbolTableRecord
100
AcDbLayerTableRecord
  2
외형선
 70
     0
 62
   100
  6
Continuous
370
    35
390
F
  0
LAYER
  5
75
330
2
100
AcDbSymbolTableRecord
100
AcDbLayerTableRecord
  2
숨은선
 70
     0
 62
     2
  6
HIDDEN
370
    25
390
F
  0
LAYER
  5
76
330
2
100
AcDbSymbolTableRecord
100
AcDbLayerTableRecord
  2
중심선
 70
     0
 62
     1
  6
CENTERX2
370
    -3
390
F
  0
LAYER
  5
77
330
2
100
AcDbSymbolTableRecord
100
AcDbLayerTableRecord
  2
파단선
 70
     0
 62
     4
  6
Continuous
370
    -3
390
F
  0
LAYER
  5
78
330
2
100
AcDbSymbolTableRecord
100
AcDbLayerTableRecord
  2
해칭선
 70
     0
 62
     4
  6
Continuous
370
    -3
390
F
  0
LAYER
  5
79
330
2
100
AcDbSymbolTableRecord
100
AcDbLayerTableRecord
  2
가는실선
 70
     0
 62
     4
  6
Continuous
370
    -3
390
F
  0
LAYER
  5
7A
330
2
100
AcDbSymbolTableRecord
100
AcDbLayerTableRecord
  2
치수_보조선
 70
     0
 62
     4
  6
Continuous
370
    -3
390
F
  0
LAYER
  5
7B
330
2
100
AcDbSymbolTableRecord
100
AcDbLayerTableRecord
  2
치수문자_일반주서
 70
     0
 62
     7
  6
Continuous
370
    25
390
F
  0
LAYER
  5
7C
330
2
100
AcDbSymbolTableRecord
100
AcDbLayerTableRecord
  2
개별주서
 70
     0
 62
   100
  6
Continuous
370
    35
390
F
  0
LAYER
  5
7D
330
2
100
AcDbSymbolTableRecord
100
AcDbLayerTableRecord
  2
중간선
 70
     0
 62
     2
  6
Continuous
370
    25
390
F
  0
LAYER
  5
7E
330
2
100
AcDbSymbolTableRecord
100
AcDbLayerTableRecord
  2
윤곽선
 70
     0
 62
     3
  6
Continuous
370
    50
390
F
  0
LAYER
  5
7F
330
2
100
AcDbSymbolTableRecord
100
AcDbLayerTableRecord
  2
중심마크
 70
     0
 62
   100
  6
Continuous
370
    35
390
F
  0
LAYER
  5
80
330
2
100
AcDbSymbolTableRecord
100
AcDbLayerTableRecord
  2
가상선
 70
     0
 62
     4
  6
PHANTOM
370
    -3
390
F
  0
LAYER
  5
81
330
2
100
AcDbSymbolTableRecord
100
AcDbLayerTableRecord
  2
특수지정선
 70
     0
 62
     5
  6
CENTERX2
370
    70
390
F
  0
LAYER
  5
162
330
2
100
AcDbSymbolTableRecord
100
AcDbLayerTableRecord
  2
Defpoints
 70
     0
 62
     7
  6
Continuous
290
     0
370
    -3
390
F
  0
ENDTAB
  0
TABLE
  2
STYLE
  5
3
330
0
100
AcDbSymbolTable
 70
     2
  0
STYLE
  5
11
330
3
100
AcDbSymbolTableRecord
100
AcDbTextStyleTableRecord
  2
Standard
 70
     0
 40
0.0
 41
1.0
 50
0.0
 71
     0
 42
3.5
  3
txt
  4

  0
STYLE
  5
97
330
3
100
AcDbSymbolTableRecord
100
AcDbTextStyleTableRecord
  2
SLDTEXTSTYLE0
 70
     0
 40
0.0
 41
0.75
 50
0.0
 71
     0
 42
3.5
  3
TXT
  4

  0
ENDTAB
  0
TABLE
  2
VIEW
  5
6
330
0
100
AcDbSymbolTable
 70
     0
  0
ENDTAB
  0
TABLE
  2
UCS
  5
7
330
0
100
AcDbSymbolTable
 70
     0
  0
ENDTAB
  0
TABLE
  2
APPID
  5
9
330
0
100
AcDbSymbolTable
 70
     2
  0
APPID
  5
12
330
9
100
AcDbSymbolTableRecord
100
AcDbRegAppTableRecord
  2
ACAD
 70
     0
  0
APPID
  5
188
330
9
100
AcDbSymbolTableRecord
100
AcDbRegAppTableRecord
  2
PE_URL
 70
     0
  0
ENDTAB
  0
TABLE
  2
DIMSTYLE
  5
A
330
0
100
AcDbSymbolTable
 70
     3
100
AcDbDimStyleTable
  0
DIMSTYLE
105
27
330
A
100
AcDbSymbolTableRecord
100
AcDbDimStyleTableRecord
  2
ISO-25
 70
     0
 41
2.5
 42
0.625
 43
3.75
 44
1.25
 73
     0
 74
     0
 77
     1
 78
     8
140
2.5
141
2.5
143
0.03937007874016
147
0.625
171
     3
172
     1
178
     0
271
     2
272
     2
274
     3
278
    44
283
     0
284
     8
340
11
  0
DIMSTYLE
105
E6
102
{ACAD_REACTORS
330
E5
102
}
330
A
100
AcDbSymbolTableRecord
100
AcDbDimStyleTableRecord
  2
SLDDIMSTYLE0
 70
     0
 41
3.302
 44
0.0
 45
0.000000001
 73
     0
 74
     0
 77
     1
 78
     4
 79
     1
140
3.5
143
0.0393700787401575
147
0.875
148
0.000000001
170
     1
173
     1
178
     0
271
     2
272
     2
276
     2
284
    12
340
97
  0
DIMSTYLE
105
FA
102
{ACAD_REACTORS
330
F9
330
10E
330
123
102
}
330
A
100
AcDbSymbolTableRecord
100
AcDbDimStyleTableRecord
  2
SLDDIMSTYLE1
 70
     0
 41
3.302
 44
0.0
 45
0.000000001
 73
     0
 74
     0
 77
     1
 78
    12
 79
     3
140
3.5
143
0.0393700787401575
147
0.875
148
0.000000001
170
     1
172
     1
173
     1
178
     0
271
     2
272
     2
276
     2
284
    12
289
     0
340
97
  0
ENDTAB
  0
TABLE
  2
BLOCK_RECORD
  5
1
330
0
100
AcDbSymbolTable
 70
     7
  0
BLOCK_RECORD
  5
1F
102
{ACAD_XDICTIONARY
360
18A
102
}
330
1
100
AcDbSymbolTableRecord
100
AcDbBlockTableRecord
  2
*Model_Space
340
22
  0
BLOCK_RECORD
  5
1B
330
1
100
AcDbSymbolTableRecord
100
AcDbBlockTableRecord
  2
*Paper_Space
340
1E
  0
BLOCK_RECORD
  5
23
330
1
100
AcDbSymbolTableRecord
100
AcDbBlockTableRecord
  2
*Paper_Space0
340
26
  0
BLOCK_RECORD
  5
82
330
1
100
AcDbSymbolTableRecord
100
AcDbBlockTableRecord
  2
블럭10
340
0
102
{BLKREFS
331
DE
102
}
  0
BLOCK_RECORD
  5
E7
330
1
100
AcDbSymbolTableRecord
100
AcDbBlockTableRecord
  2
_D
340
0
  0
BLOCK_RECORD
  5
FB
330
1
100
AcDbSymbolTableRecord
100
AcDbBlockTableRecord
  2
_D_1
340
0
  0
BLOCK_RECORD
  5
10F
330
1
100
AcDbSymbolTableRecord
100
AcDbBlockTableRecord
  2
_D_2
340
0
  0
BLOCK_RECORD
  5
124
330
1
100
AcDbSymbolTableRecord
100
AcDbBlockTableRecord
  2
_D_3
340
0
  0
BLOCK_RECORD
  5
137
330
1
100
AcDbSymbolTableRecord
100
AcDbBlockTableRecord
  2
SW_DOWELSYMBOL_0
340
0
102
{BLKREFS
331
13D
102
}
  0
ENDTAB
  0
ENDSEC
  0
SECTION
  2
BLOCKS
  0
BLOCK
  5
20
330
1F
100
AcDbEntity
  8
0
100
AcDbBlockBegin
  2
*Model_Space
 70
     0
 10
0.0
 20
0.0
 30
0.0
  3
*Model_Space
  1
*Model_Space
  0
ENDBLK
  5
21
330
1F
100
AcDbEntity
  8
0
100
AcDbBlockEnd
  0
BLOCK
  5
1C
330
1B
100
AcDbEntity
 67
     1
  8
0
100
AcDbBlockBegin
  2
*Paper_Space
 70
     0
 10
0.0
 20
0.0
 30
0.0
  3
*Paper_Space
  1
*Paper_Space
  0
ENDBLK
  5
1D
330
1B
100
AcDbEntity
 67
     1
  8
0
100
AcDbBlockEnd
  0
BLOCK
  5
24
330
23
100
AcDbEntity
  8
0
100
AcDbBlockBegin
  2
*Paper_Space0
 70
     0
 10
0.0
 20
0.0
 30
0.0
  3
*Paper_Space0
  1
*Paper_Space0
  0
ENDBLK
  5
25
330
23
100
AcDbEntity
  8
0
100
AcDbBlockEnd
  0
BLOCK
  5
83
330
82
100
AcDbEntity
  8
0
100
AcDbBlockBegin
  2
블럭10
 70
     2
 10
0.0
 20
0.0
 30
0.0
  3
블럭10
  1
블럭10
  0
ELLIPSE
  5
85
330
82
100
AcDbEntity
  8
중심선
100
AcDbEllipse
 10
20.54032771741204
 20
12.0471743016438
 30
0.0
 11
6.600054785286829
 21
-1.261213355974178E-13
 31
0.0
210
0.0
220
0.0
230
1.0
 40
0.636358354079598
 41
0.9219305317359503
 42
6.513795318482858
  0
ELLIPSE
  5
86
330
82
100
AcDbEntity
  8
중심선
100
AcDbEllipse
 10
20.54032771746488
 20
12.04717430159265
 30
0.0
 11
3.960054785062283
 21
1.540847449632565E-10
 31
0.0
210
0.0
220
0.0
230
1.0
 40
0.3939339440162632
 41
1.131841032648279
 42
5.62031148352944
  0
LINE
  5
87
330
82
100
AcDbEntity
  8
중심선
100
AcDbLine
 10
2.268634060543552
 20
16.24717430164393
 30
0.0
 11
5.714909304380834
 21
16.24717430164393
 31
0.0
  0
LINE
  5
88
330
82
100
AcDbEntity
  8
중심선
100
AcDbLine
 10
5.245725140726316
 20
7.84717430164391
 30
0.0
 11
8.692000384563599
 21
7.84717430164391
 31
0.0
  0
LINE
  5
89
330
82
100
AcDbEntity
  8
중심선
100
AcDbLine
 10
15.74043728645272
 20
16.24717430164393
 30
0.0
 11
8.692000384563599
 21
7.84717430164391
 31
0.0
  0
LINE
  5
8A
330
82
100
AcDbEntity
  8
중심선
100
AcDbLine
 10
0.1404042013395286
 20
13.71084872107135
 30
0.0
 11
3.58671253028996
 21
13.71088815037384
 31
0.0
  0
LINE
  5
8B
330
82
100
AcDbEntity
  8
중심선
100
AcDbLine
 10
2.750260043222114
 20
10.84717430164391
 30
0.0
 11
6.196535287059397
 21
10.84717430164391
 31
0.0
  0
LINE
  5
8C
330
82
100
AcDbEntity
  8
중심선
100
AcDbLine
 10
12.29416204261559
 20
16.24717430164393
 30
0.0
 11
5.245725140726316
 21
7.84717430164391
 31
0.0
  0
LINE
  5
8D
330
82
100
AcDbEntity
  8
중심선
100
AcDbLine
 10
10.72767329541681
 20
16.24717430164393
 30
0.0
 11
6.196535287059397
 21
10.84717430164391
 31
0.0
  0
LINE
  5
8E
330
82
100
AcDbEntity
  8
중심선
100
AcDbLine
 10
7.28139805157953
 20
16.24717430164393
 30
0.0
 11
2.750260043222114
 21
10.84717430164391
 31
0.0
  0
LINE
  5
8F
330
82
100
AcDbEntity
  8
중심선
100
AcDbLine
 10
5.714909304380834
 20
16.24717430164393
 30
0.0
 11
3.58671253028996
 21
13.71088815037384
 31
0.0
  0
LINE
  5
90
330
82
100
AcDbEntity
  8
중심선
100
AcDbLine
 10
2.268634060543552
 20
16.24717430164393
 30
0.0
 11
0.1404042013395286
 21
13.71084872107135
 31
0.0
  0
LINE
  5
91
330
82
100
AcDbEntity
  8
중심선
100
AcDbLine
 10
7.28139805157953
 20
16.24717430164393
 30
0.0
 11
10.72767329541681
 21
16.24717430164393
 31
0.0
  0
LINE
  5
92
330
82
100
AcDbEntity
  8
중심선
100
AcDbLine
 10
12.29416204261559
 20
16.24717430164393
 30
0.0
 11
15.74043728645272
 21
16.24717430164393
 31
0.0
  0
LINE
  5
93
330
82
100
AcDbEntity
  8
중심선
100
AcDbLine
 10
19.22036997980202
 20
11.08717430171403
 30
0.0
 11
23.66174974927406
 21
11.08717430171406
 31
0.0
  0
LINE
  5
94
330
82
100
AcDbEntity
  8
중심선
100
AcDbLine
 10
19.22039502424796
 20
13.00717430171391
 30
0.0
 11
19.22036997980202
 21
11.08717430171403
 31
0.0
  0
LINE
  5
95
330
82
100
AcDbEntity
  8
중심선
100
AcDbLine
 10
19.22039502424796
 20
13.00717430171391
 30
0.0
 11
26.96566020931264
 21
13.00717430171391
 31
0.0
  0
LINE
  5
96
330
82
100
AcDbEntity
  8
중심선
100
AcDbLine
 10
22.22332737316547
 20
13.45928029700563
 30
0.0
 11
24.52862924686651
 21
15.39360700705356
 31
0.0
  0
ATTDEF
  5
98
330
82
100
AcDbEntity
  8
FORMAT
 62
     2
100
AcDbText
 10
-9.18129528874128
 20
2.075366912832191
 30
0.0
 40
4.233333333333333
  1
E5254006 [ 2 FLUTE ]
 41
0.75
  7
SLDTEXTSTYLE0
 11
-9.18129528874128
 21
-0.0412997538344756
 31
0.0
100
AcDbAttributeDefinition
  3

  2
AUTOATTR0
 70
     0
 74
     1
  0
ENDBLK
  5
84
330
82
100
AcDbEntity
  8
0
100
AcDbBlockEnd
  0
BLOCK
  5
E8
330
E7
100
AcDbEntity
  8
0
100
AcDbBlockBegin
  2
_D
 70
     0
 10
0.0
 20
0.0
 30
0.0
  3
_D
  1
_D
  0
LINE
  5
EA
330
E7
100
AcDbEntity
  8
치수문자_일반주서
 62
     0
370
    -2
100
AcDbLine
 10
16.34999999999999
 20
1.253193630606688
 30
0.0
 11
16.34999999999999
 21
36.78087709225263
 31
0.0
  0
LINE
  5
EB
330
E7
100
AcDbEntity
  8
치수문자_일반주서
 62
     0
370
    -2
100
AcDbLine
 10
-21.75000000000001
 20
1.221074928723889
 30
0.0
 11
-21.75000000000001
 21
36.78087709225263
 31
0.0
  0
LINE
  5
EC
330
E7
100
AcDbEntity
  8
치수문자_일반주서
 62
     0
370
    -2
100
AcDbLine
 10
13.04799999999999
 20
36.78087709225263
 30
0.0
 11
-18.44800000000001
 21
36.78087709225263
 31
0.0
  0
SOLID
  5
ED
330
E7
100
AcDbEntity
  8
치수문자_일반주서
 62
     0
100
AcDbTrace
 10
13.04799999999999
 20
36.2305437589193
 30
0.0
 11
13.04799999999999
 21
37.33121042558597
 31
0.0
 12
16.34999999999999
 22
36.78087709225263
 32
0.0
 13
16.34999999999999
 23
36.78087709225263
 33
0.0
  0
SOLID
  5
EE
330
E7
100
AcDbEntity
  8
치수문자_일반주서
 62
     0
100
AcDbTrace
 10
-18.44800000000001
 20
37.33121042558597
 30
0.0
 11
-18.44800000000001
 21
36.2305437589193
 31
0.0
 12
-21.75000000000001
 22
36.78087709225263
 32
0.0
 13
-21.75000000000001
 23
36.78087709225263
 33
0.0
  0
MTEXT
  5
EF
330
E7
100
AcDbEntity
  8
치수문자_일반주서
 62
     0
100
AcDbMText
 10
-2.70000000000001
 20
41.15587709225263
 30
0.0
 40
3.5
 41
0.0
 71
     2
 72
     1
  1
\A1;38.10 [1 1/2]
  7
SLDTEXTSTYLE0
 73
     1
 44
1.0
  0
POINT
  5
F0
330
E7
100
AcDbEntity
  8
Defpoints
 62
     0
100
AcDbPoint
 10
16.34999999999999
 20
1.190693630606688
 30
0.0
  0
POINT
  5
F1
330
E7
100
AcDbEntity
  8
Defpoints
 62
     0
100
AcDbPoint
 10
-21.75000000000001
 20
1.158574928723889
 30
0.0
  0
POINT
  5
F2
330
E7
100
AcDbEntity
  8
Defpoints
 62
     0
100
AcDbPoint
 10
-21.75000000000001
 20
36.78087709225263
 30
0.0
  0
ENDBLK
  5
E9
330
E7
100
AcDbEntity
  8
0
100
AcDbBlockEnd
  0
BLOCK
  5
FC
330
FB
100
AcDbEntity
  8
0
100
AcDbBlockBegin
  2
_D_1
 70
     0
 10
0.0
 20
0.0
 30
0.0
  3
_D_1
  1
_D_1
  0
LINE
  5
FE
330
FB
100
AcDbEntity
  8
치수문자_일반주서
 62
     0
370
    -2
100
AcDbLine
 10
-21.38250000000002
 20
1.588574928723885
 30
0.0
 11
-35.13000000000003
 21
1.588574928723837
 31
0.0
  0
LINE
  5
FF
330
FB
100
AcDbEntity
  8
치수문자_일반주서
 62
     0
370
    -2
100
AcDbLine
 10
-21.38250000000002
 20
-1.586425071276099
 30
0.0
 11
-35.13000000000002
 21
-1.586425071276147
 31
0.0
  0
LINE
  5
100
330
FB
100
AcDbEntity
  8
치수문자_일반주서
 62
     0
370
    -2
100
AcDbLine
 10
-35.13000000000002
 20
-1.713425071276163
 30
0.0
 11
-35.13000000000003
 21
1.715574928723853
 31
0.0
  0
SOLID
  5
101
330
FB
100
AcDbEntity
  8
치수문자_일반주서
 62
     0
100
AcDbTrace
 10
-34.57966666666668
 20
-1.713425071276161
 30
0.0
 11
-35.68033333333335
 21
-1.713425071276165
 31
0.0
 12
-35.13000000000003
 22
1.588574928723837
 32
0.0
 13
-35.13000000000003
 23
1.588574928723837
 33
0.0
  0
SOLID
  5
102
330
FB
100
AcDbEntity
  8
치수문자_일반주서
 62
     0
100
AcDbTrace
 10
-35.68033333333337
 20
1.71557492872385
 30
0.0
 11
-34.5796666666667
 21
1.715574928723855
 31
0.0
 12
-35.13000000000002
 22
-1.586425071276147
 32
0.0
 13
-35.13000000000002
 23
-1.586425071276147
 33
0.0
  0
MTEXT
  5
103
330
FB
100
AcDbEntity
  8
치수문자_일반주서
 62
     0
100
AcDbMText
 10
-39.50500000000002
 20
0.0010749287238666
 30
0.0
 40
3.5
 41
0.0
 71
     2
 72
     1
  1
\A1;%%c3.18 [1/8]
  7
SLDTEXTSTYLE0
 11
-4.475859752819552E-15
 21
1.0
 31
0.0
 73
     1
 44
1.0
  0
POINT
  5
104
330
FB
100
AcDbEntity
  8
Defpoints
 62
     0
100
AcDbPoint
 10
-21.32000000000002
 20
1.588574928723885
 30
0.0
  0
POINT
  5
105
330
FB
100
AcDbEntity
  8
Defpoints
 62
     0
100
AcDbPoint
 10
-21.32000000000002
 20
-1.586425071276099
 30
0.0
  0
POINT
  5
106
330
FB
100
AcDbEntity
  8
Defpoints
 62
     0
100
AcDbPoint
 10
-35.13000000000002
 20
-1.586425071276147
 30
0.0
  0
ENDBLK
  5
FD
330
FB
100
AcDbEntity
  8
0
100
AcDbBlockEnd
  0
BLOCK
  5
110
330
10F
100
AcDbEntity
  8
0
100
AcDbBlockBegin
  2
_D_2
 70
     0
 10
0.0
 20
0.0
 30
0.0
  3
_D_2
  1
_D_2
  0
LINE
  5
112
330
10F
100
AcDbEntity
  8
치수문자_일반주서
 62
     0
370
    -2
100
AcDbLine
 10
16.34999999999999
 20
1.253193630606688
 30
0.0
 11
16.34999999999999
 21
21.42731114410719
 31
0.0
  0
LINE
  5
113
330
10F
100
AcDbEntity
  8
치수문자_일반주서
 62
     0
370
    -2
100
AcDbLine
 10
9.999999999999995
 20
1.025970729161386
 30
0.0
 11
9.999999999999995
 21
21.42731114410719
 31
0.0
  0
LINE
  5
114
330
10F
100
AcDbEntity
  8
치수문자_일반주서
 62
     0
370
    -2
100
AcDbLine
 10
13.04799999999999
 20
21.42731114410719
 30
0.0
 11
13.30199999999999
 21
21.42731114410719
 31
0.0
  0
SOLID
  5
115
330
10F
100
AcDbEntity
  8
치수문자_일반주서
 62
     0
100
AcDbTrace
 10
13.04799999999999
 20
20.87697781077386
 30
0.0
 11
13.04799999999999
 21
21.97764447744053
 31
0.0
 12
16.34999999999999
 22
21.42731114410719
 32
0.0
 13
16.34999999999999
 23
21.42731114410719
 33
0.0
  0
SOLID
  5
116
330
10F
100
AcDbEntity
  8
치수문자_일반주서
 62
     0
100
AcDbTrace
 10
13.30199999999999
 20
21.97764447744053
 30
0.0
 11
13.30199999999999
 21
20.87697781077386
 31
0.0
 12
9.999999999999995
 22
21.42731114410719
 32
0.0
 13
9.999999999999995
 23
21.42731114410719
 33
0.0
  0
MTEXT
  5
117
330
10F
100
AcDbEntity
  8
치수문자_일반주서
 62
     0
100
AcDbMText
 10
13.17500000000001
 20
25.80231114410719
 30
0.0
 40
3.5
 41
0.0
 71
     2
 72
     1
  1
\A1;6.35 [1/4]
  7
SLDTEXTSTYLE0
 73
     1
 44
1.0
  0
POINT
  5
118
330
10F
100
AcDbEntity
  8
Defpoints
 62
     0
100
AcDbPoint
 10
16.34999999999999
 20
1.190693630606688
 30
0.0
  0
POINT
  5
119
330
10F
100
AcDbEntity
  8
Defpoints
 62
     0
100
AcDbPoint
 10
9.999999999999995
 20
0.9634707291613863
 30
0.0
  0
POINT
  5
11A
330
10F
100
AcDbEntity
  8
Defpoints
 62
     0
100
AcDbPoint
 10
9.999999999999995
 20
21.42731114410719
 30
0.0
  0
ENDBLK
  5
111
330
10F
100
AcDbEntity
  8
0
100
AcDbBlockEnd
  0
BLOCK
  5
125
330
124
100
AcDbEntity
  8
0
100
AcDbBlockBegin
  2
_D_3
 70
     0
 10
0.0
 20
0.0
 30
0.0
  3
_D_3
  1
_D_3
  0
LINE
  5
127
330
124
100
AcDbEntity
  8
치수문자_일반주서
 62
     0
370
    -2
100
AcDbLine
 10
12.72120064674405
 20
1.191699928723894
 30
0.0
 11
36.55935371504376
 21
1.191699928723978
 31
0.0
  0
LINE
  5
128
330
124
100
AcDbEntity
  8
치수문자_일반주서
 62
     0
370
    -2
100
AcDbLine
 10
12.88806482765449
 20
-1.189550071276107
 30
0.0
 11
36.55935371504376
 21
-1.189550071276024
 31
0.0
  0
LINE
  5
129
330
124
100
AcDbEntity
  8
치수문자_일반주서
 62
     0
370
    -2
100
AcDbLine
 10
36.55935371504376
 20
1.191699928723978
 30
0.0
 11
36.55935371504365
 21
36.67069992872398
 31
0.0
  0
LINE
  5
12A
330
124
100
AcDbEntity
  8
치수문자_일반주서
 62
     0
370
    -2
100
AcDbLine
 10
36.55935371504376
 20
1.191699928723978
 30
0.0
 11
36.55935371504376
 21
-1.189550071276024
 31
0.0
  0
LINE
  5
12B
330
124
100
AcDbEntity
  8
치수문자_일반주서
 62
     0
370
    -2
100
AcDbLine
 10
36.55935371504375
 20
4.493699928723977
 30
0.0
 11
36.55935371504374
 21
7.795699928723977
 31
0.0
  0
LINE
  5
12C
330
124
100
AcDbEntity
  8
치수문자_일반주서
 62
     0
370
    -2
100
AcDbLine
 10
36.55935371504377
 20
-4.491550071276023
 30
0.0
 11
36.55935371504378
 21
-7.793550071276023
 31
0.0
  0
SOLID
  5
12D
330
124
100
AcDbEntity
  8
치수문자_일반주서
 62
     0
100
AcDbTrace
 10
36.00902038171041
 20
4.493699928723975
 30
0.0
 11
37.10968704837708
 21
4.493699928723979
 31
0.0
 12
36.55935371504376
 22
1.191699928723978
 32
0.0
 13
36.55935371504376
 23
1.191699928723978
 33
0.0
  0
SOLID
  5
12E
330
124
100
AcDbEntity
  8
치수문자_일반주서
 62
     0
100
AcDbTrace
 10
37.1096870483771
 20
-4.491550071276022
 30
0.0
 11
36.00902038171044
 21
-4.491550071276025
 31
0.0
 12
36.55935371504376
 22
-1.189550071276024
 32
0.0
 13
36.55935371504376
 23
-1.189550071276024
 33
0.0
  0
MTEXT
  5
12F
330
124
100
AcDbEntity
  8
치수문자_일반주서
 62
     0
100
AcDbMText
 10
32.18435371504369
 20
22.23319992872396
 30
0.0
 40
3.5
 41
0.0
 71
     2
 72
     1
  1
\A1;%%c2.38 [3/32]
  7
SLDTEXTSTYLE0
 11
-2.983906501879684E-15
 21
1.0
 31
0.0
 73
     1
 44
1.0
  0
POINT
  5
130
330
124
100
AcDbEntity
  8
Defpoints
 62
     0
100
AcDbPoint
 10
12.65870064674405
 20
1.191699928723893
 30
0.0
  0
POINT
  5
131
330
124
100
AcDbEntity
  8
Defpoints
 62
     0
100
AcDbPoint
 10
12.82556482765449
 20
-1.189550071276107
 30
0.0
  0
POINT
  5
132
330
124
100
AcDbEntity
  8
Defpoints
 62
     0
100
AcDbPoint
 10
36.55935371504376
 20
-1.189550071276024
 30
0.0
  0
ENDBLK
  5
126
330
124
100
AcDbEntity
  8
0
100
AcDbBlockEnd
  0
BLOCK
  5
138
330
137
100
AcDbEntity
  8
0
100
AcDbBlockBegin
  2
SW_DOWELSYMBOL_0
 70
     0
 10
0.0
 20
0.0
 30
0.0
  3
SW_DOWELSYMBOL_0
  1
SW_DOWELSYMBOL_0
  0
CIRCLE
  5
13A
330
137
100
AcDbEntity
  8
외형선
 62
     0
100
AcDbCircle
 10
0.0
 20
0.0
 30
0.0
 40
3.000000000000004
  0
HATCH
  5
13B
330
137
100
AcDbEntity
  8
0
  6
Continuous
 62
     0
370
    35
100
AcDbHatch
 10
0.0
 20
0.0
 30
0.0
210
0.0
220
0.0
230
1.0
  2
SOLID
 70
     1
 71
     0
 91
        1
 92
        0
 93
        3
 72
     2
 10
0.0000000000000069
 20
0.0
 40
3.000000000000004
 50
0.0
 51
90.0
 73
     1
 72
     1
 10
0.0000000000000069
 20
3.000000000000004
 11
0.0000000000000069
 21
0.0
 72
     1
 10
0.0000000000000069
 20
0.0
 11
3.000000000000012
 21
0.0
 97
        0
 75
     0
 76
     1
 98
        1
 10
0.0
 20
0.0
  0
HATCH
  5
13C
330
137
100
AcDbEntity
  8
0
  6
Continuous
 62
     0
370
    35
100
AcDbHatch
 10
0.0
 20
0.0
 30
0.0
210
0.0
220
0.0
230
1.0
  2
SOLID
 70
     1
 71
     0
 91
        1
 92
        0
 93
        3
 72
     2
 10
0.0000000000000069
 20
0.0
 40
3.000000000000004
 50
180.0
 51
270.0000000000007
 73
     1
 72
     1
 10
0.0000000000000069
 20
-3.000000000000004
 11
0.0000000000000069
 21
0.0
 72
     1
 10
0.0000000000000069
 20
0.0
 11
-2.999999999999997
 21
0.0
 97
        0
 75
     0
 76
     1
 98
        1
 10
0.0
 20
0.0
  0
ENDBLK
  5
139
330
137
100
AcDbEntity
  8
0
100
AcDbBlockEnd
  0
ENDSEC
  0
SECTION
  2
ENTITIES
  0
LINE
  5
99
330
1F
100
AcDbEntity
  8
0
  6
Continuous
 62
     4
370
    25
100
AcDbLine
 10
5.849902345263716
 20
1.588574928723892
 30
0.0
 11
-21.32000000000001
 21
1.58857492872389
 31
0.0
  0
LINE
  5
9A
330
1F
100
AcDbEntity
  8
0
  6
Continuous
 62
     4
370
    25
100
AcDbLine
 10
-21.32000000000001
 20
-1.586425071276107
 30
0.0
 11
5.849902345263715
 21
-1.586425071276105
 31
0.0
  0
LINE
  5
9D
330
1F
100
AcDbEntity
  8
0
  6
Continuous
 62
     4
370
    25
100
AcDbLine
 10
-21.32000000000001
 20
1.588574928723889
 30
0.0
 11
-21.75000000000001
 21
1.158574928723889
 31
0.0
  0
LINE
  5
9E
330
1F
100
AcDbEntity
  8
0
  6
Continuous
 62
     4
370
    25
100
AcDbLine
 10
-21.75000000000001
 20
-1.156425071276107
 30
0.0
 11
-21.32000000000001
 21
-1.586425071276107
 31
0.0
  0
LINE
  5
9F
330
1F
100
AcDbEntity
  8
0
  6
Continuous
 62
     4
370
    25
100
AcDbLine
 10
9.251032740783767
 20
1.191699928723893
 30
0.0
 11
8.999999999999995
 21
1.191699928723893
 31
0.0
  0
LINE
  5
A0
330
1F
100
AcDbEntity
  8
0
  6
Continuous
 62
     4
370
    25
100
AcDbLine
 10
8.999999999999995
 20
-1.189550071276107
 30
0.0
 11
9.251032740783769
 21
-1.189550071276107
 31
0.0
  0
SPLINE
  5
A1
330
1F
100
AcDbEntity
  8
0
  6
Continuous
 62
     4
370
    25
100
AcDbSpline
210
0.0
220
0.0
230
1.0
 70
     8
 71
     3
 72
     9
 73
     5
 74
     0
 42
0.000000001
 43
0.00000001
 40
0.0
 40
0.0
 40
0.0
 40
0.0
 40
0.5032134144223833
 40
0.9999999999999999
 40
0.9999999999999999
 40
0.9999999999999999
 40
0.9999999999999999
 10
9.566820235690908
 20
-0.9896819380168257
 30
0.0
 10
9.639922476993442
 20
-0.9779818639634927
 30
0.0
 10
9.785193328698465
 20
-0.9547311442529238
 30
0.0
 10
9.928705218350144
 20
-0.9429184737142366
 30
0.0
 10
9.999999999999995
 20
-0.9370500974507693
 30
0.0
  0
LINE
  5
A2
330
1F
100
AcDbEntity
  8
0
  6
Continuous
 62
     1
370
    25
100
AcDbLine
 10
10.51225344820184
 20
0.2758142401268266
 30
0.0
 11
10.43427868116743
 21
0.3503623691501151
 31
0.0
  0
SPLINE
  5
A3
330
1F
100
AcDbEntity
  8
0
  6
Continuous
 62
     1
370
    25
100
AcDbSpline
210
0.0
220
0.0
230
1.0
 70
     8
 71
     3
 72
     9
 73
     5
 74
     0
 42
0.000000001
 43
0.00000001
 40
0.0
 40
0.0
 40
0.0
 40
0.0
 40
0.5598802517339548
 40
1.0
 40
1.0
 40
1.0
 40
1.0
 10
14.57010136831459
 20
0.3058874737965959
 30
0.0
 10
14.5342651171817
 20
0.335304193778365
 30
0.0
 10
14.47025812457585
 20
0.3878452860756289
 30
0.0
 10
14.40594089660999
 20
0.4458725983608559
 30
0.0
 10
14.37763361442848
 20
0.4714115644363853
 30
0.0
  0
SPLINE
  5
A4
330
1F
100
AcDbEntity
  8
0
  6
Continuous
 62
     1
370
    25
100
AcDbSpline
210
0.0
220
0.0
230
1.0
 70
     8
 71
     3
 72
     9
 73
     5
 74
     0
 42
0.000000001
 43
0.00000001
 40
0.0
 40
0.0
 40
0.0
 40
0.0
 40
0.4525465611304203
 40
1.0
 40
1.0
 40
1.0
 40
1.0
 10
10.82952073818742
 20
0.3059857081767504
 30
0.0
 10
10.799771992086
 20
0.3303446529825723
 30
0.0
 10
10.73403567088381
 20
0.3841710366036863
 30
0.0
 10
10.6709706030412
 20
0.4409788095177211
 30
0.0
 10
10.63644541477821
 20
0.4720784201540316
 30
0.0
  0
LINE
  5
A5
330
1F
100
AcDbEntity
  8
0
  6
Continuous
 62
     1
370
    25
100
AcDbLine
 10
12.99242900856493
 20
1.191699928723893
 30
0.0
 11
12.65870064674405
 21
1.191699928723893
 31
0.0
  0
LINE
  5
A6
330
1F
100
AcDbEntity
  8
0
  6
Continuous
 62
     1
370
    25
100
AcDbLine
 10
12.65870064674405
 20
-1.189550071276107
 30
0.0
 11
12.99242900856493
 21
-1.189550071276107
 31
0.0
  0
SPLINE
  5
A7
330
1F
100
AcDbEntity
  8
0
  6
Continuous
 62
     1
370
    25
100
AcDbSpline
210
0.0
220
0.0
230
1.0
 70
     8
 71
     3
 72
    10
 73
     6
 74
     0
 42
0.000000001
 43
0.00000001
 40
0.0
 40
0.0
 40
0.0
 40
0.0
 40
0.4011912539145546
 40
0.6265122844422281
 40
1.0
 40
1.0
 40
1.0
 40
1.0
 10
9.999999999999993
 20
-0.937125273081845
 30
0.0
 10
10.08211687094157
 20
-0.9332199104385434
 30
0.0
 10
10.21035303736562
 20
-0.927121179104407
 30
0.0
 10
10.40491000361701
 20
-0.9302540328197869
 30
0.0
 10
10.52540138403247
 20
-0.9393621764863497
 30
0.0
 10
10.60055401116085
 20
-0.9450430884523732
 30
0.0
  0
SPLINE
  5
A8
330
1F
100
AcDbEntity
  8
0
  6
Continuous
 62
     1
370
    25
100
AcDbSpline
210
0.0
220
0.0
230
1.0
 70
     8
 71
     3
 72
    13
 73
     9
 74
     0
 42
0.000000001
 43
0.00000001
 40
0.0
 40
0.0
 40
0.0
 40
0.0
 40
0.2637212243101107
 40
0.4347171615402773
 40
0.5518419896091838
 40
0.6812016434601953
 40
0.8271919742223228
 40
1.0
 40
1.0
 40
1.0
 40
1.0
 10
14.34086009831549
 20
0.9471788473384932
 30
0.0
 10
14.2907683557569
 20
0.9430625786970932
 30
0.0
 10
14.20819729914726
 20
0.9362773355881711
 30
0.0
 10
14.10407589265224
 20
0.9322731608801137
 30
0.0
 10
14.02490855852149
 20
0.9308015640164362
 30
0.0
 10
13.95045842478448
 20
0.9308873429042877
 30
0.0
 10
13.86540073576784
 20
0.9324822832576656
 30
0.0
 10
13.80500103527745
 20
0.9357821954509082
 30
0.0
 10
13.77226073789137
 20
0.9375709478069226
 30
0.0
  0
SPLINE
  5
A9
330
1F
100
AcDbEntity
  8
0
  6
Continuous
 62
     1
370
    25
100
AcDbSpline
210
0.0
220
0.0
230
1.0
 70
     8
 71
     3
 72
    16
 73
    12
 74
     0
 42
0.000000001
 43
0.00000001
 40
0.0
 40
0.0
 40
0.0
 40
0.0
 40
0.1610457203931331
 40
0.2713153984093468
 40
0.358829666119414
 40
0.4531567231833644
 40
0.5450863552186312
 40
0.6438357342116081
 40
0.7293485897959953
 40
0.8267755315221494
 40
1.0
 40
1.0
 40
1.0
 40
1.0
 10
13.30699277392328
 20
-0.9897313003939224
 30
0.0
 10
13.36267581330334
 20
-0.9807324795035974
 30
0.0
 10
13.45648560829301
 20
-0.9655720724520299
 30
0.0
 10
13.58007424953841
 20
-0.9509421455021508
 30
0.0
 10
13.68051842939856
 20
-0.9412466573241
 30
0.0
 10
13.77456449723872
 20
-0.9345739160449344
 30
0.0
 10
13.87286080296044
 20
-0.9301908879036656
 30
0.0
 10
13.96814295369935
 20
-0.9284068408890689
 30
0.0
 10
14.06534759705718
 20
-0.9290857925995923
 30
0.0
 10
14.18772741800053
 20
-0.9327422365600996
 30
0.0
 10
14.28109941198822
 20
-0.9402340316214417
 30
0.0
 10
14.34086009831549
 20
-0.9450289898907063
 30
0.0
  0
SPLINE
  5
AA
330
1F
100
AcDbEntity
  8
0
  6
Continuous
 62
     1
370
    25
100
AcDbSpline
210
0.0
220
0.0
230
1.0
 70
     8
 71
     3
 72
     9
 73
     5
 74
     0
 42
0.000000001
 43
0.00000001
 40
0.0
 40
0.0
 40
0.0
 40
0.0
 40
0.4715196930418912
 40
1.0
 40
1.0
 40
1.0
 40
1.0
 10
10.60055401116085
 20
0.9471929459001598
 30
0.0
 10
10.5114618058221
 20
0.9403750236089128
 30
0.0
 10
10.32251486118019
 20
0.9259155590481375
 30
0.0
 10
10.13651671819647
 20
0.9340941635286769
 30
0.0
 10
10.03822036249879
 20
0.9384163949350415
 30
0.0
  0
SPLINE
  5
AB
330
1F
100
AcDbEntity
  8
0
  6
Continuous
 62
     1
370
    25
100
AcDbSpline
210
0.0
220
0.0
230
1.0
 70
     8
 71
     3
 72
    13
 73
     9
 74
     0
 42
0.000000001
 43
0.00000001
 40
0.0
 40
0.0
 40
0.0
 40
0.0
 40
0.3161514294737281
 40
0.5318338699313354
 40
0.6665854895108988
 40
0.7985210653175244
 40
0.9374688852408212
 40
1.0
 40
1.0
 40
1.0
 40
1.0
 10
11.15226883110932
 20
-0.8944845035257075
 30
0.0
 10
11.20660433184019
 20
-0.8804960858226818
 30
0.0
 10
11.29800818750662
 20
-0.856964595442897
 30
0.0
 10
11.41158181001755
 20
-0.8340560043235791
 30
0.0
 10
11.49391097284693
 20
-0.819509948899321
 30
0.0
 10
11.56269655838958
 20
-0.8089949651699551
 30
0.0
 10
11.61941281189978
 20
-0.80144944661898
 30
0.0
 10
11.65379581901324
 20
-0.7981437849762967
 30
0.0
 10
11.66446694831499
 20
-0.797117837981593
 30
0.0
  0
SPLINE
  5
AC
330
1F
100
AcDbEntity
  8
0
  6
Continuous
 62
     1
370
    25
100
AcDbSpline
210
0.0
220
0.0
230
1.0
 70
     8
 71
     3
 72
    18
 73
    14
 74
     0
 42
0.000000001
 43
0.00000001
 40
0.0
 40
0.0
 40
0.0
 40
0.0
 40
0.1363944544902333
 40
0.2287698885122639
 40
0.2867710674023666
 40
0.3429783229907608
 40
0.3998802459303057
 40
0.4569047885319362
 40
0.6205207175782906
 40
0.6705305096923729
 40
0.749970693120841
 40
0.8602266432848461
 40
0.9999999999999999
 40
0.9999999999999999
 40
0.9999999999999999
 40
0.9999999999999999
 10
16.106727433038
 20
0.8171474607155551
 30
0.0
 10
16.0507373478364
 20
0.8095740437836386
 30
0.0
 10
15.95682703749984
 20
0.7968714030960327
 30
0.0
 10
15.84061343040916
 20
0.7885909543162609
 30
0.0
 10
15.7564621247497
 20
0.7851956639328098
 30
0.0
 10
15.68706874518142
 20
0.7843003228962111
 30
0.0
 10
15.61849066979118
 20
0.7851331503743042
 30
0.0
 10
15.50655718891622
 20
0.7893052910217931
 30
0.0
 10
15.39705712651721
 20
0.7986702725937259
 30
0.0
 10
15.27972246778111
 20
0.8143984675468805
 30
0.0
 10
15.18414063834712
 20
0.8299949929274216
 30
0.0
 10
15.05124893786399
 20
0.8559393170586224
 30
0.0
 10
14.94949687305192
 20
0.8820618223162253
 30
0.0
 10
14.89261463061002
 20
0.896665031400947
 30
0.0
  0
SPLINE
  5
AD
330
1F
100
AcDbEntity
  8
0
  6
Continuous
 62
     1
370
    25
100
AcDbSpline
210
0.0
220
0.0
230
1.0
 70
     8
 71
     3
 72
    13
 73
     9
 74
     0
 42
0.000000001
 43
0.00000001
 40
0.0
 40
0.0
 40
0.0
 40
0.0
 40
0.3155848458892367
 40
0.5307090080324897
 40
0.6673238485023394
 40
0.8114263953350176
 40
0.9724156758500246
 40
1.0
 40
1.0
 40
1.0
 40
1.0
 10
14.89261463061002
 20
-0.8945151739531602
 30
0.0
 10
14.94701393417407
 20
-0.8805084566735139
 30
0.0
 10
15.03849551451038
 20
-0.8569538052696202
 30
0.0
 10
15.15252867438734
 20
-0.8339637529812518
 30
0.0
 10
15.23738052366002
 20
-0.8189715120678834
 30
0.0
 10
15.31249092247024
 20
-0.8076710495203577
 30
0.0
 10
15.36928316366942
 20
-0.8001975070605782
 30
0.0
 10
15.40156625968632
 20
-0.7973144619381848
 30
0.0
 10
15.40628859283934
 20
-0.7968927335030923
 30
0.0
  0
SPLINE
  5
AE
330
1F
100
AcDbEntity
  8
0
  6
Continuous
 62
     1
370
    25
100
AcDbSpline
210
0.0
220
0.0
230
1.0
 70
     8
 71
     3
 72
    18
 73
    14
 74
     0
 42
0.000000001
 43
0.00000001
 40
0.0
 40
0.0
 40
0.0
 40
0.0
 40
0.1348138169240421
 40
0.2259362674071788
 40
0.2831211616081655
 40
0.3390486258101572
 40
0.3961721921318502
 40
0.4535411621133857
 40
0.6281569481731573
 40
0.6832465386526305
 40
0.7633689814252125
 40
0.8693866304453292
 40
1.0
 40
1.0
 40
1.0
 40
1.0
 10
12.35408640490172
 20
0.815388095017685
 30
0.0
 10
12.29962609518513
 20
0.8082055931296414
 30
0.0
 10
12.20835533837437
 20
0.7961683427627598
 30
0.0
 10
12.09578532302368
 20
0.7883763907772467
 30
0.0
 10
12.01435714249208
 20
0.7851702383111252
 30
0.0
 10
11.94625636836535
 20
0.7843055573262565
 30
0.0
 10
11.87800468869858
 20
0.7851341307603217
 30
0.0
 10
11.76216462910991
 20
0.7894527625377338
 30
0.0
 10
11.64670182972894
 20
0.7995556375344685
 30
0.0
 10
11.52347966320676
 20
0.8168035087297429
 30
0.0
 10
11.42765000738767
 20
0.8329656040328974
 30
0.0
 10
11.30066927536539
 20
0.8583893050876809
 30
0.0
 10
11.20504862215371
 20
0.8830322045362068
 30
0.0
 10
11.15226883110932
 20
0.8966343609734941
 30
0.0
  0
LINE
  5
AF
330
1F
100
AcDbEntity
  8
0
  6
Continuous
 62
     4
370
    25
100
AcDbLine
 10
5.849902345263716
 20
1.588574928723894
 30
0.0
 11
5.849902345263716
 21
-1.586425071276106
 31
0.0
  0
LINE
  5
B0
330
1F
100
AcDbEntity
  8
0
  6
Continuous
 62
     4
370
    25
100
AcDbLine
 10
-21.32000000000001
 20
1.588574928723889
 30
0.0
 11
-21.32000000000001
 21
-1.586425071276108
 31
0.0
  0
LINE
  5
B1
330
1F
100
AcDbEntity
  8
0
  6
Continuous
 62
     4
370
    25
100
AcDbLine
 10
8.999999999999995
 20
1.191699928723893
 30
0.0
 11
8.999999999999995
 21
-1.189550071276108
 31
0.0
  0
LINE
  5
B2
330
1F
100
AcDbEntity
  8
0
  6
Continuous
 62
     4
370
    25
100
AcDbLine
 10
-21.75000000000001
 20
1.158574928723889
 30
0.0
 11
-21.75000000000001
 21
-1.156425071276107
 31
0.0
  0
SPLINE
  5
B3
330
1F
100
AcDbEntity
  8
0
  6
Continuous
 62
     4
370
    25
100
AcDbSpline
210
0.0
220
0.0
230
1.0
 70
     8
 71
     3
 72
    14
 73
    10
 74
     0
 42
0.000000001
 43
0.00000001
 40
0.0
 40
0.0
 40
0.0
 40
0.0
 40
0.25
 40
0.25
 40
0.5
 40
0.5
 40
0.75
 40
0.75
 40
1.0
 40
1.0
 40
1.0
 40
1.0
 10
9.999999999999991
 20
-0.9613208717134974
 30
0.0
 10
9.926465917651583
 20
-1.004891529825731
 30
0.0
 10
9.854217053396498
 20
-1.042682103727894
 30
0.0
 10
9.70478279493268
 20
-1.106474617917292
 30
0.0
 10
9.629107249332009
 20
-1.132149962284049
 30
0.0
 10
9.47980106890908
 20
-1.169725784494197
 30
0.0
 10
9.407707921916323
 20
-1.18161805655156
 30
0.0
 10
9.26041314764327
 20
-1.191822110896029
 30
0.0
 10
9.185034695359834
 20
-1.190012580428847
 30
0.0
 10
9.109880695270764
 20
-1.181199457486501
 30
0.0
  0
SPLINE
  5
B4
330
1F
100
AcDbEntity
  8
0
  6
Continuous
 62
     4
370
    25
100
AcDbSpline
210
0.0
220
0.0
230
1.0
 70
     8
 71
     3
 72
    10
 73
     6
 74
     0
 42
0.000000001
 43
0.00000001
 40
0.0
 40
0.0
 40
0.0
 40
0.0
 40
0.3950080389902033
 40
0.7917961857150763
 40
1.0
 40
1.0
 40
1.0
 40
1.0
 10
9.999999999999991
 20
0.963470729161284
 30
0.0
 10
9.901575416356229
 20
1.015195483274741
 30
0.0
 10
9.704282697684093
 20
1.118878089630764
 30
0.0
 10
9.454150039292346
 20
1.188369205988795
 30
0.0
 10
9.303037187414603
 20
1.183982151360918
 30
0.0
 10
9.251032740783769
 20
1.182472376742631
 30
0.0
  0
LINE
  5
B5
330
1F
100
AcDbEntity
  8
0
  6
Continuous
 62
     4
370
    25
100
AcDbLine
 10
9.999999999999991
 20
0.963470729161284
 30
0.0
 11
9.999999999999993
 21
0.7324400020391858
 31
0.0
  0
SPLINE
  5
B6
330
1F
100
AcDbEntity
  8
0
  6
Continuous
 62
     4
370
    25
100
AcDbSpline
210
0.0
220
0.0
230
1.0
 70
     8
 71
     3
 72
    14
 73
    10
 74
     0
 42
0.000000001
 43
0.00000001
 40
0.0
 40
0.0
 40
0.0
 40
0.0
 40
0.25
 40
0.25
 40
0.5
 40
0.5
 40
0.75
 40
0.75
 40
1.0
 40
1.0
 40
1.0
 40
1.0
 10
9.109928595659888
 20
1.176234917081533
 30
0.0
 10
9.185078702802553
 20
1.164260045863375
 30
0.0
 10
9.26045281153011
 20
1.145305724793415
 30
0.0
 10
9.407738667915952
 20
1.094696192117713
 30
0.0
 10
9.479828608108772
 20
1.063137587835962
 30
0.0
 10
9.629127291297674
 20
0.9872739940587932
 30
0.0
 10
9.704798770446544
 20
0.9431242950687277
 30
0.0
 10
9.854224888822682
 20
0.8446906633731783
 30
0.0
 10
9.926469823308462
 20
0.790833727288345
 30
0.0
 10
9.999999999999998
 20
0.7324400020391812
 30
0.0
  0
LINE
  5
B7
330
1F
100
AcDbEntity
  8
0
  6
Continuous
 62
     4
370
    25
100
AcDbLine
 10
9.109928595659888
 20
-1.181193423550837
 30
0.0
 11
9.109928595659888
 21
1.176300196314416
 31
0.0
  0
SPLINE
  5
B8
330
1F
100
AcDbEntity
  8
0
  6
Continuous
 62
     4
370
    25
100
AcDbSpline
210
0.0
220
0.0
230
1.0
 70
     8
 71
     3
 72
    12
 73
     8
 74
     0
 42
0.000000001
 43
0.00000001
 40
0.0
 40
0.0
 40
0.0
 40
0.0
 40
0.25
 40
0.25
 40
0.5
 40
0.5
 40
1.0
 40
1.0
 40
1.0
 40
1.0
 10
9.197886579712154
 20
-0.258261135439165
 30
0.0
 10
9.179024392912758
 20
-0.2438440044932691
 30
0.0
 10
9.166190788019167
 20
-0.2247398129382296
 30
0.0
 10
9.144742163952634
 20
-0.1844610694918052
 30
0.0
 10
9.136693606760309
 20
-0.1634285528525253
 30
0.0
 10
9.117101436838714
 20
-0.0987949952272469
 30
0.0
 10
9.109928595659891
 20
-0.0535487650069914
 30
0.0
 10
9.109928595659849
 20
-0.0086208223922314
 30
0.0
  0
SPLINE
  5
B9
330
1F
100
AcDbEntity
  8
0
  6
Continuous
 62
     4
370
    25
100
AcDbSpline
210
0.0
220
0.0
230
1.0
 70
     8
 71
     3
 72
    10
 73
     6
 74
     0
 42
0.000000001
 43
0.00000001
 40
0.0
 40
0.0
 40
0.0
 40
0.0
 40
0.5
 40
0.5
 40
1.0
 40
1.0
 40
1.0
 40
1.0
 10
9.109928595665943
 20
0.9992504033243625
 30
0.0
 10
9.109928595663272
 20
0.9500508704569075
 30
0.0
 10
9.129156393006708
 20
0.9051900903238516
 30
0.0
 10
9.175708255982006
 20
0.8331763967401572
 30
0.0
 10
9.206202851684871
 20
0.8018942792484517
 30
0.0
 10
9.24646921487291
 20
0.7931628304473869
 30
0.0
  0
SPLINE
  5
BA
330
1F
100
AcDbEntity
  8
0
  6
Continuous
 62
     4
370
    25
100
AcDbSpline
210
0.0
220
0.0
230
1.0
 70
    24
 71
     3
 72
    11
 73
     7
 74
     0
 42
0.000000001
 43
0.00000001
 40
0.0
 40
0.0
 40
0.0
 40
0.0
 40
0.2132328464549349
 40
0.4291102860139941
 40
0.7505494224527902
 40
1.0
 40
1.0
 40
1.0
 40
1.0
 10
9.999999999999993
 20
-0.773954222970177
 30
0.0
 10
9.999999999999995
 20
-0.795902266773673
 30
0.0
 10
9.999999999999995
 20
-0.8400705621866235
 30
0.0
 10
9.999999999999991
 20
-0.8949249429724339
 30
0.0
 10
9.999999999999996
 20
-0.9336725000831883
 30
0.0
 10
9.999999999999995
 20
-0.9335312935657339
 30
0.0
 10
9.999999999999995
 20
-0.9334695932995188
 30
0.0
  0
SPLINE
  5
BB
330
1F
100
AcDbEntity
  8
0
  6
Continuous
 62
     4
370
    25
100
AcDbSpline
210
0.0
220
0.0
230
1.0
 70
     8
 71
     3
 72
    10
 73
     6
 74
     0
 42
0.000000001
 43
0.00000001
 40
0.0
 40
0.0
 40
0.0
 40
0.0
 40
0.0116280892036464
 40
0.5029123707531793
 40
1.0
 40
1.0
 40
1.0
 40
1.0
 10
9.5668829717398
 20
-0.9892821395241268
 30
0.0
 10
9.56510551760832
 20
-0.9897180041982473
 30
0.0
 10
9.48823100662784
 20
-1.008569058120396
 30
0.0
 10
9.337148749789197
 20
-1.016389016029008
 30
0.0
 10
9.185932674728125
 20
-1.002037562574332
 30
0.0
 10
9.109880695270764
 20
-0.9948197026816094
 30
0.0
  0
SPLINE
  5
BC
330
1F
100
AcDbEntity
  8
0
  6
Continuous
 62
     4
370
    25
100
AcDbSpline
210
0.0
220
0.0
230
1.0
 70
     8
 71
     3
 72
    12
 73
     8
 74
     0
 42
0.000000001
 43
0.00000001
 40
0.0
 40
0.0
 40
0.0
 40
0.0
 40
0.2499999999999999
 40
0.2499999999999999
 40
0.4999999999999998
 40
0.4999999999999998
 40
1.0
 40
1.0
 40
1.0
 40
1.0
 10
9.999999999999998
 20
-0.7739542229701789
 30
0.0
 10
9.933642638203871
 20
-0.7428971128092153
 30
0.0
 10
9.868587200259084
 20
-0.7084166245109028
 30
0.0
 10
9.73410749266715
 20
-0.6322944178749491
 30
0.0
 10
9.66593071654726
 20
-0.5908383465232566
 30
0.0
 10
9.462953744405173
 20
-0.4588865212223696
 30
0.0
 10
9.333305888693703
 20
-0.3617675809529053
 30
0.0
 10
9.197886579712154
 20
-0.258261135439165
 30
0.0
  0
SPLINE
  5
BD
330
1F
100
AcDbEntity
  8
0
  6
Continuous
 62
     4
370
    25
100
AcDbSpline
210
0.0
220
0.0
230
1.0
 70
    24
 71
     3
 72
    10
 73
     6
 74
     0
 42
0.000000001
 43
0.00000001
 40
0.0
 40
0.0
 40
0.0
 40
0.0
 40
0.5
 40
0.5
 40
1.0
 40
1.0
 40
1.0
 40
1.0
 10
9.999999999999993
 20
0.7324400020391854
 30
0.0
 10
9.999999999999993
 20
0.7101917858260134
 30
0.0
 10
9.999999999999993
 20
0.675845840028402
 30
0.0
 10
9.999999999999993
 20
0.5899353641425071
 30
0.0
 10
9.999999999999993
 20
0.5386664404865744
 30
0.0
 10
9.999999999999993
 20
0.4855643045296574
 30
0.0
  0
SPLINE
  5
BE
330
1F
100
AcDbEntity
  8
0
  6
Continuous
 62
     4
370
    25
100
AcDbSpline
210
0.0
220
0.0
230
1.0
 70
     8
 71
     3
 72
    12
 73
     8
 74
     0
 42
0.000000001
 43
0.00000001
 40
0.0
 40
0.0
 40
0.0
 40
0.0
 40
0.2500000000000001
 40
0.2500000000000001
 40
0.5000000000000001
 40
0.5000000000000001
 40
1.0
 40
1.0
 40
1.0
 40
1.0
 10
9.999999999999998
 20
0.4855643045296545
 30
0.0
 10
9.937618181150047
 20
0.5213228504806591
 30
0.0
 10
9.876523840876875
 20
0.5548368989273623
 30
0.0
 10
9.75032064045704
 20
0.617661046196564
 30
0.0
 10
9.686315411613252
 20
0.646747454218297
 30
0.0
 10
9.495207321072758
 20
0.7253077060787215
 30
0.0
 10
9.373220874392375
 20
0.7656777153805999
 30
0.0
 10
9.24646921487291
 20
0.7931628304473866
 30
0.0
  0
SPLINE
  5
BF
330
1F
100
AcDbEntity
  8
0
  6
Continuous
 62
     4
370
    25
100
AcDbSpline
210
0.0
220
0.0
230
1.0
 70
    24
 71
     3
 72
    10
 73
     6
 74
     0
 42
0.000000001
 43
0.00000001
 40
0.0
 40
0.0
 40
0.0
 40
0.0
 40
0.5
 40
0.5
 40
1.0
 40
1.0
 40
1.0
 40
1.0
 10
9.999999999999995
 20
0.4855643045296568
 30
0.0
 10
9.999999999999995
 20
0.2917541196973603
 30
0.0
 10
9.999999999999995
 20
0.063627008235372
 30
0.0
 10
9.999999999999995
 20
-0.3840785030727122
 30
0.0
 10
9.999999999999995
 20
-0.6001880420013723
 30
0.0
 10
9.999999999999995
 20
-0.7739542229701775
 30
0.0
  0
SPLINE
  5
C0
330
1F
100
AcDbEntity
  8
0
  6
Continuous
 62
     1
370
    25
100
AcDbSpline
210
0.0
220
0.0
230
1.0
 70
     8
 71
     3
 72
    17
 73
    13
 74
     0
 42
0.000000001
 43
0.00000001
 40
0.0
 40
0.0
 40
0.0
 40
0.0
 40
0.1056128308469816
 40
0.2142980223045366
 40
0.3199082563945299
 40
0.424858389040998
 40
0.5298024511797441
 40
0.6347409863488976
 40
0.7426672489154998
 40
0.848338463031312
 40
0.9570707339559421
 40
1.0
 40
1.0
 40
1.0
 40
1.0
 10
9.999999999999995
 20
0.7324400020391848
 30
0.0
 10
10.09396273301164
 20
0.6550199478752112
 30
0.0
 10
10.28462164910394
 20
0.4979276290632324
 30
0.0
 10
10.56615615311332
 20
0.2212431818392744
 30
0.0
 10
10.85133246581304
 20
-0.0600920017980153
 30
0.0
 10
11.12846755179952
 20
-0.3400028158258627
 30
0.0
 10
11.40991402571204
 20
-0.5960538177859065
 30
0.0
 10
11.68903202011382
 20
-0.8254989213175329
 30
0.0
 10
11.97373608296916
 20
-1.006888093597318
 30
0.0
 10
12.25704811756845
 20
-1.131465220811104
 30
0.0
 10
12.48680858625018
 20
-1.190370657155767
 30
0.0
 10
12.6207790189921
 20
-1.183500171033534
 30
0.0
 10
12.65870064674405
 20
-1.18155541343389
 30
0.0
  0
SPLINE
  5
C1
330
1F
100
AcDbEntity
  8
0
  6
Continuous
 62
     1
370
    25
100
AcDbSpline
210
0.0
220
0.0
230
1.0
 70
     8
 71
     3
 72
    11
 73
     7
 74
     0
 42
0.000000001
 43
0.00000001
 40
0.0
 40
0.0
 40
0.0
 40
0.0
 40
0.2674544751575342
 40
0.5662019526462401
 40
0.781512057172325
 40
1.0
 40
1.0
 40
1.0
 40
1.0
 10
15.40794424110976
 20
0.8001526571479433
 30
0.0
 10
15.49232721776566
 20
0.8597547784778815
 30
0.0
 10
15.67096624081633
 20
0.9859326540172303
 30
0.0
 10
15.91441307244954
 20
1.101847940301045
 30
0.0
 10
16.1458796791444
 20
1.171992996645897
 30
0.0
 10
16.28162841197821
 20
1.184429717070035
 30
0.0
 10
16.34999999999999
 20
1.190693630606688
 30
0.0
  0
SPLINE
  5
C2
330
1F
100
AcDbEntity
  8
0
  6
Continuous
 62
     1
370
    25
100
AcDbSpline
210
0.0
220
0.0
230
1.0
 70
    24
 71
     3
 72
    10
 73
     6
 74
     0
 42
0.000000001
 43
0.00000001
 40
0.0
 40
0.0
 40
0.0
 40
0.0
 40
0.5
 40
0.5
 40
1.0
 40
1.0
 40
1.0
 40
1.0
 10
16.34999999999999
 20
0.834512428723894
 30
0.0
 10
16.34999999999999
 20
0.8850333344851018
 30
0.0
 10
16.34999999999999
 20
0.943743305718805
 30
0.0
 10
16.34999999999999
 20
1.066916667242913
 30
0.0
 10
16.35
 20
1.131065488225022
 30
0.0
 10
16.34999999999999
 20
1.190693630606688
 30
0.0
  0
SPLINE
  5
C3
330
1F
100
AcDbEntity
  8
0
  6
Continuous
 62
     1
370
    25
100
AcDbSpline
210
0.0
220
0.0
230
1.0
 70
     8
 71
     3
 72
     9
 73
     5
 74
     0
 42
0.000000001
 43
0.00000001
 40
0.0
 40
0.0
 40
0.0
 40
0.0
 40
0.9276608005686044
 40
1.0
 40
1.0
 40
1.0
 40
1.0
 10
16.34999999999999
 20
0.834512428723894
 30
0.0
 10
16.27482998186807
 20
0.8340450389266143
 30
0.0
 10
16.1937981886891
 20
0.8335412019670347
 30
0.0
 10
16.11250485709995
 20
0.8172602952727884
 30
0.0
 10
16.10662416257368
 20
0.8160825475165094
 30
0.0
  0
SPLINE
  5
C4
330
1F
100
AcDbEntity
  8
0
  6
Continuous
 62
     1
370
    25
100
AcDbSpline
210
0.0
220
0.0
230
1.0
 70
     8
 71
     3
 72
    12
 73
     8
 74
     0
 42
0.000000001
 43
0.00000001
 40
0.0
 40
0.0
 40
0.0
 40
0.0
 40
0.232589358808526
 40
0.4824480846816346
 40
0.7325849195461179
 40
0.984439201551509
 40
1.0
 40
1.0
 40
1.0
 40
1.0
 10
10.9038631644093
 20
-0.1131467080956383
 30
0.0
 10
10.83366261998637
 20
-0.0645073461926749
 30
0.0
 10
10.68804925928084
 20
0.0363827680861105
 30
0.0
 10
10.46771371958704
 20
0.1908011393576559
 30
0.0
 10
10.24163265595484
 20
0.342014339882061
 30
0.0
 10
10.08500786905404
 20
0.4367303025368892
 30
0.0
 10
10.00467456916121
 20
0.4828789305487013
 30
0.0
 10
9.999999999999991
 20
0.4855643045296577
 30
0.0
  0
SPLINE
  5
C5
330
1F
100
AcDbEntity
  8
0
  6
Continuous
 62
     4
370
    25
100
AcDbSpline
210
0.0
220
0.0
230
1.0
 70
    24
 71
     3
 72
    10
 73
     6
 74
     0
 42
0.000000001
 43
0.00000001
 40
0.0
 40
0.0
 40
0.0
 40
0.0
 40
0.5
 40
0.5
 40
1.0
 40
1.0
 40
1.0
 40
1.0
 10
9.999999999999995
 20
0.7324400020391846
 30
0.0
 10
9.999999999999995
 20
0.7101917858260127
 30
0.0
 10
9.999999999999995
 20
0.6758458400284015
 30
0.0
 10
9.999999999999995
 20
0.5899353641425065
 30
0.0
 10
9.999999999999995
 20
0.5386664404865737
 30
0.0
 10
9.999999999999995
 20
0.4855643045296568
 30
0.0
  0
SPLINE
  5
C6
330
1F
100
AcDbEntity
  8
0
  6
Continuous
 62
     1
370
    25
100
AcDbSpline
210
0.0
220
0.0
230
1.0
 70
     8
 71
     3
 72
    29
 73
    25
 74
     0
 42
0.000000001
 43
0.00000001
 40
0.0
 40
0.0
 40
0.0
 40
0.0
 40
0.0045188987491348
 40
0.0657587065173117
 40
0.1257189486788402
 40
0.1874161038593275
 40
0.2472860133230587
 40
0.3088912349993486
 40
0.3386844115055899
 40
0.3686863122691871
 40
0.398400798607688
 40
0.4283199495755117
 40
0.4580196824666867
 40
0.4879266203906739
 40
0.5474776477990131
 40
0.6087201045120632
 40
0.6688385369908837
 40
0.7306972678104151
 40
0.7908052494252965
 40
0.852653258984004
 40
0.8826087055863944
 40
0.9127757741720303
 40
0.95606840145514
 40
1.0
 40
1.0
 40
1.0
 40
1.0
 10
11.66610497482869
 20
0.800588088885983
 30
0.0
 10
11.67313829575531
 20
0.8062943691534121
 30
0.0
 10
11.7754867023764
 20
0.8893317705741101
 30
0.0
 10
11.97382786816681
 20
1.005535266258012
 30
0.0
 10
12.25703249692777
 20
1.136919814903108
 30
0.0
 10
12.54265328283539
 20
1.197004717303745
 30
0.0
 10
12.82672044731152
 20
1.190933717239931
 30
0.0
 10
13.06483404800424
 20
1.129868843471194
 30
0.0
 10
13.25256229312648
 20
1.048261069926783
 30
0.0
 10
13.39289238966286
 20
0.974400959178608
 30
0.0
 10
13.5334183339898
 20
0.8872771716704718
 30
0.0
 10
13.67228956413311
 20
0.7875148601122567
 30
0.0
 10
13.81116978926228
 20
0.6763483392199461
 30
0.0
 10
13.99823648988461
 20
0.5180082472112314
 30
0.0
 10
14.23263500557025
 20
0.2959192813419472
 30
0.0
 10
14.5162361849153
 20
0.0148088203565064
 30
0.0
 10
14.80090627887089
 20
-0.2729705735172099
 30
0.0
 10
15.08706298953262
 20
-0.5405898416638228
 30
0.0
 10
15.37202504800431
 20
-0.7826318662296212
 30
0.0
 10
15.61112326032125
 20
-0.9428768560710938
 30
0.0
 10
15.80095458208984
 20
-1.044825988357998
 30
0.0
 10
15.96123134437282
 20
-1.114197783512269
 30
0.0
 10
16.14592980547103
 20
-1.169767646870079
 30
0.0
 10
16.28164520215638
 20
-1.182254572917185
 30
0.0
 10
16.34999999999999
 20
-1.188543773158901
 30
0.0
  0
SPLINE
  5
C7
330
1F
100
AcDbEntity
  8
0
  6
Continuous
 62
     1
370
    25
100
AcDbSpline
210
0.0
220
0.0
230
1.0
 70
     8
 71
     3
 72
    18
 73
    14
 74
     0
 42
0.000000001
 43
0.00000001
 40
0.0
 40
0.0
 40
0.0
 40
0.0
 40
0.0446012398537345
 40
0.1441208120380835
 40
0.2420751468219884
 40
0.3416752927054478
 40
0.4398950335169777
 40
0.5390227500132677
 40
0.6381092077577568
 40
0.7363646868045101
 40
0.8359533491294401
 40
0.9339028811909245
 40
1.0
 40
1.0
 40
1.0
 40
1.0
 10
14.64277000399229
 20
-0.1120475847961064
 30
0.0
 10
14.60880276490921
 20
-0.0884748786260607
 30
0.0
 10
14.49904379642761
 20
-0.0123039567794191
 30
0.0
 10
14.31325112066406
 20
0.1165292000191246
 30
0.0
 10
14.08809392777601
 20
0.2734529348362569
 30
0.0
 10
13.86102049027557
 20
0.4163276403246665
 30
0.0
 10
13.63548599550681
 20
0.547779398438623
 30
0.0
 10
13.40883949684956
 20
0.6575333487834825
 30
0.0
 10
13.18223923448349
 20
0.7440113079046489
 30
0.0
 10
12.9566560753081
 20
0.8046802626047292
 30
0.0
 10
12.7296022191954
 20
0.8344007172005787
 30
0.0
 10
12.52976073963104
 20
0.8383480599637777
 30
0.0
 10
12.40416969498953
 20
0.8195826918153406
 30
0.0
 10
12.35356697829295
 20
0.8120218134833475
 30
0.0
  0
SPLINE
  5
C8
330
1F
100
AcDbEntity
  8
0
  6
Continuous
 62
     1
370
    25
100
AcDbSpline
210
0.0
220
0.0
230
1.0
 70
     8
 71
     3
 72
    19
 73
    15
 74
     0
 42
0.000000001
 43
0.00000001
 40
0.0
 40
0.0
 40
0.0
 40
0.0
 40
0.0899208194834923
 40
0.179447974633609
 40
0.2697277977652878
 40
0.3590938003390204
 40
0.4494304196703548
 40
0.538869888507352
 40
0.6289601051062997
 40
0.7187066982138173
 40
0.8083541087440667
 40
0.8985347907005735
 40
0.9879336575818669
 40
1.0
 40
1.0
 40
1.0
 40
1.0
 10
16.34999999999999
 20
-1.128757793705336
 30
0.0
 10
16.24920067811142
 20
-1.090080614021956
 30
0.0
 10
16.04804332366065
 20
-1.012895579470564
 30
0.0
 10
15.74753749232609
 20
-0.8115172340108724
 30
0.0
 10
15.44421700496868
 20
-0.5664821498572187
 30
0.0
 10
15.14429562247748
 20
-0.27937478322409
 30
0.0
 10
14.8407492198365
 20
0.0202073266002591
 30
0.0
 10
14.54055974939012
 20
0.3233589514043632
 30
0.0
 10
14.23797046171355
 20
0.602530164318974
 30
0.0
 10
13.93665396522443
 20
0.8444861543131563
 30
0.0
 10
13.63573399063137
 20
1.034574164692707
 30
0.0
 10
13.33270833587907
 20
1.150274415635419
 30
0.0
 10
13.11992403484401
 20
1.200720977375539
 30
0.0
 10
13.00597941477729
 20
1.188697986497044
 30
0.0
 10
12.99242900856493
 20
1.187268200604601
 30
0.0
  0
SPLINE
  5
C9
330
1F
100
AcDbEntity
  8
0
  6
Continuous
 62
     1
370
    25
100
AcDbSpline
210
0.0
220
0.0
230
1.0
 70
     8
 71
     3
 72
     9
 73
     5
 74
     0
 42
0.000000001
 43
0.00000001
 40
0.0
 40
0.0
 40
0.0
 40
0.0
 40
0.6388883164946509
 40
1.0
 40
1.0
 40
1.0
 40
1.0
 10
10.03892271109837
 20
-0.9357822693380451
 30
0.0
 10
10.03059634376022
 20
-0.9417679167757208
 30
0.0
 10
10.01756375711999
 20
-0.9511367646371388
 30
0.0
 10
10.00465977772373
 20
-0.958618962607923
 30
0.0
 10
10.00000000000004
 20
-0.9613208717134728
 30
0.0
  0
SPLINE
  5
CA
330
1F
100
AcDbEntity
  8
0
  6
Continuous
 62
     1
370
    25
100
AcDbSpline
210
0.0
220
0.0
230
1.0
 70
     8
 71
     3
 72
    15
 73
    11
 74
     0
 42
0.000000001
 43
0.00000001
 40
0.0
 40
0.0
 40
0.0
 40
0.0
 40
0.1263747094711782
 40
0.2536474701102593
 40
0.3792442198974858
 40
0.5067669553085034
 40
0.6324681933729597
 40
0.7595866103887046
 40
0.8862311463670584
 40
1.0
 40
1.0
 40
1.0
 40
1.0
 10
16.34999999999999
 20
-0.9382951735395132
 30
0.0
 10
16.27484893151798
 20
-0.9111136367614155
 30
0.0
 10
16.12401275174505
 20
-0.8565574042183386
 30
0.0
 10
15.89678359377679
 20
-0.7363835231478458
 30
0.0
 10
15.67195579499468
 20
-0.5890985773442606
 30
0.0
 10
15.44442010073742
 20
-0.4239975185311232
 30
0.0
 10
15.21943931640486
 20
-0.2394794756522945
 30
0.0
 10
14.99237097922356
 20
-0.0497528035632607
 30
0.0
 10
14.77347857139797
 20
0.1378469331390444
 30
0.0
 10
14.6304781645607
 20
0.2554938251119201
 30
0.0
 10
14.5628072566249
 20
0.3111668974598163
 30
0.0
  0
LINE
  5
CB
330
1F
100
AcDbEntity
  8
0
  6
Continuous
 62
     1
370
    25
100
AcDbLine
 10
16.34999999999996
 20
-1.128757793705337
 30
0.0
 11
16.34999999999999
 21
-0.9382951735395132
 31
0.0
  0
SPLINE
  5
CC
330
1F
100
AcDbEntity
  8
0
  6
Continuous
 62
     1
370
    25
100
AcDbSpline
210
0.0
220
0.0
230
1.0
 70
     8
 71
     3
 72
    21
 73
    17
 74
     0
 42
0.000000001
 43
0.00000001
 40
0.0
 40
0.0
 40
0.0
 40
0.0
 40
0.0363032374679961
 40
0.1165782035270639
 40
0.1961572314177167
 40
0.2765837462569375
 40
0.3561499962295999
 40
0.4364579426380928
 40
0.5162200467735037
 40
0.5961561593400829
 40
0.6763053963223571
 40
0.7559428793846186
 40
0.8363442855301008
 40
0.9158908396646607
 40
0.9962747363282356
 40
1.0
 40
1.0
 40
1.0
 40
1.0
 10
13.77271646907866
 20
-0.9351392536680408
 30
0.0
 10
13.72715249981258
 20
-0.9646492011106195
 30
0.0
 10
13.58083591613914
 20
-1.059412558292378
 30
0.0
 10
13.33274436818673
 20
-1.150703713441143
 30
0.0
 10
13.03274799409108
 20
-1.202279495145109
 30
0.0
 10
12.72913246853027
 20
-1.17357525944254
 30
0.0
 10
12.42914624998857
 20
-1.069721678074497
 30
0.0
 10
12.1260682012709
 20
-0.8990576107820878
 30
0.0
 10
11.82528095208939
 20
-0.6693049569298535
 30
0.0
 10
11.52377442783705
 20
-0.3973036412037615
 30
0.0
 10
11.22136939638961
 20
-0.1011423911180876
 30
0.0
 10
10.92110881076751
 20
0.2047023824403812
 30
0.0
 10
10.61754592865853
 20
0.4931605106343026
 30
0.0
 10
10.31790389452454
 20
0.7549148357585991
 30
0.0
 10
10.10997634107058
 20
0.8979985701464568
 30
0.0
 10
10.00466435424127
 20
0.9606939015307837
 30
0.0
 10
10.00000000000004
 20
0.9634707291612593
 30
0.0
  0
SPLINE
  5
CD
330
1F
100
AcDbEntity
  8
0
  6
Continuous
 62
     1
370
    25
100
AcDbSpline
210
0.0
220
0.0
230
1.0
 70
     8
 71
     3
 72
    19
 73
    15
 74
     0
 42
0.000000001
 43
0.00000001
 40
0.0
 40
0.0
 40
0.0
 40
0.0
 40
0.0507490347141813
 40
0.1413499460807898
 40
0.2330842800553569
 40
0.3234250044468752
 40
0.415116489036927
 40
0.5058328228290798
 40
0.5970125694443954
 40
0.6884627860792317
 40
0.7789448796219663
 40
0.8707116506849576
 40
0.9610838359878171
 40
1.0
 40
1.0
 40
1.0
 40
1.0
 10
13.30797963208425
 20
-0.9852186632926659
 30
0.0
 10
13.26588587546182
 20
-0.99316039024009
 30
0.0
 10
13.14864324685955
 20
-1.015280272561577
 30
0.0
 10
12.9568531530584
 20
-1.011747314398602
 30
0.0
 10
12.72934760738944
 20
-0.9780721075921182
 30
0.0
 10
12.50462482249761
 20
-0.9060360180731086
 30
0.0
 10
12.27722238363193
 20
-0.8038057590263095
 30
0.0
 10
12.05170027490858
 20
-0.6705860325746744
 30
0.0
 10
11.82524195038266
 20
-0.5140000867290754
 30
0.0
 10
11.59826072502169
 20
-0.3400021910429317
 30
0.0
 10
11.37323361516309
 20
-0.1504056983082424
 30
0.0
 10
11.14566725442216
 20
0.0393147479828749
 30
0.0
 10
10.96425749183191
 20
0.1976297087159533
 30
0.0
 10
10.85685287579061
 20
0.2827236495761529
 30
0.0
 10
10.82452377826812
 20
0.3083371698701523
 30
0.0
  0
LINE
  5
CE
330
1F
100
AcDbEntity
  8
0
  6
Continuous
 62
     1
370
    25
100
AcDbLine
 10
16.34999999999999
 20
-1.188543773158901
 30
0.0
 11
16.3499999999999
 21
-1.128757793705325
 31
0.0
  0
SPLINE
  5
CF
330
1F
100
AcDbEntity
  8
0
  6
Continuous
 62
     1
370
    25
100
AcDbSpline
210
0.0
220
0.0
230
1.0
 70
     8
 71
     3
 72
    10
 73
     6
 74
     0
 42
0.000000001
 43
0.00000001
 40
0.0
 40
0.0
 40
0.0
 40
0.0
 40
0.5
 40
0.5
 40
1.0
 40
1.0
 40
1.0
 40
1.0
 10
16.34999999999999
 20
-0.3171112038926524
 30
0.0
 10
16.19751312772638
 20
-0.1969167158982259
 30
0.0
 10
16.04826680942428
 20
-0.0706704587343753
 30
0.0
 10
15.75702924533842
 20
0.1953709810478973
 30
0.0
 10
15.61628548355255
 20
0.3341854467916212
 30
0.0
 10
15.49310785417087
 20
0.4716757470779401
 30
0.0
  0
LINE
  5
D0
330
1F
100
AcDbEntity
  8
0
  6
Continuous
 62
     1
370
    25
100
AcDbLine
 10
15.51614158570374
 20
0.4910033427166314
 30
0.0
 11
16.34999999999999
 21
0.001074928723894
 31
0.0
  0
LINE
  5
D1
330
1F
100
AcDbEntity
  8
0
  6
Continuous
 62
     1
370
    25
100
AcDbLine
 10
16.34999999999999
 20
0.001074928723894
 30
0.0
 11
16.34999999999999
 21
-0.3171112038926519
 31
0.0
  0
SPLINE
  5
D2
330
1F
100
AcDbEntity
  8
0
  6
Continuous
 62
     4
370
    25
100
AcDbSpline
210
0.0
220
0.0
230
1.0
 70
    24
 71
     3
 72
    11
 73
     7
 74
     0
 42
0.000000001
 43
0.00000001
 40
0.0
 40
0.0
 40
0.0
 40
0.0
 40
0.2185493220728057
 40
0.4398091741585717
 40
0.7692626637325329
 40
1.0
 40
1.0
 40
1.0
 40
1.0
 10
9.999999999999995
 20
-0.7739542229701771
 30
0.0
 10
9.999999999999993
 20
-0.7959073744959076
 30
0.0
 10
9.999999999999993
 20
-0.8400859487011992
 30
0.0
 10
9.999999999999998
 20
-0.8948497682657288
 30
0.0
 10
9.999999999999995
 20
-0.9328561548069554
 30
0.0
 10
9.999999999999993
 20
-0.9329307885068758
 30
0.0
 10
9.999999999999995
 20
-0.932961529426436
 30
0.0
  0
SPLINE
  5
D3
330
1F
100
AcDbEntity
  8
0
  6
Continuous
 62
     1
370
    25
100
AcDbSpline
210
0.0
220
0.0
230
1.0
 70
     8
 71
     3
 72
    13
 73
     9
 74
     0
 42
0.000000001
 43
0.00000001
 40
0.0
 40
0.0
 40
0.0
 40
0.0
 40
0.1241797297038326
 40
0.3025278836499301
 40
0.4829415331723511
 40
0.6626646674332951
 40
0.8416108944621733
 40
1.0
 40
1.0
 40
1.0
 40
1.0
 10
15.60072563809167
 20
0.5619777898788225
 30
0.0
 10
15.54838292867387
 20
0.5945169098569041
 30
0.0
 10
15.42086510316048
 20
0.6737890352374155
 30
0.0
 10
15.21936443778005
 20
0.7808898089648555
 30
0.0
 10
14.99241927915454
 20
0.8718340058430626
 30
0.0
 10
14.76608014546351
 20
0.931121974558896
 30
0.0
 10
14.54963750916468
 20
0.958969300810424
 30
0.0
 10
14.40754885193493
 20
0.9496596380768453
 30
0.0
 10
14.34083394497736
 20
0.9452884708409356
 30
0.0
  0
SPLINE
  5
D4
330
1F
100
AcDbEntity
  8
0
  6
Continuous
 62
     1
370
    25
100
AcDbSpline
210
0.0
220
0.0
230
1.0
 70
     8
 71
     3
 72
    14
 73
    10
 74
     0
 42
0.000000001
 43
0.00000001
 40
0.0
 40
0.0
 40
0.0
 40
0.0
 40
0.0062573972402215
 40
0.2009813617510253
 40
0.3984506242515103
 40
0.5943379043354126
 40
0.7904319874874955
 40
0.9878015565197549
 40
1.0
 40
1.0
 40
1.0
 40
1.0
 10
11.15240462988398
 20
-0.8939686307230233
 30
0.0
 10
11.14999418739295
 20
-0.8947824102726231
 30
0.0
 10
11.07257317739915
 20
-0.9209201982002291
 30
0.0
 10
10.9209393998457
 20
-0.944029693457091
 30
0.0
 10
10.69367033616855
 20
-0.9570661809768483
 30
0.0
 10
10.46775156840746
 20
-0.9322350585678384
 30
0.0
 10
10.24168806487887
 20
-0.8743502209301242
 30
0.0
 10
10.08494778119754
 20
-0.8134699495644264
 30
0.0
 10
10.00467262148854
 20
-0.7761278175081018
 30
0.0
 10
9.999999999999995
 20
-0.773954222970177
 30
0.0
  0
SPLINE
  5
D5
330
1F
100
AcDbEntity
  8
0
  6
Continuous
 62
     1
370
    25
100
AcDbSpline
210
0.0
220
0.0
230
1.0
 70
    24
 71
     3
 72
     8
 73
     4
 74
     0
 42
0.000000001
 43
0.00000001
 40
0.0
 40
0.0
 40
0.0
 40
0.0
 40
0.000145923983767
 40
0.000145923983767
 40
0.000145923983767
 40
0.000145923983767
 10
15.60072563809167
 20
0.5619777898788224
 30
0.0
 10
15.56486348031392
 20
0.5318858665142919
 30
0.0
 10
15.52898931061933
 20
0.5017838639547088
 30
0.0
 10
15.4931078541631
 20
0.4716757470761814
 30
0.0
  0
SPLINE
  5
D6
330
1F
100
AcDbEntity
  8
0
  6
Continuous
 62
     1
370
    25
100
AcDbSpline
210
0.0
220
0.0
230
1.0
 70
    24
 71
     3
 72
    10
 73
     6
 74
     0
 42
0.000000001
 43
0.00000001
 40
0.0
 40
0.0
 40
0.0
 40
0.0
 40
0.5
 40
0.5
 40
1.0
 40
1.0
 40
1.0
 40
1.0
 10
16.34999999999999
 20
-0.9382951735395131
 30
0.0
 10
16.34999999999999
 20
-0.8662851313087612
 30
0.0
 10
16.34999999999999
 20
-0.7752976818022453
 30
0.0
 10
16.34999999999999
 20
-0.5637606182648847
 30
0.0
 10
16.34999999999999
 20
-0.4433942456590722
 30
0.0
 10
16.34999999999999
 20
-0.3171112038926904
 30
0.0
  0
SPLINE
  5
D7
330
1F
100
AcDbEntity
  8
0
  6
Continuous
 62
     1
370
    25
100
AcDbSpline
210
0.0
220
0.0
230
1.0
 70
     8
 71
     3
 72
    27
 73
    23
 74
     0
 42
0.000000001
 43
0.00000001
 40
0.0
 40
0.0
 40
0.0
 40
0.0
 40
0.0298285162951398
 40
0.0823268177430734
 40
0.1353721406265821
 40
0.1876267090385299
 40
0.24071274711511
 40
0.293101367114837
 40
0.345948725361482
 40
0.3987752141933815
 40
0.4511819082301312
 40
0.5042621375648181
 40
0.5565142775211839
 40
0.6095689970360751
 40
0.6620444101284664
 40
0.7147950046807688
 40
0.767706469096296
 40
0.8200425529718758
 40
0.8731420485532173
 40
0.9254129090044358
 40
0.9784207053971351
 40
1.0
 40
1.0
 40
1.0
 40
1.0
 10
14.89394993412086
 20
-0.8903275954919251
 30
0.0
 10
14.85123016497708
 20
-0.902525328011665
 30
0.0
 10
14.73332344063562
 20
-0.936191115880403
 30
0.0
 10
14.54040346242389
 20
-0.9550060446036497
 30
0.0
 10
14.31311824864685
 20
-0.9483214252443277
 30
0.0
 10
14.08824302574969
 20
-0.9051705692317117
 30
0.0
 10
13.86088867958279
 20
-0.8313354123061697
 30
0.0
 10
13.63556647440981
 20
-0.7255769571772968
 30
0.0
 10
13.4088331371097
 20
-0.5949715900717636
 30
0.0
 10
13.18216032628277
 20
-0.443105003708462
 30
0.0
 10
12.95678006780444
 20
-0.2730655044486237
 30
0.0
 10
12.72944199259187
 20
-0.0970929448718159
 30
0.0
 10
12.50456661961809
 20
0.0872447245293209
 30
0.0
 10
12.27729027293791
 20
0.2638348134481807
 30
0.0
 10
12.05169296996216
 20
0.4343980679457849
 30
0.0
 10
11.82524465181823
 20
0.5878529215059384
 30
0.0
 10
11.59833034426373
 20
0.7197503729965138
 30
0.0
 10
11.37317875356325
 20
0.8274232040154714
 30
0.0
 10
11.14578348472311
 20
0.9037551370795773
 30
0.0
 10
10.92088528116042
 20
0.9472053051048996
 30
0.0
 10
10.73821368147269
 20
0.9602711835903691
 30
0.0
 10
10.63163716790629
 20
0.9469055421881063
 30
0.0
 10
10.60080279759773
 20
0.9430386382838796
 30
0.0
  0
SPLINE
  5
D8
330
1F
100
AcDbEntity
  8
0
  6
Continuous
 62
     1
370
    25
100
AcDbSpline
210
0.0
220
0.0
230
1.0
 70
    24
 71
     3
 72
     8
 73
     4
 74
     0
 42
0.000000001
 43
0.00000001
 40
0.0
 40
0.0
 40
0.0
 40
0.0
 40
1.0
 40
1.0
 40
1.0
 40
1.0
 10
15.72705984679349
 20
0.6679847778052721
 30
0.0
 10
15.68908587895714
 20
0.636120835399451
 30
0.0
 10
15.64660173282663
 20
0.6004724040507831
 30
0.0
 10
15.60072563809167
 20
0.5619777898788221
 30
0.0
  0
SPLINE
  5
D9
330
1F
100
AcDbEntity
  8
0
  6
Continuous
 62
     4
370
    25
100
AcDbSpline
210
0.0
220
0.0
230
1.0
 70
    24
 71
     3
 72
    10
 73
     6
 74
     0
 42
0.000000001
 43
0.00000001
 40
0.0
 40
0.0
 40
0.0
 40
0.0
 40
0.5
 40
0.5
 40
1.0
 40
1.0
 40
1.0
 40
1.0
 10
9.999999999999995
 20
0.4855643045296568
 30
0.0
 10
9.999999999999995
 20
0.2917541196973603
 30
0.0
 10
9.999999999999995
 20
0.063627008235372
 30
0.0
 10
9.999999999999995
 20
-0.3840785030727122
 30
0.0
 10
9.999999999999995
 20
-0.6001880420013723
 30
0.0
 10
9.999999999999995
 20
-0.7739542229701775
 30
0.0
  0
SPLINE
  5
DA
330
1F
100
AcDbEntity
  8
0
  6
Continuous
 62
     1
370
    25
100
AcDbSpline
210
0.0
220
0.0
230
1.0
 70
     8
 71
     3
 72
    14
 73
    10
 74
     0
 42
0.000000001
 43
0.00000001
 40
0.0
 40
0.0
 40
0.0
 40
0.0
 40
0.0002872691817773
 40
0.0002872691817773
 40
0.0002872691817773
 40
0.0005745456166201
 40
0.0005745456166201
 40
0.0005745456166201
 40
0.0008304213795525
 40
0.0008304213795525
 40
0.0008304213795525
 40
0.0008304213795525
 10
16.34999999999999
 20
0.834512428723894
 30
0.0
 10
16.27898766743861
 20
0.8105125556451854
 30
0.0
 10
16.20764774779689
 20
0.7881090496136062
 30
0.0
 10
16.13604695724073
 20
0.7673007891353382
 30
0.0
 10
16.06444530866191
 20
0.7464922793028526
 30
0.0
 10
15.99255887130802
 20
0.7272697399212207
 30
0.0
 10
15.92042209389048
 20
0.7098939509393991
 30
0.0
 10
15.85617030896703
 20
0.6944174423330726
 30
0.0
 10
15.79167931446115
 20
0.6805854227205093
 30
0.0
 10
15.72705984678577
 20
0.667984777803925
 30
0.0
  0
LINE
  5
DB
330
1F
100
AcDbEntity
  8
0
  6
Continuous
 62
     1
370
    25
100
AcDbLine
 10
16.34999999999999
 20
0.001074928723894
 30
0.0
 11
16.34999999999999
 21
0.834512428723894
 31
0.0
  0
LINE
  5
DC
330
1F
100
AcDbEntity
  8
중심선
100
AcDbLine
 10
-24.74999999999999
 20
0.0010749287238931
 30
0.0
 11
17.84999999999999
 21
0.0010749287238931
 31
0.0
  0
CIRCLE
  5
DD
330
1F
100
AcDbEntity
  8
외형선
100
AcDbCircle
 10
0.0000000000000069
 20
0.0
 30
0.0
 40
3.000000000000004
  0
INSERT
  5
DE
330
1F
100
AcDbEntity
  8
0
  6
Continuous
 62
     7
100
AcDbBlockReference
 66
     1
  2
블럭10
 10
-16.6381869743017
 20
-52.04609937292004
 30
0.0
  0
ATTRIB
  5
DF
330
DE
100
AcDbEntity
  8
FORMAT
 62
     2
100
AcDbText
 10
-25.81948226304298
 20
-49.97073246008785
 30
0.0
 40
4.233333333333333
  1
E5254006 [ 2 FLUTE ]
 41
0.75
  7
SLDTEXTSTYLE0
 11
-25.81948226304298
 21
-52.08739912675452
 31
0.0
100
AcDbAttribute
  2
AUTOATTR0
 70
     0
 74
     1
  0
SEQEND
  5
E0
330
DE
100
AcDbEntity
  8
0
  6
Continuous
 62
     7
  0
HATCH
  5
E1
330
1F
100
AcDbEntity
  8
중심선
100
AcDbHatch
 10
0.0
 20
0.0
 30
0.0
210
0.0
220
0.0
230
1.0
  2
SOLID
 70
     1
 71
     0
 91
        1
 92
        0
 93
        4
 72
     1
 10
-10.92327766992085
 20
-35.7989250712761
 11
-14.36955291375813
 21
-35.7989250712761
 72
     1
 10
-14.36955291375813
 20
-35.7989250712761
 11
-16.49778277296215
 21
-38.3352506518487
 72
     1
 10
-16.49778277296215
 20
-38.3352506518487
 11
-13.05147444401172
 21
-38.33521122254621
 72
     1
 10
-13.05147444401172
 20
-38.33521122254621
 11
-10.92327766992085
 21
-35.7989250712761
 97
        0
 75
     0
 76
     1
 98
        1
 10
0.0
 20
0.0
  0
HATCH
  5
E2
330
1F
100
AcDbEntity
  8
중심선
100
AcDbHatch
 10
0.0
 20
0.0
 30
0.0
210
0.0
220
0.0
230
1.0
  2
SOLID
 70
     1
 71
     0
 91
        1
 92
        0
 93
        4
 72
     1
 10
-5.910513678884898
 20
-35.7989250712761
 11
-9.356788922722181
 21
-35.7989250712761
 72
     1
 10
-9.356788922722181
 20
-35.7989250712761
 11
-13.88792693107957
 21
-41.19892507127612
 72
     1
 10
-13.88792693107957
 20
-41.19892507127612
 11
-10.44165168724229
 21
-41.19892507127612
 72
     1
 10
-10.44165168724229
 20
-41.19892507127612
 11
-5.910513678884898
 21
-35.7989250712761
 97
        0
 75
     0
 76
     1
 98
        1
 10
0.0
 20
0.0
  0
HATCH
  5
E3
330
1F
100
AcDbEntity
  8
중심선
100
AcDbHatch
 10
0.0
 20
0.0
 30
0.0
210
0.0
220
0.0
230
1.0
  2
SOLID
 70
     1
 71
     0
 91
        1
 92
        0
 93
        4
 72
     1
 10
-0.8977496878490032
 20
-35.79892507127613
 11
-4.344024931686119
 21
-35.7989250712761
 72
     1
 10
-4.344024931686119
 20
-35.7989250712761
 11
-11.39246183357537
 21
-44.19892507127612
 72
     1
 10
-11.39246183357537
 20
-44.19892507127612
 11
-7.946186589738086
 21
-44.19892507127612
 72
     1
 10
-7.946186589738086
 20
-44.19892507127612
 11
-0.8977496878490028
 21
-35.79892507127613
 97
        0
 75
     0
 76
     1
 98
        1
 10
0.0
 20
0.0
  0
HATCH
  5
E4
330
1F
100
AcDbEntity
  8
중심선
100
AcDbHatch
 10
0.0
 20
0.0
 30
0.0
210
0.0
220
0.0
230
1.0
  2
SOLID
 70
     1
 71
     0
 91
        1
 92
        0
 93
        6
 72
     3
 10
3.902140743163196
 20
-39.99892507132738
 11
3.960054785062284
 21
1.540850780301639E-10
 40
0.3939339440162633
 50
17.09539180608433
 51
320.0019657685079
 73
     0
 72
     1
 10
5.585140398863792
 20
-38.58681907591441
 11
7.89044227256483
 21
-36.65249236586649
 72
     3
 10
3.902140743110349
 20
-39.99892507127625
 11
6.600054785286829
 21
-1.249000902703301E-13
 40
0.6363583540795982
 50
39.99873849337408
 51
368.4976242363724
 73
     1
 72
     1
 10
10.32747323501096
 20
-39.03892507120613
 11
2.582208049946273
 21
-39.0389250712061
 72
     1
 10
2.582208049946272
 20
-39.0389250712061
 11
2.582183005500338
 21
-40.95892507120602
 72
     1
 10
2.582183005500338
 20
-40.95892507120602
 11
7.023562774972376
 21
-40.95892507120599
 97
        0
 75
     0
 76
     1
 98
        1
 10
0.0
 20
0.0
  0
DIMENSION
  5
E5
330
1F
100
AcDbEntity
  8
치수문자_일반주서
100
AcDbDimension
  2
_D
 10
-21.75000000000001
 20
36.78087709225263
 30
0.0
 11
-2.70000000000001
 21
36.78087709225263
 31
0.0
 70
   160
  1
<>
 71
     2
 42
38.1
  3
SLDDIMSTYLE0
100
AcDbAlignedDimension
 13
16.34999999999999
 23
1.190693630606688
 33
0.0
 14
-21.75000000000001
 24
1.158574928723889
 34
0.0
100
AcDbRotatedDimension
1001
ACAD
1000
DSTYLE
1002
{
1070
   171
1070
     6
1070
   273
1070
     7
1002
}
  0
DIMENSION
  5
F9
330
1F
100
AcDbEntity
  8
치수문자_일반주서
100
AcDbDimension
  2
_D_1
 10
-35.13000000000002
 20
-1.586425071276147
 30
0.0
 11
-35.13000000000002
 21
0.001074928723886
 31
0.0
 70
   160
  1
%%c<>
 71
     2
 42
3.174999999999983
  3
SLDDIMSTYLE1
100
AcDbAlignedDimension
 13
-21.32000000000002
 23
1.588574928723885
 33
0.0
 14
-21.32000000000002
 24
-1.586425071276099
 34
0.0
 50
90.0000000000002
100
AcDbRotatedDimension
1001
ACAD
1000
DSTYLE
1002
{
1070
   171
1070
     6
1070
   273
1070
     7
1002
}
  0
DIMENSION
  5
10E
330
1F
100
AcDbEntity
  8
치수문자_일반주서
100
AcDbDimension
  2
_D_2
 10
9.999999999999995
 20
21.42731114410719
 30
0.0
 11
13.17500000000001
 21
21.42731114410719
 31
0.0
 70
   160
  1
<>
 71
     2
 42
6.35
  3
SLDDIMSTYLE1
100
AcDbAlignedDimension
 13
16.34999999999999
 23
1.190693630606688
 33
0.0
 14
9.999999999999995
 24
0.9634707291613863
 34
0.0
 50
-0.0000000000000641
100
AcDbRotatedDimension
1001
ACAD
1000
DSTYLE
1002
{
1070
   171
1070
     6
1070
   273
1070
     7
1002
}
  0
DIMENSION
  5
123
330
1F
100
AcDbEntity
  8
치수문자_일반주서
100
AcDbDimension
  2
_D_3
 10
36.55935371504376
 20
-1.189550071276024
 30
0.0
 11
36.55935371504369
 21
22.23319992872398
 31
0.0
 70
   160
  1
%%c<>
 71
     2
 42
2.381250000000001
  3
SLDDIMSTYLE1
100
AcDbAlignedDimension
 13
12.65870064674405
 23
1.191699928723893
 33
0.0
 14
12.82556482765449
 24
-1.189550071276107
 34
0.0
 50
90.0000000000002
100
AcDbRotatedDimension
1001
ACAD
1000
DSTYLE
1002
{
1070
   171
1070
     6
1070
   273
1070
     7
1002
}
  0
INSERT
  5
13D
330
1F
100
AcDbEntity
  8
외형선
100
AcDbBlockReference
  2
SW_DOWELSYMBOL_0
 10
0.0000000000000069
 20
0.0
 30
0.0
  0
ARC
  5
187
330
1F
100
AcDbEntity
  8
0
  6
Continuous
 62
     4
370
    25
100
AcDbCircle
 10
8.999999999999998
 20
13.89169992872389
 30
0.0
 40
12.7
100
AcDbArc
 50
255.6384884370834
 51
270.0
1001
PE_URL
1000

  0
ARC
  5
189
330
1F
100
AcDbEntity
  8
0
  6
Continuous
 62
     4
370
    25
100
AcDbCircle
 10
9.000000000000016
 20
-13.88955007127611
 30
0.0
 40
12.7
100
AcDbArc
 50
90.00000000000009
 51
104.3615115629167
1001
PE_URL
1000

  0
ENDSEC
  0
SECTION
  2
OBJECTS
  0
DICTIONARY
  5
C
330
0
100
AcDbDictionary
281
     1
  3
ACAD_GROUP
350
D
  3
ACAD_IMAGE_VARS
350
161
  3
ACAD_LAYOUT
350
1A
  3
ACAD_MLINESTYLE
350
17
  3
ACAD_PLOTSETTINGS
350
19
  3
ACAD_PLOTSTYLENAME
350
E
  3
ACAD_SCALELIST
350
47
  3
APPDATA
350
15F
  3
DWGPROPS
350
18C
  0
DICTIONARY
  5
18A
330
1F
100
AcDbDictionary
280
     1
281
     1
  3
DIM_BOUNDING_BOXES_V1
360
18B
  0
DICTIONARY
  5
D
102
{ACAD_REACTORS
330
C
102
}
330
C
100
AcDbDictionary
281
     1
  0
RASTERVARIABLES
  5
161
102
{ACAD_REACTORS
330
C
102
}
330
C
100
AcDbRasterVariables
 90
        0
 70
     1
 71
     1
 72
     1
  0
DICTIONARY
  5
1A
102
{ACAD_REACTORS
330
C
102
}
330
C
100
AcDbDictionary
281
     1
  3
Layout1
350
1E
  3
Layout2
350
26
  3
Model
350
22
  0
DICTIONARY
  5
17
102
{ACAD_REACTORS
330
C
102
}
330
C
100
AcDbDictionary
281
     1
  3
Standard
350
18
  0
DICTIONARY
  5
19
102
{ACAD_REACTORS
330
C
102
}
330
C
100
AcDbDictionary
281
     1
  0
ACDBDICTIONARYWDFLT
  5
E
102
{ACAD_REACTORS
330
C
102
}
330
C
100
AcDbDictionary
281
     1
  3
Normal
350
F
100
AcDbDictionaryWithDefault
340
F
  0
DICTIONARY
  5
47
102
{ACAD_REACTORS
330
C
102
}
330
C
100
AcDbDictionary
281
     1
  3
A0
350
48
  3
A1
350
49
  3
A2
350
4A
  3
A3
350
4B
  3
A4
350
4C
  3
A5
350
4D
  3
A6
350
4E
  3
A7
350
4F
  3
A8
350
50
  3
A9
350
51
  3
B0
350
52
  3
B1
350
53
  3
B2
350
54
  3
B3
350
55
  3
B4
350
56
  3
B5
350
57
  3
B6
350
58
  3
B7
350
59
  3
B8
350
5A
  3
B9
350
5B
  3
C0
350
5C
  3
C1
350
5D
  3
C2
350
5E
  3
C3
350
5F
  3
C4
350
60
  3
C5
350
61
  3
C6
350
62
  3
C7
350
63
  3
C8
350
64
  3
C9
350
65
  3
D0
350
66
  3
D1
350
67
  3
D2
350
68
  0
DICTIONARY
  5
15F
102
{ACAD_REACTORS
330
C
102
}
330
C
100
AcDbDictionary
281
     1
  0
XRECORD
  5
18C
102
{ACAD_REACTORS
330
C
102
}
330
C
100
AcDbXrecord
280
     1
  1
DWGPROPS COOKIE
  2

  3

  4

  6

  7

  8
12014102
  9

300
=
301
=
302
=
303
=
304
=
305
=
306
=
307
=
308
=
309
=
 40
0.0
 41
2458263.24556691
 42
2459722.928772187
  1

 90
        0
  0
DICTIONARY
  5
18B
102
{ACAD_REACTORS
330
18A
102
}
330
18A
100
AcDbDictionary
281
     1
  0
LAYOUT
  5
1E
102
{ACAD_REACTORS
330
1A
102
}
330
1A
100
AcDbPlotSettings
  1

  2
none_device
  4

  6

 40
0.0
 41
0.0
 42
0.0
 43
0.0
 44
0.0
 45
0.0
 46
0.0
 47
0.0
 48
0.0
 49
0.0
140
0.0
141
0.0
142
1.0
143
1.0
 70
   688
 72
     1
 73
     0
 74
     5
  7

 75
    16
147
1.0
148
0.0
149
0.0
100
AcDbLayout
  1
Layout1
 70
     1
 71
     1
 10
0.0
 20
0.0
 11
420.0
 21
297.0
 12
0.0
 22
0.0
 32
0.0
 14
1.000000000000000E+20
 24
1.000000000000000E+20
 34
1.000000000000000E+20
 15
-1.000000000000000E+20
 25
-1.000000000000000E+20
 35
-1.000000000000000E+20
146
0.0
 13
0.0
 23
0.0
 33
0.0
 16
1.0
 26
0.0
 36
0.0
 17
0.0
 27
1.0
 37
0.0
 76
     0
330
1B
  0
LAYOUT
  5
26
102
{ACAD_REACTORS
330
1A
102
}
330
1A
100
AcDbPlotSettings
  1

  2
none_device
  4

  6

 40
0.0
 41
0.0
 42
0.0
 43
0.0
 44
0.0
 45
0.0
 46
0.0
 47
0.0
 48
0.0
 49
0.0
140
0.0
141
0.0
142
1.0
143
1.0
 70
   688
 72
     1
 73
     0
 74
     5
  7

 75
    16
147
1.0
148
0.0
149
0.0
100
AcDbLayout
  1
Layout2
 70
     1
 71
     2
 10
0.0
 20
0.0
 11
0.0
 21
0.0
 12
0.0
 22
0.0
 32
0.0
 14
0.0
 24
0.0
 34
0.0
 15
0.0
 25
0.0
 35
0.0
146
0.0
 13
0.0
 23
0.0
 33
0.0
 16
1.0
 26
0.0
 36
0.0
 17
0.0
 27
1.0
 37
0.0
 76
     0
330
23
  0
LAYOUT
  5
22
102
{ACAD_REACTORS
330
1A
102
}
330
1A
100
AcDbPlotSettings
  1

  2
none_device
  4
ANSI_A_(11.00_x_8.50_Inches)
  6

 40
6.35
 41
19.05
 42
6.35000508
 43
19.05000254
 44
279.4
 45
215.9
 46
142.4437857486275
 47
92.31518880691807
 48
0.0
 49
0.0
140
0.0
141
0.0
142
0.0856153434117322
143
1.0
 70
  1696
 72
     0
 73
     0
 74
     0
  7

 75
     0
147
0.0235690232323232
148
0.0
149
0.0
100
AcDbLayout
  1
Model
 70
     1
 71
     0
 10
0.0
 20
0.0
 11
420.0
 21
297.0
 12
0.0
 22
0.0
 32
0.0
 14
-39.50500000000007
 24
-49.97073246008785
 34
0.0
 15
37.10968704837709
 25
41.15587709225263
 35
0.0
146
0.0
 13
0.0
 23
0.0
 33
0.0
 16
1.0
 26
0.0
 36
0.0
 17
0.0
 27
1.0
 37
0.0
 76
     0
330
1F
331
29
  0
MLINESTYLE
  5
18
102
{ACAD_REACTORS
330
17
102
}
330
17
100
AcDbMlineStyle
  2
Standard
 70
     0
  3

 62
   256
 51
90.0
 52
90.0
 71
     2
 49
0.5
 62
   256
  6
BYLAYER
 49
-0.5
 62
   256
  6
BYLAYER
  0
ACDBPLACEHOLDER
  5
F
102
{ACAD_REACTORS
330
E
102
}
330
E
  0
SCALE
  5
48
102
{ACAD_REACTORS
330
47
102
}
330
47
100
AcDbScale
 70
     0
300
1:1
140
1.0
141
1.0
290
     1
  0
SCALE
  5
49
102
{ACAD_REACTORS
330
47
102
}
330
47
100
AcDbScale
 70
     0
300
1:2
140
1.0
141
2.0
290
     0
  0
SCALE
  5
4A
102
{ACAD_REACTORS
330
47
102
}
330
47
100
AcDbScale
 70
     0
300
1:4
140
1.0
141
4.0
290
     0
  0
SCALE
  5
4B
102
{ACAD_REACTORS
330
47
102
}
330
47
100
AcDbScale
 70
     0
300
1:5
140
1.0
141
5.0
290
     0
  0
SCALE
  5
4C
102
{ACAD_REACTORS
330
47
102
}
330
47
100
AcDbScale
 70
     0
300
1:8
140
1.0
141
8.0
290
     0
  0
SCALE
  5
4D
102
{ACAD_REACTORS
330
47
102
}
330
47
100
AcDbScale
 70
     0
300
1:10
140
1.0
141
10.0
290
     0
  0
SCALE
  5
4E
102
{ACAD_REACTORS
330
47
102
}
330
47
100
AcDbScale
 70
     0
300
1:16
140
1.0
141
16.0
290
     0
  0
SCALE
  5
4F
102
{ACAD_REACTORS
330
47
102
}
330
47
100
AcDbScale
 70
     0
300
1:20
140
1.0
141
20.0
290
     0
  0
SCALE
  5
50
102
{ACAD_REACTORS
330
47
102
}
330
47
100
AcDbScale
 70
     0
300
1:30
140
1.0
141
30.0
290
     0
  0
SCALE
  5
51
102
{ACAD_REACTORS
330
47
102
}
330
47
100
AcDbScale
 70
     0
300
1:40
140
1.0
141
40.0
290
     0
  0
SCALE
  5
52
102
{ACAD_REACTORS
330
47
102
}
330
47
100
AcDbScale
 70
     0
300
1:50
140
1.0
141
50.0
290
     0
  0
SCALE
  5
53
102
{ACAD_REACTORS
330
47
102
}
330
47
100
AcDbScale
 70
     0
300
1:100
140
1.0
141
100.0
290
     0
  0
SCALE
  5
54
102
{ACAD_REACTORS
330
47
102
}
330
47
100
AcDbScale
 70
     0
300
2:1
140
2.0
141
1.0
290
     0
  0
SCALE
  5
55
102
{ACAD_REACTORS
330
47
102
}
330
47
100
AcDbScale
 70
     0
300
4:1
140
4.0
141
1.0
290
     0
  0
SCALE
  5
56
102
{ACAD_REACTORS
330
47
102
}
330
47
100
AcDbScale
 70
     0
300
8:1
140
8.0
141
1.0
290
     0
  0
SCALE
  5
57
102
{ACAD_REACTORS
330
47
102
}
330
47
100
AcDbScale
 70
     0
300
10:1
140
10.0
141
1.0
290
     0
  0
SCALE
  5
58
102
{ACAD_REACTORS
330
47
102
}
330
47
100
AcDbScale
 70
     0
300
100:1
140
100.0
141
1.0
290
     0
  0
SCALE
  5
59
102
{ACAD_REACTORS
330
47
102
}
330
47
100
AcDbScale
 70
     0
300
1/128" = 1'-0"
140
0.0078125
141
12.0
290
     0
  0
SCALE
  5
5A
102
{ACAD_REACTORS
330
47
102
}
330
47
100
AcDbScale
 70
     0
300
1/64" = 1'-0"
140
0.015625
141
12.0
290
     0
  0
SCALE
  5
5B
102
{ACAD_REACTORS
330
47
102
}
330
47
100
AcDbScale
 70
     0
300
1/32" = 1'-0"
140
0.03125
141
12.0
290
     0
  0
SCALE
  5
5C
102
{ACAD_REACTORS
330
47
102
}
330
47
100
AcDbScale
 70
     0
300
1/16" = 1'-0"
140
0.0625
141
12.0
290
     0
  0
SCALE
  5
5D
102
{ACAD_REACTORS
330
47
102
}
330
47
100
AcDbScale
 70
     0
300
3/32" = 1'-0"
140
0.09375
141
12.0
290
     0
  0
SCALE
  5
5E
102
{ACAD_REACTORS
330
47
102
}
330
47
100
AcDbScale
 70
     0
300
1/8" = 1'-0"
140
0.125
141
12.0
290
     0
  0
SCALE
  5
5F
102
{ACAD_REACTORS
330
47
102
}
330
47
100
AcDbScale
 70
     0
300
3/16" = 1'-0"
140
0.1875
141
12.0
290
     0
  0
SCALE
  5
60
102
{ACAD_REACTORS
330
47
102
}
330
47
100
AcDbScale
 70
     0
300
1/4" = 1'-0"
140
0.25
141
12.0
290
     0
  0
SCALE
  5
61
102
{ACAD_REACTORS
330
47
102
}
330
47
100
AcDbScale
 70
     0
300
3/8" = 1'-0"
140
0.375
141
12.0
290
     0
  0
SCALE
  5
62
102
{ACAD_REACTORS
330
47
102
}
330
47
100
AcDbScale
 70
     0
300
1/2" = 1'-0"
140
0.5
141
12.0
290
     0
  0
SCALE
  5
63
102
{ACAD_REACTORS
330
47
102
}
330
47
100
AcDbScale
 70
     0
300
3/4" = 1'-0"
140
0.75
141
12.0
290
     0
  0
SCALE
  5
64
102
{ACAD_REACTORS
330
47
102
}
330
47
100
AcDbScale
 70
     0
300
1" = 1'-0"
140
1.0
141
12.0
290
     0
  0
SCALE
  5
65
102
{ACAD_REACTORS
330
47
102
}
330
47
100
AcDbScale
 70
     0
300
1-1/2" = 1'-0"
140
1.5
141
12.0
290
     0
  0
SCALE
  5
66
102
{ACAD_REACTORS
330
47
102
}
330
47
100
AcDbScale
 70
     0
300
3" = 1'-0"
140
3.0
141
12.0
290
     0
  0
SCALE
  5
67
102
{ACAD_REACTORS
330
47
102
}
330
47
100
AcDbScale
 70
     0
300
6" = 1'-0"
140
6.0
141
12.0
290
     0
  0
SCALE
  5
68
102
{ACAD_REACTORS
330
47
102
}
330
47
100
AcDbScale
 70
     0
300
1'-0" = 1'-0"
140
12.0
141
12.0
290
     0
  0
ENDSEC
  0
EOF
