  0
SECTION
  2
HEADER
  9
$ACADVER
  1
AC1015
  9
$ACADMAINTVER
 70
     6
  9
$DWGCODEPAGE
  3
ANSI_949
  9
$INSBASE
 10
0.0
 20
0.0
 30
0.0
  9
$EXTMIN
 10
-43.88750000000004
 20
-49.97073246008785
 30
0.0
  9
$EXTMAX
 10
38.6971870483771
 20
41.55241665954688
 30
0.0
  9
$LIMMIN
 10
0.0
 20
0.0
  9
$LIMMAX
 10
420.0
 20
297.0
  9
$ORTHOMODE
 70
     0
  9
$REGENMODE
 70
     1
  9
$FILLMODE
 70
     1
  9
$QTEXTMODE
 70
     0
  9
$MIRRTEXT
 70
     1
  9
$LTSCALE
 40
1.0
  9
$ATTMODE
 70
     1
  9
$TEXTSIZE
 40
3.5
  9
$TRACEWID
 40
1.0
  9
$TEXTSTYLE
  7
Standard
  9
$CLAYER
  8
0
  9
$CELTYPE
  6
ByLayer
  9
$CECOLOR
 62
   256
  9
$CELTSCALE
 40
1.0
  9
$DISPSILH
 70
     0
  9
$DIMSCALE
 40
1.0
  9
$DIMASZ
 40
3.302
  9
$DIMEXO
 40
1.0
  9
$DIMDLI
 40
3.75
  9
$DIMRND
 40
0.0
  9
$DIMDLE
 40
0.0
  9
$DIMEXE
 40
1.0
  9
$DIMTP
 40
0.0
  9
$DIMTM
 40
0.0
  9
$DIMTXT
 40
3.5
  9
$DIMCEN
 40
2.5
  9
$DIMTSZ
 40
0.0
  9
$DIMTOL
 70
     0
  9
$DIMLIM
 70
     0
  9
$DIMTIH
 70
     1
  9
$DIMTOH
 70
     1
  9
$DIMSE1
 70
     0
  9
$DIMSE2
 70
     0
  9
$DIMTAD
 70
     1
  9
$DIMZIN
 70
     0
  9
$DIMBLK
  1

  9
$DIMASO
 70
     1
  9
$DIMSHO
 70
     1
  9
$DIMPOST
  1

  9
$DIMAPOST
  1

  9
$DIMALT
 70
     0
  9
$DIMALTD
 70
     3
  9
$DIMALTF
 40
0.0393700787401575
  9
$DIMLFAC
 40
1.0
  9
$DIMTOFL
 70
     1
  9
$DIMTVP
 40
0.0
  9
$DIMTIX
 70
     0
  9
$DIMSOXD
 70
     0
  9
$DIMSAH
 70
     0
  9
$DIMBLK1
  1

  9
$DIMBLK2
  1

  9
$DIMSTYLE
  2
ISO-25
  9
$DIMCLRD
 70
     0
  9
$DIMCLRE
 70
     0
  9
$DIMCLRT
 70
     0
  9
$DIMTFAC
 40
1.0
  9
$DIMGAP
 40
1.524
  9
$DIMJUST
 70
     0
  9
$DIMSD1
 70
     0
  9
$DIMSD2
 70
     0
  9
$DIMTOLJ
 70
     0
  9
$DIMTZIN
 70
     0
  9
$DIMALTZ
 70
     0
  9
$DIMALTTZ
 70
     0
  9
$DIMUPT
 70
     0
  9
$DIMDEC
 70
     2
  9
$DIMTDEC
 70
     2
  9
$DIMALTU
 70
     2
  9
$DIMALTTD
 70
     3
  9
$DIMTXSTY
  7
Standard
  9
$DIMAUNIT
 70
     0
  9
$DIMADEC
 70
     2
  9
$DIMALTRND
 40
0.0
  9
$DIMAZIN
 70
     0
  9
$DIMDSEP
 70
    44
  9
$DIMATFIT
 70
     3
  9
$DIMFRAC
 70
     0
  9
$DIMLDRBLK
  1

  9
$DIMLUNIT
 70
     2
  9
$DIMLWD
 70
    -2
  9
$DIMLWE
 70
    -2
  9
$DIMTMOVE
 70
     0
  9
$LUNITS
 70
     2
  9
$LUPREC
 70
     2
  9
$SKETCHINC
 40
1.0
  9
$FILLETRAD
 40
10.0
  9
$AUNITS
 70
     0
  9
$AUPREC
 70
     2
  9
$MENU
  1
.
  9
$ELEVATION
 40
0.0
  9
$PELEVATION
 40
0.0
  9
$THICKNESS
 40
0.0
  9
$LIMCHECK
 70
     0
  9
$CHAMFERA
 40
0.0
  9
$CHAMFERB
 40
0.0
  9
$CHAMFERC
 40
0.0
  9
$CHAMFERD
 40
0.0
  9
$SKPOLY
 70
     0
  9
$TDCREATE
 40
2458263.620755243
  9
$TDUCREATE
 40
2458263.245755243
  9
$TDUPDATE
 40
2460027.453771493
  9
$TDUUPDATE
 40
2460027.078771493
  9
$TDINDWG
 40
0.0029996296
  9
$TDUSRTIMER
 40
0.0018378356
  9
$USRTIMER
 70
     1
  9
$ANGBASE
 50
0.0
  9
$ANGDIR
 70
     0
  9
$PDMODE
 70
     0
  9
$PDSIZE
 40
-1.0
  9
$PLINEWID
 40
0.0
  9
$SPLFRAME
 70
     0
  9
$SPLINETYPE
 70
     6
  9
$SPLINESEGS
 70
     8
  9
$HANDSEED
  5
4A8
  9
$SURFTAB1
 70
     6
  9
$SURFTAB2
 70
     6
  9
$SURFTYPE
 70
     6
  9
$SURFU
 70
     6
  9
$SURFV
 70
     6
  9
$UCSBASE
  2

  9
$UCSNAME
  2

  9
$UCSORG
 10
0.0
 20
0.0
 30
0.0
  9
$UCSXDIR
 10
1.0
 20
0.0
 30
0.0
  9
$UCSYDIR
 10
0.0
 20
1.0
 30
0.0
  9
$UCSORTHOREF
  2

  9
$UCSORTHOVIEW
 70
     0
  9
$UCSORGTOP
 10
0.0
 20
0.0
 30
0.0
  9
$UCSORGBOTTOM
 10
0.0
 20
0.0
 30
0.0
  9
$UCSORGLEFT
 10
0.0
 20
0.0
 30
0.0
  9
$UCSORGRIGHT
 10
0.0
 20
0.0
 30
0.0
  9
$UCSORGFRONT
 10
0.0
 20
0.0
 30
0.0
  9
$UCSORGBACK
 10
0.0
 20
0.0
 30
0.0
  9
$PUCSBASE
  2

  9
$PUCSNAME
  2

  9
$PUCSORG
 10
0.0
 20
0.0
 30
0.0
  9
$PUCSXDIR
 10
1.0
 20
0.0
 30
0.0
  9
$PUCSYDIR
 10
0.0
 20
1.0
 30
0.0
  9
$PUCSORTHOREF
  2

  9
$PUCSORTHOVIEW
 70
     0
  9
$PUCSORGTOP
 10
0.0
 20
0.0
 30
0.0
  9
$PUCSORGBOTTOM
 10
0.0
 20
0.0
 30
0.0
  9
$PUCSORGLEFT
 10
0.0
 20
0.0
 30
0.0
  9
$PUCSORGRIGHT
 10
0.0
 20
0.0
 30
0.0
  9
$PUCSORGFRONT
 10
0.0
 20
0.0
 30
0.0
  9
$PUCSORGBACK
 10
0.0
 20
0.0
 30
0.0
  9
$USERI1
 70
     0
  9
$USERI2
 70
     0
  9
$USERI3
 70
     0
  9
$USERI4
 70
     0
  9
$USERI5
 70
     0
  9
$USERR1
 40
0.0
  9
$USERR2
 40
0.0
  9
$USERR3
 40
0.0
  9
$USERR4
 40
0.0
  9
$USERR5
 40
0.0
  9
$WORLDVIEW
 70
     1
  9
$SHADEDGE
 70
     3
  9
$SHADEDIF
 70
    70
  9
$TILEMODE
 70
     1
  9
$MAXACTVP
 70
    64
  9
$PINSBASE
 10
0.0
 20
0.0
 30
0.0
  9
$PLIMCHECK
 70
     0
  9
$PEXTMIN
 10
1.000000000000000E+20
 20
1.000000000000000E+20
 30
1.000000000000000E+20
  9
$PEXTMAX
 10
-1.000000000000000E+20
 20
-1.000000000000000E+20
 30
-1.000000000000000E+20
  9
$PLIMMIN
 10
0.0
 20
0.0
  9
$PLIMMAX
 10
0.0
 20
0.0
  9
$UNITMODE
 70
     0
  9
$VISRETAIN
 70
     1
  9
$PLINEGEN
 70
     0
  9
$PSLTSCALE
 70
     1
  9
$TREEDEPTH
 70
  3020
  9
$CMLSTYLE
  2
Standard
  9
$CMLJUST
 70
     0
  9
$CMLSCALE
 40
20.0
  9
$PROXYGRAPHICS
 70
     1
  9
$MEASUREMENT
 70
     1
  9
$CELWEIGHT
370
    -1
  9
$ENDCAPS
280
     0
  9
$JOINSTYLE
280
     0
  9
$LWDISPLAY
290
     1
  9
$INSUNITS
 70
     4
  9
$HYPERLINKBASE
  1

  9
$STYLESHEET
  1

  9
$XEDIT
290
     1
  9
$CEPSNTYPE
380
     0
  9
$PSTYLEMODE
290
     1
  9
$FINGERPRINTGUID
  2
{DE065DEC-BE45-4224-85E5-AD957F1334BA}
  9
$VERSIONGUID
  2
{FAEB1C32-E019-11D5-929B-00C0DF256EC4}
  9
$EXTNAMES
290
     1
  9
$PSVPSCALE
 40
0.0
  9
$OLESTARTUP
290
     0
  0
ENDSEC
  0
SECTION
  2
CLASSES
  0
CLASS
  1
ACDBDICTIONARYWDFLT
  2
AcDbDictionaryWithDefault
  3
ObjectDBX Classes
 90
        0
280
     0
281
     0
  0
CLASS
  1
VISUALSTYLE
  2
AcDbVisualStyle
  3
ObjectDBX Classes
 90
     4095
280
     0
281
     0
  0
CLASS
  1
MATERIAL
  2
AcDbMaterial
  3
ObjectDBX Classes
 90
     1153
280
     0
281
     0
  0
CLASS
  1
SCALE
  2
AcDbScale
  3
ObjectDBX Classes
 90
     1153
280
     0
281
     0
  0
CLASS
  1
TABLESTYLE
  2
AcDbTableStyle
  3
ObjectDBX Classes
 90
     4095
280
     0
281
     0
  0
CLASS
  1
MLEADERSTYLE
  2
AcDbMLeaderStyle
  3
ACDB_MLEADERSTYLE_CLASS
 90
     4095
280
     0
281
     0
  0
CLASS
  1
SUN
  2
AcDbSun
  3
SCENEOE
 90
     1153
280
     0
281
     0
  0
CLASS
  1
ACDBPLACEHOLDER
  2
AcDbPlaceHolder
  3
ObjectDBX Classes
 90
        0
280
     0
281
     0
  0
CLASS
  1
LAYOUT
  2
AcDbLayout
  3
ObjectDBX Classes
 90
        0
280
     0
281
     0
  0
CLASS
  1
RASTERVARIABLES
  2
AcDbRasterVariables
  3
ISM
 90
        0
280
     0
281
     0
  0
CLASS
  1
SORTENTSTABLE
  2
AcDbSortentsTable
  3
ObjectDBX Classes
 90
        0
280
     0
281
     0
  0
CLASS
  1
DICTIONARYVAR
  2
AcDbDictionaryVar
  3
ObjectDBX Classes
 90
        0
280
     0
281
     0
  0
CLASS
  1
BREAKDATA
  2
AcDbBreakData
  3
ObjectDBX Classes
 90
     1024
280
     0
281
     0
  0
CLASS
  1
DIMASSOC
  2
AcDbDimAssoc
  3
"AcDbDimAssoc|Product Desc:     AcDim ARX App For Dimension|Company:          Autodesk, Inc.|WEB Address:      www.autodesk.com"
 90
        0
280
     0
281
     0
  0
ENDSEC
  0
SECTION
  2
TABLES
  0
TABLE
  2
VPORT
  5
8
330
0
100
AcDbSymbolTable
 70
     1
  0
VPORT
  5
29
330
8
100
AcDbSymbolTableRecord
100
AcDbViewportTableRecord
  2
*Active
 70
     0
 10
0.0
 20
0.0
 11
1.0
 21
1.0
 12
-164.9538058309611
 22
41.04821132362811
 13
0.0
 23
0.0
 14
10.0
 24
10.0
 15
10.0
 25
10.0
 16
0.0
 26
0.0
 36
1.0
 17
0.0
 27
0.0
 37
0.0
 40
231.5069612717608
 41
1.507042253521127
 42
50.0
 43
0.0
 44
0.0
 50
0.0
 51
0.0
 71
    16
 72
  2000
 73
     1
 74
     3
 75
     0
 76
     0
 77
     0
 78
     0
281
     0
 65
     1
110
0.0
120
0.0
130
0.0
111
1.0
121
0.0
131
0.0
112
0.0
122
1.0
132
0.0
 79
     0
146
0.0
  0
ENDTAB
  0
TABLE
  2
LTYPE
  5
5
330
0
100
AcDbSymbolTable
 70
     6
  0
LTYPE
  5
14
330
5
100
AcDbSymbolTableRecord
100
AcDbLinetypeTableRecord
  2
ByBlock
 70
     0
  3

 72
    65
 73
     0
 40
0.0
  0
LTYPE
  5
15
330
5
100
AcDbSymbolTableRecord
100
AcDbLinetypeTableRecord
  2
ByLayer
 70
     0
  3

 72
    65
 73
     0
 40
0.0
  0
LTYPE
  5
16
330
5
100
AcDbSymbolTableRecord
100
AcDbLinetypeTableRecord
  2
Continuous
 70
     0
  3
Solid line
 72
    65
 73
     0
 40
0.0
  0
LTYPE
  5
6E
330
5
100
AcDbSymbolTableRecord
100
AcDbLinetypeTableRecord
  2
HIDDEN
 70
     0
  3
Hidden __ __ __ __ __ __ __ __ __ __ __ __ __ __
 72
    65
 73
     2
 40
1.905
 49
1.27
 74
     0
 49
-0.635
 74
     0
  0
LTYPE
  5
6F
330
5
100
AcDbSymbolTableRecord
100
AcDbLinetypeTableRecord
  2
PHANTOM
 70
     0
  3
Phantom ______  __  __  ______  __  __  ______
 72
    65
 73
     6
 40
12.7
 49
6.35
 74
     0
 49
-1.27
 74
     0
 49
1.27
 74
     0
 49
-1.27
 74
     0
 49
1.27
 74
     0
 49
-1.27
 74
     0
  0
LTYPE
  5
70
330
5
100
AcDbSymbolTableRecord
100
AcDbLinetypeTableRecord
  2
CENTER
 70
     0
  3
Center ____ _ ____ _ ____ _ ____ _ ____ _ ____
 72
    65
 73
     4
 40
10.16
 49
6.35
 74
     0
 49
-1.27
 74
     0
 49
1.27
 74
     0
 49
-1.27
 74
     0
  0
LTYPE
  5
71
330
5
100
AcDbSymbolTableRecord
100
AcDbLinetypeTableRecord
  2
CENTERX2
 70
     0
  3
Center (2x) ________  __  ________  __  _____
 72
    65
 73
     4
 40
20.32
 49
12.7
 74
     0
 49
-2.54
 74
     0
 49
2.54
 74
     0
 49
-2.54
 74
     0
  0
LTYPE
  5
72
330
5
100
AcDbSymbolTableRecord
100
AcDbLinetypeTableRecord
  2
DOT2
 70
     0
  3
Dot (.5x) ........................................
 72
    65
 73
     2
 40
0.635
 49
0.0
 74
     0
 49
-0.635
 74
     0
  0
ENDTAB
  0
TABLE
  2
LAYER
  5
2
330
0
100
AcDbSymbolTable
 70
    17
  0
LAYER
  5
10
330
2
100
AcDbSymbolTableRecord
100
AcDbLayerTableRecord
  2
0
 70
     0
 62
     7
  6
Continuous
370
    -3
390
F
  0
LAYER
  5
73
330
2
100
AcDbSymbolTableRecord
100
AcDbLayerTableRecord
  2
FORMAT
 70
     0
 62
     2
  6
Continuous
370
    -3
390
F
  0
LAYER
  5
74
330
2
100
AcDbSymbolTableRecord
100
AcDbLayerTableRecord
  2
외형선
 70
     0
 62
   100
  6
Continuous
370
    35
390
F
  0
LAYER
  5
75
330
2
100
AcDbSymbolTableRecord
100
AcDbLayerTableRecord
  2
숨은선
 70
     0
 62
     2
  6
HIDDEN
370
    25
390
F
  0
LAYER
  5
76
330
2
100
AcDbSymbolTableRecord
100
AcDbLayerTableRecord
  2
중심선
 70
     0
 62
     1
  6
CENTERX2
370
    -3
390
F
  0
LAYER
  5
77
330
2
100
AcDbSymbolTableRecord
100
AcDbLayerTableRecord
  2
파단선
 70
     0
 62
     4
  6
Continuous
370
    -3
390
F
  0
LAYER
  5
78
330
2
100
AcDbSymbolTableRecord
100
AcDbLayerTableRecord
  2
해칭선
 70
     0
 62
     4
  6
Continuous
370
    -3
390
F
  0
LAYER
  5
79
330
2
100
AcDbSymbolTableRecord
100
AcDbLayerTableRecord
  2
가는실선
 70
     0
 62
     4
  6
Continuous
370
    -3
390
F
  0
LAYER
  5
7A
330
2
100
AcDbSymbolTableRecord
100
AcDbLayerTableRecord
  2
치수_보조선
 70
     0
 62
     4
  6
Continuous
370
    -3
390
F
  0
LAYER
  5
7B
330
2
100
AcDbSymbolTableRecord
100
AcDbLayerTableRecord
  2
치수문자_일반주서
 70
     0
 62
     7
  6
Continuous
370
    25
390
F
  0
LAYER
  5
7C
330
2
100
AcDbSymbolTableRecord
100
AcDbLayerTableRecord
  2
개별주서
 70
     0
 62
   100
  6
Continuous
370
    35
390
F
  0
LAYER
  5
7D
330
2
100
AcDbSymbolTableRecord
100
AcDbLayerTableRecord
  2
중간선
 70
     0
 62
     2
  6
Continuous
370
    25
390
F
  0
LAYER
  5
7E
330
2
100
AcDbSymbolTableRecord
100
AcDbLayerTableRecord
  2
윤곽선
 70
     0
 62
     3
  6
Continuous
370
    50
390
F
  0
LAYER
  5
7F
330
2
100
AcDbSymbolTableRecord
100
AcDbLayerTableRecord
  2
중심마크
 70
     0
 62
   100
  6
Continuous
370
    35
390
F
  0
LAYER
  5
80
330
2
100
AcDbSymbolTableRecord
100
AcDbLayerTableRecord
  2
가상선
 70
     0
 62
     4
  6
PHANTOM
370
    -3
390
F
  0
LAYER
  5
81
330
2
100
AcDbSymbolTableRecord
100
AcDbLayerTableRecord
  2
특수지정선
 70
     0
 62
     5
  6
CENTERX2
370
    70
390
F
  0
LAYER
  5
161
330
2
100
AcDbSymbolTableRecord
100
AcDbLayerTableRecord
  2
Defpoints
 70
     0
 62
     7
  6
Continuous
290
     0
370
    -3
390
F
  0
ENDTAB
  0
TABLE
  2
STYLE
  5
3
330
0
100
AcDbSymbolTable
 70
     2
  0
STYLE
  5
11
330
3
100
AcDbSymbolTableRecord
100
AcDbTextStyleTableRecord
  2
Standard
 70
     0
 40
0.0
 41
1.0
 50
0.0
 71
     0
 42
3.5
  3
txt
  4

  0
STYLE
  5
97
330
3
100
AcDbSymbolTableRecord
100
AcDbTextStyleTableRecord
  2
SLDTEXTSTYLE0
 70
     0
 40
0.0
 41
0.75
 50
0.0
 71
     0
 42
3.5
  3
TXT
  4

  0
ENDTAB
  0
TABLE
  2
VIEW
  5
6
330
0
100
AcDbSymbolTable
 70
     0
  0
ENDTAB
  0
TABLE
  2
UCS
  5
7
330
0
100
AcDbSymbolTable
 70
     0
  0
ENDTAB
  0
TABLE
  2
APPID
  5
9
330
0
100
AcDbSymbolTable
 70
     2
  0
APPID
  5
12
330
9
100
AcDbSymbolTableRecord
100
AcDbRegAppTableRecord
  2
ACAD
 70
     0
  0
APPID
  5
186
330
9
100
AcDbSymbolTableRecord
100
AcDbRegAppTableRecord
  2
PE_URL
 70
     0
  0
ENDTAB
  0
TABLE
  2
DIMSTYLE
  5
A
330
0
100
AcDbSymbolTable
 70
     3
100
AcDbDimStyleTable
  0
DIMSTYLE
105
27
330
A
100
AcDbSymbolTableRecord
100
AcDbDimStyleTableRecord
  2
ISO-25
 70
     0
 41
2.5
 42
0.625
 43
3.75
 44
1.25
 73
     0
 74
     0
 77
     1
 78
     8
140
2.5
141
2.5
143
0.03937007874016
147
0.625
171
     3
172
     1
178
     0
271
     2
272
     2
274
     3
278
    44
283
     0
284
     8
340
11
  0
DIMSTYLE
105
E5
102
{ACAD_REACTORS
330
E4
102
}
330
A
100
AcDbSymbolTableRecord
100
AcDbDimStyleTableRecord
  2
SLDDIMSTYLE0
 70
     0
 41
3.302
 44
0.0
 45
0.000000001
 73
     0
 74
     0
 77
     1
 78
    12
 79
     3
140
3.5
143
0.0393700787401575
147
0.875
148
0.000000001
170
     1
173
     1
178
     0
271
     2
272
     2
276
     2
284
    12
340
97
  0
DIMSTYLE
105
F9
102
{ACAD_REACTORS
330
F8
330
10D
330
122
102
}
330
A
100
AcDbSymbolTableRecord
100
AcDbDimStyleTableRecord
  2
SLDDIMSTYLE1
 70
     0
 41
3.302
 44
0.0
 45
0.000000001
 73
     0
 74
     0
 77
     1
 78
    12
 79
     3
140
3.5
143
0.0393700787401575
147
0.875
148
0.000000001
170
     1
172
     1
173
     1
178
     0
271
     2
272
     2
276
     2
284
    12
289
     0
340
97
  0
ENDTAB
  0
TABLE
  2
BLOCK_RECORD
  5
1
330
0
100
AcDbSymbolTable
 70
     7
  0
BLOCK_RECORD
  5
1F
102
{ACAD_XDICTIONARY
360
188
102
}
330
1
100
AcDbSymbolTableRecord
100
AcDbBlockTableRecord
  2
*Model_Space
340
22
  0
BLOCK_RECORD
  5
1B
330
1
100
AcDbSymbolTableRecord
100
AcDbBlockTableRecord
  2
*Paper_Space
340
1E
  0
BLOCK_RECORD
  5
23
330
1
100
AcDbSymbolTableRecord
100
AcDbBlockTableRecord
  2
*Paper_Space0
340
26
  0
BLOCK_RECORD
  5
82
330
1
100
AcDbSymbolTableRecord
100
AcDbBlockTableRecord
  2
블럭10
340
0
102
{BLKREFS
331
DD
331
DD
102
}
  0
BLOCK_RECORD
  5
E6
330
1
100
AcDbSymbolTableRecord
100
AcDbBlockTableRecord
  2
_D
340
0
  0
BLOCK_RECORD
  5
FA
330
1
100
AcDbSymbolTableRecord
100
AcDbBlockTableRecord
  2
_D_1
340
0
  0
BLOCK_RECORD
  5
10E
330
1
100
AcDbSymbolTableRecord
100
AcDbBlockTableRecord
  2
_D_2
340
0
  0
BLOCK_RECORD
  5
123
330
1
100
AcDbSymbolTableRecord
100
AcDbBlockTableRecord
  2
_D_3
340
0
  0
BLOCK_RECORD
  5
136
330
1
100
AcDbSymbolTableRecord
100
AcDbBlockTableRecord
  2
SW_DOWELSYMBOL_0
340
0
102
{BLKREFS
331
13C
331
0
331
0
102
}
  0
ENDTAB
  0
ENDSEC
  0
SECTION
  2
BLOCKS
  0
BLOCK
  5
20
330
1F
100
AcDbEntity
  8
0
100
AcDbBlockBegin
  2
*Model_Space
 70
     0
 10
0.0
 20
0.0
 30
0.0
  3
*Model_Space
  1
*Model_Space
  0
ENDBLK
  5
21
330
1F
100
AcDbEntity
  8
0
100
AcDbBlockEnd
  0
BLOCK
  5
1C
330
1B
100
AcDbEntity
 67
     1
  8
0
100
AcDbBlockBegin
  2
*Paper_Space
 70
     0
 10
0.0
 20
0.0
 30
0.0
  3
*Paper_Space
  1
*Paper_Space
  0
ENDBLK
  5
1D
330
1B
100
AcDbEntity
 67
     1
  8
0
100
AcDbBlockEnd
  0
BLOCK
  5
24
330
23
100
AcDbEntity
  8
0
100
AcDbBlockBegin
  2
*Paper_Space0
 70
     0
 10
0.0
 20
0.0
 30
0.0
  3
*Paper_Space0
  1
*Paper_Space0
  0
ENDBLK
  5
25
330
23
100
AcDbEntity
  8
0
100
AcDbBlockEnd
  0
BLOCK
  5
83
330
82
100
AcDbEntity
  8
0
100
AcDbBlockBegin
  2
블럭10
 70
     2
 10
0.0
 20
0.0
 30
0.0
  3
블럭10
  1
블럭10
  0
ELLIPSE
  5
85
330
82
100
AcDbEntity
  8
중심선
100
AcDbEllipse
 10
20.54032771741204
 20
12.0471743016438
 30
0.0
 11
6.600054785286829
 21
-1.261213355974178E-13
 31
0.0
210
0.0
220
0.0
230
1.0
 40
0.636358354079598
 41
0.9219305317359503
 42
6.513795318482858
  0
ELLIPSE
  5
86
330
82
100
AcDbEntity
  8
중심선
100
AcDbEllipse
 10
20.54032771746488
 20
12.04717430159265
 30
0.0
 11
3.960054785062283
 21
1.540847449632565E-10
 31
0.0
210
0.0
220
0.0
230
1.0
 40
0.3939339440162632
 41
1.131841032648279
 42
5.62031148352944
  0
LINE
  5
87
330
82
100
AcDbEntity
  8
중심선
100
AcDbLine
 10
2.268634060543552
 20
16.24717430164393
 30
0.0
 11
5.714909304380834
 21
16.24717430164393
 31
0.0
  0
LINE
  5
88
330
82
100
AcDbEntity
  8
중심선
100
AcDbLine
 10
5.245725140726316
 20
7.84717430164391
 30
0.0
 11
8.692000384563599
 21
7.84717430164391
 31
0.0
  0
LINE
  5
89
330
82
100
AcDbEntity
  8
중심선
100
AcDbLine
 10
15.74043728645272
 20
16.24717430164393
 30
0.0
 11
8.692000384563599
 21
7.84717430164391
 31
0.0
  0
LINE
  5
8A
330
82
100
AcDbEntity
  8
중심선
100
AcDbLine
 10
0.1404042013395286
 20
13.71084872107135
 30
0.0
 11
3.58671253028996
 21
13.71088815037384
 31
0.0
  0
LINE
  5
8B
330
82
100
AcDbEntity
  8
중심선
100
AcDbLine
 10
2.750260043222114
 20
10.84717430164391
 30
0.0
 11
6.196535287059397
 21
10.84717430164391
 31
0.0
  0
LINE
  5
8C
330
82
100
AcDbEntity
  8
중심선
100
AcDbLine
 10
12.29416204261559
 20
16.24717430164393
 30
0.0
 11
5.245725140726316
 21
7.84717430164391
 31
0.0
  0
LINE
  5
8D
330
82
100
AcDbEntity
  8
중심선
100
AcDbLine
 10
10.72767329541681
 20
16.24717430164393
 30
0.0
 11
6.196535287059397
 21
10.84717430164391
 31
0.0
  0
LINE
  5
8E
330
82
100
AcDbEntity
  8
중심선
100
AcDbLine
 10
7.28139805157953
 20
16.24717430164393
 30
0.0
 11
2.750260043222114
 21
10.84717430164391
 31
0.0
  0
LINE
  5
8F
330
82
100
AcDbEntity
  8
중심선
100
AcDbLine
 10
5.714909304380834
 20
16.24717430164393
 30
0.0
 11
3.58671253028996
 21
13.71088815037384
 31
0.0
  0
LINE
  5
90
330
82
100
AcDbEntity
  8
중심선
100
AcDbLine
 10
2.268634060543552
 20
16.24717430164393
 30
0.0
 11
0.1404042013395286
 21
13.71084872107135
 31
0.0
  0
LINE
  5
91
330
82
100
AcDbEntity
  8
중심선
100
AcDbLine
 10
7.28139805157953
 20
16.24717430164393
 30
0.0
 11
10.72767329541681
 21
16.24717430164393
 31
0.0
  0
LINE
  5
92
330
82
100
AcDbEntity
  8
중심선
100
AcDbLine
 10
12.29416204261559
 20
16.24717430164393
 30
0.0
 11
15.74043728645272
 21
16.24717430164393
 31
0.0
  0
LINE
  5
93
330
82
100
AcDbEntity
  8
중심선
100
AcDbLine
 10
19.22036997980202
 20
11.08717430171403
 30
0.0
 11
23.66174974927406
 21
11.08717430171406
 31
0.0
  0
LINE
  5
94
330
82
100
AcDbEntity
  8
중심선
100
AcDbLine
 10
19.22039502424796
 20
13.00717430171391
 30
0.0
 11
19.22036997980202
 21
11.08717430171403
 31
0.0
  0
LINE
  5
95
330
82
100
AcDbEntity
  8
중심선
100
AcDbLine
 10
19.22039502424796
 20
13.00717430171391
 30
0.0
 11
26.96566020931264
 21
13.00717430171391
 31
0.0
  0
LINE
  5
96
330
82
100
AcDbEntity
  8
중심선
100
AcDbLine
 10
22.22332737316547
 20
13.45928029700563
 30
0.0
 11
24.52862924686651
 21
15.39360700705356
 31
0.0
  0
ATTDEF
  5
98
330
82
100
AcDbEntity
  8
FORMAT
 62
     2
100
AcDbText
 10
-9.18129528874128
 20
2.075366912832191
 30
0.0
 40
4.233333333333333
  1
E5254008 [ 2 FLUTE ]
 41
0.75
  7
SLDTEXTSTYLE0
 11
-9.18129528874128
 21
-0.0412997538344756
 31
0.0
100
AcDbAttributeDefinition
  3

  2
AUTOATTR0
 70
     0
 74
     1
  0
ENDBLK
  5
84
330
82
100
AcDbEntity
  8
0
100
AcDbBlockEnd
  0
BLOCK
  5
E7
330
E6
100
AcDbEntity
  8
0
100
AcDbBlockBegin
  2
_D
 70
     0
 10
0.0
 20
0.0
 30
0.0
  3
_D
  1
_D
  0
LINE
  5
E9
330
E6
100
AcDbEntity
  8
치수문자_일반주서
 62
     0
370
    -2
100
AcDbLine
 10
17.9375
 20
1.649733197900954
 30
0.0
 11
17.93749999999999
 21
37.17741665954689
 31
0.0
  0
LINE
  5
EA
330
E6
100
AcDbEntity
  8
치수문자_일반주서
 62
     0
370
    -2
100
AcDbLine
 10
-26.51250000000001
 20
2.428574928723888
 30
0.0
 11
-26.51250000000002
 21
37.17741665954689
 31
0.0
  0
LINE
  5
EB
330
E6
100
AcDbEntity
  8
치수문자_일반주서
 62
     0
370
    -2
100
AcDbLine
 10
14.63549999999999
 20
37.17741665954689
 30
0.0
 11
-23.21050000000002
 21
37.17741665954689
 31
0.0
  0
SOLID
  5
EC
330
E6
100
AcDbEntity
  8
치수문자_일반주서
 62
     0
100
AcDbTrace
 10
14.63549999999999
 20
36.62708332621356
 30
0.0
 11
14.63549999999999
 21
37.72774999288023
 31
0.0
 12
17.93749999999999
 22
37.17741665954689
 32
0.0
 13
17.93749999999999
 23
37.17741665954689
 33
0.0
  0
SOLID
  5
ED
330
E6
100
AcDbEntity
  8
치수문자_일반주서
 62
     0
100
AcDbTrace
 10
-23.21050000000002
 20
37.72774999288023
 30
0.0
 11
-23.21050000000002
 21
36.62708332621356
 31
0.0
 12
-26.51250000000002
 22
37.17741665954689
 32
0.0
 13
-26.51250000000002
 23
37.17741665954689
 33
0.0
  0
MTEXT
  5
EE
330
E6
100
AcDbEntity
  8
치수문자_일반주서
 62
     0
100
AcDbMText
 10
-4.28750000000001
 20
41.55241665954689
 30
0.0
 40
3.5
 41
0.0
 71
     2
 72
     1
  1
\A1;44.45 [1 3/4]
  7
SLDTEXTSTYLE0
 73
     1
 44
1.0
  0
POINT
  5
EF
330
E6
100
AcDbEntity
  8
Defpoints
 62
     0
100
AcDbPoint
 10
17.9375
 20
1.587233197900954
 30
0.0
  0
POINT
  5
F0
330
E6
100
AcDbEntity
  8
Defpoints
 62
     0
100
AcDbPoint
 10
-26.51250000000001
 20
2.366074928723888
 30
0.0
  0
POINT
  5
F1
330
E6
100
AcDbEntity
  8
Defpoints
 62
     0
100
AcDbPoint
 10
-26.51250000000001
 20
37.17741665954689
 30
0.0
  0
ENDBLK
  5
E8
330
E6
100
AcDbEntity
  8
0
100
AcDbBlockEnd
  0
BLOCK
  5
FB
330
FA
100
AcDbEntity
  8
0
100
AcDbBlockBegin
  2
_D_1
 70
     0
 10
0.0
 20
0.0
 30
0.0
  3
_D_1
  1
_D_1
  0
LINE
  5
FD
330
FA
100
AcDbEntity
  8
치수문자_일반주서
 62
     0
370
    -2
100
AcDbLine
 10
-25.765
 20
3.176074928723876
 30
0.0
 11
-39.51250000000001
 21
3.176074928723828
 31
0.0
  0
LINE
  5
FE
330
FA
100
AcDbEntity
  8
치수문자_일반주서
 62
     0
370
    -2
100
AcDbLine
 10
-25.765
 20
-3.173925071276118
 30
0.0
 11
-39.51249999999999
 21
-3.173925071276166
 31
0.0
  0
LINE
  5
FF
330
FA
100
AcDbEntity
  8
치수문자_일반주서
 62
     0
370
    -2
100
AcDbLine
 10
-39.5125
 20
-0.1259250712761717
 30
0.0
 11
-39.5125
 21
0.1280749287238332
 31
0.0
  0
SOLID
  5
100
330
FA
100
AcDbEntity
  8
치수문자_일반주서
 62
     0
100
AcDbTrace
 10
-38.96216666666666
 20
-0.1259250712761698
 30
0.0
 11
-40.06283333333333
 21
-0.1259250712761736
 31
0.0
 12
-39.51250000000001
 22
3.176074928723828
 32
0.0
 13
-39.51250000000001
 23
3.176074928723828
 33
0.0
  0
SOLID
  5
101
330
FA
100
AcDbEntity
  8
치수문자_일반주서
 62
     0
100
AcDbTrace
 10
-40.06283333333334
 20
0.1280749287238313
 30
0.0
 11
-38.96216666666667
 21
0.1280749287238351
 31
0.0
 12
-39.51249999999999
 22
-3.173925071276166
 32
0.0
 13
-39.51249999999999
 23
-3.173925071276166
 33
0.0
  0
MTEXT
  5
102
330
FA
100
AcDbEntity
  8
치수문자_일반주서
 62
     0
100
AcDbMText
 10
-43.8875
 20
0.0010749287238635
 30
0.0
 40
3.5
 41
0.0
 71
     2
 72
     1
  1
\A1;%%c6.35 [1/4]
  7
SLDTEXTSTYLE0
 11
-3.356894814614650E-15
 21
1.0
 31
0.0
 73
     1
 44
1.0
  0
POINT
  5
103
330
FA
100
AcDbEntity
  8
Defpoints
 62
     0
100
AcDbPoint
 10
-25.7025
 20
3.176074928723876
 30
0.0
  0
POINT
  5
104
330
FA
100
AcDbEntity
  8
Defpoints
 62
     0
100
AcDbPoint
 10
-25.7025
 20
-3.173925071276118
 30
0.0
  0
POINT
  5
105
330
FA
100
AcDbEntity
  8
Defpoints
 62
     0
100
AcDbPoint
 10
-39.51249999999999
 20
-3.173925071276166
 30
0.0
  0
ENDBLK
  5
FC
330
FA
100
AcDbEntity
  8
0
100
AcDbBlockEnd
  0
BLOCK
  5
10F
330
10E
100
AcDbEntity
  8
0
100
AcDbBlockBegin
  2
_D_2
 70
     0
 10
0.0
 20
0.0
 30
0.0
  3
_D_2
  1
_D_2
  0
LINE
  5
111
330
10E
100
AcDbEntity
  8
치수문자_일반주서
 62
     0
370
    -2
100
AcDbLine
 10
17.9375
 20
1.649733197900954
 30
0.0
 11
17.9375
 21
21.82385071140146
 31
0.0
  0
LINE
  5
112
330
10E
100
AcDbEntity
  8
치수문자_일반주서
 62
     0
370
    -2
100
AcDbLine
 10
9.999999999999993
 20
1.307137265864879
 30
0.0
 11
9.999999999999993
 21
21.82385071140146
 31
0.0
  0
LINE
  5
113
330
10E
100
AcDbEntity
  8
치수문자_일반주서
 62
     0
370
    -2
100
AcDbLine
 10
14.6355
 20
21.82385071140146
 30
0.0
 11
13.30199999999999
 21
21.82385071140146
 31
0.0
  0
SOLID
  5
114
330
10E
100
AcDbEntity
  8
치수문자_일반주서
 62
     0
100
AcDbTrace
 10
14.6355
 20
21.27351737806812
 30
0.0
 11
14.6355
 21
22.37418404473479
 31
0.0
 12
17.9375
 22
21.82385071140146
 32
0.0
 13
17.9375
 23
21.82385071140146
 33
0.0
  0
SOLID
  5
115
330
10E
100
AcDbEntity
  8
치수문자_일반주서
 62
     0
100
AcDbTrace
 10
13.30199999999999
 20
22.37418404473479
 30
0.0
 11
13.30199999999999
 21
21.27351737806812
 31
0.0
 12
9.999999999999993
 22
21.82385071140146
 32
0.0
 13
9.999999999999993
 23
21.82385071140146
 33
0.0
  0
MTEXT
  5
116
330
10E
100
AcDbEntity
  8
치수문자_일반주서
 62
     0
100
AcDbMText
 10
13.96874999999999
 20
26.19885071140146
 30
0.0
 40
3.5
 41
0.0
 71
     2
 72
     1
  1
\A1;7.94 [5/16]
  7
SLDTEXTSTYLE0
 73
     1
 44
1.0
  0
POINT
  5
117
330
10E
100
AcDbEntity
  8
Defpoints
 62
     0
100
AcDbPoint
 10
17.9375
 20
1.587233197900954
 30
0.0
  0
POINT
  5
118
330
10E
100
AcDbEntity
  8
Defpoints
 62
     0
100
AcDbPoint
 10
9.999999999999993
 20
1.244637265864879
 30
0.0
  0
POINT
  5
119
330
10E
100
AcDbEntity
  8
Defpoints
 62
     0
100
AcDbPoint
 10
9.999999999999993
 20
21.82385071140146
 30
0.0
  0
ENDBLK
  5
110
330
10E
100
AcDbEntity
  8
0
100
AcDbBlockEnd
  0
BLOCK
  5
124
330
123
100
AcDbEntity
  8
0
100
AcDbBlockBegin
  2
_D_3
 70
     0
 10
0.0
 20
0.0
 30
0.0
  3
_D_3
  1
_D_3
  0
LINE
  5
126
330
123
100
AcDbEntity
  8
치수문자_일반주서
 62
     0
370
    -2
100
AcDbLine
 10
13.07835059483432
 20
1.588542474770355
 30
0.0
 11
38.14685371504375
 21
1.588542474770442
 31
0.0
  0
LINE
  5
127
330
123
100
AcDbEntity
  8
치수문자_일반주서
 62
     0
370
    -2
100
AcDbLine
 10
13.00542411220461
 20
-1.57687414282436
 30
0.0
 11
38.14685371504376
 21
-1.57687414282427
 31
0.0
  0
LINE
  5
128
330
123
100
AcDbEntity
  8
치수문자_일반주서
 62
     0
370
    -2
100
AcDbLine
 10
38.14685371504375
 20
1.588542474770442
 30
0.0
 11
38.1468537150436
 21
32.69254247477044
 31
0.0
  0
LINE
  5
129
330
123
100
AcDbEntity
  8
치수문자_일반주서
 62
     0
370
    -2
100
AcDbLine
 10
38.14685371504375
 20
1.588542474770442
 30
0.0
 11
38.14685371504376
 21
-1.57687414282427
 31
0.0
  0
LINE
  5
12A
330
123
100
AcDbEntity
  8
치수문자_일반주서
 62
     0
370
    -2
100
AcDbLine
 10
38.14685371504373
 20
4.890542474770442
 30
0.0
 11
38.14685371504372
 21
8.192542474770441
 31
0.0
  0
LINE
  5
12B
330
123
100
AcDbEntity
  8
치수문자_일반주서
 62
     0
370
    -2
100
AcDbLine
 10
38.14685371504378
 20
-4.878874142824269
 30
0.0
 11
38.14685371504379
 21
-8.180874142824269
 31
0.0
  0
SOLID
  5
12C
330
123
100
AcDbEntity
  8
치수문자_일반주서
 62
     0
100
AcDbTrace
 10
37.5965203817104
 20
4.890542474770439
 30
0.0
 11
38.69718704837707
 21
4.890542474770444
 31
0.0
 12
38.14685371504375
 22
1.588542474770442
 32
0.0
 13
38.14685371504375
 23
1.588542474770442
 33
0.0
  0
SOLID
  5
12D
330
123
100
AcDbEntity
  8
치수문자_일반주서
 62
     0
100
AcDbTrace
 10
38.69718704837711
 20
-4.878874142824267
 30
0.0
 11
37.59652038171044
 21
-4.878874142824272
 31
0.0
 12
38.14685371504376
 22
-1.57687414282427
 32
0.0
 13
38.14685371504376
 23
-1.57687414282427
 33
0.0
  0
MTEXT
  5
12E
330
123
100
AcDbEntity
  8
치수문자_일반주서
 62
     0
100
AcDbMText
 10
33.77185371504366
 20
20.44254247477042
 30
0.0
 40
3.5
 41
0.0
 71
     2
 72
     1
  1
\A1;%%c3.17 [1/8]
  7
SLDTEXTSTYLE0
 11
-4.489410536424212E-15
 21
1.0
 31
0.0
 73
     1
 44
1.0
  0
POINT
  5
12F
330
123
100
AcDbEntity
  8
Defpoints
 62
     0
100
AcDbPoint
 10
13.01585059483432
 20
1.588542474770354
 30
0.0
  0
POINT
  5
130
330
123
100
AcDbEntity
  8
Defpoints
 62
     0
100
AcDbPoint
 10
12.94292411220461
 20
-1.57687414282436
 30
0.0
  0
POINT
  5
131
330
123
100
AcDbEntity
  8
Defpoints
 62
     0
100
AcDbPoint
 10
38.14685371504376
 20
-1.576874142824273
 30
0.0
  0
ENDBLK
  5
125
330
123
100
AcDbEntity
  8
0
100
AcDbBlockEnd
  0
BLOCK
  5
137
330
136
100
AcDbEntity
  8
0
100
AcDbBlockBegin
  2
SW_DOWELSYMBOL_0
 70
     0
 10
0.0
 20
0.0
 30
0.0
  3
SW_DOWELSYMBOL_0
  1
SW_DOWELSYMBOL_0
  0
CIRCLE
  5
139
330
136
100
AcDbEntity
  8
외형선
 62
     0
100
AcDbCircle
 10
0.0
 20
0.0
 30
0.0
 40
3.000000000000004
  0
HATCH
  5
13A
330
136
100
AcDbEntity
  8
0
  6
Continuous
 62
     0
370
    35
100
AcDbHatch
 10
0.0
 20
0.0
 30
0.0
210
0.0
220
0.0
230
1.0
  2
SOLID
 70
     1
 71
     0
 91
        1
 92
        0
 93
        3
 72
     2
 10
0.0000000000000069
 20
0.0
 40
3.000000000000004
 50
0.0
 51
90.0
 73
     1
 72
     1
 10
0.0000000000000069
 20
3.000000000000004
 11
0.0000000000000069
 21
0.0
 72
     1
 10
0.0000000000000069
 20
0.0
 11
3.000000000000012
 21
0.0
 97
        0
 75
     0
 76
     1
 98
        1
 10
0.0
 20
0.0
  0
HATCH
  5
13B
330
136
100
AcDbEntity
  8
0
  6
Continuous
 62
     0
370
    35
100
AcDbHatch
 10
0.0
 20
0.0
 30
0.0
210
0.0
220
0.0
230
1.0
  2
SOLID
 70
     1
 71
     0
 91
        1
 92
        0
 93
        3
 72
     2
 10
0.0000000000000069
 20
0.0
 40
3.000000000000004
 50
180.0
 51
270.0000000000007
 73
     1
 72
     1
 10
0.0000000000000069
 20
-3.000000000000004
 11
0.0000000000000069
 21
0.0
 72
     1
 10
0.0000000000000069
 20
0.0
 11
-2.999999999999997
 21
0.0
 97
        0
 75
     0
 76
     1
 98
        1
 10
0.0
 20
0.0
  0
ENDBLK
  5
138
330
136
100
AcDbEntity
  8
0
100
AcDbBlockEnd
  0
ENDSEC
  0
SECTION
  2
ENTITIES
  0
LINE
  5
99
330
1F
100
AcDbEntity
  8
0
  6
Continuous
 62
     4
370
    25
100
AcDbLine
 10
2.851638937895723
 20
3.176074928723891
 30
0.0
 11
-25.70250000000001
 21
3.176074928723889
 31
0.0
  0
LINE
  5
9A
330
1F
100
AcDbEntity
  8
0
  6
Continuous
 62
     4
370
    25
100
AcDbLine
 10
-25.70250000000001
 20
-3.173925071276107
 30
0.0
 11
2.851638937895725
 21
-3.173925071276106
 31
0.0
  0
LINE
  5
9D
330
1F
100
AcDbEntity
  8
0
  6
Continuous
 62
     4
370
    25
100
AcDbLine
 10
-25.70250000000001
 20
3.176074928723889
 30
0.0
 11
-26.51250000000001
 21
2.366074928723887
 31
0.0
  0
LINE
  5
9E
330
1F
100
AcDbEntity
  8
0
  6
Continuous
 62
     4
370
    25
100
AcDbLine
 10
-26.51250000000001
 20
-2.363925071276106
 30
0.0
 11
-25.70250000000001
 21
-3.173925071276107
 31
0.0
  0
LINE
  5
9F
330
1F
100
AcDbEntity
  8
0
  6
Continuous
 62
     4
370
    25
100
AcDbLine
 10
9.110242474382403
 20
1.588574928723893
 30
0.0
 11
8.999999999999995
 21
1.588574928723893
 31
0.0
  0
LINE
  5
A0
330
1F
100
AcDbEntity
  8
0
  6
Continuous
 62
     4
370
    25
100
AcDbLine
 10
8.999999999999995
 20
-1.586425071276107
 30
0.0
 11
9.110242474382403
 21
-1.586425071276107
 31
0.0
  0
SPLINE
  5
A1
330
1F
100
AcDbEntity
  8
0
  6
Continuous
 62
     4
370
    25
100
AcDbSpline
210
0.0
220
0.0
230
1.0
 70
     8
 71
     3
 72
     9
 73
     5
 74
     0
 42
0.000000001
 43
0.00000001
 40
0.0
 40
0.0
 40
0.0
 40
0.0
 40
0.4659237095272162
 40
1.0
 40
1.0
 40
1.0
 40
1.0
 10
9.10491044474044
 20
-1.285096006640859
 30
0.0
 10
9.246029063539178
 20
-1.26945555834338
 30
0.0
 10
9.548908303022257
 20
-1.235886868925644
 30
0.0
 10
9.84295606308428
 20
-1.240184359420347
 30
0.0
 10
10.00000000000004
 20
-1.2424795472021
 30
0.0
  0
SPLINE
  5
A2
330
1F
100
AcDbEntity
  8
0
  6
Continuous
 62
     4
370
    25
100
AcDbSpline
210
0.0
220
0.0
230
1.0
 70
     8
 71
     3
 72
     9
 73
     5
 74
     0
 42
0.000000001
 43
0.00000001
 40
0.0
 40
0.0
 40
0.0
 40
0.0
 40
0.7363173373629156
 40
1.0
 40
1.0
 40
1.0
 40
1.0
 10
10.00000000000004
 20
1.244637238834482
 30
0.0
 10
9.882946470561382
 20
1.242029216931867
 30
0.0
 10
9.723974892005485
 20
1.238487236089809
 30
0.0
 10
9.563613764032729
 20
1.24700410897754
 30
0.0
 10
9.521329314825385
 20
1.249249860697918
 30
0.0
  0
SPLINE
  5
A3
330
1F
100
AcDbEntity
  8
0
  6
Continuous
 62
     4
370
    25
100
AcDbSpline
210
0.0
220
0.0
230
1.0
 70
     8
 71
     3
 72
     9
 73
     5
 74
     0
 42
0.000000001
 43
0.00000001
 40
0.0
 40
0.0
 40
0.0
 40
0.0
 40
0.546450744728617
 40
1.0
 40
1.0
 40
1.0
 40
1.0
 10
10.57438428188667
 20
0.4082830248453335
 30
0.0
 10
10.52957286294171
 20
0.4456045893237185
 30
0.0
 10
10.44756836504826
 20
0.5139027201953672
 30
0.0
 10
10.36196756667296
 20
0.5919015466251648
 30
0.0
 10
10.32314338831921
 20
0.6272778562644413
 30
0.0
  0
SPLINE
  5
A4
330
1F
100
AcDbEntity
  8
0
  6
Continuous
 62
     4
370
    25
100
AcDbSpline
210
0.0
220
0.0
230
1.0
 70
     8
 71
     3
 72
     9
 73
     5
 74
     0
 42
0.000000001
 43
0.00000001
 40
0.0
 40
0.0
 40
0.0
 40
0.0
 40
0.5487152211812382
 40
1.0
 40
1.0
 40
1.0
 40
1.0
 10
15.56144763786646
 20
0.4084574093682736
 30
0.0
 10
15.51636151649214
 20
0.4460242728302066
 30
0.0
 10
15.43419481209989
 20
0.5144875886118639
 30
0.0
 10
15.3489203996782
 20
0.5921952236700447
 30
0.0
 10
15.31043735532957
 20
0.6272634965698051
 30
0.0
  0
LINE
  5
A5
330
1F
100
AcDbEntity
  8
0
  6
Continuous
 62
     1
370
    25
100
AcDbLine
 10
13.46016731676544
 20
1.588574928723894
 30
0.0
 11
13.01549268627909
 21
1.588574928723894
 31
0.0
  0
LINE
  5
A6
330
1F
100
AcDbEntity
  8
0
  6
Continuous
 62
     1
370
    25
100
AcDbLine
 10
13.01549268627909
 20
-1.586425071276108
 30
0.0
 11
13.46016731676544
 21
-1.586425071276108
 31
0.0
  0
SPLINE
  5
A7
330
1F
100
AcDbEntity
  8
0
  6
Continuous
 62
     1
370
    25
100
AcDbSpline
210
0.0
220
0.0
230
1.0
 70
     8
 71
     3
 72
    17
 73
    13
 74
     0
 42
0.000000001
 43
0.00000001
 40
0.0
 40
0.0
 40
0.0
 40
0.0
 40
0.1447457381103822
 40
0.2386390545584571
 40
0.3007581130357829
 40
0.3656682286246816
 40
0.4398630658252279
 40
0.5325601311760226
 40
0.632365689662317
 40
0.7241947497589551
 40
0.8369549384988109
 40
1.0
 40
1.0
 40
1.0
 40
1.0
 10
13.88164613036044
 20
-1.319909232958919
 30
0.0
 10
13.94847420959923
 20
-1.309033870661088
 30
0.0
 10
14.05865216617119
 20
-1.291103904565949
 30
0.0
 10
14.19623969134142
 20
-1.273716364237221
 30
0.0
 10
14.29768982349841
 20
-1.26281649512757
 30
0.0
 10
14.39017017571672
 20
-1.254565226749998
 30
0.0
 10
14.49679785561393
 20
-1.247043726683989
 30
0.0
 10
14.61952920612872
 20
-1.241157345114187
 30
0.0
 10
14.75022639615063
 20
-1.238266043642203
 30
0.0
 10
14.88962890147164
 20
-1.239009046564695
 30
0.0
 10
15.05838985100576
 20
-1.244269868686972
 30
0.0
 10
15.18569528581612
 20
-1.254433248285857
 30
0.0
 10
15.26095318039916
 20
-1.260441432866505
 30
0.0
  0
SPLINE
  5
A8
330
1F
100
AcDbEntity
  8
0
  6
Continuous
 62
     1
370
    25
100
AcDbSpline
210
0.0
220
0.0
230
1.0
 70
     8
 71
     3
 72
     9
 73
     5
 74
     0
 42
0.000000001
 43
0.00000001
 40
0.0
 40
0.0
 40
0.0
 40
0.0
 40
0.7979819389598202
 40
1.0
 40
1.0
 40
1.0
 40
1.0
 10
10.27360757804619
 20
1.262585099394834
 30
0.0
 10
10.20052707872265
 20
1.25636889247561
 30
0.0
 10
10.10894543287888
 20
1.248578983186026
 30
0.0
 10
10.01789448290018
 20
1.245695587476783
 30
0.0
 10
9.999500546529621
 20
1.245113089466389
 30
0.0
  0
SPLINE
  5
A9
330
1F
100
AcDbEntity
  8
0
  6
Continuous
 62
     1
370
    25
100
AcDbSpline
210
0.0
220
0.0
230
1.0
 70
     8
 71
     3
 72
     9
 73
     5
 74
     0
 42
0.000000001
 43
0.00000001
 40
0.0
 40
0.0
 40
0.0
 40
0.0
 40
0.2009019942719241
 40
1.0
 40
1.0
 40
1.0
 40
1.0
 10
9.999882197428468
 20
-1.242976697746914
 30
0.0
 10
10.01814900635354
 20
-1.243555534839814
 30
0.0
 10
10.10907298643286
 20
-1.246436726213735
 30
0.0
 10
10.20052692117654
 20
-1.254217578445656
 30
0.0
 10
10.27360757804619
 20
-1.260435241947048
 30
0.0
  0
SPLINE
  5
AA
330
1F
100
AcDbEntity
  8
0
  6
Continuous
 62
     1
370
    25
100
AcDbSpline
210
0.0
220
0.0
230
1.0
 70
     8
 71
     3
 72
    12
 73
     8
 74
     0
 42
0.000000001
 43
0.00000001
 40
0.0
 40
0.0
 40
0.0
 40
0.0
 40
0.2974075182627924
 40
0.5030913186992721
 40
0.6705950297365219
 40
0.8526485257758617
 40
1.0
 40
1.0
 40
1.0
 40
1.0
 10
15.26095318039916
 20
1.262591290314292
 30
0.0
 10
15.18569530122778
 20
1.256585686284929
 30
0.0
 10
15.05838989248762
 20
1.246426671918493
 30
0.0
 10
14.88962880135436
 20
1.241142140225164
 30
0.0
 10
14.75022670864076
 20
1.240468224902975
 30
0.0
 10
14.62500533023771
 20
1.242987468128792
 30
0.0
 10
14.541910322621
 20
1.247381337536478
 30
0.0
 10
14.50473974846969
 20
1.249346830450119
 30
0.0
  0
SPLINE
  5
AB
330
1F
100
AcDbEntity
  8
0
  6
Continuous
 62
     1
370
    25
100
AcDbSpline
210
0.0
220
0.0
230
1.0
 70
     8
 71
     3
 72
    13
 73
     9
 74
     0
 42
0.000000001
 43
0.00000001
 40
0.0
 40
0.0
 40
0.0
 40
0.0
 40
0.3088447997960045
 40
0.523046164686368
 40
0.6576263074811936
 40
0.7876862133403806
 40
0.9210760122332775
 40
0.9999999999999999
 40
0.9999999999999999
 40
0.9999999999999999
 40
0.9999999999999999
 10
15.99644097979995
 20
-1.192932962722543
 30
0.0
 10
16.06738840959476
 20
-1.174364535030023
 30
0.0
 10
16.18754190116413
 20
-1.142917850820855
 30
0.0
 10
16.33800698469942
 20
-1.112558831612974
 30
0.0
 10
16.44774228005863
 20
-1.093329508637828
 30
0.0
 10
16.53893154724491
 20
-1.079608201887835
 30
0.0
 10
16.61735908484674
 20
-1.069215181771233
 30
0.0
 10
16.66576513506594
 20
-1.064427935379033
 30
0.0
 10
16.68375924922801
 20
-1.062648359112984
 30
0.0
  0
SPLINE
  5
AC
330
1F
100
AcDbEntity
  8
0
  6
Continuous
 62
     1
370
    25
100
AcDbSpline
210
0.0
220
0.0
230
1.0
 70
     8
 71
     3
 72
    18
 73
    14
 74
     0
 42
0.000000001
 43
0.00000001
 40
0.0
 40
0.0
 40
0.0
 40
0.0
 40
0.1339970090870598
 40
0.2247606144479588
 40
0.2822343197463859
 40
0.337987700108707
 40
0.3947172917863249
 40
0.4517590214217647
 40
0.6264131652056583
 40
0.6824138662714955
 40
0.764042646827085
 40
0.8706447767313855
 40
1.0
 40
1.0
 40
1.0
 40
1.0
 10
12.60921791895108
 20
1.086813822267042
 30
0.0
 10
12.53713065915568
 20
1.077269143168819
 30
0.0
 10
12.41621470053933
 20
1.061259323595673
 30
0.0
 10
12.26711279483396
 20
1.050851418852098
 30
0.0
 10
12.15842181689615
 20
1.04659989044886
 30
0.0
 10
12.06780750022583
 20
1.045389621798922
 30
0.0
 10
11.97737765886472
 20
1.046408597156383
 30
0.0
 10
11.82345310975526
 20
1.051970321325131
 30
0.0
 10
11.67050733094912
 20
1.065605192595576
 30
0.0
 10
11.50425754062997
 20
1.08843104649369
 30
0.0
 10
11.37432221432032
 20
1.109957130852827
 30
0.0
 10
11.20484279508925
 20
1.143839487090609
 30
0.0
 10
11.07849532998051
 20
1.176925941421634
 30
0.0
 10
11.00922982780907
 20
1.195064412758106
 30
0.0
  0
SPLINE
  5
AD
330
1F
100
AcDbEntity
  8
0
  6
Continuous
 62
     1
370
    25
100
AcDbSpline
210
0.0
220
0.0
230
1.0
 70
     8
 71
     3
 72
    13
 73
     9
 74
     0
 42
0.000000001
 43
0.00000001
 40
0.0
 40
0.0
 40
0.0
 40
0.0
 40
0.3120170510400457
 40
0.5285098864844401
 40
0.6658253474938298
 40
0.8042973139569967
 40
0.9512899162131472
 40
1.0
 40
1.0
 40
1.0
 40
1.0
 10
11.00922982780907
 20
-1.19291455531032
 30
0.0
 10
11.08013662520043
 20
-1.174356591284478
 30
0.0
 10
11.20024205955207
 20
-1.142922195542366
 30
0.0
 10
11.3509563452546
 20
-1.112516411485059
 30
0.0
 10
11.46261088318423
 20
-1.092945583785862
 30
0.0
 10
11.55846641868969
 20
-1.078657941054484
 30
0.0
 10
11.63416143002273
 20
-1.068635898097375
 30
0.0
 10
11.67830833941858
 20
-1.064425317815124
 30
0.0
 10
11.68929643416108
 20
-1.063377311155191
 30
0.0
  0
SPLINE
  5
AE
330
1F
100
AcDbEntity
  8
0
  6
Continuous
 62
     1
370
    25
100
AcDbSpline
210
0.0
220
0.0
230
1.0
 70
     8
 71
     3
 72
    17
 73
    13
 74
     0
 42
0.000000001
 43
0.00000001
 40
0.0
 40
0.0
 40
0.0
 40
0.0
 40
0.137224321673633
 40
0.229195354376313
 40
0.2865284142971732
 40
0.3419868132857411
 40
0.3983788964686993
 40
0.4550702973034338
 40
0.6339466434780351
 40
0.716978594765708
 40
0.84008984499178
 40
0.9999999999999999
 40
0.9999999999999999
 40
0.9999999999999999
 40
0.9999999999999999
 10
17.61223616729419
 20
1.089093548050945
 30
0.0
 10
17.53674406110529
 20
1.078880348425582
 30
0.0
 10
17.41065533412487
 20
1.061822017373901
 30
0.0
 10
17.25588552675567
 20
1.050910579248653
 30
0.0
 10
17.14604074352142
 20
1.046607835927746
 30
0.0
 10
17.05520661574667
 20
1.045388811219096
 30
0.0
 10
16.96474020974148
 20
1.046406013148123
 30
0.0
 10
16.80796878277624
 20
1.05207242411792
 30
0.0
 10
16.63759254840681
 20
1.067413770615261
 30
0.0
 10
16.43126386147199
 20
1.097504996694254
 30
0.0
 10
16.23501202516822
 20
1.133455646458393
 30
0.0
 10
16.0825715161393
 20
1.172833760077166
 30
0.0
 10
15.99644097979995
 20
1.19508282017033
 30
0.0
  0
LINE
  5
AF
330
1F
100
AcDbEntity
  8
0
  6
Continuous
 62
     4
370
    25
100
AcDbLine
 10
2.851638937895723
 20
3.176074928723891
 30
0.0
 11
2.851638937895723
 21
-3.173925071276106
 31
0.0
  0
LINE
  5
B0
330
1F
100
AcDbEntity
  8
0
  6
Continuous
 62
     4
370
    25
100
AcDbLine
 10
-25.70250000000001
 20
3.176074928723889
 30
0.0
 11
-25.70250000000001
 21
-3.173925071276107
 31
0.0
  0
LINE
  5
B1
330
1F
100
AcDbEntity
  8
0
  6
Continuous
 62
     4
370
    25
100
AcDbLine
 10
8.999999999999995
 20
1.588574928723893
 30
0.0
 11
8.999999999999995
 21
-1.586425071276107
 31
0.0
  0
LINE
  5
B2
330
1F
100
AcDbEntity
  8
0
  6
Continuous
 62
     4
370
    25
100
AcDbLine
 10
-26.51250000000001
 20
2.366074928723888
 30
0.0
 11
-26.51250000000001
 21
-2.363925071276106
 31
0.0
  0
SPLINE
  5
B3
330
1F
100
AcDbEntity
  8
0
  6
Continuous
 62
     4
370
    25
100
AcDbSpline
210
0.0
220
0.0
230
1.0
 70
     8
 71
     3
 72
     9
 73
     5
 74
     0
 42
0.000000001
 43
0.00000001
 40
0.0
 40
0.0
 40
0.0
 40
0.0
 40
0.2814686648606639
 40
1.0
 40
1.0
 40
1.0
 40
1.0
 10
9.521786022692767
 20
-1.246813871927064
 30
0.0
 10
9.48303295555388
 20
-1.271907311856357
 30
0.0
 10
9.345351316434046
 20
-1.361059118298877
 30
0.0
 10
9.208636871213423
 20
-1.418769203341889
 30
0.0
 10
9.110403258356216
 20
-1.460235707798849
 30
0.0
  0
LINE
  5
B4
330
1F
100
AcDbEntity
  8
0
  6
Continuous
 62
     4
370
    25
100
AcDbLine
 10
9.110242474382403
 20
1.462412146676171
 30
0.0
 11
9.110242474382403
 21
1.588574928723893
 31
0.0
  0
SPLINE
  5
B5
330
1F
100
AcDbEntity
  8
0
  6
Continuous
 62
     4
370
    25
100
AcDbSpline
210
0.0
220
0.0
230
1.0
 70
     8
 71
     3
 72
    12
 73
     8
 74
     0
 42
0.000000001
 43
0.00000001
 40
0.0
 40
0.0
 40
0.0
 40
0.0
 40
0.5
 40
0.5
 40
0.75
 40
0.75
 40
1.0
 40
1.0
 40
1.0
 40
1.0
 10
10.0
 20
0.9080092422691289
 30
0.0
 10
9.850851672720546
 20
1.030139803232784
 30
0.0
 10
9.7055445541015
 20
1.139348559863901
 30
0.0
 10
9.480509625551965
 20
1.280343119716022
 30
0.0
 10
9.405331312548745
 20
1.323278756483568
 30
0.0
 10
9.2568567607448
 20
1.399844986959833
 30
0.0
 10
9.184444943185186
 20
1.43338444415286
 30
0.0
 10
9.110403258356214
 20
1.462385565246636
 30
0.0
  0
LINE
  5
B6
330
1F
100
AcDbEntity
  8
0
  6
Continuous
 62
     4
370
    25
100
AcDbLine
 10
9.999999999999993
 20
0.9080092422691354
 30
0.0
 11
9.999999999999993
 21
0.5128904753339831
 31
0.0
  0
SPLINE
  5
B7
330
1F
100
AcDbEntity
  8
0
  6
Continuous
 62
     4
370
    25
100
AcDbSpline
210
0.0
220
0.0
230
1.0
 70
     8
 71
     3
 72
    12
 73
     8
 74
     0
 42
0.000000001
 43
0.00000001
 40
0.0
 40
0.0
 40
0.0
 40
0.0
 40
0.5
 40
0.5
 40
0.75
 40
0.75
 40
1.0
 40
1.0
 40
1.0
 40
1.0
 10
10.0
 20
0.5128904753339756
 30
0.0
 10
9.850824682950792
 20
0.6537749643087596
 30
0.0
 10
9.705490502172943
 20
0.7867508060080369
 30
0.0
 10
9.480414484959647
 20
0.9702328919761497
 30
0.0
 10
9.405222824216608
 20
1.02841780825736
 30
0.0
 10
9.256723440139432
 20
1.137184643643826
 30
0.0
 10
9.184299067278284
 20
1.187599254457547
 30
0.0
 10
9.110242474382403
 20
1.234345416188893
 30
0.0
  0
LINE
  5
B8
330
1F
100
AcDbEntity
  8
0
  6
Continuous
 62
     4
370
    25
100
AcDbLine
 10
9.110242474382403
 20
-1.586425071276107
 30
0.0
 11
9.110242474382403
 21
1.234686847236228
 31
0.0
  0
SPLINE
  5
B9
330
1F
100
AcDbEntity
  8
0
  6
Continuous
 62
     4
370
    25
100
AcDbSpline
210
0.0
220
0.0
230
1.0
 70
    24
 71
     3
 72
    12
 73
     8
 74
     0
 42
0.000000001
 43
0.00000001
 40
0.0
 40
0.0
 40
0.0
 40
0.0
 40
0.0074329787230738
 40
0.2821771331657865
 40
0.5648888866998274
 40
0.7805551621281008
 40
1.0
 40
1.0
 40
1.0
 40
1.0
 10
9.999999999999993
 20
0.4998165041435794
 30
0.0
 10
9.999999999999993
 20
0.4996600577279922
 30
0.0
 10
9.999999999999996
 20
0.4937209043025428
 30
0.0
 10
9.999999999999993
 20
0.4706420499637083
 30
0.0
 10
9.999999999999993
 20
0.4269818597855906
 30
0.0
 10
9.999999999999995
 20
0.3743039848764546
 30
0.0
 10
9.999999999999993
 20
0.3354163849100381
 30
0.0
 10
9.999999999999993
 20
0.315803732396678
 30
0.0
  0
SPLINE
  5
BA
330
1F
100
AcDbEntity
  8
0
  6
Continuous
 62
     4
370
    25
100
AcDbSpline
210
0.0
220
0.0
230
1.0
 70
     8
 71
     3
 72
    10
 73
     6
 74
     0
 42
0.000000001
 43
0.00000001
 40
0.0
 40
0.0
 40
0.0
 40
0.0
 40
0.5
 40
0.5
 40
1.0
 40
1.0
 40
1.0
 40
1.0
 10
10.00000000000061
 20
0.3158037323962677
 30
0.0
 10
9.881659135972237
 20
0.3950675241747216
 30
0.0
 10
9.76683327299277
 20
0.4709622331563039
 30
0.0
 10
9.529808437798927
 20
0.6153273919035605
 30
0.0
 10
9.409720605792677
 20
0.6832621852868119
 30
0.0
 10
9.292482470211302
 20
0.7445003246242972
 30
0.0
  0
SPLINE
  5
BB
330
1F
100
AcDbEntity
  8
0
  6
Continuous
 62
     4
370
    25
100
AcDbSpline
210
0.0
220
0.0
230
1.0
 70
     8
 71
     3
 72
    12
 73
     8
 74
     0
 42
0.000000001
 43
0.00000001
 40
0.0
 40
0.0
 40
0.0
 40
0.0
 40
0.2499999999999992
 40
0.2499999999999992
 40
0.4999999999999992
 40
0.4999999999999992
 40
1.0
 40
1.0
 40
1.0
 40
1.0
 10
9.110242474390423
 20
1.06156049135555
 30
0.0
 10
9.110242474389066
 20
1.034044360629698
 30
0.0
 10
9.117715809414966
 20
1.003027472027113
 30
0.0
 10
9.138154872888569
 20
0.9426799118879842
 30
0.0
 10
9.151610746238
 20
0.9125359057494574
 30
0.0
 10
9.19819244831872
 20
0.8275172340884859
 30
0.0
 10
9.23863645288014
 20
0.7726262402723282
 30
0.0
 10
9.292482470211269
 20
0.7445003246243148
 30
0.0
  0
SPLINE
  5
BC
330
1F
100
AcDbEntity
  8
0
  6
Continuous
 62
     4
370
    25
100
AcDbSpline
210
0.0
220
0.0
230
1.0
 70
     8
 71
     3
 72
    12
 73
     8
 74
     0
 42
0.000000001
 43
0.00000001
 40
0.0
 40
0.0
 40
0.0
 40
0.0
 40
0.2499999999999997
 40
0.2499999999999997
 40
0.4999999999999993
 40
0.4999999999999993
 40
1.0
 40
1.0
 40
1.0
 40
1.0
 10
9.226821044024229
 20
-0.9066625178331573
 30
0.0
 10
9.201876300392374
 20
-0.8925534287152964
 30
0.0
 10
9.184869541834791
 20
-0.8744741092594546
 30
0.0
 10
9.156444071960232
 20
-0.8360815462271676
 30
0.0
 10
9.145766560213502
 20
-0.8159792063979021
 30
0.0
 10
9.119774293862223
 20
-0.7540720470986159
 30
0.0
 10
9.110242474382407
 20
-0.7104248428693118
 30
0.0
 10
9.11024247438236
 20
-0.6682669678633258
 30
0.0
  0
SPLINE
  5
BD
330
1F
100
AcDbEntity
  8
0
  6
Continuous
 62
     4
370
    25
100
AcDbSpline
210
0.0
220
0.0
230
1.0
 70
     8
 71
     3
 72
    10
 73
     6
 74
     0
 42
0.000000001
 43
0.00000001
 40
0.0
 40
0.0
 40
0.0
 40
0.0
 40
0.5
 40
0.5
 40
1.0
 40
1.0
 40
1.0
 40
1.0
 10
9.999999999999993
 20
-1.216924685304368
 30
0.0
 10
9.870557732503714
 20
-1.187663665740532
 30
0.0
 10
9.744841944964534
 20
-1.146695467437917
 30
0.0
 10
9.485018658102328
 20
-1.042018217142521
 30
0.0
 10
9.35373536069849
 20
-0.978446995987904
 30
0.0
 10
9.226821044024232
 20
-0.9066625178331593
 30
0.0
  0
SPLINE
  5
BE
330
1F
100
AcDbEntity
  8
0
  6
Continuous
 62
     4
370
    25
100
AcDbSpline
210
0.0
220
0.0
230
1.0
 70
    24
 71
     3
 72
    10
 73
     6
 74
     0
 42
0.000000001
 43
0.00000001
 40
0.0
 40
0.0
 40
0.0
 40
0.0
 40
0.5
 40
0.5
 40
1.0
 40
1.0
 40
1.0
 40
1.0
 10
9.999999999999993
 20
0.3158037323966779
 30
0.0
 10
9.999999999999993
 20
0.0352889537476261
 30
0.0
 10
9.999999999999993
 20
-0.2691013561125349
 30
0.0
 10
9.999999999999993
 20
-0.813921416286972
 30
0.0
 10
9.999999999999993
 20
-1.050129853782801
 30
0.0
 10
9.999999999999993
 20
-1.216924685304368
 30
0.0
  0
SPLINE
  5
BF
330
1F
100
AcDbEntity
  8
0
  6
Continuous
 62
     4
370
    25
100
AcDbSpline
210
0.0
220
0.0
230
1.0
 70
    24
 71
     3
 72
    12
 73
     8
 74
     0
 42
0.000000001
 43
0.00000001
 40
0.0
 40
0.0
 40
0.0
 40
0.0
 40
0.0945087514208999
 40
0.3595080031849217
 40
0.6321922512024241
 40
0.868886756566963
 40
1.0
 40
1.0
 40
1.0
 40
1.0
 10
9.999999999999993
 20
1.235777208062699
 30
0.0
 10
9.999999999999993
 20
1.238523062647428
 30
0.0
 10
9.999999999999995
 20
1.248968197980938
 30
0.0
 10
9.999999999999995
 20
1.20502941100948
 30
0.0
 10
9.999999999999993
 20
1.120555722209329
 30
0.0
 10
9.999999999999995
 20
1.017365356605811
 30
0.0
 10
9.999999999999995
 20
0.9367473291870924
 30
0.0
 10
9.999999999999995
 20
0.9080092422691389
 30
0.0
  0
SPLINE
  5
C0
330
1F
100
AcDbEntity
  8
0
  6
Continuous
 62
     1
370
    25
100
AcDbSpline
210
0.0
220
0.0
230
1.0
 70
     8
 71
     3
 72
    19
 73
    15
 74
     0
 42
0.000000001
 43
0.00000001
 40
0.0
 40
0.0
 40
0.0
 40
0.0
 40
0.0546468459393529
 40
0.1361872559483453
 40
0.217761798443417
 40
0.2996837001716197
 40
0.381060950763121
 40
0.4630611044452809
 40
0.5445267955324948
 40
0.6262058433794857
 40
0.7080339624616746
 40
0.8050965153939421
 40
0.9024913720444026
 40
1.0
 40
1.0
 40
1.0
 40
1.0
 10
14.50473974846969
 20
-1.247196973002332
 30
0.0
 10
14.4225252745664
 20
-1.297399224763529
 30
0.0
 10
14.21763579910515
 20
-1.422509956998159
 30
0.0
 10
13.89125417148893
 20
-1.540290673543946
 30
0.0
 10
13.52395458408926
 20
-1.59981516556785
 30
0.0
 10
13.15492219594619
 20
-1.571499888330286
 30
0.0
 10
12.78850954214697
 20
-1.458879873227529
 30
0.0
 10
12.41909363647445
 20
-1.269729259561875
 30
0.0
 10
12.05229488291813
 20
-1.010876420676895
 30
0.0
 10
11.68438316693949
 20
-0.6988694841782539
 30
0.0
 10
11.29254157490348
 20
-0.3277165273859587
 30
0.0
 10
10.87862689328277
 20
0.0899344158854801
 30
0.0
 10
10.43964254673039
 20
0.5278136423151477
 30
0.0
 10
10.14660453408393
 20
0.7812280669562865
 30
0.0
 10
10.00000000000006
 20
0.9080092422690782
 30
0.0
  0
SPLINE
  5
C1
330
1F
100
AcDbEntity
  8
0
  6
Continuous
 62
     1
370
    25
100
AcDbSpline
210
0.0
220
0.0
230
1.0
 70
     8
 71
     3
 72
    20
 73
    16
 74
     0
 42
0.000000001
 43
0.00000001
 40
0.0
 40
0.0
 40
0.0
 40
0.0
 40
0.0251759510713766
 40
0.1080694651826439
 40
0.1914850650094742
 40
0.2747583291143409
 40
0.357784346103448
 40
0.4413570282062287
 40
0.5241224991252269
 40
0.6078109634890184
 40
0.6905471577638804
 40
0.7741665253384847
 40
0.8571049341033724
 40
0.9404710681601035
 40
1.0
 40
1.0
 40
1.0
 40
1.0
 10
13.88212998112455
 20
-1.315615355724084
 30
0.0
 10
13.8542419400635
 20
-1.321637084544307
 30
0.0
 10
13.73453064598308
 20
-1.347485760974901
 30
0.0
 10
13.52388278907351
 20
-1.353024371599107
 30
0.0
 10
13.24744777808943
 20
-1.330161455828336
 30
0.0
 10
12.97139982010592
 20
-1.264447889217782
 30
0.0
 10
12.69602039571512
 20
-1.160682607042216
 30
0.0
 10
12.41921073797594
 20
-1.023359525208398
 30
0.0
 10
12.14457222299466
 20
-0.8525143255878825
 30
0.0
 10
11.86747715511083
 20
-0.6595927101834632
 30
0.0
 10
11.59292574806961
 20
-0.442640067597071
 30
0.0
 10
11.31599577439672
 20
-0.2162877326947511
 30
0.0
 10
11.04088408757782
 20
0.0195679572606511
 30
0.0
 10
10.79085179802701
 20
0.2319834826266489
 30
0.0
 10
10.63291349102104
 20
0.3600519373240516
 30
0.0
 10
10.567117666276
 20
0.4134042225319798
 30
0.0
  0
SPLINE
  5
C2
330
1F
100
AcDbEntity
  8
0
  6
Continuous
 62
     1
370
    25
100
AcDbSpline
210
0.0
220
0.0
230
1.0
 70
     8
 71
     3
 72
    20
 73
    16
 74
     0
 42
0.000000001
 43
0.00000001
 40
0.0
 40
0.0
 40
0.0
 40
0.0
 40
0.0822319262008504
 40
0.1641377594000187
 40
0.2466325832354741
 40
0.3284986674099835
 40
0.4108442409438156
 40
0.4929577074177264
 40
0.5749251828573997
 40
0.6573884795494859
 40
0.7392367681591276
 40
0.8216647590014875
 40
0.9036813447136235
 40
0.9857322622370637
 40
1.0
 40
1.0
 40
1.0
 40
1.0
 10
17.9375
 20
-1.505368701181747
 30
0.0
 10
17.81460232281089
 20
-1.458926161247313
 30
0.0
 10
17.5692943226065
 20
-1.366225250568594
 30
0.0
 10
17.20263922439501
 20
-1.130993456316609
 30
0.0
 10
16.83314822914851
 20
-0.8438290923101351
 30
0.0
 10
16.46667143361704
 20
-0.5064441114221994
 30
0.0
 10
16.09791507548719
 20
-0.1453669810388663
 30
0.0
 10
15.73028076031978
 20
0.224980537417588
 30
0.0
 10
15.36334096777303
 20
0.5842149502809257
 30
0.0
 10
14.9940092810337
 20
0.9097137660445206
 30
0.0
 10
14.6276113282793
 20
1.189449529986997
 30
0.0
 10
14.25845309316406
 20
1.404946373135435
 30
0.0
 10
13.89128296789862
 20
1.539262985078665
 30
0.0
 10
13.62548898669613
 20
1.597434784955164
 30
0.0
 10
13.48149694121616
 20
1.584401445033571
 30
0.0
 10
13.46016731676544
 20
1.582470808900584
 30
0.0
  0
SPLINE
  5
C3
330
1F
100
AcDbEntity
  8
0
  6
Continuous
 62
     1
370
    25
100
AcDbSpline
210
0.0
220
0.0
230
1.0
 70
     8
 71
     3
 72
    16
 73
    12
 74
     0
 42
0.000000001
 43
0.00000001
 40
0.0
 40
0.0
 40
0.0
 40
0.0
 40
0.1156798039719839
 40
0.2318517932893301
 40
0.3470733633281848
 40
0.4634831054505826
 40
0.5785676274540759
 40
0.6949581388723611
 40
0.8102278367622895
 40
0.9263423406161965
 40
0.9999999999999999
 40
0.9999999999999999
 40
0.9999999999999999
 40
0.9999999999999999
 10
17.9375
 20
-1.25141854096065
 30
0.0
 10
17.84572527483266
 20
-1.218642348490541
 30
0.0
 10
17.6617853486046
 20
-1.152950509980584
 30
0.0
 10
17.38514620900496
 20
-1.010723123619291
 30
0.0
 10
17.11035092155923
 20
-0.838398901246101
 30
0.0
 10
16.83329412279771
 20
-0.6435139349258623
 30
0.0
 10
16.55878780291037
 20
-0.4252374646553446
 30
0.0
 10
16.28176025871726
 20
-0.1983548532220154
 30
0.0
 10
16.00688534562126
 20
0.0380418079461102
 30
0.0
 10
15.76382574541998
 20
0.24380856614129
 30
0.0
 10
15.6131806361894
 20
0.3657265888815556
 30
0.0
 10
15.55470964679755
 20
0.4130475238308011
 30
0.0
  0
LINE
  5
C4
330
1F
100
AcDbEntity
  8
0
  6
Continuous
 62
     1
370
    25
100
AcDbLine
 10
17.9375
 20
-1.505368701181748
 30
0.0
 11
17.9375
 21
-1.25141854096065
 31
0.0
  0
SPLINE
  5
C5
330
1F
100
AcDbEntity
  8
0
  6
Continuous
 62
     1
370
    25
100
AcDbSpline
210
0.0
220
0.0
230
1.0
 70
     8
 71
     3
 72
    24
 73
    20
 74
     0
 42
0.000000001
 43
0.00000001
 40
0.0
 40
0.0
 40
0.0
 40
0.0
 40
0.0577104716882483
 40
0.116453951745637
 40
0.1755825785935806
 40
0.2342621021546719
 40
0.2933345354485158
 40
0.3521561793500029
 40
0.4109535209573759
 40
0.4700455505441615
 40
0.5287221149110829
 40
0.5878396086826505
 40
0.6466015312993578
 40
0.7054682746984371
 40
0.764501249824295
 40
0.8231905777988876
 40
0.8823306242376399
 40
0.9410484193127572
 40
1.0
 40
1.0
 40
1.0
 40
1.0
 10
11.69182543668848
 20
1.067196206811128
 30
0.0
 10
11.8120570121834
 20
1.151085562865477
 30
0.0
 10
12.05467228947006
 20
1.320365881257243
 30
0.0
 10
12.41898676480159
 20
1.490970579539382
 30
0.0
 10
12.78841634958612
 20
1.586404021481224
 30
0.0
 10
13.15483590422135
 20
1.596513831153789
 30
0.0
 10
13.52386717348523
 20
1.521725085304013
 30
0.0
 10
13.89120736685595
 20
1.365367727962699
 30
0.0
 10
14.25838659560421
 20
1.135514184647216
 30
0.0
 10
14.62755046809737
 20
0.8470971120732679
 30
0.0
 10
14.99395534959275
 20
0.5099993639495337
 30
0.0
 10
15.36329408491002
 20
0.1496033744234523
 30
0.0
 10
15.73024015035353
 20
-0.2217482915379014
 30
0.0
 10
16.0978817979977
 20
-0.5801458353949832
 30
0.0
 10
16.46664439034803
 20
-0.9062684128903414
 30
0.0
 10
16.83312804903701
 20
-1.186849251405798
 30
0.0
 10
17.20262577934451
 20
-1.399549582465469
 30
0.0
 10
17.56928755895928
 20
-1.545457415077484
 30
0.0
 10
17.81460005729556
 20
-1.571857214946605
 30
0.0
 10
17.9375
 20
-1.585083340453166
 30
0.0
  0
SPLINE
  5
C6
330
1F
100
AcDbEntity
  8
0
  6
Continuous
 62
     1
370
    25
100
AcDbSpline
210
0.0
220
0.0
230
1.0
 70
     8
 71
     3
 72
    16
 73
    12
 74
     0
 42
0.000000001
 43
0.00000001
 40
0.0
 40
0.0
 40
0.0
 40
0.0
 40
0.097301843028878
 40
0.2183643855144532
 40
0.3383697496218376
 40
0.4593713543994132
 40
0.5796663203335967
 40
0.7000197727657534
 40
0.8209742334320898
 40
0.9409867239642139
 40
1.0
 40
1.0
 40
1.0
 40
1.0
 10
15.66031695025371
 20
-0.1495714027874581
 30
0.0
 10
15.56147327305284
 20
-0.080375471989889
 30
0.0
 10
15.33964870979608
 20
0.0749137439011948
 30
0.0
 10
14.99433326116922
 20
0.3131969477746727
 30
0.0
 10
14.62722377131734
 20
0.5538101045020091
 30
0.0
 10
14.25864124563861
 20
0.7618806527010359
 30
0.0
 10
13.89120749790805
 20
0.9309982389821005
 30
0.0
 10
13.52369161603458
 20
1.050694197666062
 30
0.0
 10
13.15517922542323
 20
1.110905896742409
 30
0.0
 10
12.85103638460517
 20
1.121428705988716
 30
0.0
 10
12.66857261243861
 20
1.089792615847385
 30
0.0
 10
12.60842604717137
 20
1.079364232514669
 30
0.0
  0
SPLINE
  5
C7
330
1F
100
AcDbEntity
  8
0
  6
Continuous
 62
     1
370
    25
100
AcDbSpline
210
0.0
220
0.0
230
1.0
 70
     8
 71
     3
 72
    15
 73
    11
 74
     0
 42
0.000000001
 43
0.00000001
 40
0.0
 40
0.0
 40
0.0
 40
0.0
 40
0.1456610113317208
 40
0.2911516555827905
 40
0.4361459980968759
 40
0.5583969513181275
 40
0.6804239641533303
 40
0.8021331746558492
 40
0.9246403615765207
 40
1.0
 40
1.0
 40
1.0
 40
1.0
 10
10.0
 20
0.5128904753339757
 30
0.0
 10
10.14659134397621
 20
0.3706362111212046
 30
0.0
 10
10.43960257671838
 20
0.0862940651990001
 30
0.0
 10
10.87854597291483
 20
-0.3564588695513798
 30
0.0
 10
11.2924351848783
 20
-0.7487324984267566
 30
0.0
 10
11.68427065560469
 20
-1.069275459200885
 30
0.0
 10
12.05218478054749
 20
-1.314988832965706
 30
0.0
 10
12.41899995757383
 20
-1.48730598741794
 30
0.0
 10
12.74171804064615
 20
-1.579157107745793
 30
0.0
 10
12.93998185171381
 20
-1.577184007671548
 30
0.0
 10
13.01549268627909
 20
-1.576432531986273
 30
0.0
  0
SPLINE
  5
C8
330
1F
100
AcDbEntity
  8
0
  6
Continuous
 62
     1
370
    25
100
AcDbSpline
210
0.0
220
0.0
230
1.0
 70
     8
 71
     3
 72
    11
 73
     7
 74
     0
 42
0.000000001
 43
0.00000001
 40
0.0
 40
0.0
 40
0.0
 40
0.0
 40
0.1172525585974833
 40
0.4125180711947304
 40
0.7056754308087424
 40
1.0
 40
1.0
 40
1.0
 40
1.0
 10
16.68637677345689
 20
1.06677097608546
 30
0.0
 10
16.73514715135987
 20
1.104592204283401
 30
0.0
 10
16.90673114461873
 20
1.237654887887517
 30
0.0
 10
17.2026528923184
 20
1.39948394525086
 30
0.0
 10
17.5692807695565
 20
1.548162058056597
 30
0.0
 10
17.81459779116568
 20
1.574192245686801
 30
0.0
 10
17.9375
 20
1.587233197900953
 30
0.0
  0
SPLINE
  5
C9
330
1F
100
AcDbEntity
  8
0
  6
Continuous
 62
     1
370
    25
100
AcDbSpline
210
0.0
220
0.0
230
1.0
 70
    24
 71
     3
 72
    10
 73
     6
 74
     0
 42
0.000000001
 43
0.00000001
 40
0.0
 40
0.0
 40
0.0
 40
0.0
 40
0.5
 40
0.5
 40
1.0
 40
1.0
 40
1.0
 40
1.0
 10
17.9375
 20
1.112324928723894
 30
0.0
 10
17.9375
 20
1.179686136405504
 30
0.0
 10
17.9375
 20
1.257966098050443
 30
0.0
 10
17.9375
 20
1.422197246749253
 30
0.0
 10
17.9375
 20
1.507729008058732
 30
0.0
 10
17.9375
 20
1.587233197900954
 30
0.0
  0
LINE
  5
CA
330
1F
100
AcDbEntity
  8
0
  6
Continuous
 62
     1
370
    25
100
AcDbLine
 10
17.9375
 20
1.112324928723894
 30
0.0
 11
17.61166588267736
 21
1.086030506779578
 31
0.0
  0
SPLINE
  5
CB
330
1F
100
AcDbEntity
  8
0
  6
Continuous
 62
     1
370
    25
100
AcDbSpline
210
0.0
220
0.0
230
1.0
 70
     8
 71
     3
 72
    10
 73
     6
 74
     0
 42
0.000000001
 43
0.00000001
 40
0.0
 40
0.0
 40
0.0
 40
0.0
 40
0.1435988829462938
 40
0.6851254501398143
 40
1.0
 40
1.0
 40
1.0
 40
1.0
 10
10.67672125844995
 20
-0.1517691101397641
 30
0.0
 10
10.64427303420923
 20
-0.1297190007637958
 30
0.0
 10
10.48945912630807
 20
-0.0245155980500543
 30
0.0
 10
10.26472509005101
 20
0.1376537227617211
 30
0.0
 10
10.07116616175136
 20
0.2679115873822193
 30
0.0
 10
10.00000000000061
 20
0.3158037323962669
 30
0.0
  0
SPLINE
  5
CC
330
1F
100
AcDbEntity
  8
0
  6
Continuous
 62
     4
370
    25
100
AcDbSpline
210
0.0
220
0.0
230
1.0
 70
    24
 71
     3
 72
    10
 73
     6
 74
     0
 42
0.000000001
 43
0.00000001
 40
0.0
 40
0.0
 40
0.0
 40
0.0
 40
0.5
 40
0.5
 40
1.0
 40
1.0
 40
1.0
 40
1.0
 10
9.999999999999993
 20
0.512890475333982
 30
0.0
 10
9.999999999999993
 20
0.5098832941892181
 30
0.0
 10
9.999999999999995
 20
0.4902866964886418
 30
0.0
 10
9.999999999999995
 20
0.4212872740279147
 30
0.0
 10
9.999999999999993
 20
0.372180420414479
 30
0.0
 10
9.999999999999993
 20
0.3158037323966779
 30
0.0
  0
LINE
  5
CD
330
1F
100
AcDbEntity
  8
0
  6
Continuous
 62
     1
370
    25
100
AcDbLine
 10
17.9375
 20
-1.585083340453167
 30
0.0
 11
17.93749999999983
 21
-1.505368701181736
 31
0.0
  0
SPLINE
  5
CE
330
1F
100
AcDbEntity
  8
0
  6
Continuous
 62
     1
370
    25
100
AcDbSpline
210
0.0
220
0.0
230
1.0
 70
     8
 71
     3
 72
    12
 73
     8
 74
     0
 42
0.000000001
 43
0.00000001
 40
0.0
 40
0.0
 40
0.0
 40
0.0
 40
0.5
 40
0.5
 40
0.75
 40
0.75
 40
1.0
 40
1.0
 40
1.0
 40
1.0
 10
17.9375
 20
-0.423173248098167
 30
0.0
 10
17.73454653679714
 20
-0.2632034559432708
 30
0.0
 10
17.53511295590841
 20
-0.0945853034891372
 30
0.0
 10
17.24203199159473
 20
0.1732544745395194
 30
0.0
 10
17.14711744474993
 20
0.2635084606805738
 30
0.0
 10
16.96490485722586
 20
0.4450593238309364
 30
0.0
 10
16.87659531346577
 20
0.5374190875609491
 30
0.0
 10
16.79497520059068
 20
0.6285410601028895
 30
0.0
  0
LINE
  5
CF
330
1F
100
AcDbEntity
  8
0
  6
Continuous
 62
     1
370
    25
100
AcDbLine
 10
16.82568878093833
 20
0.6543128140475442
 30
0.0
 11
17.9375
 21
0.0010749287238942
 31
0.0
  0
LINE
  5
D0
330
1F
100
AcDbEntity
  8
0
  6
Continuous
 62
     1
370
    25
100
AcDbLine
 10
17.9375
 20
0.0010749287238942
 30
0.0
 11
17.9375
 21
-0.4231732480981671
 31
0.0
  0
SPLINE
  5
D1
330
1F
100
AcDbEntity
  8
0
  6
Continuous
 62
     1
370
    25
100
AcDbSpline
210
0.0
220
0.0
230
1.0
 70
     8
 71
     3
 72
    28
 73
    24
 74
     0
 42
0.000000001
 43
0.00000001
 40
0.0
 40
0.0
 40
0.0
 40
0.0
 40
0.0464897885226816
 40
0.094686746653973
 40
0.1428076304576412
 40
0.1911989219150374
 40
0.2391442781713005
 40
0.2876208928513095
 40
0.3355281676457925
 40
0.3839801791415922
 40
0.431987112953726
 40
0.4803048593351595
 40
0.5285376379757135
 40
0.5766236740908873
 40
0.6250346371273583
 40
0.6729655778879859
 40
0.7214455041829595
 40
0.7693589071323693
 40
0.8177978346642124
 40
0.8658313929169911
 40
0.9141198003189526
 40
0.9623860118912108
 40
1.0
 40
1.0
 40
1.0
 40
1.0
 10
15.9965364700112
 20
-1.192204497564071
 30
0.0
 10
15.9077361587579
 20
-1.213396488467912
 30
0.0
 10
15.72687466547893
 20
-1.256558669617139
 30
0.0
 10
15.45440146089944
 20
-1.274862657037142
 30
0.0
 10
15.17884606143272
 20
-1.257554950308593
 30
0.0
 10
14.90219236240644
 20
-1.202206966342542
 30
0.0
 10
14.62736359926053
 20
-1.109427531302705
 30
0.0
 10
14.35041339942287
 20
-0.9854184008474857
 30
0.0
 10
14.0757524933873
 20
-0.8287057653864348
 30
0.0
 10
13.79889167504979
 20
-0.6503251491070218
 30
0.0
 10
13.52378965043347
 20
-0.4492311195760127
 30
0.0
 10
13.2474101871037
 20
-0.2367080172149417
 30
0.0
 10
12.9713637082969
 20
-0.0163875700014723
 30
0.0
 10
12.69592476193726
 20
0.2055604874246888
 30
0.0
 10
12.41920965040766
 20
0.4187154286085802
 30
0.0
 10
12.14444309098723
 20
0.6228946173307175
 30
0.0
 10
11.86748123667527
 20
0.8043795897229755
 30
0.0
 10
11.59279340032568
 20
0.9653633042801195
 30
0.0
 10
11.31597721544233
 20
1.094300803824879
 30
0.0
 10
11.04076829908558
 20
1.192556375576767
 30
0.0
 10
10.76447333606745
 20
1.252757142453287
 30
0.0
 10
10.50832979696746
 20
1.278027841288127
 30
0.0
 10
10.3447169712545
 20
1.26502895557803
 30
0.0
 10
10.27305748625482
 20
1.259335676634303
 30
0.0
  0
SPLINE
  5
D2
330
1F
100
AcDbEntity
  8
0
  6
Continuous
 62
     4
370
    25
100
AcDbSpline
210
0.0
220
0.0
230
1.0
 70
    24
 71
     3
 72
    12
 73
     8
 74
     0
 42
0.000000001
 43
0.00000001
 40
0.0
 40
0.0
 40
0.0
 40
0.0
 40
0.0950910708092068
 40
0.3599199021495842
 40
0.6324287875396128
 40
0.8689710751993465
 40
1.0
 40
1.0
 40
1.0
 40
1.0
 10
9.999999999999993
 20
1.235737790981875
 30
0.0
 10
9.999999999999993
 20
1.238506298894386
 30
0.0
 10
9.999999999999993
 20
1.248985107140958
 30
0.0
 10
9.999999999999993
 20
1.205040017330192
 30
0.0
 10
9.999999999999993
 20
1.120553225269445
 30
0.0
 10
9.999999999999991
 20
1.017365649671477
 30
0.0
 10
9.999999999999993
 20
0.9367474062028748
 30
0.0
 10
9.999999999999993
 20
0.9080092422691398
 30
0.0
  0
SPLINE
  5
D3
330
1F
100
AcDbEntity
  8
0
  6
Continuous
 62
     1
370
    25
100
AcDbSpline
210
0.0
220
0.0
230
1.0
 70
     8
 71
     3
 72
    14
 73
    10
 74
     0
 42
0.000000001
 43
0.00000001
 40
0.0
 40
0.0
 40
0.0
 40
0.0
 40
0.0626569682350957
 40
0.226048110082537
 40
0.3913439903815433
 40
0.5550050811357077
 40
0.7198985632592259
 40
0.884288205590343
 40
0.9999999999999999
 40
0.9999999999999999
 40
0.9999999999999999
 40
0.9999999999999999
 10
16.93805112043799
 20
0.7485960116798855
 30
0.0
 10
16.90294611834268
 20
0.7708453436092855
 30
0.0
 10
16.77629748529176
 20
0.8511144593183154
 30
0.0
 10
16.55869557551109
 20
0.9764270100492056
 30
0.0
 10
16.28180615719742
 20
1.103024758477991
 30
0.0
 10
16.00680993485613
 20
1.198711682652933
 30
0.0
 10
15.73030747036244
 20
1.25578610094917
 30
0.0
 10
15.48155920750675
 20
1.278243016052525
 30
0.0
 10
15.32498078873155
 20
1.264353472749447
 30
0.0
 10
15.26029718691528
 20
1.258615608646247
 30
0.0
  0
SPLINE
  5
D4
330
1F
100
AcDbEntity
  8
0
  6
Continuous
 62
     1
370
    25
100
AcDbSpline
210
0.0
220
0.0
230
1.0
 70
     8
 71
     3
 72
    11
 73
     7
 74
     0
 42
0.000000001
 43
0.00000001
 40
0.0
 40
0.0
 40
0.0
 40
0.0
 40
0.2426419798632299
 40
0.5163991417831072
 40
0.7889539345496512
 40
1.0
 40
1.0
 40
1.0
 40
1.0
 10
11.00947385336837
 20
-1.190925128820448
 30
0.0
 10
10.92781729658089
 20
-1.211213428409201
 30
0.0
 10
10.75403295856243
 20
-1.254391696661777
 30
0.0
 10
10.48831814777798
 20
-1.274134684245346
 30
0.0
 10
10.23428504008624
 20
-1.262746267090848
 30
0.0
 10
10.071179953757
 20
-1.23084609518796
 30
0.0
 10
9.999999999999993
 20
-1.216924685304368
 30
0.0
  0
SPLINE
  5
D5
330
1F
100
AcDbEntity
  8
0
  6
Continuous
 62
     1
370
    25
100
AcDbSpline
210
0.0
220
0.0
230
1.0
 70
    24
 71
     3
 72
     8
 73
     4
 74
     0
 42
0.000000001
 43
0.00000001
 40
0.0
 40
0.0
 40
0.0
 40
0.0
 40
0.0001939781448141
 40
0.0001939781448141
 40
0.0001939781448141
 40
0.0001939781448141
 10
16.93805112043796
 20
0.7485960116799033
 30
0.0
 10
16.8903739726011
 20
0.7085901345144116
 30
0.0
 10
16.84267816555976
 20
0.6685686004159326
 30
0.0
 10
16.79497520058541
 20
0.6285410600998866
 30
0.0
  0
SPLINE
  5
D6
330
1F
100
AcDbEntity
  8
0
  6
Continuous
 62
     1
370
    25
100
AcDbSpline
210
0.0
220
0.0
230
1.0
 70
    24
 71
     3
 72
    10
 73
     6
 74
     0
 42
0.000000001
 43
0.00000001
 40
0.0
 40
0.0
 40
0.0
 40
0.0
 40
0.5
 40
0.5
 40
1.0
 40
1.0
 40
1.0
 40
1.0
 10
17.9375
 20
-1.251418540960649
 30
0.0
 10
17.9375
 20
-1.155405151319646
 30
0.0
 10
17.9375
 20
-1.034088551977625
 30
0.0
 10
17.9375
 20
-0.7520391339278103
 30
0.0
 10
17.9375
 20
-0.5915506371200603
 30
0.0
 10
17.9375
 20
-0.4231732480982179
 30
0.0
  0
SPLINE
  5
D7
330
1F
100
AcDbEntity
  8
0
  6
Continuous
 62
     1
370
    25
100
AcDbSpline
210
0.0
220
0.0
230
1.0
 70
    24
 71
     3
 72
     8
 73
     4
 74
     0
 42
0.000000001
 43
0.00000001
 40
0.0
 40
0.0
 40
0.0
 40
0.0
 40
1.0
 40
1.0
 40
1.0
 40
1.0
 10
17.10676406931976
 20
0.8901629848614071
 30
0.0
 10
17.05600408245107
 20
0.8475702986013284
 30
0.0
 10
16.99924453059848
 20
0.7999433795760678
 30
0.0
 10
16.93805112043797
 20
0.7485960116799021
 30
0.0
  0
SPLINE
  5
D8
330
1F
100
AcDbEntity
  8
0
  6
Continuous
 62
     1
370
    25
100
AcDbSpline
210
0.0
220
0.0
230
1.0
 70
     8
 71
     3
 72
     8
 73
     4
 74
     0
 42
0.000000001
 43
0.00000001
 40
0.0
 40
0.0
 40
0.0
 40
0.0
 40
1.0
 40
1.0
 40
1.0
 40
1.0
 10
17.9375
 20
1.112324928723894
 30
0.0
 10
17.66365209215684
 20
1.019943509369358
 30
0.0
 10
17.38630807512891
 20
0.9450924602113663
 30
0.0
 10
17.10676406931962
 20
0.8901629848615014
 30
0.0
  0
SPLINE
  5
D9
330
1F
100
AcDbEntity
  8
0
  6
Continuous
 62
     4
370
    25
100
AcDbSpline
210
0.0
220
0.0
230
1.0
 70
    24
 71
     3
 72
    10
 73
     6
 74
     0
 42
0.000000001
 43
0.00000001
 40
0.0
 40
0.0
 40
0.0
 40
0.0
 40
0.5
 40
0.5
 40
1.0
 40
1.0
 40
1.0
 40
1.0
 10
9.999999999999993
 20
0.3158037323966779
 30
0.0
 10
9.999999999999993
 20
0.0352889537476261
 30
0.0
 10
9.999999999999993
 20
-0.2691013561125349
 30
0.0
 10
9.999999999999993
 20
-0.813921416286972
 30
0.0
 10
9.999999999999993
 20
-1.050129853782801
 30
0.0
 10
9.999999999999993
 20
-1.216924685304368
 30
0.0
  0
LINE
  5
DA
330
1F
100
AcDbEntity
  8
0
  6
Continuous
 62
     1
370
    25
100
AcDbLine
 10
17.9375
 20
0.0010749287238942
 30
0.0
 11
17.9375
 21
1.112324928723894
 31
0.0
  0
LINE
  5
DB
330
1F
100
AcDbEntity
  8
중심선
100
AcDbLine
 10
-29.51249999999999
 20
0.0010749287238931
 30
0.0
 11
33.25935371504374
 21
0.0010749287238931
 31
0.0
  0
CIRCLE
  5
DC
330
1F
100
AcDbEntity
  8
외형선
100
AcDbCircle
 10
0.0000000000000069
 20
0.0
 30
0.0
 40
3.000000000000004
  0
INSERT
  5
DD
330
1F
100
AcDbEntity
  8
0
  6
Continuous
 62
     7
100
AcDbBlockReference
 66
     1
  2
블럭10
 10
-16.6381869743017
 20
-52.04609937292004
 30
0.0
  0
ATTRIB
  5
DE
330
DD
100
AcDbEntity
  8
FORMAT
 62
     2
100
AcDbText
 10
-25.81948226304298
 20
-49.97073246008785
 30
0.0
 40
4.233333333333333
  1
E5254008 [ 2 FLUTE ]
 41
0.75
  7
SLDTEXTSTYLE0
 11
-25.81948226304298
 21
-52.08739912675452
 31
0.0
100
AcDbAttribute
  2
AUTOATTR0
 70
     0
 74
     1
  0
SEQEND
  5
DF
330
DD
100
AcDbEntity
  8
0
  6
Continuous
 62
     7
  0
HATCH
  5
E0
330
1F
100
AcDbEntity
  8
중심선
100
AcDbHatch
 10
0.0
 20
0.0
 30
0.0
210
0.0
220
0.0
230
1.0
  2
SOLID
 70
     1
 71
     0
 91
        1
 92
        0
 93
        4
 72
     1
 10
-10.92327766992085
 20
-35.7989250712761
 11
-14.36955291375813
 21
-35.7989250712761
 72
     1
 10
-14.36955291375813
 20
-35.7989250712761
 11
-16.49778277296215
 21
-38.3352506518487
 72
     1
 10
-16.49778277296215
 20
-38.3352506518487
 11
-13.05147444401172
 21
-38.33521122254621
 72
     1
 10
-13.05147444401172
 20
-38.33521122254621
 11
-10.92327766992085
 21
-35.7989250712761
 97
        0
 75
     0
 76
     1
 98
        1
 10
0.0
 20
0.0
  0
HATCH
  5
E1
330
1F
100
AcDbEntity
  8
중심선
100
AcDbHatch
 10
0.0
 20
0.0
 30
0.0
210
0.0
220
0.0
230
1.0
  2
SOLID
 70
     1
 71
     0
 91
        1
 92
        0
 93
        4
 72
     1
 10
-5.910513678884898
 20
-35.7989250712761
 11
-9.356788922722181
 21
-35.7989250712761
 72
     1
 10
-9.356788922722181
 20
-35.7989250712761
 11
-13.88792693107957
 21
-41.19892507127612
 72
     1
 10
-13.88792693107957
 20
-41.19892507127612
 11
-10.44165168724229
 21
-41.19892507127612
 72
     1
 10
-10.44165168724229
 20
-41.19892507127612
 11
-5.910513678884898
 21
-35.7989250712761
 97
        0
 75
     0
 76
     1
 98
        1
 10
0.0
 20
0.0
  0
HATCH
  5
E2
330
1F
100
AcDbEntity
  8
중심선
100
AcDbHatch
 10
0.0
 20
0.0
 30
0.0
210
0.0
220
0.0
230
1.0
  2
SOLID
 70
     1
 71
     0
 91
        1
 92
        0
 93
        4
 72
     1
 10
-0.8977496878490032
 20
-35.79892507127613
 11
-4.344024931686119
 21
-35.7989250712761
 72
     1
 10
-4.344024931686119
 20
-35.7989250712761
 11
-11.39246183357537
 21
-44.19892507127612
 72
     1
 10
-11.39246183357537
 20
-44.19892507127612
 11
-7.946186589738086
 21
-44.19892507127612
 72
     1
 10
-7.946186589738086
 20
-44.19892507127612
 11
-0.8977496878490028
 21
-35.79892507127613
 97
        0
 75
     0
 76
     1
 98
        1
 10
0.0
 20
0.0
  0
HATCH
  5
E3
330
1F
100
AcDbEntity
  8
중심선
100
AcDbHatch
 10
0.0
 20
0.0
 30
0.0
210
0.0
220
0.0
230
1.0
  2
SOLID
 70
     1
 71
     0
 91
        1
 92
        0
 93
        6
 72
     3
 10
3.902140743163196
 20
-39.99892507132738
 11
3.960054785062284
 21
1.540850780301639E-10
 40
0.3939339440162633
 50
17.09539180608433
 51
320.0019657685079
 73
     0
 72
     1
 10
5.585140398863792
 20
-38.58681907591441
 11
7.89044227256483
 21
-36.65249236586649
 72
     3
 10
3.902140743110349
 20
-39.99892507127625
 11
6.600054785286829
 21
-1.249000902703301E-13
 40
0.6363583540795982
 50
39.99873849337408
 51
368.4976242363724
 73
     1
 72
     1
 10
10.32747323501096
 20
-39.03892507120613
 11
2.582208049946273
 21
-39.0389250712061
 72
     1
 10
2.582208049946272
 20
-39.0389250712061
 11
2.582183005500338
 21
-40.95892507120602
 72
     1
 10
2.582183005500338
 20
-40.95892507120602
 11
7.023562774972376
 21
-40.95892507120599
 97
        0
 75
     0
 76
     1
 98
        1
 10
0.0
 20
0.0
  0
DIMENSION
  5
E4
330
1F
100
AcDbEntity
  8
치수문자_일반주서
100
AcDbDimension
  2
_D
 10
-26.51250000000002
 20
37.17741665954689
 30
0.0
 11
-4.28750000000001
 21
37.17741665954689
 31
0.0
 70
   160
  1
<>
 71
     2
 42
44.45
  3
SLDDIMSTYLE0
100
AcDbAlignedDimension
 13
17.9375
 23
1.587233197900954
 33
0.0
 14
-26.51250000000001
 24
2.366074928723888
 34
0.0
100
AcDbRotatedDimension
1001
ACAD
1000
DSTYLE
1002
{
1070
   171
1070
     6
1070
   273
1070
     7
1002
}
  0
DIMENSION
  5
F8
330
1F
100
AcDbEntity
  8
치수문자_일반주서
100
AcDbDimension
  2
_D_1
 10
-39.51249999999999
 20
-3.173925071276166
 30
0.0
 11
-39.5125
 21
0.001074928723878
 31
0.0
 70
   160
  1
%%c<>
 71
     2
 42
6.349999999999994
  3
SLDDIMSTYLE1
100
AcDbAlignedDimension
 13
-25.7025
 23
3.176074928723876
 33
0.0
 14
-25.7025
 24
-3.173925071276118
 34
0.0
 50
90.0000000000002
100
AcDbRotatedDimension
1001
ACAD
1000
DSTYLE
1002
{
1070
   171
1070
     6
1070
   273
1070
     7
1002
}
  0
DIMENSION
  5
10D
330
1F
100
AcDbEntity
  8
치수문자_일반주서
100
AcDbDimension
  2
_D_2
 10
9.999999999999993
 20
21.82385071140146
 30
0.0
 11
13.96874999999999
 21
21.82385071140146
 31
0.0
 70
   160
  1
<>
 71
     2
 42
7.937500000000004
  3
SLDDIMSTYLE1
100
AcDbAlignedDimension
 13
17.9375
 23
1.587233197900954
 33
0.0
 14
9.999999999999993
 24
1.244637265864879
 34
0.0
100
AcDbRotatedDimension
1001
ACAD
1000
DSTYLE
1002
{
1070
   171
1070
     6
1070
   273
1070
     7
1002
}
  0
DIMENSION
  5
122
330
1F
100
AcDbEntity
  8
치수문자_일반주서
100
AcDbDimension
  2
_D_3
 10
38.14685371504376
 20
-1.57687414282427
 30
0.0
 11
38.14685371504366
 21
20.44254247477044
 31
0.0
 70
   160
  1
%%c<>
 71
     2
 42
3.165416617594714
  3
SLDDIMSTYLE1
100
AcDbAlignedDimension
 13
13.01585059483432
 23
1.588542474770354
 33
0.0
 14
12.94292411220461
 24
-1.57687414282436
 34
0.0
 50
90.0000000000002
100
AcDbRotatedDimension
1001
ACAD
1000
DSTYLE
1002
{
1070
   171
1070
     6
1070
   273
1070
     7
1002
}
  0
INSERT
  5
13C
330
1F
100
AcDbEntity
  8
외형선
100
AcDbBlockReference
  2
SW_DOWELSYMBOL_0
 10
0.0000000000000069
 20
0.0
 30
0.0
  0
ARC
  5
185
330
1F
100
AcDbEntity
  8
0
  6
Continuous
 62
     4
370
    25
100
AcDbCircle
 10
8.999999999999993
 20
14.28857492872389
 30
0.0
 40
12.7
100
AcDbArc
 50
241.0449756281402
 51
270.0
1001
PE_URL
1000

  0
ARC
  5
187
330
1F
100
AcDbEntity
  8
0
  6
Continuous
 62
     4
370
    25
100
AcDbCircle
 10
8.999999999999982
 20
-14.28642507127611
 30
0.0
 40
12.7
100
AcDbArc
 50
89.99999999999996
 51
118.9550243718598
1001
PE_URL
1000

  0
ENDSEC
  0
SECTION
  2
OBJECTS
  0
DICTIONARY
  5
C
330
0
100
AcDbDictionary
281
     1
  3
ACAD_DETAILVIEWSTYLE
350
33B
  3
ACAD_GROUP
350
D
  3
ACAD_IMAGE_VARS
350
160
  3
ACAD_LAYOUT
350
1A
  3
ACAD_MLINESTYLE
350
17
  3
ACAD_PLOTSETTINGS
350
19
  3
ACAD_PLOTSTYLENAME
350
E
  3
ACAD_SCALELIST
350
47
  3
ACAD_SECTIONVIEWSTYLE
350
33C
  3
AcDbVariableDictionary
350
336
  3
APPDATA
350
15E
  3
DWGPROPS
350
4A7
  0
DICTIONARY
  5
188
330
1F
100
AcDbDictionary
280
     1
281
     1
  3
DIM_BOUNDING_BOXES_V1
360
189
  0
DICTIONARY
  5
33B
102
{ACAD_REACTORS
330
C
102
}
330
C
100
AcDbDictionary
281
     1
  0
DICTIONARY
  5
D
102
{ACAD_REACTORS
330
C
102
}
330
C
100
AcDbDictionary
281
     1
  0
RASTERVARIABLES
  5
160
102
{ACAD_REACTORS
330
C
102
}
330
C
100
AcDbRasterVariables
 90
        0
 70
     1
 71
     1
 72
     1
  0
DICTIONARY
  5
1A
102
{ACAD_REACTORS
330
C
102
}
330
C
100
AcDbDictionary
281
     1
  3
Layout1
350
1E
  3
Layout2
350
26
  3
Model
350
22
  0
DICTIONARY
  5
17
102
{ACAD_REACTORS
330
C
102
}
330
C
100
AcDbDictionary
281
     1
  3
Standard
350
18
  0
DICTIONARY
  5
19
102
{ACAD_REACTORS
330
C
102
}
330
C
100
AcDbDictionary
281
     1
  0
ACDBDICTIONARYWDFLT
  5
E
102
{ACAD_REACTORS
330
C
102
}
330
C
100
AcDbDictionary
281
     1
  3
Normal
350
F
100
AcDbDictionaryWithDefault
340
F
  0
DICTIONARY
  5
47
102
{ACAD_REACTORS
330
C
102
}
330
C
100
AcDbDictionary
281
     1
  3
A0
350
48
  3
A1
350
49
  3
A2
350
4A
  3
A3
350
4B
  3
A4
350
4C
  3
A5
350
4D
  3
A6
350
4E
  3
A7
350
4F
  3
A8
350
50
  3
A9
350
51
  3
B0
350
52
  3
B1
350
53
  3
B2
350
54
  3
B3
350
55
  3
B4
350
56
  3
B5
350
57
  3
B6
350
58
  3
B7
350
59
  3
B8
350
5A
  3
B9
350
5B
  3
C0
350
5C
  3
C1
350
5D
  3
C2
350
5E
  3
C3
350
5F
  3
C4
350
60
  3
C5
350
61
  3
C6
350
62
  3
C7
350
63
  3
C8
350
64
  3
C9
350
65
  3
D0
350
66
  3
D1
350
67
  3
D2
350
68
  0
DICTIONARY
  5
33C
102
{ACAD_REACTORS
330
C
102
}
330
C
100
AcDbDictionary
281
     1
  0
DICTIONARY
  5
336
102
{ACAD_REACTORS
330
C
102
}
330
C
100
AcDbDictionary
281
     1
  0
DICTIONARY
  5
15E
102
{ACAD_REACTORS
330
C
102
}
330
C
100
AcDbDictionary
281
     1
  0
XRECORD
  5
4A7
102
{ACAD_REACTORS
330
C
102
}
330
C
100
AcDbXrecord
280
     1
  1
DWGPROPS COOKIE
  2

  3

  4

  6

  7

  8
12016016
  9

300
=
301
=
302
=
303
=
304
=
305
=
306
=
307
=
308
=
309
=
 40
0.0
 41
2458263.245755243
 42
2460027.078771493
  1

 90
        0
  0
DICTIONARY
  5
189
102
{ACAD_REACTORS
330
188
102
}
330
188
100
AcDbDictionary
281
     1
  0
LAYOUT
  5
1E
102
{ACAD_REACTORS
330
1A
102
}
330
1A
100
AcDbPlotSettings
  1

  2
none_device
  4

  6

 40
0.0
 41
0.0
 42
0.0
 43
0.0
 44
0.0
 45
0.0
 46
0.0
 47
0.0
 48
0.0
 49
0.0
140
0.0
141
0.0
142
1.0
143
1.0
 70
   688
 72
     1
 73
     0
 74
     5
  7

 75
    16
147
1.0
148
0.0
149
0.0
100
AcDbLayout
  1
Layout1
 70
     1
 71
     1
 10
0.0
 20
0.0
 11
420.0
 21
297.0
 12
0.0
 22
0.0
 32
0.0
 14
1.000000000000000E+20
 24
1.000000000000000E+20
 34
1.000000000000000E+20
 15
-1.000000000000000E+20
 25
-1.000000000000000E+20
 35
-1.000000000000000E+20
146
0.0
 13
0.0
 23
0.0
 33
0.0
 16
1.0
 26
0.0
 36
0.0
 17
0.0
 27
1.0
 37
0.0
 76
     0
330
1B
  0
LAYOUT
  5
26
102
{ACAD_REACTORS
330
1A
102
}
330
1A
100
AcDbPlotSettings
  1

  2
none_device
  4

  6

 40
0.0
 41
0.0
 42
0.0
 43
0.0
 44
0.0
 45
0.0
 46
0.0
 47
0.0
 48
0.0
 49
0.0
140
0.0
141
0.0
142
1.0
143
1.0
 70
   688
 72
     1
 73
     0
 74
     5
  7

 75
    16
147
1.0
148
0.0
149
0.0
100
AcDbLayout
  1
Layout2
 70
     1
 71
     2
 10
0.0
 20
0.0
 11
0.0
 21
0.0
 12
0.0
 22
0.0
 32
0.0
 14
0.0
 24
0.0
 34
0.0
 15
0.0
 25
0.0
 35
0.0
146
0.0
 13
0.0
 23
0.0
 33
0.0
 16
1.0
 26
0.0
 36
0.0
 17
0.0
 27
1.0
 37
0.0
 76
     0
330
23
  0
LAYOUT
  5
22
102
{ACAD_REACTORS
330
1A
102
}
330
1A
100
AcDbPlotSettings
  1

  2
none_device
  4
ANSI_A_(11.00_x_8.50_Inches)
  6

 40
6.35
 41
19.05
 42
6.35000508
 43
19.05000254
 44
279.4
 45
215.9
 46
145.4340782031347
 47
91.87203491990086
 48
0.0
 49
0.0
140
0.0
141
0.0
142
0.0852713207901685
143
1.0
 70
  1696
 72
     0
 73
     0
 74
     0
  7

 75
     0
147
0.0235690232323232
148
0.0
149
0.0
100
AcDbLayout
  1
Model
 70
     1
 71
     0
 10
0.0
 20
0.0
 11
420.0
 21
297.0
 12
0.0
 22
0.0
 32
0.0
 14
-43.88750000000004
 24
-49.97073246008785
 34
0.0
 15
38.6971870483771
 25
41.55241665954688
 35
0.0
146
0.0
 13
0.0
 23
0.0
 33
0.0
 16
1.0
 26
0.0
 36
0.0
 17
0.0
 27
1.0
 37
0.0
 76
     0
330
1F
331
29
  0
MLINESTYLE
  5
18
102
{ACAD_REACTORS
330
17
102
}
330
17
100
AcDbMlineStyle
  2
Standard
 70
     0
  3

 62
   256
 51
90.0
 52
90.0
 71
     2
 49
0.5
 62
   256
  6
BYLAYER
 49
-0.5
 62
   256
  6
BYLAYER
  0
ACDBPLACEHOLDER
  5
F
102
{ACAD_REACTORS
330
E
102
}
330
E
  0
SCALE
  5
48
102
{ACAD_REACTORS
330
47
102
}
330
47
100
AcDbScale
 70
     0
300
1:1
140
1.0
141
1.0
290
     1
  0
SCALE
  5
49
102
{ACAD_REACTORS
330
47
102
}
330
47
100
AcDbScale
 70
     0
300
1:2
140
1.0
141
2.0
290
     0
  0
SCALE
  5
4A
102
{ACAD_REACTORS
330
47
102
}
330
47
100
AcDbScale
 70
     0
300
1:4
140
1.0
141
4.0
290
     0
  0
SCALE
  5
4B
102
{ACAD_REACTORS
330
47
102
}
330
47
100
AcDbScale
 70
     0
300
1:5
140
1.0
141
5.0
290
     0
  0
SCALE
  5
4C
102
{ACAD_REACTORS
330
47
102
}
330
47
100
AcDbScale
 70
     0
300
1:8
140
1.0
141
8.0
290
     0
  0
SCALE
  5
4D
102
{ACAD_REACTORS
330
47
102
}
330
47
100
AcDbScale
 70
     0
300
1:10
140
1.0
141
10.0
290
     0
  0
SCALE
  5
4E
102
{ACAD_REACTORS
330
47
102
}
330
47
100
AcDbScale
 70
     0
300
1:16
140
1.0
141
16.0
290
     0
  0
SCALE
  5
4F
102
{ACAD_REACTORS
330
47
102
}
330
47
100
AcDbScale
 70
     0
300
1:20
140
1.0
141
20.0
290
     0
  0
SCALE
  5
50
102
{ACAD_REACTORS
330
47
102
}
330
47
100
AcDbScale
 70
     0
300
1:30
140
1.0
141
30.0
290
     0
  0
SCALE
  5
51
102
{ACAD_REACTORS
330
47
102
}
330
47
100
AcDbScale
 70
     0
300
1:40
140
1.0
141
40.0
290
     0
  0
SCALE
  5
52
102
{ACAD_REACTORS
330
47
102
}
330
47
100
AcDbScale
 70
     0
300
1:50
140
1.0
141
50.0
290
     0
  0
SCALE
  5
53
102
{ACAD_REACTORS
330
47
102
}
330
47
100
AcDbScale
 70
     0
300
1:100
140
1.0
141
100.0
290
     0
  0
SCALE
  5
54
102
{ACAD_REACTORS
330
47
102
}
330
47
100
AcDbScale
 70
     0
300
2:1
140
2.0
141
1.0
290
     0
  0
SCALE
  5
55
102
{ACAD_REACTORS
330
47
102
}
330
47
100
AcDbScale
 70
     0
300
4:1
140
4.0
141
1.0
290
     0
  0
SCALE
  5
56
102
{ACAD_REACTORS
330
47
102
}
330
47
100
AcDbScale
 70
     0
300
8:1
140
8.0
141
1.0
290
     0
  0
SCALE
  5
57
102
{ACAD_REACTORS
330
47
102
}
330
47
100
AcDbScale
 70
     0
300
10:1
140
10.0
141
1.0
290
     0
  0
SCALE
  5
58
102
{ACAD_REACTORS
330
47
102
}
330
47
100
AcDbScale
 70
     0
300
100:1
140
100.0
141
1.0
290
     0
  0
SCALE
  5
59
102
{ACAD_REACTORS
330
47
102
}
330
47
100
AcDbScale
 70
     0
300
1/128" = 1'-0"
140
0.0078125
141
12.0
290
     0
  0
SCALE
  5
5A
102
{ACAD_REACTORS
330
47
102
}
330
47
100
AcDbScale
 70
     0
300
1/64" = 1'-0"
140
0.015625
141
12.0
290
     0
  0
SCALE
  5
5B
102
{ACAD_REACTORS
330
47
102
}
330
47
100
AcDbScale
 70
     0
300
1/32" = 1'-0"
140
0.03125
141
12.0
290
     0
  0
SCALE
  5
5C
102
{ACAD_REACTORS
330
47
102
}
330
47
100
AcDbScale
 70
     0
300
1/16" = 1'-0"
140
0.0625
141
12.0
290
     0
  0
SCALE
  5
5D
102
{ACAD_REACTORS
330
47
102
}
330
47
100
AcDbScale
 70
     0
300
3/32" = 1'-0"
140
0.09375
141
12.0
290
     0
  0
SCALE
  5
5E
102
{ACAD_REACTORS
330
47
102
}
330
47
100
AcDbScale
 70
     0
300
1/8" = 1'-0"
140
0.125
141
12.0
290
     0
  0
SCALE
  5
5F
102
{ACAD_REACTORS
330
47
102
}
330
47
100
AcDbScale
 70
     0
300
3/16" = 1'-0"
140
0.1875
141
12.0
290
     0
  0
SCALE
  5
60
102
{ACAD_REACTORS
330
47
102
}
330
47
100
AcDbScale
 70
     0
300
1/4" = 1'-0"
140
0.25
141
12.0
290
     0
  0
SCALE
  5
61
102
{ACAD_REACTORS
330
47
102
}
330
47
100
AcDbScale
 70
     0
300
3/8" = 1'-0"
140
0.375
141
12.0
290
     0
  0
SCALE
  5
62
102
{ACAD_REACTORS
330
47
102
}
330
47
100
AcDbScale
 70
     0
300
1/2" = 1'-0"
140
0.5
141
12.0
290
     0
  0
SCALE
  5
63
102
{ACAD_REACTORS
330
47
102
}
330
47
100
AcDbScale
 70
     0
300
3/4" = 1'-0"
140
0.75
141
12.0
290
     0
  0
SCALE
  5
64
102
{ACAD_REACTORS
330
47
102
}
330
47
100
AcDbScale
 70
     0
300
1" = 1'-0"
140
1.0
141
12.0
290
     0
  0
SCALE
  5
65
102
{ACAD_REACTORS
330
47
102
}
330
47
100
AcDbScale
 70
     0
300
1-1/2" = 1'-0"
140
1.5
141
12.0
290
     0
  0
SCALE
  5
66
102
{ACAD_REACTORS
330
47
102
}
330
47
100
AcDbScale
 70
     0
300
3" = 1'-0"
140
3.0
141
12.0
290
     0
  0
SCALE
  5
67
102
{ACAD_REACTORS
330
47
102
}
330
47
100
AcDbScale
 70
     0
300
6" = 1'-0"
140
6.0
141
12.0
290
     0
  0
SCALE
  5
68
102
{ACAD_REACTORS
330
47
102
}
330
47
100
AcDbScale
 70
     0
300
1'-0" = 1'-0"
140
12.0
141
12.0
290
     0
  0
ENDSEC
  0
EOF
