  0
SECTION
  2
HEADER
  9
$ACADVER
  1
AC1015
  9
$ACADMAINTVER
 70
     6
  9
$DWGCODEPAGE
  3
ANSI_949
  9
$INSBASE
 10
0.0
 20
0.0
 30
0.0
  9
$EXTMIN
 10
-47.06250000000006
 20
-49.97073246008785
 30
0.0
  9
$EXTMAX
 10
41.87218704837711
 20
42.34549579413542
 30
0.0
  9
$LIMMIN
 10
0.0
 20
0.0
  9
$LIMMAX
 10
420.0
 20
297.0
  9
$ORTHOMODE
 70
     0
  9
$REGENMODE
 70
     1
  9
$FILLMODE
 70
     1
  9
$QTEXTMODE
 70
     0
  9
$MIRRTEXT
 70
     1
  9
$LTSCALE
 40
1.0
  9
$ATTMODE
 70
     1
  9
$TEXTSIZE
 40
3.5
  9
$TRACEWID
 40
1.0
  9
$TEXTSTYLE
  7
Standard
  9
$CLAYER
  8
0
  9
$CELTYPE
  6
ByLayer
  9
$CECOLOR
 62
   256
  9
$CELTSCALE
 40
1.0
  9
$DISPSILH
 70
     0
  9
$DIMSCALE
 40
1.0
  9
$DIMASZ
 40
3.302
  9
$DIMEXO
 40
1.0
  9
$DIMDLI
 40
3.75
  9
$DIMRND
 40
0.0
  9
$DIMDLE
 40
0.0
  9
$DIMEXE
 40
1.0
  9
$DIMTP
 40
0.0
  9
$DIMTM
 40
0.0
  9
$DIMTXT
 40
3.5
  9
$DIMCEN
 40
2.5
  9
$DIMTSZ
 40
0.0
  9
$DIMTOL
 70
     0
  9
$DIMLIM
 70
     0
  9
$DIMTIH
 70
     1
  9
$DIMTOH
 70
     1
  9
$DIMSE1
 70
     0
  9
$DIMSE2
 70
     0
  9
$DIMTAD
 70
     1
  9
$DIMZIN
 70
     0
  9
$DIMBLK
  1

  9
$DIMASO
 70
     1
  9
$DIMSHO
 70
     1
  9
$DIMPOST
  1

  9
$DIMAPOST
  1

  9
$DIMALT
 70
     0
  9
$DIMALTD
 70
     3
  9
$DIMALTF
 40
0.0393700787401575
  9
$DIMLFAC
 40
1.0
  9
$DIMTOFL
 70
     1
  9
$DIMTVP
 40
0.0
  9
$DIMTIX
 70
     0
  9
$DIMSOXD
 70
     0
  9
$DIMSAH
 70
     0
  9
$DIMBLK1
  1

  9
$DIMBLK2
  1

  9
$DIMSTYLE
  2
ISO-25
  9
$DIMCLRD
 70
     0
  9
$DIMCLRE
 70
     0
  9
$DIMCLRT
 70
     0
  9
$DIMTFAC
 40
1.0
  9
$DIMGAP
 40
1.524
  9
$DIMJUST
 70
     0
  9
$DIMSD1
 70
     0
  9
$DIMSD2
 70
     0
  9
$DIMTOLJ
 70
     0
  9
$DIMTZIN
 70
     0
  9
$DIMALTZ
 70
     0
  9
$DIMALTTZ
 70
     0
  9
$DIMUPT
 70
     0
  9
$DIMDEC
 70
     2
  9
$DIMTDEC
 70
     2
  9
$DIMALTU
 70
     2
  9
$DIMALTTD
 70
     3
  9
$DIMTXSTY
  7
Standard
  9
$DIMAUNIT
 70
     0
  9
$DIMADEC
 70
     2
  9
$DIMALTRND
 40
0.0
  9
$DIMAZIN
 70
     0
  9
$DIMDSEP
 70
    44
  9
$DIMATFIT
 70
     3
  9
$DIMFRAC
 70
     0
  9
$DIMLDRBLK
  1

  9
$DIMLUNIT
 70
     2
  9
$DIMLWD
 70
    -2
  9
$DIMLWE
 70
    -2
  9
$DIMTMOVE
 70
     0
  9
$LUNITS
 70
     2
  9
$LUPREC
 70
     2
  9
$SKETCHINC
 40
1.0
  9
$FILLETRAD
 40
10.0
  9
$AUNITS
 70
     0
  9
$AUPREC
 70
     2
  9
$MENU
  1
.
  9
$ELEVATION
 40
0.0
  9
$PELEVATION
 40
0.0
  9
$THICKNESS
 40
0.0
  9
$LIMCHECK
 70
     0
  9
$CHAMFERA
 40
0.0
  9
$CHAMFERB
 40
0.0
  9
$CHAMFERC
 40
0.0
  9
$CHAMFERD
 40
0.0
  9
$SKPOLY
 70
     0
  9
$TDCREATE
 40
2458263.620944815
  9
$TDUCREATE
 40
2458263.245944815
  9
$TDUPDATE
 40
2459723.301849201
  9
$TDUUPDATE
 40
2459722.926849201
  9
$TDINDWG
 40
0.0016485417
  9
$TDUSRTIMER
 40
0.0014069097
  9
$USRTIMER
 70
     1
  9
$ANGBASE
 50
0.0
  9
$ANGDIR
 70
     0
  9
$PDMODE
 70
     0
  9
$PDSIZE
 40
-1.0
  9
$PLINEWID
 40
0.0
  9
$SPLFRAME
 70
     0
  9
$SPLINETYPE
 70
     6
  9
$SPLINESEGS
 70
     8
  9
$HANDSEED
  5
18C
  9
$SURFTAB1
 70
     6
  9
$SURFTAB2
 70
     6
  9
$SURFTYPE
 70
     6
  9
$SURFU
 70
     6
  9
$SURFV
 70
     6
  9
$UCSBASE
  2

  9
$UCSNAME
  2

  9
$UCSORG
 10
0.0
 20
0.0
 30
0.0
  9
$UCSXDIR
 10
1.0
 20
0.0
 30
0.0
  9
$UCSYDIR
 10
0.0
 20
1.0
 30
0.0
  9
$UCSORTHOREF
  2

  9
$UCSORTHOVIEW
 70
     0
  9
$UCSORGTOP
 10
0.0
 20
0.0
 30
0.0
  9
$UCSORGBOTTOM
 10
0.0
 20
0.0
 30
0.0
  9
$UCSORGLEFT
 10
0.0
 20
0.0
 30
0.0
  9
$UCSORGRIGHT
 10
0.0
 20
0.0
 30
0.0
  9
$UCSORGFRONT
 10
0.0
 20
0.0
 30
0.0
  9
$UCSORGBACK
 10
0.0
 20
0.0
 30
0.0
  9
$PUCSBASE
  2

  9
$PUCSNAME
  2

  9
$PUCSORG
 10
0.0
 20
0.0
 30
0.0
  9
$PUCSXDIR
 10
1.0
 20
0.0
 30
0.0
  9
$PUCSYDIR
 10
0.0
 20
1.0
 30
0.0
  9
$PUCSORTHOREF
  2

  9
$PUCSORTHOVIEW
 70
     0
  9
$PUCSORGTOP
 10
0.0
 20
0.0
 30
0.0
  9
$PUCSORGBOTTOM
 10
0.0
 20
0.0
 30
0.0
  9
$PUCSORGLEFT
 10
0.0
 20
0.0
 30
0.0
  9
$PUCSORGRIGHT
 10
0.0
 20
0.0
 30
0.0
  9
$PUCSORGFRONT
 10
0.0
 20
0.0
 30
0.0
  9
$PUCSORGBACK
 10
0.0
 20
0.0
 30
0.0
  9
$USERI1
 70
     0
  9
$USERI2
 70
     0
  9
$USERI3
 70
     0
  9
$USERI4
 70
     0
  9
$USERI5
 70
     0
  9
$USERR1
 40
0.0
  9
$USERR2
 40
0.0
  9
$USERR3
 40
0.0
  9
$USERR4
 40
0.0
  9
$USERR5
 40
0.0
  9
$WORLDVIEW
 70
     1
  9
$SHADEDGE
 70
     3
  9
$SHADEDIF
 70
    70
  9
$TILEMODE
 70
     1
  9
$MAXACTVP
 70
    64
  9
$PINSBASE
 10
0.0
 20
0.0
 30
0.0
  9
$PLIMCHECK
 70
     0
  9
$PEXTMIN
 10
1.000000000000000E+20
 20
1.000000000000000E+20
 30
1.000000000000000E+20
  9
$PEXTMAX
 10
-1.000000000000000E+20
 20
-1.000000000000000E+20
 30
-1.000000000000000E+20
  9
$PLIMMIN
 10
0.0
 20
0.0
  9
$PLIMMAX
 10
0.0
 20
0.0
  9
$UNITMODE
 70
     0
  9
$VISRETAIN
 70
     1
  9
$PLINEGEN
 70
     0
  9
$PSLTSCALE
 70
     1
  9
$TREEDEPTH
 70
  3020
  9
$CMLSTYLE
  2
Standard
  9
$CMLJUST
 70
     0
  9
$CMLSCALE
 40
20.0
  9
$PROXYGRAPHICS
 70
     1
  9
$MEASUREMENT
 70
     1
  9
$CELWEIGHT
370
    -1
  9
$ENDCAPS
280
     0
  9
$JOINSTYLE
280
     0
  9
$LWDISPLAY
290
     1
  9
$INSUNITS
 70
     4
  9
$HYPERLINKBASE
  1

  9
$STYLESHEET
  1

  9
$XEDIT
290
     1
  9
$CEPSNTYPE
380
     0
  9
$PSTYLEMODE
290
     1
  9
$FINGERPRINTGUID
  2
{3A9BDD0C-CF1F-470D-A081-4D952054B7AE}
  9
$VERSIONGUID
  2
{FAEB1C32-E019-11D5-929B-00C0DF256EC4}
  9
$EXTNAMES
290
     1
  9
$PSVPSCALE
 40
0.0
  9
$OLESTARTUP
290
     0
  0
ENDSEC
  0
SECTION
  2
CLASSES
  0
CLASS
  1
ACDBDICTIONARYWDFLT
  2
AcDbDictionaryWithDefault
  3
ObjectDBX Classes
 90
        0
280
     0
281
     0
  0
CLASS
  1
VISUALSTYLE
  2
AcDbVisualStyle
  3
ObjectDBX Classes
 90
     4095
280
     0
281
     0
  0
CLASS
  1
MATERIAL
  2
AcDbMaterial
  3
ObjectDBX Classes
 90
     1153
280
     0
281
     0
  0
CLASS
  1
SCALE
  2
AcDbScale
  3
ObjectDBX Classes
 90
     1153
280
     0
281
     0
  0
CLASS
  1
TABLESTYLE
  2
AcDbTableStyle
  3
ObjectDBX Classes
 90
     4095
280
     0
281
     0
  0
CLASS
  1
MLEADERSTYLE
  2
AcDbMLeaderStyle
  3
ACDB_MLEADERSTYLE_CLASS
 90
     4095
280
     0
281
     0
  0
CLASS
  1
SUN
  2
AcDbSun
  3
SCENEOE
 90
     1153
280
     0
281
     0
  0
CLASS
  1
ACDBPLACEHOLDER
  2
AcDbPlaceHolder
  3
ObjectDBX Classes
 90
        0
280
     0
281
     0
  0
CLASS
  1
LAYOUT
  2
AcDbLayout
  3
ObjectDBX Classes
 90
        0
280
     0
281
     0
  0
CLASS
  1
RASTERVARIABLES
  2
AcDbRasterVariables
  3
ISM
 90
        0
280
     0
281
     0
  0
CLASS
  1
SORTENTSTABLE
  2
AcDbSortentsTable
  3
ObjectDBX Classes
 90
        0
280
     0
281
     0
  0
ENDSEC
  0
SECTION
  2
TABLES
  0
TABLE
  2
VPORT
  5
8
330
0
100
AcDbSymbolTable
 70
     1
  0
VPORT
  5
29
330
8
100
AcDbSymbolTableRecord
100
AcDbViewportTableRecord
  2
*Active
 70
     0
 10
0.0
 20
0.0
 11
1.0
 21
1.0
 12
-2.595156475811478
 22
-3.812618332976221
 13
0.0
 23
0.0
 14
10.0
 24
10.0
 15
10.0
 25
10.0
 16
0.0
 26
0.0
 36
1.0
 17
0.0
 27
0.0
 37
0.0
 40
94.16255281930773
 41
1.913499344692005
 42
50.0
 43
0.0
 44
0.0
 50
0.0
 51
0.0
 71
    16
 72
  2000
 73
     1
 74
     3
 75
     0
 76
     0
 77
     0
 78
     0
281
     0
 65
     1
110
0.0
120
0.0
130
0.0
111
1.0
121
0.0
131
0.0
112
0.0
122
1.0
132
0.0
 79
     0
146
0.0
  0
ENDTAB
  0
TABLE
  2
LTYPE
  5
5
330
0
100
AcDbSymbolTable
 70
     6
  0
LTYPE
  5
14
330
5
100
AcDbSymbolTableRecord
100
AcDbLinetypeTableRecord
  2
ByBlock
 70
     0
  3

 72
    65
 73
     0
 40
0.0
  0
LTYPE
  5
15
330
5
100
AcDbSymbolTableRecord
100
AcDbLinetypeTableRecord
  2
ByLayer
 70
     0
  3

 72
    65
 73
     0
 40
0.0
  0
LTYPE
  5
16
330
5
100
AcDbSymbolTableRecord
100
AcDbLinetypeTableRecord
  2
Continuous
 70
     0
  3
Solid line
 72
    65
 73
     0
 40
0.0
  0
LTYPE
  5
6E
330
5
100
AcDbSymbolTableRecord
100
AcDbLinetypeTableRecord
  2
HIDDEN
 70
     0
  3
Hidden __ __ __ __ __ __ __ __ __ __ __ __ __ __
 72
    65
 73
     2
 40
1.905
 49
1.27
 74
     0
 49
-0.635
 74
     0
  0
LTYPE
  5
6F
330
5
100
AcDbSymbolTableRecord
100
AcDbLinetypeTableRecord
  2
PHANTOM
 70
     0
  3
Phantom ______  __  __  ______  __  __  ______
 72
    65
 73
     6
 40
12.7
 49
6.35
 74
     0
 49
-1.27
 74
     0
 49
1.27
 74
     0
 49
-1.27
 74
     0
 49
1.27
 74
     0
 49
-1.27
 74
     0
  0
LTYPE
  5
70
330
5
100
AcDbSymbolTableRecord
100
AcDbLinetypeTableRecord
  2
CENTER
 70
     0
  3
Center ____ _ ____ _ ____ _ ____ _ ____ _ ____
 72
    65
 73
     4
 40
10.16
 49
6.35
 74
     0
 49
-1.27
 74
     0
 49
1.27
 74
     0
 49
-1.27
 74
     0
  0
LTYPE
  5
71
330
5
100
AcDbSymbolTableRecord
100
AcDbLinetypeTableRecord
  2
CENTERX2
 70
     0
  3
Center (2x) ________  __  ________  __  _____
 72
    65
 73
     4
 40
20.32
 49
12.7
 74
     0
 49
-2.54
 74
     0
 49
2.54
 74
     0
 49
-2.54
 74
     0
  0
LTYPE
  5
72
330
5
100
AcDbSymbolTableRecord
100
AcDbLinetypeTableRecord
  2
DOT2
 70
     0
  3
Dot (.5x) ........................................
 72
    65
 73
     2
 40
0.635
 49
0.0
 74
     0
 49
-0.635
 74
     0
  0
ENDTAB
  0
TABLE
  2
LAYER
  5
2
330
0
100
AcDbSymbolTable
 70
    17
  0
LAYER
  5
10
330
2
100
AcDbSymbolTableRecord
100
AcDbLayerTableRecord
  2
0
 70
     0
 62
     7
  6
Continuous
370
    -3
390
F
  0
LAYER
  5
73
330
2
100
AcDbSymbolTableRecord
100
AcDbLayerTableRecord
  2
FORMAT
 70
     0
 62
     2
  6
Continuous
370
    -3
390
F
  0
LAYER
  5
74
330
2
100
AcDbSymbolTableRecord
100
AcDbLayerTableRecord
  2
외형선
 70
     0
 62
   100
  6
Continuous
370
    35
390
F
  0
LAYER
  5
75
330
2
100
AcDbSymbolTableRecord
100
AcDbLayerTableRecord
  2
숨은선
 70
     0
 62
     2
  6
HIDDEN
370
    25
390
F
  0
LAYER
  5
76
330
2
100
AcDbSymbolTableRecord
100
AcDbLayerTableRecord
  2
중심선
 70
     0
 62
     1
  6
CENTERX2
370
    -3
390
F
  0
LAYER
  5
77
330
2
100
AcDbSymbolTableRecord
100
AcDbLayerTableRecord
  2
파단선
 70
     0
 62
     4
  6
Continuous
370
    -3
390
F
  0
LAYER
  5
78
330
2
100
AcDbSymbolTableRecord
100
AcDbLayerTableRecord
  2
해칭선
 70
     0
 62
     4
  6
Continuous
370
    -3
390
F
  0
LAYER
  5
79
330
2
100
AcDbSymbolTableRecord
100
AcDbLayerTableRecord
  2
가는실선
 70
     0
 62
     4
  6
Continuous
370
    -3
390
F
  0
LAYER
  5
7A
330
2
100
AcDbSymbolTableRecord
100
AcDbLayerTableRecord
  2
치수_보조선
 70
     0
 62
     4
  6
Continuous
370
    -3
390
F
  0
LAYER
  5
7B
330
2
100
AcDbSymbolTableRecord
100
AcDbLayerTableRecord
  2
치수문자_일반주서
 70
     0
 62
     7
  6
Continuous
370
    25
390
F
  0
LAYER
  5
7C
330
2
100
AcDbSymbolTableRecord
100
AcDbLayerTableRecord
  2
개별주서
 70
     0
 62
   100
  6
Continuous
370
    35
390
F
  0
LAYER
  5
7D
330
2
100
AcDbSymbolTableRecord
100
AcDbLayerTableRecord
  2
중간선
 70
     0
 62
     2
  6
Continuous
370
    25
390
F
  0
LAYER
  5
7E
330
2
100
AcDbSymbolTableRecord
100
AcDbLayerTableRecord
  2
윤곽선
 70
     0
 62
     3
  6
Continuous
370
    50
390
F
  0
LAYER
  5
7F
330
2
100
AcDbSymbolTableRecord
100
AcDbLayerTableRecord
  2
중심마크
 70
     0
 62
   100
  6
Continuous
370
    35
390
F
  0
LAYER
  5
80
330
2
100
AcDbSymbolTableRecord
100
AcDbLayerTableRecord
  2
가상선
 70
     0
 62
     4
  6
PHANTOM
370
    -3
390
F
  0
LAYER
  5
81
330
2
100
AcDbSymbolTableRecord
100
AcDbLayerTableRecord
  2
특수지정선
 70
     0
 62
     5
  6
CENTERX2
370
    70
390
F
  0
LAYER
  5
160
330
2
100
AcDbSymbolTableRecord
100
AcDbLayerTableRecord
  2
Defpoints
 70
     0
 62
     7
  6
Continuous
290
     0
370
    -3
390
F
  0
ENDTAB
  0
TABLE
  2
STYLE
  5
3
330
0
100
AcDbSymbolTable
 70
     2
  0
STYLE
  5
11
330
3
100
AcDbSymbolTableRecord
100
AcDbTextStyleTableRecord
  2
Standard
 70
     0
 40
0.0
 41
1.0
 50
0.0
 71
     0
 42
3.5
  3
txt
  4

  0
STYLE
  5
97
330
3
100
AcDbSymbolTableRecord
100
AcDbTextStyleTableRecord
  2
SLDTEXTSTYLE0
 70
     0
 40
0.0
 41
0.75
 50
0.0
 71
     0
 42
3.5
  3
TXT
  4

  0
ENDTAB
  0
TABLE
  2
VIEW
  5
6
330
0
100
AcDbSymbolTable
 70
     0
  0
ENDTAB
  0
TABLE
  2
UCS
  5
7
330
0
100
AcDbSymbolTable
 70
     0
  0
ENDTAB
  0
TABLE
  2
APPID
  5
9
330
0
100
AcDbSymbolTable
 70
     2
  0
APPID
  5
12
330
9
100
AcDbSymbolTableRecord
100
AcDbRegAppTableRecord
  2
ACAD
 70
     0
  0
APPID
  5
188
330
9
100
AcDbSymbolTableRecord
100
AcDbRegAppTableRecord
  2
PE_URL
 70
     0
  0
ENDTAB
  0
TABLE
  2
DIMSTYLE
  5
A
330
0
100
AcDbSymbolTable
 70
     3
100
AcDbDimStyleTable
  0
DIMSTYLE
105
27
330
A
100
AcDbSymbolTableRecord
100
AcDbDimStyleTableRecord
  2
ISO-25
 70
     0
 41
2.5
 42
0.625
 43
3.75
 44
1.25
 73
     0
 74
     0
 77
     1
 78
     8
140
2.5
141
2.5
143
0.03937007874016
147
0.625
171
     3
172
     1
178
     0
271
     2
272
     2
274
     3
278
    44
283
     0
284
     8
340
11
  0
DIMSTYLE
105
E4
102
{ACAD_REACTORS
330
E3
102
}
330
A
100
AcDbSymbolTableRecord
100
AcDbDimStyleTableRecord
  2
SLDDIMSTYLE0
 70
     0
 41
3.302
 44
0.0
 45
0.000000001
 73
     0
 74
     0
 77
     1
 78
     4
 79
     1
140
3.5
143
0.0393700787401575
147
0.875
148
0.000000001
170
     1
173
     1
178
     0
271
     2
272
     2
276
     2
284
    12
340
97
  0
DIMSTYLE
105
F8
102
{ACAD_REACTORS
330
F7
330
10C
330
121
102
}
330
A
100
AcDbSymbolTableRecord
100
AcDbDimStyleTableRecord
  2
SLDDIMSTYLE1
 70
     0
 41
3.302
 44
0.0
 45
0.000000001
 73
     0
 74
     0
 77
     1
 78
    12
 79
     3
140
3.5
143
0.0393700787401575
147
0.875
148
0.000000001
170
     1
172
     1
173
     1
178
     0
271
     2
272
     2
276
     2
284
    12
289
     0
340
97
  0
ENDTAB
  0
TABLE
  2
BLOCK_RECORD
  5
1
330
0
100
AcDbSymbolTable
 70
     7
  0
BLOCK_RECORD
  5
1F
102
{ACAD_XDICTIONARY
360
186
102
}
330
1
100
AcDbSymbolTableRecord
100
AcDbBlockTableRecord
  2
*Model_Space
340
22
  0
BLOCK_RECORD
  5
1B
330
1
100
AcDbSymbolTableRecord
100
AcDbBlockTableRecord
  2
*Paper_Space
340
1E
  0
BLOCK_RECORD
  5
23
330
1
100
AcDbSymbolTableRecord
100
AcDbBlockTableRecord
  2
*Paper_Space0
340
26
  0
BLOCK_RECORD
  5
82
330
1
100
AcDbSymbolTableRecord
100
AcDbBlockTableRecord
  2
블럭10
340
0
102
{BLKREFS
331
DC
102
}
  0
BLOCK_RECORD
  5
E5
330
1
100
AcDbSymbolTableRecord
100
AcDbBlockTableRecord
  2
_D
340
0
  0
BLOCK_RECORD
  5
F9
330
1
100
AcDbSymbolTableRecord
100
AcDbBlockTableRecord
  2
_D_1
340
0
  0
BLOCK_RECORD
  5
10D
330
1
100
AcDbSymbolTableRecord
100
AcDbBlockTableRecord
  2
_D_2
340
0
  0
BLOCK_RECORD
  5
122
330
1
100
AcDbSymbolTableRecord
100
AcDbBlockTableRecord
  2
_D_3
340
0
  0
BLOCK_RECORD
  5
135
330
1
100
AcDbSymbolTableRecord
100
AcDbBlockTableRecord
  2
SW_DOWELSYMBOL_0
340
0
102
{BLKREFS
331
13B
102
}
  0
ENDTAB
  0
ENDSEC
  0
SECTION
  2
BLOCKS
  0
BLOCK
  5
20
330
1F
100
AcDbEntity
  8
0
100
AcDbBlockBegin
  2
*Model_Space
 70
     0
 10
0.0
 20
0.0
 30
0.0
  3
*Model_Space
  1
*Model_Space
  0
ENDBLK
  5
21
330
1F
100
AcDbEntity
  8
0
100
AcDbBlockEnd
  0
BLOCK
  5
1C
330
1B
100
AcDbEntity
 67
     1
  8
0
100
AcDbBlockBegin
  2
*Paper_Space
 70
     0
 10
0.0
 20
0.0
 30
0.0
  3
*Paper_Space
  1
*Paper_Space
  0
ENDBLK
  5
1D
330
1B
100
AcDbEntity
 67
     1
  8
0
100
AcDbBlockEnd
  0
BLOCK
  5
24
330
23
100
AcDbEntity
  8
0
100
AcDbBlockBegin
  2
*Paper_Space0
 70
     0
 10
0.0
 20
0.0
 30
0.0
  3
*Paper_Space0
  1
*Paper_Space0
  0
ENDBLK
  5
25
330
23
100
AcDbEntity
  8
0
100
AcDbBlockEnd
  0
BLOCK
  5
83
330
82
100
AcDbEntity
  8
0
100
AcDbBlockBegin
  2
블럭10
 70
     2
 10
0.0
 20
0.0
 30
0.0
  3
블럭10
  1
블럭10
  0
ELLIPSE
  5
85
330
82
100
AcDbEntity
  8
중심선
100
AcDbEllipse
 10
20.54032771741204
 20
12.0471743016438
 30
0.0
 11
6.600054785286829
 21
-1.261213355974178E-13
 31
0.0
210
0.0
220
0.0
230
1.0
 40
0.636358354079598
 41
0.9219305317359503
 42
6.513795318482858
  0
ELLIPSE
  5
86
330
82
100
AcDbEntity
  8
중심선
100
AcDbEllipse
 10
20.54032771746488
 20
12.04717430159265
 30
0.0
 11
3.960054785062283
 21
1.540847449632565E-10
 31
0.0
210
0.0
220
0.0
230
1.0
 40
0.3939339440162632
 41
1.131841032648279
 42
5.62031148352944
  0
LINE
  5
87
330
82
100
AcDbEntity
  8
중심선
100
AcDbLine
 10
2.268634060543552
 20
16.24717430164393
 30
0.0
 11
5.714909304380834
 21
16.24717430164393
 31
0.0
  0
LINE
  5
88
330
82
100
AcDbEntity
  8
중심선
100
AcDbLine
 10
5.245725140726316
 20
7.84717430164391
 30
0.0
 11
8.692000384563599
 21
7.84717430164391
 31
0.0
  0
LINE
  5
89
330
82
100
AcDbEntity
  8
중심선
100
AcDbLine
 10
15.74043728645272
 20
16.24717430164393
 30
0.0
 11
8.692000384563599
 21
7.84717430164391
 31
0.0
  0
LINE
  5
8A
330
82
100
AcDbEntity
  8
중심선
100
AcDbLine
 10
0.1404042013395286
 20
13.71084872107135
 30
0.0
 11
3.58671253028996
 21
13.71088815037384
 31
0.0
  0
LINE
  5
8B
330
82
100
AcDbEntity
  8
중심선
100
AcDbLine
 10
2.750260043222114
 20
10.84717430164391
 30
0.0
 11
6.196535287059397
 21
10.84717430164391
 31
0.0
  0
LINE
  5
8C
330
82
100
AcDbEntity
  8
중심선
100
AcDbLine
 10
12.29416204261559
 20
16.24717430164393
 30
0.0
 11
5.245725140726316
 21
7.84717430164391
 31
0.0
  0
LINE
  5
8D
330
82
100
AcDbEntity
  8
중심선
100
AcDbLine
 10
10.72767329541681
 20
16.24717430164393
 30
0.0
 11
6.196535287059397
 21
10.84717430164391
 31
0.0
  0
LINE
  5
8E
330
82
100
AcDbEntity
  8
중심선
100
AcDbLine
 10
7.28139805157953
 20
16.24717430164393
 30
0.0
 11
2.750260043222114
 21
10.84717430164391
 31
0.0
  0
LINE
  5
8F
330
82
100
AcDbEntity
  8
중심선
100
AcDbLine
 10
5.714909304380834
 20
16.24717430164393
 30
0.0
 11
3.58671253028996
 21
13.71088815037384
 31
0.0
  0
LINE
  5
90
330
82
100
AcDbEntity
  8
중심선
100
AcDbLine
 10
2.268634060543552
 20
16.24717430164393
 30
0.0
 11
0.1404042013395286
 21
13.71084872107135
 31
0.0
  0
LINE
  5
91
330
82
100
AcDbEntity
  8
중심선
100
AcDbLine
 10
7.28139805157953
 20
16.24717430164393
 30
0.0
 11
10.72767329541681
 21
16.24717430164393
 31
0.0
  0
LINE
  5
92
330
82
100
AcDbEntity
  8
중심선
100
AcDbLine
 10
12.29416204261559
 20
16.24717430164393
 30
0.0
 11
15.74043728645272
 21
16.24717430164393
 31
0.0
  0
LINE
  5
93
330
82
100
AcDbEntity
  8
중심선
100
AcDbLine
 10
19.22036997980202
 20
11.08717430171403
 30
0.0
 11
23.66174974927406
 21
11.08717430171406
 31
0.0
  0
LINE
  5
94
330
82
100
AcDbEntity
  8
중심선
100
AcDbLine
 10
19.22039502424796
 20
13.00717430171391
 30
0.0
 11
19.22036997980202
 21
11.08717430171403
 31
0.0
  0
LINE
  5
95
330
82
100
AcDbEntity
  8
중심선
100
AcDbLine
 10
19.22039502424796
 20
13.00717430171391
 30
0.0
 11
26.96566020931264
 21
13.00717430171391
 31
0.0
  0
LINE
  5
96
330
82
100
AcDbEntity
  8
중심선
100
AcDbLine
 10
22.22332737316547
 20
13.45928029700563
 30
0.0
 11
24.52862924686651
 21
15.39360700705356
 31
0.0
  0
ATTDEF
  5
98
330
82
100
AcDbEntity
  8
FORMAT
 62
     2
100
AcDbText
 10
-9.18129528874128
 20
2.075366912832191
 30
0.0
 40
4.233333333333333
  1
E5254012 [ 2 FLUTE ]
 41
0.75
  7
SLDTEXTSTYLE0
 11
-9.18129528874128
 21
-0.0412997538344756
 31
0.0
100
AcDbAttributeDefinition
  3

  2
AUTOATTR0
 70
     0
 74
     1
  0
ENDBLK
  5
84
330
82
100
AcDbEntity
  8
0
100
AcDbBlockEnd
  0
BLOCK
  5
E6
330
E5
100
AcDbEntity
  8
0
100
AcDbBlockBegin
  2
_D
 70
     0
 10
0.0
 20
0.0
 30
0.0
  3
_D
  1
_D
  0
LINE
  5
E8
330
E5
100
AcDbEntity
  8
치수문자_일반주서
 62
     0
370
    -2
100
AcDbLine
 10
21.11249999999999
 20
2.442812332489485
 30
0.0
 11
21.11249999999999
 21
37.97049579413542
 31
0.0
  0
LINE
  5
E9
330
E5
100
AcDbEntity
  8
치수문자_일반주서
 62
     0
370
    -2
100
AcDbLine
 10
-29.68750000000001
 20
2.428574928723888
 30
0.0
 11
-29.68750000000001
 21
37.97049579413542
 31
0.0
  0
LINE
  5
EA
330
E5
100
AcDbEntity
  8
치수문자_일반주서
 62
     0
370
    -2
100
AcDbLine
 10
17.81049999999999
 20
37.97049579413542
 30
0.0
 11
-26.38550000000001
 21
37.97049579413542
 31
0.0
  0
SOLID
  5
EB
330
E5
100
AcDbEntity
  8
치수문자_일반주서
 62
     0
100
AcDbTrace
 10
17.81049999999999
 20
37.42016246080209
 30
0.0
 11
17.81049999999999
 21
38.52082912746876
 31
0.0
 12
21.11249999999999
 22
37.97049579413542
 32
0.0
 13
21.11249999999999
 23
37.97049579413542
 33
0.0
  0
SOLID
  5
EC
330
E5
100
AcDbEntity
  8
치수문자_일반주서
 62
     0
100
AcDbTrace
 10
-26.38550000000001
 20
38.52082912746876
 30
0.0
 11
-26.38550000000001
 21
37.42016246080209
 31
0.0
 12
-29.68750000000001
 22
37.97049579413542
 32
0.0
 13
-29.68750000000001
 23
37.97049579413542
 33
0.0
  0
MTEXT
  5
ED
330
E5
100
AcDbEntity
  8
치수문자_일반주서
 62
     0
100
AcDbMText
 10
-4.287500000000009
 20
42.34549579413542
 30
0.0
 40
3.5
 41
0.0
 71
     2
 72
     1
  1
\A1;50.80 [2]
  7
SLDTEXTSTYLE0
 73
     1
 44
1.0
  0
POINT
  5
EE
330
E5
100
AcDbEntity
  8
Defpoints
 62
     0
100
AcDbPoint
 10
21.11249999999999
 20
2.380312332489485
 30
0.0
  0
POINT
  5
EF
330
E5
100
AcDbEntity
  8
Defpoints
 62
     0
100
AcDbPoint
 10
-29.68750000000001
 20
2.366074928723888
 30
0.0
  0
POINT
  5
F0
330
E5
100
AcDbEntity
  8
Defpoints
 62
     0
100
AcDbPoint
 10
-29.68750000000001
 20
37.97049579413542
 30
0.0
  0
ENDBLK
  5
E7
330
E5
100
AcDbEntity
  8
0
100
AcDbBlockEnd
  0
BLOCK
  5
FA
330
F9
100
AcDbEntity
  8
0
100
AcDbBlockBegin
  2
_D_1
 70
     0
 10
0.0
 20
0.0
 30
0.0
  3
_D_1
  1
_D_1
  0
LINE
  5
FC
330
F9
100
AcDbEntity
  8
치수문자_일반주서
 62
     0
370
    -2
100
AcDbLine
 10
-28.94000000000002
 20
3.176074928723876
 30
0.0
 11
-42.68750000000002
 21
3.176074928723828
 31
0.0
  0
LINE
  5
FD
330
F9
100
AcDbEntity
  8
치수문자_일반주서
 62
     0
370
    -2
100
AcDbLine
 10
-28.94000000000002
 20
-3.173925071276118
 30
0.0
 11
-42.6875
 21
-3.173925071276166
 31
0.0
  0
LINE
  5
FE
330
F9
100
AcDbEntity
  8
치수문자_일반주서
 62
     0
370
    -2
100
AcDbLine
 10
-42.68750000000001
 20
-0.1259250712761717
 30
0.0
 11
-42.68750000000001
 21
0.1280749287238332
 31
0.0
  0
SOLID
  5
FF
330
F9
100
AcDbEntity
  8
치수문자_일반주서
 62
     0
100
AcDbTrace
 10
-42.13716666666667
 20
-0.1259250712761698
 30
0.0
 11
-43.23783333333334
 21
-0.1259250712761736
 31
0.0
 12
-42.68750000000002
 22
3.176074928723828
 32
0.0
 13
-42.68750000000002
 23
3.176074928723828
 33
0.0
  0
SOLID
  5
100
330
F9
100
AcDbEntity
  8
치수문자_일반주서
 62
     0
100
AcDbTrace
 10
-43.23783333333335
 20
0.1280749287238313
 30
0.0
 11
-42.13716666666668
 21
0.1280749287238351
 31
0.0
 12
-42.6875
 22
-3.173925071276166
 32
0.0
 13
-42.6875
 23
-3.173925071276166
 33
0.0
  0
MTEXT
  5
101
330
F9
100
AcDbEntity
  8
치수문자_일반주서
 62
     0
100
AcDbMText
 10
-47.06250000000001
 20
0.0010749287238648
 30
0.0
 40
3.5
 41
0.0
 71
     2
 72
     1
  1
\A1;%%c6.35 [1/4]
  7
SLDTEXTSTYLE0
 11
-3.356894814614650E-15
 21
1.0
 31
0.0
 73
     1
 44
1.0
  0
POINT
  5
102
330
F9
100
AcDbEntity
  8
Defpoints
 62
     0
100
AcDbPoint
 10
-28.87750000000002
 20
3.176074928723876
 30
0.0
  0
POINT
  5
103
330
F9
100
AcDbEntity
  8
Defpoints
 62
     0
100
AcDbPoint
 10
-28.87750000000002
 20
-3.173925071276118
 30
0.0
  0
POINT
  5
104
330
F9
100
AcDbEntity
  8
Defpoints
 62
     0
100
AcDbPoint
 10
-42.6875
 20
-3.173925071276166
 30
0.0
  0
ENDBLK
  5
FB
330
F9
100
AcDbEntity
  8
0
100
AcDbBlockEnd
  0
BLOCK
  5
10E
330
10D
100
AcDbEntity
  8
0
100
AcDbBlockBegin
  2
_D_2
 70
     0
 10
0.0
 20
0.0
 30
0.0
  3
_D_2
  1
_D_2
  0
LINE
  5
110
330
10D
100
AcDbEntity
  8
치수문자_일반주서
 62
     0
370
    -2
100
AcDbLine
 10
21.11249999999999
 20
2.442812332489485
 30
0.0
 11
21.11249999999999
 21
22.61692984598999
 31
0.0
  0
LINE
  5
111
330
10D
100
AcDbEntity
  8
치수문자_일반주서
 62
     0
370
    -2
100
AcDbLine
 10
9.999999999999721
 20
1.966602814964514
 30
0.0
 11
9.999999999999721
 21
22.61692984598999
 31
0.0
  0
LINE
  5
112
330
10D
100
AcDbEntity
  8
치수문자_일반주서
 62
     0
370
    -2
100
AcDbLine
 10
17.81049999999999
 20
22.61692984598999
 30
0.0
 11
13.30199999999972
 21
22.61692984598999
 31
0.0
  0
SOLID
  5
113
330
10D
100
AcDbEntity
  8
치수문자_일반주서
 62
     0
100
AcDbTrace
 10
17.81049999999999
 20
22.06659651265665
 30
0.0
 11
17.81049999999999
 21
23.16726317932332
 31
0.0
 12
21.11249999999999
 22
22.61692984598999
 32
0.0
 13
21.11249999999999
 23
22.61692984598999
 33
0.0
  0
SOLID
  5
114
330
10D
100
AcDbEntity
  8
치수문자_일반주서
 62
     0
100
AcDbTrace
 10
13.30199999999972
 20
23.16726317932332
 30
0.0
 11
13.30199999999972
 21
22.06659651265665
 31
0.0
 12
9.999999999999721
 22
22.61692984598999
 32
0.0
 13
9.999999999999721
 23
22.61692984598999
 33
0.0
  0
MTEXT
  5
115
330
10D
100
AcDbEntity
  8
치수문자_일반주서
 62
     0
100
AcDbMText
 10
15.55624999999985
 20
26.99192984598999
 30
0.0
 40
3.5
 41
0.0
 71
     2
 72
     1
  1
\A1;11.11 [7/16]
  7
SLDTEXTSTYLE0
 73
     1
 44
1.0
  0
POINT
  5
116
330
10D
100
AcDbEntity
  8
Defpoints
 62
     0
100
AcDbPoint
 10
21.11249999999999
 20
2.380312332489485
 30
0.0
  0
POINT
  5
117
330
10D
100
AcDbEntity
  8
Defpoints
 62
     0
100
AcDbPoint
 10
9.999999999999721
 20
1.904102814964514
 30
0.0
  0
POINT
  5
118
330
10D
100
AcDbEntity
  8
Defpoints
 62
     0
100
AcDbPoint
 10
9.999999999999721
 20
22.61692984598999
 30
0.0
  0
ENDBLK
  5
10F
330
10D
100
AcDbEntity
  8
0
100
AcDbBlockEnd
  0
BLOCK
  5
123
330
122
100
AcDbEntity
  8
0
100
AcDbBlockBegin
  2
_D_3
 70
     0
 10
0.0
 20
0.0
 30
0.0
  3
_D_3
  1
_D_3
  0
LINE
  5
125
330
122
100
AcDbEntity
  8
치수문자_일반주서
 62
     0
370
    -2
100
AcDbLine
 10
13.79204162826218
 20
2.382324928723895
 30
0.0
 11
41.32185371504374
 21
2.382324928723989
 31
0.0
  0
LINE
  5
126
330
122
100
AcDbEntity
  8
치수문자_일반주서
 62
     0
370
    -2
100
AcDbLine
 10
13.79204162826217
 20
-2.370696077868239
 30
0.0
 11
41.32185371504376
 21
-2.370696077868143
 31
0.0
  0
LINE
  5
127
330
122
100
AcDbEntity
  8
치수문자_일반주서
 62
     0
370
    -2
100
AcDbLine
 10
41.32185371504374
 20
2.382324928723989
 30
0.0
 11
41.32185371504364
 21
36.98632492872399
 31
0.0
  0
LINE
  5
128
330
122
100
AcDbEntity
  8
치수문자_일반주서
 62
     0
370
    -2
100
AcDbLine
 10
41.32185371504374
 20
2.382324928723989
 30
0.0
 11
41.32185371504376
 21
-2.370696077868143
 31
0.0
  0
LINE
  5
129
330
122
100
AcDbEntity
  8
치수문자_일반주서
 62
     0
370
    -2
100
AcDbLine
 10
41.32185371504374
 20
5.684324928723989
 30
0.0
 11
41.32185371504373
 21
8.986324928723988
 31
0.0
  0
LINE
  5
12A
330
122
100
AcDbEntity
  8
치수문자_일반주서
 62
     0
370
    -2
100
AcDbLine
 10
41.32185371504377
 20
-5.672696077868142
 30
0.0
 11
41.32185371504377
 21
-8.974696077868142
 31
0.0
  0
SOLID
  5
12B
330
122
100
AcDbEntity
  8
치수문자_일반주서
 62
     0
100
AcDbTrace
 10
40.7715203817104
 20
5.684324928723987
 30
0.0
 11
41.87218704837707
 21
5.68432492872399
 31
0.0
 12
41.32185371504374
 22
2.382324928723989
 32
0.0
 13
41.32185371504374
 23
2.382324928723989
 33
0.0
  0
SOLID
  5
12C
330
122
100
AcDbEntity
  8
치수문자_일반주서
 62
     0
100
AcDbTrace
 10
41.8721870483771
 20
-5.672696077868141
 30
0.0
 11
40.77152038171043
 21
-5.672696077868144
 31
0.0
 12
41.32185371504376
 22
-2.370696077868143
 32
0.0
 13
41.32185371504376
 23
-2.370696077868143
 33
0.0
  0
MTEXT
  5
12D
330
122
100
AcDbEntity
  8
치수문자_일반주서
 62
     0
100
AcDbMText
 10
36.94685371504368
 20
22.98632492872398
 30
0.0
 40
3.5
 41
0.0
 71
     2
 72
     1
  1
\A1;%%c4.75 [3/16]
  7
SLDTEXTSTYLE0
 11
-2.989857333997149E-15
 21
1.0
 31
0.0
 73
     1
 44
1.0
  0
POINT
  5
12E
330
122
100
AcDbEntity
  8
Defpoints
 62
     0
100
AcDbPoint
 10
13.72954162826218
 20
2.382324928723895
 30
0.0
  0
POINT
  5
12F
330
122
100
AcDbEntity
  8
Defpoints
 62
     0
100
AcDbPoint
 10
13.72954162826217
 20
-2.370696077868239
 30
0.0
  0
POINT
  5
130
330
122
100
AcDbEntity
  8
Defpoints
 62
     0
100
AcDbPoint
 10
41.32185371504376
 20
-2.370696077868143
 30
0.0
  0
ENDBLK
  5
124
330
122
100
AcDbEntity
  8
0
100
AcDbBlockEnd
  0
BLOCK
  5
136
330
135
100
AcDbEntity
  8
0
100
AcDbBlockBegin
  2
SW_DOWELSYMBOL_0
 70
     0
 10
0.0
 20
0.0
 30
0.0
  3
SW_DOWELSYMBOL_0
  1
SW_DOWELSYMBOL_0
  0
CIRCLE
  5
138
330
135
100
AcDbEntity
  8
외형선
 62
     0
100
AcDbCircle
 10
0.0
 20
0.0
 30
0.0
 40
3.000000000000265
  0
HATCH
  5
139
330
135
100
AcDbEntity
  8
0
  6
Continuous
 62
     0
370
    35
100
AcDbHatch
 10
0.0
 20
0.0
 30
0.0
210
0.0
220
0.0
230
1.0
  2
SOLID
 70
     1
 71
     0
 91
        1
 92
        0
 93
        3
 72
     2
 10
-0.0000000000002654
 20
0.0
 40
3.000000000000265
 50
0.0
 51
90.0
 73
     1
 72
     1
 10
-0.0000000000002654
 20
3.000000000000265
 11
-0.0000000000002654
 21
0.0
 72
     1
 10
-0.0000000000002654
 20
0.0
 11
3.0
 21
0.0
 97
        0
 75
     0
 76
     1
 98
        1
 10
0.0
 20
0.0
  0
HATCH
  5
13A
330
135
100
AcDbEntity
  8
0
  6
Continuous
 62
     0
370
    35
100
AcDbHatch
 10
0.0
 20
0.0
 30
0.0
210
0.0
220
0.0
230
1.0
  2
SOLID
 70
     1
 71
     0
 91
        1
 92
        0
 93
        3
 72
     2
 10
-0.0000000000002654
 20
0.0
 40
3.000000000000265
 50
180.0
 51
270.0000000000007
 73
     1
 72
     1
 10
-0.0000000000002654
 20
-3.000000000000265
 11
-0.0000000000002654
 21
0.0
 72
     1
 10
-0.0000000000002654
 20
0.0
 11
-3.00000000000053
 21
0.0
 97
        0
 75
     0
 76
     1
 98
        1
 10
0.0
 20
0.0
  0
ENDBLK
  5
137
330
135
100
AcDbEntity
  8
0
100
AcDbBlockEnd
  0
ENDSEC
  0
SECTION
  2
ENTITIES
  0
LINE
  5
99
330
1F
100
AcDbEntity
  8
0
  6
Continuous
 62
     4
370
    25
100
AcDbLine
 10
4.580587037003671
 20
3.176074928723891
 30
0.0
 11
-28.8775
 21
3.176074928723889
 31
0.0
  0
LINE
  5
9A
330
1F
100
AcDbEntity
  8
0
  6
Continuous
 62
     4
370
    25
100
AcDbLine
 10
-28.87750000000001
 20
-3.173925071276107
 30
0.0
 11
4.580587037003671
 21
-3.173925071276105
 31
0.0
  0
LINE
  5
9D
330
1F
100
AcDbEntity
  8
0
  6
Continuous
 62
     4
370
    25
100
AcDbLine
 10
-28.87750000000001
 20
3.176074928723887
 30
0.0
 11
-29.68750000000001
 21
2.366074928723887
 31
0.0
  0
LINE
  5
9E
330
1F
100
AcDbEntity
  8
0
  6
Continuous
 62
     4
370
    25
100
AcDbLine
 10
-29.68750000000001
 20
-2.363925071276106
 30
0.0
 11
-28.87750000000001
 21
-3.173925071276106
 31
0.0
  0
LINE
  5
9F
330
1F
100
AcDbEntity
  8
0
  6
Continuous
 62
     4
370
    25
100
AcDbLine
 10
9.110082167692296
 20
2.382324928723893
 30
0.0
 11
8.999999999999995
 21
2.382324928723893
 31
0.0
  0
LINE
  5
A0
330
1F
100
AcDbEntity
  8
0
  6
Continuous
 62
     4
370
    25
100
AcDbLine
 10
8.999999999999995
 20
-2.380175071276107
 30
0.0
 11
9.110082167692296
 21
-2.380175071276107
 31
0.0
  0
SPLINE
  5
A1
330
1F
100
AcDbEntity
  8
0
  6
Continuous
 62
     4
370
    25
100
AcDbSpline
210
0.0
220
0.0
230
1.0
 70
     8
 71
     3
 72
     9
 73
     5
 74
     0
 42
0.000000001
 43
0.00000001
 40
0.0
 40
0.0
 40
0.0
 40
0.0
 40
0.5001633688768696
 40
0.9999999999999999
 40
0.9999999999999999
 40
0.9999999999999999
 40
0.9999999999999999
 10
9.999999999999993
 20
0.6689490248107621
 30
0.0
 10
9.949826731916335
 20
0.7110614979092448
 30
0.0
 10
9.849512972041587
 20
0.7952589336251936
 30
0.0
 10
9.749347419547124
 20
0.8857343902908926
 30
0.0
 10
9.699281007233706
 20
0.9309573377500023
 30
0.0
  0
SPLINE
  5
A2
330
1F
100
AcDbEntity
  8
0
  6
Continuous
 62
     4
370
    25
100
AcDbSpline
210
0.0
220
0.0
230
1.0
 70
     8
 71
     3
 72
     9
 73
     5
 74
     0
 42
0.000000001
 43
0.00000001
 40
0.0
 40
0.0
 40
0.0
 40
0.0
 40
0.49614711301807
 40
1.0
 40
1.0
 40
1.0
 40
1.0
 10
9.614457288601397
 20
1.89330431211713
 30
0.0
 10
9.530818031136318
 20
1.886201359516018
 30
0.0
 10
9.362240495823661
 20
1.871885136737045
 30
0.0
 10
9.194580744315925
 20
1.866138875512053
 30
0.0
 10
9.110104894488078
 20
1.863243605204489
 30
0.0
  0
SPLINE
  5
A3
330
1F
100
AcDbEntity
  8
0
  6
Continuous
 62
     4
370
    25
100
AcDbSpline
210
0.0
220
0.0
230
1.0
 70
     8
 71
     3
 72
     9
 73
     5
 74
     0
 42
0.000000001
 43
0.00000001
 40
0.0
 40
0.0
 40
0.0
 40
0.0
 40
0.8516392960493389
 40
0.9999999999999999
 40
0.9999999999999999
 40
0.9999999999999999
 40
0.9999999999999999
 10
9.104705955615728
 20
-1.860960617319821
 30
0.0
 10
9.189714387576709
 20
-1.858787455120568
 30
0.0
 10
9.289531801304943
 20
-1.856235714953888
 30
0.0
 10
9.3912169754931
 20
-1.867594469502242
 30
0.0
 10
9.406303059517002
 20
-1.869279662323039
 30
0.0
  0
SPLINE
  5
A4
330
1F
100
AcDbEntity
  8
0
  6
Continuous
 62
     1
370
    25
100
AcDbSpline
210
0.0
220
0.0
230
1.0
 70
     8
 71
     3
 72
     9
 73
     5
 74
     0
 42
0.000000001
 43
0.00000001
 40
0.0
 40
0.0
 40
0.0
 40
0.0
 40
0.4368044464400972
 40
1.0
 40
1.0
 40
1.0
 40
1.0
 10
17.5514005639304
 20
0.6112681517393654
 30
0.0
 10
17.49566448442409
 20
0.6570013831439891
 30
0.0
 10
17.36806486871376
 20
0.7617009386941762
 30
0.0
 10
17.24041309182063
 20
0.8768359230856071
 30
0.0
 10
17.1685201786704
 20
0.9416794343540495
 30
0.0
  0
LINE
  5
A5
330
1F
100
AcDbEntity
  8
0
  6
Continuous
 62
     4
370
    25
100
AcDbLine
 10
10.07053855010302
 20
0.6112232791720407
 30
0.0
 11
10.00116943062192
 21
0.6689926364364362
 31
0.0
  0
LINE
  5
A6
330
1F
100
AcDbEntity
  8
0
  6
Continuous
 62
     1
370
    25
100
AcDbLine
 10
13.72954162826217
 20
-2.380175071276108
 30
0.0
 11
14.39555395608404
 21
-2.380175071276108
 31
0.0
  0
LINE
  5
A7
330
1F
100
AcDbEntity
  8
0
  6
Continuous
 62
     1
370
    25
100
AcDbLine
 10
14.39555395608404
 20
2.382324928723895
 30
0.0
 11
13.72954162826218
 21
2.382324928723895
 31
0.0
  0
SPLINE
  5
A8
330
1F
100
AcDbEntity
  8
0
  6
Continuous
 62
     1
370
    25
100
AcDbSpline
210
0.0
220
0.0
230
1.0
 70
     8
 71
     3
 72
    13
 73
     9
 74
     0
 42
0.000000001
 43
0.00000001
 40
0.0
 40
0.0
 40
0.0
 40
0.0
 40
0.3689238769297256
 40
0.6354480049446432
 40
0.7529060663889864
 40
0.8397382295621527
 40
0.9258627247095679
 40
1.0
 40
1.0
 40
1.0
 40
1.0
 10
17.09522739540015
 20
1.893290654911407
 30
0.0
 10
16.95408934696163
 20
1.882350505678643
 30
0.0
 10
16.71098800028703
 20
1.863506791735234
 30
0.0
 10
16.42577693035302
 20
1.859625793452167
 30
0.0
 10
16.25009426744765
 20
1.861745141960456
 30
0.0
 10
16.14434579853927
 20
1.864751650208148
 30
0.0
 10
16.054118678275
 20
1.868320677634294
 30
0.0
 10
15.99542499589623
 20
1.871547200996735
 30
0.0
 10
15.96827323240057
 20
1.873039794333866
 30
0.0
  0
SPLINE
  5
A9
330
1F
100
AcDbEntity
  8
0
  6
Continuous
 62
     1
370
    25
100
AcDbSpline
210
0.0
220
0.0
230
1.0
 70
     8
 71
     3
 72
    15
 73
    11
 74
     0
 42
0.000000001
 43
0.00000001
 40
0.0
 40
0.0
 40
0.0
 40
0.0
 40
0.1488287658468503
 40
0.2773849845409663
 40
0.4008306619901901
 40
0.4740083500439865
 40
0.5560999216042396
 40
0.6712573121171439
 40
0.8203762650188892
 40
1.0
 40
1.0
 40
1.0
 40
1.0
 10
15.02902559638494
 20
-1.980469543873438
 30
0.0
 10
15.12081978913588
 20
-1.964770736834378
 30
0.0
 10
15.29190452932225
 20
-1.935511518543727
 30
0.0
 10
15.58189455058673
 20
-1.900517214544124
 30
0.0
 10
15.81515074708321
 20
-1.880178262612532
 30
0.0
 10
16.01080221198472
 20
-1.867949489992704
 30
0.0
 10
16.19638213225892
 20
-1.860243331016826
 30
0.0
 10
16.43530000289936
 20
-1.857124257234596
 30
0.0
 10
16.74212985460593
 20
-1.863229355575326
 30
0.0
 10
16.97046561681377
 20
-1.881278703479444
 30
0.0
 10
17.09522739540015
 20
-1.89114079746362
 30
0.0
  0
SPLINE
  5
AA
330
1F
100
AcDbEntity
  8
0
  6
Continuous
 62
     1
370
    25
100
AcDbSpline
210
0.0
220
0.0
230
1.0
 70
     8
 71
     3
 72
    12
 73
     8
 74
     0
 42
0.000000001
 43
0.00000001
 40
0.0
 40
0.0
 40
0.0
 40
0.0
 40
0.3275618745016722
 40
0.5726700802121975
 40
0.7480288221007895
 40
0.9392846765509688
 40
1.0
 40
1.0
 40
1.0
 40
1.0
 10
18.2001909881643
 20
-1.789871971054052
 30
0.0
 10
18.31015348581672
 20
-1.76153459163184
 30
0.0
 10
18.50239879045342
 20
-1.711992900092158
 30
0.0
 10
18.75353214334621
 20
-1.6608063241894
 30
0.0
 10
18.97093739246434
 20
-1.625652735285536
 30
0.0
 10
19.12112349227288
 20
-1.604795042664011
 30
0.0
 10
19.20767228934927
 20
-1.597167765077842
 30
0.0
 10
19.22852720717133
 20
-1.595329885723779
 30
0.0
  0
SPLINE
  5
AB
330
1F
100
AcDbEntity
  8
0
  6
Continuous
 62
     1
370
    25
100
AcDbSpline
210
0.0
220
0.0
230
1.0
 70
     8
 71
     3
 72
    16
 73
    12
 74
     0
 42
0.000000001
 43
0.00000001
 40
0.0
 40
0.0
 40
0.0
 40
0.0
 40
0.1362360971208862
 40
0.2410573273655985
 40
0.3192576452546638
 40
0.4038797212986671
 40
0.5013089542915614
 40
0.6207125713929793
 40
0.718984345903753
 40
0.8346882567021484
 40
1.0
 40
1.0
 40
1.0
 40
1.0
 10
13.11994665446962
 20
1.629690951566091
 30
0.0
 10
13.01498828678593
 20
1.615640584890624
 30
0.0
 10
12.82927404413528
 20
1.590779744695758
 30
0.0
 10
12.57934682991994
 20
1.57335088215086
 30
0.0
 10
12.35480740166249
 20
1.567056318595662
 30
0.0
 10
12.14113109710383
 20
1.568938099229948
 30
0.0
 10
11.90023691533428
 20
1.581011503997975
 30
0.0
 10
11.64804156895583
 20
1.605470636318067
 30
0.0
 10
11.36902077752266
 20
1.645452814368662
 30
0.0
 10
11.06498137828157
 20
1.703185189789458
 30
0.0
 10
10.84731432959106
 20
1.759119188043496
 30
0.0
 10
10.71926836932863
 20
1.792023215367991
 30
0.0
  0
SPLINE
  5
AC
330
1F
100
AcDbEntity
  8
0
  6
Continuous
 62
     1
370
    25
100
AcDbSpline
210
0.0
220
0.0
230
1.0
 70
     8
 71
     3
 72
    12
 73
     8
 74
     0
 42
0.000000001
 43
0.00000001
 40
0.0
 40
0.0
 40
0.0
 40
0.0
 40
0.3174605960258396
 40
0.5601744160104777
 40
0.7403331326085526
 40
0.9353421736483312
 40
1.0
 40
1.0
 40
1.0
 40
1.0
 10
10.71926836932863
 20
-1.789873357920205
 30
0.0
 10
10.82531577541751
 20
-1.762483611022728
 30
0.0
 10
11.01244149911026
 20
-1.714153091692009
 30
0.0
 10
11.26140362459228
 20
-1.662768173942896
 30
0.0
 10
11.4826927517341
 20
-1.626665044869147
 30
0.0
 10
11.63825890640629
 20
-1.604980597851289
 30
0.0
 10
11.72779895301139
 20
-1.597091697211153
 30
0.0
 10
11.75009469232951
 20
-1.59512733736494
 30
0.0
  0
SPLINE
  5
AD
330
1F
100
AcDbEntity
  8
0
  6
Continuous
 62
     1
370
    25
100
AcDbSpline
210
0.0
220
0.0
230
1.0
 70
     8
 71
     3
 72
    17
 73
    13
 74
     0
 42
0.000000001
 43
0.00000001
 40
0.0
 40
0.0
 40
0.0
 40
0.0
 40
0.134965582501818
 40
0.2401978579494963
 40
0.3205760811719428
 40
0.4065493895797959
 40
0.5040238449158185
 40
0.6000799236895643
 40
0.6815110997919914
 40
0.756173748069511
 40
0.8605336879037332
 40
1.0
 40
1.0
 40
1.0
 40
1.0
 10
20.62298119121708
 20
1.632904627183648
 30
0.0
 10
20.51708731262115
 20
1.618298090337817
 30
0.0
 10
20.32862828227271
 20
1.592302878837271
 30
0.0
 10
20.07334026050051
 20
1.57382099782522
 30
0.0
 10
19.84319454887366
 20
1.567049168219455
 30
0.0
 10
19.62466591626656
 20
1.568818667867284
 30
0.0
 10
19.39996422567327
 20
1.58002906722351
 30
0.0
 10
19.17853412989261
 20
1.600485141052068
 30
0.0
 10
18.97105793266736
 20
1.627448192769611
 30
0.0
 10
18.75348744989516
 20
1.663087584746131
 30
0.0
 10
18.50241647568625
 20
1.714090761229038
 30
0.0
 10
18.31015992083381
 20
1.763665529501202
 30
0.0
 10
18.2001909881643
 20
1.792021828501839
 30
0.0
  0
LINE
  5
AE
330
1F
100
AcDbEntity
  8
0
  6
Continuous
 62
     4
370
    25
100
AcDbLine
 10
4.580587037003671
 20
3.176074928723891
 30
0.0
 11
4.580587037003671
 21
-3.173925071276107
 31
0.0
  0
LINE
  5
AF
330
1F
100
AcDbEntity
  8
0
  6
Continuous
 62
     4
370
    25
100
AcDbLine
 10
-28.87750000000001
 20
3.176074928723887
 30
0.0
 11
-28.87750000000001
 21
-3.173925071276106
 31
0.0
  0
LINE
  5
B0
330
1F
100
AcDbEntity
  8
0
  6
Continuous
 62
     4
370
    25
100
AcDbLine
 10
8.999999999999995
 20
2.382324928723893
 30
0.0
 11
8.999999999999995
 21
-2.380175071276107
 31
0.0
  0
LINE
  5
B1
330
1F
100
AcDbEntity
  8
0
  6
Continuous
 62
     4
370
    25
100
AcDbLine
 10
-29.68750000000001
 20
2.366074928723888
 30
0.0
 11
-29.68750000000001
 21
-2.363925071276106
 31
0.0
  0
SPLINE
  5
B2
330
1F
100
AcDbEntity
  8
0
  6
Continuous
 62
     4
370
    25
100
AcDbSpline
210
0.0
220
0.0
230
1.0
 70
     8
 71
     3
 72
    10
 73
     6
 74
     0
 42
0.000000001
 43
0.00000001
 40
0.0
 40
0.0
 40
0.0
 40
0.0
 40
0.5
 40
0.5
 40
1.0
 40
1.0
 40
1.0
 40
1.0
 10
9.999999999999984
 20
-0.0093769173944343
 30
0.0
 10
9.850843392113015
 20
0.1391759382704053
 30
0.0
 10
9.700742466706409
 20
0.2880923213265353
 30
0.0
 10
9.406429773320836
 20
0.5789509465938663
 30
0.0
 10
9.259421436656714
 20
0.7218372446957573
 30
0.0
 10
9.110082167692294
 20
0.860436915169359
 30
0.0
  0
SPLINE
  5
B3
330
1F
100
AcDbEntity
  8
0
  6
Continuous
 62
     4
370
    25
100
AcDbSpline
210
0.0
220
0.0
230
1.0
 70
    24
 71
     3
 72
    10
 73
     6
 74
     0
 42
0.000000001
 43
0.00000001
 40
0.0
 40
0.0
 40
0.0
 40
0.0
 40
0.3233242733743052
 40
0.6609368913154119
 40
1.0
 40
1.0
 40
1.0
 40
1.0
 10
9.999999999999993
 20
-0.0093769173944431
 30
0.0
 10
9.999999999999991
 20
-0.0140088206278083
 30
0.0
 10
9.999999999999991
 20
-0.0234773201375561
 30
0.0
 10
9.999999999999993
 20
-0.0473620128010239
 30
0.0
 10
9.999999999999993
 20
-0.0656090396381036
 30
0.0
 10
9.999999999999993
 20
-0.0747521097973996
 30
0.0
  0
SPLINE
  5
B4
330
1F
100
AcDbEntity
  8
0
  6
Continuous
 62
     4
370
    25
100
AcDbSpline
210
0.0
220
0.0
230
1.0
 70
     8
 71
     3
 72
    10
 73
     6
 74
     0
 42
0.000000001
 43
0.00000001
 40
0.0
 40
0.0
 40
0.0
 40
0.0
 40
0.5
 40
0.5
 40
1.0
 40
1.0
 40
1.0
 40
1.0
 10
9.999999999999602
 20
-0.0747521097972129
 30
0.0
 10
9.896581109931526
 20
-0.0027258646443501
 30
0.0
 10
9.7927044081846
 20
0.0696192241568345
 30
0.0
 10
9.586646404581808
 20
0.2131286378958003
 30
0.0
 10
9.485606828070107
 20
0.2840298106868099
 30
0.0
 10
9.383448921548045
 20
0.3542070505825463
 30
0.0
  0
SPLINE
  5
B5
330
1F
100
AcDbEntity
  8
0
  6
Continuous
 62
     4
370
    25
100
AcDbSpline
210
0.0
220
0.0
230
1.0
 70
     8
 71
     3
 72
    14
 73
    10
 74
     0
 42
0.000000001
 43
0.00000001
 40
0.0
 40
0.0
 40
0.0
 40
0.0
 40
0.2500000000000002
 40
0.2500000000000002
 40
0.5000000000000004
 40
0.5000000000000004
 40
0.7500000000000002
 40
0.7500000000000002
 40
1.0
 40
1.0
 40
1.0
 40
1.0
 10
9.110082167692296
 20
0.7627029150302247
 30
0.0
 10
9.110082167692296
 20
0.7405889833018929
 30
0.0
 10
9.121233400389743
 20
0.7078678934690761
 30
0.0
 10
9.151822544153985
 20
0.6384960058482211
 30
0.0
 10
9.171982790827114
 20
0.6007433593805858
 30
0.0
 10
9.218596967183924
 20
0.5259491753963365
 30
0.0
 10
9.245215508338708
 20
0.4884252298052545
 30
0.0
 10
9.307781272294806
 20
0.4159999023672565
 30
0.0
 10
9.343188276957136
 20
0.3818640475787477
 30
0.0
 10
9.383448921548046
 20
0.3542070505825439
 30
0.0
  0
LINE
  5
B6
330
1F
100
AcDbEntity
  8
0
  6
Continuous
 62
     4
370
    25
100
AcDbLine
 10
9.110082167692296
 20
1.440386189727259
 30
0.0
 11
9.110082167692294
 21
2.382324928723893
 31
0.0
  0
SPLINE
  5
B7
330
1F
100
AcDbEntity
  8
0
  6
Continuous
 62
     4
370
    25
100
AcDbSpline
210
0.0
220
0.0
230
1.0
 70
     8
 71
     3
 72
    10
 73
     6
 74
     0
 42
0.000000001
 43
0.00000001
 40
0.0
 40
0.0
 40
0.0
 40
0.0
 40
0.5
 40
0.5
 40
1.0
 40
1.0
 40
1.0
 40
1.0
 10
9.999999999999984
 20
0.6486787353984447
 30
0.0
 10
9.850852534719184
 20
0.7916250507286106
 30
0.0
 10
9.700760865205586
 20
0.9310490547524032
 30
0.0
 10
9.40646549488436
 20
1.195745510381194
 30
0.0
 10
9.259467097795007
 20
1.321913627335416
 30
0.0
 10
9.110137090487124
 20
1.440304886902622
 30
0.0
  0
LINE
  5
B8
330
1F
100
AcDbEntity
  8
0
  6
Continuous
 62
     4
370
    25
100
AcDbLine
 10
9.999999999999993
 20
0.6486787353984367
 30
0.0
 11
9.999999999999993
 21
-0.0093769173944426
 31
0.0
  0
LINE
  5
B9
330
1F
100
AcDbEntity
  8
0
  6
Continuous
 62
     4
370
    25
100
AcDbLine
 10
9.110082167692296
 20
-2.380175071276107
 30
0.0
 11
9.110082167692294
 21
0.8610307682243472
 31
0.0
  0
SPLINE
  5
BA
330
1F
100
AcDbEntity
  8
0
  6
Continuous
 62
     4
370
    25
100
AcDbSpline
210
0.0
220
0.0
230
1.0
 70
     8
 71
     3
 72
    12
 73
     8
 74
     0
 42
0.000000001
 43
0.00000001
 40
0.0
 40
0.0
 40
0.0
 40
0.0
 40
0.2500000000000001
 40
0.2500000000000001
 40
0.5000000000000001
 40
0.5000000000000001
 40
1.0
 40
1.0
 40
1.0
 40
1.0
 10
9.285622016744897
 20
-1.842506556206464
 30
0.0
 10
9.248012802217396
 20
-1.834932907654933
 30
0.0
 10
9.222397180905615
 20
-1.826180113101035
 30
0.0
 10
9.179592131924739
 20
-1.806904731613506
 30
0.0
 10
9.163523972186594
 20
-1.796657643335504
 30
0.0
 10
9.124409976409904
 20
-1.764771589886624
 30
0.0
 10
9.110082167692308
 20
-1.741635240193165
 30
0.0
 10
9.110082167692221
 20
-1.721710841360836
 30
0.0
  0
LINE
  5
BB
330
1F
100
AcDbEntity
  8
0
  6
Continuous
 62
     4
370
    25
100
AcDbLine
 10
9.999999999999721
 20
1.904102814964515
 30
0.0
 11
9.614405920896546
 21
1.889361230035183
 31
0.0
  0
SPLINE
  5
BC
330
1F
100
AcDbEntity
  8
0
  6
Continuous
 62
     4
370
    25
100
AcDbSpline
210
0.0
220
0.0
230
1.0
 70
    24
 71
     3
 72
    12
 73
     8
 74
     0
 42
0.000000001
 43
0.00000001
 40
0.0
 40
0.0
 40
0.0
 40
0.0
 40
0.267622332956121
 40
0.4615661524983456
 40
0.6611343559459826
 40
0.8349021807666961
 40
1.0
 40
1.0
 40
1.0
 40
1.0
 10
9.999999999999993
 20
1.904102814964504
 30
0.0
 10
9.999999999999993
 20
1.858950106379174
 30
0.0
 10
9.999999999999993
 20
1.781075581684605
 30
0.0
 10
9.999999999999993
 20
1.549270410959211
 30
0.0
 10
9.999999999999993
 20
1.294329461561631
 30
0.0
 10
9.999999999999993
 20
1.005540829655583
 30
0.0
 10
9.999999999999993
 20
0.7941208137269287
 30
0.0
 10
9.999999999999993
 20
0.6911154362725912
 30
0.0
  0
SPLINE
  5
BD
330
1F
100
AcDbEntity
  8
0
  6
Continuous
 62
     4
370
    25
100
AcDbSpline
210
0.0
220
0.0
230
1.0
 70
     8
 71
     3
 72
    10
 73
     6
 74
     0
 42
0.000000001
 43
0.00000001
 40
0.0
 40
0.0
 40
0.0
 40
0.0
 40
0.5
 40
0.5
 40
1.0
 40
1.0
 40
1.0
 40
1.0
 10
9.999999999999371
 20
-1.90195295751674
 30
0.0
 10
9.880137586500767
 20
-1.906297427059622
 30
0.0
 10
9.759661460951955
 20
-1.90343453377647
 30
0.0
 10
9.521538717244077
 20
-1.883485923740558
 30
0.0
 10
9.404869428699216
 20
-1.866520298587855
 30
0.0
 10
9.285622016744897
 20
-1.842506556206464
 30
0.0
  0
SPLINE
  5
BE
330
1F
100
AcDbEntity
  8
0
  6
Continuous
 62
     4
370
    25
100
AcDbSpline
210
0.0
220
0.0
230
1.0
 70
    24
 71
     3
 72
    14
 73
    10
 74
     0
 42
0.000000001
 43
0.00000001
 40
0.0
 40
0.0
 40
0.0
 40
0.0
 40
0.25
 40
0.25
 40
0.5
 40
0.5
 40
0.75
 40
0.75
 40
1.0
 40
1.0
 40
1.0
 40
1.0
 10
9.999999999999993
 20
-0.0747521097974842
 30
0.0
 10
9.999999999999993
 20
-0.2786019491772342
 30
0.0
 10
9.999999999999993
 20
-0.4823495565714089
 30
0.0
 10
9.999999999999993
 20
-0.8689819783069717
 30
0.0
 10
9.999999999999993
 20
-1.051638266814932
 30
0.0
 10
9.999999999999993
 20
-1.376384537683429
 30
0.0
 10
9.999999999999993
 20
-1.518301481653783
 30
0.0
 10
9.999999999999993
 20
-1.74970383755559
 30
0.0
 10
9.999999999999993
 20
-1.839178752656905
 30
0.0
 10
9.999999999999993
 20
-1.901952957516717
 30
0.0
  0
SPLINE
  5
BF
330
1F
100
AcDbEntity
  8
0
  6
Continuous
 62
     1
370
    25
100
AcDbSpline
210
0.0
220
0.0
230
1.0
 70
     8
 71
     3
 72
    21
 73
    17
 74
     0
 42
0.000000001
 43
0.00000001
 40
0.0
 40
0.0
 40
0.0
 40
0.0
 40
0.0745188026770369
 40
0.1487936242590508
 40
0.2234926179618643
 40
0.2977725636762247
 40
0.3722765083062382
 40
0.4468100620118062
 40
0.5210801791294841
 40
0.5957785394648093
 40
0.6700640288059543
 40
0.744553527308874
 40
0.8191012059888864
 40
0.8933670384696052
 40
0.9680641320980082
 40
1.0
 40
1.0
 40
1.0
 40
1.0
 10
21.11249999999999
 20
-2.258590516134567
 30
0.0
 10
20.94547087589616
 20
-2.196429553631179
 30
0.0
 10
20.61195949568871
 20
-2.072311149066956
 30
0.0
 10
20.11313110656516
 20
-1.76682888872843
 30
0.0
 10
19.61130079343291
 20
-1.393530414652939
 30
0.0
 10
19.11243881493189
 20
-0.9539816664916753
 30
0.0
 10
18.6120048314171
 20
-0.4748557414790748
 30
0.0
 10
18.11135852341702
 20
0.0249701912738079
 30
0.0
 10
17.61256077493208
 20
0.5263610753929743
 30
0.0
 10
17.11073499876141
 20
1.000738724173738
 30
0.0
 10
16.61183540364268
 20
1.434849740562655
 30
0.0
 10
16.11150834051058
 20
1.803586739235745
 30
0.0
 10
15.61074772833823
 20
2.094829823239296
 30
0.0
 10
15.11202634532517
 20
2.288956418948937
 30
0.0
 10
14.70526679359537
 20
2.382499114884405
 30
0.0
 10
14.46693327210214
 20
2.37249200954567
 30
0.0
 10
14.39555395608404
 20
2.369494947571656
 30
0.0
  0
SPLINE
  5
C0
330
1F
100
AcDbEntity
  8
0
  6
Continuous
 62
     1
370
    25
100
AcDbSpline
210
0.0
220
0.0
230
1.0
 70
     8
 71
     3
 72
    17
 73
    13
 74
     0
 42
0.000000001
 43
0.00000001
 40
0.0
 40
0.0
 40
0.0
 40
0.0
 40
0.1050237906198341
 40
0.2103526119095665
 40
0.3150859138669065
 40
0.4205885964931952
 40
0.5251912847948803
 40
0.6307355980732735
 40
0.7353681164030916
 40
0.8408215750905258
 40
0.9456442372948584
 40
1.0
 40
1.0
 40
1.0
 40
1.0
 10
21.11249999999999
 20
-1.87766527580292
 30
0.0
 10
20.9876410330271
 20
-1.833588639960418
 30
0.0
 10
20.73756045920597
 20
-1.745307352273719
 30
0.0
 10
20.36175543531431
 20
-1.558266458962671
 30
0.0
 10
19.98769019885667
 20
-1.333791797498358
 30
0.0
 10
19.61141622702402
 20
-1.078685034999806
 30
0.0
 10
19.23776003403849
 20
-0.7928514978200563
 30
0.0
 10
18.86137013062764
 20
-0.4921424985899571
 30
0.0
 10
18.48762645271677
 20
-0.1741451897122219
 30
0.0
 10
18.11146213033956
 20
0.1429611449451452
 30
0.0
 10
17.79756036439034
 20
0.4114447446899636
 30
0.0
 10
17.60798605727015
 20
0.5635667394715991
 30
0.0
 10
17.54325080147982
 20
0.6155128939538151
 30
0.0
  0
LINE
  5
C1
330
1F
100
AcDbEntity
  8
0
  6
Continuous
 62
     1
370
    25
100
AcDbLine
 10
21.11249999999992
 20
-2.258590516134569
 30
0.0
 11
21.11249999999999
 21
-1.87766527580292
 31
0.0
  0
SPLINE
  5
C2
330
1F
100
AcDbEntity
  8
0
  6
Continuous
 62
     1
370
    25
100
AcDbSpline
210
0.0
220
0.0
230
1.0
 70
     8
 71
     3
 72
    19
 73
    15
 74
     0
 42
0.000000001
 43
0.00000001
 40
0.0
 40
0.0
 40
0.0
 40
0.0
 40
0.0598384583480901
 40
0.1434233309526064
 40
0.2274935803028533
 40
0.3111072875293815
 40
0.3949280975594104
 40
0.47884537513779
 40
0.562425898131279
 40
0.6464940090763164
 40
0.7347683606561243
 40
0.8231222319054565
 40
0.9117849150103761
 40
1.0
 40
1.0
 40
1.0
 40
1.0
 10
15.96786208576035
 20
-1.871126560075553
 30
0.0
 10
15.84867511112665
 20
-1.943440413489028
 30
0.0
 10
15.56300276294062
 20
-2.116765295461194
 30
0.0
 10
15.11200162029214
 20
-2.288790370743108
 30
0.0
 10
14.61016737547352
 20
-2.388327075594788
 30
0.0
 10
14.11123395275638
 20
-2.380461913668236
 30
0.0
 10
13.61100042179342
 20
-2.268473086408823
 30
0.0
 10
13.11016432258094
 20
-2.057260753225527
 30
0.0
 10
12.61138984359504
 20
-1.753799185763709
 30
0.0
 10
12.10040678782437
 20
-1.369025338510573
 30
0.0
 10
11.58281543351843
 20
-0.9101308507014916
 30
0.0
 10
11.05543947717658
 20
-0.3995795528609875
 30
0.0
 10
10.52635049121673
 20
0.130906151322912
 30
0.0
 10
10.17515392352841
 20
0.476379286438804
 30
0.0
 10
10.00000000000011
 20
0.6486787353983277
 30
0.0
  0
SPLINE
  5
C3
330
1F
100
AcDbEntity
  8
0
  6
Continuous
 62
     1
370
    25
100
AcDbSpline
210
0.0
220
0.0
230
1.0
 70
     8
 71
     3
 72
    20
 73
    16
 74
     0
 42
0.000000001
 43
0.00000001
 40
0.0
 40
0.0
 40
0.0
 40
0.0
 40
0.0591375028934262
 40
0.1343663485417452
 40
0.2100993045528096
 40
0.2855074898747281
 40
0.3610453251184544
 40
0.4366898942599455
 40
0.511996439697233
 40
0.5877902319233097
 40
0.6629733768049055
 40
0.7388215085666492
 40
0.8139964946535454
 40
0.8898037502091508
 40
1.0
 40
1.0
 40
1.0
 40
1.0
 10
15.02928870830214
 20
-1.976135706938835
 30
0.0
 10
14.93112899930635
 20
-1.991901676706363
 30
0.0
 10
14.70810027765991
 20
-2.027723544137931
 30
0.0
 10
14.36158095024158
 20
-2.024647497717648
 30
0.0
 10
13.98566137020113
 20
-1.977090544530465
 30
0.0
 10
13.61097695295605
 20
-1.878655475675695
 30
0.0
 10
13.23577530652608
 20
-1.734166909032645
 30
0.0
 10
12.8601489104072
 20
-1.547273071491857
 30
0.0
 10
12.48590024882029
 20
-1.320303329377361
 30
0.0
 10
12.10971550708199
 20
-1.063571331461094
 30
0.0
 10
11.73599512036363
 20
-0.7765148130879954
 30
0.0
 10
11.35962613186716
 20
-0.4748107004971087
 30
0.0
 10
10.98585671030466
 20
-0.1568215783983851
 30
0.0
 10
10.55195752248169
 20
0.2114811181324308
 30
0.0
 10
10.24426625271523
 20
0.4657795894858384
 30
0.0
 10
10.06197708586059
 20
0.6164366312361826
 30
0.0
  0
SPLINE
  5
C4
330
1F
100
AcDbEntity
  8
0
  6
Continuous
 62
     1
370
    25
100
AcDbSpline
210
0.0
220
0.0
230
1.0
 70
     8
 71
     3
 72
    26
 73
    22
 74
     0
 42
0.000000001
 43
0.00000001
 40
0.0
 40
0.0
 40
0.0
 40
0.0
 40
0.0382870766740406
 40
0.091881550472982
 40
0.1451651778426052
 40
0.1986635506541412
 40
0.2521003293390867
 40
0.3054051456121552
 40
0.3590009871428595
 40
0.4122873905720281
 40
0.4657760642810586
 40
0.5192229275082904
 40
0.5725234572731636
 40
0.6261202106588113
 40
0.6794096924670402
 40
0.7328882159504218
 40
0.7863454605945301
 40
0.8396420056906365
 40
0.8932392150138864
 40
0.94653207741606
 40
1.0
 40
1.0
 40
1.0
 40
1.0
 10
11.75108785733897
 20
1.597983077128028
 30
0.0
 10
11.87037740345712
 20
1.686339005141786
 30
0.0
 10
12.15664915373639
 20
1.898376077820348
 30
0.0
 10
12.61136838050194
 20
2.137602115695367
 30
0.0
 10
13.11012314201291
 20
2.320074466202723
 30
0.0
 10
13.61096815821685
 20
2.396708321142287
 30
0.0
 10
14.11120070881856
 20
2.369371432401081
 30
0.0
 10
14.61014153221373
 20
2.236982704042554
 30
0.0
 10
15.11196097176703
 20
2.00795573293468
 30
0.0
 10
15.61073285769348
 20
1.688557157025762
 30
0.0
 10
16.11148310704536
 20
1.296739627169823
 30
0.0
 10
16.6118155934468
 20
0.8478505430311497
 30
0.0
 10
17.11071664651564
 20
0.3596660008652539
 30
0.0
 10
17.6125449183955
 20
-0.140483913747456
 30
0.0
 10
18.11134481928925
 20
-0.6384340145649106
 30
0.0
 10
18.61199359621159
 20
-1.105656476829274
 30
0.0
 10
19.11242968520077
 20
-1.524563802437458
 30
0.0
 10
19.61129398637046
 20
-1.878410447812477
 30
0.0
 10
20.11312655912648
 20
-2.145381004638867
 30
0.0
 10
20.61195721389462
 20
-2.32738569113665
 30
0.0
 10
20.9454701128886
 20
-2.361218388104532
 30
0.0
 10
21.11249999999999
 20
-2.378162475041696
 30
0.0
  0
SPLINE
  5
C5
330
1F
100
AcDbEntity
  8
0
  6
Continuous
 62
     1
370
    25
100
AcDbSpline
210
0.0
220
0.0
230
1.0
 70
     8
 71
     3
 72
    17
 73
    13
 74
     0
 42
0.000000001
 43
0.00000001
 40
0.0
 40
0.0
 40
0.0
 40
0.0
 40
0.0186334117751264
 40
0.1282925811321018
 40
0.2372421495226375
 40
0.3465423342578123
 40
0.4559426161778125
 40
0.5648583469738869
 40
0.6745153343115847
 40
0.7834751692596302
 40
0.8927512089058328
 40
1.0
 40
1.0
 40
1.0
 40
1.0
 10
17.69814268958353
 20
-0.2251239997953008
 30
0.0
 10
17.6697377982438
 20
-0.2056734383372847
 30
0.0
 10
17.47416777216755
 20
-0.0717547140568231
 30
0.0
 10
17.11102401017876
 20
0.1840548032838596
 30
0.0
 10
16.61165570716099
 20
0.5286760449975558
 30
0.0
 10
16.1114371110405
 20
0.8492460707865234
 30
0.0
 10
15.61098832838353
 20
1.132139513098554
 30
0.0
 10
15.11159741546306
 20
1.366974349767132
 30
0.0
 10
14.61049130551937
 20
1.54003268716386
 30
0.0
 10
14.11106807044794
 20
1.645589179647823
 30
0.0
 10
13.61415013366887
 20
1.683293015522245
 30
0.0
 10
13.28358777259676
 20
1.646966212633356
 30
0.0
 10
13.11985406369606
 20
1.628972868956201
 30
0.0
  0
SPLINE
  5
C6
330
1F
100
AcDbEntity
  8
0
  6
Continuous
 62
     1
370
    25
100
AcDbSpline
210
0.0
220
0.0
230
1.0
 70
     8
 71
     3
 72
    15
 73
    11
 74
     0
 42
0.000000001
 43
0.00000001
 40
0.0
 40
0.0
 40
0.0
 40
0.0
 40
0.1411596843833432
 40
0.283035653644459
 40
0.424417362495402
 40
0.5656719489915423
 40
0.7001989399593814
 40
0.8339456781917209
 40
0.9682314469635328
 40
1.0
 40
1.0
 40
1.0
 40
1.0
 10
10.00000000000016
 20
-0.0093769173946099
 30
0.0
 10
10.17515051976206
 20
-0.1851710142729779
 30
0.0
 10
10.52634032344815
 20
-0.5376512378875714
 30
0.0
 10
11.05541883540918
 20
-1.037342239934386
 30
0.0
 10
11.58278570021713
 20
-1.488336467984705
 30
0.0
 10
12.10036605748286
 20
-1.859417075092731
 30
0.0
 10
12.61136545662573
 20
-2.138650537978067
 30
0.0
 10
13.11007478966629
 20
-2.312107674424539
 30
0.0
 10
13.48362296104941
 20
-2.388598283158029
 30
0.0
 10
13.69004932875871
 20
-2.373571009084686
 30
0.0
 10
13.72954162826217
 20
-2.370696077868239
 30
0.0
  0
SPLINE
  5
C7
330
1F
100
AcDbEntity
  8
0
  6
Continuous
 62
     1
370
    25
100
AcDbSpline
210
0.0
220
0.0
230
1.0
 70
     8
 71
     3
 72
    11
 73
     7
 74
     0
 42
0.000000001
 43
0.00000001
 40
0.0
 40
0.0
 40
0.0
 40
0.0
 40
0.2032171485548702
 40
0.4695296417860657
 40
0.7343299035338984
 40
1.0
 40
1.0
 40
1.0
 40
1.0
 10
19.22852720717134
 20
1.597479743171566
 30
0.0
 10
19.35588666401215
 20
1.69070164458359
 30
0.0
 10
19.6501484454306
 20
1.906089205563885
 30
0.0
 10
20.11312216257896
 20
2.146098061692929
 30
0.0
 10
20.61195831462641
 20
2.329894268452705
 30
0.0
 10
20.94547048020006
 20
2.363487949483261
 30
0.0
 10
21.11249999999999
 20
2.380312332489484
 30
0.0
  0
SPLINE
  5
C8
330
1F
100
AcDbEntity
  8
0
  6
Continuous
 62
     1
370
    25
100
AcDbSpline
210
0.0
220
0.0
230
1.0
 70
    24
 71
     3
 72
    10
 73
     6
 74
     0
 42
0.000000001
 43
0.00000001
 40
0.0
 40
0.0
 40
0.0
 40
0.0
 40
0.5
 40
0.5
 40
1.0
 40
1.0
 40
1.0
 40
1.0
 10
21.11249999999999
 20
1.667949928723895
 30
0.0
 10
21.11249999999999
 20
1.768991740246311
 30
0.0
 10
21.11249999999999
 20
1.886411682713718
 30
0.0
 10
21.11249999999999
 20
2.132758405761932
 30
0.0
 10
21.11249999999999
 20
2.261056047726151
 30
0.0
 10
21.11249999999999
 20
2.380312332489485
 30
0.0
  0
LINE
  5
C9
330
1F
100
AcDbEntity
  8
0
  6
Continuous
 62
     1
370
    25
100
AcDbLine
 10
21.11249999999999
 20
1.667949928723894
 30
0.0
 11
20.62286713020921
 21
1.632105141161749
 31
0.0
  0
LINE
  5
CA
330
1F
100
AcDbEntity
  8
0
  6
Continuous
 62
     1
370
    25
100
AcDbLine
 10
10.21432734267917
 20
-0.2223735424633327
 30
0.0
 11
9.999999999999602
 21
-0.074752109797213
 31
0.0
  0
SPLINE
  5
CB
330
1F
100
AcDbEntity
  8
0
  6
Continuous
 62
     4
370
    25
100
AcDbSpline
210
0.0
220
0.0
230
1.0
 70
    24
 71
     3
 72
    10
 73
     6
 74
     0
 42
0.000000001
 43
0.00000001
 40
0.0
 40
0.0
 40
0.0
 40
0.0
 40
0.3233242733742944
 40
0.6609368913154092
 40
1.0
 40
1.0
 40
1.0
 40
1.0
 10
9.999999999999995
 20
-0.0093769173944456
 30
0.0
 10
9.999999999999995
 20
-0.0140088206278105
 30
0.0
 10
9.999999999999995
 20
-0.023477320137558
 30
0.0
 10
9.999999999999996
 20
-0.0473620128010256
 30
0.0
 10
9.999999999999995
 20
-0.0656090396381051
 30
0.0
 10
9.999999999999995
 20
-0.0747521097974009
 30
0.0
  0
LINE
  5
CC
330
1F
100
AcDbEntity
  8
0
  6
Continuous
 62
     1
370
    25
100
AcDbLine
 10
21.11249999999999
 20
-2.378162475041697
 30
0.0
 11
21.11249999999995
 21
-2.258590516134546
 31
0.0
  0
SPLINE
  5
CD
330
1F
100
AcDbEntity
  8
0
  6
Continuous
 62
     1
370
    25
100
AcDbSpline
210
0.0
220
0.0
230
1.0
 70
     8
 71
     3
 72
    14
 73
    10
 74
     0
 42
0.000000001
 43
0.00000001
 40
0.0
 40
0.0
 40
0.0
 40
0.0
 40
0.0009114011461292
 40
0.1989961084067288
 40
0.3977440327830893
 40
0.5965796973412631
 40
0.794635269674082
 40
0.9939588012386898
 40
1.0
 40
1.0
 40
1.0
 40
1.0
 10
19.61323149002771
 20
1.122276678698775
 30
0.0
 10
19.61246721191643
 20
1.122771146338076
 30
0.0
 10
19.44559407319952
 20
1.23073363505314
 30
0.0
 10
19.11220413774639
 20
1.430739649161103
 30
0.0
 10
18.61201628725728
 20
1.665361266767684
 30
0.0
 10
18.11146663103073
 20
1.829714398678723
 30
0.0
 10
17.61241063910952
 20
1.904502362759583
 30
0.0
 10
17.27244757540085
 20
1.922655376542425
 30
0.0
 10
17.10023681123926
 20
1.892940604838867
 30
0.0
 10
17.09517090019657
 20
1.892066487643946
 30
0.0
  0
SPLINE
  5
CE
330
1F
100
AcDbEntity
  8
0
  6
Continuous
 62
     1
370
    25
100
AcDbSpline
210
0.0
220
0.0
230
1.0
 70
     8
 71
     3
 72
     9
 73
     5
 74
     0
 42
0.000000001
 43
0.00000001
 40
0.0
 40
0.0
 40
0.0
 40
0.0
 40
0.1541000182344741
 40
1.0
 40
1.0
 40
1.0
 40
1.0
 10
10.72037653742294
 20
-1.782763416128538
 30
0.0
 10
10.68334148320877
 20
-1.794955205736328
 30
0.0
 10
10.44301020590926
 20
-1.874071287275266
 30
0.0
 10
10.20301334243575
 20
-1.889175935694405
 30
0.0
 10
9.999999999999721
 20
-1.901952957516728
 30
0.0
  0
SPLINE
  5
CF
330
1F
100
AcDbEntity
  8
0
  6
Continuous
 62
     1
370
    25
100
AcDbSpline
210
0.0
220
0.0
230
1.0
 70
    24
 71
     3
 72
     8
 73
     4
 74
     0
 42
0.000000001
 43
0.00000001
 40
0.0
 40
0.0
 40
0.0
 40
0.0
 40
0.0002907825813422
 40
0.0002907825813422
 40
0.0002907825813422
 40
0.0002907825813422
 10
19.61323149000264
 20
1.122276678714994
 30
0.0
 10
19.54175111103414
 20
1.062297519086111
 30
0.0
 10
19.47023963434814
 20
1.002292265372195
 30
0.0
 10
19.39873221139079
 20
0.9422904131422413
 30
0.0
  0
SPLINE
  5
D0
330
1F
100
AcDbEntity
  8
0
  6
Continuous
 62
     1
370
    25
100
AcDbSpline
210
0.0
220
0.0
230
1.0
 70
     8
 71
     3
 72
    12
 73
     8
 74
     0
 42
0.000000001
 43
0.00000001
 40
0.0
 40
0.0
 40
0.0
 40
0.0
 40
0.5000000000000008
 40
0.5000000000000008
 40
0.7500000000000003
 40
0.7500000000000003
 40
1.0
 40
1.0
 40
1.0
 40
1.0
 10
21.11249999999999
 20
-0.6352973365091972
 30
0.0
 10
20.80807879611368
 20
-0.395353710846597
 30
0.0
 10
20.50892123933806
 20
-0.1424027211929295
 30
0.0
 10
20.0692404989244
 20
0.2594016724802941
 30
0.0
 10
19.9269344079254
 20
0.3947058684850604
 30
0.0
 10
19.65364356529658
 20
0.6670032898214527
 30
0.0
 10
19.52132774255333
 20
0.8054015459412744
 30
0.0
 10
19.39873221138308
 20
0.9422904131374407
 30
0.0
  0
SPLINE
  5
D1
330
1F
100
AcDbEntity
  8
0
  6
Continuous
 62
     1
370
    25
100
AcDbSpline
210
0.0
220
0.0
230
1.0
 70
    24
 71
     3
 72
    10
 73
     6
 74
     0
 42
0.000000001
 43
0.00000001
 40
0.0
 40
0.0
 40
0.0
 40
0.0
 40
0.5
 40
0.5
 40
1.0
 40
1.0
 40
1.0
 40
1.0
 10
21.11249999999999
 20
-1.87766527580292
 30
0.0
 10
21.11249999999999
 20
-1.733645191341416
 30
0.0
 10
21.11249999999999
 20
-1.551670292328384
 30
0.0
 10
21.11249999999999
 20
-1.128596165253663
 30
0.0
 10
21.11249999999999
 20
-0.8878634200420371
 30
0.0
 10
21.11249999999999
 20
-0.6352973365092732
 30
0.0
  0
SPLINE
  5
D2
330
1F
100
AcDbEntity
  8
0
  6
Continuous
 62
     1
370
    25
100
AcDbSpline
210
0.0
220
0.0
230
1.0
 70
     8
 71
     3
 72
    24
 73
    20
 74
     0
 42
0.000000001
 43
0.00000001
 40
0.0
 40
0.0
 40
0.0
 40
0.0
 40
0.0109690943586767
 40
0.071779192958447
 40
0.1329786000992363
 40
0.1938026901740613
 40
0.2548122218418704
 40
0.315874687225242
 40
0.3766808867040219
 40
0.4378791401905907
 40
0.4987086582379729
 40
0.5597054216249332
 40
0.6207801670565365
 40
0.6815828500104025
 40
0.742779373080121
 40
0.8036147008614388
 40
0.8645990717540181
 40
0.9256855259849374
 40
1.0
 40
1.0
 40
1.0
 40
1.0
 10
18.20113783579352
 20
-1.783801893773312
 30
0.0
 10
18.17113347110054
 20
-1.79378418773182
 30
0.0
 10
17.97479191249322
 20
-1.859105989221194
 30
0.0
 10
17.61237356444112
 20
-1.903986713758625
 30
0.0
 10
17.11093536620078
 20
-1.907767896426901
 30
0.0
 10
16.61171321857257
 20
-1.820493013668177
 30
0.0
 10
16.11146004766441
 20
-1.655211413643153
 30
0.0
 10
15.61090251525013
 20
-1.417330828540784
 30
0.0
 10
15.1117332865625
 20
-1.115128921880875
 30
0.0
 10
14.61037632759692
 20
-0.7670967603250785
 30
0.0
 10
14.1111099820652
 20
-0.3821212691177834
 30
0.0
 10
13.61093662518116
 20
0.018051474416486
 30
0.0
 10
13.11030491460011
 20
0.4167681181144247
 30
0.0
 10
12.61115162126372
 20
0.7999926028663134
 30
0.0
 10
12.10979871849863
 20
1.144387502201406
 30
0.0
 10
11.61052732762632
 20
1.441977954422563
 30
0.0
 10
11.11034434207684
 20
1.673051557037283
 30
0.0
 10
10.57296622810165
 20
1.849408747612243
 30
0.0
 10
10.20303555871747
 20
1.884721497220532
 30
0.0
 10
9.999999999999721
 20
1.904102814964515
 30
0.0
  0
SPLINE
  5
D3
330
1F
100
AcDbEntity
  8
0
  6
Continuous
 62
     4
370
    25
100
AcDbSpline
210
0.0
220
0.0
230
1.0
 70
    24
 71
     3
 72
    12
 73
     8
 74
     0
 42
0.000000001
 43
0.00000001
 40
0.0
 40
0.0
 40
0.0
 40
0.0
 40
0.2676223329561214
 40
0.4615661524983465
 40
0.6611343559459831
 40
0.834902180766697
 40
1.0
 40
1.0
 40
1.0
 40
1.0
 10
9.999999999999993
 20
1.904102814964504
 30
0.0
 10
9.999999999999995
 20
1.858950106379174
 30
0.0
 10
9.999999999999995
 20
1.781075581684604
 30
0.0
 10
9.999999999999996
 20
1.549270410959211
 30
0.0
 10
9.999999999999995
 20
1.294329461561629
 30
0.0
 10
9.999999999999996
 20
1.005540829655582
 30
0.0
 10
9.999999999999995
 20
0.7941208137269281
 30
0.0
 10
9.999999999999995
 20
0.6911154362725912
 30
0.0
  0
LINE
  5
D4
330
1F
100
AcDbEntity
  8
0
  6
Continuous
 62
     1
370
    25
100
AcDbLine
 10
19.44478317140749
 20
0.9809317567093703
 30
0.0
 11
21.11249999999999
 21
0.0010749287238946
 31
0.0
  0
LINE
  5
D5
330
1F
100
AcDbEntity
  8
0
  6
Continuous
 62
     1
370
    25
100
AcDbLine
 10
21.11249999999999
 20
0.0010749287238946
 30
0.0
 11
21.11249999999999
 21
-0.6352973365091973
 31
0.0
  0
SPLINE
  5
D6
330
1F
100
AcDbEntity
  8
0
  6
Continuous
 62
     1
370
    25
100
AcDbSpline
210
0.0
220
0.0
230
1.0
 70
    24
 71
     3
 72
     8
 73
     4
 74
     0
 42
0.000000001
 43
0.00000001
 40
0.0
 40
0.0
 40
0.0
 40
0.0
 40
1.0
 40
1.0
 40
1.0
 40
1.0
 10
19.86613990097429
 20
1.334492033082934
 30
0.0
 10
19.7899586973669
 20
1.270568413233339
 30
0.0
 10
19.704847034994
 20
1.199151248727347
 30
0.0
 10
19.61323149000264
 20
1.122276678714996
 30
0.0
  0
SPLINE
  5
D7
330
1F
100
AcDbEntity
  8
0
  6
Continuous
 62
     1
370
    25
100
AcDbSpline
210
0.0
220
0.0
230
1.0
 70
     8
 71
     3
 72
     8
 73
     4
 74
     0
 42
0.000000001
 43
0.00000001
 40
0.0
 40
0.0
 40
0.0
 40
0.0
 40
1.0
 40
1.0
 40
1.0
 40
1.0
 10
21.11249999999999
 20
1.667949928723894
 30
0.0
 10
20.70160869157881
 20
1.529511301836247
 30
0.0
 10
20.28552878997046
 20
1.417053201243429
 30
0.0
 10
19.86613990096678
 20
1.334492033077599
 30
0.0
  0
SPLINE
  5
D8
330
1F
100
AcDbEntity
  8
0
  6
Continuous
 62
     4
370
    25
100
AcDbSpline
210
0.0
220
0.0
230
1.0
 70
    24
 71
     3
 72
    14
 73
    10
 74
     0
 42
0.000000001
 43
0.00000001
 40
0.0
 40
0.0
 40
0.0
 40
0.0
 40
0.25
 40
0.25
 40
0.5
 40
0.5
 40
0.75
 40
0.75
 40
1.0
 40
1.0
 40
1.0
 40
1.0
 10
9.999999999999995
 20
-0.0747521097974853
 30
0.0
 10
9.999999999999995
 20
-0.2786019491772354
 30
0.0
 10
9.999999999999995
 20
-0.48234955657141
 30
0.0
 10
9.999999999999995
 20
-0.8689819783069725
 30
0.0
 10
9.999999999999995
 20
-1.051638266814933
 30
0.0
 10
9.999999999999995
 20
-1.37638453768343
 30
0.0
 10
9.999999999999995
 20
-1.518301481653783
 30
0.0
 10
9.999999999999995
 20
-1.74970383755559
 30
0.0
 10
9.999999999999995
 20
-1.839178752656905
 30
0.0
 10
9.999999999999995
 20
-1.901952957516717
 30
0.0
  0
LINE
  5
D9
330
1F
100
AcDbEntity
  8
0
  6
Continuous
 62
     1
370
    25
100
AcDbLine
 10
21.11249999999999
 20
0.0010749287238946
 30
0.0
 11
21.11249999999999
 21
1.667949928723895
 31
0.0
  0
LINE
  5
DA
330
1F
100
AcDbEntity
  8
중심선
100
AcDbLine
 10
-32.68749999999999
 20
0.0010749287238931
 30
0.0
 11
33.25935371504374
 21
0.0010749287238931
 31
0.0
  0
CIRCLE
  5
DB
330
1F
100
AcDbEntity
  8
외형선
100
AcDbCircle
 10
-0.0000000000002654
 20
0.0
 30
0.0
 40
3.000000000000265
  0
INSERT
  5
DC
330
1F
100
AcDbEntity
  8
0
  6
Continuous
 62
     7
100
AcDbBlockReference
 66
     1
  2
블럭10
 10
-16.6381869743017
 20
-52.04609937292004
 30
0.0
  0
ATTRIB
  5
DD
330
DC
100
AcDbEntity
  8
FORMAT
 62
     2
100
AcDbText
 10
-25.81948226304298
 20
-49.97073246008785
 30
0.0
 40
4.233333333333333
  1
E5254012 [ 2 FLUTE ]
 41
0.75
  7
SLDTEXTSTYLE0
 11
-25.81948226304298
 21
-52.08739912675452
 31
0.0
100
AcDbAttribute
  2
AUTOATTR0
 70
     0
 74
     1
  0
SEQEND
  5
DE
330
DC
100
AcDbEntity
  8
0
  6
Continuous
 62
     7
  0
HATCH
  5
DF
330
1F
100
AcDbEntity
  8
중심선
100
AcDbHatch
 10
0.0
 20
0.0
 30
0.0
210
0.0
220
0.0
230
1.0
  2
SOLID
 70
     1
 71
     0
 91
        1
 92
        0
 93
        4
 72
     1
 10
-10.92327766992085
 20
-35.7989250712761
 11
-14.36955291375813
 21
-35.7989250712761
 72
     1
 10
-14.36955291375813
 20
-35.7989250712761
 11
-16.49778277296215
 21
-38.3352506518487
 72
     1
 10
-16.49778277296215
 20
-38.3352506518487
 11
-13.05147444401172
 21
-38.33521122254621
 72
     1
 10
-13.05147444401172
 20
-38.33521122254621
 11
-10.92327766992085
 21
-35.7989250712761
 97
        0
 75
     0
 76
     1
 98
        1
 10
0.0
 20
0.0
  0
HATCH
  5
E0
330
1F
100
AcDbEntity
  8
중심선
100
AcDbHatch
 10
0.0
 20
0.0
 30
0.0
210
0.0
220
0.0
230
1.0
  2
SOLID
 70
     1
 71
     0
 91
        1
 92
        0
 93
        4
 72
     1
 10
-5.910513678884898
 20
-35.7989250712761
 11
-9.356788922722181
 21
-35.7989250712761
 72
     1
 10
-9.356788922722181
 20
-35.7989250712761
 11
-13.88792693107957
 21
-41.19892507127612
 72
     1
 10
-13.88792693107957
 20
-41.19892507127612
 11
-10.44165168724229
 21
-41.19892507127612
 72
     1
 10
-10.44165168724229
 20
-41.19892507127612
 11
-5.910513678884898
 21
-35.7989250712761
 97
        0
 75
     0
 76
     1
 98
        1
 10
0.0
 20
0.0
  0
HATCH
  5
E1
330
1F
100
AcDbEntity
  8
중심선
100
AcDbHatch
 10
0.0
 20
0.0
 30
0.0
210
0.0
220
0.0
230
1.0
  2
SOLID
 70
     1
 71
     0
 91
        1
 92
        0
 93
        4
 72
     1
 10
-0.8977496878490032
 20
-35.79892507127613
 11
-4.344024931686119
 21
-35.7989250712761
 72
     1
 10
-4.344024931686119
 20
-35.7989250712761
 11
-11.39246183357537
 21
-44.19892507127612
 72
     1
 10
-11.39246183357537
 20
-44.19892507127612
 11
-7.946186589738086
 21
-44.19892507127612
 72
     1
 10
-7.946186589738086
 20
-44.19892507127612
 11
-0.8977496878490028
 21
-35.79892507127613
 97
        0
 75
     0
 76
     1
 98
        1
 10
0.0
 20
0.0
  0
HATCH
  5
E2
330
1F
100
AcDbEntity
  8
중심선
100
AcDbHatch
 10
0.0
 20
0.0
 30
0.0
210
0.0
220
0.0
230
1.0
  2
SOLID
 70
     1
 71
     0
 91
        1
 92
        0
 93
        6
 72
     3
 10
3.902140743163196
 20
-39.99892507132738
 11
3.960054785062284
 21
1.540850780301639E-10
 40
0.3939339440162633
 50
17.09539180608433
 51
320.0019657685079
 73
     0
 72
     1
 10
5.585140398863792
 20
-38.58681907591441
 11
7.89044227256483
 21
-36.65249236586649
 72
     3
 10
3.902140743110349
 20
-39.99892507127625
 11
6.600054785286829
 21
-1.249000902703301E-13
 40
0.6363583540795982
 50
39.99873849337408
 51
368.4976242363724
 73
     1
 72
     1
 10
10.32747323501096
 20
-39.03892507120613
 11
2.582208049946273
 21
-39.0389250712061
 72
     1
 10
2.582208049946272
 20
-39.0389250712061
 11
2.582183005500338
 21
-40.95892507120602
 72
     1
 10
2.582183005500338
 20
-40.95892507120602
 11
7.023562774972376
 21
-40.95892507120599
 97
        0
 75
     0
 76
     1
 98
        1
 10
0.0
 20
0.0
  0
DIMENSION
  5
E3
330
1F
100
AcDbEntity
  8
치수문자_일반주서
100
AcDbDimension
  2
_D
 10
-29.68750000000001
 20
37.97049579413542
 30
0.0
 11
-4.287500000000009
 21
37.97049579413542
 31
0.0
 70
   160
  1
<>
 71
     2
 42
50.8
  3
SLDDIMSTYLE0
100
AcDbAlignedDimension
 13
21.11249999999999
 23
2.380312332489485
 33
0.0
 14
-29.68750000000001
 24
2.366074928723888
 34
0.0
 50
-0.000000000000008
100
AcDbRotatedDimension
1001
ACAD
1000
DSTYLE
1002
{
1070
   171
1070
     6
1070
   273
1070
     7
1002
}
  0
DIMENSION
  5
F7
330
1F
100
AcDbEntity
  8
치수문자_일반주서
100
AcDbDimension
  2
_D_1
 10
-42.6875
 20
-3.173925071276166
 30
0.0
 11
-42.68750000000001
 21
0.0010749287238793
 31
0.0
 70
   160
  1
%%c<>
 71
     2
 42
6.349999999999994
  3
SLDDIMSTYLE1
100
AcDbAlignedDimension
 13
-28.87750000000002
 23
3.176074928723876
 33
0.0
 14
-28.87750000000002
 24
-3.173925071276118
 34
0.0
 50
90.0000000000002
100
AcDbRotatedDimension
1001
ACAD
1000
DSTYLE
1002
{
1070
   171
1070
     6
1070
   273
1070
     7
1002
}
  0
DIMENSION
  5
10C
330
1F
100
AcDbEntity
  8
치수문자_일반주서
100
AcDbDimension
  2
_D_2
 10
9.999999999999721
 20
22.61692984598999
 30
0.0
 11
15.55624999999985
 21
22.61692984598999
 31
0.0
 70
   160
  1
<>
 71
     2
 42
11.11250000000027
  3
SLDDIMSTYLE1
100
AcDbAlignedDimension
 13
21.11249999999999
 23
2.380312332489485
 33
0.0
 14
9.999999999999721
 24
1.904102814964514
 34
0.0
100
AcDbRotatedDimension
1001
ACAD
1000
DSTYLE
1002
{
1070
   171
1070
     6
1070
   273
1070
     7
1002
}
  0
DIMENSION
  5
121
330
1F
100
AcDbEntity
  8
치수문자_일반주서
100
AcDbDimension
  2
_D_3
 10
41.32185371504376
 20
-2.370696077868143
 30
0.0
 11
41.32185371504368
 21
22.98632492872399
 31
0.0
 70
   160
  1
%%c<>
 71
     2
 42
4.753021006592133
  3
SLDDIMSTYLE1
100
AcDbAlignedDimension
 13
13.72954162826218
 23
2.382324928723895
 33
0.0
 14
13.72954162826217
 24
-2.370696077868239
 34
0.0
 50
90.0000000000002
100
AcDbRotatedDimension
1001
ACAD
1000
DSTYLE
1002
{
1070
   171
1070
     6
1070
   273
1070
     7
1002
}
  0
INSERT
  5
13B
330
1F
100
AcDbEntity
  8
외형선
100
AcDbBlockReference
  2
SW_DOWELSYMBOL_0
 10
-0.0000000000002654
 20
0.0
 30
0.0
  0
ARC
  5
184
330
1F
100
AcDbEntity
  8
0
  6
Continuous
 62
     4
370
    25
100
AcDbCircle
 10
8.999999999999996
 20
15.08232492872389
 30
0.0
 40
12.7
100
AcDbArc
 50
249.6358651936822
 51
270.0
1001
PE_URL
1000

  0
ARC
  5
189
330
1F
100
AcDbEntity
  8
0
  6
Continuous
 62
     4
370
    25
100
AcDbCircle
 10
9.000000000000002
 20
-15.08017507127611
 30
0.0
 40
12.7
100
AcDbArc
 50
90.00000000000001
 51
110.3641348063178
1001
PE_URL
1000

  0
ENDSEC
  0
SECTION
  2
OBJECTS
  0
DICTIONARY
  5
C
330
0
100
AcDbDictionary
281
     1
  3
ACAD_GROUP
350
D
  3
ACAD_IMAGE_VARS
350
15F
  3
ACAD_LAYOUT
350
1A
  3
ACAD_MLINESTYLE
350
17
  3
ACAD_PLOTSETTINGS
350
19
  3
ACAD_PLOTSTYLENAME
350
E
  3
ACAD_SCALELIST
350
47
  3
APPDATA
350
15D
  3
DWGPROPS
350
18B
  0
DICTIONARY
  5
186
330
1F
100
AcDbDictionary
280
     1
281
     1
  3
ACAD_SORTENTS
360
187
  3
DIM_BOUNDING_BOXES_V1
360
18A
  0
DICTIONARY
  5
D
102
{ACAD_REACTORS
330
C
102
}
330
C
100
AcDbDictionary
281
     1
  0
RASTERVARIABLES
  5
15F
102
{ACAD_REACTORS
330
C
102
}
330
C
100
AcDbRasterVariables
 90
        0
 70
     1
 71
     1
 72
     1
  0
DICTIONARY
  5
1A
102
{ACAD_REACTORS
330
C
102
}
330
C
100
AcDbDictionary
281
     1
  3
Layout1
350
1E
  3
Layout2
350
26
  3
Model
350
22
  0
DICTIONARY
  5
17
102
{ACAD_REACTORS
330
C
102
}
330
C
100
AcDbDictionary
281
     1
  3
Standard
350
18
  0
DICTIONARY
  5
19
102
{ACAD_REACTORS
330
C
102
}
330
C
100
AcDbDictionary
281
     1
  0
ACDBDICTIONARYWDFLT
  5
E
102
{ACAD_REACTORS
330
C
102
}
330
C
100
AcDbDictionary
281
     1
  3
Normal
350
F
100
AcDbDictionaryWithDefault
340
F
  0
DICTIONARY
  5
47
102
{ACAD_REACTORS
330
C
102
}
330
C
100
AcDbDictionary
281
     1
  3
A0
350
48
  3
A1
350
49
  3
A2
350
4A
  3
A3
350
4B
  3
A4
350
4C
  3
A5
350
4D
  3
A6
350
4E
  3
A7
350
4F
  3
A8
350
50
  3
A9
350
51
  3
B0
350
52
  3
B1
350
53
  3
B2
350
54
  3
B3
350
55
  3
B4
350
56
  3
B5
350
57
  3
B6
350
58
  3
B7
350
59
  3
B8
350
5A
  3
B9
350
5B
  3
C0
350
5C
  3
C1
350
5D
  3
C2
350
5E
  3
C3
350
5F
  3
C4
350
60
  3
C5
350
61
  3
C6
350
62
  3
C7
350
63
  3
C8
350
64
  3
C9
350
65
  3
D0
350
66
  3
D1
350
67
  3
D2
350
68
  0
DICTIONARY
  5
15D
102
{ACAD_REACTORS
330
C
102
}
330
C
100
AcDbDictionary
281
     1
  0
XRECORD
  5
18B
102
{ACAD_REACTORS
330
C
102
}
330
C
100
AcDbXrecord
280
     1
  1
DWGPROPS COOKIE
  2

  3

  4

  6

  7

  8
12014102
  9

300
=
301
=
302
=
303
=
304
=
305
=
306
=
307
=
308
=
309
=
 40
0.0
 41
2458263.245944815
 42
2459722.926849201
  1

 90
        0
  0
SORTENTSTABLE
  5
187
102
{ACAD_REACTORS
330
186
102
}
330
186
100
AcDbSortentsTable
330
1F
  0
DICTIONARY
  5
18A
102
{ACAD_REACTORS
330
186
102
}
330
186
100
AcDbDictionary
281
     1
  0
LAYOUT
  5
1E
102
{ACAD_REACTORS
330
1A
102
}
330
1A
100
AcDbPlotSettings
  1

  2
none_device
  4

  6

 40
0.0
 41
0.0
 42
0.0
 43
0.0
 44
0.0
 45
0.0
 46
0.0
 47
0.0
 48
0.0
 49
0.0
140
0.0
141
0.0
142
1.0
143
1.0
 70
   688
 72
     1
 73
     0
 74
     5
  7

 75
    16
147
1.0
148
0.0
149
0.0
100
AcDbLayout
  1
Layout1
 70
     1
 71
     1
 10
0.0
 20
0.0
 11
420.0
 21
297.0
 12
0.0
 22
0.0
 32
0.0
 14
1.000000000000000E+20
 24
1.000000000000000E+20
 34
1.000000000000000E+20
 15
-1.000000000000000E+20
 25
-1.000000000000000E+20
 35
-1.000000000000000E+20
146
0.0
 13
0.0
 23
0.0
 33
0.0
 16
1.0
 26
0.0
 36
0.0
 17
0.0
 27
1.0
 37
0.0
 76
     0
330
1B
  0
LAYOUT
  5
26
102
{ACAD_REACTORS
330
1A
102
}
330
1A
100
AcDbPlotSettings
  1

  2
none_device
  4

  6

 40
0.0
 41
0.0
 42
0.0
 43
0.0
 44
0.0
 45
0.0
 46
0.0
 47
0.0
 48
0.0
 49
0.0
140
0.0
141
0.0
142
1.0
143
1.0
 70
   688
 72
     1
 73
     0
 74
     5
  7

 75
    16
147
1.0
148
0.0
149
0.0
100
AcDbLayout
  1
Layout2
 70
     1
 71
     2
 10
0.0
 20
0.0
 11
0.0
 21
0.0
 12
0.0
 22
0.0
 32
0.0
 14
0.0
 24
0.0
 34
0.0
 15
0.0
 25
0.0
 35
0.0
146
0.0
 13
0.0
 23
0.0
 33
0.0
 16
1.0
 26
0.0
 36
0.0
 17
0.0
 27
1.0
 37
0.0
 76
     0
330
23
  0
LAYOUT
  5
22
102
{ACAD_REACTORS
330
1A
102
}
330
1A
100
AcDbPlotSettings
  1

  2
none_device
  4
ANSI_A_(11.00_x_8.50_Inches)
  6

 40
6.35
 41
19.05
 42
6.35000508
 43
19.05000254
 44
279.4
 45
215.9
 46
145.337739062778
 47
90.99632614766769
 48
0.0
 49
0.0
140
0.0
141
0.0
142
0.0845915036061701
143
1.0
 70
  1696
 72
     0
 73
     0
 74
     0
  7

 75
     0
147
0.0235690232323232
148
0.0
149
0.0
100
AcDbLayout
  1
Model
 70
     1
 71
     0
 10
0.0
 20
0.0
 11
420.0
 21
297.0
 12
0.0
 22
0.0
 32
0.0
 14
-47.06250000000006
 24
-49.97073246008785
 34
0.0
 15
41.87218704837711
 25
42.34549579413542
 35
0.0
146
0.0
 13
0.0
 23
0.0
 33
0.0
 16
1.0
 26
0.0
 36
0.0
 17
0.0
 27
1.0
 37
0.0
 76
     0
330
1F
331
29
  0
MLINESTYLE
  5
18
102
{ACAD_REACTORS
330
17
102
}
330
17
100
AcDbMlineStyle
  2
Standard
 70
     0
  3

 62
   256
 51
90.0
 52
90.0
 71
     2
 49
0.5
 62
   256
  6
BYLAYER
 49
-0.5
 62
   256
  6
BYLAYER
  0
ACDBPLACEHOLDER
  5
F
102
{ACAD_REACTORS
330
E
102
}
330
E
  0
SCALE
  5
48
102
{ACAD_REACTORS
330
47
102
}
330
47
100
AcDbScale
 70
     0
300
1:1
140
1.0
141
1.0
290
     1
  0
SCALE
  5
49
102
{ACAD_REACTORS
330
47
102
}
330
47
100
AcDbScale
 70
     0
300
1:2
140
1.0
141
2.0
290
     0
  0
SCALE
  5
4A
102
{ACAD_REACTORS
330
47
102
}
330
47
100
AcDbScale
 70
     0
300
1:4
140
1.0
141
4.0
290
     0
  0
SCALE
  5
4B
102
{ACAD_REACTORS
330
47
102
}
330
47
100
AcDbScale
 70
     0
300
1:5
140
1.0
141
5.0
290
     0
  0
SCALE
  5
4C
102
{ACAD_REACTORS
330
47
102
}
330
47
100
AcDbScale
 70
     0
300
1:8
140
1.0
141
8.0
290
     0
  0
SCALE
  5
4D
102
{ACAD_REACTORS
330
47
102
}
330
47
100
AcDbScale
 70
     0
300
1:10
140
1.0
141
10.0
290
     0
  0
SCALE
  5
4E
102
{ACAD_REACTORS
330
47
102
}
330
47
100
AcDbScale
 70
     0
300
1:16
140
1.0
141
16.0
290
     0
  0
SCALE
  5
4F
102
{ACAD_REACTORS
330
47
102
}
330
47
100
AcDbScale
 70
     0
300
1:20
140
1.0
141
20.0
290
     0
  0
SCALE
  5
50
102
{ACAD_REACTORS
330
47
102
}
330
47
100
AcDbScale
 70
     0
300
1:30
140
1.0
141
30.0
290
     0
  0
SCALE
  5
51
102
{ACAD_REACTORS
330
47
102
}
330
47
100
AcDbScale
 70
     0
300
1:40
140
1.0
141
40.0
290
     0
  0
SCALE
  5
52
102
{ACAD_REACTORS
330
47
102
}
330
47
100
AcDbScale
 70
     0
300
1:50
140
1.0
141
50.0
290
     0
  0
SCALE
  5
53
102
{ACAD_REACTORS
330
47
102
}
330
47
100
AcDbScale
 70
     0
300
1:100
140
1.0
141
100.0
290
     0
  0
SCALE
  5
54
102
{ACAD_REACTORS
330
47
102
}
330
47
100
AcDbScale
 70
     0
300
2:1
140
2.0
141
1.0
290
     0
  0
SCALE
  5
55
102
{ACAD_REACTORS
330
47
102
}
330
47
100
AcDbScale
 70
     0
300
4:1
140
4.0
141
1.0
290
     0
  0
SCALE
  5
56
102
{ACAD_REACTORS
330
47
102
}
330
47
100
AcDbScale
 70
     0
300
8:1
140
8.0
141
1.0
290
     0
  0
SCALE
  5
57
102
{ACAD_REACTORS
330
47
102
}
330
47
100
AcDbScale
 70
     0
300
10:1
140
10.0
141
1.0
290
     0
  0
SCALE
  5
58
102
{ACAD_REACTORS
330
47
102
}
330
47
100
AcDbScale
 70
     0
300
100:1
140
100.0
141
1.0
290
     0
  0
SCALE
  5
59
102
{ACAD_REACTORS
330
47
102
}
330
47
100
AcDbScale
 70
     0
300
1/128" = 1'-0"
140
0.0078125
141
12.0
290
     0
  0
SCALE
  5
5A
102
{ACAD_REACTORS
330
47
102
}
330
47
100
AcDbScale
 70
     0
300
1/64" = 1'-0"
140
0.015625
141
12.0
290
     0
  0
SCALE
  5
5B
102
{ACAD_REACTORS
330
47
102
}
330
47
100
AcDbScale
 70
     0
300
1/32" = 1'-0"
140
0.03125
141
12.0
290
     0
  0
SCALE
  5
5C
102
{ACAD_REACTORS
330
47
102
}
330
47
100
AcDbScale
 70
     0
300
1/16" = 1'-0"
140
0.0625
141
12.0
290
     0
  0
SCALE
  5
5D
102
{ACAD_REACTORS
330
47
102
}
330
47
100
AcDbScale
 70
     0
300
3/32" = 1'-0"
140
0.09375
141
12.0
290
     0
  0
SCALE
  5
5E
102
{ACAD_REACTORS
330
47
102
}
330
47
100
AcDbScale
 70
     0
300
1/8" = 1'-0"
140
0.125
141
12.0
290
     0
  0
SCALE
  5
5F
102
{ACAD_REACTORS
330
47
102
}
330
47
100
AcDbScale
 70
     0
300
3/16" = 1'-0"
140
0.1875
141
12.0
290
     0
  0
SCALE
  5
60
102
{ACAD_REACTORS
330
47
102
}
330
47
100
AcDbScale
 70
     0
300
1/4" = 1'-0"
140
0.25
141
12.0
290
     0
  0
SCALE
  5
61
102
{ACAD_REACTORS
330
47
102
}
330
47
100
AcDbScale
 70
     0
300
3/8" = 1'-0"
140
0.375
141
12.0
290
     0
  0
SCALE
  5
62
102
{ACAD_REACTORS
330
47
102
}
330
47
100
AcDbScale
 70
     0
300
1/2" = 1'-0"
140
0.5
141
12.0
290
     0
  0
SCALE
  5
63
102
{ACAD_REACTORS
330
47
102
}
330
47
100
AcDbScale
 70
     0
300
3/4" = 1'-0"
140
0.75
141
12.0
290
     0
  0
SCALE
  5
64
102
{ACAD_REACTORS
330
47
102
}
330
47
100
AcDbScale
 70
     0
300
1" = 1'-0"
140
1.0
141
12.0
290
     0
  0
SCALE
  5
65
102
{ACAD_REACTORS
330
47
102
}
330
47
100
AcDbScale
 70
     0
300
1-1/2" = 1'-0"
140
1.5
141
12.0
290
     0
  0
SCALE
  5
66
102
{ACAD_REACTORS
330
47
102
}
330
47
100
AcDbScale
 70
     0
300
3" = 1'-0"
140
3.0
141
12.0
290
     0
  0
SCALE
  5
67
102
{ACAD_REACTORS
330
47
102
}
330
47
100
AcDbScale
 70
     0
300
6" = 1'-0"
140
6.0
141
12.0
290
     0
  0
SCALE
  5
68
102
{ACAD_REACTORS
330
47
102
}
330
47
100
AcDbScale
 70
     0
300
1'-0" = 1'-0"
140
12.0
141
12.0
290
     0
  0
ENDSEC
  0
EOF
