  0
SECTION
  2
HEADER
  9
$ACADVER
  1
AC1015
  9
$ACADMAINTVER
 70
     6
  9
$DWGCODEPAGE
  3
ANSI_949
  9
$INSBASE
 10
0.0
 20
0.0
 30
0.0
  9
$EXTMIN
 10
-50.23750000000004
 20
-49.97073246008785
 30
0.0
  9
$EXTMAX
 10
51.39718704837716
 20
43.93165406331249
 30
0.0
  9
$LIMMIN
 10
0.0
 20
0.0
  9
$LIMMAX
 10
420.0
 20
297.0
  9
$ORTHOMODE
 70
     0
  9
$REGENMODE
 70
     1
  9
$FILLMODE
 70
     1
  9
$QTEXTMODE
 70
     0
  9
$MIRRTEXT
 70
     1
  9
$LTSCALE
 40
1.0
  9
$ATTMODE
 70
     1
  9
$TEXTSIZE
 40
3.5
  9
$TRACEWID
 40
1.0
  9
$TEXTSTYLE
  7
Standard
  9
$CLAYER
  8
0
  9
$CELTYPE
  6
ByLayer
  9
$CECOLOR
 62
   256
  9
$CELTSCALE
 40
1.0
  9
$DISPSILH
 70
     0
  9
$DIMSCALE
 40
1.0
  9
$DIMASZ
 40
3.302
  9
$DIMEXO
 40
1.0
  9
$DIMDLI
 40
3.75
  9
$DIMRND
 40
0.0
  9
$DIMDLE
 40
0.0
  9
$DIMEXE
 40
1.0
  9
$DIMTP
 40
0.0
  9
$DIMTM
 40
0.0
  9
$DIMTXT
 40
3.5
  9
$DIMCEN
 40
2.5
  9
$DIMTSZ
 40
0.0
  9
$DIMTOL
 70
     0
  9
$DIMLIM
 70
     0
  9
$DIMTIH
 70
     1
  9
$DIMTOH
 70
     1
  9
$DIMSE1
 70
     0
  9
$DIMSE2
 70
     0
  9
$DIMTAD
 70
     1
  9
$DIMZIN
 70
     0
  9
$DIMBLK
  1

  9
$DIMASO
 70
     1
  9
$DIMSHO
 70
     1
  9
$DIMPOST
  1

  9
$DIMAPOST
  1

  9
$DIMALT
 70
     0
  9
$DIMALTD
 70
     3
  9
$DIMALTF
 40
0.0393700787401575
  9
$DIMLFAC
 40
1.0
  9
$DIMTOFL
 70
     1
  9
$DIMTVP
 40
0.0
  9
$DIMTIX
 70
     0
  9
$DIMSOXD
 70
     0
  9
$DIMSAH
 70
     0
  9
$DIMBLK1
  1

  9
$DIMBLK2
  1

  9
$DIMSTYLE
  2
ISO-25
  9
$DIMCLRD
 70
     0
  9
$DIMCLRE
 70
     0
  9
$DIMCLRT
 70
     0
  9
$DIMTFAC
 40
1.0
  9
$DIMGAP
 40
1.524
  9
$DIMJUST
 70
     0
  9
$DIMSD1
 70
     0
  9
$DIMSD2
 70
     0
  9
$DIMTOLJ
 70
     0
  9
$DIMTZIN
 70
     0
  9
$DIMALTZ
 70
     0
  9
$DIMALTTZ
 70
     0
  9
$DIMUPT
 70
     0
  9
$DIMDEC
 70
     2
  9
$DIMTDEC
 70
     2
  9
$DIMALTU
 70
     2
  9
$DIMALTTD
 70
     3
  9
$DIMTXSTY
  7
Standard
  9
$DIMAUNIT
 70
     0
  9
$DIMADEC
 70
     2
  9
$DIMALTRND
 40
0.0
  9
$DIMAZIN
 70
     0
  9
$DIMDSEP
 70
    44
  9
$DIMATFIT
 70
     3
  9
$DIMFRAC
 70
     0
  9
$DIMLDRBLK
  1

  9
$DIMLUNIT
 70
     2
  9
$DIMLWD
 70
    -2
  9
$DIMLWE
 70
    -2
  9
$DIMTMOVE
 70
     0
  9
$LUNITS
 70
     2
  9
$LUPREC
 70
     2
  9
$SKETCHINC
 40
1.0
  9
$FILLETRAD
 40
10.0
  9
$AUNITS
 70
     0
  9
$AUPREC
 70
     2
  9
$MENU
  1
.
  9
$ELEVATION
 40
0.0
  9
$PELEVATION
 40
0.0
  9
$THICKNESS
 40
0.0
  9
$LIMCHECK
 70
     0
  9
$CHAMFERA
 40
0.0
  9
$CHAMFERB
 40
0.0
  9
$CHAMFERC
 40
0.0
  9
$CHAMFERD
 40
0.0
  9
$SKPOLY
 70
     0
  9
$TDCREATE
 40
2458263.621322535
  9
$TDUCREATE
 40
2458263.246322535
  9
$TDUPDATE
 40
2459723.3056464
  9
$TDUUPDATE
 40
2459722.9306464
  9
$TDINDWG
 40
0.0009541667
  9
$TDUSRTIMER
 40
0.0007517824
  9
$USRTIMER
 70
     1
  9
$ANGBASE
 50
0.0
  9
$ANGDIR
 70
     0
  9
$PDMODE
 70
     0
  9
$PDSIZE
 40
-1.0
  9
$PLINEWID
 40
0.0
  9
$SPLFRAME
 70
     0
  9
$SPLINETYPE
 70
     6
  9
$SPLINESEGS
 70
     8
  9
$HANDSEED
  5
18D
  9
$SURFTAB1
 70
     6
  9
$SURFTAB2
 70
     6
  9
$SURFTYPE
 70
     6
  9
$SURFU
 70
     6
  9
$SURFV
 70
     6
  9
$UCSBASE
  2

  9
$UCSNAME
  2

  9
$UCSORG
 10
0.0
 20
0.0
 30
0.0
  9
$UCSXDIR
 10
1.0
 20
0.0
 30
0.0
  9
$UCSYDIR
 10
0.0
 20
1.0
 30
0.0
  9
$UCSORTHOREF
  2

  9
$UCSORTHOVIEW
 70
     0
  9
$UCSORGTOP
 10
0.0
 20
0.0
 30
0.0
  9
$UCSORGBOTTOM
 10
0.0
 20
0.0
 30
0.0
  9
$UCSORGLEFT
 10
0.0
 20
0.0
 30
0.0
  9
$UCSORGRIGHT
 10
0.0
 20
0.0
 30
0.0
  9
$UCSORGFRONT
 10
0.0
 20
0.0
 30
0.0
  9
$UCSORGBACK
 10
0.0
 20
0.0
 30
0.0
  9
$PUCSBASE
  2

  9
$PUCSNAME
  2

  9
$PUCSORG
 10
0.0
 20
0.0
 30
0.0
  9
$PUCSXDIR
 10
1.0
 20
0.0
 30
0.0
  9
$PUCSYDIR
 10
0.0
 20
1.0
 30
0.0
  9
$PUCSORTHOREF
  2

  9
$PUCSORTHOVIEW
 70
     0
  9
$PUCSORGTOP
 10
0.0
 20
0.0
 30
0.0
  9
$PUCSORGBOTTOM
 10
0.0
 20
0.0
 30
0.0
  9
$PUCSORGLEFT
 10
0.0
 20
0.0
 30
0.0
  9
$PUCSORGRIGHT
 10
0.0
 20
0.0
 30
0.0
  9
$PUCSORGFRONT
 10
0.0
 20
0.0
 30
0.0
  9
$PUCSORGBACK
 10
0.0
 20
0.0
 30
0.0
  9
$USERI1
 70
     0
  9
$USERI2
 70
     0
  9
$USERI3
 70
     0
  9
$USERI4
 70
     0
  9
$USERI5
 70
     0
  9
$USERR1
 40
0.0
  9
$USERR2
 40
0.0
  9
$USERR3
 40
0.0
  9
$USERR4
 40
0.0
  9
$USERR5
 40
0.0
  9
$WORLDVIEW
 70
     1
  9
$SHADEDGE
 70
     3
  9
$SHADEDIF
 70
    70
  9
$TILEMODE
 70
     1
  9
$MAXACTVP
 70
    64
  9
$PINSBASE
 10
0.0
 20
0.0
 30
0.0
  9
$PLIMCHECK
 70
     0
  9
$PEXTMIN
 10
1.000000000000000E+20
 20
1.000000000000000E+20
 30
1.000000000000000E+20
  9
$PEXTMAX
 10
-1.000000000000000E+20
 20
-1.000000000000000E+20
 30
-1.000000000000000E+20
  9
$PLIMMIN
 10
0.0
 20
0.0
  9
$PLIMMAX
 10
0.0
 20
0.0
  9
$UNITMODE
 70
     0
  9
$VISRETAIN
 70
     1
  9
$PLINEGEN
 70
     0
  9
$PSLTSCALE
 70
     1
  9
$TREEDEPTH
 70
  3020
  9
$CMLSTYLE
  2
Standard
  9
$CMLJUST
 70
     0
  9
$CMLSCALE
 40
20.0
  9
$PROXYGRAPHICS
 70
     1
  9
$MEASUREMENT
 70
     1
  9
$CELWEIGHT
370
    -1
  9
$ENDCAPS
280
     0
  9
$JOINSTYLE
280
     0
  9
$LWDISPLAY
290
     1
  9
$INSUNITS
 70
     4
  9
$HYPERLINKBASE
  1

  9
$STYLESHEET
  1

  9
$XEDIT
290
     1
  9
$CEPSNTYPE
380
     0
  9
$PSTYLEMODE
290
     1
  9
$FINGERPRINTGUID
  2
{952F55E5-BFE4-4845-992A-F73A5B6F62D2}
  9
$VERSIONGUID
  2
{FAEB1C32-E019-11D5-929B-00C0DF256EC4}
  9
$EXTNAMES
290
     1
  9
$PSVPSCALE
 40
0.0
  9
$OLESTARTUP
290
     0
  0
ENDSEC
  0
SECTION
  2
CLASSES
  0
CLASS
  1
ACDBDICTIONARYWDFLT
  2
AcDbDictionaryWithDefault
  3
ObjectDBX Classes
 90
        0
280
     0
281
     0
  0
CLASS
  1
VISUALSTYLE
  2
AcDbVisualStyle
  3
ObjectDBX Classes
 90
     4095
280
     0
281
     0
  0
CLASS
  1
MATERIAL
  2
AcDbMaterial
  3
ObjectDBX Classes
 90
     1153
280
     0
281
     0
  0
CLASS
  1
SCALE
  2
AcDbScale
  3
ObjectDBX Classes
 90
     1153
280
     0
281
     0
  0
CLASS
  1
TABLESTYLE
  2
AcDbTableStyle
  3
ObjectDBX Classes
 90
     4095
280
     0
281
     0
  0
CLASS
  1
MLEADERSTYLE
  2
AcDbMLeaderStyle
  3
ACDB_MLEADERSTYLE_CLASS
 90
     4095
280
     0
281
     0
  0
CLASS
  1
SUN
  2
AcDbSun
  3
SCENEOE
 90
     1153
280
     0
281
     0
  0
CLASS
  1
ACDBPLACEHOLDER
  2
AcDbPlaceHolder
  3
ObjectDBX Classes
 90
        0
280
     0
281
     0
  0
CLASS
  1
LAYOUT
  2
AcDbLayout
  3
ObjectDBX Classes
 90
        0
280
     0
281
     0
  0
CLASS
  1
RASTERVARIABLES
  2
AcDbRasterVariables
  3
ISM
 90
        0
280
     0
281
     0
  0
ENDSEC
  0
SECTION
  2
TABLES
  0
TABLE
  2
VPORT
  5
8
330
0
100
AcDbSymbolTable
 70
     1
  0
VPORT
  5
29
330
8
100
AcDbSymbolTableRecord
100
AcDbViewportTableRecord
  2
*Active
 70
     0
 10
0.0
 20
0.0
 11
1.0
 21
1.0
 12
0.5798435241885613
 22
-3.019539198387683
 13
0.0
 23
0.0
 14
10.0
 24
10.0
 15
10.0
 25
10.0
 16
0.0
 26
0.0
 36
1.0
 17
0.0
 27
0.0
 37
0.0
 40
95.78043425386835
 41
1.913499344692005
 42
50.0
 43
0.0
 44
0.0
 50
0.0
 51
0.0
 71
    16
 72
  2000
 73
     1
 74
     3
 75
     0
 76
     0
 77
     0
 78
     0
281
     0
 65
     1
110
0.0
120
0.0
130
0.0
111
1.0
121
0.0
131
0.0
112
0.0
122
1.0
132
0.0
 79
     0
146
0.0
  0
ENDTAB
  0
TABLE
  2
LTYPE
  5
5
330
0
100
AcDbSymbolTable
 70
     6
  0
LTYPE
  5
14
330
5
100
AcDbSymbolTableRecord
100
AcDbLinetypeTableRecord
  2
ByBlock
 70
     0
  3

 72
    65
 73
     0
 40
0.0
  0
LTYPE
  5
15
330
5
100
AcDbSymbolTableRecord
100
AcDbLinetypeTableRecord
  2
ByLayer
 70
     0
  3

 72
    65
 73
     0
 40
0.0
  0
LTYPE
  5
16
330
5
100
AcDbSymbolTableRecord
100
AcDbLinetypeTableRecord
  2
Continuous
 70
     0
  3
Solid line
 72
    65
 73
     0
 40
0.0
  0
LTYPE
  5
6E
330
5
100
AcDbSymbolTableRecord
100
AcDbLinetypeTableRecord
  2
HIDDEN
 70
     0
  3
Hidden __ __ __ __ __ __ __ __ __ __ __ __ __ __
 72
    65
 73
     2
 40
1.905
 49
1.27
 74
     0
 49
-0.635
 74
     0
  0
LTYPE
  5
6F
330
5
100
AcDbSymbolTableRecord
100
AcDbLinetypeTableRecord
  2
PHANTOM
 70
     0
  3
Phantom ______  __  __  ______  __  __  ______
 72
    65
 73
     6
 40
12.7
 49
6.35
 74
     0
 49
-1.27
 74
     0
 49
1.27
 74
     0
 49
-1.27
 74
     0
 49
1.27
 74
     0
 49
-1.27
 74
     0
  0
LTYPE
  5
70
330
5
100
AcDbSymbolTableRecord
100
AcDbLinetypeTableRecord
  2
CENTER
 70
     0
  3
Center ____ _ ____ _ ____ _ ____ _ ____ _ ____
 72
    65
 73
     4
 40
10.16
 49
6.35
 74
     0
 49
-1.27
 74
     0
 49
1.27
 74
     0
 49
-1.27
 74
     0
  0
LTYPE
  5
71
330
5
100
AcDbSymbolTableRecord
100
AcDbLinetypeTableRecord
  2
CENTERX2
 70
     0
  3
Center (2x) ________  __  ________  __  _____
 72
    65
 73
     4
 40
20.32
 49
12.7
 74
     0
 49
-2.54
 74
     0
 49
2.54
 74
     0
 49
-2.54
 74
     0
  0
LTYPE
  5
72
330
5
100
AcDbSymbolTableRecord
100
AcDbLinetypeTableRecord
  2
DOT2
 70
     0
  3
Dot (.5x) ........................................
 72
    65
 73
     2
 40
0.635
 49
0.0
 74
     0
 49
-0.635
 74
     0
  0
ENDTAB
  0
TABLE
  2
LAYER
  5
2
330
0
100
AcDbSymbolTable
 70
    17
  0
LAYER
  5
10
330
2
100
AcDbSymbolTableRecord
100
AcDbLayerTableRecord
  2
0
 70
     0
 62
     7
  6
Continuous
370
    -3
390
F
  0
LAYER
  5
73
330
2
100
AcDbSymbolTableRecord
100
AcDbLayerTableRecord
  2
FORMAT
 70
     0
 62
     2
  6
Continuous
370
    -3
390
F
  0
LAYER
  5
74
330
2
100
AcDbSymbolTableRecord
100
AcDbLayerTableRecord
  2
외형선
 70
     0
 62
   100
  6
Continuous
370
    35
390
F
  0
LAYER
  5
75
330
2
100
AcDbSymbolTableRecord
100
AcDbLayerTableRecord
  2
숨은선
 70
     0
 62
     2
  6
HIDDEN
370
    25
390
F
  0
LAYER
  5
76
330
2
100
AcDbSymbolTableRecord
100
AcDbLayerTableRecord
  2
중심선
 70
     0
 62
     1
  6
CENTERX2
370
    -3
390
F
  0
LAYER
  5
77
330
2
100
AcDbSymbolTableRecord
100
AcDbLayerTableRecord
  2
파단선
 70
     0
 62
     4
  6
Continuous
370
    -3
390
F
  0
LAYER
  5
78
330
2
100
AcDbSymbolTableRecord
100
AcDbLayerTableRecord
  2
해칭선
 70
     0
 62
     4
  6
Continuous
370
    -3
390
F
  0
LAYER
  5
79
330
2
100
AcDbSymbolTableRecord
100
AcDbLayerTableRecord
  2
가는실선
 70
     0
 62
     4
  6
Continuous
370
    -3
390
F
  0
LAYER
  5
7A
330
2
100
AcDbSymbolTableRecord
100
AcDbLayerTableRecord
  2
치수_보조선
 70
     0
 62
     4
  6
Continuous
370
    -3
390
F
  0
LAYER
  5
7B
330
2
100
AcDbSymbolTableRecord
100
AcDbLayerTableRecord
  2
치수문자_일반주서
 70
     0
 62
     7
  6
Continuous
370
    25
390
F
  0
LAYER
  5
7C
330
2
100
AcDbSymbolTableRecord
100
AcDbLayerTableRecord
  2
개별주서
 70
     0
 62
   100
  6
Continuous
370
    35
390
F
  0
LAYER
  5
7D
330
2
100
AcDbSymbolTableRecord
100
AcDbLayerTableRecord
  2
중간선
 70
     0
 62
     2
  6
Continuous
370
    25
390
F
  0
LAYER
  5
7E
330
2
100
AcDbSymbolTableRecord
100
AcDbLayerTableRecord
  2
윤곽선
 70
     0
 62
     3
  6
Continuous
370
    50
390
F
  0
LAYER
  5
7F
330
2
100
AcDbSymbolTableRecord
100
AcDbLayerTableRecord
  2
중심마크
 70
     0
 62
   100
  6
Continuous
370
    35
390
F
  0
LAYER
  5
80
330
2
100
AcDbSymbolTableRecord
100
AcDbLayerTableRecord
  2
가상선
 70
     0
 62
     4
  6
PHANTOM
370
    -3
390
F
  0
LAYER
  5
81
330
2
100
AcDbSymbolTableRecord
100
AcDbLayerTableRecord
  2
특수지정선
 70
     0
 62
     5
  6
CENTERX2
370
    70
390
F
  0
LAYER
  5
164
330
2
100
AcDbSymbolTableRecord
100
AcDbLayerTableRecord
  2
Defpoints
 70
     0
 62
     7
  6
Continuous
290
     0
370
    -3
390
F
  0
ENDTAB
  0
TABLE
  2
STYLE
  5
3
330
0
100
AcDbSymbolTable
 70
     2
  0
STYLE
  5
11
330
3
100
AcDbSymbolTableRecord
100
AcDbTextStyleTableRecord
  2
Standard
 70
     0
 40
0.0
 41
1.0
 50
0.0
 71
     0
 42
3.5
  3
txt
  4

  0
STYLE
  5
97
330
3
100
AcDbSymbolTableRecord
100
AcDbTextStyleTableRecord
  2
SLDTEXTSTYLE0
 70
     0
 40
0.0
 41
0.75
 50
0.0
 71
     0
 42
3.5
  3
TXT
  4

  0
ENDTAB
  0
TABLE
  2
VIEW
  5
6
330
0
100
AcDbSymbolTable
 70
     0
  0
ENDTAB
  0
TABLE
  2
UCS
  5
7
330
0
100
AcDbSymbolTable
 70
     0
  0
ENDTAB
  0
TABLE
  2
APPID
  5
9
330
0
100
AcDbSymbolTable
 70
     2
  0
APPID
  5
12
330
9
100
AcDbSymbolTableRecord
100
AcDbRegAppTableRecord
  2
ACAD
 70
     0
  0
APPID
  5
188
330
9
100
AcDbSymbolTableRecord
100
AcDbRegAppTableRecord
  2
PE_URL
 70
     0
  0
ENDTAB
  0
TABLE
  2
DIMSTYLE
  5
A
330
0
100
AcDbSymbolTable
 70
     4
100
AcDbDimStyleTable
  0
DIMSTYLE
105
27
330
A
100
AcDbSymbolTableRecord
100
AcDbDimStyleTableRecord
  2
ISO-25
 70
     0
 41
2.5
 42
0.625
 43
3.75
 44
1.25
 73
     0
 74
     0
 77
     1
 78
     8
140
2.5
141
2.5
143
0.03937007874016
147
0.625
171
     3
172
     1
178
     0
271
     2
272
     2
274
     3
278
    44
283
     0
284
     8
340
11
  0
DIMSTYLE
105
E8
102
{ACAD_REACTORS
330
E7
102
}
330
A
100
AcDbSymbolTableRecord
100
AcDbDimStyleTableRecord
  2
SLDDIMSTYLE0
 70
     0
 41
3.302
 44
0.0
 45
0.000000001
 73
     0
 74
     0
 77
     1
 78
     4
 79
     1
140
3.5
143
0.0393700787401575
147
0.875
148
0.000000001
170
     1
173
     1
178
     0
271
     2
272
     2
276
     2
284
    12
340
97
  0
DIMSTYLE
105
FC
102
{ACAD_REACTORS
330
FB
330
110
102
}
330
A
100
AcDbSymbolTableRecord
100
AcDbDimStyleTableRecord
  2
SLDDIMSTYLE1
 70
     0
 41
3.302
 44
0.0
 45
0.000000001
 73
     0
 74
     0
 77
     1
 78
    12
 79
     3
140
3.5
143
0.0393700787401575
147
0.875
148
0.000000001
170
     1
172
     1
173
     1
178
     0
271
     2
272
     2
276
     2
284
    12
289
     0
340
97
  0
DIMSTYLE
105
126
102
{ACAD_REACTORS
330
125
102
}
330
A
100
AcDbSymbolTableRecord
100
AcDbDimStyleTableRecord
  2
SLDDIMSTYLE2
 70
     0
 41
3.302
 44
0.0
 45
0.000000001
 73
     0
 74
     0
 77
     1
 78
    12
 79
     3
140
3.5
143
0.0393700787401575
147
0.875
148
0.000000001
170
     1
173
     1
178
     0
271
     2
272
     2
276
     2
284
    12
340
97
  0
ENDTAB
  0
TABLE
  2
BLOCK_RECORD
  5
1
330
0
100
AcDbSymbolTable
 70
     7
  0
BLOCK_RECORD
  5
1F
102
{ACAD_XDICTIONARY
360
18A
102
}
330
1
100
AcDbSymbolTableRecord
100
AcDbBlockTableRecord
  2
*Model_Space
340
22
  0
BLOCK_RECORD
  5
1B
330
1
100
AcDbSymbolTableRecord
100
AcDbBlockTableRecord
  2
*Paper_Space
340
1E
  0
BLOCK_RECORD
  5
23
330
1
100
AcDbSymbolTableRecord
100
AcDbBlockTableRecord
  2
*Paper_Space0
340
26
  0
BLOCK_RECORD
  5
82
330
1
100
AcDbSymbolTableRecord
100
AcDbBlockTableRecord
  2
블럭10
340
0
102
{BLKREFS
331
E0
102
}
  0
BLOCK_RECORD
  5
E9
330
1
100
AcDbSymbolTableRecord
100
AcDbBlockTableRecord
  2
_D
340
0
  0
BLOCK_RECORD
  5
FD
330
1
100
AcDbSymbolTableRecord
100
AcDbBlockTableRecord
  2
_D_1
340
0
  0
BLOCK_RECORD
  5
111
330
1
100
AcDbSymbolTableRecord
100
AcDbBlockTableRecord
  2
_D_2
340
0
  0
BLOCK_RECORD
  5
127
330
1
100
AcDbSymbolTableRecord
100
AcDbBlockTableRecord
  2
_D_3
340
0
  0
BLOCK_RECORD
  5
139
330
1
100
AcDbSymbolTableRecord
100
AcDbBlockTableRecord
  2
SW_DOWELSYMBOL_0
340
0
102
{BLKREFS
331
13F
102
}
  0
ENDTAB
  0
ENDSEC
  0
SECTION
  2
BLOCKS
  0
BLOCK
  5
20
330
1F
100
AcDbEntity
  8
0
100
AcDbBlockBegin
  2
*Model_Space
 70
     0
 10
0.0
 20
0.0
 30
0.0
  3
*Model_Space
  1
*Model_Space
  0
ENDBLK
  5
21
330
1F
100
AcDbEntity
  8
0
100
AcDbBlockEnd
  0
BLOCK
  5
1C
330
1B
100
AcDbEntity
 67
     1
  8
0
100
AcDbBlockBegin
  2
*Paper_Space
 70
     0
 10
0.0
 20
0.0
 30
0.0
  3
*Paper_Space
  1
*Paper_Space
  0
ENDBLK
  5
1D
330
1B
100
AcDbEntity
 67
     1
  8
0
100
AcDbBlockEnd
  0
BLOCK
  5
24
330
23
100
AcDbEntity
  8
0
100
AcDbBlockBegin
  2
*Paper_Space0
 70
     0
 10
0.0
 20
0.0
 30
0.0
  3
*Paper_Space0
  1
*Paper_Space0
  0
ENDBLK
  5
25
330
23
100
AcDbEntity
  8
0
100
AcDbBlockEnd
  0
BLOCK
  5
83
330
82
100
AcDbEntity
  8
0
100
AcDbBlockBegin
  2
블럭10
 70
     2
 10
0.0
 20
0.0
 30
0.0
  3
블럭10
  1
블럭10
  0
ELLIPSE
  5
85
330
82
100
AcDbEntity
  8
중심선
100
AcDbEllipse
 10
20.54032771741204
 20
12.0471743016438
 30
0.0
 11
6.600054785286829
 21
-1.261213355974178E-13
 31
0.0
210
0.0
220
0.0
230
1.0
 40
0.636358354079598
 41
0.9219305317359503
 42
6.513795318482858
  0
ELLIPSE
  5
86
330
82
100
AcDbEntity
  8
중심선
100
AcDbEllipse
 10
20.54032771746488
 20
12.04717430159265
 30
0.0
 11
3.960054785062283
 21
1.540847449632565E-10
 31
0.0
210
0.0
220
0.0
230
1.0
 40
0.3939339440162632
 41
1.131841032648279
 42
5.62031148352944
  0
LINE
  5
87
330
82
100
AcDbEntity
  8
중심선
100
AcDbLine
 10
2.268634060543552
 20
16.24717430164393
 30
0.0
 11
5.714909304380834
 21
16.24717430164393
 31
0.0
  0
LINE
  5
88
330
82
100
AcDbEntity
  8
중심선
100
AcDbLine
 10
5.245725140726316
 20
7.84717430164391
 30
0.0
 11
8.692000384563599
 21
7.84717430164391
 31
0.0
  0
LINE
  5
89
330
82
100
AcDbEntity
  8
중심선
100
AcDbLine
 10
15.74043728645272
 20
16.24717430164393
 30
0.0
 11
8.692000384563599
 21
7.84717430164391
 31
0.0
  0
LINE
  5
8A
330
82
100
AcDbEntity
  8
중심선
100
AcDbLine
 10
0.1404042013395286
 20
13.71084872107135
 30
0.0
 11
3.58671253028996
 21
13.71088815037384
 31
0.0
  0
LINE
  5
8B
330
82
100
AcDbEntity
  8
중심선
100
AcDbLine
 10
2.750260043222114
 20
10.84717430164391
 30
0.0
 11
6.196535287059397
 21
10.84717430164391
 31
0.0
  0
LINE
  5
8C
330
82
100
AcDbEntity
  8
중심선
100
AcDbLine
 10
12.29416204261559
 20
16.24717430164393
 30
0.0
 11
5.245725140726316
 21
7.84717430164391
 31
0.0
  0
LINE
  5
8D
330
82
100
AcDbEntity
  8
중심선
100
AcDbLine
 10
10.72767329541681
 20
16.24717430164393
 30
0.0
 11
6.196535287059397
 21
10.84717430164391
 31
0.0
  0
LINE
  5
8E
330
82
100
AcDbEntity
  8
중심선
100
AcDbLine
 10
7.28139805157953
 20
16.24717430164393
 30
0.0
 11
2.750260043222114
 21
10.84717430164391
 31
0.0
  0
LINE
  5
8F
330
82
100
AcDbEntity
  8
중심선
100
AcDbLine
 10
5.714909304380834
 20
16.24717430164393
 30
0.0
 11
3.58671253028996
 21
13.71088815037384
 31
0.0
  0
LINE
  5
90
330
82
100
AcDbEntity
  8
중심선
100
AcDbLine
 10
2.268634060543552
 20
16.24717430164393
 30
0.0
 11
0.1404042013395286
 21
13.71084872107135
 31
0.0
  0
LINE
  5
91
330
82
100
AcDbEntity
  8
중심선
100
AcDbLine
 10
7.28139805157953
 20
16.24717430164393
 30
0.0
 11
10.72767329541681
 21
16.24717430164393
 31
0.0
  0
LINE
  5
92
330
82
100
AcDbEntity
  8
중심선
100
AcDbLine
 10
12.29416204261559
 20
16.24717430164393
 30
0.0
 11
15.74043728645272
 21
16.24717430164393
 31
0.0
  0
LINE
  5
93
330
82
100
AcDbEntity
  8
중심선
100
AcDbLine
 10
19.22036997980202
 20
11.08717430171403
 30
0.0
 11
23.66174974927406
 21
11.08717430171406
 31
0.0
  0
LINE
  5
94
330
82
100
AcDbEntity
  8
중심선
100
AcDbLine
 10
19.22039502424796
 20
13.00717430171391
 30
0.0
 11
19.22036997980202
 21
11.08717430171403
 31
0.0
  0
LINE
  5
95
330
82
100
AcDbEntity
  8
중심선
100
AcDbLine
 10
19.22039502424796
 20
13.00717430171391
 30
0.0
 11
26.96566020931264
 21
13.00717430171391
 31
0.0
  0
LINE
  5
96
330
82
100
AcDbEntity
  8
중심선
100
AcDbLine
 10
22.22332737316547
 20
13.45928029700563
 30
0.0
 11
24.52862924686651
 21
15.39360700705356
 31
0.0
  0
ATTDEF
  5
98
330
82
100
AcDbEntity
  8
FORMAT
 62
     2
100
AcDbText
 10
-9.18129528874128
 20
2.075366912832191
 30
0.0
 40
4.233333333333333
  1
E5254020 [ 2 FLUTE ]
 41
0.75
  7
SLDTEXTSTYLE0
 11
-9.18129528874128
 21
-0.0412997538344756
 31
0.0
100
AcDbAttributeDefinition
  3

  2
AUTOATTR0
 70
     0
 74
     1
  0
ENDBLK
  5
84
330
82
100
AcDbEntity
  8
0
100
AcDbBlockEnd
  0
BLOCK
  5
EA
330
E9
100
AcDbEntity
  8
0
100
AcDbBlockBegin
  2
_D
 70
     0
 10
0.0
 20
0.0
 30
0.0
  3
_D
  1
_D
  0
LINE
  5
EC
330
E9
100
AcDbEntity
  8
치수문자_일반주서
 62
     0
370
    -2
100
AcDbLine
 10
30.63749999999999
 20
4.028970601666544
 30
0.0
 11
30.63749999999999
 21
39.55665406331249
 31
0.0
  0
LINE
  5
ED
330
E9
100
AcDbEntity
  8
치수문자_일반주서
 62
     0
370
    -2
100
AcDbLine
 10
-32.86250000000001
 20
4.016074928723889
 30
0.0
 11
-32.86250000000001
 21
39.55665406331249
 31
0.0
  0
LINE
  5
EE
330
E9
100
AcDbEntity
  8
치수문자_일반주서
 62
     0
370
    -2
100
AcDbLine
 10
27.33549999999999
 20
39.55665406331249
 30
0.0
 11
-29.56050000000001
 21
39.55665406331249
 31
0.0
  0
SOLID
  5
EF
330
E9
100
AcDbEntity
  8
치수문자_일반주서
 62
     0
100
AcDbTrace
 10
27.33549999999999
 20
39.00632072997915
 30
0.0
 11
27.33549999999999
 21
40.10698739664582
 31
0.0
 12
30.63749999999999
 22
39.55665406331249
 32
0.0
 13
30.63749999999999
 23
39.55665406331249
 33
0.0
  0
SOLID
  5
F0
330
E9
100
AcDbEntity
  8
치수문자_일반주서
 62
     0
100
AcDbTrace
 10
-29.56050000000001
 20
40.10698739664582
 30
0.0
 11
-29.56050000000001
 21
39.00632072997915
 31
0.0
 12
-32.86250000000001
 22
39.55665406331249
 32
0.0
 13
-32.86250000000001
 23
39.55665406331249
 33
0.0
  0
MTEXT
  5
F1
330
E9
100
AcDbEntity
  8
치수문자_일반주서
 62
     0
100
AcDbMText
 10
-1.112500000000011
 20
43.93165406331249
 30
0.0
 40
3.5
 41
0.0
 71
     2
 72
     1
  1
\A1;63.50 [2 1/2]
  7
SLDTEXTSTYLE0
 73
     1
 44
1.0
  0
POINT
  5
F2
330
E9
100
AcDbEntity
  8
Defpoints
 62
     0
100
AcDbPoint
 10
30.63749999999999
 20
3.966470601666544
 30
0.0
  0
POINT
  5
F3
330
E9
100
AcDbEntity
  8
Defpoints
 62
     0
100
AcDbPoint
 10
-32.86250000000001
 20
3.953574928723888
 30
0.0
  0
POINT
  5
F4
330
E9
100
AcDbEntity
  8
Defpoints
 62
     0
100
AcDbPoint
 10
-32.86250000000001
 20
39.55665406331249
 30
0.0
  0
ENDBLK
  5
EB
330
E9
100
AcDbEntity
  8
0
100
AcDbBlockEnd
  0
BLOCK
  5
FE
330
FD
100
AcDbEntity
  8
0
100
AcDbBlockBegin
  2
_D_1
 70
     0
 10
0.0
 20
0.0
 30
0.0
  3
_D_1
  1
_D_1
  0
LINE
  5
100
330
FD
100
AcDbEntity
  8
치수문자_일반주서
 62
     0
370
    -2
100
AcDbLine
 10
-32.11499999999999
 20
4.763574928723896
 30
0.0
 11
-45.86250000000001
 21
4.763574928723848
 31
0.0
  0
LINE
  5
101
330
FD
100
AcDbEntity
  8
치수문자_일반주서
 62
     0
370
    -2
100
AcDbLine
 10
-32.11499999999999
 20
-4.761425071276109
 30
0.0
 11
-45.86249999999998
 21
-4.761425071276157
 31
0.0
  0
LINE
  5
102
330
FD
100
AcDbEntity
  8
치수문자_일반주서
 62
     0
370
    -2
100
AcDbLine
 10
-45.8625
 20
1.461574928723849
 30
0.0
 11
-45.86249999999999
 21
-1.459425071276158
 31
0.0
  0
SOLID
  5
103
330
FD
100
AcDbEntity
  8
치수문자_일반주서
 62
     0
100
AcDbTrace
 10
-45.31216666666666
 20
1.461574928723851
 30
0.0
 11
-46.41283333333333
 21
1.461574928723847
 31
0.0
 12
-45.86250000000001
 22
4.763574928723848
 32
0.0
 13
-45.86250000000001
 23
4.763574928723848
 33
0.0
  0
SOLID
  5
104
330
FD
100
AcDbEntity
  8
치수문자_일반주서
 62
     0
100
AcDbTrace
 10
-46.41283333333332
 20
-1.45942507127616
 30
0.0
 11
-45.31216666666666
 21
-1.459425071276156
 31
0.0
 12
-45.86249999999998
 22
-4.761425071276157
 32
0.0
 13
-45.86249999999998
 23
-4.761425071276157
 33
0.0
  0
MTEXT
  5
105
330
FD
100
AcDbEntity
  8
치수문자_일반주서
 62
     0
100
AcDbMText
 10
-50.2375
 20
0.0010749287238821
 30
0.0
 40
3.5
 41
0.0
 71
     2
 72
     1
  1
\A1;%%c9.53 [3/8]
  7
SLDTEXTSTYLE0
 11
-3.729883127349605E-15
 21
1.0
 31
0.0
 73
     1
 44
1.0
  0
POINT
  5
106
330
FD
100
AcDbEntity
  8
Defpoints
 62
     0
100
AcDbPoint
 10
-32.05249999999999
 20
4.763574928723896
 30
0.0
  0
POINT
  5
107
330
FD
100
AcDbEntity
  8
Defpoints
 62
     0
100
AcDbPoint
 10
-32.05249999999999
 20
-4.761425071276109
 30
0.0
  0
POINT
  5
108
330
FD
100
AcDbEntity
  8
Defpoints
 62
     0
100
AcDbPoint
 10
-45.86249999999998
 20
-4.761425071276157
 30
0.0
  0
ENDBLK
  5
FF
330
FD
100
AcDbEntity
  8
0
100
AcDbBlockEnd
  0
BLOCK
  5
112
330
111
100
AcDbEntity
  8
0
100
AcDbBlockBegin
  2
_D_2
 70
     0
 10
0.0
 20
0.0
 30
0.0
  3
_D_2
  1
_D_2
  0
LINE
  5
114
330
111
100
AcDbEntity
  8
치수문자_일반주서
 62
     0
370
    -2
100
AcDbLine
 10
30.63749999999999
 20
4.028970601666544
 30
0.0
 11
30.63749999999999
 21
24.20308811516705
 31
0.0
  0
LINE
  5
115
330
111
100
AcDbEntity
  8
치수문자_일반주서
 62
     0
370
    -2
100
AcDbLine
 10
9.999999999999995
 20
3.166805494892864
 30
0.0
 11
9.999999999999991
 21
24.20308811516705
 31
0.0
  0
LINE
  5
116
330
111
100
AcDbEntity
  8
치수문자_일반주서
 62
     0
370
    -2
100
AcDbLine
 10
27.33549999999999
 20
24.20308811516705
 30
0.0
 11
13.30199999999999
 21
24.20308811516705
 31
0.0
  0
SOLID
  5
117
330
111
100
AcDbEntity
  8
치수문자_일반주서
 62
     0
100
AcDbTrace
 10
27.33549999999999
 20
23.65275478183372
 30
0.0
 11
27.33549999999999
 21
24.75342144850039
 31
0.0
 12
30.63749999999999
 22
24.20308811516705
 32
0.0
 13
30.63749999999999
 23
24.20308811516705
 33
0.0
  0
SOLID
  5
118
330
111
100
AcDbEntity
  8
치수문자_일반주서
 62
     0
100
AcDbTrace
 10
13.30199999999999
 20
24.75342144850039
 30
0.0
 11
13.30199999999999
 21
23.65275478183372
 31
0.0
 12
9.999999999999991
 22
24.20308811516705
 32
0.0
 13
9.999999999999991
 23
24.20308811516705
 33
0.0
  0
MTEXT
  5
119
330
111
100
AcDbEntity
  8
치수문자_일반주서
 62
     0
100
AcDbMText
 10
20.31875
 20
28.57808811516705
 30
0.0
 40
3.5
 41
0.0
 71
     2
 72
     1
  1
\A1;20.64 [13/16]
  7
SLDTEXTSTYLE0
 73
     1
 44
1.0
  0
POINT
  5
11A
330
111
100
AcDbEntity
  8
Defpoints
 62
     0
100
AcDbPoint
 10
30.63749999999999
 20
3.966470601666544
 30
0.0
  0
POINT
  5
11B
330
111
100
AcDbEntity
  8
Defpoints
 62
     0
100
AcDbPoint
 10
9.999999999999995
 20
3.104305494892864
 30
0.0
  0
POINT
  5
11C
330
111
100
AcDbEntity
  8
Defpoints
 62
     0
100
AcDbPoint
 10
9.999999999999995
 20
24.20308811516705
 30
0.0
  0
ENDBLK
  5
113
330
111
100
AcDbEntity
  8
0
100
AcDbBlockEnd
  0
BLOCK
  5
128
330
127
100
AcDbEntity
  8
0
100
AcDbBlockBegin
  2
_D_3
 70
     0
 10
0.0
 20
0.0
 30
0.0
  3
_D_3
  1
_D_3
  0
LINE
  5
12A
330
127
100
AcDbEntity
  8
치수문자_일반주서
 62
     0
370
    -2
100
AcDbLine
 10
30.69999999999999
 20
3.966470601666544
 30
0.0
 11
50.84685371504377
 21
3.966470601666614
 31
0.0
  0
LINE
  5
12B
330
127
100
AcDbEntity
  8
치수문자_일반주서
 62
     0
370
    -2
100
AcDbLine
 10
30.69999999999999
 20
-3.964320744218755
 30
0.0
 11
50.8468537150438
 21
-3.964320744218686
 31
0.0
  0
LINE
  5
12C
330
127
100
AcDbEntity
  8
치수문자_일반주서
 62
     0
370
    -2
100
AcDbLine
 10
50.84685371504377
 20
3.966470601666614
 30
0.0
 11
50.84685371504364
 21
38.57047060166661
 31
0.0
  0
LINE
  5
12D
330
127
100
AcDbEntity
  8
치수문자_일반주서
 62
     0
370
    -2
100
AcDbLine
 10
50.84685371504376
 20
7.268470601666614
 30
0.0
 11
50.84685371504374
 21
10.57047060166661
 31
0.0
  0
LINE
  5
12E
330
127
100
AcDbEntity
  8
치수문자_일반주서
 62
     0
370
    -2
100
AcDbLine
 10
50.84685371504381
 20
-7.266320744218685
 30
0.0
 11
50.84685371504383
 21
-10.56832074421868
 31
0.0
  0
SOLID
  5
12F
330
127
100
AcDbEntity
  8
치수문자_일반주서
 62
     0
100
AcDbTrace
 10
50.29652038171042
 20
7.268470601666612
 30
0.0
 11
51.39718704837709
 21
7.268470601666616
 31
0.0
 12
50.84685371504377
 22
3.966470601666614
 32
0.0
 13
50.84685371504377
 23
3.966470601666614
 33
0.0
  0
SOLID
  5
130
330
127
100
AcDbEntity
  8
치수문자_일반주서
 62
     0
100
AcDbTrace
 10
51.39718704837715
 20
-7.266320744218683
 30
0.0
 11
50.29652038171048
 21
-7.266320744218687
 31
0.0
 12
50.8468537150438
 22
-3.964320744218686
 32
0.0
 13
50.8468537150438
 23
-3.964320744218686
 33
0.0
  0
MTEXT
  5
131
330
127
100
AcDbEntity
  8
치수문자_일반주서
 62
     0
100
AcDbMText
 10
46.47185371504369
 20
24.57047060166659
 30
0.0
 40
3.5
 41
0.0
 71
     2
 72
     1
  1
\A1;%%c7.93 [5/16]
  7
SLDTEXTSTYLE0
 11
-3.583716705035990E-15
 21
1.0
 31
0.0
 73
     1
 44
1.0
  0
POINT
  5
132
330
127
100
AcDbEntity
  8
Defpoints
 62
     0
100
AcDbPoint
 10
30.63749999999999
 20
3.966470601666544
 30
0.0
  0
POINT
  5
133
330
127
100
AcDbEntity
  8
Defpoints
 62
     0
100
AcDbPoint
 10
30.63749999999999
 20
-3.964320744218755
 30
0.0
  0
POINT
  5
134
330
127
100
AcDbEntity
  8
Defpoints
 62
     0
100
AcDbPoint
 10
50.84685371504379
 20
-3.964320744218685
 30
0.0
  0
ENDBLK
  5
129
330
127
100
AcDbEntity
  8
0
100
AcDbBlockEnd
  0
BLOCK
  5
13A
330
139
100
AcDbEntity
  8
0
100
AcDbBlockBegin
  2
SW_DOWELSYMBOL_0
 70
     0
 10
0.0
 20
0.0
 30
0.0
  3
SW_DOWELSYMBOL_0
  1
SW_DOWELSYMBOL_0
  0
CIRCLE
  5
13C
330
139
100
AcDbEntity
  8
외형선
 62
     0
100
AcDbCircle
 10
0.0
 20
0.0
 30
0.0
 40
3.000000000000003
  0
HATCH
  5
13D
330
139
100
AcDbEntity
  8
0
  6
Continuous
 62
     0
370
    35
100
AcDbHatch
 10
0.0
 20
0.0
 30
0.0
210
0.0
220
0.0
230
1.0
  2
SOLID
 70
     1
 71
     0
 91
        1
 92
        0
 93
        3
 72
     2
 10
0.0000000000000087
 20
0.0
 40
3.000000000000003
 50
0.0
 51
90.0
 73
     1
 72
     1
 10
0.0000000000000087
 20
3.000000000000003
 11
0.0000000000000087
 21
0.0
 72
     1
 10
0.0000000000000087
 20
0.0
 11
3.000000000000012
 21
0.0
 97
        0
 75
     0
 76
     1
 98
        1
 10
0.0
 20
0.0
  0
HATCH
  5
13E
330
139
100
AcDbEntity
  8
0
  6
Continuous
 62
     0
370
    35
100
AcDbHatch
 10
0.0
 20
0.0
 30
0.0
210
0.0
220
0.0
230
1.0
  2
SOLID
 70
     1
 71
     0
 91
        1
 92
        0
 93
        3
 72
     2
 10
0.0000000000000087
 20
0.0
 40
3.000000000000003
 50
180.0
 51
270.0000000000007
 73
     1
 72
     1
 10
0.0000000000000087
 20
-3.000000000000003
 11
0.0000000000000087
 21
0.0
 72
     1
 10
0.0000000000000087
 20
0.0
 11
-2.999999999999994
 21
0.0
 97
        0
 75
     0
 76
     1
 98
        1
 10
0.0
 20
0.0
  0
ENDBLK
  5
13B
330
139
100
AcDbEntity
  8
0
100
AcDbBlockEnd
  0
ENDSEC
  0
SECTION
  2
ENTITIES
  0
LINE
  5
99
330
1F
100
AcDbEntity
  8
0
  6
Continuous
 62
     4
370
    25
100
AcDbLine
 10
4.455821492766427
 20
4.763574928723891
 30
0.0
 11
-32.05250000000001
 21
4.763574928723888
 31
0.0
  0
LINE
  5
9A
330
1F
100
AcDbEntity
  8
0
  6
Continuous
 62
     4
370
    25
100
AcDbLine
 10
-32.05250000000001
 20
-4.761425071276107
 30
0.0
 11
4.455821492766425
 21
-4.761425071276104
 31
0.0
  0
LINE
  5
9D
330
1F
100
AcDbEntity
  8
0
  6
Continuous
 62
     4
370
    25
100
AcDbLine
 10
-32.05250000000001
 20
4.763574928723887
 30
0.0
 11
-32.86250000000001
 21
3.953574928723888
 31
0.0
  0
LINE
  5
9E
330
1F
100
AcDbEntity
  8
0
  6
Continuous
 62
     4
370
    25
100
AcDbLine
 10
-32.86250000000001
 20
-3.951425071276107
 30
0.0
 11
-32.05250000000001
 21
-4.761425071276106
 31
0.0
  0
SPLINE
  5
9F
330
1F
100
AcDbEntity
  8
0
  6
Continuous
 62
     4
370
    25
100
AcDbSpline
210
0.0
220
0.0
230
1.0
 70
     8
 71
     3
 72
    11
 73
     7
 74
     0
 42
0.000000001
 43
0.00000001
 40
0.0
 40
0.0
 40
0.0
 40
0.0
 40
0.292193886981439
 40
0.550412311275949
 40
0.7847435229229579
 40
1.0
 40
1.0
 40
1.0
 40
1.0
 10
8.470741494192808
 20
-3.223074186271445
 30
0.0
 10
8.622158152140328
 20
-3.205957227991496
 30
0.0
 10
8.907385175633355
 20
-3.173713621986556
 30
0.0
 10
9.317547519948661
 20
-3.135778125457497
 30
0.0
 10
9.683936936298347
 20
-3.111914179246885
 30
0.0
 10
9.897668318192146
 20
-3.105315108742878
 30
0.0
 10
10.00000000000007
 20
-3.102155563443258
 30
0.0
  0
LINE
  5
A0
330
1F
100
AcDbEntity
  8
0
  6
Continuous
 62
     4
370
    25
100
AcDbLine
 10
10.00000000000007
 20
3.104305494839468
 30
0.0
 11
9.60578548375809
 21
3.124974024923074
 31
0.0
  0
SPLINE
  5
A1
330
1F
100
AcDbEntity
  8
0
  6
Continuous
 62
     1
370
    25
100
AcDbSpline
210
0.0
220
0.0
230
1.0
 70
     8
 71
     3
 72
     9
 73
     5
 74
     0
 42
0.000000001
 43
0.00000001
 40
0.0
 40
0.0
 40
0.0
 40
0.0
 40
0.4368097577474437
 40
1.0
 40
1.0
 40
1.0
 40
1.0
 10
12.2336289955429
 20
1.018069543098574
 30
0.0
 10
12.14089402577871
 20
1.09428967540502
 30
0.0
 10
11.92859343468749
 20
1.26878241727851
 30
0.0
 10
11.71620829432556
 20
1.46066408855581
 30
0.0
 10
11.59659505567429
 20
1.568729973486299
 30
0.0
  0
SPLINE
  5
A2
330
1F
100
AcDbEntity
  8
0
  6
Continuous
 62
     4
370
    25
100
AcDbSpline
210
0.0
220
0.0
230
1.0
 70
     8
 71
     3
 72
     9
 73
     5
 74
     0
 42
0.000000001
 43
0.00000001
 40
0.0
 40
0.0
 40
0.0
 40
0.0
 40
0.4368023218858839
 40
0.9999999999999999
 40
0.9999999999999999
 40
0.9999999999999999
 40
0.9999999999999999
 10
24.70181853499908
 20
1.018074649597306
 30
0.0
 10
24.60908750180345
 20
1.094291575107124
 30
0.0
 10
24.39679230887667
 20
1.268779945912375
 30
0.0
 10
24.18440804203194
 20
1.460660629813418
 30
0.0
 10
24.06479371607703
 20
1.568727385461434
 30
0.0
  0
LINE
  5
A3
330
1F
100
AcDbEntity
  8
0
  6
Continuous
 62
     1
370
    25
100
AcDbLine
 10
18.33196444695216
 20
-3.967675071276109
 30
0.0
 11
19.4426295783923
 21
-3.967675071276109
 31
0.0
  0
LINE
  5
A4
330
1F
100
AcDbEntity
  8
0
  6
Continuous
 62
     1
370
    25
100
AcDbLine
 10
19.4426295783923
 20
3.969824928723895
 30
0.0
 11
18.33222744130638
 21
3.969824928723895
 31
0.0
  0
SPLINE
  5
A5
330
1F
100
AcDbEntity
  8
0
  6
Continuous
 62
     1
370
    25
100
AcDbSpline
210
0.0
220
0.0
230
1.0
 70
     8
 71
     3
 72
    20
 73
    16
 74
     0
 42
0.000000001
 43
0.00000001
 40
0.0
 40
0.0
 40
0.0
 40
0.0
 40
0.0926102270278127
 40
0.1643780579475714
 40
0.2147126036514584
 40
0.2835796755995869
 40
0.3508737898644305
 40
0.4159299138346159
 40
0.4798607904456819
 40
0.5701404859254058
 40
0.6792707316303594
 40
0.7327782096517708
 40
0.7938276392254416
 40
0.8831074070893381
 40
1.0
 40
1.0
 40
1.0
 40
1.0
 10
20.49696116289963
 20
-3.301491649983749
 30
0.0
 10
20.60460380363124
 20
-3.283464173910544
 30
0.0
 10
20.79566356888261
 20
-3.251466395676831
 30
0.0
 10
21.04380318486777
 20
-3.216591516490297
 30
0.0
 10
21.26305432937107
 20
-3.1888433386068
 30
0.0
 10
21.47144793722078
 20
-3.165597989580315
 30
0.0
 10
21.70292094309116
 20
-3.143615811254567
 30
0.0
 10
21.92836894504942
 20
-3.126447458054936
 30
0.0
 10
22.18050178347083
 20
-3.11164518314814
 30
0.0
 10
22.48312471734013
 20
-3.100221359058486
 30
0.0
 10
22.77325420889989
 20
-3.097218243555646
 30
0.0
 10
23.03015030145621
 20
-3.100373608009394
 30
0.0
 10
23.26414013255285
 20
-3.107020131944547
 30
0.0
 10
23.57093890308361
 20
-3.121395838837426
 30
0.0
 10
23.80841177500442
 20
-3.141334671047158
 30
0.0
 10
23.9430506744208
 20
-3.152639298824858
 30
0.0
  0
SPLINE
  5
A6
330
1F
100
AcDbEntity
  8
0
  6
Continuous
 62
     1
370
    25
100
AcDbSpline
210
0.0
220
0.0
230
1.0
 70
     8
 71
     3
 72
    10
 73
     6
 74
     0
 42
0.000000001
 43
0.00000001
 40
0.0
 40
0.0
 40
0.0
 40
0.0
 40
0.3728581548031649
 40
0.6086958534436706
 40
1.0
 40
1.0
 40
1.0
 40
1.0
 10
11.47482629607025
 20
3.154786508530289
 30
0.0
 10
11.29446864245124
 20
3.140207817071784
 30
0.0
 10
11.00003239509954
 20
3.116407911061651
 30
0.0
 10
10.50056587492486
 20
3.098542693489058
 30
0.0
 10
10.19232586123247
 20
3.102091329255378
 30
0.0
 10
9.999999999999988
 20
3.10430549483947
 30
0.0
  0
SPLINE
  5
A7
330
1F
100
AcDbEntity
  8
0
  6
Continuous
 62
     1
370
    25
100
AcDbSpline
210
0.0
220
0.0
230
1.0
 70
     8
 71
     3
 72
     9
 73
     5
 74
     0
 42
0.000000001
 43
0.00000001
 40
0.0
 40
0.0
 40
0.0
 40
0.0
 40
0.4596179419709316
 40
1.0
 40
1.0
 40
1.0
 40
1.0
 10
9.999999999999988
 20
-3.102155637391684
 30
0.0
 10
10.22574305335337
 20
-3.099641191891376
 30
0.0
 10
10.71689675458912
 20
-3.094170462246827
 30
0.0
 10
11.20893672449821
 20
-3.132126103531355
 30
0.0
 10
11.47482629607025
 20
-3.152636651082501
 30
0.0
  0
SPLINE
  5
A8
330
1F
100
AcDbEntity
  8
0
  6
Continuous
 62
     1
370
    25
100
AcDbSpline
210
0.0
220
0.0
230
1.0
 70
     8
 71
     3
 72
    15
 73
    11
 74
     0
 42
0.000000001
 43
0.00000001
 40
0.0
 40
0.0
 40
0.0
 40
0.0
 40
0.2170507342028788
 40
0.3601279580339143
 40
0.4867827590587473
 40
0.6110393538179593
 40
0.7305137128429742
 40
0.8555939116328156
 40
0.9605268662106475
 40
1.0
 40
1.0
 40
1.0
 40
1.0
 10
23.94305067442081
 20
3.154789156272648
 30
0.0
 10
23.80582804295096
 20
3.143263185546872
 30
0.0
 10
23.57814990931661
 20
3.124139434055883
 30
0.0
 10
23.27312766320123
 20
3.109569331692737
 30
0.0
 10
23.03473187437348
 20
3.102426922641511
 30
0.0
 10
22.80260670582986
 20
3.099795159103154
 30
0.0
 10
22.57458635568222
 20
3.101380751197874
 30
0.0
 10
22.3572753133433
 20
3.10709118692022
 30
0.0
 10
22.18807859094707
 20
3.1137448202281
 30
0.0
 10
22.09773678398162
 20
3.119209912836491
 30
0.0
 10
22.07304202025358
 20
3.120703785665134
 30
0.0
  0
SPLINE
  5
A9
330
1F
100
AcDbEntity
  8
0
  6
Continuous
 62
     1
370
    25
100
AcDbSpline
210
0.0
220
0.0
230
1.0
 70
     8
 71
     3
 72
    15
 73
    11
 74
     0
 42
0.000000001
 43
0.00000001
 40
0.0
 40
0.0
 40
0.0
 40
0.0
 40
0.1920830668638805
 40
0.329129427642911
 40
0.4147269289694956
 40
0.4948306302515216
 40
0.5834122832753783
 40
0.6802436749775558
 40
0.9363554019334611
 40
1.0
 40
1.0
 40
1.0
 40
1.0
 10
25.78389499874181
 20
-2.983962804194964
 30
0.0
 10
25.89340921173551
 20
-2.954953593989067
 30
0.0
 10
26.08105901777973
 20
-2.905247053442181
 30
0.0
 10
26.31574946507889
 20
-2.850902686776455
 30
0.0
 10
26.48683478255834
 20
-2.814365456217584
 30
0.0
 10
26.63085753865452
 20
-2.785684558730956
 30
0.0
 10
26.78149447262655
 20
-2.757765698953273
 30
0.0
 10
27.03213664952662
 20
-2.715757868815457
 30
0.0
 10
27.26767250423257
 20
-2.680334807680679
 30
0.0
 10
27.44880780408806
 20
-2.663983061886914
 30
0.0
 10
27.4848611436245
 20
-2.66072839510696
 30
0.0
  0
SPLINE
  5
AA
330
1F
100
AcDbEntity
  8
0
  6
Continuous
 62
     1
370
    25
100
AcDbSpline
210
0.0
220
0.0
230
1.0
 70
     8
 71
     3
 72
    22
 73
    18
 74
     0
 42
0.000000001
 43
0.00000001
 40
0.0
 40
0.0
 40
0.0
 40
0.0
 40
0.0907639837478913
 40
0.1494195336548165
 40
0.2051879743705519
 40
0.2740278318452846
 40
0.340750109417592
 40
0.4010075104942303
 40
0.4531905000948717
 40
0.5001128251220275
 40
0.571388680463235
 40
0.6599863043253168
 40
0.7624295085253885
 40
0.8180496180182268
 40
0.8625570775596262
 40
0.9186479089951969
 40
1.0
 40
1.0
 40
1.0
 40
1.0
 10
17.3170312004076
 20
2.715496077032395
 30
0.0
 10
17.20058268358648
 20
2.699206916670845
 30
0.0
 10
17.00888017825644
 20
2.672391007492466
 30
0.0
 10
16.72990081257811
 20
2.645240028704326
 30
0.0
 10
16.47751048279538
 20
2.62689580627094
 30
0.0
 10
16.22317772535443
 20
2.615538142500102
 30
0.0
 10
15.96099023153123
 20
2.611542971965064
 30
0.0
 10
15.71964811707378
 20
2.614866026868287
 30
0.0
 10
15.50804356115625
 20
2.623101649369973
 30
0.0
 10
15.28398478236075
 20
2.636602527602732
 30
0.0
 10
15.00740530920208
 20
2.660297837205151
 30
0.0
 10
14.65864692997921
 20
2.702772623140277
 30
0.0
 10
14.33027520302707
 20
2.755681111254315
 30
0.0
 10
14.0585467891821
 20
2.807992842237098
 30
0.0
 10
13.84229348546068
 20
2.854057183011714
 30
0.0
 10
13.59997331036075
 20
2.91066814320259
 30
0.0
 10
13.42150544121996
 20
2.958031627117158
 30
0.0
 10
13.31587079613248
 20
2.986065944092584
 30
0.0
  0
SPLINE
  5
AB
330
1F
100
AcDbEntity
  8
0
  6
Continuous
 62
     1
370
    25
100
AcDbSpline
210
0.0
220
0.0
230
1.0
 70
     8
 71
     3
 72
    14
 73
    10
 74
     0
 42
0.000000001
 43
0.00000001
 40
0.0
 40
0.0
 40
0.0
 40
0.0
 40
0.2124009362617865
 40
0.3491539386518932
 40
0.4772986980424666
 40
0.6376276307808838
 40
0.7962533594875658
 40
0.9409665379100699
 40
0.9999999999999999
 40
0.9999999999999999
 40
0.9999999999999999
 40
0.9999999999999999
 10
13.31587079613248
 20
-2.983916086644797
 30
0.0
 10
13.43297633433153
 20
-2.952881954706902
 30
0.0
 10
13.62547953426918
 20
-2.901866692771318
 30
0.0
 10
13.90040680881187
 20
-2.838915239964019
 30
0.0
 10
14.14892187999802
 20
-2.787627532748529
 30
0.0
 10
14.40246192291555
 20
-2.741568407450703
 30
0.0
 10
14.66578429740148
 20
-2.701206248935249
 30
0.0
 10
14.87088524973299
 20
-2.674167292147257
 30
0.0
 10
14.98658998555311
 20
-2.662694311154767
 30
0.0
 10
15.02011422486563
 20
-2.65937013468356
 30
0.0
  0
SPLINE
  5
AC
330
1F
100
AcDbEntity
  8
0
  6
Continuous
 62
     1
370
    25
100
AcDbSpline
210
0.0
220
0.0
230
1.0
 70
     8
 71
     3
 72
    25
 73
    21
 74
     0
 42
0.000000001
 43
0.00000001
 40
0.0
 40
0.0
 40
0.0
 40
0.0
 40
0.0668056835922663
 40
0.1206821916771823
 40
0.1793557172579791
 40
0.2143513668063383
 40
0.2479310102244443
 40
0.2816415360961389
 40
0.3207483694679385
 40
0.4150414665399143
 40
0.5094465166557545
 40
0.5782531896750599
 40
0.6353255961491217
 40
0.6938604473391364
 40
0.723403541445793
 40
0.7530707982002722
 40
0.7880079930562777
 40
0.8407681255058282
 40
0.9114780972120352
 40
1.0
 40
1.0
 40
1.0
 40
1.0
 10
29.7852875286944
 20
2.715505084150287
 30
0.0
 10
29.69428163444084
 20
2.702659307955683
 30
0.0
 10
29.52988258658299
 20
2.67945385085085
 30
0.0
 10
29.28858253590989
 20
2.653497110340462
 30
0.0
 10
29.09083424314726
 20
2.636981861274407
 30
0.0
 10
28.9271852694616
 20
2.626708570581349
 30
0.0
 10
28.79261245085891
 20
2.620151081773288
 30
0.0
 10
28.65048317098082
 20
2.615337536435826
 30
0.0
 10
28.42725710934033
 20
2.611374312829775
 30
0.0
 10
28.12405508887177
 20
2.615086902195201
 30
0.0
 10
27.78020169822053
 20
2.633642010030539
 30
0.0
 10
27.48601541464847
 20
2.659932837003428
 30
0.0
 10
27.23972277177635
 20
2.689019917795449
 30
0.0
 10
27.05867548407646
 20
2.714600609189272
 30
0.0
 10
26.90360602341283
 20
2.739107295749928
 30
0.0
 10
26.77551334631618
 20
2.761035530947639
 30
0.0
 10
26.61401263617995
 20
2.79083922262843
 30
0.0
 10
26.40091695948588
 20
2.833951438509561
 30
0.0
 10
26.11655853009889
 20
2.898174321138817
 30
0.0
 10
25.90275497781837
 20
2.954692477802086
 30
0.0
 10
25.78389499874181
 20
2.986112661642753
 30
0.0
  0
LINE
  5
AD
330
1F
100
AcDbEntity
  8
0
  6
Continuous
 62
     4
370
    25
100
AcDbLine
 10
4.455821492766427
 20
4.763574928723891
 30
0.0
 11
4.45582149276643
 21
-4.761425071276108
 31
0.0
  0
LINE
  5
AE
330
1F
100
AcDbEntity
  8
0
  6
Continuous
 62
     4
370
    25
100
AcDbLine
 10
-32.05250000000001
 20
4.763574928723887
 30
0.0
 11
-32.05250000000001
 21
-4.761425071276106
 31
0.0
  0
SPLINE
  5
AF
330
1F
100
AcDbEntity
  8
0
  6
Continuous
 62
     4
370
    25
100
AcDbSpline
210
0.0
220
0.0
230
1.0
 70
     8
 71
     3
 72
     8
 73
     4
 74
     0
 42
0.000000001
 43
0.00000001
 40
0.0
 40
0.0
 40
0.0
 40
0.0
 40
1.0
 40
1.0
 40
1.0
 40
1.0
 10
8.999999999999995
 20
-3.462336976521929
 30
0.0
 10
8.825785296887975
 20
-3.578639284999665
 30
0.0
 10
8.65239304771876
 20
-3.688392419480892
 30
0.0
 10
8.479899065082144
 20
-3.791343084835869
 30
0.0
  0
LINE
  5
B0
330
1F
100
AcDbEntity
  8
0
  6
Continuous
 62
     4
370
    25
100
AcDbLine
 10
8.479939461803447
 20
3.793527979255662
 30
0.0
 11
8.479939461803449
 21
4.109174729948953
 31
0.0
  0
SPLINE
  5
B1
330
1F
100
AcDbEntity
  8
0
  6
Continuous
 62
     4
370
    25
100
AcDbSpline
210
0.0
220
0.0
230
1.0
 70
     8
 71
     3
 72
     8
 73
     4
 74
     0
 42
0.000000001
 43
0.00000001
 40
0.0
 40
0.0
 40
0.0
 40
0.0
 40
1.0
 40
1.0
 40
1.0
 40
1.0
 10
8.999999999999995
 20
3.464486833969715
 30
0.0
 10
8.825785296887974
 20
3.580789142447451
 30
0.0
 10
8.652393047718759
 20
3.690542276928678
 30
0.0
 10
8.479899065082144
 20
3.793492942283656
 30
0.0
  0
LINE
  5
B2
330
1F
100
AcDbEntity
  8
0
  6
Continuous
 62
     4
370
    25
100
AcDbLine
 10
8.999999999999993
 20
3.464486833969721
 30
0.0
 11
8.999999999999995
 21
2.794547908125514
 31
0.0
  0
SPLINE
  5
B3
330
1F
100
AcDbEntity
  8
0
  6
Continuous
 62
     4
370
    25
100
AcDbSpline
210
0.0
220
0.0
230
1.0
 70
     8
 71
     3
 72
     8
 73
     4
 74
     0
 42
0.000000001
 43
0.00000001
 40
0.0
 40
0.0
 40
0.0
 40
0.0
 40
1.0
 40
1.0
 40
1.0
 40
1.0
 10
8.479939461803445
 20
3.218520064048212
 30
0.0
 10
8.65312148522779
 20
3.082360725300335
 30
0.0
 10
8.826492829246014
 20
2.941034507126328
 30
0.0
 10
8.999999999997796
 20
2.794547908126849
 30
0.0
  0
LINE
  5
B4
330
1F
100
AcDbEntity
  8
0
  6
Continuous
 62
     4
370
    25
100
AcDbLine
 10
8.47993946180345
 20
-4.107024872501166
 30
0.0
 11
8.479939461803445
 21
3.218559466826661
 31
0.0
  0
LINE
  5
B5
330
1F
100
AcDbEntity
  8
0
  6
Continuous
 62
     4
370
    25
100
AcDbLine
 10
-32.86250000000001
 20
3.953574928723888
 30
0.0
 11
-32.86250000000001
 21
-3.951425071276107
 31
0.0
  0
SPLINE
  5
B6
330
1F
100
AcDbEntity
  8
0
  6
Continuous
 62
     4
370
    25
100
AcDbSpline
210
0.0
220
0.0
230
1.0
 70
     8
 71
     3
 72
    10
 73
     6
 74
     0
 42
0.000000001
 43
0.00000001
 40
0.0
 40
0.0
 40
0.0
 40
0.0
 40
0.4999999999999999
 40
0.4999999999999999
 40
1.0
 40
1.0
 40
1.0
 40
1.0
 10
8.999999999999993
 20
2.794547908125514
 30
0.0
 10
9.16574692363277
 20
2.676403434192317
 30
0.0
 10
9.331032295343364
 20
2.551021306565327
 30
0.0
 10
9.665500312031847
 20
2.28643490141969
 30
0.0
 10
9.833409176711433
 20
2.147533083525259
 30
0.0
 10
9.999999999998506
 20
2.003694426441222
 30
0.0
  0
SPLINE
  5
B7
330
1F
100
AcDbEntity
  8
0
  6
Continuous
 62
     4
370
    25
100
AcDbSpline
210
0.0
220
0.0
230
1.0
 70
    24
 71
     3
 72
    10
 73
     6
 74
     0
 42
0.000000001
 43
0.00000001
 40
0.0
 40
0.0
 40
0.0
 40
0.0
 40
0.5
 40
0.5
 40
1.0
 40
1.0
 40
1.0
 40
1.0
 10
9.999999999999993
 20
2.003694426439938
 30
0.0
 10
9.999999999999993
 20
1.955464770813033
 30
0.0
 10
9.999999999999995
 20
1.865903113632795
 30
0.0
 10
9.999999999999993
 20
1.621694582345982
 30
0.0
 10
9.999999999999993
 20
1.467947146901814
 30
0.0
 10
9.999999999999993
 20
1.303132097500075
 30
0.0
  0
SPLINE
  5
B8
330
1F
100
AcDbEntity
  8
0
  6
Continuous
 62
     4
370
    25
100
AcDbSpline
210
0.0
220
0.0
230
1.0
 70
     8
 71
     3
 72
    10
 73
     6
 74
     0
 42
0.000000001
 43
0.00000001
 40
0.0
 40
0.0
 40
0.0
 40
0.0
 40
0.5
 40
0.5
 40
1.0
 40
1.0
 40
1.0
 40
1.0
 10
9.999999999999993
 20
1.303132097500075
 30
0.0
 10
9.822604168773411
 20
1.412834906092107
 30
0.0
 10
9.643713692566326
 20
1.518923966224381
 30
0.0
 10
9.287756706558492
 20
1.720990734653454
 30
0.0
 10
9.112379669913947
 20
1.816685989131827
 30
0.0
 10
8.935409891208227
 20
1.90696825058612
 30
0.0
  0
SPLINE
  5
B9
330
1F
100
AcDbEntity
  8
0
  6
Continuous
 62
     4
370
    25
100
AcDbSpline
210
0.0
220
0.0
230
1.0
 70
     8
 71
     3
 72
    14
 73
    10
 74
     0
 42
0.000000001
 43
0.00000001
 40
0.0
 40
0.0
 40
0.0
 40
0.0
 40
0.25
 40
0.25
 40
0.5
 40
0.5
 40
0.75
 40
0.75
 40
1.0
 40
1.0
 40
1.0
 40
1.0
 10
8.479939461805971
 20
2.695847296112305
 30
0.0
 10
8.47993946180542
 20
2.626257796975632
 30
0.0
 10
8.498511594372417
 20
2.548475732867501
 30
0.0
 10
8.549452733490106
 20
2.397537500061939
 30
0.0
 10
8.583025543812376
 20
2.322387751484067
 30
0.0
 10
8.66066625761172
 20
2.181415988187229
 30
0.0
 10
8.705002482149306
 20
2.11461166140247
 30
0.0
 10
8.809260813971829
 20
1.993937081731925
 30
0.0
 10
8.868277748547532
 20
1.941216141384233
 30
0.0
 10
8.935409891208227
 20
1.90696825058612
 30
0.0
  0
SPLINE
  5
BA
330
1F
100
AcDbEntity
  8
0
  6
Continuous
 62
     4
370
    25
100
AcDbSpline
210
0.0
220
0.0
230
1.0
 70
     8
 71
     3
 72
    10
 73
     6
 74
     0
 42
0.000000001
 43
0.00000001
 40
0.0
 40
0.0
 40
0.0
 40
0.0
 40
0.5
 40
0.5
 40
1.0
 40
1.0
 40
1.0
 40
1.0
 10
9.999999999999991
 20
2.872120836918527
 30
0.0
 10
9.833409176712678
 20
2.98714701493199
 30
0.0
 10
9.66550031203284
 20
3.094855960567394
 30
0.0
 10
9.331032295343858
 20
3.293019873934893
 30
0.0
 10
9.165746923633016
 20
3.383269795879037
 30
0.0
 10
8.999999999999993
 20
3.464486833969721
 30
0.0
  0
LINE
  5
BB
330
1F
100
AcDbEntity
  8
0
  6
Continuous
 62
     4
370
    25
100
AcDbLine
 10
9.999999999999991
 20
2.872120836918527
 30
0.0
 11
9.999999999999993
 21
2.003694426439939
 31
0.0
  0
SPLINE
  5
BC
330
1F
100
AcDbEntity
  8
0
  6
Continuous
 62
     4
370
    25
100
AcDbSpline
210
0.0
220
0.0
230
1.0
 70
     8
 71
     3
 72
    12
 73
     8
 74
     0
 42
0.000000001
 43
0.00000001
 40
0.0
 40
0.0
 40
0.0
 40
0.0
 40
0.2500000000000003
 40
0.2500000000000003
 40
0.5000000000000007
 40
0.5000000000000007
 40
1.0
 40
1.0
 40
1.0
 40
1.0
 10
8.772602868313351
 20
-2.217691052285687
 30
0.0
 10
8.709882932668348
 20
-2.181858414105422
 30
0.0
 10
8.667177067578052
 20
-2.135650672949926
 30
0.0
 10
8.595812846572715
 20
-2.037483852145948
 30
0.0
 10
8.569026867293132
 20
-1.986064506661191
 30
0.0
 10
8.503823202610265
 20
-1.827696643449561
 30
0.0
 10
8.47993946180347
 20
-1.716079976759609
 30
0.0
 10
8.479939461803328
 20
-1.608073629765531
 30
0.0
  0
SPLINE
  5
BD
330
1F
100
AcDbEntity
  8
0
  6
Continuous
 62
     4
370
    25
100
AcDbSpline
210
0.0
220
0.0
230
1.0
 70
     8
 71
     3
 72
    10
 73
     6
 74
     0
 42
0.000000001
 43
0.00000001
 40
0.0
 40
0.0
 40
0.0
 40
0.0
 40
0.5
 40
0.5
 40
1.0
 40
1.0
 40
1.0
 40
1.0
 10
9.999999999999991
 20
-2.803615171190263
 30
0.0
 10
9.795477274749073
 20
-2.726924070104278
 30
0.0
 10
9.588968044459838
 20
-2.638745351004287
 30
0.0
 10
9.179351528517637
 20
-2.442532256176416
 30
0.0
 10
8.977646193133793
 20
-2.334834719523542
 30
0.0
 10
8.77260286783665
 20
-2.217691052013344
 30
0.0
  0
SPLINE
  5
BE
330
1F
100
AcDbEntity
  8
0
  6
Continuous
 62
     4
370
    25
100
AcDbSpline
210
0.0
220
0.0
230
1.0
 70
    24
 71
     3
 72
    12
 73
     8
 74
     0
 42
0.000000001
 43
0.00000001
 40
0.0
 40
0.0
 40
0.0
 40
0.0
 40
0.145636107020368
 40
0.4389994301939799
 40
0.5868533368540992
 40
0.8081913803528165
 40
1.0
 40
1.0
 40
1.0
 40
1.0
 10
9.999999999999995
 20
-2.803615171190263
 30
0.0
 10
9.999999999999995
 20
-2.831217256669208
 30
0.0
 10
9.999999999999996
 20
-2.914419836340797
 30
0.0
 10
9.999999999999995
 20
-2.996355263639138
 30
0.0
 10
9.999999999999995
 20
-3.060730837895552
 30
0.0
 10
9.999999999999995
 20
-3.096591511601845
 30
0.0
 10
9.999999999999995
 20
-3.099139220087005
 30
0.0
 10
9.999999999999995
 20
-3.100322026318769
 30
0.0
  0
SPLINE
  5
BF
330
1F
100
AcDbEntity
  8
0
  6
Continuous
 62
     4
370
    25
100
AcDbSpline
210
0.0
220
0.0
230
1.0
 70
    24
 71
     3
 72
    14
 73
    10
 74
     0
 42
0.000000001
 43
0.00000001
 40
0.0
 40
0.0
 40
0.0
 40
0.0
 40
0.2499999999999999
 40
0.2499999999999999
 40
0.4999999999999999
 40
0.4999999999999999
 40
0.7499999999999999
 40
0.7499999999999999
 40
1.0
 40
1.0
 40
1.0
 40
1.0
 10
9.999999999999991
 20
1.303132097500077
 30
0.0
 10
9.999999999999991
 20
0.9646068366204587
 30
0.0
 10
9.999999999999991
 20
0.6035809786979296
 30
0.0
 10
9.999999999999991
 20
-0.1337557396818247
 30
0.0
 10
9.999999999999991
 20
-0.50973787474148
 30
0.0
 10
9.999999999999991
 20
-1.239625266470352
 30
0.0
 10
9.999999999999991
 20
-1.59314160862196
 30
0.0
 10
9.999999999999991
 20
-2.2448763971792
 30
0.0
 10
9.999999999999991
 20
-2.54288635071656
 30
0.0
 10
9.999999999999991
 20
-2.80361517119026
 30
0.0
  0
SPLINE
  5
C0
330
1F
100
AcDbEntity
  8
0
  6
Continuous
 62
     4
370
    25
100
AcDbSpline
210
0.0
220
0.0
230
1.0
 70
    24
 71
     3
 72
    10
 73
     6
 74
     0
 42
0.000000001
 43
0.00000001
 40
0.0
 40
0.0
 40
0.0
 40
0.0
 40
0.0432219275452116
 40
0.6462664700166698
 40
1.0
 40
1.0
 40
1.0
 40
1.0
 10
9.999999999999995
 20
3.10018414861063
 30
0.0
 10
9.999999999999995
 20
3.101498539591097
 30
0.0
 10
9.999999999999996
 20
3.121151684821123
 30
0.0
 10
9.999999999999995
 20
3.065868771500596
 30
0.0
 10
9.999999999999995
 20
2.956764619363385
 30
0.0
 10
9.999999999999995
 20
2.91642736876951
 30
0.0
  0
SPLINE
  5
C1
330
1F
100
AcDbEntity
  8
0
  6
Continuous
 62
     4
370
    25
100
AcDbSpline
210
0.0
220
0.0
230
1.0
 70
     8
 71
     3
 72
     9
 73
     5
 74
     0
 42
0.000000001
 43
0.00000001
 40
0.0
 40
0.0
 40
0.0
 40
0.0
 40
0.186256862051389
 40
1.0
 40
1.0
 40
1.0
 40
1.0
 10
9.612577934554569
 20
-3.118467420659806
 30
0.0
 10
9.574465863867955
 20
-3.14326136545026
 30
0.0
 10
9.369844835322448
 20
-3.276378312216024
 30
0.0
 10
9.165932369668266
 20
-3.378905875471885
 30
0.0
 10
8.999999999999995
 20
-3.462336976521935
 30
0.0
  0
SPLINE
  5
C2
330
1F
100
AcDbEntity
  8
0
  6
Continuous
 62
     1
370
    25
100
AcDbSpline
210
0.0
220
0.0
230
1.0
 70
     8
 71
     3
 72
    23
 73
    19
 74
     0
 42
0.000000001
 43
0.00000001
 40
0.0
 40
0.0
 40
0.0
 40
0.0
 40
0.0116791498378763
 40
0.0771352915464495
 40
0.1426770220894215
 40
0.2083192222698184
 40
0.2737920339326692
 40
0.339284302747495
 40
0.4049405252685409
 40
0.4704506897201976
 40
0.5359141205304859
 40
0.6015366649050969
 40
0.6671047515467742
 40
0.7336205145031949
 40
0.8002202789954145
 40
0.8669218148843783
 40
0.9334605416318691
 40
1.0
 40
1.0
 40
1.0
 40
1.0
 10
22.07298053931314
 20
-3.118594698712332
 30
0.0
 10
22.02595958029473
 20
-3.150266032769653
 30
0.0
 10
21.71540826166055
 20
-3.359440298027706
 30
0.0
 10
21.14200978407115
 20
-3.627102784370676
 30
0.0
 10
20.35063653574449
 20
-3.892029793982628
 30
0.0
 10
19.55810121945319
 20
-3.991843526176473
 30
0.0
 10
18.76761625128334
 20
-3.936483262301571
 30
0.0
 10
17.97689995352008
 20
-3.724007520346234
 30
0.0
 10
17.18417417796502
 20
-3.364895767938142
 30
0.0
 10
16.39324144220328
 20
-2.871689481976842
 30
0.0
 10
15.60288021475658
 20
-2.264235051748416
 30
0.0
 10
14.81056373079315
 20
-1.568251493775188
 30
0.0
 10
14.01469706622343
 20
-0.8054666659123146
 30
0.0
 10
13.21586185206217
 20
-0.0053083585296578
 30
0.0
 10
12.41176648064159
 20
0.7995530532028768
 30
0.0
 10
11.60635942299567
 20
1.568457886974094
 30
0.0
 10
10.8030940443432
 20
2.283170950769526
 30
0.0
 10
10.26769899591988
 20
2.67580348868281
 30
0.0
 10
9.99999999999418
 20
2.872120836922539
 30
0.0
  0
SPLINE
  5
C3
330
1F
100
AcDbEntity
  8
0
  6
Continuous
 62
     1
370
    25
100
AcDbSpline
210
0.0
220
0.0
230
1.0
 70
     8
 71
     3
 72
    20
 73
    16
 74
     0
 42
0.000000001
 43
0.00000001
 40
0.0
 40
0.0
 40
0.0
 40
0.0
 40
0.0298586981706057
 40
0.1137241065917265
 40
0.1972486506050727
 40
0.2809838291886586
 40
0.3647072107901901
 40
0.4482350309792358
 40
0.5321021075939015
 40
0.6156540511076563
 40
0.6993171223969205
 40
0.7831092393518116
 40
0.8666214897647372
 40
0.9504683558305052
 40
1.0
 40
1.0
 40
1.0
 40
1.0
 10
20.49926172367211
 20
-3.289742303066992
 30
0.0
 10
20.4169703329125
 20
-3.307117911308526
 30
0.0
 10
20.10354357730331
 20
-3.373297136955457
 30
0.0
 10
19.55818550086348
 20
-3.383730293245076
 30
0.0
 10
18.86676646707601
 20
-3.319141550942516
 30
0.0
 10
18.1739729592221
 20
-3.147238031237294
 30
0.0
 10
17.48127527645423
 20
-2.881870749396784
 30
0.0
 10
16.78978768563019
 20
-2.527093493259328
 30
0.0
 10
16.09614554496696
 20
-2.098049742944728
 30
0.0
 10
15.40452835574431
 20
-1.60291255241735
 30
0.0
 10
14.71222466771525
 20
-1.060059528142601
 30
0.0
 10
14.01906056451514
 20
-0.4858975645725028
 30
0.0
 10
13.32767783617417
 20
0.1047662375190645
 30
0.0
 10
12.72820167363794
 20
0.613727806844619
 30
0.0
 10
12.36056872973355
 20
0.9110183717758951
 30
0.0
 10
12.22404400674528
 20
1.021420643109939
 30
0.0
  0
SPLINE
  5
C4
330
1F
100
AcDbEntity
  8
0
  6
Continuous
 62
     1
370
    25
100
AcDbSpline
210
0.0
220
0.0
230
1.0
 70
     8
 71
     3
 72
    22
 73
    18
 74
     0
 42
0.000000001
 43
0.00000001
 40
0.0
 40
0.0
 40
0.0
 40
0.0
 40
0.0707466624880077
 40
0.1413438604813796
 40
0.212019407281569
 40
0.2828225260223593
 40
0.3534420800685406
 40
0.4240686293307705
 40
0.4948767894186699
 40
0.5655409876097495
 40
0.636140806173868
 40
0.7069025735586776
 40
0.7776335684569785
 40
0.8482290044062628
 40
0.9189167492041757
 40
0.9897128520211915
 40
1.0
 40
1.0
 40
1.0
 40
1.0
 10
30.63749999999999
 20
-3.765034146040207
 30
0.0
 10
30.37332047776432
 20
-3.66737325368242
 30
0.0
 10
29.84551955797893
 20
-3.472257794401975
 30
0.0
 10
29.0552290237133
 20
-3.001319574021244
 30
0.0
 10
28.26405597203171
 20
-2.422213778837308
 30
0.0
 10
27.47142281550341
 20
-1.74536378073008
 30
0.0
 10
26.68087256602562
 20
-0.9986088245084008
 30
0.0
 10
25.89024319266387
 20
-0.2119876892801723
 30
0.0
 10
25.09755258115959
 20
0.5813044480730387
 30
0.0
 10
24.30650428334047
 20
1.353078072672197
 30
0.0
 10
23.51618239370162
 20
2.071459456650964
 30
0.0
 10
22.72402491273828
 20
2.706959400740612
 30
0.0
 10
21.93223188949335
 20
3.234550956809709
 30
0.0
 10
21.1419405832578
 20
3.638535511924658
 30
0.0
 10
20.35071692514987
 20
3.882955228643086
 30
0.0
 10
19.78336225891732
 20
3.987894487929894
 30
0.0
 10
19.48099175643666
 20
3.96317325453755
 30
0.0
 10
19.4426295783923
 20
3.960036836305306
 30
0.0
  0
SPLINE
  5
C5
330
1F
100
AcDbEntity
  8
0
  6
Continuous
 62
     1
370
    25
100
AcDbSpline
210
0.0
220
0.0
230
1.0
 70
     8
 71
     3
 72
    16
 73
    12
 74
     0
 42
0.000000001
 43
0.00000001
 40
0.0
 40
0.0
 40
0.0
 40
0.0
 40
0.1165418680184319
 40
0.232800973665579
 40
0.3495335505724642
 40
0.4658322731718979
 40
0.5822750955213528
 40
0.6989104712899645
 40
0.8151493875567014
 40
0.931851513050137
 40
1.0
 40
1.0
 40
1.0
 40
1.0
 10
30.63749999999999
 20
-3.130158745487462
 30
0.0
 10
30.40639956453724
 20
-3.048015432175794
 30
0.0
 10
29.94475940632593
 20
-2.883928107644077
 30
0.0
 10
29.25328102948827
 20
-2.5232942844014
 30
0.0
 10
28.559643199377
 20
-2.095183699002066
 30
0.0
 10
27.86801089969437
 20
-1.599313395497108
 30
0.0
 10
27.17573923662988
 20
-1.056242311391311
 30
0.0
 10
26.48254614088586
 20
-0.4819282616658505
 30
0.0
 10
25.79116744948994
 20
0.1087643729429604
 30
0.0
 10
25.19328827928465
 20
0.6163719235166961
 30
0.0
 10
24.82722521576705
 20
0.9122727025420558
 30
0.0
 10
24.69226951517608
 20
1.021361821108268
 30
0.0
  0
LINE
  5
C6
330
1F
100
AcDbEntity
  8
0
  6
Continuous
 62
     1
370
    25
100
AcDbLine
 10
30.63749999999999
 20
-3.765034146040208
 30
0.0
 11
30.63749999999999
 21
-3.130158745487462
 31
0.0
  0
SPLINE
  5
C7
330
1F
100
AcDbEntity
  8
0
  6
Continuous
 62
     1
370
    25
100
AcDbSpline
210
0.0
220
0.0
230
1.0
 70
     8
 71
     3
 72
    25
 73
    21
 74
     0
 42
0.000000001
 43
0.00000001
 40
0.0
 40
0.0
 40
0.0
 40
0.0
 40
0.0558556648387858
 40
0.112099021084304
 40
0.167954526357402
 40
0.2241975998121404
 40
0.2802464756353237
 40
0.336295255209427
 40
0.3939611718394495
 40
0.4516267914263724
 40
0.5078005202936993
 40
0.5639740817321104
 40
0.6217786724057642
 40
0.67958366154984
 40
0.7355651459035021
 40
0.7919369448529904
 40
0.8478012228446321
 40
0.9040532594484931
 40
0.9601068049340957
 40
1.0
 40
1.0
 40
1.0
 40
1.0
 10
9.999999999999993
 20
2.003694426439939
 30
0.0
 10
10.15475207717685
 20
1.866743602304124
 30
0.0
 10
10.4653303580434
 20
1.591891385136472
 30
0.0
 10
10.93320660218699
 20
1.15302014133865
 30
0.0
 10
11.39993077359636
 20
0.697115584425049
 30
0.0
 10
11.86712711769622
 20
0.2325053469563168
 30
0.0
 10
12.3348034029758
 20
-0.235730406296866
 30
0.0
 10
12.80576677054755
 20
-0.7053426588226499
 30
0.0
 10
13.28248007416891
 20
-1.168104082976402
 30
0.0
 10
13.75821432633213
 20
-1.615580450539453
 30
0.0
 10
14.23105332344553
 20
-2.03491409567112
 30
0.0
 10
14.70386665466624
 20
-2.426519643652763
 30
0.0
 10
15.18040098182576
 20
-2.78754336491943
 30
0.0
 10
15.65815132575498
 20
-3.106550283876211
 30
0.0
 10
16.12898434293372
 20
-3.380345296150612
 30
0.0
 10
16.59774171293721
 20
-3.602249045730682
 30
0.0
 10
17.06485086526437
 20
-3.776164454511352
 30
0.0
 10
17.53211017563662
 20
-3.895098533674824
 30
0.0
 10
17.95489869979577
 20
-3.960371779008725
 30
0.0
 10
18.22122854785436
 20
-3.961524365039964
 30
0.0
 10
18.33196444695215
 20
-3.962003592777249
 30
0.0
  0
SPLINE
  5
C8
330
1F
100
AcDbEntity
  8
0
  6
Continuous
 62
     1
370
    25
100
AcDbSpline
210
0.0
220
0.0
230
1.0
 70
     8
 71
     3
 72
    14
 73
    10
 74
     0
 42
0.000000001
 43
0.00000001
 40
0.0
 40
0.0
 40
0.0
 40
0.0
 40
0.1410958600716145
 40
0.2938307133488673
 40
0.4465656167904176
 40
0.583256425765011
 40
0.7199469480828665
 40
0.8599742363194117
 40
1.0
 40
1.0
 40
1.0
 40
1.0
 10
27.48393765738535
 20
2.661558183026159
 30
0.0
 10
27.6323073417593
 20
2.768734282813679
 30
0.0
 10
27.94128572125829
 20
2.991927435600248
 30
0.0
 10
28.41051428945298
 20
3.278893255199659
 30
0.0
 10
28.87516731753888
 20
3.51988002226159
 30
0.0
 10
29.32337512378848
 20
3.705223290413903
 30
0.0
 10
29.75711990474365
 20
3.840969912218087
 30
0.0
 10
30.19639177994674
 20
3.934032952253071
 30
0.0
 10
30.49046446027429
 20
3.955658091103111
 30
0.0
 10
30.63749999999999
 20
3.966470601666544
 30
0.0
  0
SPLINE
  5
C9
330
1F
100
AcDbEntity
  8
0
  6
Continuous
 62
     1
370
    25
100
AcDbSpline
210
0.0
220
0.0
230
1.0
 70
    24
 71
     3
 72
    10
 73
     6
 74
     0
 42
0.000000001
 43
0.00000001
 40
0.0
 40
0.0
 40
0.0
 40
0.0
 40
0.5
 40
0.5
 40
1.0
 40
1.0
 40
1.0
 40
1.0
 10
30.63749999999999
 20
2.779199928723895
 30
0.0
 10
30.63749999999999
 20
2.947602947927922
 30
0.0
 10
30.63749999999999
 20
3.143302852040266
 30
0.0
 10
30.6375
 20
3.553880723787291
 30
0.0
 10
30.6375
 20
3.767710127060989
 30
0.0
 10
30.63749999999999
 20
3.966470601666545
 30
0.0
  0
LINE
  5
CA
330
1F
100
AcDbEntity
  8
0
  6
Continuous
 62
     1
370
    25
100
AcDbLine
 10
30.63749999999999
 20
2.779199928723895
 30
0.0
 11
29.78452205892681
 21
2.71009256346173
 31
0.0
  0
SPLINE
  5
CB
330
1F
100
AcDbEntity
  8
0
  6
Continuous
 62
     1
370
    25
100
AcDbSpline
210
0.0
220
0.0
230
1.0
 70
     8
 71
     3
 72
    11
 73
     7
 74
     0
 42
0.000000001
 43
0.00000001
 40
0.0
 40
0.0
 40
0.0
 40
0.0
 40
0.119148187709702
 40
0.4931548023198086
 40
0.7471478198083841
 40
1.0
 40
1.0
 40
1.0
 40
1.0
 10
12.46817740819443
 20
-0.3679157143848874
 30
0.0
 10
12.37014913055977
 20
-0.3006479263869685
 30
0.0
 10
11.9644097164072
 20
-0.0222262958924306
 30
0.0
 10
11.34960246686526
 20
0.4135353043487936
 30
0.0
 10
10.62428500978728
 20
0.9063333006384565
 30
0.0
 10
10.20778250706598
 20
1.171064456086154
 30
0.0
 10
9.999999999999993
 20
1.303132097500075
 30
0.0
  0
SPLINE
  5
CC
330
1F
100
AcDbEntity
  8
0
  6
Continuous
 62
     4
370
    25
100
AcDbSpline
210
0.0
220
0.0
230
1.0
 70
    24
 71
     3
 72
    10
 73
     6
 74
     0
 42
0.000000001
 43
0.00000001
 40
0.0
 40
0.0
 40
0.0
 40
0.0
 40
0.5
 40
0.5
 40
1.0
 40
1.0
 40
1.0
 40
1.0
 10
9.999999999999993
 20
2.003694426439938
 30
0.0
 10
9.999999999999993
 20
1.955464770813032
 30
0.0
 10
9.999999999999993
 20
1.865903113632794
 30
0.0
 10
9.999999999999993
 20
1.621694582345981
 30
0.0
 10
9.999999999999993
 20
1.467947146901814
 30
0.0
 10
9.999999999999993
 20
1.303132097500075
 30
0.0
  0
SPLINE
  5
CD
330
1F
100
AcDbEntity
  8
0
  6
Continuous
 62
     1
370
    25
100
AcDbSpline
210
0.0
220
0.0
230
1.0
 70
     8
 71
     3
 72
    41
 73
    37
 74
     0
 42
0.000000001
 43
0.00000001
 40
0.0
 40
0.0
 40
0.0
 40
0.0
 40
0.0102136365669743
 40
0.0411674449066715
 40
0.0710347167241463
 40
0.1011102293959403
 40
0.1309149692117431
 40
0.1609265862121088
 40
0.1907289314788513
 40
0.2207383893002714
 40
0.2513943575766787
 40
0.28227581324729
 40
0.3121412707644483
 40
0.342214999641849
 40
0.3729412599588135
 40
0.4038948807517788
 40
0.4337619685862678
 40
0.4638372890649513
 40
0.4936420324558387
 40
0.5236536565718252
 40
0.5534559320630908
 40
0.5834653197240381
 40
0.6141212070734009
 40
0.6450025781542836
 40
0.6748678112074088
 40
0.7049413156498524
 40
0.7356673736548175
 40
0.7666207801404095
 40
0.7964876755116481
 40
0.826562795164631
 40
0.8572910238342922
 40
0.8882460464839419
 40
0.9157663507558099
 40
0.9434495739117957
 40
0.9716373958212773
 40
1.0
 40
1.0
 40
1.0
 40
1.0
 10
15.01928430346609
 20
2.661215551196793
 30
0.0
 10
15.0723849391396
 20
2.701847695920943
 30
0.0
 10
15.28641423999282
 20
2.865621056016807
 30
0.0
 10
15.65771901660301
 20
3.106617936833745
 30
0.0
 10
16.12894672586727
 20
3.382936584423391
 30
0.0
 10
16.5977359387938
 20
3.604361602328384
 30
0.0
 10
17.06491077452998
 20
3.778028075832556
 30
0.0
 10
17.53133660346253
 20
3.89830080827383
 30
0.0
 10
18.00013000321228
 20
3.964949269025501
 30
0.0
 10
18.4693095339429
 20
3.976826998825893
 30
0.0
 10
18.9477548041649
 20
3.932077739708126
 30
0.0
 10
19.42204352940655
 20
3.829970433030494
 30
0.0
 10
19.8956663041661
 20
3.674489823868882
 30
0.0
 10
20.367999079341
 20
3.467919649014066
 30
0.0
 10
20.84449409477417
 20
3.208002074861456
 30
0.0
 10
21.32281863526154
 20
2.903819257549151
 30
0.0
 10
21.79409889905781
 20
2.557991605451129
 30
0.0
 10
22.26286018124555
 20
2.183594578132229
 30
0.0
 10
22.73006172125652
 20
1.77653967753973
 30
0.0
 10
23.19646103753353
 20
1.346577417989268
 30
0.0
 10
23.6652701993198
 20
0.8983805326974392
 30
0.0
 10
24.13444075938612
 20
0.4314823814260116
 30
0.0
 10
24.61288179784852
 20
-0.0435760479468476
 30
0.0
 10
25.08718228963387
 20
-0.5206347459355374
 30
0.0
 10
25.56078283467384
 20
-0.9848049341973956
 30
0.0
 10
26.03313490768733
 20
-1.434898663672919
 30
0.0
 10
26.50960671941124
 20
-1.871136388018844
 30
0.0
 10
26.98793785564411
 20
-2.276675816420881
 30
0.0
 10
27.45921260202887
 20
-2.649719223353253
 30
0.0
 10
27.93279819695377
 20
-2.982063652275914
 30
0.0
 10
28.40963333935289
 20
-3.277318207937003
 30
0.0
 10
28.87401991262798
 20
-3.517089630383432
 30
0.0
 10
29.32363405151775
 20
-3.70283638258876
 30
0.0
 10
29.75605265364517
 20
-3.838609425333684
 30
0.0
 10
30.19597999154049
 20
-3.931805653372824
 30
0.0
 10
30.49002372695264
 20
-3.953460071261974
 30
0.0
 10
30.63749999999999
 20
-3.964320744218755
 30
0.0
  0
SPLINE
  5
CE
330
1F
100
AcDbEntity
  8
0
  6
Continuous
 62
     1
370
    25
100
AcDbSpline
210
0.0
220
0.0
230
1.0
 70
     8
 71
     3
 72
    16
 73
    12
 74
     0
 42
0.000000001
 43
0.00000001
 40
0.0
 40
0.0
 40
0.0
 40
0.0
 40
0.1010259177737505
 40
0.2219432242276667
 40
0.3428526370602367
 40
0.463845223531617
 40
0.5849994717871081
 40
0.7060787957356839
 40
0.8270239724798878
 40
0.9479256087285362
 40
1.0
 40
1.0
 40
1.0
 40
1.0
 10
24.94476241888733
 20
-0.376248810205522
 30
0.0
 10
24.68782037976222
 20
-0.1970734219760503
 30
0.0
 10
24.12334597695828
 20
0.1965558985212034
 30
0.0
 10
23.25166765152913
 20
0.8035024308059243
 30
0.0
 10
22.32919163434141
 20
1.4006671164972
 30
0.0
 10
21.40599466768441
 20
1.923277164521793
 30
0.0
 10
20.48180197082992
 20
2.34124640460653
 30
0.0
 10
19.55802940419161
 20
2.635726884549126
 30
0.0
 10
18.6352244594191
 20
2.77965257382001
 30
0.0
 10
17.88797691170867
 20
2.800908020870843
 30
0.0
 10
17.44812527159544
 20
2.721181013741203
 30
0.0
 10
17.31570804166461
 20
2.697179217517221
 30
0.0
  0
LINE
  5
CF
330
1F
100
AcDbEntity
  8
0
  6
Continuous
 62
     1
370
    25
100
AcDbLine
 10
30.63749999999999
 20
-3.964320744218755
 30
0.0
 11
30.63750000000023
 21
-3.765034146040182
 31
0.0
  0
SPLINE
  5
D0
330
1F
100
AcDbEntity
  8
0
  6
Continuous
 62
     1
370
    25
100
AcDbSpline
210
0.0
220
0.0
230
1.0
 70
     8
 71
     3
 72
    12
 73
     8
 74
     0
 42
0.000000001
 43
0.00000001
 40
0.0
 40
0.0
 40
0.0
 40
0.0
 40
0.500000000000001
 40
0.500000000000001
 40
0.7500000000000006
 40
0.7500000000000006
 40
1.0
 40
1.0
 40
1.0
 40
1.0
 10
30.63749999999999
 20
-1.059545513331257
 30
0.0
 10
30.12824160598342
 20
-0.6581582166473271
 30
0.0
 10
29.62986401009054
 20
-0.2364677157543547
 30
0.0
 10
28.90047836417493
 20
0.4299927011815572
 30
0.0
 10
28.65893660120475
 20
0.6596082534544424
 30
0.0
 10
28.20215543248427
 20
1.114997023623567
 30
0.0
 10
27.98478945160293
 20
1.342498596110566
 30
0.0
 10
27.78121039193064
 20
1.569759044998086
 30
0.0
  0
LINE
  5
D1
330
1F
100
AcDbEntity
  8
0
  6
Continuous
 62
     1
370
    25
100
AcDbLine
 10
27.85797195234582
 20
1.634169642033021
 30
0.0
 11
30.63749999999999
 21
0.0010749287238958
 31
0.0
  0
LINE
  5
D2
330
1F
100
AcDbEntity
  8
0
  6
Continuous
 62
     1
370
    25
100
AcDbLine
 10
30.63749999999999
 20
0.0010749287238958
 30
0.0
 11
30.63749999999999
 21
-1.059545513331258
 31
0.0
  0
SPLINE
  5
D3
330
1F
100
AcDbEntity
  8
0
  6
Continuous
 62
     1
370
    25
100
AcDbSpline
210
0.0
220
0.0
230
1.0
 70
     8
 71
     3
 72
    28
 73
    24
 74
     0
 42
0.000000001
 43
0.00000001
 40
0.0
 40
0.0
 40
0.0
 40
0.0
 40
0.0479581179359092
 40
0.0963009480770949
 40
0.1446460428331855
 40
0.1931343106878373
 40
0.241426125856856
 40
0.2898899529840678
 40
0.3382662067408515
 40
0.3865854928445628
 40
0.4350877459792118
 40
0.4833875424558948
 40
0.5318124583921402
 40
0.5802303481017114
 40
0.6285320960562054
 40
0.6770353427237502
 40
0.7253514109326292
 40
0.7737335002621323
 40
0.8221922147396346
 40
0.8704847129742376
 40
0.9189759601629941
 40
0.9673165738956481
 40
1.0
 40
1.0
 40
1.0
 40
1.0
 10
25.78401380584961
 20
-2.98342700301232
 30
0.0
 10
25.55504319499143
 20
-3.037318746825741
 30
0.0
 10
25.09526520835523
 20
-3.145534545237514
 30
0.0
 10
24.40573612415863
 20
-3.188993948538319
 30
0.0
 10
23.7138259902161
 20
-3.142105885496587
 30
0.0
 10
23.02042845517388
 20
-2.998678748744989
 30
0.0
 10
22.32892245848567
 20
-2.763412091495541
 30
0.0
 10
21.63578178352762
 20
-2.445454545971236
 30
0.0
 10
20.9435327632222
 20
-2.052666820377731
 30
0.0
 10
20.25181961623604
 20
-1.596470747172335
 30
0.0
 10
19.55829419729709
 20
-1.094451948479308
 30
0.0
 10
18.86673261078644
 20
-0.5559680831736207
 30
0.0
 10
18.17399095481018
 20
-0.0027466390723486
 30
0.0
 10
17.48132144460259
 20
0.5506982603931208
 30
0.0
 10
16.78974679015031
 20
1.089467819567315
 30
0.0
 10
16.09621224184387
 20
1.592038164252256
 30
0.0
 10
15.4045261992697
 20
2.049029380513106
 30
0.0
 10
14.71221961473981
 20
2.442746790407881
 30
0.0
 10
14.0191295601842
 20
2.761596984519448
 30
0.0
 10
13.32762469616127
 20
2.998927581028318
 30
0.0
 10
12.63417613360458
 20
3.140335212231974
 30
0.0
 10
12.01702685804547
 20
3.194263386897544
 30
0.0
 10
11.63064530309638
 20
3.15857366984959
 30
0.0
 10
11.47478695507194
 20
3.144177174288906
 30
0.0
  0
SPLINE
  5
D4
330
1F
100
AcDbEntity
  8
0
  6
Continuous
 62
     4
370
    25
100
AcDbSpline
210
0.0
220
0.0
230
1.0
 70
    24
 71
     3
 72
    10
 73
     6
 74
     0
 42
0.000000001
 43
0.00000001
 40
0.0
 40
0.0
 40
0.0
 40
0.0
 40
0.0539962463257579
 40
0.6502693307383374
 40
1.0
 40
1.0
 40
1.0
 40
1.0
 10
9.999999999999993
 20
3.099210518987181
 30
0.0
 10
9.999999999999993
 20
3.100896024580034
 30
0.0
 10
9.999999999999995
 20
3.12119433545165
 30
0.0
 10
9.999999999999993
 20
3.066001855126407
 30
0.0
 10
9.999999999999993
 20
2.956806202834176
 30
0.0
 10
9.999999999999993
 20
2.91643736876951
 30
0.0
  0
SPLINE
  5
D5
330
1F
100
AcDbEntity
  8
0
  6
Continuous
 62
     1
370
    25
100
AcDbSpline
210
0.0
220
0.0
230
1.0
 70
     8
 71
     3
 72
    14
 73
    10
 74
     0
 42
0.000000001
 43
0.00000001
 40
0.0
 40
0.0
 40
0.0
 40
0.0
 40
0.0646647021510409
 40
0.2296186709418512
 40
0.3948527768617471
 40
0.5595100581952133
 40
0.7248412930460774
 40
0.8896714336847973
 40
1.0
 40
1.0
 40
1.0
 40
1.0
 10
28.13963098168044
 20
1.870509629665449
 30
0.0
 10
28.04913107359856
 20
1.928000150491126
 30
0.0
 10
27.72777385825741
 20
2.132143934419992
 30
0.0
 10
27.17580558350069
 20
2.444949798694193
 30
0.0
 10
26.4825798782238
 20
2.76355377821587
 30
0.0
 10
25.79110672485531
 20
3.000216089467856
 30
0.0
 10
25.0976645071741
 20
3.140977135636078
 30
0.0
 10
24.48203964233402
 20
3.194296895746048
 30
0.0
 10
24.0972086502304
 20
3.158438200123693
 30
0.0
 10
23.94290551331547
 20
3.14406017617619
 30
0.0
  0
SPLINE
  5
D6
330
1F
100
AcDbEntity
  8
0
  6
Continuous
 62
     1
370
    25
100
AcDbSpline
210
0.0
220
0.0
230
1.0
 70
     8
 71
     3
 72
    12
 73
     8
 74
     0
 42
0.000000001
 43
0.00000001
 40
0.0
 40
0.0
 40
0.0
 40
0.0
 40
0.2055840407413974
 40
0.4141714060229186
 40
0.6227880863511437
 40
0.8117962997131812
 40
1.0
 40
1.0
 40
1.0
 40
1.0
 10
13.31603097257004
 20
-2.983075977120419
 30
0.0
 10
13.08855216435062
 20
-3.036780110432614
 30
0.0
 10
12.6302713683273
 20
-3.144972926970997
 30
0.0
 10
11.94227449708027
 20
-3.189224904776538
 30
0.0
 10
11.27262904779959
 20
-3.143344507057003
 30
0.0
 10
10.62415952773646
 20
-3.01808883252873
 30
0.0
 10
10.20775714323064
 20
-2.875004668903273
 30
0.0
 10
9.999999999999991
 20
-2.803615171190262
 30
0.0
  0
SPLINE
  5
D7
330
1F
100
AcDbEntity
  8
0
  6
Continuous
 62
     1
370
    25
100
AcDbSpline
210
0.0
220
0.0
230
1.0
 70
    24
 71
     3
 72
     8
 73
     4
 74
     0
 42
0.000000001
 43
0.00000001
 40
0.0
 40
0.0
 40
0.0
 40
0.0
 40
0.0004859594335649
 40
0.0004859594335649
 40
0.0004859594335649
 40
0.0004859594335649
 10
28.13963098168044
 20
1.870509629665449
 30
0.0
 10
28.02018039082061
 20
1.77027868293106
 30
0.0
 10
27.90070408172007
 20
1.670026156030249
 30
0.0
 10
27.78121039192439
 20
1.569759044994678
 30
0.0
  0
SPLINE
  5
D8
330
1F
100
AcDbEntity
  8
0
  6
Continuous
 62
     1
370
    25
100
AcDbSpline
210
0.0
220
0.0
230
1.0
 70
    24
 71
     3
 72
    10
 73
     6
 74
     0
 42
0.000000001
 43
0.00000001
 40
0.0
 40
0.0
 40
0.0
 40
0.0
 40
0.5000000000000001
 40
0.5000000000000001
 40
1.0
 40
1.0
 40
1.0
 40
1.0
 10
30.63749999999999
 20
-3.130158745487461
 30
0.0
 10
30.6375
 20
-2.890125271384956
 30
0.0
 10
30.6375
 20
-2.586833773029902
 30
0.0
 10
30.6375
 20
-1.881710227905367
 30
0.0
 10
30.63749999999999
 20
-1.480488985885991
 30
0.0
 10
30.63749999999999
 20
-1.059545513331385
 30
0.0
  0
SPLINE
  5
D9
330
1F
100
AcDbEntity
  8
0
  6
Continuous
 62
     4
370
    25
100
AcDbSpline
210
0.0
220
0.0
230
1.0
 70
    24
 71
     3
 72
    11
 73
     7
 74
     0
 42
0.000000001
 43
0.00000001
 40
0.0
 40
0.0
 40
0.0
 40
0.0
 40
0.2947472946860288
 40
0.5930788558605141
 40
0.8168071088070196
 40
0.9999999999999999
 40
0.9999999999999999
 40
0.9999999999999999
 40
0.9999999999999999
 10
9.999999999999995
 20
-2.803615171190263
 30
0.0
 10
9.999999999999995
 20
-2.856754620432486
 30
0.0
 10
9.999999999999995
 20
-2.963679719749196
 30
0.0
 10
9.999999999999993
 20
-3.050936186124681
 30
0.0
 10
9.999999999999993
 20
-3.096146979205744
 30
0.0
 10
9.999999999999995
 20
-3.098695571631003
 30
0.0
 10
9.999999999999995
 20
-3.09984292910205
 30
0.0
  0
SPLINE
  5
DA
330
1F
100
AcDbEntity
  8
0
  6
Continuous
 62
     1
370
    25
100
AcDbSpline
210
0.0
220
0.0
230
1.0
 70
    24
 71
     3
 72
     8
 73
     4
 74
     0
 42
0.000000001
 43
0.00000001
 40
0.0
 40
0.0
 40
0.0
 40
0.0
 40
1.0
 40
1.0
 40
1.0
 40
1.0
 10
28.56002604767338
 20
2.22326297448886
 30
0.0
 10
28.43325169873981
 20
2.116886665055969
 30
0.0
 10
28.29198538047424
 20
1.998350149501565
 30
0.0
 10
28.13963098168044
 20
1.87050962966545
 30
0.0
  0
SPLINE
  5
DB
330
1F
100
AcDbEntity
  8
0
  6
Continuous
 62
     1
370
    25
100
AcDbSpline
210
0.0
220
0.0
230
1.0
 70
     8
 71
     3
 72
     8
 73
     4
 74
     0
 42
0.000000001
 43
0.00000001
 40
0.0
 40
0.0
 40
0.0
 40
0.0
 40
1.0
 40
1.0
 40
1.0
 40
1.0
 10
30.63749999999999
 20
2.779199928723895
 30
0.0
 10
29.95259643499249
 20
2.548798236207726
 30
0.0
 10
29.25947088489216
 20
2.360231274739641
 30
0.0
 10
28.56002604767337
 20
2.223262974488861
 30
0.0
  0
SPLINE
  5
DC
330
1F
100
AcDbEntity
  8
0
  6
Continuous
 62
     4
370
    25
100
AcDbSpline
210
0.0
220
0.0
230
1.0
 70
    24
 71
     3
 72
    14
 73
    10
 74
     0
 42
0.000000001
 43
0.00000001
 40
0.0
 40
0.0
 40
0.0
 40
0.0
 40
0.25
 40
0.25
 40
0.5
 40
0.5
 40
0.75
 40
0.75
 40
1.0
 40
1.0
 40
1.0
 40
1.0
 10
9.999999999999993
 20
1.303132097500075
 30
0.0
 10
9.999999999999993
 20
0.9646068366204569
 30
0.0
 10
9.999999999999993
 20
0.6035809786979279
 30
0.0
 10
9.999999999999993
 20
-0.1337557396818267
 30
0.0
 10
9.999999999999993
 20
-0.509737874741482
 30
0.0
 10
9.999999999999995
 20
-1.239625266470353
 30
0.0
 10
9.999999999999993
 20
-1.593141608621963
 30
0.0
 10
9.999999999999995
 20
-2.244876397179202
 30
0.0
 10
9.999999999999995
 20
-2.542886350716561
 30
0.0
 10
9.999999999999995
 20
-2.803615171190261
 30
0.0
  0
LINE
  5
DD
330
1F
100
AcDbEntity
  8
0
  6
Continuous
 62
     1
370
    25
100
AcDbLine
 10
30.63749999999999
 20
0.0010749287238958
 30
0.0
 11
30.63749999999999
 21
2.779199928723895
 31
0.0
  0
LINE
  5
DE
330
1F
100
AcDbEntity
  8
중심선
100
AcDbLine
 10
-35.8625
 20
0.0010749287238931
 30
0.0
 11
33.25935371504374
 21
0.0010749287238931
 31
0.0
  0
CIRCLE
  5
DF
330
1F
100
AcDbEntity
  8
외형선
100
AcDbCircle
 10
0.0000000000000087
 20
0.0
 30
0.0
 40
3.000000000000003
  0
INSERT
  5
E0
330
1F
100
AcDbEntity
  8
0
  6
Continuous
 62
     7
100
AcDbBlockReference
 66
     1
  2
블럭10
 10
-16.6381869743017
 20
-52.04609937292004
 30
0.0
  0
ATTRIB
  5
E1
330
E0
100
AcDbEntity
  8
FORMAT
 62
     2
100
AcDbText
 10
-25.81948226304298
 20
-49.97073246008785
 30
0.0
 40
4.233333333333333
  1
E5254020 [ 2 FLUTE ]
 41
0.75
  7
SLDTEXTSTYLE0
 11
-25.81948226304298
 21
-52.08739912675452
 31
0.0
100
AcDbAttribute
  2
AUTOATTR0
 70
     0
 74
     1
  0
SEQEND
  5
E2
330
E0
100
AcDbEntity
  8
0
  6
Continuous
 62
     7
  0
HATCH
  5
E3
330
1F
100
AcDbEntity
  8
중심선
100
AcDbHatch
 10
0.0
 20
0.0
 30
0.0
210
0.0
220
0.0
230
1.0
  2
SOLID
 70
     1
 71
     0
 91
        1
 92
        0
 93
        4
 72
     1
 10
-10.92327766992085
 20
-35.7989250712761
 11
-14.36955291375813
 21
-35.7989250712761
 72
     1
 10
-14.36955291375813
 20
-35.7989250712761
 11
-16.49778277296215
 21
-38.3352506518487
 72
     1
 10
-16.49778277296215
 20
-38.3352506518487
 11
-13.05147444401172
 21
-38.33521122254621
 72
     1
 10
-13.05147444401172
 20
-38.33521122254621
 11
-10.92327766992085
 21
-35.7989250712761
 97
        0
 75
     0
 76
     1
 98
        1
 10
0.0
 20
0.0
  0
HATCH
  5
E4
330
1F
100
AcDbEntity
  8
중심선
100
AcDbHatch
 10
0.0
 20
0.0
 30
0.0
210
0.0
220
0.0
230
1.0
  2
SOLID
 70
     1
 71
     0
 91
        1
 92
        0
 93
        4
 72
     1
 10
-5.910513678884898
 20
-35.7989250712761
 11
-9.356788922722181
 21
-35.7989250712761
 72
     1
 10
-9.356788922722181
 20
-35.7989250712761
 11
-13.88792693107957
 21
-41.19892507127612
 72
     1
 10
-13.88792693107957
 20
-41.19892507127612
 11
-10.44165168724229
 21
-41.19892507127612
 72
     1
 10
-10.44165168724229
 20
-41.19892507127612
 11
-5.910513678884898
 21
-35.7989250712761
 97
        0
 75
     0
 76
     1
 98
        1
 10
0.0
 20
0.0
  0
HATCH
  5
E5
330
1F
100
AcDbEntity
  8
중심선
100
AcDbHatch
 10
0.0
 20
0.0
 30
0.0
210
0.0
220
0.0
230
1.0
  2
SOLID
 70
     1
 71
     0
 91
        1
 92
        0
 93
        4
 72
     1
 10
-0.8977496878490032
 20
-35.79892507127613
 11
-4.344024931686119
 21
-35.7989250712761
 72
     1
 10
-4.344024931686119
 20
-35.7989250712761
 11
-11.39246183357537
 21
-44.19892507127612
 72
     1
 10
-11.39246183357537
 20
-44.19892507127612
 11
-7.946186589738086
 21
-44.19892507127612
 72
     1
 10
-7.946186589738086
 20
-44.19892507127612
 11
-0.8977496878490028
 21
-35.79892507127613
 97
        0
 75
     0
 76
     1
 98
        1
 10
0.0
 20
0.0
  0
HATCH
  5
E6
330
1F
100
AcDbEntity
  8
중심선
100
AcDbHatch
 10
0.0
 20
0.0
 30
0.0
210
0.0
220
0.0
230
1.0
  2
SOLID
 70
     1
 71
     0
 91
        1
 92
        0
 93
        6
 72
     3
 10
3.902140743163196
 20
-39.99892507132738
 11
3.960054785062284
 21
1.540850780301639E-10
 40
0.3939339440162633
 50
17.09539180608433
 51
320.0019657685079
 73
     0
 72
     1
 10
5.585140398863792
 20
-38.58681907591441
 11
7.89044227256483
 21
-36.65249236586649
 72
     3
 10
3.902140743110349
 20
-39.99892507127625
 11
6.600054785286829
 21
-1.249000902703301E-13
 40
0.6363583540795982
 50
39.99873849337408
 51
368.4976242363724
 73
     1
 72
     1
 10
10.32747323501096
 20
-39.03892507120613
 11
2.582208049946273
 21
-39.0389250712061
 72
     1
 10
2.582208049946272
 20
-39.0389250712061
 11
2.582183005500338
 21
-40.95892507120602
 72
     1
 10
2.582183005500338
 20
-40.95892507120602
 11
7.023562774972376
 21
-40.95892507120599
 97
        0
 75
     0
 76
     1
 98
        1
 10
0.0
 20
0.0
  0
DIMENSION
  5
E7
330
1F
100
AcDbEntity
  8
치수문자_일반주서
100
AcDbDimension
  2
_D
 10
-32.86250000000001
 20
39.55665406331249
 30
0.0
 11
-1.112500000000011
 21
39.55665406331249
 31
0.0
 70
   160
  1
<>
 71
     2
 42
63.5
  3
SLDDIMSTYLE0
100
AcDbAlignedDimension
 13
30.63749999999999
 23
3.966470601666544
 33
0.0
 14
-32.86250000000001
 24
3.953574928723888
 34
0.0
100
AcDbRotatedDimension
1001
ACAD
1000
DSTYLE
1002
{
1070
   171
1070
     6
1070
   273
1070
     7
1002
}
  0
DIMENSION
  5
FB
330
1F
100
AcDbEntity
  8
치수문자_일반주서
100
AcDbDimension
  2
_D_1
 10
-45.86249999999998
 20
-4.761425071276157
 30
0.0
 11
-45.8625
 21
0.0010749287238984
 31
0.0
 70
   160
  1
%%c<>
 71
     2
 42
9.525000000000006
  3
SLDDIMSTYLE1
100
AcDbAlignedDimension
 13
-32.05249999999999
 23
4.763574928723896
 33
0.0
 14
-32.05249999999999
 24
-4.761425071276109
 34
0.0
 50
90.0000000000002
100
AcDbRotatedDimension
1001
ACAD
1000
DSTYLE
1002
{
1070
   171
1070
     6
1070
   273
1070
     7
1002
}
  0
DIMENSION
  5
110
330
1F
100
AcDbEntity
  8
치수문자_일반주서
100
AcDbDimension
  2
_D_2
 10
9.999999999999991
 20
24.20308811516705
 30
0.0
 11
20.31875
 21
24.20308811516705
 31
0.0
 70
   160
  1
<>
 71
     2
 42
20.6375
  3
SLDDIMSTYLE1
100
AcDbAlignedDimension
 13
30.63749999999999
 23
3.966470601666544
 33
0.0
 14
9.999999999999995
 24
3.104305494892864
 34
0.0
 50
-0.0000000000000395
100
AcDbRotatedDimension
1001
ACAD
1000
DSTYLE
1002
{
1070
   171
1070
     6
1070
   273
1070
     7
1002
}
  0
DIMENSION
  5
125
330
1F
100
AcDbEntity
  8
치수문자_일반주서
100
AcDbDimension
  2
_D_3
 10
50.8468537150438
 20
-3.964320744218686
 30
0.0
 11
50.84685371504369
 21
24.57047060166661
 31
0.0
 70
   160
  1
%%c<>
 71
     2
 42
7.9307913458853
  3
SLDDIMSTYLE2
100
AcDbAlignedDimension
 13
30.63749999999999
 23
3.966470601666544
 33
0.0
 14
30.63749999999999
 24
-3.964320744218755
 34
0.0
 50
90.0000000000002
100
AcDbRotatedDimension
1001
ACAD
1000
DSTYLE
1002
{
1070
   171
1070
     6
1070
   273
1070
     7
1002
}
  0
INSERT
  5
13F
330
1F
100
AcDbEntity
  8
외형선
100
AcDbBlockReference
  2
SW_DOWELSYMBOL_0
 10
0.0000000000000087
 20
0.0
 30
0.0
  0
ARC
  5
187
330
1F
100
AcDbEntity
  8
0
  6
Continuous
 62
     4
370
    25
100
AcDbCircle
 10
8.479939461803447
 20
16.80917472994896
 30
0.0
 40
12.7
100
AcDbArc
 50
251.5268822998353
 51
269.9999999999999
1001
PE_URL
1000

  0
ARC
  5
189
330
1F
100
AcDbEntity
  8
0
  6
Continuous
 62
     4
370
    25
100
AcDbCircle
 10
8.479939461803447
 20
-16.80702487250117
 30
0.0
 40
12.7
100
AcDbArc
 50
90.00000000000006
 51
108.4731177001647
1001
PE_URL
1000

  0
ENDSEC
  0
SECTION
  2
OBJECTS
  0
DICTIONARY
  5
C
330
0
100
AcDbDictionary
281
     1
  3
ACAD_GROUP
350
D
  3
ACAD_IMAGE_VARS
350
163
  3
ACAD_LAYOUT
350
1A
  3
ACAD_MLINESTYLE
350
17
  3
ACAD_PLOTSETTINGS
350
19
  3
ACAD_PLOTSTYLENAME
350
E
  3
ACAD_SCALELIST
350
47
  3
APPDATA
350
161
  3
DWGPROPS
350
18C
  0
DICTIONARY
  5
18A
330
1F
100
AcDbDictionary
280
     1
281
     1
  3
DIM_BOUNDING_BOXES_V1
360
18B
  0
DICTIONARY
  5
D
102
{ACAD_REACTORS
330
C
102
}
330
C
100
AcDbDictionary
281
     1
  0
RASTERVARIABLES
  5
163
102
{ACAD_REACTORS
330
C
102
}
330
C
100
AcDbRasterVariables
 90
        0
 70
     1
 71
     1
 72
     1
  0
DICTIONARY
  5
1A
102
{ACAD_REACTORS
330
C
102
}
330
C
100
AcDbDictionary
281
     1
  3
Layout1
350
1E
  3
Layout2
350
26
  3
Model
350
22
  0
DICTIONARY
  5
17
102
{ACAD_REACTORS
330
C
102
}
330
C
100
AcDbDictionary
281
     1
  3
Standard
350
18
  0
DICTIONARY
  5
19
102
{ACAD_REACTORS
330
C
102
}
330
C
100
AcDbDictionary
281
     1
  0
ACDBDICTIONARYWDFLT
  5
E
102
{ACAD_REACTORS
330
C
102
}
330
C
100
AcDbDictionary
281
     1
  3
Normal
350
F
100
AcDbDictionaryWithDefault
340
F
  0
DICTIONARY
  5
47
102
{ACAD_REACTORS
330
C
102
}
330
C
100
AcDbDictionary
281
     1
  3
A0
350
48
  3
A1
350
49
  3
A2
350
4A
  3
A3
350
4B
  3
A4
350
4C
  3
A5
350
4D
  3
A6
350
4E
  3
A7
350
4F
  3
A8
350
50
  3
A9
350
51
  3
B0
350
52
  3
B1
350
53
  3
B2
350
54
  3
B3
350
55
  3
B4
350
56
  3
B5
350
57
  3
B6
350
58
  3
B7
350
59
  3
B8
350
5A
  3
B9
350
5B
  3
C0
350
5C
  3
C1
350
5D
  3
C2
350
5E
  3
C3
350
5F
  3
C4
350
60
  3
C5
350
61
  3
C6
350
62
  3
C7
350
63
  3
C8
350
64
  3
C9
350
65
  3
D0
350
66
  3
D1
350
67
  3
D2
350
68
  0
DICTIONARY
  5
161
102
{ACAD_REACTORS
330
C
102
}
330
C
100
AcDbDictionary
281
     1
  0
XRECORD
  5
18C
102
{ACAD_REACTORS
330
C
102
}
330
C
100
AcDbXrecord
280
     1
  1
DWGPROPS COOKIE
  2

  3

  4

  6

  7

  8
12014102
  9

300
=
301
=
302
=
303
=
304
=
305
=
306
=
307
=
308
=
309
=
 40
0.0
 41
2458263.246322535
 42
2459722.9306464
  1

 90
        0
  0
DICTIONARY
  5
18B
102
{ACAD_REACTORS
330
18A
102
}
330
18A
100
AcDbDictionary
281
     1
  0
LAYOUT
  5
1E
102
{ACAD_REACTORS
330
1A
102
}
330
1A
100
AcDbPlotSettings
  1

  2
none_device
  4

  6

 40
0.0
 41
0.0
 42
0.0
 43
0.0
 44
0.0
 45
0.0
 46
0.0
 47
0.0
 48
0.0
 49
0.0
140
0.0
141
0.0
142
1.0
143
1.0
 70
   688
 72
     1
 73
     0
 74
     5
  7

 75
    16
147
1.0
148
0.0
149
0.0
100
AcDbLayout
  1
Layout1
 70
     1
 71
     1
 10
0.0
 20
0.0
 11
420.0
 21
297.0
 12
0.0
 22
0.0
 32
0.0
 14
1.000000000000000E+20
 24
1.000000000000000E+20
 34
1.000000000000000E+20
 15
-1.000000000000000E+20
 25
-1.000000000000000E+20
 35
-1.000000000000000E+20
146
0.0
 13
0.0
 23
0.0
 33
0.0
 16
1.0
 26
0.0
 36
0.0
 17
0.0
 27
1.0
 37
0.0
 76
     0
330
1B
  0
LAYOUT
  5
26
102
{ACAD_REACTORS
330
1A
102
}
330
1A
100
AcDbPlotSettings
  1

  2
none_device
  4

  6

 40
0.0
 41
0.0
 42
0.0
 43
0.0
 44
0.0
 45
0.0
 46
0.0
 47
0.0
 48
0.0
 49
0.0
140
0.0
141
0.0
142
1.0
143
1.0
 70
   688
 72
     1
 73
     0
 74
     5
  7

 75
    16
147
1.0
148
0.0
149
0.0
100
AcDbLayout
  1
Layout2
 70
     1
 71
     2
 10
0.0
 20
0.0
 11
0.0
 21
0.0
 12
0.0
 22
0.0
 32
0.0
 14
0.0
 24
0.0
 34
0.0
 15
0.0
 25
0.0
 35
0.0
146
0.0
 13
0.0
 23
0.0
 33
0.0
 16
1.0
 26
0.0
 36
0.0
 17
0.0
 27
1.0
 37
0.0
 76
     0
330
23
  0
LAYOUT
  5
22
102
{ACAD_REACTORS
330
1A
102
}
330
1A
100
AcDbPlotSettings
  1

  2
none_device
  4
ANSI_A_(11.00_x_8.50_Inches)
  6

 40
6.35
 41
19.05
 42
6.35000508
 43
19.05000254
 44
279.4
 45
215.9
 46
138.4347813791667
 47
89.28614018402286
 48
0.0
 49
0.0
140
0.0
141
0.0
142
0.083263877524552
143
1.0
 70
  1696
 72
     0
 73
     0
 74
     0
  7

 75
     0
147
0.0235690232323232
148
0.0
149
0.0
100
AcDbLayout
  1
Model
 70
     1
 71
     0
 10
0.0
 20
0.0
 11
420.0
 21
297.0
 12
0.0
 22
0.0
 32
0.0
 14
-50.23750000000004
 24
-49.97073246008785
 34
0.0
 15
51.39718704837716
 25
43.93165406331249
 35
0.0
146
0.0
 13
0.0
 23
0.0
 33
0.0
 16
1.0
 26
0.0
 36
0.0
 17
0.0
 27
1.0
 37
0.0
 76
     0
330
1F
331
29
  0
MLINESTYLE
  5
18
102
{ACAD_REACTORS
330
17
102
}
330
17
100
AcDbMlineStyle
  2
Standard
 70
     0
  3

 62
   256
 51
90.0
 52
90.0
 71
     2
 49
0.5
 62
   256
  6
BYLAYER
 49
-0.5
 62
   256
  6
BYLAYER
  0
ACDBPLACEHOLDER
  5
F
102
{ACAD_REACTORS
330
E
102
}
330
E
  0
SCALE
  5
48
102
{ACAD_REACTORS
330
47
102
}
330
47
100
AcDbScale
 70
     0
300
1:1
140
1.0
141
1.0
290
     1
  0
SCALE
  5
49
102
{ACAD_REACTORS
330
47
102
}
330
47
100
AcDbScale
 70
     0
300
1:2
140
1.0
141
2.0
290
     0
  0
SCALE
  5
4A
102
{ACAD_REACTORS
330
47
102
}
330
47
100
AcDbScale
 70
     0
300
1:4
140
1.0
141
4.0
290
     0
  0
SCALE
  5
4B
102
{ACAD_REACTORS
330
47
102
}
330
47
100
AcDbScale
 70
     0
300
1:5
140
1.0
141
5.0
290
     0
  0
SCALE
  5
4C
102
{ACAD_REACTORS
330
47
102
}
330
47
100
AcDbScale
 70
     0
300
1:8
140
1.0
141
8.0
290
     0
  0
SCALE
  5
4D
102
{ACAD_REACTORS
330
47
102
}
330
47
100
AcDbScale
 70
     0
300
1:10
140
1.0
141
10.0
290
     0
  0
SCALE
  5
4E
102
{ACAD_REACTORS
330
47
102
}
330
47
100
AcDbScale
 70
     0
300
1:16
140
1.0
141
16.0
290
     0
  0
SCALE
  5
4F
102
{ACAD_REACTORS
330
47
102
}
330
47
100
AcDbScale
 70
     0
300
1:20
140
1.0
141
20.0
290
     0
  0
SCALE
  5
50
102
{ACAD_REACTORS
330
47
102
}
330
47
100
AcDbScale
 70
     0
300
1:30
140
1.0
141
30.0
290
     0
  0
SCALE
  5
51
102
{ACAD_REACTORS
330
47
102
}
330
47
100
AcDbScale
 70
     0
300
1:40
140
1.0
141
40.0
290
     0
  0
SCALE
  5
52
102
{ACAD_REACTORS
330
47
102
}
330
47
100
AcDbScale
 70
     0
300
1:50
140
1.0
141
50.0
290
     0
  0
SCALE
  5
53
102
{ACAD_REACTORS
330
47
102
}
330
47
100
AcDbScale
 70
     0
300
1:100
140
1.0
141
100.0
290
     0
  0
SCALE
  5
54
102
{ACAD_REACTORS
330
47
102
}
330
47
100
AcDbScale
 70
     0
300
2:1
140
2.0
141
1.0
290
     0
  0
SCALE
  5
55
102
{ACAD_REACTORS
330
47
102
}
330
47
100
AcDbScale
 70
     0
300
4:1
140
4.0
141
1.0
290
     0
  0
SCALE
  5
56
102
{ACAD_REACTORS
330
47
102
}
330
47
100
AcDbScale
 70
     0
300
8:1
140
8.0
141
1.0
290
     0
  0
SCALE
  5
57
102
{ACAD_REACTORS
330
47
102
}
330
47
100
AcDbScale
 70
     0
300
10:1
140
10.0
141
1.0
290
     0
  0
SCALE
  5
58
102
{ACAD_REACTORS
330
47
102
}
330
47
100
AcDbScale
 70
     0
300
100:1
140
100.0
141
1.0
290
     0
  0
SCALE
  5
59
102
{ACAD_REACTORS
330
47
102
}
330
47
100
AcDbScale
 70
     0
300
1/128" = 1'-0"
140
0.0078125
141
12.0
290
     0
  0
SCALE
  5
5A
102
{ACAD_REACTORS
330
47
102
}
330
47
100
AcDbScale
 70
     0
300
1/64" = 1'-0"
140
0.015625
141
12.0
290
     0
  0
SCALE
  5
5B
102
{ACAD_REACTORS
330
47
102
}
330
47
100
AcDbScale
 70
     0
300
1/32" = 1'-0"
140
0.03125
141
12.0
290
     0
  0
SCALE
  5
5C
102
{ACAD_REACTORS
330
47
102
}
330
47
100
AcDbScale
 70
     0
300
1/16" = 1'-0"
140
0.0625
141
12.0
290
     0
  0
SCALE
  5
5D
102
{ACAD_REACTORS
330
47
102
}
330
47
100
AcDbScale
 70
     0
300
3/32" = 1'-0"
140
0.09375
141
12.0
290
     0
  0
SCALE
  5
5E
102
{ACAD_REACTORS
330
47
102
}
330
47
100
AcDbScale
 70
     0
300
1/8" = 1'-0"
140
0.125
141
12.0
290
     0
  0
SCALE
  5
5F
102
{ACAD_REACTORS
330
47
102
}
330
47
100
AcDbScale
 70
     0
300
3/16" = 1'-0"
140
0.1875
141
12.0
290
     0
  0
SCALE
  5
60
102
{ACAD_REACTORS
330
47
102
}
330
47
100
AcDbScale
 70
     0
300
1/4" = 1'-0"
140
0.25
141
12.0
290
     0
  0
SCALE
  5
61
102
{ACAD_REACTORS
330
47
102
}
330
47
100
AcDbScale
 70
     0
300
3/8" = 1'-0"
140
0.375
141
12.0
290
     0
  0
SCALE
  5
62
102
{ACAD_REACTORS
330
47
102
}
330
47
100
AcDbScale
 70
     0
300
1/2" = 1'-0"
140
0.5
141
12.0
290
     0
  0
SCALE
  5
63
102
{ACAD_REACTORS
330
47
102
}
330
47
100
AcDbScale
 70
     0
300
3/4" = 1'-0"
140
0.75
141
12.0
290
     0
  0
SCALE
  5
64
102
{ACAD_REACTORS
330
47
102
}
330
47
100
AcDbScale
 70
     0
300
1" = 1'-0"
140
1.0
141
12.0
290
     0
  0
SCALE
  5
65
102
{ACAD_REACTORS
330
47
102
}
330
47
100
AcDbScale
 70
     0
300
1-1/2" = 1'-0"
140
1.5
141
12.0
290
     0
  0
SCALE
  5
66
102
{ACAD_REACTORS
330
47
102
}
330
47
100
AcDbScale
 70
     0
300
3" = 1'-0"
140
3.0
141
12.0
290
     0
  0
SCALE
  5
67
102
{ACAD_REACTORS
330
47
102
}
330
47
100
AcDbScale
 70
     0
300
6" = 1'-0"
140
6.0
141
12.0
290
     0
  0
SCALE
  5
68
102
{ACAD_REACTORS
330
47
102
}
330
47
100
AcDbScale
 70
     0
300
1'-0" = 1'-0"
140
12.0
141
12.0
290
     0
  0
ENDSEC
  0
EOF
