  0
SECTION
  2
HEADER
  9
$ACADVER
  1
AC1015
  9
$ACADMAINTVER
 70
     6
  9
$DWGCODEPAGE
  3
ANSI_949
  9
$INSBASE
 10
0.0
 20
0.0
 30
0.0
  9
$EXTMIN
 10
-45.28500000000005
 20
-49.97073246008785
 30
0.0
  9
$EXTMAX
 10
56.15968704837714
 20
44.72473319790102
 30
0.0
  9
$LIMMIN
 10
0.0
 20
0.0
  9
$LIMMAX
 10
420.0
 20
297.0
  9
$ORTHOMODE
 70
     0
  9
$REGENMODE
 70
     1
  9
$FILLMODE
 70
     1
  9
$QTEXTMODE
 70
     0
  9
$MIRRTEXT
 70
     1
  9
$LTSCALE
 40
1.0
  9
$ATTMODE
 70
     1
  9
$TEXTSIZE
 40
3.5
  9
$TRACEWID
 40
1.0
  9
$TEXTSTYLE
  7
Standard
  9
$CLAYER
  8
0
  9
$CELTYPE
  6
ByLayer
  9
$CECOLOR
 62
   256
  9
$CELTSCALE
 40
1.0
  9
$DISPSILH
 70
     0
  9
$DIMSCALE
 40
1.0
  9
$DIMASZ
 40
3.302
  9
$DIMEXO
 40
1.0
  9
$DIMDLI
 40
3.75
  9
$DIMRND
 40
0.0
  9
$DIMDLE
 40
0.0
  9
$DIMEXE
 40
1.0
  9
$DIMTP
 40
0.0
  9
$DIMTM
 40
0.0
  9
$DIMTXT
 40
3.5
  9
$DIMCEN
 40
2.5
  9
$DIMTSZ
 40
0.0
  9
$DIMTOL
 70
     0
  9
$DIMLIM
 70
     0
  9
$DIMTIH
 70
     1
  9
$DIMTOH
 70
     1
  9
$DIMSE1
 70
     0
  9
$DIMSE2
 70
     0
  9
$DIMTAD
 70
     1
  9
$DIMZIN
 70
     0
  9
$DIMBLK
  1

  9
$DIMASO
 70
     1
  9
$DIMSHO
 70
     1
  9
$DIMPOST
  1

  9
$DIMAPOST
  1

  9
$DIMALT
 70
     0
  9
$DIMALTD
 70
     3
  9
$DIMALTF
 40
0.0393700787401575
  9
$DIMLFAC
 40
1.0
  9
$DIMTOFL
 70
     1
  9
$DIMTVP
 40
0.0
  9
$DIMTIX
 70
     0
  9
$DIMSOXD
 70
     0
  9
$DIMSAH
 70
     0
  9
$DIMBLK1
  1

  9
$DIMBLK2
  1

  9
$DIMSTYLE
  2
ISO-25
  9
$DIMCLRD
 70
     0
  9
$DIMCLRE
 70
     0
  9
$DIMCLRT
 70
     0
  9
$DIMTFAC
 40
1.0
  9
$DIMGAP
 40
1.524
  9
$DIMJUST
 70
     0
  9
$DIMSD1
 70
     0
  9
$DIMSD2
 70
     0
  9
$DIMTOLJ
 70
     0
  9
$DIMTZIN
 70
     0
  9
$DIMALTZ
 70
     0
  9
$DIMALTTZ
 70
     0
  9
$DIMUPT
 70
     0
  9
$DIMDEC
 70
     2
  9
$DIMTDEC
 70
     2
  9
$DIMALTU
 70
     2
  9
$DIMALTTD
 70
     3
  9
$DIMTXSTY
  7
Standard
  9
$DIMAUNIT
 70
     0
  9
$DIMADEC
 70
     2
  9
$DIMALTRND
 40
0.0
  9
$DIMAZIN
 70
     0
  9
$DIMDSEP
 70
    44
  9
$DIMATFIT
 70
     3
  9
$DIMFRAC
 70
     0
  9
$DIMLDRBLK
  1

  9
$DIMLUNIT
 70
     2
  9
$DIMLWD
 70
    -2
  9
$DIMLWE
 70
    -2
  9
$DIMTMOVE
 70
     0
  9
$LUNITS
 70
     2
  9
$LUPREC
 70
     2
  9
$SKETCHINC
 40
1.0
  9
$FILLETRAD
 40
10.0
  9
$AUNITS
 70
     0
  9
$AUPREC
 70
     2
  9
$MENU
  1
.
  9
$ELEVATION
 40
0.0
  9
$PELEVATION
 40
0.0
  9
$THICKNESS
 40
0.0
  9
$LIMCHECK
 70
     0
  9
$CHAMFERA
 40
0.0
  9
$CHAMFERB
 40
0.0
  9
$CHAMFERC
 40
0.0
  9
$CHAMFERD
 40
0.0
  9
$SKPOLY
 70
     0
  9
$TDCREATE
 40
2458263.621511401
  9
$TDUCREATE
 40
2458263.246511401
  9
$TDUPDATE
 40
2459731.351516817
  9
$TDUUPDATE
 40
2459730.976516817
  9
$TDINDWG
 40
0.0009777083
  9
$TDUSRTIMER
 40
0.0002660301
  9
$USRTIMER
 70
     1
  9
$ANGBASE
 50
0.0
  9
$ANGDIR
 70
     0
  9
$PDMODE
 70
     0
  9
$PDSIZE
 40
-1.0
  9
$PLINEWID
 40
0.0
  9
$SPLFRAME
 70
     0
  9
$SPLINETYPE
 70
     6
  9
$SPLINESEGS
 70
     8
  9
$HANDSEED
  5
187
  9
$SURFTAB1
 70
     6
  9
$SURFTAB2
 70
     6
  9
$SURFTYPE
 70
     6
  9
$SURFU
 70
     6
  9
$SURFV
 70
     6
  9
$UCSBASE
  2

  9
$UCSNAME
  2

  9
$UCSORG
 10
0.0
 20
0.0
 30
0.0
  9
$UCSXDIR
 10
1.0
 20
0.0
 30
0.0
  9
$UCSYDIR
 10
0.0
 20
1.0
 30
0.0
  9
$UCSORTHOREF
  2

  9
$UCSORTHOVIEW
 70
     0
  9
$UCSORGTOP
 10
0.0
 20
0.0
 30
0.0
  9
$UCSORGBOTTOM
 10
0.0
 20
0.0
 30
0.0
  9
$UCSORGLEFT
 10
0.0
 20
0.0
 30
0.0
  9
$UCSORGRIGHT
 10
0.0
 20
0.0
 30
0.0
  9
$UCSORGFRONT
 10
0.0
 20
0.0
 30
0.0
  9
$UCSORGBACK
 10
0.0
 20
0.0
 30
0.0
  9
$PUCSBASE
  2

  9
$PUCSNAME
  2

  9
$PUCSORG
 10
0.0
 20
0.0
 30
0.0
  9
$PUCSXDIR
 10
1.0
 20
0.0
 30
0.0
  9
$PUCSYDIR
 10
0.0
 20
1.0
 30
0.0
  9
$PUCSORTHOREF
  2

  9
$PUCSORTHOVIEW
 70
     0
  9
$PUCSORGTOP
 10
0.0
 20
0.0
 30
0.0
  9
$PUCSORGBOTTOM
 10
0.0
 20
0.0
 30
0.0
  9
$PUCSORGLEFT
 10
0.0
 20
0.0
 30
0.0
  9
$PUCSORGRIGHT
 10
0.0
 20
0.0
 30
0.0
  9
$PUCSORGFRONT
 10
0.0
 20
0.0
 30
0.0
  9
$PUCSORGBACK
 10
0.0
 20
0.0
 30
0.0
  9
$USERI1
 70
     0
  9
$USERI2
 70
     0
  9
$USERI3
 70
     0
  9
$USERI4
 70
     0
  9
$USERI5
 70
     0
  9
$USERR1
 40
0.0
  9
$USERR2
 40
0.0
  9
$USERR3
 40
0.0
  9
$USERR4
 40
0.0
  9
$USERR5
 40
0.0
  9
$WORLDVIEW
 70
     1
  9
$SHADEDGE
 70
     3
  9
$SHADEDIF
 70
    70
  9
$TILEMODE
 70
     1
  9
$MAXACTVP
 70
    64
  9
$PINSBASE
 10
0.0
 20
0.0
 30
0.0
  9
$PLIMCHECK
 70
     0
  9
$PEXTMIN
 10
1.000000000000000E+20
 20
1.000000000000000E+20
 30
1.000000000000000E+20
  9
$PEXTMAX
 10
-1.000000000000000E+20
 20
-1.000000000000000E+20
 30
-1.000000000000000E+20
  9
$PLIMMIN
 10
0.0
 20
0.0
  9
$PLIMMAX
 10
0.0
 20
0.0
  9
$UNITMODE
 70
     0
  9
$VISRETAIN
 70
     1
  9
$PLINEGEN
 70
     0
  9
$PSLTSCALE
 70
     1
  9
$TREEDEPTH
 70
  3020
  9
$CMLSTYLE
  2
Standard
  9
$CMLJUST
 70
     0
  9
$CMLSCALE
 40
20.0
  9
$PROXYGRAPHICS
 70
     1
  9
$MEASUREMENT
 70
     1
  9
$CELWEIGHT
370
    -1
  9
$ENDCAPS
280
     0
  9
$JOINSTYLE
280
     0
  9
$LWDISPLAY
290
     1
  9
$INSUNITS
 70
     4
  9
$HYPERLINKBASE
  1

  9
$STYLESHEET
  1

  9
$XEDIT
290
     1
  9
$CEPSNTYPE
380
     0
  9
$PSTYLEMODE
290
     1
  9
$FINGERPRINTGUID
  2
{08B03969-AF7C-4CCA-B0F9-5CD8601C1E43}
  9
$VERSIONGUID
  2
{FAEB1C32-E019-11D5-929B-00C0DF256EC4}
  9
$EXTNAMES
290
     1
  9
$PSVPSCALE
 40
0.0
  9
$OLESTARTUP
290
     0
  0
ENDSEC
  0
SECTION
  2
CLASSES
  0
CLASS
  1
ACDBDICTIONARYWDFLT
  2
AcDbDictionaryWithDefault
  3
ObjectDBX Classes
 90
        0
280
     0
281
     0
  0
CLASS
  1
VISUALSTYLE
  2
AcDbVisualStyle
  3
ObjectDBX Classes
 90
     4095
280
     0
281
     0
  0
CLASS
  1
MATERIAL
  2
AcDbMaterial
  3
ObjectDBX Classes
 90
     1153
280
     0
281
     0
  0
CLASS
  1
SCALE
  2
AcDbScale
  3
ObjectDBX Classes
 90
     1153
280
     0
281
     0
  0
CLASS
  1
TABLESTYLE
  2
AcDbTableStyle
  3
ObjectDBX Classes
 90
     4095
280
     0
281
     0
  0
CLASS
  1
MLEADERSTYLE
  2
AcDbMLeaderStyle
  3
ACDB_MLEADERSTYLE_CLASS
 90
     4095
280
     0
281
     0
  0
CLASS
  1
SUN
  2
AcDbSun
  3
SCENEOE
 90
     1153
280
     0
281
     0
  0
CLASS
  1
ACDBPLACEHOLDER
  2
AcDbPlaceHolder
  3
ObjectDBX Classes
 90
        0
280
     0
281
     0
  0
CLASS
  1
LAYOUT
  2
AcDbLayout
  3
ObjectDBX Classes
 90
        0
280
     0
281
     0
  0
CLASS
  1
RASTERVARIABLES
  2
AcDbRasterVariables
  3
ISM
 90
        0
280
     0
281
     0
  0
ENDSEC
  0
SECTION
  2
TABLES
  0
TABLE
  2
VPORT
  5
8
330
0
100
AcDbSymbolTable
 70
     1
  0
VPORT
  5
29
330
8
100
AcDbSymbolTableRecord
100
AcDbViewportTableRecord
  2
*Active
 70
     0
 10
0.0
 20
0.0
 11
1.0
 21
1.0
 12
16.68427727557054
 22
8.43279295459919
 13
0.0
 23
0.0
 14
10.0
 24
10.0
 15
10.0
 25
10.0
 16
0.0
 26
0.0
 36
1.0
 17
0.0
 27
0.0
 37
0.0
 40
91.63585395621914
 41
1.531481481481481
 42
50.0
 43
0.0
 44
0.0
 50
0.0
 51
0.0
 71
    16
 72
  2000
 73
     1
 74
     3
 75
     0
 76
     0
 77
     0
 78
     0
281
     0
 65
     1
110
0.0
120
0.0
130
0.0
111
1.0
121
0.0
131
0.0
112
0.0
122
1.0
132
0.0
 79
     0
146
0.0
  0
ENDTAB
  0
TABLE
  2
LTYPE
  5
5
330
0
100
AcDbSymbolTable
 70
     6
  0
LTYPE
  5
14
330
5
100
AcDbSymbolTableRecord
100
AcDbLinetypeTableRecord
  2
ByBlock
 70
     0
  3

 72
    65
 73
     0
 40
0.0
  0
LTYPE
  5
15
330
5
100
AcDbSymbolTableRecord
100
AcDbLinetypeTableRecord
  2
ByLayer
 70
     0
  3

 72
    65
 73
     0
 40
0.0
  0
LTYPE
  5
16
330
5
100
AcDbSymbolTableRecord
100
AcDbLinetypeTableRecord
  2
Continuous
 70
     0
  3
Solid line
 72
    65
 73
     0
 40
0.0
  0
LTYPE
  5
6E
330
5
100
AcDbSymbolTableRecord
100
AcDbLinetypeTableRecord
  2
HIDDEN
 70
     0
  3
Hidden __ __ __ __ __ __ __ __ __ __ __ __ __ __
 72
    65
 73
     2
 40
1.905
 49
1.27
 74
     0
 49
-0.635
 74
     0
  0
LTYPE
  5
6F
330
5
100
AcDbSymbolTableRecord
100
AcDbLinetypeTableRecord
  2
PHANTOM
 70
     0
  3
Phantom ______  __  __  ______  __  __  ______
 72
    65
 73
     6
 40
12.7
 49
6.35
 74
     0
 49
-1.27
 74
     0
 49
1.27
 74
     0
 49
-1.27
 74
     0
 49
1.27
 74
     0
 49
-1.27
 74
     0
  0
LTYPE
  5
70
330
5
100
AcDbSymbolTableRecord
100
AcDbLinetypeTableRecord
  2
CENTER
 70
     0
  3
Center ____ _ ____ _ ____ _ ____ _ ____ _ ____
 72
    65
 73
     4
 40
10.16
 49
6.35
 74
     0
 49
-1.27
 74
     0
 49
1.27
 74
     0
 49
-1.27
 74
     0
  0
LTYPE
  5
71
330
5
100
AcDbSymbolTableRecord
100
AcDbLinetypeTableRecord
  2
CENTERX2
 70
     0
  3
Center (2x) ________  __  ________  __  _____
 72
    65
 73
     4
 40
20.32
 49
12.7
 74
     0
 49
-2.54
 74
     0
 49
2.54
 74
     0
 49
-2.54
 74
     0
  0
LTYPE
  5
72
330
5
100
AcDbSymbolTableRecord
100
AcDbLinetypeTableRecord
  2
DOT2
 70
     0
  3
Dot (.5x) ........................................
 72
    65
 73
     2
 40
0.635
 49
0.0
 74
     0
 49
-0.635
 74
     0
  0
ENDTAB
  0
TABLE
  2
LAYER
  5
2
330
0
100
AcDbSymbolTable
 70
    17
  0
LAYER
  5
10
330
2
100
AcDbSymbolTableRecord
100
AcDbLayerTableRecord
  2
0
 70
     0
 62
     7
  6
Continuous
370
    -3
390
F
  0
LAYER
  5
73
330
2
100
AcDbSymbolTableRecord
100
AcDbLayerTableRecord
  2
FORMAT
 70
     0
 62
     2
  6
Continuous
370
    -3
390
F
  0
LAYER
  5
74
330
2
100
AcDbSymbolTableRecord
100
AcDbLayerTableRecord
  2
외형선
 70
     0
 62
   100
  6
Continuous
370
    35
390
F
  0
LAYER
  5
75
330
2
100
AcDbSymbolTableRecord
100
AcDbLayerTableRecord
  2
숨은선
 70
     0
 62
     2
  6
HIDDEN
370
    25
390
F
  0
LAYER
  5
76
330
2
100
AcDbSymbolTableRecord
100
AcDbLayerTableRecord
  2
중심선
 70
     0
 62
     1
  6
CENTERX2
370
    -3
390
F
  0
LAYER
  5
77
330
2
100
AcDbSymbolTableRecord
100
AcDbLayerTableRecord
  2
파단선
 70
     0
 62
     4
  6
Continuous
370
    -3
390
F
  0
LAYER
  5
78
330
2
100
AcDbSymbolTableRecord
100
AcDbLayerTableRecord
  2
해칭선
 70
     0
 62
     4
  6
Continuous
370
    -3
390
F
  0
LAYER
  5
79
330
2
100
AcDbSymbolTableRecord
100
AcDbLayerTableRecord
  2
가는실선
 70
     0
 62
     4
  6
Continuous
370
    -3
390
F
  0
LAYER
  5
7A
330
2
100
AcDbSymbolTableRecord
100
AcDbLayerTableRecord
  2
치수_보조선
 70
     0
 62
     4
  6
Continuous
370
    -3
390
F
  0
LAYER
  5
7B
330
2
100
AcDbSymbolTableRecord
100
AcDbLayerTableRecord
  2
치수문자_일반주서
 70
     0
 62
     7
  6
Continuous
370
    25
390
F
  0
LAYER
  5
7C
330
2
100
AcDbSymbolTableRecord
100
AcDbLayerTableRecord
  2
개별주서
 70
     0
 62
   100
  6
Continuous
370
    35
390
F
  0
LAYER
  5
7D
330
2
100
AcDbSymbolTableRecord
100
AcDbLayerTableRecord
  2
중간선
 70
     0
 62
     2
  6
Continuous
370
    25
390
F
  0
LAYER
  5
7E
330
2
100
AcDbSymbolTableRecord
100
AcDbLayerTableRecord
  2
윤곽선
 70
     0
 62
     3
  6
Continuous
370
    50
390
F
  0
LAYER
  5
7F
330
2
100
AcDbSymbolTableRecord
100
AcDbLayerTableRecord
  2
중심마크
 70
     0
 62
   100
  6
Continuous
370
    35
390
F
  0
LAYER
  5
80
330
2
100
AcDbSymbolTableRecord
100
AcDbLayerTableRecord
  2
가상선
 70
     0
 62
     4
  6
PHANTOM
370
    -3
390
F
  0
LAYER
  5
81
330
2
100
AcDbSymbolTableRecord
100
AcDbLayerTableRecord
  2
특수지정선
 70
     0
 62
     5
  6
CENTERX2
370
    70
390
F
  0
LAYER
  5
15E
330
2
100
AcDbSymbolTableRecord
100
AcDbLayerTableRecord
  2
Defpoints
 70
     0
 62
     7
  6
Continuous
290
     0
370
    -3
390
F
  0
ENDTAB
  0
TABLE
  2
STYLE
  5
3
330
0
100
AcDbSymbolTable
 70
     2
  0
STYLE
  5
11
330
3
100
AcDbSymbolTableRecord
100
AcDbTextStyleTableRecord
  2
Standard
 70
     0
 40
0.0
 41
1.0
 50
0.0
 71
     0
 42
3.5
  3
txt
  4

  0
STYLE
  5
97
330
3
100
AcDbSymbolTableRecord
100
AcDbTextStyleTableRecord
  2
SLDTEXTSTYLE0
 70
     0
 40
0.0
 41
0.75
 50
0.0
 71
     0
 42
3.5
  3
TXT
  4

  0
ENDTAB
  0
TABLE
  2
VIEW
  5
6
330
0
100
AcDbSymbolTable
 70
     0
  0
ENDTAB
  0
TABLE
  2
UCS
  5
7
330
0
100
AcDbSymbolTable
 70
     0
  0
ENDTAB
  0
TABLE
  2
APPID
  5
9
330
0
100
AcDbSymbolTable
 70
     2
  0
APPID
  5
12
330
9
100
AcDbSymbolTableRecord
100
AcDbRegAppTableRecord
  2
ACAD
 70
     0
  0
APPID
  5
182
330
9
100
AcDbSymbolTableRecord
100
AcDbRegAppTableRecord
  2
PE_URL
 70
     0
  0
ENDTAB
  0
TABLE
  2
DIMSTYLE
  5
A
330
0
100
AcDbSymbolTable
 70
     5
100
AcDbDimStyleTable
  0
DIMSTYLE
105
27
330
A
100
AcDbSymbolTableRecord
100
AcDbDimStyleTableRecord
  2
ISO-25
 70
     0
 41
2.5
 42
0.625
 43
3.75
 44
1.25
 73
     0
 74
     0
 77
     1
 78
     8
140
2.5
141
2.5
143
0.03937007874016
147
0.625
171
     3
172
     1
178
     0
271
     2
272
     2
274
     3
278
    44
283
     0
284
     8
340
11
  0
DIMSTYLE
105
E1
102
{ACAD_REACTORS
330
E0
102
}
330
A
100
AcDbSymbolTableRecord
100
AcDbDimStyleTableRecord
  2
SLDDIMSTYLE0
 70
     0
 41
3.302
 44
0.0
 45
0.000000001
 73
     0
 74
     0
 77
     1
 78
     4
 79
     1
140
3.5
143
0.0393700787401575
147
0.875
148
0.000000001
170
     1
173
     1
178
     0
271
     2
272
     2
276
     2
284
    12
340
97
  0
DIMSTYLE
105
F5
330
A
100
AcDbSymbolTableRecord
100
AcDbDimStyleTableRecord
  2
SLDDIMSTYLE1
 70
     0
 41
3.302
 44
0.0
 45
0.000000001
 73
     0
 74
     0
 77
     1
 78
    12
 79
     3
140
3.5
143
0.0393700787401575
147
0.875
148
0.000000001
170
     1
172
     1
173
     1
178
     0
271
     2
272
     2
276
     2
284
    12
289
     0
340
97
  0
DIMSTYLE
105
10A
102
{ACAD_REACTORS
330
109
102
}
330
A
100
AcDbSymbolTableRecord
100
AcDbDimStyleTableRecord
  2
SLDDIMSTYLE2
 70
     0
 41
3.302
 44
0.0
 45
0.000000001
 73
     0
 74
     0
 77
     1
 78
     4
 79
     1
140
3.5
143
0.0393700787401575
147
0.875
148
0.000000001
170
     1
172
     1
173
     1
178
     0
271
     2
272
     2
276
     2
284
    12
289
     0
340
97
  0
DIMSTYLE
105
120
102
{ACAD_REACTORS
330
11F
330
F4
102
}
330
A
100
AcDbSymbolTableRecord
100
AcDbDimStyleTableRecord
  2
SLDDIMSTYLE3
 70
     0
 41
3.302
 44
0.0
 45
0.000000001
 73
     0
 74
     0
 77
     1
 78
    12
 79
     3
140
3.5
143
0.0393700787401575
147
0.875
148
0.000000001
170
     1
173
     1
178
     0
271
     2
272
     2
276
     2
284
    12
340
97
  0
ENDTAB
  0
TABLE
  2
BLOCK_RECORD
  5
1
330
0
100
AcDbSymbolTable
 70
     7
  0
BLOCK_RECORD
  5
1F
102
{ACAD_XDICTIONARY
360
183
102
}
330
1
100
AcDbSymbolTableRecord
100
AcDbBlockTableRecord
  2
*Model_Space
340
22
  0
BLOCK_RECORD
  5
1B
330
1
100
AcDbSymbolTableRecord
100
AcDbBlockTableRecord
  2
*Paper_Space
340
1E
  0
BLOCK_RECORD
  5
23
330
1
100
AcDbSymbolTableRecord
100
AcDbBlockTableRecord
  2
*Paper_Space0
340
26
  0
BLOCK_RECORD
  5
82
330
1
100
AcDbSymbolTableRecord
100
AcDbBlockTableRecord
  2
블럭10
340
0
102
{BLKREFS
331
D9
102
}
  0
BLOCK_RECORD
  5
E2
330
1
100
AcDbSymbolTableRecord
100
AcDbBlockTableRecord
  2
_D
340
0
  0
BLOCK_RECORD
  5
F6
330
1
100
AcDbSymbolTableRecord
100
AcDbBlockTableRecord
  2
_D_1
340
0
  0
BLOCK_RECORD
  5
10B
330
1
100
AcDbSymbolTableRecord
100
AcDbBlockTableRecord
  2
_D_2
340
0
  0
BLOCK_RECORD
  5
121
330
1
100
AcDbSymbolTableRecord
100
AcDbBlockTableRecord
  2
_D_3
340
0
  0
BLOCK_RECORD
  5
133
330
1
100
AcDbSymbolTableRecord
100
AcDbBlockTableRecord
  2
SW_DOWELSYMBOL_0
340
0
102
{BLKREFS
331
139
102
}
  0
ENDTAB
  0
ENDSEC
  0
SECTION
  2
BLOCKS
  0
BLOCK
  5
20
330
1F
100
AcDbEntity
  8
0
100
AcDbBlockBegin
  2
*Model_Space
 70
     0
 10
0.0
 20
0.0
 30
0.0
  3
*Model_Space
  1
*Model_Space
  0
ENDBLK
  5
21
330
1F
100
AcDbEntity
  8
0
100
AcDbBlockEnd
  0
BLOCK
  5
1C
330
1B
100
AcDbEntity
 67
     1
  8
0
100
AcDbBlockBegin
  2
*Paper_Space
 70
     0
 10
0.0
 20
0.0
 30
0.0
  3
*Paper_Space
  1
*Paper_Space
  0
ENDBLK
  5
1D
330
1B
100
AcDbEntity
 67
     1
  8
0
100
AcDbBlockEnd
  0
BLOCK
  5
24
330
23
100
AcDbEntity
  8
0
100
AcDbBlockBegin
  2
*Paper_Space0
 70
     0
 10
0.0
 20
0.0
 30
0.0
  3
*Paper_Space0
  1
*Paper_Space0
  0
ENDBLK
  5
25
330
23
100
AcDbEntity
  8
0
100
AcDbBlockEnd
  0
BLOCK
  5
83
330
82
100
AcDbEntity
  8
0
100
AcDbBlockBegin
  2
블럭10
 70
     2
 10
0.0
 20
0.0
 30
0.0
  3
블럭10
  1
블럭10
  0
ELLIPSE
  5
85
330
82
100
AcDbEntity
  8
중심선
100
AcDbEllipse
 10
20.54032771741204
 20
12.0471743016438
 30
0.0
 11
6.600054785286829
 21
-1.261213355974178E-13
 31
0.0
210
0.0
220
0.0
230
1.0
 40
0.636358354079598
 41
0.9219305317359503
 42
6.513795318482858
  0
ELLIPSE
  5
86
330
82
100
AcDbEntity
  8
중심선
100
AcDbEllipse
 10
20.54032771746488
 20
12.04717430159265
 30
0.0
 11
3.960054785062283
 21
1.540847449632565E-10
 31
0.0
210
0.0
220
0.0
230
1.0
 40
0.3939339440162632
 41
1.131841032648279
 42
5.62031148352944
  0
LINE
  5
87
330
82
100
AcDbEntity
  8
중심선
100
AcDbLine
 10
2.268634060543552
 20
16.24717430164393
 30
0.0
 11
5.714909304380834
 21
16.24717430164393
 31
0.0
  0
LINE
  5
88
330
82
100
AcDbEntity
  8
중심선
100
AcDbLine
 10
5.245725140726316
 20
7.84717430164391
 30
0.0
 11
8.692000384563599
 21
7.84717430164391
 31
0.0
  0
LINE
  5
89
330
82
100
AcDbEntity
  8
중심선
100
AcDbLine
 10
15.74043728645272
 20
16.24717430164393
 30
0.0
 11
8.692000384563599
 21
7.84717430164391
 31
0.0
  0
LINE
  5
8A
330
82
100
AcDbEntity
  8
중심선
100
AcDbLine
 10
0.1404042013395286
 20
13.71084872107135
 30
0.0
 11
3.58671253028996
 21
13.71088815037384
 31
0.0
  0
LINE
  5
8B
330
82
100
AcDbEntity
  8
중심선
100
AcDbLine
 10
2.750260043222114
 20
10.84717430164391
 30
0.0
 11
6.196535287059397
 21
10.84717430164391
 31
0.0
  0
LINE
  5
8C
330
82
100
AcDbEntity
  8
중심선
100
AcDbLine
 10
12.29416204261559
 20
16.24717430164393
 30
0.0
 11
5.245725140726316
 21
7.84717430164391
 31
0.0
  0
LINE
  5
8D
330
82
100
AcDbEntity
  8
중심선
100
AcDbLine
 10
10.72767329541681
 20
16.24717430164393
 30
0.0
 11
6.196535287059397
 21
10.84717430164391
 31
0.0
  0
LINE
  5
8E
330
82
100
AcDbEntity
  8
중심선
100
AcDbLine
 10
7.28139805157953
 20
16.24717430164393
 30
0.0
 11
2.750260043222114
 21
10.84717430164391
 31
0.0
  0
LINE
  5
8F
330
82
100
AcDbEntity
  8
중심선
100
AcDbLine
 10
5.714909304380834
 20
16.24717430164393
 30
0.0
 11
3.58671253028996
 21
13.71088815037384
 31
0.0
  0
LINE
  5
90
330
82
100
AcDbEntity
  8
중심선
100
AcDbLine
 10
2.268634060543552
 20
16.24717430164393
 30
0.0
 11
0.1404042013395286
 21
13.71084872107135
 31
0.0
  0
LINE
  5
91
330
82
100
AcDbEntity
  8
중심선
100
AcDbLine
 10
7.28139805157953
 20
16.24717430164393
 30
0.0
 11
10.72767329541681
 21
16.24717430164393
 31
0.0
  0
LINE
  5
92
330
82
100
AcDbEntity
  8
중심선
100
AcDbLine
 10
12.29416204261559
 20
16.24717430164393
 30
0.0
 11
15.74043728645272
 21
16.24717430164393
 31
0.0
  0
LINE
  5
93
330
82
100
AcDbEntity
  8
중심선
100
AcDbLine
 10
19.22036997980202
 20
11.08717430171403
 30
0.0
 11
23.66174974927406
 21
11.08717430171406
 31
0.0
  0
LINE
  5
94
330
82
100
AcDbEntity
  8
중심선
100
AcDbLine
 10
19.22039502424796
 20
13.00717430171391
 30
0.0
 11
19.22036997980202
 21
11.08717430171403
 31
0.0
  0
LINE
  5
95
330
82
100
AcDbEntity
  8
중심선
100
AcDbLine
 10
19.22039502424796
 20
13.00717430171391
 30
0.0
 11
26.96566020931264
 21
13.00717430171391
 31
0.0
  0
LINE
  5
96
330
82
100
AcDbEntity
  8
중심선
100
AcDbLine
 10
22.22332737316547
 20
13.45928029700563
 30
0.0
 11
24.52862924686651
 21
15.39360700705356
 31
0.0
  0
ATTDEF
  5
98
330
82
100
AcDbEntity
  8
FORMAT
 62
     2
100
AcDbText
 10
-9.18129528874128
 20
2.075366912832191
 30
0.0
 40
4.233333333333333
  1
E5254024 [ 2 FLUTE ]
 41
0.75
  7
SLDTEXTSTYLE0
 11
-9.18129528874128
 21
-0.0412997538344756
 31
0.0
100
AcDbAttributeDefinition
  3

  2
AUTOATTR0
 70
     0
 74
     1
  0
ENDBLK
  5
84
330
82
100
AcDbEntity
  8
0
100
AcDbBlockEnd
  0
BLOCK
  5
E3
330
E2
100
AcDbEntity
  8
0
100
AcDbBlockBegin
  2
_D
 70
     0
 10
0.0
 20
0.0
 30
0.0
  3
_D
  1
_D
  0
LINE
  5
E5
330
E2
100
AcDbEntity
  8
치수문자_일반주서
 62
     0
370
    -2
100
AcDbLine
 10
35.4
 20
4.822049736255077
 30
0.0
 11
35.4
 21
40.34973319790102
 31
0.0
  0
LINE
  5
E6
330
E2
100
AcDbEntity
  8
치수문자_일반주서
 62
     0
370
    -2
100
AcDbLine
 10
-28.10000000000001
 20
3.826074928723889
 30
0.0
 11
-28.10000000000001
 21
40.34973319790102
 31
0.0
  0
LINE
  5
E7
330
E2
100
AcDbEntity
  8
치수문자_일반주서
 62
     0
370
    -2
100
AcDbLine
 10
32.098
 20
40.34973319790102
 30
0.0
 11
-24.79800000000001
 21
40.34973319790102
 31
0.0
  0
SOLID
  5
E8
330
E2
100
AcDbEntity
  8
치수문자_일반주서
 62
     0
100
AcDbTrace
 10
32.098
 20
39.79939986456769
 30
0.0
 11
32.098
 21
40.90006653123436
 31
0.0
 12
35.4
 22
40.34973319790102
 32
0.0
 13
35.4
 23
40.34973319790102
 33
0.0
  0
SOLID
  5
E9
330
E2
100
AcDbEntity
  8
치수문자_일반주서
 62
     0
100
AcDbTrace
 10
-24.79800000000001
 20
40.90006653123436
 30
0.0
 11
-24.79800000000001
 21
39.79939986456769
 31
0.0
 12
-28.10000000000001
 22
40.34973319790102
 32
0.0
 13
-28.10000000000001
 23
40.34973319790102
 33
0.0
  0
MTEXT
  5
EA
330
E2
100
AcDbEntity
  8
치수문자_일반주서
 62
     0
100
AcDbMText
 10
3.649999999999995
 20
44.72473319790102
 30
0.0
 40
3.5
 41
0.0
 71
     2
 72
     1
  1
\A1;63.50 [2 1/2]
  7
SLDTEXTSTYLE0
 73
     1
 44
1.0
  0
POINT
  5
EB
330
E2
100
AcDbEntity
  8
Defpoints
 62
     0
100
AcDbPoint
 10
35.4
 20
4.759549736255077
 30
0.0
  0
POINT
  5
EC
330
E2
100
AcDbEntity
  8
Defpoints
 62
     0
100
AcDbPoint
 10
-28.10000000000001
 20
3.763574928723889
 30
0.0
  0
POINT
  5
ED
330
E2
100
AcDbEntity
  8
Defpoints
 62
     0
100
AcDbPoint
 10
-28.10000000000001
 20
40.34973319790102
 30
0.0
  0
ENDBLK
  5
E4
330
E2
100
AcDbEntity
  8
0
100
AcDbBlockEnd
  0
BLOCK
  5
F7
330
F6
100
AcDbEntity
  8
0
100
AcDbBlockBegin
  2
_D_1
 70
     0
 10
0.0
 20
0.0
 30
0.0
  3
_D_1
  1
_D_1
  0
LINE
  5
F9
330
F6
100
AcDbEntity
  8
치수문자_일반주서
 62
     0
370
    -2
100
AcDbLine
 10
-27.1625
 20
4.763574928723896
 30
0.0
 11
-40.91000000000001
 21
4.763574928723847
 31
0.0
  0
LINE
  5
FA
330
F6
100
AcDbEntity
  8
치수문자_일반주서
 62
     0
370
    -2
100
AcDbLine
 10
-27.1625
 20
-4.761425071276109
 30
0.0
 11
-40.90999999999998
 21
-4.761425071276157
 31
0.0
  0
LINE
  5
FB
330
F6
100
AcDbEntity
  8
치수문자_일반주서
 62
     0
370
    -2
100
AcDbLine
 10
-40.91
 20
1.461574928723847
 30
0.0
 11
-40.90999999999999
 21
-1.459425071276157
 31
0.0
  0
SOLID
  5
FC
330
F6
100
AcDbEntity
  8
치수문자_일반주서
 62
     0
100
AcDbTrace
 10
-40.35966666666666
 20
1.461574928723849
 30
0.0
 11
-41.46033333333333
 21
1.461574928723845
 31
0.0
 12
-40.91000000000001
 22
4.763574928723847
 32
0.0
 13
-40.91000000000001
 23
4.763574928723847
 33
0.0
  0
SOLID
  5
FD
330
F6
100
AcDbEntity
  8
치수문자_일반주서
 62
     0
100
AcDbTrace
 10
-41.46033333333332
 20
-1.459425071276159
 30
0.0
 11
-40.35966666666666
 21
-1.459425071276155
 31
0.0
 12
-40.90999999999998
 22
-4.761425071276157
 32
0.0
 13
-40.90999999999998
 23
-4.761425071276157
 33
0.0
  0
MTEXT
  5
FE
330
F6
100
AcDbEntity
  8
치수문자_일반주서
 62
     0
100
AcDbMText
 10
-45.285
 20
0.0010749287238803
 30
0.0
 40
3.5
 41
0.0
 71
     2
 72
     1
  1
\A1;%%c9.53 [3/8]
  7
SLDTEXTSTYLE0
 11
-3.729883127349606E-15
 21
1.0
 31
0.0
 73
     1
 44
1.0
  0
POINT
  5
FF
330
F6
100
AcDbEntity
  8
Defpoints
 62
     0
100
AcDbPoint
 10
-27.1
 20
4.763574928723896
 30
0.0
  0
POINT
  5
100
330
F6
100
AcDbEntity
  8
Defpoints
 62
     0
100
AcDbPoint
 10
-27.1
 20
-4.761425071276109
 30
0.0
  0
POINT
  5
101
330
F6
100
AcDbEntity
  8
Defpoints
 62
     0
100
AcDbPoint
 10
-40.90999999999998
 20
-4.761425071276157
 30
0.0
  0
ENDBLK
  5
F8
330
F6
100
AcDbEntity
  8
0
100
AcDbBlockEnd
  0
BLOCK
  5
10C
330
10B
100
AcDbEntity
  8
0
100
AcDbBlockBegin
  2
_D_2
 70
     0
 10
0.0
 20
0.0
 30
0.0
  3
_D_2
  1
_D_2
  0
LINE
  5
10E
330
10B
100
AcDbEntity
  8
치수문자_일반주서
 62
     0
370
    -2
100
AcDbLine
 10
35.4
 20
4.822049736255077
 30
0.0
 11
35.4
 21
24.99616724975558
 31
0.0
  0
LINE
  5
10F
330
10B
100
AcDbEntity
  8
치수문자_일반주서
 62
     0
370
    -2
100
AcDbLine
 10
9.999999999999995
 20
3.914426300573034
 30
0.0
 11
9.999999999999995
 21
24.99616724975558
 31
0.0
  0
LINE
  5
110
330
10B
100
AcDbEntity
  8
치수문자_일반주서
 62
     0
370
    -2
100
AcDbLine
 10
32.098
 20
24.99616724975558
 30
0.0
 11
13.30199999999999
 21
24.99616724975558
 31
0.0
  0
SOLID
  5
111
330
10B
100
AcDbEntity
  8
치수문자_일반주서
 62
     0
100
AcDbTrace
 10
32.098
 20
24.44583391642224
 30
0.0
 11
32.098
 21
25.54650058308891
 31
0.0
 12
35.4
 22
24.99616724975558
 32
0.0
 13
35.4
 23
24.99616724975558
 33
0.0
  0
SOLID
  5
112
330
10B
100
AcDbEntity
  8
치수문자_일반주서
 62
     0
100
AcDbTrace
 10
13.30199999999999
 20
25.54650058308891
 30
0.0
 11
13.30199999999999
 21
24.44583391642224
 31
0.0
 12
9.999999999999995
 22
24.99616724975558
 32
0.0
 13
9.999999999999995
 23
24.99616724975558
 33
0.0
  0
MTEXT
  5
113
330
10B
100
AcDbEntity
  8
치수문자_일반주서
 62
     0
100
AcDbMText
 10
22.7
 20
29.37116724975558
 30
0.0
 40
3.5
 41
0.0
 71
     2
 72
     1
  1
\A1;25.40 [1]
  7
SLDTEXTSTYLE0
 73
     1
 44
1.0
  0
POINT
  5
114
330
10B
100
AcDbEntity
  8
Defpoints
 62
     0
100
AcDbPoint
 10
35.4
 20
4.759549736255077
 30
0.0
  0
POINT
  5
115
330
10B
100
AcDbEntity
  8
Defpoints
 62
     0
100
AcDbPoint
 10
9.999999999999995
 20
3.851926300573034
 30
0.0
  0
POINT
  5
116
330
10B
100
AcDbEntity
  8
Defpoints
 62
     0
100
AcDbPoint
 10
9.999999999999995
 20
24.99616724975558
 30
0.0
  0
ENDBLK
  5
10D
330
10B
100
AcDbEntity
  8
0
100
AcDbBlockEnd
  0
BLOCK
  5
122
330
121
100
AcDbEntity
  8
0
100
AcDbBlockBegin
  2
_D_3
 70
     0
 10
0.0
 20
0.0
 30
0.0
  3
_D_3
  1
_D_3
  0
LINE
  5
124
330
121
100
AcDbEntity
  8
치수문자_일반주서
 62
     0
370
    -2
100
AcDbLine
 10
20.69602368148686
 20
4.763574928723896
 30
0.0
 11
55.60935371504377
 21
4.763574928724019
 31
0.0
  0
LINE
  5
125
330
121
100
AcDbEntity
  8
치수문자_일반주서
 62
     0
370
    -2
100
AcDbLine
 10
21.36269249910627
 20
-4.761425071276109
 30
0.0
 11
55.60935371504381
 21
-4.761425071275987
 31
0.0
  0
LINE
  5
126
330
121
100
AcDbEntity
  8
치수문자_일반주서
 62
     0
370
    -2
100
AcDbLine
 10
55.60935371504377
 20
4.763574928724019
 30
0.0
 11
55.60935371504367
 21
34.31557492872401
 31
0.0
  0
LINE
  5
127
330
121
100
AcDbEntity
  8
치수문자_일반주서
 62
     0
370
    -2
100
AcDbLine
 10
55.60935371504379
 20
1.461574928724019
 30
0.0
 11
55.6093537150438
 21
-1.459425071275987
 31
0.0
  0
SOLID
  5
128
330
121
100
AcDbEntity
  8
치수문자_일반주서
 62
     0
100
AcDbTrace
 10
56.15968704837712
 20
1.461574928724021
 30
0.0
 11
55.05902038171045
 21
1.461574928724017
 31
0.0
 12
55.60935371504377
 22
4.763574928724019
 32
0.0
 13
55.60935371504377
 23
4.763574928724019
 33
0.0
  0
SOLID
  5
129
330
121
100
AcDbEntity
  8
치수문자_일반주서
 62
     0
100
AcDbTrace
 10
55.05902038171046
 20
-1.459425071275989
 30
0.0
 11
56.15968704837713
 21
-1.459425071275985
 31
0.0
 12
55.60935371504381
 22
-4.761425071275987
 32
0.0
 13
55.60935371504381
 23
-4.761425071275987
 33
0.0
  0
MTEXT
  5
12A
330
121
100
AcDbEntity
  8
치수문자_일반주서
 62
     0
100
AcDbMText
 10
51.23435371504372
 20
21.190574928724
 30
0.0
 40
3.5
 41
0.0
 71
     2
 72
     1
  1
\A1;%%c9.53 [3/8]
  7
SLDTEXTSTYLE0
 11
-3.729883127349604E-15
 21
1.0
 31
0.0
 73
     1
 44
1.0
  0
POINT
  5
12B
330
121
100
AcDbEntity
  8
Defpoints
 62
     0
100
AcDbPoint
 10
20.63352368148686
 20
4.763574928723896
 30
0.0
  0
POINT
  5
12C
330
121
100
AcDbEntity
  8
Defpoints
 62
     0
100
AcDbPoint
 10
21.30019249910627
 20
-4.761425071276109
 30
0.0
  0
POINT
  5
12D
330
121
100
AcDbEntity
  8
Defpoints
 62
     0
100
AcDbPoint
 10
55.60935371504381
 20
-4.761425071275989
 30
0.0
  0
ENDBLK
  5
123
330
121
100
AcDbEntity
  8
0
100
AcDbBlockEnd
  0
BLOCK
  5
134
330
133
100
AcDbEntity
  8
0
100
AcDbBlockBegin
  2
SW_DOWELSYMBOL_0
 70
     0
 10
0.0
 20
0.0
 30
0.0
  3
SW_DOWELSYMBOL_0
  1
SW_DOWELSYMBOL_0
  0
CIRCLE
  5
136
330
133
100
AcDbEntity
  8
외형선
 62
     0
100
AcDbCircle
 10
0.0
 20
0.0
 30
0.0
 40
3.000000000000003
  0
HATCH
  5
137
330
133
100
AcDbEntity
  8
0
  6
Continuous
 62
     0
370
    35
100
AcDbHatch
 10
0.0
 20
0.0
 30
0.0
210
0.0
220
0.0
230
1.0
  2
SOLID
 70
     1
 71
     0
 91
        1
 92
        0
 93
        3
 72
     2
 10
0.0000000000000087
 20
0.0
 40
3.000000000000003
 50
0.0
 51
90.0
 73
     1
 72
     1
 10
0.0000000000000087
 20
3.000000000000003
 11
0.0000000000000087
 21
0.0
 72
     1
 10
0.0000000000000087
 20
0.0
 11
3.000000000000012
 21
0.0
 97
        0
 75
     0
 76
     1
 98
        1
 10
0.0
 20
0.0
  0
HATCH
  5
138
330
133
100
AcDbEntity
  8
0
  6
Continuous
 62
     0
370
    35
100
AcDbHatch
 10
0.0
 20
0.0
 30
0.0
210
0.0
220
0.0
230
1.0
  2
SOLID
 70
     1
 71
     0
 91
        1
 92
        0
 93
        3
 72
     2
 10
0.0000000000000087
 20
0.0
 40
3.000000000000003
 50
180.0
 51
270.0000000000007
 73
     1
 72
     1
 10
0.0000000000000087
 20
-3.000000000000003
 11
0.0000000000000087
 21
0.0
 72
     1
 10
0.0000000000000087
 20
0.0
 11
-2.999999999999994
 21
0.0
 97
        0
 75
     0
 76
     1
 98
        1
 10
0.0
 20
0.0
  0
ENDBLK
  5
135
330
133
100
AcDbEntity
  8
0
100
AcDbBlockEnd
  0
ENDSEC
  0
SECTION
  2
ENTITIES
  0
LINE
  5
99
330
1F
100
AcDbEntity
  8
0
  6
Continuous
 62
     4
370
    25
100
AcDbLine
 10
8.479706861396576
 20
4.763574928723894
 30
0.0
 11
-27.1
 21
4.763574928723891
 31
0.0
  0
LINE
  5
9A
330
1F
100
AcDbEntity
  8
0
  6
Continuous
 62
     4
370
    25
100
AcDbLine
 10
-27.1
 20
-4.761425071276109
 30
0.0
 11
8.479706861396576
 21
-4.761425071276107
 31
0.0
  0
LINE
  5
9B
330
1F
100
AcDbEntity
  8
0
  6
Continuous
 62
     4
370
    25
100
AcDbLine
 10
-27.1
 20
4.763574928723889
 30
0.0
 11
-28.10000000000001
 21
3.763574928723889
 31
0.0
  0
LINE
  5
9C
330
1F
100
AcDbEntity
  8
0
  6
Continuous
 62
     4
370
    25
100
AcDbLine
 10
-28.10000000000001
 20
-3.761425071276108
 30
0.0
 11
-27.1
 21
-4.761425071276108
 31
0.0
  0
SPLINE
  5
9D
330
1F
100
AcDbEntity
  8
0
  6
Continuous
 62
     4
370
    25
100
AcDbSpline
210
0.0
220
0.0
230
1.0
 70
     8
 71
     3
 72
     9
 73
     5
 74
     0
 42
0.000000001
 43
0.00000001
 40
0.0
 40
0.0
 40
0.0
 40
0.0
 40
0.5028077332331121
 40
0.9999999999999999
 40
0.9999999999999999
 40
0.9999999999999999
 40
0.9999999999999999
 10
8.470391552430032
 20
-3.901641678458513
 30
0.0
 10
8.725867930024904
 20
-3.871683494962406
 30
0.0
 10
9.2339674692904
 20
-3.812101707499689
 30
0.0
 10
9.745613533535588
 20
-3.771666423008198
 30
0.0
 10
10.00000000000001
 20
-3.751562312254509
 30
0.0
  0
SPLINE
  5
9E
330
1F
100
AcDbEntity
  8
0
  6
Continuous
 62
     1
370
    25
100
AcDbSpline
210
0.0
220
0.0
230
1.0
 70
     8
 71
     3
 72
     9
 73
     5
 74
     0
 42
0.000000001
 43
0.00000001
 40
0.0
 40
0.0
 40
0.0
 40
0.0
 40
0.5555436488869799
 40
1.0
 40
1.0
 40
1.0
 40
1.0
 10
13.31581542432954
 20
1.221095358165521
 30
0.0
 10
13.17506013564916
 20
1.337188414217568
 30
0.0
 10
12.92169518590602
 20
1.546160393799439
 30
0.0
 10
12.66496875318654
 20
1.778874674487226
 30
0.0
 10
12.55086505966577
 20
1.882306014533611
 30
0.0
  0
SPLINE
  5
9F
330
1F
100
AcDbEntity
  8
0
  6
Continuous
 62
     1
370
    25
100
AcDbSpline
210
0.0
220
0.0
230
1.0
 70
     8
 71
     3
 72
     9
 73
     5
 74
     0
 42
0.000000001
 43
0.00000001
 40
0.0
 40
0.0
 40
0.0
 40
0.0
 40
0.4987157847251294
 40
1.0
 40
1.0
 40
1.0
 40
1.0
 10
28.2772497250331
 20
1.221419933757488
 30
0.0
 10
28.15020688728518
 20
1.326049266467268
 30
0.0
 10
27.89546692990056
 20
1.535846782235585
 30
0.0
 10
27.64044583178251
 20
1.766678515538785
 30
0.0
 10
27.51260778073387
 20
1.882390819828218
 30
0.0
  0
LINE
  5
A0
330
1F
100
AcDbEntity
  8
0
  6
Continuous
 62
     1
370
    25
100
AcDbLine
 10
21.9659327640177
 20
4.763574928723896
 30
0.0
 11
20.63352368148686
 21
4.763574928723896
 31
0.0
  0
LINE
  5
A1
330
1F
100
AcDbEntity
  8
0
  6
Continuous
 62
     1
370
    25
100
AcDbLine
 10
20.63445223419482
 20
-4.761425071276109
 30
0.0
 11
21.96593276401771
 21
-4.761425071276109
 31
0.0
  0
SPLINE
  5
A2
330
1F
100
AcDbEntity
  8
0
  6
Continuous
 62
     1
370
    25
100
AcDbSpline
210
0.0
220
0.0
230
1.0
 70
     8
 71
     3
 72
    20
 73
    16
 74
     0
 42
0.000000001
 43
0.00000001
 40
0.0
 40
0.0
 40
0.0
 40
0.0
 40
0.0860486747945085
 40
0.1472487730963068
 40
0.1900316599908866
 40
0.2329697595388915
 40
0.2773996411119302
 40
0.3801168443908726
 40
0.4949940747863251
 40
0.6331610056576561
 40
0.7534813985710328
 40
0.7980063374375219
 40
0.8435334471506897
 40
0.9090154983530522
 40
1.0
 40
1.0
 40
1.0
 40
1.0
 10
23.23125663686508
 20
-3.9620218143831
 30
0.0
 10
23.34898643632874
 20
-3.942231722750759
 30
0.0
 10
23.55044878969209
 20
-3.908366393397523
 30
0.0
 10
23.8117229243573
 20
-3.870706992029392
 30
0.0
 10
24.01696250076164
 20
-3.843556501360763
 30
0.0
 10
24.19738957020592
 20
-3.821675770207575
 30
0.0
 10
24.45946027133441
 20
-3.792728311632328
 30
0.0
 10
24.82041013317945
 20
-3.759701204671345
 30
0.0
 10
25.30928013269051
 20
-3.729668478243548
 30
0.0
 10
25.83165665910611
 20
-3.715478855153781
 30
0.0
 10
26.24704564505
 20
-3.719500914896595
 30
0.0
 10
26.53241622781269
 20
-3.728496063831978
 30
0.0
 10
26.747583709643
 20
-3.737965998908089
 30
0.0
 10
27.02557808926354
 20
-3.754031533639746
 30
0.0
 10
27.24123767784469
 20
-3.772589243636548
 30
0.0
 10
27.36664262756158
 20
-3.7833804572539
 30
0.0
  0
SPLINE
  5
A3
330
1F
100
AcDbEntity
  8
0
  6
Continuous
 62
     1
370
    25
100
AcDbSpline
210
0.0
220
0.0
230
1.0
 70
     8
 71
     3
 72
    17
 73
    13
 74
     0
 42
0.000000001
 43
0.00000001
 40
0.0
 40
0.0
 40
0.0
 40
0.0
 40
0.1794271185563205
 40
0.3100290892049918
 40
0.3936801457198913
 40
0.4676860985668667
 40
0.542720049126766
 40
0.6169583395180469
 40
0.6887386359061745
 40
0.7698749374877758
 40
0.8968126549715072
 40
1.0
 40
1.0
 40
1.0
 40
1.0
 10
12.40492338594793
 20
3.785541056120319
 30
0.0
 10
12.26903538957291
 20
3.773915914325173
 30
0.0
 10
12.03423681459153
 20
3.753829028063905
 30
0.0
 10
11.7377626237449
 20
3.737611110548298
 30
0.0
 10
11.52629903766008
 20
3.729082006334831
 30
0.0
 10
11.35498597225556
 20
3.724147489885719
 30
0.0
 10
11.18838652260752
 20
3.721156564987451
 30
0.0
 10
11.02295442415057
 20
3.720052616799815
 30
0.0
 10
10.85340903121706
 20
3.720763313279164
 30
0.0
 10
10.64421568718758
 20
3.724223583835762
 30
0.0
 10
10.41144086390934
 20
3.730803745168312
 30
0.0
 10
10.23925157895784
 20
3.740822729263687
 30
0.0
 10
10.16204245204861
 20
3.745315209819251
 30
0.0
  0
SPLINE
  5
A4
330
1F
100
AcDbEntity
  8
0
  6
Continuous
 62
     1
370
    25
100
AcDbSpline
210
0.0
220
0.0
230
1.0
 70
     8
 71
     3
 72
    17
 73
    13
 74
     0
 42
0.000000001
 43
0.00000001
 40
0.0
 40
0.0
 40
0.0
 40
0.0
 40
0.1635722467406287
 40
0.2819628930480926
 40
0.357636060753147
 40
0.4245831892346483
 40
0.4938228081155501
 40
0.5638045131428779
 40
0.6328274384154722
 40
0.7108460355780571
 40
0.8326542106471132
 40
1.0
 40
1.0
 40
1.0
 40
1.0
 10
9.999999999999991
 20
-3.751869666922174
 30
0.0
 10
10.13123033971749
 20
-3.744078931245948
 30
0.0
 10
10.35744283590642
 20
-3.730649401395906
 30
0.0
 10
10.64421685773857
 20
-3.722007953772024
 30
0.0
 10
10.8534088110502
 20
-3.718625826886264
 30
0.0
 10
11.02295448218976
 20
-3.717899498162052
 30
0.0
 10
11.18838650664583
 20
-3.719007604418926
 30
0.0
 10
11.35498597646408
 20
-3.721997395964119
 30
0.0
 10
11.52629903639352
 20
-3.726932220054439
 30
0.0
 10
11.73776262432233
 20
-3.735461220655043
 30
0.0
 10
12.03423681434737
 20
-3.751679184335138
 30
0.0
 10
12.2690353894834
 20
-3.771766061906568
 30
0.0
 10
12.40492338594792
 20
-3.783391198672531
 30
0.0
  0
SPLINE
  5
A5
330
1F
100
AcDbEntity
  8
0
  6
Continuous
 62
     1
370
    25
100
AcDbSpline
210
0.0
220
0.0
230
1.0
 70
     8
 71
     3
 72
    15
 73
    11
 74
     0
 42
0.000000001
 43
0.00000001
 40
0.0
 40
0.0
 40
0.0
 40
0.0
 40
0.1702957602364207
 40
0.2918348056946453
 40
0.3767181213293102
 40
0.4603004734218769
 40
0.5456292529933466
 40
0.7279537109563471
 40
0.9307735566622527
 40
0.9999999999999999
 40
0.9999999999999999
 40
0.9999999999999999
 40
0.9999999999999999
 10
27.36664262756158
 20
3.785530314701688
 30
0.0
 10
27.23929286509065
 20
3.774584344967652
 30
0.0
 10
27.02105435384194
 20
3.755826303393171
 30
0.0
 10
26.73960819886229
 20
3.739698576889397
 30
0.0
 10
26.52215107829499
 20
3.730243972688129
 30
0.0
 10
26.33493013365564
 20
3.724518501199382
 30
0.0
 10
26.07826033640406
 20
3.719613306698074
 30
0.0
 10
25.72029614182119
 20
3.720683479830018
 30
0.0
 10
25.37836860420575
 20
3.729516075659652
 30
0.0
 10
25.17498132890998
 20
3.74216641036586
 30
0.0
 10
25.12322624804349
 20
3.745385486361425
 30
0.0
  0
SPLINE
  5
A6
330
1F
100
AcDbEntity
  8
0
  6
Continuous
 62
     1
370
    25
100
AcDbSpline
210
0.0
220
0.0
230
1.0
 70
     8
 71
     3
 72
    14
 73
    10
 74
     0
 42
0.000000001
 43
0.00000001
 40
0.0
 40
0.0
 40
0.0
 40
0.0
 40
0.1780089305608804
 40
0.3061547882693077
 40
0.4018135461729075
 40
0.5167473091663966
 40
0.651336737859999
 40
0.9085234000769867
 40
1.0
 40
1.0
 40
1.0
 40
1.0
 10
29.57584967848349
 20
-3.580922534407222
 30
0.0
 10
29.69378851622084
 20
-3.549589051655698
 30
0.0
 10
29.89662968706795
 20
-3.495699082499057
 30
0.0
 10
30.16763100587416
 20
-3.43158140437728
 30
0.0
 10
30.40722888217311
 20
-3.379672751840098
 30
0.0
 10
30.64507006353422
 20
-3.332390794718106
 30
0.0
 10
30.98955637029287
 20
-3.271827374639933
 30
0.0
 10
31.3206026013641
 20
-3.221486397788037
 30
0.0
 10
31.55704668877457
 20
-3.198901910813404
 30
0.0
 10
31.6190810455217
 20
-3.192976560184936
 30
0.0
  0
SPLINE
  5
A7
330
1F
100
AcDbEntity
  8
0
  6
Continuous
 62
     1
370
    25
100
AcDbSpline
210
0.0
220
0.0
230
1.0
 70
     8
 71
     3
 72
    23
 73
    19
 74
     0
 42
0.000000001
 43
0.00000001
 40
0.0
 40
0.0
 40
0.0
 40
0.0
 40
0.0783320668707852
 40
0.1330864844449052
 40
0.1726407608455663
 40
0.22120589077728
 40
0.2786577486631872
 40
0.3540438347554176
 40
0.4241814902644357
 40
0.4805482782413058
 40
0.5674074047744168
 40
0.6607958395152116
 40
0.6953323807719354
 40
0.7321136010797101
 40
0.7741541586720221
 40
0.8326051644440015
 40
0.9079539460590418
 40
0.9999999999999999
 40
0.9999999999999999
 40
0.9999999999999999
 40
0.9999999999999999
 10
19.41534943046865
 20
3.258367199521039
 30
0.0
 10
19.29301331583285
 20
3.241181679259175
 30
0.0
 10
19.08516378411572
 20
3.21198341389512
 30
0.0
 10
18.81138222664969
 20
3.183500344130492
 30
0.0
 10
18.57369229713029
 20
3.163629692707167
 30
0.0
 10
18.33829139122314
 20
3.148673024382245
 30
0.0
 10
18.04806200585633
 20
3.136952114715042
 30
0.0
 10
17.72391304560077
 20
3.133356474625322
 30
0.0
 10
17.40133865325359
 20
3.140328606430603
 30
0.0
 10
17.05972967430722
 20
3.157219963994014
 30
0.0
 10
16.68017307972919
 20
3.187830452942836
 30
0.0
 10
16.33749742876284
 20
3.229286231013266
 30
0.0
 10
16.07452851572434
 20
3.268107626288106
 30
0.0
 10
15.89325427225701
 20
3.297465506101832
 30
0.0
 10
15.67361991329922
 20
3.33649776444462
 30
0.0
 10
15.39255694258818
 20
3.392188910340243
 30
0.0
 10
15.03141340122758
 20
3.472871690043432
 30
0.0
 10
14.76203730726224
 20
3.543992305834808
 30
0.0
 10
14.61391441928196
 20
3.58309967743145
 30
0.0
  0
SPLINE
  5
A8
330
1F
100
AcDbEntity
  8
0
  6
Continuous
 62
     1
370
    25
100
AcDbSpline
210
0.0
220
0.0
230
1.0
 70
     8
 71
     3
 72
    17
 73
    13
 74
     0
 42
0.000000001
 43
0.00000001
 40
0.0
 40
0.0
 40
0.0
 40
0.0
 40
0.1638282292567949
 40
0.2952455658715981
 40
0.4192948513206542
 40
0.4950596078803758
 40
0.5644016867013757
 40
0.6343683073358158
 40
0.7060912297933328
 40
0.7835021724743317
 40
0.9894130227249383
 40
1.0
 40
1.0
 40
1.0
 40
1.0
 10
14.61391441928196
 20
-3.580949819983664
 30
0.0
 10
14.72783654008086
 20
-3.550683232995397
 30
0.0
 10
14.93314304417449
 20
-3.496137837230018
 30
0.0
 10
15.22143257521986
 20
-3.427869296940256
 30
0.0
 10
15.44870806761547
 20
-3.378992134813716
 30
0.0
 10
15.62705611627042
 20
-3.343744680547013
 30
0.0
 10
15.76839886726846
 20
-3.317437821975082
 30
0.0
 10
15.90642726278413
 20
-3.293311958873897
 30
0.0
 10
16.04963113403531
 20
-3.26976110440115
 30
0.0
 10
16.29048099770003
 20
-3.23391599377097
 30
0.0
 10
16.50045994950845
 20
-3.204284190445312
 30
0.0
 10
16.64942435007462
 20
-3.192024082546081
 30
0.0
 10
16.65670886993152
 20
-3.191424550046367
 30
0.0
  0
SPLINE
  5
A9
330
1F
100
AcDbEntity
  8
0
  6
Continuous
 62
     1
370
    25
100
AcDbSpline
210
0.0
220
0.0
230
1.0
 70
     8
 71
     3
 72
    26
 73
    22
 74
     0
 42
0.000000001
 43
0.00000001
 40
0.0
 40
0.0
 40
0.0
 40
0.0
 40
0.0710907091088258
 40
0.1282539118635272
 40
0.1820410327251739
 40
0.214473684252162
 40
0.2435212779175154
 40
0.2723089640045966
 40
0.3015275599044594
 40
0.3336501921394519
 40
0.4211841249926185
 40
0.5195828420286541
 40
0.5951544193127649
 40
0.6573381842728512
 40
0.7161197597147891
 40
0.7437108389894237
 40
0.7698594389990073
 40
0.8021986605455134
 40
0.8515147592459652
 40
0.9174289175686106
 40
1.0
 40
1.0
 40
1.0
 40
1.0
 10
34.37729421687333
 20
3.25838354774306
 30
0.0
 10
34.26106196022945
 20
3.242029567430587
 30
0.0
 10
34.05136871358477
 20
3.212525543966662
 30
0.0
 10
33.75757238610046
 20
3.181759250365038
 30
0.0
 10
33.52669279275001
 20
3.162987698624903
 30
0.0
 10
33.348646214204
 20
3.151958743810209
 30
0.0
 10
33.20762336322348
 20
3.144985857632045
 30
0.0
 10
33.06958668307278
 20
3.139882310585763
 30
0.0
 10
32.92486654671522
 20
3.136382102132388
 30
0.0
 10
32.68672494657898
 20
3.133875884647331
 30
0.0
 10
32.33838419766163
 20
3.139590707986774
 30
0.0
 10
31.91955397292606
 20
3.163611755575674
 30
0.0
 10
31.54127799790959
 20
3.199649967676993
 30
0.0
 10
31.22720696671426
 20
3.239295099454189
 30
0.0
 10
30.98892782440803
 20
3.275332001993669
 30
0.0
 10
30.80950473664504
 20
3.305574608624268
 30
0.0
 10
30.67340950672492
 20
3.329964839137709
 30
0.0
 10
30.50265290478038
 20
3.362517172067454
 30
0.0
 10
30.26654308327675
 20
3.411439697559604
 30
0.0
 10
29.94947481306955
 20
3.484153399178576
 30
0.0
 10
29.70936964175923
 20
3.54772236037476
 30
0.0
 10
29.57584967848349
 20
3.58307239185501
 30
0.0
  0
SPLINE
  5
AA
330
1F
100
AcDbEntity
  8
0
  6
Continuous
 62
     4
370
    25
100
AcDbSpline
210
0.0
220
0.0
230
1.0
 70
     8
 71
     3
 72
    10
 73
     6
 74
     0
 42
0.000000001
 43
0.00000001
 40
0.0
 40
0.0
 40
0.0
 40
0.0
 40
0.5
 40
0.5
 40
1.0
 40
1.0
 40
1.0
 40
1.0
 10
9.999999999999991
 20
-3.849776443133665
 30
0.0
 10
9.745804786101482
 20
-3.999017930921627
 30
0.0
 10
9.495828065052867
 20
-4.131125921076161
 30
0.0
 10
8.9887347201029
 20
-4.360507190037631
 30
0.0
 10
8.732856187645607
 20
-4.45739220729689
 30
0.0
 10
8.479511971707257
 20
-4.534643906438864
 30
0.0
  0
LINE
  5
AB
330
1F
100
AcDbEntity
  8
0
  6
Continuous
 62
     4
370
    25
100
AcDbLine
 10
8.479706861396576
 20
4.536855993623334
 30
0.0
 11
8.479706861396576
 21
4.763574928723894
 31
0.0
  0
SPLINE
  5
AC
330
1F
100
AcDbEntity
  8
0
  6
Continuous
 62
     4
370
    25
100
AcDbSpline
210
0.0
220
0.0
230
1.0
 70
     8
 71
     3
 72
    10
 73
     6
 74
     0
 42
0.000000001
 43
0.00000001
 40
0.0
 40
0.0
 40
0.0
 40
0.0
 40
0.5
 40
0.5
 40
1.0
 40
1.0
 40
1.0
 40
1.0
 10
9.999999999999991
 20
3.851926300581451
 30
0.0
 10
9.74580478610148
 20
4.001167788369413
 30
0.0
 10
9.495828065052867
 20
4.133275778523947
 30
0.0
 10
8.988734720102899
 20
4.362657047485417
 30
0.0
 10
8.732856187645606
 20
4.459542064744677
 30
0.0
 10
8.479511971707257
 20
4.536793763886651
 30
0.0
  0
LINE
  5
AD
330
1F
100
AcDbEntity
  8
0
  6
Continuous
 62
     4
370
    25
100
AcDbLine
 10
9.999999999999991
 20
3.851926300581451
 30
0.0
 11
9.999999999999991
 21
2.928235152062464
 31
0.0
  0
SPLINE
  5
AE
330
1F
100
AcDbEntity
  8
0
  6
Continuous
 62
     4
370
    25
100
AcDbSpline
210
0.0
220
0.0
230
1.0
 70
     8
 71
     3
 72
    10
 73
     6
 74
     0
 42
0.000000001
 43
0.00000001
 40
0.0
 40
0.0
 40
0.0
 40
0.0
 40
0.5
 40
0.5
 40
1.0
 40
1.0
 40
1.0
 40
1.0
 10
8.479706861396576
 20
3.959223374826991
 30
0.0
 10
8.733019891825617
 20
3.818344113736491
 30
0.0
 10
8.98886534683631
 20
3.660093432615409
 30
0.0
 10
9.495892483023647
 20
3.314841934873861
 30
0.0
 10
9.745837376740681
 20
3.128288523684273
 30
0.0
 10
10.00000000000006
 20
2.92823515206241
 30
0.0
  0
LINE
  5
AF
330
1F
100
AcDbEntity
  8
0
  6
Continuous
 62
     4
370
    25
100
AcDbLine
 10
8.479706861396577
 20
-4.761425071276107
 30
0.0
 11
8.479706861396576
 21
3.959221413972116
 31
0.0
  0
LINE
  5
B0
330
1F
100
AcDbEntity
  8
0
  6
Continuous
 62
     4
370
    25
100
AcDbLine
 10
-27.1
 20
4.763574928723889
 30
0.0
 11
-27.1
 21
-4.761425071276108
 31
0.0
  0
LINE
  5
B1
330
1F
100
AcDbEntity
  8
0
  6
Continuous
 62
     4
370
    25
100
AcDbLine
 10
-28.10000000000001
 20
3.763574928723889
 30
0.0
 11
-28.10000000000001
 21
-3.761425071276108
 31
0.0
  0
SPLINE
  5
B2
330
1F
100
AcDbEntity
  8
0
  6
Continuous
 62
     4
370
    25
100
AcDbSpline
210
0.0
220
0.0
230
1.0
 70
     8
 71
     3
 72
    12
 73
     8
 74
     0
 42
0.000000001
 43
0.00000001
 40
0.0
 40
0.0
 40
0.0
 40
0.0
 40
0.25
 40
0.25
 40
0.5
 40
0.5
 40
1.0
 40
1.0
 40
1.0
 40
1.0
 10
8.83110548198576
 20
-2.466329494350014
 30
0.0
 10
8.755759246698597
 20
-2.420554106739413
 30
0.0
 10
8.70448473724906
 20
-2.361196806907672
 30
0.0
 10
8.618801209076617
 20
-2.235273783926174
 30
0.0
 10
8.586646777321517
 20
-2.169350024035703
 30
0.0
 10
8.508375569231967
 20
-1.966388635592666
 30
0.0
 10
8.47970686139659
 20
-1.823516947531656
 30
0.0
 10
8.47970686139643
 20
-1.68461479777613
 30
0.0
  0
SPLINE
  5
B3
330
1F
100
AcDbEntity
  8
0
  6
Continuous
 62
     4
370
    25
100
AcDbSpline
210
0.0
220
0.0
230
1.0
 70
     8
 71
     3
 72
    14
 73
    10
 74
     0
 42
0.000000001
 43
0.00000001
 40
0.0
 40
0.0
 40
0.0
 40
0.0
 40
0.25
 40
0.25
 40
0.5
 40
0.5
 40
0.75
 40
0.75
 40
1.0
 40
1.0
 40
1.0
 40
1.0
 10
8.479706861399611
 20
3.394189938417901
 30
0.0
 10
8.479706861398984
 20
3.307261312290157
 30
0.0
 10
8.501965676858179
 20
3.212241389550007
 30
0.0
 10
8.563002966600802
 20
3.029433662363416
 30
0.0
 10
8.603226791273702
 20
2.939279276001383
 30
0.0
 10
8.696280538267217
 20
2.771214884255497
 30
0.0
 10
8.749418825800772
 20
2.692136436156193
 30
0.0
 10
8.874488149559372
 20
2.55052109441073
 30
0.0
 10
8.945321941175749
 20
2.489326488523696
 30
0.0
 10
9.025955770948125
 20
2.451161195284565
 30
0.0
  0
SPLINE
  5
B4
330
1F
100
AcDbEntity
  8
0
  6
Continuous
 62
     4
370
    25
100
AcDbSpline
210
0.0
220
0.0
230
1.0
 70
    24
 71
     3
 72
    10
 73
     6
 74
     0
 42
0.000000001
 43
0.00000001
 40
0.0
 40
0.0
 40
0.0
 40
0.0
 40
0.5
 40
0.5
 40
1.0
 40
1.0
 40
1.0
 40
1.0
 10
9.999999999999995
 20
2.928235152062463
 30
0.0
 10
9.999999999999995
 20
2.839138443240762
 30
0.0
 10
9.999999999999995
 20
2.701656407708423
 30
0.0
 10
9.999999999999995
 20
2.35785166501822
 30
0.0
 10
9.999999999999995
 20
2.152711700908853
 30
0.0
 10
9.999999999999995
 20
1.940259471588663
 30
0.0
  0
SPLINE
  5
B5
330
1F
100
AcDbEntity
  8
0
  6
Continuous
 62
     4
370
    25
100
AcDbSpline
210
0.0
220
0.0
230
1.0
 70
     8
 71
     3
 72
     8
 73
     4
 74
     0
 42
0.000000001
 43
0.00000001
 40
0.0
 40
0.0
 40
0.0
 40
0.0
 40
1.0
 40
1.0
 40
1.0
 40
1.0
 10
10.0000000000005
 20
1.940259471588374
 30
0.0
 10
9.6736628797281
 20
2.12567004453823
 30
0.0
 10
9.352656621657246
 20
2.296528408971722
 30
0.0
 10
9.025955770948123
 20
2.451161195284565
 30
0.0
  0
SPLINE
  5
B6
330
1F
100
AcDbEntity
  8
0
  6
Continuous
 62
     4
370
    25
100
AcDbSpline
210
0.0
220
0.0
230
1.0
 70
     8
 71
     3
 72
    10
 73
     6
 74
     0
 42
0.000000001
 43
0.00000001
 40
0.0
 40
0.0
 40
0.0
 40
0.0
 40
0.5
 40
0.5
 40
1.0
 40
1.0
 40
1.0
 40
1.0
 10
10.00000000000108
 20
-3.098039334988949
 30
0.0
 10
9.804410042297308
 20
-3.007219644452913
 30
0.0
 10
9.611288022671033
 20
-2.908997132789235
 30
0.0
 10
9.223149330853577
 20
-2.698193105298779
 30
0.0
 10
9.02704332278738
 20
-2.585368363061826
 30
0.0
 10
8.83110548198603
 20
-2.466329494350178
 30
0.0
  0
SPLINE
  5
B7
330
1F
100
AcDbEntity
  8
0
  6
Continuous
 62
     4
370
    25
100
AcDbSpline
210
0.0
220
0.0
230
1.0
 70
    24
 71
     3
 72
    11
 73
     7
 74
     0
 42
0.000000001
 43
0.00000001
 40
0.0
 40
0.0
 40
0.0
 40
0.0
 40
0.2103926382395885
 40
0.4233094586219528
 40
0.7456612973459539
 40
1.0
 40
1.0
 40
1.0
 40
1.0
 10
9.99999999999998
 20
-3.098039334988435
 30
0.0
 10
9.999999999999986
 20
-3.184572639427643
 30
0.0
 10
9.999999999999995
 20
-3.358677430172346
 30
0.0
 10
9.999999999999988
 20
-3.578177129033612
 30
0.0
 10
9.999999999999991
 20
-3.735844333787987
 30
0.0
 10
9.999999999999991
 20
-3.73724865898534
 30
0.0
 10
9.999999999999991
 20
-3.737868010653473
 30
0.0
  0
SPLINE
  5
B8
330
1F
100
AcDbEntity
  8
0
  6
Continuous
 62
     4
370
    25
100
AcDbSpline
210
0.0
220
0.0
230
1.0
 70
    24
 71
     3
 72
    14
 73
    10
 74
     0
 42
0.000000001
 43
0.00000001
 40
0.0
 40
0.0
 40
0.0
 40
0.0
 40
0.25
 40
0.25
 40
0.5
 40
0.5
 40
0.75
 40
0.75
 40
1.0
 40
1.0
 40
1.0
 40
1.0
 10
9.999999999999991
 20
1.940259471588664
 30
0.0
 10
9.999999999999991
 20
1.552714489017936
 30
0.0
 10
9.999999999999991
 20
1.132289085418877
 30
0.0
 10
9.999999999999991
 20
0.25825465976991
 30
0.0
 10
9.999999999999991
 20
-0.1949939876753597
 30
0.0
 10
9.999999999999991
 20
-1.090444945351649
 30
0.0
 10
9.999999999999991
 20
-1.532170121875208
 30
0.0
 10
9.999999999999991
 20
-2.362296400004539
 30
0.0
 10
9.999999999999991
 20
-2.750398798368036
 30
0.0
 10
9.999999999999991
 20
-3.098039334988444
 30
0.0
  0
SPLINE
  5
B9
330
1F
100
AcDbEntity
  8
0
  6
Continuous
 62
     4
370
    25
100
AcDbSpline
210
0.0
220
0.0
230
1.0
 70
    24
 71
     3
 72
     9
 73
     5
 74
     0
 42
0.000000001
 43
0.00000001
 40
0.0
 40
0.0
 40
0.0
 40
0.0
 40
0.0549514660808325
 40
1.0
 40
1.0
 40
1.0
 40
1.0
 10
9.999999999999998
 20
-3.789494105263138
 30
0.0
 10
9.999999999999998
 20
-3.790677503919708
 30
0.0
 10
9.999999999999998
 20
-3.812212846667973
 30
0.0
 10
9.999999999999995
 20
-3.831525267824684
 30
0.0
 10
9.999999999999991
 20
-3.849776443125265
 30
0.0
  0
SPLINE
  5
BA
330
1F
100
AcDbEntity
  8
0
  6
Continuous
 62
     1
370
    25
100
AcDbSpline
210
0.0
220
0.0
230
1.0
 70
     8
 71
     3
 72
    27
 73
    23
 74
     0
 42
0.000000001
 43
0.00000001
 40
0.0
 40
0.0
 40
0.0
 40
0.0
 40
0.0146837715060805
 40
0.0635290634921172
 40
0.1125996879052908
 40
0.1614553465434523
 40
0.2104979088442341
 40
0.2602823062777476
 40
0.3101401827709853
 40
0.3600049533844725
 40
0.4097851079859942
 40
0.4597226060027377
 40
0.508574117351789
 40
0.5576465798939387
 40
0.6064929410707207
 40
0.6555558563931866
 40
0.7129035412932191
 40
0.7702688918921939
 40
0.8277847944113902
 40
0.8851053182559472
 40
0.9425252313880331
 40
0.9999999999999999
 40
0.9999999999999999
 40
0.9999999999999999
 40
0.9999999999999999
 10
25.1225904205752
 20
-3.743641667174904
 30
0.0
 10
25.04846500414734
 20
-3.791885929639483
 30
0.0
 10
24.72776277279786
 20
-4.00061383118531
 30
0.0
 10
24.16226493456045
 20
-4.278337523316536
 30
0.0
 10
23.4199399744752
 20
-4.560096743530217
 30
0.0
 10
22.68137908399341
 20
-4.726907977221969
 30
0.0
 10
21.93514494017357
 20
-4.780945596826529
 30
0.0
 10
21.18692764380549
 20
-4.717298665240459
 30
0.0
 10
20.4329928427877
 20
-4.535454404757163
 30
0.0
 10
19.67893926489297
 20
-4.240569885365947
 30
0.0
 10
18.92631288852074
 20
-3.838385721681498
 30
0.0
 10
18.17547348175277
 20
-3.345684046792236
 30
0.0
 10
17.43248384527105
 20
-2.770375573073274
 30
0.0
 10
16.69021323345393
 20
-2.136349439747208
 30
0.0
 10
15.95171028004443
 20
-1.445597676060184
 30
0.0
 10
15.16708038943183
 20
-0.6833915349675095
 30
0.0
 10
14.34249146003966
 20
0.1453563820325842
 30
0.0
 10
13.47486759735831
 20
1.011296099065341
 30
0.0
 10
12.6049677786039
 20
1.842069926608731
 30
0.0
 10
11.73809271603982
 20
2.612612195696967
 30
0.0
 10
10.86950585205013
 20
3.303851068043475
 30
0.0
 10
10.28992752224793
 20
3.669176415919245
 30
0.0
 10
9.999999999996739
 20
3.851926300583362
 30
0.0
  0
SPLINE
  5
BB
330
1F
100
AcDbEntity
  8
0
  6
Continuous
 62
     1
370
    25
100
AcDbSpline
210
0.0
220
0.0
230
1.0
 70
     8
 71
     3
 72
    20
 73
    16
 74
     0
 42
0.000000001
 43
0.00000001
 40
0.0
 40
0.0
 40
0.0
 40
0.0
 40
0.0454178330134492
 40
0.1302797060406509
 40
0.2149096568672429
 40
0.2995149256188193
 40
0.3843919439391515
 40
0.4689333401315132
 40
0.5537037926182057
 40
0.6384406329079073
 40
0.7229901341457962
 40
0.8078755219453666
 40
0.8924623546079659
 40
0.9771165626759943
 40
1.0
 40
1.0
 40
1.0
 40
1.0
 10
23.23364841215531
 20
-3.946339089849705
 30
0.0
 10
23.08344532301305
 20
-3.974986162202074
 30
0.0
 10
22.65259221969444
 20
-4.057159439026772
 30
0.0
 10
21.93982141574514
 20
-4.055567307257049
 30
0.0
 10
21.09914744408045
 20
-3.950242223070032
 30
0.0
 10
20.25864934424434
 20
-3.715343162604217
 30
0.0
 10
19.41604665659033
 20
-3.367957215085108
 30
0.0
 10
18.57598002904595
 20
-2.913041477450431
 30
0.0
 10
17.73420762338254
 20
-2.369357648382717
 30
0.0
 10
16.89270140800884
 20
-1.751802578482567
 30
0.0
 10
16.05258893581255
 20
-1.077625136167229
 30
0.0
 10
15.20992186377446
 20
-0.3728547984611586
 30
0.0
 10
14.36956965965493
 20
0.3436886355722393
 30
0.0
 10
13.73372401871409
 20
0.8857383045781794
 30
0.0
 10
13.37743218542488
 20
1.167904802275832
 30
0.0
 10
13.30161518379345
 20
1.227948327884555
 30
0.0
  0
SPLINE
  5
BC
330
1F
100
AcDbEntity
  8
0
  6
Continuous
 62
     1
370
    25
100
AcDbSpline
210
0.0
220
0.0
230
1.0
 70
     8
 71
     3
 72
    25
 73
    21
 74
     0
 42
0.000000001
 43
0.00000001
 40
0.0
 40
0.0
 40
0.0
 40
0.0
 40
0.056125658268165
 40
0.1121623075481299
 40
0.1683717249930812
 40
0.2243625183647043
 40
0.2806020014937768
 40
0.335587283395347
 40
0.3908085259760521
 40
0.4458229331964824
 40
0.5009917838807458
 40
0.5570691424621808
 40
0.613143350491059
 40
0.6693190541812012
 40
0.7253265621660985
 40
0.7815582635641698
 40
0.8365402377802544
 40
0.8917758540812801
 40
0.9467694973646719
 40
1.0
 40
1.0
 40
1.0
 40
1.0
 10
35.39999999999999
 20
-4.518255960993027
 30
0.0
 10
35.14853580998223
 20
-4.428127391173355
 30
0.0
 10
34.64600622389967
 20
-4.248013185319647
 30
0.0
 10
33.89333984687786
 20
-3.840165086369607
 30
0.0
 10
33.1380577981118
 20
-3.34682195499474
 30
0.0
 10
32.38607952543192
 20
-2.763930878019655
 30
0.0
 10
31.634785697905
 20
-2.121023316517698
 30
0.0
 10
30.89185880421849
 20
-1.424794658380704
 30
0.0
 10
30.14982458609201
 20
-0.7035886715184694
 30
0.0
 10
29.41093533476978
 20
0.0392335025743715
 30
0.0
 10
28.66525428350622
 20
0.7820653047148112
 30
0.0
 10
27.91646379931898
 20
1.512188070901609
 30
0.0
 10
27.16324463418973
 20
2.208885767985599
 30
0.0
 10
26.40848847440343
 20
2.848663047357928
 30
0.0
 10
25.65625887501389
 20
3.420254308509777
 30
0.0
 10
24.90509467761436
 20
3.899924624261547
 30
0.0
 10
24.16220597020916
 20
4.285087002806784
 30
0.0
 10
23.41998662612574
 20
4.559617888772749
 30
0.0
 10
22.69006442458669
 20
4.732874289811199
 30
0.0
 10
22.20467406141267
 20
4.752123775723012
 30
0.0
 10
21.96593276401771
 20
4.761591716558756
 30
0.0
  0
LINE
  5
BD
330
1F
100
AcDbEntity
  8
0
  6
Continuous
 62
     1
370
    25
100
AcDbLine
 10
10.16204245204861
 20
-3.743165352371465
 30
0.0
 11
9.999999999996739
 21
-3.849776443135575
 31
0.0
  0
SPLINE
  5
BE
330
1F
100
AcDbEntity
  8
0
  6
Continuous
 62
     4
370
    25
100
AcDbSpline
210
0.0
220
0.0
230
1.0
 70
    24
 71
     3
 72
     9
 73
     5
 74
     0
 42
0.000000001
 43
0.00000001
 40
0.0
 40
0.0
 40
0.0
 40
0.0
 40
0.056313532887818
 40
1.0
 40
1.0
 40
1.0
 40
1.0
 10
9.999999999999996
 20
-3.789494105263139
 30
0.0
 10
9.999999999999996
 20
-3.790676746065037
 30
0.0
 10
9.999999999999996
 20
-3.811677751351891
 30
0.0
 10
9.999999999999996
 20
-3.83127900516417
 30
0.0
 10
9.999999999999996
 20
-3.849776443125248
 30
0.0
  0
SPLINE
  5
BF
330
1F
100
AcDbEntity
  8
0
  6
Continuous
 62
     1
370
    25
100
AcDbSpline
210
0.0
220
0.0
230
1.0
 70
     8
 71
     3
 72
    16
 73
    12
 74
     0
 42
0.000000001
 43
0.00000001
 40
0.0
 40
0.0
 40
0.0
 40
0.0
 40
0.1179589650268885
 40
0.2356275449383808
 40
0.3537646584635928
 40
0.4715036672137988
 40
0.589306739660473
 40
0.7074045430167124
 40
0.8250575851606776
 40
0.943105938229809
 40
0.9999999999999999
 40
0.9999999999999999
 40
0.9999999999999999
 40
0.9999999999999999
 10
35.39999999999999
 20
-3.756405480329733
 30
0.0
 10
35.11922294015653
 20
-3.656466961508315
 30
0.0
 10
34.55836002252366
 20
-3.456835947203458
 30
0.0
 10
33.71827241783857
 20
-3.01673875638215
 30
0.0
 10
32.87563498868585
 20
-2.493816801126097
 30
0.0
 10
32.03520651691973
 20
-1.888639766729339
 30
0.0
 10
31.19444201073757
 20
-1.22567985096419
 30
0.0
 10
30.35200459183569
 20
-0.526188899810573
 30
0.0
 10
29.51202853504162
 20
0.1915834777362836
 30
0.0
 10
28.81495450699808
 20
0.7839367113294279
 30
0.0
 10
28.39891302756407
 20
1.118003236391698
 30
0.0
 10
28.26360970703074
 20
1.226646995137697
 30
0.0
  0
LINE
  5
C0
330
1F
100
AcDbEntity
  8
0
  6
Continuous
 62
     1
370
    25
100
AcDbLine
 10
35.39999999999999
 20
-4.51825596099303
 30
0.0
 11
35.39999999999999
 21
-3.756405480329733
 31
0.0
  0
SPLINE
  5
C1
330
1F
100
AcDbEntity
  8
0
  6
Continuous
 62
     1
370
    25
100
AcDbSpline
210
0.0
220
0.0
230
1.0
 70
     8
 71
     3
 72
    26
 73
    22
 74
     0
 42
0.000000001
 43
0.00000001
 40
0.0
 40
0.0
 40
0.0
 40
0.0
 40
0.0526944832811526
 40
0.1053887481919991
 40
0.1596026601449541
 40
0.213816063352273
 40
0.2663290769770613
 40
0.3192075649900152
 40
0.3719021927794832
 40
0.4245969999187187
 40
0.4788151873535842
 40
0.5330334111227861
 40
0.5858624197812063
 40
0.6386913767242028
 40
0.6930524021554069
 40
0.7474132327895827
 40
0.800061046023958
 40
0.8530760753044445
 40
0.9055235855786437
 40
0.9583351855847193
 40
1.0
 40
1.0
 40
1.0
 40
1.0
 10
9.999999999999995
 20
2.928235152062462
 30
0.0
 10
10.18693013683302
 20
2.777100325600927
 30
0.0
 10
10.56078963584509
 20
2.474831298993104
 30
0.0
 10
11.12567864103023
 20
1.970621123121258
 30
0.0
 10
11.69797770381441
 20
1.438076153784728
 30
0.0
 10
12.26807768177273
 20
0.883116497977245
 30
0.0
 10
12.83324136191142
 20
0.3203715134367165
 30
0.0
 10
13.39492870350915
 20
-0.2396268976532788
 30
0.0
 10
13.954998901674
 20
-0.7991108579755193
 30
0.0
 10
14.52134929874538
 20
-1.35074944507354
 30
0.0
 10
15.09203275796501
 20
-1.889254431298069
 30
0.0
 10
15.66363480400066
 20
-2.400647685650065
 30
0.0
 10
16.23036150003039
 20
-2.873025995308817
 30
0.0
 10
16.79700158307341
 20
-3.306340040886304
 30
0.0
 10
17.37029729527978
 20
-3.695048702604713
 30
0.0
 10
17.9414404007437
 20
-4.030833854439969
 30
0.0
 10
18.50989258760227
 20
-4.304998381574536
 30
0.0
 10
19.0699314018212
 20
-4.517681230586054
 30
0.0
 10
19.63037126946736
 20
-4.665730729600586
 30
0.0
 10
20.15238201824211
 20
-4.750105153520549
 30
0.0
 10
20.48691892445141
 20
-4.754143451192075
 30
0.0
 10
20.63445223419482
 20
-4.755924371055179
 30
0.0
  0
SPLINE
  5
C2
330
1F
100
AcDbEntity
  8
0
  6
Continuous
 62
     1
370
    25
100
AcDbSpline
210
0.0
220
0.0
230
1.0
 70
     8
 71
     3
 72
    13
 73
     9
 74
     0
 42
0.000000001
 43
0.00000001
 40
0.0
 40
0.0
 40
0.0
 40
0.0
 40
0.1266607572821585
 40
0.2752347468611203
 40
0.4281209042713187
 40
0.5810084185400947
 40
0.7890546236693656
 40
1.0
 40
1.0
 40
1.0
 40
1.0
 10
31.61803836818351
 20
3.194372631089566
 30
0.0
 10
31.77788753171946
 20
3.310630099615114
 30
0.0
 10
32.12524092677121
 20
3.563258424338158
 30
0.0
 10
32.66461590497791
 20
3.897998540802039
 30
0.0
 10
33.23679765438521
 20
4.202270851556751
 30
0.0
 10
33.88564363027701
 20
4.47329048825436
 30
0.0
 10
34.60526587696807
 20
4.688720285925227
 30
0.0
 10
35.13386941884825
 20
4.735831259556191
 30
0.0
 10
35.4
 20
4.759549736255077
 30
0.0
  0
SPLINE
  5
C3
330
1F
100
AcDbEntity
  8
0
  6
Continuous
 62
     1
370
    25
100
AcDbSpline
210
0.0
220
0.0
230
1.0
 70
    24
 71
     3
 72
    10
 73
     6
 74
     0
 42
0.000000001
 43
0.00000001
 40
0.0
 40
0.0
 40
0.0
 40
0.0
 40
0.5
 40
0.5
 40
1.0
 40
1.0
 40
1.0
 40
1.0
 10
35.39999999999999
 20
3.334824928723896
 30
0.0
 10
35.39999999999998
 20
3.536908551768728
 30
0.0
 10
35.39999999999998
 20
3.771748436703541
 30
0.0
 10
35.4
 20
4.264441882799971
 30
0.0
 10
35.39999999999999
 20
4.52103716672841
 30
0.0
 10
35.39999999999999
 20
4.759549736255077
 30
0.0
  0
SPLINE
  5
C4
330
1F
100
AcDbEntity
  8
0
  6
Continuous
 62
     1
370
    25
100
AcDbSpline
210
0.0
220
0.0
230
1.0
 70
     8
 71
     3
 72
     9
 73
     5
 74
     0
 42
0.000000001
 43
0.00000001
 40
0.0
 40
0.0
 40
0.0
 40
0.0
 40
0.8225464429671288
 40
1.0
 40
1.0
 40
1.0
 40
1.0
 10
35.39999999999999
 20
3.334824928723896
 30
0.0
 10
35.11924769231824
 20
3.331557898930998
 30
0.0
 10
34.77792677350298
 20
3.327586050507322
 30
0.0
 10
34.43699022265493
 20
3.261387605846179
 30
0.0
 10
34.37648981898443
 20
3.249640456371016
 30
0.0
  0
SPLINE
  5
C5
330
1F
100
AcDbEntity
  8
0
  6
Continuous
 62
     1
370
    25
100
AcDbSpline
210
0.0
220
0.0
230
1.0
 70
     8
 71
     3
 72
    13
 73
     9
 74
     0
 42
0.000000001
 43
0.00000001
 40
0.0
 40
0.0
 40
0.0
 40
0.0
 40
0.0219894324157836
 40
0.255571075307492
 40
0.4882253140494451
 40
0.7217654288866182
 40
0.9548324201613203
 40
1.0
 40
1.0
 40
1.0
 40
1.0
 10
13.60849065895472
 20
-0.452191114352026
 30
0.0
 10
13.58204908381015
 20
-0.4341138214321461
 30
0.0
 10
13.27473320294762
 20
-0.2240113911908806
 30
0.0
 10
12.68658039468784
 20
0.1911309933346401
 30
0.0
 10
11.84631715697568
 20
0.7768215071365138
 30
0.0
 10
11.00417729571326
 20
1.336008886302766
 30
0.0
 10
10.38919249193409
 20
1.717649011230028
 30
0.0
 10
10.05435611018756
 20
1.909168844295142
 30
0.0
 10
9.999999999999991
 20
1.940259471588664
 30
0.0
  0
SPLINE
  5
C6
330
1F
100
AcDbEntity
  8
0
  6
Continuous
 62
     4
370
    25
100
AcDbSpline
210
0.0
220
0.0
230
1.0
 70
    24
 71
     3
 72
    10
 73
     6
 74
     0
 42
0.000000001
 43
0.00000001
 40
0.0
 40
0.0
 40
0.0
 40
0.0
 40
0.5
 40
0.5
 40
1.0
 40
1.0
 40
1.0
 40
1.0
 10
9.999999999999995
 20
2.928235152062463
 30
0.0
 10
9.999999999999995
 20
2.839138443240762
 30
0.0
 10
9.999999999999995
 20
2.701656407708423
 30
0.0
 10
9.999999999999995
 20
2.35785166501822
 30
0.0
 10
9.999999999999995
 20
2.152711700908853
 30
0.0
 10
9.999999999999995
 20
1.940259471588663
 30
0.0
  0
SPLINE
  5
C7
330
1F
100
AcDbEntity
  8
0
  6
Continuous
 62
     1
370
    25
100
AcDbSpline
210
0.0
220
0.0
230
1.0
 70
     8
 71
     3
 72
    40
 73
    36
 74
     0
 42
0.000000001
 43
0.00000001
 40
0.0
 40
0.0
 40
0.0
 40
0.0
 40
0.0071933922779358
 40
0.0379230167930889
 40
0.0688798250139041
 40
0.0987508778770285
 40
0.1288302799431245
 40
0.1585876859148685
 40
0.1885516672970553
 40
0.2183089480351153
 40
0.2482722477561138
 40
0.2788815578038126
 40
0.3097149972356318
 40
0.3395847208414449
 40
0.3696629327827602
 40
0.4003924343520168
 40
0.4313491139387757
 40
0.4612197270349206
 40
0.4912986770594193
 40
0.5210582474392942
 40
0.5510244249536147
 40
0.5807838849824579
 40
0.6107493952771804
 40
0.6413610180994801
 40
0.6721968266460314
 40
0.702066983998149
 40
0.7321456455093468
 40
0.7628756039250111
 40
0.7938327474726018
 40
0.8237029259413284
 40
0.8537814307209222
 40
0.8845119480049061
 40
0.9154701022150282
 40
0.957442602934142
 40
1.0
 40
1.0
 40
1.0
 40
1.0
 10
16.65711914004941
 20
3.193732239374982
 30
0.0
 10
16.70198728961288
 20
3.228297496356733
 30
0.0
 10
16.93852876039982
 20
3.410522901329715
 30
0.0
 10
17.3707486439746
 20
3.69383054255905
 30
0.0
 10
17.94042904535831
 20
4.033368512745032
 30
0.0
 10
18.50996650593903
 20
4.307038314585919
 30
0.0
 10
19.0699326018583
 20
4.519544731189843
 30
0.0
 10
19.63029409905815
 20
4.669122037036333
 30
0.0
 10
20.19100077817826
 20
4.753740239785565
 30
0.0
 10
20.74903788726899
 20
4.773106604404402
 30
0.0
 10
21.3153995162404
 20
4.726303121615198
 30
0.0
 10
21.88501288287042
 20
4.61118795105883
 30
0.0
 10
22.45593994323328
 20
4.429669834111217
 30
0.0
 10
23.02397098403808
 20
4.18685680372402
 30
0.0
 10
23.58864459128245
 20
3.88409456076573
 30
0.0
 10
24.16415143717951
 20
3.524258433442214
 30
0.0
 10
24.73393737600406
 20
3.11095938047394
 30
0.0
 10
25.30339451588547
 20
2.659041215162312
 30
0.0
 10
25.86346213806548
 20
2.174814372145139
 30
0.0
 10
26.42376084169585
 20
1.659510407121875
 30
0.0
 10
26.98455296926342
 20
1.125582225651475
 30
0.0
 10
27.54262085765771
 20
0.5710066165317558
 30
0.0
 10
28.10899926749455
 20
0.0087215696899978
 30
0.0
 10
28.67871887284974
 20
-0.5638343710646562
 30
0.0
 10
29.24960373992307
 20
-1.125876443053581
 30
0.0
 10
29.8177189493626
 20
-1.668054598312213
 30
0.0
 10
30.38235557391743
 20
-2.188759312558908
 30
0.0
 10
30.95788214802929
 20
-2.680687057266416
 30
0.0
 10
31.52768992636044
 20
-3.136107751855797
 30
0.0
 10
32.09711034002698
 20
-3.540605708941261
 30
0.0
 10
32.66325706044118
 20
-3.895846609128661
 30
0.0
 10
33.23594309860928
 20
-4.199650367333494
 30
0.0
 10
33.88498758024419
 20
-4.470979853161409
 30
0.0
 10
34.60525072112121
 20
-4.686555731906314
 30
0.0
 10
35.1338643436486
 20
-4.733676480705254
 30
0.0
 10
35.4
 20
-4.757399878807287
 30
0.0
  0
SPLINE
  5
C8
330
1F
100
AcDbEntity
  8
0
  6
Continuous
 62
     1
370
    25
100
AcDbSpline
210
0.0
220
0.0
230
1.0
 70
     8
 71
     3
 72
    19
 73
    15
 74
     0
 42
0.000000001
 43
0.00000001
 40
0.0
 40
0.0
 40
0.0
 40
0.0
 40
0.0808992641455961
 40
0.1726489747893342
 40
0.2647758393253942
 40
0.3565176987862178
 40
0.4484220092899773
 40
0.5404492084066709
 40
0.632159522780224
 40
0.7242538289911324
 40
0.8160752800256384
 40
0.907867813035242
 40
0.9999798620506193
 40
0.9999999999999999
 40
0.9999999999999999
 40
0.9999999999999999
 40
0.9999999999999999
 10
28.56906049264232
 20
-0.4522724126961293
 30
0.0
 10
28.32218122102422
 20
-0.2802919969684747
 30
0.0
 10
27.79531050604601
 20
0.0867353520786723
 30
0.0
 10
26.98836507463831
 20
0.653424158538362
 30
0.0
 10
26.14604611399518
 20
1.218643173847088
 30
0.0
 10
25.30557867395239
 20
1.749708805734657
 30
0.0
 10
24.46438595616517
 20
2.224647476837758
 30
0.0
 10
23.62257548021184
 20
2.629849184500481
 30
0.0
 10
22.78217845953034
 20
2.955269111331945
 30
0.0
 10
21.94003926022651
 20
3.186021952524095
 30
0.0
 10
21.09921469023541
 20
3.322090744330498
 30
0.0
 10
20.25864690866552
 20
3.342001475729767
 30
0.0
 10
19.69636422017604
 20
3.317038713347022
 30
0.0
 10
19.41540981988137
 20
3.258368837797919
 30
0.0
 10
19.41534840979574
 20
3.258356013930139
 30
0.0
  0
LINE
  5
C9
330
1F
100
AcDbEntity
  8
0
  6
Continuous
 62
     1
370
    25
100
AcDbLine
 10
35.4
 20
-4.757399878807287
 30
0.0
 11
35.40000000000008
 21
-4.518255960992997
 31
0.0
  0
SPLINE
  5
CA
330
1F
100
AcDbEntity
  8
0
  6
Continuous
 62
     1
370
    25
100
AcDbSpline
210
0.0
220
0.0
230
1.0
 70
     8
 71
     3
 72
    12
 73
     8
 74
     0
 42
0.000000001
 43
0.00000001
 40
0.0
 40
0.0
 40
0.0
 40
0.0
 40
0.5
 40
0.5
 40
0.75
 40
0.75
 40
1.0
 40
1.0
 40
1.0
 40
1.0
 10
35.39999999999999
 20
-1.271669601742287
 30
0.0
 10
34.78938362090337
 20
-0.7903939652555699
 30
0.0
 10
34.19181258719783
 20
-0.2847985570084398
 30
0.0
 10
33.31724511838375
 20
0.5142148286475273
 30
0.0
 10
33.02766038289901
 20
0.7894395519477375
 30
0.0
 10
32.47906386536173
 20
1.336253749914707
 30
0.0
 10
32.21763535351241
 20
1.609792019811966
 30
0.0
 10
31.9724524703175
 20
1.883495868253487
 30
0.0
  0
LINE
  5
CB
330
1F
100
AcDbEntity
  8
0
  6
Continuous
 62
     1
370
    25
100
AcDbLine
 10
32.06456634281499
 20
1.960788584694848
 30
0.0
 11
35.39999999999999
 21
0.0010749287238964
 31
0.0
  0
LINE
  5
CC
330
1F
100
AcDbEntity
  8
0
  6
Continuous
 62
     1
370
    25
100
AcDbLine
 10
35.39999999999999
 20
0.0010749287238964
 30
0.0
 11
35.39999999999999
 21
-1.271669601742288
 31
0.0
  0
SPLINE
  5
CD
330
1F
100
AcDbEntity
  8
0
  6
Continuous
 62
     1
370
    25
100
AcDbSpline
210
0.0
220
0.0
230
1.0
 70
     8
 71
     3
 72
    29
 73
    25
 74
     0
 42
0.000000001
 43
0.00000001
 40
0.0
 40
0.0
 40
0.0
 40
0.0
 40
0.0037295865279305
 40
0.0527892844993548
 40
0.1017703227829518
 40
0.1506820488325184
 40
0.1997842750291813
 40
0.2486920399467143
 40
0.297681846094935
 40
0.3467337351134741
 40
0.3956255656355563
 40
0.4447113424280872
 40
0.4936593089511859
 40
0.5425926594141882
 40
0.5916874047741505
 40
0.6405827797867941
 40
0.6896142772950479
 40
0.7386257196873367
 40
0.7875259318588133
 40
0.8366256708185802
 40
0.8855480198655726
 40
0.9345104628417923
 40
0.9835856001837169
 40
1.0
 40
1.0
 40
1.0
 40
1.0
 10
29.57650882155882
 20
-3.576828375133669
 30
0.0
 10
29.55517676545313
 20
-3.583922360064029
 30
0.0
 10
29.25323874356087
 20
-3.684331986149493
 30
0.0
 10
28.6698533892332
 20
-3.773729636777451
 30
0.0
 10
27.82880557909267
 20
-3.830147654193569
 30
0.0
 10
26.98846978123077
 20
-3.755032467983784
 30
0.0
 10
26.14590857214607
 20
-3.567107198949012
 30
0.0
 10
25.30562549895073
 20
-3.266109261334613
 30
0.0
 10
24.46441783316483
 20
-2.864185582159801
 30
0.0
 10
23.62245066287969
 20
-2.374128721054221
 30
0.0
 10
22.78230338038275
 20
-1.807386559933193
 30
0.0
 10
21.93992699664072
 20
-1.18780449418969
 30
0.0
 10
21.09921205096072
 20
-0.5289477588766841
 30
0.0
 10
20.25866156178742
 20
0.1467766027424281
 30
0.0
 10
19.41618029270784
 20
0.8149962850034511
 30
0.0
 10
18.57600580247109
 20
1.461771424780115
 30
0.0
 10
17.73428846974103
 20
2.060330682569448
 30
0.0
 10
16.89281771344946
 20
2.595326424144381
 30
0.0
 10
16.0526045037878
 20
3.051201872676716
 30
0.0
 10
15.21006876798898
 20
3.409295655937351
 30
0.0
 10
14.36963123487924
 20
3.665269634799707
 30
0.0
 10
13.52877227847856
 20
3.798376111474349
 30
0.0
 10
12.87262021237612
 20
3.833792807594325
 30
0.0
 10
12.49810022878883
 20
3.784656421861562
 30
0.0
 10
12.40422995551237
 20
3.772340801444271
 30
0.0
  0
SPLINE
  5
CE
330
1F
100
AcDbEntity
  8
0
  6
Continuous
 62
     4
370
    25
100
AcDbSpline
210
0.0
220
0.0
230
1.0
 70
    24
 71
     3
 72
    11
 73
     7
 74
     0
 42
0.000000001
 43
0.00000001
 40
0.0
 40
0.0
 40
0.0
 40
0.0
 40
0.214842089125951
 40
0.4322617426069363
 40
0.761430781241219
 40
1.0
 40
1.0
 40
1.0
 40
1.0
 10
9.999999999999982
 20
-3.098039334988436
 30
0.0
 10
9.99999999999999
 20
-3.184589140844022
 30
0.0
 10
10.0
 20
-3.358727132396946
 30
0.0
 10
9.999999999999993
 20
-3.577932309519401
 30
0.0
 10
9.999999999999996
 20
-3.732990621217745
 30
0.0
 10
9.999999999999996
 20
-3.735049819235051
 30
0.0
 10
9.999999999999996
 20
-3.735915114564125
 30
0.0
  0
SPLINE
  5
CF
330
1F
100
AcDbEntity
  8
0
  6
Continuous
 62
     1
370
    25
100
AcDbSpline
210
0.0
220
0.0
230
1.0
 70
     8
 71
     3
 72
    14
 73
    10
 74
     0
 42
0.000000001
 43
0.00000001
 40
0.0
 40
0.0
 40
0.0
 40
0.0
 40
0.0728934201907709
 40
0.2398153024820953
 40
0.4071660658133844
 40
0.5738695685189004
 40
0.7411484298989033
 40
0.9081590853265595
 40
0.9999999999999999
 40
0.9999999999999999
 40
0.9999999999999999
 40
0.9999999999999999
 10
32.40255717801652
 20
2.244396569853763
 30
0.0
 10
32.28011797664923
 20
2.322007994860944
 30
0.0
 10
31.87729980685121
 20
2.577345271057515
 30
0.0
 10
31.19452249982314
 20
2.960725701086252
 30
0.0
 10
30.3520693927631
 20
3.341017870962259
 30
0.0
 10
29.51197385129566
 20
3.620121999966153
 30
0.0
 10
28.66986715199877
 20
3.779754170234155
 30
0.0
 10
27.954662839269
 20
3.833923130062305
 30
0.0
 10
27.52037746649969
 20
3.787345174583118
 30
0.0
 10
27.36629238272425
 20
3.770819248033178
 30
0.0
  0
SPLINE
  5
D0
330
1F
100
AcDbEntity
  8
0
  6
Continuous
 62
     1
370
    25
100
AcDbSpline
210
0.0
220
0.0
230
1.0
 70
     8
 71
     3
 72
    14
 73
    10
 74
     0
 42
0.000000001
 43
0.00000001
 40
0.0
 40
0.0
 40
0.0
 40
0.0
 40
0.0534206565867054
 40
0.2355616610708634
 40
0.4181218902448349
 40
0.5999952253729555
 40
0.7825246311568609
 40
0.9647036912984889
 40
1.0
 40
1.0
 40
1.0
 40
1.0
 10
14.61624545104718
 20
-3.568600332171005
 30
0.0
 10
14.53408541085947
 20
-3.594367870311649
 30
0.0
 10
14.1717956754487
 20
-3.707991409855097
 30
0.0
 10
13.52878792455101
 20
-3.7961745386133
 30
0.0
 10
12.68648560924335
 20
-3.824066068315321
 30
0.0
 10
11.84640883694784
 20
-3.724446118913605
 30
0.0
 10
11.00407139444496
 20
-3.511401801650493
 30
0.0
 10
10.38921390583361
 20
-3.275853155640908
 30
0.0
 10
10.05434870830731
 20
-3.122868744541404
 30
0.0
 10
9.999999999999991
 20
-3.098039334988445
 30
0.0
  0
SPLINE
  5
D1
330
1F
100
AcDbEntity
  8
0
  6
Continuous
 62
     1
370
    25
100
AcDbSpline
210
0.0
220
0.0
230
1.0
 70
    24
 71
     3
 72
     8
 73
     4
 74
     0
 42
0.000000001
 43
0.00000001
 40
0.0
 40
0.0
 40
0.0
 40
0.0
 40
0.0005831513216579
 40
0.0005831513216579
 40
0.0005831513216579
 40
0.0005831513216579
 10
32.40255717801653
 20
2.24439656985376
 30
0.0
 10
32.25921646898479
 20
2.124119433772536
 30
0.0
 10
32.1158448980642
 20
2.003816401491608
 30
0.0
 10
31.97245247030942
 20
1.883495868248965
 30
0.0
  0
SPLINE
  5
D2
330
1F
100
AcDbEntity
  8
0
  6
Continuous
 62
     1
370
    25
100
AcDbSpline
210
0.0
220
0.0
230
1.0
 70
    24
 71
     3
 72
    10
 73
     6
 74
     0
 42
0.000000001
 43
0.00000001
 40
0.0
 40
0.0
 40
0.0
 40
0.0
 40
0.5
 40
0.5
 40
1.0
 40
1.0
 40
1.0
 40
1.0
 10
35.39999999999999
 20
-3.756405480329732
 30
0.0
 10
35.4
 20
-3.468365311406724
 30
0.0
 10
35.39999999999998
 20
-3.10441551338066
 30
0.0
 10
35.39999999999998
 20
-2.258267259231217
 30
0.0
 10
35.39999999999999
 20
-1.776801768807967
 30
0.0
 10
35.39999999999999
 20
-1.27166960174244
 30
0.0
  0
SPLINE
  5
D3
330
1F
100
AcDbEntity
  8
0
  6
Continuous
 62
     1
370
    25
100
AcDbSpline
210
0.0
220
0.0
230
1.0
 70
    24
 71
     3
 72
     8
 73
     4
 74
     0
 42
0.000000001
 43
0.00000001
 40
0.0
 40
0.0
 40
0.0
 40
0.0
 40
1.0
 40
1.0
 40
1.0
 40
1.0
 10
32.90703125721527
 20
2.667700583647912
 30
0.0
 10
32.75498392913885
 20
2.540117726737501
 30
0.0
 10
32.58535350085763
 20
2.397780896930294
 30
0.0
 10
32.40255717801653
 20
2.24439656985376
 30
0.0
  0
SPLINE
  5
D4
330
1F
100
AcDbEntity
  8
0
  6
Continuous
 62
     4
370
    25
100
AcDbSpline
210
0.0
220
0.0
230
1.0
 70
    24
 71
     3
 72
    14
 73
    10
 74
     0
 42
0.000000001
 43
0.00000001
 40
0.0
 40
0.0
 40
0.0
 40
0.0
 40
0.25
 40
0.25
 40
0.5
 40
0.5
 40
0.75
 40
0.75
 40
1.0
 40
1.0
 40
1.0
 40
1.0
 10
9.999999999999995
 20
1.940259471588662
 30
0.0
 10
9.999999999999995
 20
1.552714489017934
 30
0.0
 10
9.999999999999995
 20
1.132289085418874
 30
0.0
 10
9.999999999999995
 20
0.2582546597699076
 30
0.0
 10
9.999999999999995
 20
-0.1949939876753621
 30
0.0
 10
9.999999999999995
 20
-1.090444945351652
 30
0.0
 10
9.999999999999995
 20
-1.53217012187521
 30
0.0
 10
9.999999999999995
 20
-2.36229640000454
 30
0.0
 10
9.999999999999995
 20
-2.750398798368037
 30
0.0
 10
9.999999999999995
 20
-3.098039334988445
 30
0.0
  0
SPLINE
  5
D5
330
1F
100
AcDbEntity
  8
0
  6
Continuous
 62
     1
370
    25
100
AcDbSpline
210
0.0
220
0.0
230
1.0
 70
     8
 71
     3
 72
     8
 73
     4
 74
     0
 42
0.000000001
 43
0.00000001
 40
0.0
 40
0.0
 40
0.0
 40
0.0
 40
1.0
 40
1.0
 40
1.0
 40
1.0
 10
35.39999999999999
 20
3.334824928723896
 30
0.0
 10
34.57811572199099
 20
3.058342897704493
 30
0.0
 10
33.74636506187059
 20
2.832062543942791
 30
0.0
 10
32.90703125720803
 20
2.667700583641855
 30
0.0
  0
LINE
  5
D6
330
1F
100
AcDbEntity
  8
0
  6
Continuous
 62
     1
370
    25
100
AcDbLine
 10
35.39999999999999
 20
0.0010749287238964
 30
0.0
 11
35.39999999999999
 21
3.334824928723896
 31
0.0
  0
LINE
  5
D7
330
1F
100
AcDbEntity
  8
중심선
100
AcDbLine
 10
-31.09999999999999
 20
0.0010749287238931
 30
0.0
 11
33.25935371504374
 21
0.0010749287238931
 31
0.0
  0
CIRCLE
  5
D8
330
1F
100
AcDbEntity
  8
외형선
100
AcDbCircle
 10
0.0000000000000087
 20
0.0
 30
0.0
 40
3.000000000000003
  0
INSERT
  5
D9
330
1F
100
AcDbEntity
  8
0
  6
Continuous
 62
     7
100
AcDbBlockReference
 66
     1
  2
블럭10
 10
-16.6381869743017
 20
-52.04609937292004
 30
0.0
  0
ATTRIB
  5
DA
330
D9
100
AcDbEntity
  8
FORMAT
 62
     2
100
AcDbText
 10
-25.81948226304298
 20
-49.97073246008785
 30
0.0
 40
4.233333333333333
  1
E5254024 [ 2 FLUTE ]
 41
0.75
  7
SLDTEXTSTYLE0
 11
-25.81948226304298
 21
-52.08739912675452
 31
0.0
100
AcDbAttribute
  2
AUTOATTR0
 70
     0
 74
     1
  0
SEQEND
  5
DB
330
D9
100
AcDbEntity
  8
0
  6
Continuous
 62
     7
  0
HATCH
  5
DC
330
1F
100
AcDbEntity
  8
중심선
100
AcDbHatch
 10
0.0
 20
0.0
 30
0.0
210
0.0
220
0.0
230
1.0
  2
SOLID
 70
     1
 71
     0
 91
        1
 92
        0
 93
        4
 72
     1
 10
-10.92327766992085
 20
-35.7989250712761
 11
-14.36955291375813
 21
-35.7989250712761
 72
     1
 10
-14.36955291375813
 20
-35.7989250712761
 11
-16.49778277296215
 21
-38.3352506518487
 72
     1
 10
-16.49778277296215
 20
-38.3352506518487
 11
-13.05147444401172
 21
-38.33521122254621
 72
     1
 10
-13.05147444401172
 20
-38.33521122254621
 11
-10.92327766992085
 21
-35.7989250712761
 97
        0
 75
     0
 76
     1
 98
        1
 10
0.0
 20
0.0
  0
HATCH
  5
DD
330
1F
100
AcDbEntity
  8
중심선
100
AcDbHatch
 10
0.0
 20
0.0
 30
0.0
210
0.0
220
0.0
230
1.0
  2
SOLID
 70
     1
 71
     0
 91
        1
 92
        0
 93
        4
 72
     1
 10
-5.910513678884898
 20
-35.7989250712761
 11
-9.356788922722181
 21
-35.7989250712761
 72
     1
 10
-9.356788922722181
 20
-35.7989250712761
 11
-13.88792693107957
 21
-41.19892507127612
 72
     1
 10
-13.88792693107957
 20
-41.19892507127612
 11
-10.44165168724229
 21
-41.19892507127612
 72
     1
 10
-10.44165168724229
 20
-41.19892507127612
 11
-5.910513678884898
 21
-35.7989250712761
 97
        0
 75
     0
 76
     1
 98
        1
 10
0.0
 20
0.0
  0
HATCH
  5
DE
330
1F
100
AcDbEntity
  8
중심선
100
AcDbHatch
 10
0.0
 20
0.0
 30
0.0
210
0.0
220
0.0
230
1.0
  2
SOLID
 70
     1
 71
     0
 91
        1
 92
        0
 93
        4
 72
     1
 10
-0.8977496878490032
 20
-35.79892507127613
 11
-4.344024931686119
 21
-35.7989250712761
 72
     1
 10
-4.344024931686119
 20
-35.7989250712761
 11
-11.39246183357537
 21
-44.19892507127612
 72
     1
 10
-11.39246183357537
 20
-44.19892507127612
 11
-7.946186589738086
 21
-44.19892507127612
 72
     1
 10
-7.946186589738086
 20
-44.19892507127612
 11
-0.8977496878490028
 21
-35.79892507127613
 97
        0
 75
     0
 76
     1
 98
        1
 10
0.0
 20
0.0
  0
HATCH
  5
DF
330
1F
100
AcDbEntity
  8
중심선
100
AcDbHatch
 10
0.0
 20
0.0
 30
0.0
210
0.0
220
0.0
230
1.0
  2
SOLID
 70
     1
 71
     0
 91
        1
 92
        0
 93
        6
 72
     3
 10
3.902140743163196
 20
-39.99892507132738
 11
3.960054785062284
 21
1.540850780301639E-10
 40
0.3939339440162633
 50
17.09539180608433
 51
320.0019657685079
 73
     0
 72
     1
 10
5.585140398863792
 20
-38.58681907591441
 11
7.89044227256483
 21
-36.65249236586649
 72
     3
 10
3.902140743110349
 20
-39.99892507127625
 11
6.600054785286829
 21
-1.249000902703301E-13
 40
0.6363583540795982
 50
39.99873849337408
 51
368.4976242363724
 73
     1
 72
     1
 10
10.32747323501096
 20
-39.03892507120613
 11
2.582208049946273
 21
-39.0389250712061
 72
     1
 10
2.582208049946272
 20
-39.0389250712061
 11
2.582183005500338
 21
-40.95892507120602
 72
     1
 10
2.582183005500338
 20
-40.95892507120602
 11
7.023562774972376
 21
-40.95892507120599
 97
        0
 75
     0
 76
     1
 98
        1
 10
0.0
 20
0.0
  0
DIMENSION
  5
E0
330
1F
100
AcDbEntity
  8
치수문자_일반주서
100
AcDbDimension
  2
_D
 10
-28.10000000000001
 20
40.34973319790102
 30
0.0
 11
3.649999999999995
 21
40.34973319790102
 31
0.0
 70
   160
  1
<>
 71
     2
 42
63.50000000000001
  3
SLDDIMSTYLE0
100
AcDbAlignedDimension
 13
35.4
 23
4.759549736255077
 33
0.0
 14
-28.10000000000001
 24
3.763574928723889
 34
0.0
100
AcDbRotatedDimension
1001
ACAD
1000
DSTYLE
1002
{
1070
   273
1070
     7
1002
}
  0
DIMENSION
  5
F4
330
1F
100
AcDbEntity
  8
치수문자_일반주서
100
AcDbDimension
  2
_D_1
 10
-40.90999999999998
 20
-4.761425071276157
 30
0.0
 11
-40.91
 21
0.0010749287238966
 31
0.0
 70
   160
  1
%%c<>
 71
     2
 42
9.525000000000006
  3
SLDDIMSTYLE3
100
AcDbAlignedDimension
 13
-27.1
 23
4.763574928723896
 33
0.0
 14
-27.1
 24
-4.761425071276109
 34
0.0
 50
90.0000000000002
100
AcDbRotatedDimension
1001
ACAD
1000
DSTYLE
1002
{
1070
   171
1070
     4
1070
   273
1070
     7
1002
}
1001
PE_URL
1000

  0
DIMENSION
  5
109
330
1F
100
AcDbEntity
  8
치수문자_일반주서
100
AcDbDimension
  2
_D_2
 10
9.999999999999995
 20
24.99616724975558
 30
0.0
 11
22.7
 21
24.99616724975558
 31
0.0
 70
   160
  1
<>
 71
     2
 42
25.40000000000001
  3
SLDDIMSTYLE2
100
AcDbAlignedDimension
 13
35.4
 23
4.759549736255077
 33
0.0
 14
9.999999999999995
 24
3.851926300573034
 34
0.0
100
AcDbRotatedDimension
1001
ACAD
1000
DSTYLE
1002
{
1070
   273
1070
     7
1002
}
  0
DIMENSION
  5
11F
330
1F
100
AcDbEntity
  8
치수문자_일반주서
100
AcDbDimension
  2
_D_3
 10
55.60935371504381
 20
-4.761425071275987
 30
0.0
 11
55.60935371504372
 21
21.19057492872401
 31
0.0
 70
   160
  1
%%c<>
 71
     2
 42
9.525000000000007
  3
SLDDIMSTYLE3
100
AcDbAlignedDimension
 13
20.63352368148686
 23
4.763574928723896
 33
0.0
 14
21.30019249910627
 24
-4.761425071276109
 34
0.0
 50
90.0000000000002
100
AcDbRotatedDimension
1001
ACAD
1000
DSTYLE
1002
{
1070
   171
1070
     4
1070
   273
1070
     7
1002
}
  0
INSERT
  5
139
330
1F
100
AcDbEntity
  8
외형선
100
AcDbBlockReference
  2
SW_DOWELSYMBOL_0
 10
0.0000000000000087
 20
0.0
 30
0.0
  0
ENDSEC
  0
SECTION
  2
OBJECTS
  0
DICTIONARY
  5
C
330
0
100
AcDbDictionary
281
     1
  3
ACAD_GROUP
350
D
  3
ACAD_IMAGE_VARS
350
15D
  3
ACAD_LAYOUT
350
1A
  3
ACAD_MLINESTYLE
350
17
  3
ACAD_PLOTSETTINGS
350
19
  3
ACAD_PLOTSTYLENAME
350
E
  3
ACAD_SCALELIST
350
47
  3
APPDATA
350
15B
  3
DWGPROPS
350
186
  0
DICTIONARY
  5
183
330
1F
100
AcDbDictionary
280
     1
281
     1
  3
DIM_BOUNDING_BOXES_V1
360
184
  0
DICTIONARY
  5
D
102
{ACAD_REACTORS
330
C
102
}
330
C
100
AcDbDictionary
281
     1
  0
RASTERVARIABLES
  5
15D
102
{ACAD_REACTORS
330
C
102
}
330
C
100
AcDbRasterVariables
 90
        0
 70
     1
 71
     1
 72
     1
  0
DICTIONARY
  5
1A
102
{ACAD_REACTORS
330
C
102
}
330
C
100
AcDbDictionary
281
     1
  3
Layout1
350
1E
  3
Layout2
350
26
  3
Model
350
22
  0
DICTIONARY
  5
17
102
{ACAD_REACTORS
330
C
102
}
330
C
100
AcDbDictionary
281
     1
  3
Standard
350
18
  0
DICTIONARY
  5
19
102
{ACAD_REACTORS
330
C
102
}
330
C
100
AcDbDictionary
281
     1
  0
ACDBDICTIONARYWDFLT
  5
E
102
{ACAD_REACTORS
330
C
102
}
330
C
100
AcDbDictionary
281
     1
  3
Normal
350
F
100
AcDbDictionaryWithDefault
340
F
  0
DICTIONARY
  5
47
102
{ACAD_REACTORS
330
C
102
}
330
C
100
AcDbDictionary
281
     1
  3
A0
350
48
  3
A1
350
49
  3
A2
350
4A
  3
A3
350
4B
  3
A4
350
4C
  3
A5
350
4D
  3
A6
350
4E
  3
A7
350
4F
  3
A8
350
50
  3
A9
350
51
  3
B0
350
52
  3
B1
350
53
  3
B2
350
54
  3
B3
350
55
  3
B4
350
56
  3
B5
350
57
  3
B6
350
58
  3
B7
350
59
  3
B8
350
5A
  3
B9
350
5B
  3
C0
350
5C
  3
C1
350
5D
  3
C2
350
5E
  3
C3
350
5F
  3
C4
350
60
  3
C5
350
61
  3
C6
350
62
  3
C7
350
63
  3
C8
350
64
  3
C9
350
65
  3
D0
350
66
  3
D1
350
67
  3
D2
350
68
  0
DICTIONARY
  5
15B
102
{ACAD_REACTORS
330
C
102
}
330
C
100
AcDbDictionary
281
     1
  0
XRECORD
  5
186
102
{ACAD_REACTORS
330
C
102
}
330
C
100
AcDbXrecord
280
     1
  1
DWGPROPS COOKIE
  2

  3

  4

  6

  7

  8
12016016
  9

300
=
301
=
302
=
303
=
304
=
305
=
306
=
307
=
308
=
309
=
 40
0.0
 41
2458263.246511401
 42
2459730.976516817
  1

 90
        0
  0
DICTIONARY
  5
184
102
{ACAD_REACTORS
330
183
102
}
330
183
100
AcDbDictionary
281
     1
  0
LAYOUT
  5
1E
102
{ACAD_REACTORS
330
1A
102
}
330
1A
100
AcDbPlotSettings
  1

  2
none_device
  4

  6

 40
0.0
 41
0.0
 42
0.0
 43
0.0
 44
0.0
 45
0.0
 46
0.0
 47
0.0
 48
0.0
 49
0.0
140
0.0
141
0.0
142
1.0
143
1.0
 70
   688
 72
     1
 73
     0
 74
     5
  7

 75
    16
147
1.0
148
0.0
149
0.0
100
AcDbLayout
  1
Layout1
 70
     1
 71
     1
 10
0.0
 20
0.0
 11
420.0
 21
297.0
 12
0.0
 22
0.0
 32
0.0
 14
1.000000000000000E+20
 24
1.000000000000000E+20
 34
1.000000000000000E+20
 15
-1.000000000000000E+20
 25
-1.000000000000000E+20
 35
-1.000000000000000E+20
146
0.0
 13
0.0
 23
0.0
 33
0.0
 16
1.0
 26
0.0
 36
0.0
 17
0.0
 27
1.0
 37
0.0
 76
     0
330
1B
  0
LAYOUT
  5
26
102
{ACAD_REACTORS
330
1A
102
}
330
1A
100
AcDbPlotSettings
  1

  2
none_device
  4

  6

 40
0.0
 41
0.0
 42
0.0
 43
0.0
 44
0.0
 45
0.0
 46
0.0
 47
0.0
 48
0.0
 49
0.0
140
0.0
141
0.0
142
1.0
143
1.0
 70
   688
 72
     1
 73
     0
 74
     5
  7

 75
    16
147
1.0
148
0.0
149
0.0
100
AcDbLayout
  1
Layout2
 70
     1
 71
     2
 10
0.0
 20
0.0
 11
0.0
 21
0.0
 12
0.0
 22
0.0
 32
0.0
 14
0.0
 24
0.0
 34
0.0
 15
0.0
 25
0.0
 35
0.0
146
0.0
 13
0.0
 23
0.0
 33
0.0
 16
1.0
 26
0.0
 36
0.0
 17
0.0
 27
1.0
 37
0.0
 76
     0
330
23
  0
LAYOUT
  5
22
102
{ACAD_REACTORS
330
1A
102
}
330
1A
100
AcDbPlotSettings
  1

  2
none_device
  4
ANSI_A_(11.00_x_8.50_Inches)
  6

 40
6.35
 41
19.05
 42
6.35000508
 43
19.05000254
 44
279.4
 45
215.9
 46
128.2020399913679
 47
88.45102091978531
 48
0.0
 49
0.0
140
0.0
141
0.0
142
0.0826155701825243
143
1.0
 70
  1696
 72
     0
 73
     0
 74
     0
  7

 75
     0
147
0.0235690232323232
148
0.0
149
0.0
100
AcDbLayout
  1
Model
 70
     1
 71
     0
 10
0.0
 20
0.0
 11
420.0
 21
297.0
 12
0.0
 22
0.0
 32
0.0
 14
-45.28500000000005
 24
-49.97073246008785
 34
0.0
 15
56.15968704837714
 25
44.72473319790102
 35
0.0
146
0.0
 13
0.0
 23
0.0
 33
0.0
 16
1.0
 26
0.0
 36
0.0
 17
0.0
 27
1.0
 37
0.0
 76
     0
330
1F
331
29
  0
MLINESTYLE
  5
18
102
{ACAD_REACTORS
330
17
102
}
330
17
100
AcDbMlineStyle
  2
Standard
 70
     0
  3

 62
   256
 51
90.0
 52
90.0
 71
     2
 49
0.5
 62
   256
  6
BYLAYER
 49
-0.5
 62
   256
  6
BYLAYER
  0
ACDBPLACEHOLDER
  5
F
102
{ACAD_REACTORS
330
E
102
}
330
E
  0
SCALE
  5
48
102
{ACAD_REACTORS
330
47
102
}
330
47
100
AcDbScale
 70
     0
300
1:1
140
1.0
141
1.0
290
     1
  0
SCALE
  5
49
102
{ACAD_REACTORS
330
47
102
}
330
47
100
AcDbScale
 70
     0
300
1:2
140
1.0
141
2.0
290
     0
  0
SCALE
  5
4A
102
{ACAD_REACTORS
330
47
102
}
330
47
100
AcDbScale
 70
     0
300
1:4
140
1.0
141
4.0
290
     0
  0
SCALE
  5
4B
102
{ACAD_REACTORS
330
47
102
}
330
47
100
AcDbScale
 70
     0
300
1:5
140
1.0
141
5.0
290
     0
  0
SCALE
  5
4C
102
{ACAD_REACTORS
330
47
102
}
330
47
100
AcDbScale
 70
     0
300
1:8
140
1.0
141
8.0
290
     0
  0
SCALE
  5
4D
102
{ACAD_REACTORS
330
47
102
}
330
47
100
AcDbScale
 70
     0
300
1:10
140
1.0
141
10.0
290
     0
  0
SCALE
  5
4E
102
{ACAD_REACTORS
330
47
102
}
330
47
100
AcDbScale
 70
     0
300
1:16
140
1.0
141
16.0
290
     0
  0
SCALE
  5
4F
102
{ACAD_REACTORS
330
47
102
}
330
47
100
AcDbScale
 70
     0
300
1:20
140
1.0
141
20.0
290
     0
  0
SCALE
  5
50
102
{ACAD_REACTORS
330
47
102
}
330
47
100
AcDbScale
 70
     0
300
1:30
140
1.0
141
30.0
290
     0
  0
SCALE
  5
51
102
{ACAD_REACTORS
330
47
102
}
330
47
100
AcDbScale
 70
     0
300
1:40
140
1.0
141
40.0
290
     0
  0
SCALE
  5
52
102
{ACAD_REACTORS
330
47
102
}
330
47
100
AcDbScale
 70
     0
300
1:50
140
1.0
141
50.0
290
     0
  0
SCALE
  5
53
102
{ACAD_REACTORS
330
47
102
}
330
47
100
AcDbScale
 70
     0
300
1:100
140
1.0
141
100.0
290
     0
  0
SCALE
  5
54
102
{ACAD_REACTORS
330
47
102
}
330
47
100
AcDbScale
 70
     0
300
2:1
140
2.0
141
1.0
290
     0
  0
SCALE
  5
55
102
{ACAD_REACTORS
330
47
102
}
330
47
100
AcDbScale
 70
     0
300
4:1
140
4.0
141
1.0
290
     0
  0
SCALE
  5
56
102
{ACAD_REACTORS
330
47
102
}
330
47
100
AcDbScale
 70
     0
300
8:1
140
8.0
141
1.0
290
     0
  0
SCALE
  5
57
102
{ACAD_REACTORS
330
47
102
}
330
47
100
AcDbScale
 70
     0
300
10:1
140
10.0
141
1.0
290
     0
  0
SCALE
  5
58
102
{ACAD_REACTORS
330
47
102
}
330
47
100
AcDbScale
 70
     0
300
100:1
140
100.0
141
1.0
290
     0
  0
SCALE
  5
59
102
{ACAD_REACTORS
330
47
102
}
330
47
100
AcDbScale
 70
     0
300
1/128" = 1'-0"
140
0.0078125
141
12.0
290
     0
  0
SCALE
  5
5A
102
{ACAD_REACTORS
330
47
102
}
330
47
100
AcDbScale
 70
     0
300
1/64" = 1'-0"
140
0.015625
141
12.0
290
     0
  0
SCALE
  5
5B
102
{ACAD_REACTORS
330
47
102
}
330
47
100
AcDbScale
 70
     0
300
1/32" = 1'-0"
140
0.03125
141
12.0
290
     0
  0
SCALE
  5
5C
102
{ACAD_REACTORS
330
47
102
}
330
47
100
AcDbScale
 70
     0
300
1/16" = 1'-0"
140
0.0625
141
12.0
290
     0
  0
SCALE
  5
5D
102
{ACAD_REACTORS
330
47
102
}
330
47
100
AcDbScale
 70
     0
300
3/32" = 1'-0"
140
0.09375
141
12.0
290
     0
  0
SCALE
  5
5E
102
{ACAD_REACTORS
330
47
102
}
330
47
100
AcDbScale
 70
     0
300
1/8" = 1'-0"
140
0.125
141
12.0
290
     0
  0
SCALE
  5
5F
102
{ACAD_REACTORS
330
47
102
}
330
47
100
AcDbScale
 70
     0
300
3/16" = 1'-0"
140
0.1875
141
12.0
290
     0
  0
SCALE
  5
60
102
{ACAD_REACTORS
330
47
102
}
330
47
100
AcDbScale
 70
     0
300
1/4" = 1'-0"
140
0.25
141
12.0
290
     0
  0
SCALE
  5
61
102
{ACAD_REACTORS
330
47
102
}
330
47
100
AcDbScale
 70
     0
300
3/8" = 1'-0"
140
0.375
141
12.0
290
     0
  0
SCALE
  5
62
102
{ACAD_REACTORS
330
47
102
}
330
47
100
AcDbScale
 70
     0
300
1/2" = 1'-0"
140
0.5
141
12.0
290
     0
  0
SCALE
  5
63
102
{ACAD_REACTORS
330
47
102
}
330
47
100
AcDbScale
 70
     0
300
3/4" = 1'-0"
140
0.75
141
12.0
290
     0
  0
SCALE
  5
64
102
{ACAD_REACTORS
330
47
102
}
330
47
100
AcDbScale
 70
     0
300
1" = 1'-0"
140
1.0
141
12.0
290
     0
  0
SCALE
  5
65
102
{ACAD_REACTORS
330
47
102
}
330
47
100
AcDbScale
 70
     0
300
1-1/2" = 1'-0"
140
1.5
141
12.0
290
     0
  0
SCALE
  5
66
102
{ACAD_REACTORS
330
47
102
}
330
47
100
AcDbScale
 70
     0
300
3" = 1'-0"
140
3.0
141
12.0
290
     0
  0
SCALE
  5
67
102
{ACAD_REACTORS
330
47
102
}
330
47
100
AcDbScale
 70
     0
300
6" = 1'-0"
140
6.0
141
12.0
290
     0
  0
SCALE
  5
68
102
{ACAD_REACTORS
330
47
102
}
330
47
100
AcDbScale
 70
     0
300
1'-0" = 1'-0"
140
12.0
141
12.0
290
     0
  0
ENDSEC
  0
EOF
