  0
SECTION
  2
HEADER
  9
$ACADVER
  1
AC1015
  9
$ACADMAINTVER
 70
     6
  9
$DWGCODEPAGE
  3
ANSI_949
  9
$INSBASE
 10
0.0
 20
0.0
 30
0.0
  9
$EXTMIN
 10
-64.33500000000002
 20
-49.97073246008785
 30
0.0
  9
$EXTMAX
 10
62.50968704837719
 20
47.89704973625513
 30
0.0
  9
$LIMMIN
 10
0.0
 20
0.0
  9
$LIMMAX
 10
420.0
 20
297.0
  9
$ORTHOMODE
 70
     0
  9
$REGENMODE
 70
     1
  9
$FILLMODE
 70
     1
  9
$QTEXTMODE
 70
     0
  9
$MIRRTEXT
 70
     1
  9
$LTSCALE
 40
1.0
  9
$ATTMODE
 70
     1
  9
$TEXTSIZE
 40
3.5
  9
$TRACEWID
 40
1.0
  9
$TEXTSTYLE
  7
Standard
  9
$CLAYER
  8
0
  9
$CELTYPE
  6
ByLayer
  9
$CECOLOR
 62
   256
  9
$CELTSCALE
 40
1.0
  9
$DISPSILH
 70
     0
  9
$DIMSCALE
 40
1.0
  9
$DIMASZ
 40
3.302
  9
$DIMEXO
 40
1.0
  9
$DIMDLI
 40
3.75
  9
$DIMRND
 40
0.0
  9
$DIMDLE
 40
0.0
  9
$DIMEXE
 40
1.0
  9
$DIMTP
 40
0.0
  9
$DIMTM
 40
0.0
  9
$DIMTXT
 40
3.5
  9
$DIMCEN
 40
2.5
  9
$DIMTSZ
 40
0.0
  9
$DIMTOL
 70
     0
  9
$DIMLIM
 70
     0
  9
$DIMTIH
 70
     1
  9
$DIMTOH
 70
     1
  9
$DIMSE1
 70
     0
  9
$DIMSE2
 70
     0
  9
$DIMTAD
 70
     1
  9
$DIMZIN
 70
     0
  9
$DIMBLK
  1

  9
$DIMASO
 70
     1
  9
$DIMSHO
 70
     1
  9
$DIMPOST
  1

  9
$DIMAPOST
  1

  9
$DIMALT
 70
     0
  9
$DIMALTD
 70
     3
  9
$DIMALTF
 40
0.0393700787401575
  9
$DIMLFAC
 40
1.0
  9
$DIMTOFL
 70
     1
  9
$DIMTVP
 40
0.0
  9
$DIMTIX
 70
     0
  9
$DIMSOXD
 70
     0
  9
$DIMSAH
 70
     0
  9
$DIMBLK1
  1

  9
$DIMBLK2
  1

  9
$DIMSTYLE
  2
ISO-25
  9
$DIMCLRD
 70
     0
  9
$DIMCLRE
 70
     0
  9
$DIMCLRT
 70
     0
  9
$DIMTFAC
 40
1.0
  9
$DIMGAP
 40
1.524
  9
$DIMJUST
 70
     0
  9
$DIMSD1
 70
     0
  9
$DIMSD2
 70
     0
  9
$DIMTOLJ
 70
     0
  9
$DIMTZIN
 70
     0
  9
$DIMALTZ
 70
     0
  9
$DIMALTTZ
 70
     0
  9
$DIMUPT
 70
     0
  9
$DIMDEC
 70
     2
  9
$DIMTDEC
 70
     2
  9
$DIMALTU
 70
     2
  9
$DIMALTTD
 70
     3
  9
$DIMTXSTY
  7
Standard
  9
$DIMAUNIT
 70
     0
  9
$DIMADEC
 70
     2
  9
$DIMALTRND
 40
0.0
  9
$DIMAZIN
 70
     0
  9
$DIMDSEP
 70
    44
  9
$DIMATFIT
 70
     3
  9
$DIMFRAC
 70
     0
  9
$DIMLDRBLK
  1

  9
$DIMLUNIT
 70
     2
  9
$DIMLWD
 70
    -2
  9
$DIMLWE
 70
    -2
  9
$DIMTMOVE
 70
     0
  9
$LUNITS
 70
     2
  9
$LUPREC
 70
     2
  9
$SKETCHINC
 40
1.0
  9
$FILLETRAD
 40
10.0
  9
$AUNITS
 70
     0
  9
$AUPREC
 70
     2
  9
$MENU
  1
.
  9
$ELEVATION
 40
0.0
  9
$PELEVATION
 40
0.0
  9
$THICKNESS
 40
0.0
  9
$LIMCHECK
 70
     0
  9
$CHAMFERA
 40
0.0
  9
$CHAMFERB
 40
0.0
  9
$CHAMFERC
 40
0.0
  9
$CHAMFERD
 40
0.0
  9
$SKPOLY
 70
     0
  9
$TDCREATE
 40
2458263.62226794
  9
$TDUCREATE
 40
2458263.24726794
  9
$TDUPDATE
 40
2459731.350418217
  9
$TDUUPDATE
 40
2459730.975418217
  9
$TDINDWG
 40
0.0011383102
  9
$TDUSRTIMER
 40
0.0005364931
  9
$USRTIMER
 70
     1
  9
$ANGBASE
 50
0.0
  9
$ANGDIR
 70
     0
  9
$PDMODE
 70
     0
  9
$PDSIZE
 40
-1.0
  9
$PLINEWID
 40
0.0
  9
$SPLFRAME
 70
     0
  9
$SPLINETYPE
 70
     6
  9
$SPLINESEGS
 70
     8
  9
$HANDSEED
  5
181
  9
$SURFTAB1
 70
     6
  9
$SURFTAB2
 70
     6
  9
$SURFTYPE
 70
     6
  9
$SURFU
 70
     6
  9
$SURFV
 70
     6
  9
$UCSBASE
  2

  9
$UCSNAME
  2

  9
$UCSORG
 10
0.0
 20
0.0
 30
0.0
  9
$UCSXDIR
 10
1.0
 20
0.0
 30
0.0
  9
$UCSYDIR
 10
0.0
 20
1.0
 30
0.0
  9
$UCSORTHOREF
  2

  9
$UCSORTHOVIEW
 70
     0
  9
$UCSORGTOP
 10
0.0
 20
0.0
 30
0.0
  9
$UCSORGBOTTOM
 10
0.0
 20
0.0
 30
0.0
  9
$UCSORGLEFT
 10
0.0
 20
0.0
 30
0.0
  9
$UCSORGRIGHT
 10
0.0
 20
0.0
 30
0.0
  9
$UCSORGFRONT
 10
0.0
 20
0.0
 30
0.0
  9
$UCSORGBACK
 10
0.0
 20
0.0
 30
0.0
  9
$PUCSBASE
  2

  9
$PUCSNAME
  2

  9
$PUCSORG
 10
0.0
 20
0.0
 30
0.0
  9
$PUCSXDIR
 10
1.0
 20
0.0
 30
0.0
  9
$PUCSYDIR
 10
0.0
 20
1.0
 30
0.0
  9
$PUCSORTHOREF
  2

  9
$PUCSORTHOVIEW
 70
     0
  9
$PUCSORGTOP
 10
0.0
 20
0.0
 30
0.0
  9
$PUCSORGBOTTOM
 10
0.0
 20
0.0
 30
0.0
  9
$PUCSORGLEFT
 10
0.0
 20
0.0
 30
0.0
  9
$PUCSORGRIGHT
 10
0.0
 20
0.0
 30
0.0
  9
$PUCSORGFRONT
 10
0.0
 20
0.0
 30
0.0
  9
$PUCSORGBACK
 10
0.0
 20
0.0
 30
0.0
  9
$USERI1
 70
     0
  9
$USERI2
 70
     0
  9
$USERI3
 70
     0
  9
$USERI4
 70
     0
  9
$USERI5
 70
     0
  9
$USERR1
 40
0.0
  9
$USERR2
 40
0.0
  9
$USERR3
 40
0.0
  9
$USERR4
 40
0.0
  9
$USERR5
 40
0.0
  9
$WORLDVIEW
 70
     1
  9
$SHADEDGE
 70
     3
  9
$SHADEDIF
 70
    70
  9
$TILEMODE
 70
     1
  9
$MAXACTVP
 70
    64
  9
$PINSBASE
 10
0.0
 20
0.0
 30
0.0
  9
$PLIMCHECK
 70
     0
  9
$PEXTMIN
 10
1.000000000000000E+20
 20
1.000000000000000E+20
 30
1.000000000000000E+20
  9
$PEXTMAX
 10
-1.000000000000000E+20
 20
-1.000000000000000E+20
 30
-1.000000000000000E+20
  9
$PLIMMIN
 10
0.0
 20
0.0
  9
$PLIMMAX
 10
0.0
 20
0.0
  9
$UNITMODE
 70
     0
  9
$VISRETAIN
 70
     1
  9
$PLINEGEN
 70
     0
  9
$PSLTSCALE
 70
     1
  9
$TREEDEPTH
 70
  3020
  9
$CMLSTYLE
  2
Standard
  9
$CMLJUST
 70
     0
  9
$CMLSCALE
 40
20.0
  9
$PROXYGRAPHICS
 70
     1
  9
$MEASUREMENT
 70
     1
  9
$CELWEIGHT
370
    -1
  9
$ENDCAPS
280
     0
  9
$JOINSTYLE
280
     0
  9
$LWDISPLAY
290
     1
  9
$INSUNITS
 70
     4
  9
$HYPERLINKBASE
  1

  9
$STYLESHEET
  1

  9
$XEDIT
290
     1
  9
$CEPSNTYPE
380
     0
  9
$PSTYLEMODE
290
     1
  9
$FINGERPRINTGUID
  2
{C633FEF2-1FF6-408F-9927-EBF97B28839B}
  9
$VERSIONGUID
  2
{FAEB1C32-E019-11D5-929B-00C0DF256EC4}
  9
$EXTNAMES
290
     1
  9
$PSVPSCALE
 40
0.0
  9
$OLESTARTUP
290
     0
  0
ENDSEC
  0
SECTION
  2
CLASSES
  0
CLASS
  1
ACDBDICTIONARYWDFLT
  2
AcDbDictionaryWithDefault
  3
ObjectDBX Classes
 90
        0
280
     0
281
     0
  0
CLASS
  1
VISUALSTYLE
  2
AcDbVisualStyle
  3
ObjectDBX Classes
 90
     4095
280
     0
281
     0
  0
CLASS
  1
MATERIAL
  2
AcDbMaterial
  3
ObjectDBX Classes
 90
     1153
280
     0
281
     0
  0
CLASS
  1
SCALE
  2
AcDbScale
  3
ObjectDBX Classes
 90
     1153
280
     0
281
     0
  0
CLASS
  1
TABLESTYLE
  2
AcDbTableStyle
  3
ObjectDBX Classes
 90
     4095
280
     0
281
     0
  0
CLASS
  1
MLEADERSTYLE
  2
AcDbMLeaderStyle
  3
ACDB_MLEADERSTYLE_CLASS
 90
     4095
280
     0
281
     0
  0
CLASS
  1
SUN
  2
AcDbSun
  3
SCENEOE
 90
     1153
280
     0
281
     0
  0
CLASS
  1
ACDBPLACEHOLDER
  2
AcDbPlaceHolder
  3
ObjectDBX Classes
 90
        0
280
     0
281
     0
  0
CLASS
  1
LAYOUT
  2
AcDbLayout
  3
ObjectDBX Classes
 90
        0
280
     0
281
     0
  0
CLASS
  1
RASTERVARIABLES
  2
AcDbRasterVariables
  3
ISM
 90
        0
280
     0
281
     0
  0
ENDSEC
  0
SECTION
  2
TABLES
  0
TABLE
  2
VPORT
  5
8
330
0
100
AcDbSymbolTable
 70
     1
  0
VPORT
  5
29
330
8
100
AcDbSymbolTableRecord
100
AcDbViewportTableRecord
  2
*Active
 70
     0
 10
0.0
 20
0.0
 11
1.0
 21
1.0
 12
4.067490249969687
 22
0.9890728448447934
 13
0.0
 23
0.0
 14
10.0
 24
10.0
 15
10.0
 25
10.0
 16
0.0
 26
0.0
 36
1.0
 17
0.0
 27
0.0
 37
0.0
 40
118.0648442721727
 41
1.531481481481481
 42
50.0
 43
0.0
 44
0.0
 50
0.0
 51
0.0
 71
    16
 72
  2000
 73
     1
 74
     3
 75
     0
 76
     0
 77
     0
 78
     0
281
     0
 65
     1
110
0.0
120
0.0
130
0.0
111
1.0
121
0.0
131
0.0
112
0.0
122
1.0
132
0.0
 79
     0
146
0.0
  0
ENDTAB
  0
TABLE
  2
LTYPE
  5
5
330
0
100
AcDbSymbolTable
 70
     6
  0
LTYPE
  5
14
330
5
100
AcDbSymbolTableRecord
100
AcDbLinetypeTableRecord
  2
ByBlock
 70
     0
  3

 72
    65
 73
     0
 40
0.0
  0
LTYPE
  5
15
330
5
100
AcDbSymbolTableRecord
100
AcDbLinetypeTableRecord
  2
ByLayer
 70
     0
  3

 72
    65
 73
     0
 40
0.0
  0
LTYPE
  5
16
330
5
100
AcDbSymbolTableRecord
100
AcDbLinetypeTableRecord
  2
Continuous
 70
     0
  3
Solid line
 72
    65
 73
     0
 40
0.0
  0
LTYPE
  5
6E
330
5
100
AcDbSymbolTableRecord
100
AcDbLinetypeTableRecord
  2
HIDDEN
 70
     0
  3
Hidden __ __ __ __ __ __ __ __ __ __ __ __ __ __
 72
    65
 73
     2
 40
1.905
 49
1.27
 74
     0
 49
-0.635
 74
     0
  0
LTYPE
  5
6F
330
5
100
AcDbSymbolTableRecord
100
AcDbLinetypeTableRecord
  2
PHANTOM
 70
     0
  3
Phantom ______  __  __  ______  __  __  ______
 72
    65
 73
     6
 40
12.7
 49
6.35
 74
     0
 49
-1.27
 74
     0
 49
1.27
 74
     0
 49
-1.27
 74
     0
 49
1.27
 74
     0
 49
-1.27
 74
     0
  0
LTYPE
  5
70
330
5
100
AcDbSymbolTableRecord
100
AcDbLinetypeTableRecord
  2
CENTER
 70
     0
  3
Center ____ _ ____ _ ____ _ ____ _ ____ _ ____
 72
    65
 73
     4
 40
10.16
 49
6.35
 74
     0
 49
-1.27
 74
     0
 49
1.27
 74
     0
 49
-1.27
 74
     0
  0
LTYPE
  5
71
330
5
100
AcDbSymbolTableRecord
100
AcDbLinetypeTableRecord
  2
CENTERX2
 70
     0
  3
Center (2x) ________  __  ________  __  _____
 72
    65
 73
     4
 40
20.32
 49
12.7
 74
     0
 49
-2.54
 74
     0
 49
2.54
 74
     0
 49
-2.54
 74
     0
  0
LTYPE
  5
72
330
5
100
AcDbSymbolTableRecord
100
AcDbLinetypeTableRecord
  2
DOT2
 70
     0
  3
Dot (.5x) ........................................
 72
    65
 73
     2
 40
0.635
 49
0.0
 74
     0
 49
-0.635
 74
     0
  0
ENDTAB
  0
TABLE
  2
LAYER
  5
2
330
0
100
AcDbSymbolTable
 70
    17
  0
LAYER
  5
10
330
2
100
AcDbSymbolTableRecord
100
AcDbLayerTableRecord
  2
0
 70
     0
 62
     7
  6
Continuous
370
    -3
390
F
  0
LAYER
  5
73
330
2
100
AcDbSymbolTableRecord
100
AcDbLayerTableRecord
  2
FORMAT
 70
     0
 62
     2
  6
Continuous
370
    -3
390
F
  0
LAYER
  5
74
330
2
100
AcDbSymbolTableRecord
100
AcDbLayerTableRecord
  2
외형선
 70
     0
 62
   100
  6
Continuous
370
    35
390
F
  0
LAYER
  5
75
330
2
100
AcDbSymbolTableRecord
100
AcDbLayerTableRecord
  2
숨은선
 70
     0
 62
     2
  6
HIDDEN
370
    25
390
F
  0
LAYER
  5
76
330
2
100
AcDbSymbolTableRecord
100
AcDbLayerTableRecord
  2
중심선
 70
     0
 62
     1
  6
CENTERX2
370
    -3
390
F
  0
LAYER
  5
77
330
2
100
AcDbSymbolTableRecord
100
AcDbLayerTableRecord
  2
파단선
 70
     0
 62
     4
  6
Continuous
370
    -3
390
F
  0
LAYER
  5
78
330
2
100
AcDbSymbolTableRecord
100
AcDbLayerTableRecord
  2
해칭선
 70
     0
 62
     4
  6
Continuous
370
    -3
390
F
  0
LAYER
  5
79
330
2
100
AcDbSymbolTableRecord
100
AcDbLayerTableRecord
  2
가는실선
 70
     0
 62
     4
  6
Continuous
370
    -3
390
F
  0
LAYER
  5
7A
330
2
100
AcDbSymbolTableRecord
100
AcDbLayerTableRecord
  2
치수_보조선
 70
     0
 62
     4
  6
Continuous
370
    -3
390
F
  0
LAYER
  5
7B
330
2
100
AcDbSymbolTableRecord
100
AcDbLayerTableRecord
  2
치수문자_일반주서
 70
     0
 62
     7
  6
Continuous
370
    25
390
F
  0
LAYER
  5
7C
330
2
100
AcDbSymbolTableRecord
100
AcDbLayerTableRecord
  2
개별주서
 70
     0
 62
   100
  6
Continuous
370
    35
390
F
  0
LAYER
  5
7D
330
2
100
AcDbSymbolTableRecord
100
AcDbLayerTableRecord
  2
중간선
 70
     0
 62
     2
  6
Continuous
370
    25
390
F
  0
LAYER
  5
7E
330
2
100
AcDbSymbolTableRecord
100
AcDbLayerTableRecord
  2
윤곽선
 70
     0
 62
     3
  6
Continuous
370
    50
390
F
  0
LAYER
  5
7F
330
2
100
AcDbSymbolTableRecord
100
AcDbLayerTableRecord
  2
중심마크
 70
     0
 62
   100
  6
Continuous
370
    35
390
F
  0
LAYER
  5
80
330
2
100
AcDbSymbolTableRecord
100
AcDbLayerTableRecord
  2
가상선
 70
     0
 62
     4
  6
PHANTOM
370
    -3
390
F
  0
LAYER
  5
81
330
2
100
AcDbSymbolTableRecord
100
AcDbLayerTableRecord
  2
특수지정선
 70
     0
 62
     5
  6
CENTERX2
370
    70
390
F
  0
LAYER
  5
158
330
2
100
AcDbSymbolTableRecord
100
AcDbLayerTableRecord
  2
Defpoints
 70
     0
 62
     7
  6
Continuous
290
     0
370
    -3
390
F
  0
ENDTAB
  0
TABLE
  2
STYLE
  5
3
330
0
100
AcDbSymbolTable
 70
     2
  0
STYLE
  5
11
330
3
100
AcDbSymbolTableRecord
100
AcDbTextStyleTableRecord
  2
Standard
 70
     0
 40
0.0
 41
1.0
 50
0.0
 71
     0
 42
3.5
  3
txt
  4

  0
STYLE
  5
97
330
3
100
AcDbSymbolTableRecord
100
AcDbTextStyleTableRecord
  2
SLDTEXTSTYLE0
 70
     0
 40
0.0
 41
0.75
 50
0.0
 71
     0
 42
3.5
  3
TXT
  4

  0
ENDTAB
  0
TABLE
  2
VIEW
  5
6
330
0
100
AcDbSymbolTable
 70
     0
  0
ENDTAB
  0
TABLE
  2
UCS
  5
7
330
0
100
AcDbSymbolTable
 70
     0
  0
ENDTAB
  0
TABLE
  2
APPID
  5
9
330
0
100
AcDbSymbolTable
 70
     2
  0
APPID
  5
12
330
9
100
AcDbSymbolTableRecord
100
AcDbRegAppTableRecord
  2
ACAD
 70
     0
  0
APPID
  5
17C
330
9
100
AcDbSymbolTableRecord
100
AcDbRegAppTableRecord
  2
PE_URL
 70
     0
  0
ENDTAB
  0
TABLE
  2
DIMSTYLE
  5
A
330
0
100
AcDbSymbolTable
 70
     4
100
AcDbDimStyleTable
  0
DIMSTYLE
105
27
330
A
100
AcDbSymbolTableRecord
100
AcDbDimStyleTableRecord
  2
ISO-25
 70
     0
 41
2.5
 42
0.625
 43
3.75
 44
1.25
 73
     0
 74
     0
 77
     1
 78
     8
140
2.5
141
2.5
143
0.03937007874016
147
0.625
171
     3
172
     1
178
     0
271
     2
272
     2
274
     3
278
    44
283
     0
284
     8
340
11
  0
DIMSTYLE
105
DE
102
{ACAD_REACTORS
330
DD
102
}
330
A
100
AcDbSymbolTableRecord
100
AcDbDimStyleTableRecord
  2
SLDDIMSTYLE0
 70
     0
 41
3.302
 44
0.0
 45
0.000000001
 73
     0
 74
     0
 77
     1
 78
     4
 79
     1
140
3.5
143
0.0393700787401575
147
0.875
148
0.000000001
170
     1
173
     1
178
     0
271
     2
272
     2
276
     2
284
    12
340
97
  0
DIMSTYLE
105
F2
330
A
100
AcDbSymbolTableRecord
100
AcDbDimStyleTableRecord
  2
SLDDIMSTYLE1
 70
     0
 41
3.302
 44
0.0
 45
0.000000001
 73
     0
 74
     0
 77
     1
 78
    12
 79
     3
140
3.5
143
0.0393700787401575
147
0.875
148
0.000000001
170
     1
172
     1
173
     1
178
     0
271
     2
272
     2
276
     2
284
    12
289
     0
340
97
  0
DIMSTYLE
105
107
102
{ACAD_REACTORS
330
106
330
11A
330
F1
102
}
330
A
100
AcDbSymbolTableRecord
100
AcDbDimStyleTableRecord
  2
SLDDIMSTYLE2
 70
     0
 41
3.302
 44
0.0
 45
0.000000001
 73
     0
 74
     0
 77
     1
 78
    12
 79
     3
140
3.5
143
0.0393700787401575
147
0.875
148
0.000000001
170
     1
173
     1
178
     0
271
     2
272
     2
276
     2
284
    12
340
97
  0
ENDTAB
  0
TABLE
  2
BLOCK_RECORD
  5
1
330
0
100
AcDbSymbolTable
 70
     7
  0
BLOCK_RECORD
  5
1F
102
{ACAD_XDICTIONARY
360
17D
102
}
330
1
100
AcDbSymbolTableRecord
100
AcDbBlockTableRecord
  2
*Model_Space
340
22
  0
BLOCK_RECORD
  5
1B
330
1
100
AcDbSymbolTableRecord
100
AcDbBlockTableRecord
  2
*Paper_Space
340
1E
  0
BLOCK_RECORD
  5
23
330
1
100
AcDbSymbolTableRecord
100
AcDbBlockTableRecord
  2
*Paper_Space0
340
26
  0
BLOCK_RECORD
  5
82
330
1
100
AcDbSymbolTableRecord
100
AcDbBlockTableRecord
  2
블럭10
340
0
102
{BLKREFS
331
D6
102
}
  0
BLOCK_RECORD
  5
DF
330
1
100
AcDbSymbolTableRecord
100
AcDbBlockTableRecord
  2
_D
340
0
  0
BLOCK_RECORD
  5
F3
330
1
100
AcDbSymbolTableRecord
100
AcDbBlockTableRecord
  2
_D_1
340
0
  0
BLOCK_RECORD
  5
108
330
1
100
AcDbSymbolTableRecord
100
AcDbBlockTableRecord
  2
_D_2
340
0
  0
BLOCK_RECORD
  5
11B
330
1
100
AcDbSymbolTableRecord
100
AcDbBlockTableRecord
  2
_D_3
340
0
  0
BLOCK_RECORD
  5
12D
330
1
100
AcDbSymbolTableRecord
100
AcDbBlockTableRecord
  2
SW_DOWELSYMBOL_0
340
0
102
{BLKREFS
331
133
102
}
  0
ENDTAB
  0
ENDSEC
  0
SECTION
  2
BLOCKS
  0
BLOCK
  5
20
330
1F
100
AcDbEntity
  8
0
100
AcDbBlockBegin
  2
*Model_Space
 70
     0
 10
0.0
 20
0.0
 30
0.0
  3
*Model_Space
  1
*Model_Space
  0
ENDBLK
  5
21
330
1F
100
AcDbEntity
  8
0
100
AcDbBlockEnd
  0
BLOCK
  5
1C
330
1B
100
AcDbEntity
 67
     1
  8
0
100
AcDbBlockBegin
  2
*Paper_Space
 70
     0
 10
0.0
 20
0.0
 30
0.0
  3
*Paper_Space
  1
*Paper_Space
  0
ENDBLK
  5
1D
330
1B
100
AcDbEntity
 67
     1
  8
0
100
AcDbBlockEnd
  0
BLOCK
  5
24
330
23
100
AcDbEntity
  8
0
100
AcDbBlockBegin
  2
*Paper_Space0
 70
     0
 10
0.0
 20
0.0
 30
0.0
  3
*Paper_Space0
  1
*Paper_Space0
  0
ENDBLK
  5
25
330
23
100
AcDbEntity
  8
0
100
AcDbBlockEnd
  0
BLOCK
  5
83
330
82
100
AcDbEntity
  8
0
100
AcDbBlockBegin
  2
블럭10
 70
     2
 10
0.0
 20
0.0
 30
0.0
  3
블럭10
  1
블럭10
  0
ELLIPSE
  5
85
330
82
100
AcDbEntity
  8
중심선
100
AcDbEllipse
 10
20.54032771741204
 20
12.0471743016438
 30
0.0
 11
6.600054785286829
 21
-1.261213355974178E-13
 31
0.0
210
0.0
220
0.0
230
1.0
 40
0.636358354079598
 41
0.9219305317359503
 42
6.513795318482858
  0
ELLIPSE
  5
86
330
82
100
AcDbEntity
  8
중심선
100
AcDbEllipse
 10
20.54032771746488
 20
12.04717430159265
 30
0.0
 11
3.960054785062283
 21
1.540847449632565E-10
 31
0.0
210
0.0
220
0.0
230
1.0
 40
0.3939339440162632
 41
1.131841032648279
 42
5.62031148352944
  0
LINE
  5
87
330
82
100
AcDbEntity
  8
중심선
100
AcDbLine
 10
2.268634060543552
 20
16.24717430164393
 30
0.0
 11
5.714909304380834
 21
16.24717430164393
 31
0.0
  0
LINE
  5
88
330
82
100
AcDbEntity
  8
중심선
100
AcDbLine
 10
5.245725140726316
 20
7.84717430164391
 30
0.0
 11
8.692000384563599
 21
7.84717430164391
 31
0.0
  0
LINE
  5
89
330
82
100
AcDbEntity
  8
중심선
100
AcDbLine
 10
15.74043728645272
 20
16.24717430164393
 30
0.0
 11
8.692000384563599
 21
7.84717430164391
 31
0.0
  0
LINE
  5
8A
330
82
100
AcDbEntity
  8
중심선
100
AcDbLine
 10
0.1404042013395286
 20
13.71084872107135
 30
0.0
 11
3.58671253028996
 21
13.71088815037384
 31
0.0
  0
LINE
  5
8B
330
82
100
AcDbEntity
  8
중심선
100
AcDbLine
 10
2.750260043222114
 20
10.84717430164391
 30
0.0
 11
6.196535287059397
 21
10.84717430164391
 31
0.0
  0
LINE
  5
8C
330
82
100
AcDbEntity
  8
중심선
100
AcDbLine
 10
12.29416204261559
 20
16.24717430164393
 30
0.0
 11
5.245725140726316
 21
7.84717430164391
 31
0.0
  0
LINE
  5
8D
330
82
100
AcDbEntity
  8
중심선
100
AcDbLine
 10
10.72767329541681
 20
16.24717430164393
 30
0.0
 11
6.196535287059397
 21
10.84717430164391
 31
0.0
  0
LINE
  5
8E
330
82
100
AcDbEntity
  8
중심선
100
AcDbLine
 10
7.28139805157953
 20
16.24717430164393
 30
0.0
 11
2.750260043222114
 21
10.84717430164391
 31
0.0
  0
LINE
  5
8F
330
82
100
AcDbEntity
  8
중심선
100
AcDbLine
 10
5.714909304380834
 20
16.24717430164393
 30
0.0
 11
3.58671253028996
 21
13.71088815037384
 31
0.0
  0
LINE
  5
90
330
82
100
AcDbEntity
  8
중심선
100
AcDbLine
 10
2.268634060543552
 20
16.24717430164393
 30
0.0
 11
0.1404042013395286
 21
13.71084872107135
 31
0.0
  0
LINE
  5
91
330
82
100
AcDbEntity
  8
중심선
100
AcDbLine
 10
7.28139805157953
 20
16.24717430164393
 30
0.0
 11
10.72767329541681
 21
16.24717430164393
 31
0.0
  0
LINE
  5
92
330
82
100
AcDbEntity
  8
중심선
100
AcDbLine
 10
12.29416204261559
 20
16.24717430164393
 30
0.0
 11
15.74043728645272
 21
16.24717430164393
 31
0.0
  0
LINE
  5
93
330
82
100
AcDbEntity
  8
중심선
100
AcDbLine
 10
19.22036997980202
 20
11.08717430171403
 30
0.0
 11
23.66174974927406
 21
11.08717430171406
 31
0.0
  0
LINE
  5
94
330
82
100
AcDbEntity
  8
중심선
100
AcDbLine
 10
19.22039502424796
 20
13.00717430171391
 30
0.0
 11
19.22036997980202
 21
11.08717430171403
 31
0.0
  0
LINE
  5
95
330
82
100
AcDbEntity
  8
중심선
100
AcDbLine
 10
19.22039502424796
 20
13.00717430171391
 30
0.0
 11
26.96566020931264
 21
13.00717430171391
 31
0.0
  0
LINE
  5
96
330
82
100
AcDbEntity
  8
중심선
100
AcDbLine
 10
22.22332737316547
 20
13.45928029700563
 30
0.0
 11
24.52862924686651
 21
15.39360700705356
 31
0.0
  0
ATTDEF
  5
98
330
82
100
AcDbEntity
  8
FORMAT
 62
     2
100
AcDbText
 10
-9.18129528874128
 20
2.075366912832191
 30
0.0
 40
4.233333333333333
  1
E5254040 [ 2 FLUTE ]
 41
0.75
  7
SLDTEXTSTYLE0
 11
-9.18129528874128
 21
-0.0412997538344756
 31
0.0
100
AcDbAttributeDefinition
  3

  2
AUTOATTR0
 70
     0
 74
     1
  0
ENDBLK
  5
84
330
82
100
AcDbEntity
  8
0
100
AcDbBlockEnd
  0
BLOCK
  5
E0
330
DF
100
AcDbEntity
  8
0
100
AcDbBlockBegin
  2
_D
 70
     0
 10
0.0
 20
0.0
 30
0.0
  3
_D
  1
_D
  0
LINE
  5
E2
330
DF
100
AcDbEntity
  8
치수문자_일반주서
 62
     0
370
    -2
100
AcDbLine
 10
41.74999999999999
 20
7.994366274609194
 30
0.0
 11
41.75
 21
43.52204973625513
 31
0.0
  0
LINE
  5
E3
330
DF
100
AcDbEntity
  8
치수문자_일반주서
 62
     0
370
    -2
100
AcDbLine
 10
-47.15000000000001
 20
7.001074928723886
 30
0.0
 11
-47.15
 21
43.52204973625513
 31
0.0
  0
LINE
  5
E4
330
DF
100
AcDbEntity
  8
치수문자_일반주서
 62
     0
370
    -2
100
AcDbLine
 10
38.448
 20
43.52204973625513
 30
0.0
 11
-43.848
 21
43.52204973625513
 31
0.0
  0
SOLID
  5
E5
330
DF
100
AcDbEntity
  8
치수문자_일반주서
 62
     0
100
AcDbTrace
 10
38.448
 20
42.9717164029218
 30
0.0
 11
38.448
 21
44.07238306958847
 31
0.0
 12
41.75
 22
43.52204973625513
 32
0.0
 13
41.75
 23
43.52204973625513
 33
0.0
  0
SOLID
  5
E6
330
DF
100
AcDbEntity
  8
치수문자_일반주서
 62
     0
100
AcDbTrace
 10
-43.848
 20
44.07238306958847
 30
0.0
 11
-43.848
 21
42.9717164029218
 31
0.0
 12
-47.15
 22
43.52204973625513
 32
0.0
 13
-47.15
 23
43.52204973625513
 33
0.0
  0
MTEXT
  5
E7
330
DF
100
AcDbEntity
  8
치수문자_일반주서
 62
     0
100
AcDbMText
 10
-2.70000000000001
 20
47.89704973625513
 30
0.0
 40
3.5
 41
0.0
 71
     2
 72
     1
  1
\A1;88.90 [3 1/2]
  7
SLDTEXTSTYLE0
 73
     1
 44
1.0
  0
POINT
  5
E8
330
DF
100
AcDbEntity
  8
Defpoints
 62
     0
100
AcDbPoint
 10
41.74999999999999
 20
7.931866274609194
 30
0.0
  0
POINT
  5
E9
330
DF
100
AcDbEntity
  8
Defpoints
 62
     0
100
AcDbPoint
 10
-47.15000000000001
 20
6.938574928723886
 30
0.0
  0
POINT
  5
EA
330
DF
100
AcDbEntity
  8
Defpoints
 62
     0
100
AcDbPoint
 10
-47.15000000000001
 20
43.52204973625513
 30
0.0
  0
ENDBLK
  5
E1
330
DF
100
AcDbEntity
  8
0
100
AcDbBlockEnd
  0
BLOCK
  5
F4
330
F3
100
AcDbEntity
  8
0
100
AcDbBlockBegin
  2
_D_1
 70
     0
 10
0.0
 20
0.0
 30
0.0
  3
_D_1
  1
_D_1
  0
LINE
  5
F6
330
F3
100
AcDbEntity
  8
치수문자_일반주서
 62
     0
370
    -2
100
AcDbLine
 10
-46.21249999999998
 20
7.938574928723879
 30
0.0
 11
-59.96000000000002
 21
7.938574928723831
 31
0.0
  0
LINE
  5
F7
330
F3
100
AcDbEntity
  8
치수문자_일반주서
 62
     0
370
    -2
100
AcDbLine
 10
-46.21249999999998
 20
-7.936425071276121
 30
0.0
 11
-59.95999999999996
 21
-7.936425071276169
 31
0.0
  0
LINE
  5
F8
330
F3
100
AcDbEntity
  8
치수문자_일반주서
 62
     0
370
    -2
100
AcDbLine
 10
-59.96
 20
4.636574928723832
 30
0.0
 11
-59.95999999999997
 21
-4.634425071276169
 31
0.0
  0
SOLID
  5
F9
330
F3
100
AcDbEntity
  8
치수문자_일반주서
 62
     0
100
AcDbTrace
 10
-59.40966666666667
 20
4.636574928723833
 30
0.0
 11
-60.51033333333334
 21
4.63657492872383
 31
0.0
 12
-59.96000000000002
 22
7.938574928723831
 32
0.0
 13
-59.96000000000002
 23
7.938574928723831
 33
0.0
  0
SOLID
  5
FA
330
F3
100
AcDbEntity
  8
치수문자_일반주서
 62
     0
100
AcDbTrace
 10
-60.51033333333331
 20
-4.634425071276171
 30
0.0
 11
-59.40966666666664
 21
-4.634425071276167
 31
0.0
 12
-59.95999999999996
 22
-7.936425071276169
 32
0.0
 13
-59.95999999999996
 23
-7.936425071276169
 33
0.0
  0
MTEXT
  5
FB
330
F3
100
AcDbEntity
  8
치수문자_일반주서
 62
     0
100
AcDbMText
 10
-64.33499999999998
 20
0.0010749287238699
 30
0.0
 40
3.5
 41
0.0
 71
     2
 72
     1
  1
\A1;%%c15.88 [5/8]
  7
SLDTEXTSTYLE0
 11
-3.580687802255623E-15
 21
1.0
 31
0.0
 73
     1
 44
1.0
  0
POINT
  5
FC
330
F3
100
AcDbEntity
  8
Defpoints
 62
     0
100
AcDbPoint
 10
-46.14999999999998
 20
7.938574928723879
 30
0.0
  0
POINT
  5
FD
330
F3
100
AcDbEntity
  8
Defpoints
 62
     0
100
AcDbPoint
 10
-46.14999999999998
 20
-7.936425071276121
 30
0.0
  0
POINT
  5
FE
330
F3
100
AcDbEntity
  8
Defpoints
 62
     0
100
AcDbPoint
 10
-59.95999999999996
 20
-7.936425071276169
 30
0.0
  0
ENDBLK
  5
F5
330
F3
100
AcDbEntity
  8
0
100
AcDbBlockEnd
  0
BLOCK
  5
109
330
108
100
AcDbEntity
  8
0
100
AcDbBlockBegin
  2
_D_2
 70
     0
 10
0.0
 20
0.0
 30
0.0
  3
_D_2
  1
_D_2
  0
LINE
  5
10B
330
108
100
AcDbEntity
  8
치수문자_일반주서
 62
     0
370
    -2
100
AcDbLine
 10
41.74999999999999
 20
7.994366274609194
 30
0.0
 11
41.74999999999999
 21
28.1684837881097
 31
0.0
  0
LINE
  5
10C
330
108
100
AcDbEntity
  8
치수문자_일반주서
 62
     0
370
    -2
100
AcDbLine
 10
9.999999999999996
 20
4.869145039019925
 30
0.0
 11
9.999999999999996
 21
28.1684837881097
 31
0.0
  0
LINE
  5
10D
330
108
100
AcDbEntity
  8
치수문자_일반주서
 62
     0
370
    -2
100
AcDbLine
 10
38.44799999999999
 20
28.1684837881097
 30
0.0
 11
13.302
 21
28.1684837881097
 31
0.0
  0
SOLID
  5
10E
330
108
100
AcDbEntity
  8
치수문자_일반주서
 62
     0
100
AcDbTrace
 10
38.44799999999999
 20
27.61815045477637
 30
0.0
 11
38.44799999999999
 21
28.71881712144304
 31
0.0
 12
41.74999999999999
 22
28.1684837881097
 32
0.0
 13
41.74999999999999
 23
28.1684837881097
 33
0.0
  0
SOLID
  5
10F
330
108
100
AcDbEntity
  8
치수문자_일반주서
 62
     0
100
AcDbTrace
 10
13.302
 20
28.71881712144304
 30
0.0
 11
13.302
 21
27.61815045477637
 31
0.0
 12
9.999999999999996
 22
28.1684837881097
 32
0.0
 13
9.999999999999996
 23
28.1684837881097
 33
0.0
  0
MTEXT
  5
110
330
108
100
AcDbEntity
  8
치수문자_일반주서
 62
     0
100
AcDbMText
 10
25.87500000000001
 20
32.5434837881097
 30
0.0
 40
3.5
 41
0.0
 71
     2
 72
     1
  1
\A1;31.75 [1 1/4]
  7
SLDTEXTSTYLE0
 73
     1
 44
1.0
  0
POINT
  5
111
330
108
100
AcDbEntity
  8
Defpoints
 62
     0
100
AcDbPoint
 10
41.74999999999999
 20
7.931866274609194
 30
0.0
  0
POINT
  5
112
330
108
100
AcDbEntity
  8
Defpoints
 62
     0
100
AcDbPoint
 10
9.999999999999996
 20
4.806645039019925
 30
0.0
  0
POINT
  5
113
330
108
100
AcDbEntity
  8
Defpoints
 62
     0
100
AcDbPoint
 10
9.999999999999996
 20
28.16848378810971
 30
0.0
  0
ENDBLK
  5
10A
330
108
100
AcDbEntity
  8
0
100
AcDbBlockEnd
  0
BLOCK
  5
11C
330
11B
100
AcDbEntity
  8
0
100
AcDbBlockBegin
  2
_D_3
 70
     0
 10
0.0
 20
0.0
 30
0.0
  3
_D_3
  1
_D_3
  0
LINE
  5
11E
330
11B
100
AcDbEntity
  8
치수문자_일반주서
 62
     0
370
    -2
100
AcDbLine
 10
17.20211185942441
 20
7.938574928723897
 30
0.0
 11
61.95935371504381
 21
7.938574928724051
 31
0.0
  0
LINE
  5
11F
330
11B
100
AcDbEntity
  8
치수문자_일반주서
 62
     0
370
    -2
100
AcDbLine
 10
17.20211185942441
 20
-7.93642507127611
 30
0.0
 11
61.95935371504387
 21
-7.936425071275956
 31
0.0
  0
LINE
  5
120
330
11B
100
AcDbEntity
  8
치수문자_일반주서
 62
     0
370
    -2
100
AcDbLine
 10
61.95935371504381
 20
7.938574928724051
 30
0.0
 11
61.95935371504368
 21
42.92819073936763
 31
0.0
  0
LINE
  5
121
330
11B
100
AcDbEntity
  8
치수문자_일반주서
 62
     0
370
    -2
100
AcDbLine
 10
61.95935371504383
 20
4.636574928724052
 30
0.0
 11
61.95935371504385
 21
-4.634425071275956
 31
0.0
  0
SOLID
  5
122
330
11B
100
AcDbEntity
  8
치수문자_일반주서
 62
     0
100
AcDbTrace
 10
62.50968704837716
 20
4.636574928724054
 30
0.0
 11
61.40902038171049
 21
4.63657492872405
 31
0.0
 12
61.95935371504381
 22
7.938574928724051
 32
0.0
 13
61.95935371504381
 23
7.938574928724051
 33
0.0
  0
SOLID
  5
123
330
11B
100
AcDbEntity
  8
치수문자_일반주서
 62
     0
100
AcDbTrace
 10
61.40902038171052
 20
-4.634425071275958
 30
0.0
 11
62.50968704837719
 21
-4.634425071275954
 31
0.0
 12
61.95935371504387
 22
-7.936425071275956
 32
0.0
 13
61.95935371504387
 23
-7.936425071275956
 33
0.0
  0
MTEXT
  5
124
330
11B
100
AcDbEntity
  8
치수문자_일반주서
 62
     0
100
AcDbMText
 10
57.58435371504373
 20
28.92819073936761
 30
0.0
 40
3.5
 41
0.0
 71
     2
 72
     1
  1
\A1;%%c15.88 [5/8]
  7
SLDTEXTSTYLE0
 11
-3.580687802255621E-15
 21
1.0
 31
0.0
 73
     1
 44
1.0
  0
POINT
  5
125
330
11B
100
AcDbEntity
  8
Defpoints
 62
     0
100
AcDbPoint
 10
17.13961185942441
 20
7.938574928723897
 30
0.0
  0
POINT
  5
126
330
11B
100
AcDbEntity
  8
Defpoints
 62
     0
100
AcDbPoint
 10
17.13961185942441
 20
-7.93642507127611
 30
0.0
  0
POINT
  5
127
330
11B
100
AcDbEntity
  8
Defpoints
 62
     0
100
AcDbPoint
 10
61.95935371504387
 20
-7.936425071275954
 30
0.0
  0
ENDBLK
  5
11D
330
11B
100
AcDbEntity
  8
0
100
AcDbBlockEnd
  0
BLOCK
  5
12E
330
12D
100
AcDbEntity
  8
0
100
AcDbBlockBegin
  2
SW_DOWELSYMBOL_0
 70
     0
 10
0.0
 20
0.0
 30
0.0
  3
SW_DOWELSYMBOL_0
  1
SW_DOWELSYMBOL_0
  0
CIRCLE
  5
130
330
12D
100
AcDbEntity
  8
외형선
 62
     0
100
AcDbCircle
 10
0.0
 20
0.0
 30
0.0
 40
3.000000000000003
  0
HATCH
  5
131
330
12D
100
AcDbEntity
  8
0
  6
Continuous
 62
     0
370
    35
100
AcDbHatch
 10
0.0
 20
0.0
 30
0.0
210
0.0
220
0.0
230
1.0
  2
SOLID
 70
     1
 71
     0
 91
        1
 92
        0
 93
        3
 72
     2
 10
0.0000000000000087
 20
0.0
 40
3.000000000000003
 50
0.0
 51
90.0
 73
     1
 72
     1
 10
0.0000000000000087
 20
3.000000000000003
 11
0.0000000000000087
 21
0.0
 72
     1
 10
0.0000000000000087
 20
0.0
 11
3.000000000000012
 21
0.0
 97
        0
 75
     0
 76
     1
 98
        1
 10
0.0
 20
0.0
  0
HATCH
  5
132
330
12D
100
AcDbEntity
  8
0
  6
Continuous
 62
     0
370
    35
100
AcDbHatch
 10
0.0
 20
0.0
 30
0.0
210
0.0
220
0.0
230
1.0
  2
SOLID
 70
     1
 71
     0
 91
        1
 92
        0
 93
        3
 72
     2
 10
0.0000000000000087
 20
0.0
 40
3.000000000000003
 50
180.0
 51
270.0000000000007
 73
     1
 72
     1
 10
0.0000000000000087
 20
-3.000000000000003
 11
0.0000000000000087
 21
0.0
 72
     1
 10
0.0000000000000087
 20
0.0
 11
-2.999999999999994
 21
0.0
 97
        0
 75
     0
 76
     1
 98
        1
 10
0.0
 20
0.0
  0
ENDBLK
  5
12F
330
12D
100
AcDbEntity
  8
0
100
AcDbBlockEnd
  0
ENDSEC
  0
SECTION
  2
ENTITIES
  0
LINE
  5
99
330
1F
100
AcDbEntity
  8
0
  6
Continuous
 62
     4
370
    25
100
AcDbLine
 10
6.950268764609645
 20
7.938574928723893
 30
0.0
 11
-46.15
 21
7.93857492872389
 31
0.0
  0
LINE
  5
9A
330
1F
100
AcDbEntity
  8
0
  6
Continuous
 62
     4
370
    25
100
AcDbLine
 10
-46.15
 20
-7.93642507127611
 30
0.0
 11
6.950268764609649
 21
-7.936425071276107
 31
0.0
  0
LINE
  5
9B
330
1F
100
AcDbEntity
  8
0
  6
Continuous
 62
     4
370
    25
100
AcDbLine
 10
-46.15
 20
7.938574928723886
 30
0.0
 11
-47.15000000000001
 21
6.938574928723885
 31
0.0
  0
LINE
  5
9C
330
1F
100
AcDbEntity
  8
0
  6
Continuous
 62
     4
370
    25
100
AcDbLine
 10
-47.15000000000001
 20
-6.936425071276108
 30
0.0
 11
-46.15
 21
-7.936425071276107
 31
0.0
  0
ARC
  5
9D
330
1F
100
AcDbEntity
  8
0
  6
Continuous
 62
     4
370
    25
100
AcDbCircle
 10
7.744000429968959
 20
-6.620312389656803
 30
0.0
 40
0.7937998587664107
100
AcDbArc
 50
104.2683220296467
 51
127.1010013808828
  0
SPLINE
  5
9E
330
1F
100
AcDbEntity
  8
0
  6
Continuous
 62
     4
370
    25
100
AcDbSpline
210
0.0
220
0.0
230
1.0
 70
     8
 71
     3
 72
    11
 73
     7
 74
     0
 42
0.000000001
 43
0.00000001
 40
0.0
 40
0.0
 40
0.0
 40
0.0
 40
0.0777725635539511
 40
0.3522898121851632
 40
0.6573474346250304
 40
1.0
 40
1.0
 40
1.0
 40
1.0
 10
7.556076733545487
 20
-5.850855435196873
 30
0.0
 10
7.607394100574927
 20
-5.837514558248159
 30
0.0
 10
7.839848641951816
 20
-5.777083799380506
 30
0.0
 10
8.37094544383837
 20
-5.653865585512183
 30
0.0
 10
9.135802129793381
 20
-5.502889840411387
 30
0.0
 10
9.700998834756126
 20
-5.421609291365956
 30
0.0
 10
9.999999999999998
 20
-5.378610139631964
 30
0.0
  0
SPLINE
  5
9F
330
1F
100
AcDbEntity
  8
0
  6
Continuous
 62
     4
370
    25
100
AcDbSpline
210
0.0
220
0.0
230
1.0
 70
     8
 71
     3
 72
     9
 73
     5
 74
     0
 42
0.000000001
 43
0.00000001
 40
0.0
 40
0.0
 40
0.0
 40
0.0
 40
0.476233135826124
 40
1.0
 40
1.0
 40
1.0
 40
1.0
 10
9.999999999999996
 20
5.38075999707975
 30
0.0
 10
9.540107427926534
 20
5.450296454328037
 30
0.0
 10
8.574419537948687
 20
5.596309933897576
 30
0.0
 10
7.677006270205483
 20
5.823763672821346
 30
0.0
 10
7.206970937091592
 20
5.942896404402071
 30
0.0
  0
LINE
  5
A0
330
1F
100
AcDbEntity
  8
0
  6
Continuous
 62
     4
370
    25
100
AcDbLine
 10
27.34829917275335
 20
2.230851506821976
 30
0.0
 11
27.29340103947265
 21
2.283010942223349
 31
0.0
  0
SPLINE
  5
A1
330
1F
100
AcDbEntity
  8
0
  6
Continuous
 62
     1
370
    25
100
AcDbSpline
210
0.0
220
0.0
230
1.0
 70
     8
 71
     3
 72
     9
 73
     5
 74
     0
 42
0.000000001
 43
0.00000001
 40
0.0
 40
0.0
 40
0.0
 40
0.0
 40
0.4368433499511264
 40
1.0
 40
1.0
 40
1.0
 40
1.0
 10
29.87820705645078
 20
2.034955595283849
 30
0.0
 10
29.69286060638589
 20
2.187440428847085
 30
0.0
 10
29.26857476093209
 20
2.536501101466451
 30
0.0
 10
28.84416366746073
 20
2.9203139107662
 30
0.0
 10
28.60515373781783
 20
3.136460646697293
 30
0.0
  0
LINE
  5
A2
330
1F
100
AcDbEntity
  8
0
  6
Continuous
 62
     1
370
    25
100
AcDbLine
 10
19.36040040955764
 20
7.938574928723897
 30
0.0
 11
17.13961185942441
 21
7.938574928723897
 31
0.0
  0
LINE
  5
A3
330
1F
100
AcDbEntity
  8
0
  6
Continuous
 62
     1
370
    25
100
AcDbLine
 10
17.13961185942441
 20
-7.93642507127611
 30
0.0
 11
19.36040040955764
 21
-7.93642507127611
 31
0.0
  0
SPLINE
  5
A4
330
1F
100
AcDbEntity
  8
0
  6
Continuous
 62
     1
370
    25
100
AcDbSpline
210
0.0
220
0.0
230
1.0
 70
     8
 71
     3
 72
    17
 73
    13
 74
     0
 42
0.000000001
 43
0.00000001
 40
0.0
 40
0.0
 40
0.0
 40
0.0
 40
0.1568153687210765
 40
0.2914039090033485
 40
0.425317369062814
 40
0.5379174974739485
 40
0.6395201400296407
 40
0.733607702130664
 40
0.8250595922409936
 40
0.9041309725520762
 40
0.9868775637456306
 40
1.0
 40
1.0
 40
1.0
 40
1.0
 10
28.36205105249437
 20
6.308508988837442
 30
0.0
 10
28.18236050763734
 20
6.292639268552048
 30
0.0
 10
27.8484485472898
 20
6.263149183723823
 30
0.0
 10
27.32952840933041
 20
6.23006054702534
 30
0.0
 10
26.83278110775797
 20
6.210531331993277
 30
0.0
 10
26.3714596106734
 20
6.201283036635263
 30
0.0
 10
25.96626584689332
 20
6.198227214060648
 30
0.0
 10
25.60402671753641
 20
6.202216932279332
 30
0.0
 10
25.29835251369657
 20
6.209867422025134
 30
0.0
 10
24.9875996248416
 20
6.221207831143623
 30
0.0
 10
24.76849436865334
 20
6.230700856746855
 30
0.0
 10
24.64809165044573
 20
6.238238088569215
 30
0.0
 10
24.63161107234255
 20
6.239269775723622
 30
0.0
  0
SPLINE
  5
A5
330
1F
100
AcDbEntity
  8
0
  6
Continuous
 62
     1
370
    25
100
AcDbSpline
210
0.0
220
0.0
230
1.0
 70
     8
 71
     3
 72
    21
 73
    17
 74
     0
 42
0.000000001
 43
0.00000001
 40
0.0
 40
0.0
 40
0.0
 40
0.0
 40
0.0849101855972359
 40
0.1564081962410621
 40
0.226000736725861
 40
0.2835900916240545
 40
0.3330055553775051
 40
0.3780442873635814
 40
0.4265397345467704
 40
0.487267976072014
 40
0.5658094849227658
 40
0.6369095204300593
 40
0.6951272013638916
 40
0.7658416252744307
 40
0.8678877470540765
 40
1.0
 40
1.0
 40
1.0
 40
1.0
 10
21.46938206811482
 20
-6.60404256762336
 30
0.0
 10
21.64814451493765
 20
-6.573767302797489
 30
0.0
 10
21.9774325934707
 20
-6.517998969130238
 30
0.0
 10
22.47950017030655
 20
-6.442855214951446
 30
0.0
 10
22.95252827204661
 20
-6.382767407900871
 30
0.0
 10
23.37930108504884
 20
-6.336676655728946
 30
0.0
 10
23.74347247747678
 20
-6.301209009401882
 30
0.0
 10
24.06434175078639
 20
-6.274297929949933
 30
0.0
 10
24.42079420062056
 20
-6.248538353723067
 30
0.0
 10
24.85334888045821
 20
-6.223794879485323
 30
0.0
 10
25.33854688168469
 20
-6.205468344692058
 30
0.0
 10
25.81953885327761
 20
-6.197228449151388
 30
0.0
 10
26.28770784463012
 20
-6.197594046558065
 30
0.0
 10
26.82170138108055
 20
-6.208104572444824
 30
0.0
 10
27.52110440914094
 20
-6.236896356336125
 30
0.0
 10
28.05872518558817
 20
-6.281304204745554
 30
0.0
 10
28.36205105249437
 20
-6.306359131389653
 30
0.0
  0
SPLINE
  5
A6
330
1F
100
AcDbEntity
  8
0
  6
Continuous
 62
     1
370
    25
100
AcDbSpline
210
0.0
220
0.0
230
1.0
 70
     8
 71
     3
 72
    16
 73
    12
 74
     0
 42
0.000000001
 43
0.00000001
 40
0.0
 40
0.0
 40
0.0
 40
0.0
 40
0.1658395451740597
 40
0.2882820861084159
 40
0.3764093587855045
 40
0.4682615282183782
 40
0.5678986213553827
 40
0.6665081630574219
 40
0.7553495693186947
 40
0.8920202119566782
 40
1.0
 40
1.0
 40
1.0
 40
1.0
 10
32.04192291381138
 20
-5.968994546352675
 30
0.0
 10
32.22302364145266
 20
-5.920617030544308
 30
0.0
 10
32.53783453595545
 20
-5.836521459953221
 30
0.0
 10
32.96023156059714
 20
-5.736191336891848
 30
0.0
 10
33.31873265216561
 20
-5.657301199805038
 30
0.0
 10
33.64347396660122
 20
-5.590643444182745
 30
0.0
 10
33.97495462818544
 20
-5.527839060599944
 30
0.0
 10
34.29957504726498
 20
-5.471671156656046
 30
0.0
 10
34.66726382848792
 20
-5.414671480896428
 30
0.0
 10
35.04605537124843
 20
-5.362636037183887
 30
0.0
 10
35.32397572900766
 20
-5.333220631768454
 30
0.0
 10
35.44663965091532
 20
-5.320237743354476
 30
0.0
  0
SPLINE
  5
A7
330
1F
100
AcDbEntity
  8
0
  6
Continuous
 62
     1
370
    25
100
AcDbSpline
210
0.0
220
0.0
230
1.0
 70
     8
 71
     3
 72
    19
 73
    15
 74
     0
 42
0.000000001
 43
0.00000001
 40
0.0
 40
0.0
 40
0.0
 40
0.0
 40
0.1149119154790838
 40
0.2152401998177816
 40
0.3012032319006604
 40
0.4070780952246003
 40
0.4911231499812921
 40
0.5564602630730641
 40
0.6201014794734542
 40
0.6919158162189258
 40
0.7802787213756541
 40
0.8971381313522571
 40
0.9928128604655926
 40
0.9999999999999999
 40
0.9999999999999999
 40
0.9999999999999999
 40
0.9999999999999999
 10
15.1099961319417
 20
5.429947915471417
 30
0.0
 10
14.94028192887541
 20
5.405350006650366
 30
0.0
 10
14.62239218848072
 20
5.359275943854794
 30
0.0
 10
14.14109864271284
 20
5.304044759090719
 30
0.0
 10
13.64040275212703
 20
5.260796332110998
 30
0.0
 10
13.11736952040673
 20
5.23626765245027
 30
0.0
 10
12.63671021313054
 20
5.224811279241249
 30
0.0
 10
12.2602540386606
 20
5.223865048196972
 30
0.0
 10
11.92154384151441
 20
5.229255848730578
 30
0.0
 10
11.54134065959365
 20
5.242436751310438
 30
0.0
 10
11.05782686849027
 20
5.269879151967092
 30
0.0
 10
10.52441158351303
 20
5.319145462590651
 30
0.0
 10
10.19319331765474
 20
5.353207241978255
 30
0.0
 10
10.01331676300819
 20
5.378772643182898
 30
0.0
 10
10.00074847201554
 20
5.380558942694335
 30
0.0
  0
SPLINE
  5
A8
330
1F
100
AcDbEntity
  8
0
  6
Continuous
 62
     1
370
    25
100
AcDbSpline
210
0.0
220
0.0
230
1.0
 70
     8
 71
     3
 72
     9
 73
     5
 74
     0
 42
0.000000001
 43
0.00000001
 40
0.0
 40
0.0
 40
0.0
 40
0.0
 40
0.4971378791512047
 40
1.0
 40
1.0
 40
1.0
 40
1.0
 10
10.00063327185341
 20
-5.378410146693168
 30
0.0
 10
10.08460549359579
 20
-5.367690465073827
 30
0.0
 10
10.25351682637484
 20
-5.346127671191288
 30
0.0
 10
10.43093852874562
 20
-5.328111580158712
 30
0.0
 10
10.5201571822844
 20
-5.319051970412664
 30
0.0
  0
SPLINE
  5
A9
330
1F
100
AcDbEntity
  8
0
  6
Continuous
 62
     1
370
    25
100
AcDbSpline
210
0.0
220
0.0
230
1.0
 70
     8
 71
     3
 72
    24
 73
    20
 74
     0
 42
0.000000001
 43
0.00000001
 40
0.0
 40
0.0
 40
0.0
 40
0.0
 40
0.0941569942176101
 40
0.173012146949651
 40
0.2383402582616217
 40
0.2923929350689008
 40
0.335833802006398
 40
0.376972315102594
 40
0.4266856820969288
 40
0.4909488579697713
 40
0.5625279522144073
 40
0.6179810798535509
 40
0.6716148926857736
 40
0.738301756026126
 40
0.7853776831812752
 40
0.8293999395947742
 40
0.8698797497141006
 40
0.9237993375456921
 40
1.0
 40
1.0
 40
1.0
 40
1.0
 10
40.04637800187623
 20
5.429946449458138
 30
0.0
 10
39.82908276719472
 20
5.398777818622349
 30
0.0
 10
39.42980584266493
 20
5.341505899704477
 30
0.0
 10
38.81373011941108
 20
5.278628514542602
 30
0.0
 10
38.24163194610536
 20
5.244753113732772
 30
0.0
 10
37.76670339941111
 20
5.228608777589145
 30
0.0
 10
37.38056127523756
 20
5.223485049093594
 30
0.0
 10
37.0315852018554
 20
5.225586536324918
 30
0.0
 10
36.61268809732702
 20
5.236257111217925
 30
0.0
 10
36.11680616584757
 20
5.26171970632051
 30
0.0
 10
35.60528301848084
 20
5.303483320742584
 30
0.0
 10
35.12008411755034
 20
5.356293727210092
 30
0.0
 10
34.6481406127377
 20
5.418690606133996
 30
0.0
 10
34.19984812428785
 20
5.489566032099457
 30
0.0
 10
33.77718262519079
 20
5.566643422516345
 30
0.0
 10
33.41849429377717
 20
5.638285275114241
 30
0.0
 10
33.03033544953605
 20
5.72225615181736
 30
0.0
 10
32.57374290313101
 20
5.829327008834955
 30
0.0
 10
32.23834040224904
 20
5.918766875510236
 30
0.0
 10
32.04192291381139
 20
5.971144403800466
 30
0.0
  0
SPLINE
  5
AA
330
1F
100
AcDbEntity
  8
0
  6
Continuous
 62
     4
370
    25
100
AcDbSpline
210
0.0
220
0.0
230
1.0
 70
     8
 71
     3
 72
    12
 73
     8
 74
     0
 42
0.000000001
 43
0.00000001
 40
0.0
 40
0.0
 40
0.0
 40
0.0
 40
0.5000000000000001
 40
0.5000000000000001
 40
0.75
 40
0.75
 40
1.0
 40
1.0
 40
1.0
 40
1.0
 10
9.999999999999991
 20
-3.027563694640213
 30
0.0
 10
9.489676845775293
 20
-2.556959533430225
 30
0.0
 10
8.985624358340303
 20
-2.069637121106497
 30
0.0
 10
8.220832899197529
 20
-1.321302692275394
 30
0.0
 10
7.965222675682707
 20
-1.069208188709379
 30
0.0
 10
7.456181216784054
 20
-0.5632159328047909
 30
0.0
 10
7.204211936261066
 20
-0.3098107352899679
 30
0.0
 10
6.950447206519995
 20
-0.0557210875917591
 30
0.0
  0
LINE
  5
AB
330
1F
100
AcDbEntity
  8
0
  6
Continuous
 62
     4
370
    25
100
AcDbLine
 10
9.999999999999991
 20
-3.027563694640213
 30
0.0
 11
9.999999999999991
 21
-4.936099360155654
 31
0.0
  0
SPLINE
  5
AC
330
1F
100
AcDbEntity
  8
0
  6
Continuous
 62
     4
370
    25
100
AcDbSpline
210
0.0
220
0.0
230
1.0
 70
     8
 71
     3
 72
    12
 73
     8
 74
     0
 42
0.000000001
 43
0.00000001
 40
0.0
 40
0.0
 40
0.0
 40
0.0
 40
0.4999999999999999
 40
0.4999999999999999
 40
0.7499999999999999
 40
0.7499999999999999
 40
1.0
 40
1.0
 40
1.0
 40
1.0
 10
9.999999999999991
 20
-4.936099360155654
 30
0.0
 10
9.489646941795101
 20
-4.537426851861745
 30
0.0
 10
8.985564923189202
 20
-4.109985263652786
 30
0.0
 10
8.220728170693553
 20
-3.432466721759082
 30
0.0
 10
7.965102977669444
 20
-3.200771600017014
 30
0.0
 10
7.456032455121851
 20
-2.728894735115453
 30
0.0
 10
7.20404910638937
 20
-2.489190466187548
 30
0.0
 10
6.950268764609654
 20
-2.245469459886614
 30
0.0
  0
LINE
  5
AD
330
1F
100
AcDbEntity
  8
0
  6
Continuous
 62
     4
370
    25
100
AcDbLine
 10
6.950268764609638
 20
-7.936425071276107
 30
0.0
 11
6.950268764609656
 21
-2.245470337307366
 31
0.0
  0
LINE
  5
AE
330
1F
100
AcDbEntity
  8
0
  6
Continuous
 62
     4
370
    25
100
AcDbLine
 10
-46.15
 20
7.938574928723886
 30
0.0
 11
-46.15
 21
-7.936425071276093
 31
0.0
  0
LINE
  5
AF
330
1F
100
AcDbEntity
  8
0
  6
Continuous
 62
     4
370
    25
100
AcDbLine
 10
6.950268764609645
 20
-0.0553809173278229
 30
0.0
 11
6.950268764609638
 21
7.938574928723893
 31
0.0
  0
SPLINE
  5
B0
330
1F
100
AcDbEntity
  8
0
  6
Continuous
 62
     4
370
    25
100
AcDbSpline
210
0.0
220
0.0
230
1.0
 70
    24
 71
     3
 72
     8
 73
     4
 74
     0
 42
0.000000001
 43
0.00000001
 40
0.0
 40
0.0
 40
0.0
 40
0.0
 40
1.0
 40
1.0
 40
1.0
 40
1.0
 10
9.999999999999991
 20
-2.192705880214016
 30
0.0
 10
9.999999999999991
 20
-2.444035243297936
 30
0.0
 10
9.999999999999991
 20
-2.723990118754093
 30
0.0
 10
9.999999999999991
 20
-3.027563694628858
 30
0.0
  0
SPLINE
  5
B1
330
1F
100
AcDbEntity
  8
0
  6
Continuous
 62
     4
370
    25
100
AcDbSpline
210
0.0
220
0.0
230
1.0
 70
     8
 71
     3
 72
    12
 73
     8
 74
     0
 42
0.000000001
 43
0.00000001
 40
0.0
 40
0.0
 40
0.0
 40
0.0
 40
0.5
 40
0.5
 40
0.75
 40
0.75
 40
1.0
 40
1.0
 40
1.0
 40
1.0
 10
10.0
 20
-2.192705880214024
 30
0.0
 10
9.489676845775303
 20
-1.783467347734362
 30
0.0
 10
8.98562435834031
 20
-1.362399523939209
 30
0.0
 10
8.220832899197534
 20
-0.7197264007491939
 30
0.0
 10
7.965222675682707
 20
-0.503867596757162
 30
0.0
 10
7.456181216784054
 20
-0.0718727048813033
 30
0.0
 10
7.204211936261066
 20
0.143846225179182
 30
0.0
 10
6.950447206519995
 20
0.3595229261428518
 30
0.0
  0
LINE
  5
B2
330
1F
100
AcDbEntity
  8
0
  6
Continuous
 62
     4
370
    25
100
AcDbLine
 10
-47.15000000000001
 20
6.938574928723886
 30
0.0
 11
-47.15000000000001
 21
-6.936425071276107
 31
0.0
  0
SPLINE
  5
B3
330
1F
100
AcDbEntity
  8
0
  6
Continuous
 62
     4
370
    25
100
AcDbSpline
210
0.0
220
0.0
230
1.0
 70
     8
 71
     3
 72
    12
 73
     8
 74
     0
 42
0.000000001
 43
0.00000001
 40
0.0
 40
0.0
 40
0.0
 40
0.0
 40
0.5
 40
0.5
 40
0.75
 40
0.75
 40
1.0
 40
1.0
 40
1.0
 40
1.0
 10
9.999999999999996
 20
4.806645039019927
 30
0.0
 10
9.48965933534477
 20
5.072891227165575
 30
0.0
 10
8.985589555793698
 20
5.308451847324085
 30
0.0
 10
8.220771574882631
 20
5.612081631806135
 30
0.0
 10
7.965152585885042
 20
5.704865461222536
 30
0.0
 10
7.456094108578955
 20
5.872324236369765
 30
0.0
 10
7.204116590462042
 20
5.946886046446187
 30
0.0
 10
6.950342718998224
 20
6.01238893302888
 30
0.0
  0
SPLINE
  5
B4
330
1F
100
AcDbEntity
  8
0
  6
Continuous
 62
     4
370
    25
100
AcDbSpline
210
0.0
220
0.0
230
1.0
 70
    24
 71
     3
 72
    14
 73
    10
 74
     0
 42
0.000000001
 43
0.00000001
 40
0.0
 40
0.0
 40
0.0
 40
0.0
 40
0.25
 40
0.25
 40
0.5
 40
0.5
 40
0.75
 40
0.75
 40
1.0
 40
1.0
 40
1.0
 40
1.0
 10
9.999999999999991
 20
4.806645039019932
 30
0.0
 10
9.999999999999991
 20
4.355639394500144
 30
0.0
 10
9.999999999999991
 20
3.849910179508986
 30
0.0
 10
9.999999999999991
 20
2.754236021216491
 30
0.0
 10
9.999999999999991
 20
2.164495656974204
 30
0.0
 10
9.999999999999991
 20
0.9411856660357809
 30
0.0
 10
9.999999999999991
 20
0.3079692941301073
 30
0.0
 10
9.999999999999991
 20
-0.9554871090759377
 30
0.0
 10
9.999999999999991
 20
-1.585390442567236
 30
0.0
 10
9.999999999999991
 20
-2.192705880214017
 30
0.0
  0
LINE
  5
B5
330
1F
100
AcDbEntity
  8
0
  6
Continuous
 62
     4
370
    25
100
AcDbLine
 10
7.551691298483139
 20
-5.833247699768025
 30
0.0
 11
7.545259131739736
 21
-5.836956496627216
 31
0.0
  0
SPLINE
  5
B6
330
1F
100
AcDbEntity
  8
0
  6
Continuous
 62
     4
370
    25
100
AcDbSpline
210
0.0
220
0.0
230
1.0
 70
     8
 71
     3
 72
    11
 73
     7
 74
     0
 42
0.000000001
 43
0.00000001
 40
0.0
 40
0.0
 40
0.0
 40
0.0
 40
0.2682607085809467
 40
0.5730801011272381
 40
0.7856630479768332
 40
1.0
 40
1.0
 40
1.0
 40
1.0
 10
7.266659418625571
 20
-5.989094924411848
 30
0.0
 10
7.212636340315876
 20
-6.037033522775341
 30
0.0
 10
7.097227895505988
 20
-6.13944381216649
 30
0.0
 10
7.01238602232647
 20
-6.287752120617376
 30
0.0
 10
6.959590184578277
 20
-6.427854112386073
 30
0.0
 10
6.953384403439563
 20
-6.514029042094791
 30
0.0
 10
6.950268764609642
 20
-6.557293532279825
 30
0.0
  0
SPLINE
  5
B7
330
1F
100
AcDbEntity
  8
0
  6
Continuous
 62
     4
370
    25
100
AcDbSpline
210
0.0
220
0.0
230
1.0
 70
    24
 71
     3
 72
    10
 73
     6
 74
     0
 42
0.000000001
 43
0.00000001
 40
0.0
 40
0.0
 40
0.0
 40
0.0
 40
0.5059738268359558
 40
0.7901231455804363
 40
1.0
 40
1.0
 40
1.0
 40
1.0
 10
9.99999999999999
 20
-4.998706908559702
 30
0.0
 10
9.99999999999999
 20
-5.111806658944371
 30
0.0
 10
9.99999999999999
 20
-5.288421981316112
 30
0.0
 10
9.99999999999999
 20
-5.373699237428548
 30
0.0
 10
9.99999999999999
 20
-5.372776272364822
 30
0.0
 10
9.99999999999999
 20
-5.372384169648739
 30
0.0
  0
SPLINE
  5
B8
330
1F
100
AcDbEntity
  8
0
  6
Continuous
 62
     4
370
    25
100
AcDbSpline
210
0.0
220
0.0
230
1.0
 70
    24
 71
     3
 72
    10
 73
     6
 74
     0
 42
0.000000001
 43
0.00000001
 40
0.0
 40
0.0
 40
0.0
 40
0.0
 40
0.0611928175189524
 40
0.5305964087594761
 40
1.0
 40
1.0
 40
1.0
 40
1.0
 10
9.99999999999999
 20
5.374598786526631
 30
0.0
 10
9.99999999999999
 20
5.375707922030596
 30
0.0
 10
9.99999999999999
 20
5.385325117954762
 30
0.0
 10
9.99999999999999
 20
5.253430351489817
 30
0.0
 10
9.99999999999999
 20
4.95557347650989
 30
0.0
 10
9.99999999999999
 20
4.806645039019926
 30
0.0
  0
SPLINE
  5
B9
330
1F
100
AcDbEntity
  8
0
  6
Continuous
 62
     1
370
    25
100
AcDbSpline
210
0.0
220
0.0
230
1.0
 70
     8
 71
     3
 72
    33
 73
    29
 74
     0
 42
0.000000001
 43
0.00000001
 40
0.0
 40
0.0
 40
0.0
 40
0.0
 40
0.0195410412701096
 40
0.0557470727402088
 40
0.0918790923515548
 40
0.1281150429811621
 40
0.1642495698379949
 40
0.2040509935676941
 40
0.2438829230876126
 40
0.2836337660340528
 40
0.3234568321948894
 40
0.363267889509419
 40
0.4030198131186304
 40
0.4428602084939381
 40
0.4826513507895462
 40
0.5224083495720125
 40
0.5622587520616111
 40
0.6020339443239875
 40
0.6418000089663842
 40
0.6816530868305134
 40
0.7214163060462913
 40
0.7611954204070487
 40
0.8010438393280918
 40
0.8407990714985112
 40
0.8805952096123967
 40
0.9204316397616585
 40
0.9601828769043163
 40
1.0
 40
1.0
 40
1.0
 40
1.0
 10
10.51947172926657
 20
5.320697180359028
 30
0.0
 10
10.72284343387079
 20
5.473560341363332
 30
0.0
 10
11.30302629378899
 20
5.909651419520978
 30
0.0
 10
12.26053521695939
 20
6.503148235004248
 30
0.0
 10
13.38874061962424
 20
7.094378166401489
 30
0.0
 10
14.52044090347523
 20
7.534658252905923
 30
0.0
 10
15.68635076969701
 20
7.835292251027786
 30
0.0
 10
16.89185507003672
 20
7.967134226642949
 30
0.0
 10
18.13581030397044
 20
7.90866770010598
 30
0.0
 10
19.37727437884733
 20
7.656170970326547
 30
0.0
 10
20.62099092906355
 20
7.216924084148785
 30
0.0
 10
21.86432907453723
 20
6.601284884861544
 30
0.0
 10
23.1058124045027
 20
5.82268664524951
 30
0.0
 10
24.35007176105688
 20
4.903766827063129
 30
0.0
 10
25.59277867354354
 20
3.863802023312349
 30
0.0
 10
26.83441611835034
 20
2.728029835802429
 30
0.0
 10
28.07898300397974
 20
1.52860273279157
 30
0.0
 10
29.32118797215526
 20
0.2893719920028026
 30
0.0
 10
30.56310696262717
 20
-0.9572668442407674
 30
0.0
 10
31.80775611386932
 20
-2.177549774609883
 30
0.0
 10
33.04958633367278
 20
-3.347526257780137
 30
0.0
 10
34.29191454842567
 20
-4.434836433973628
 30
0.0
 10
35.53642044094885
 20
-5.411914809458841
 30
0.0
 10
36.7780037363883
 20
-6.25870295694494
 30
0.0
 10
38.02086818820731
 20
-6.952099757753681
 30
0.0
 10
39.26500566416355
 20
-7.471290750250418
 30
0.0
 10
40.50646935040625
 20
-7.822524815172105
 30
0.0
 10
41.33526102533256
 20
-7.893966164349762
 30
0.0
 10
41.74999999999999
 20
-7.929716417161404
 30
0.0
  0
SPLINE
  5
BA
330
1F
100
AcDbEntity
  8
0
  6
Continuous
 62
     1
370
    25
100
AcDbSpline
210
0.0
220
0.0
230
1.0
 70
     8
 71
     3
 72
    19
 73
    15
 74
     0
 42
0.000000001
 43
0.00000001
 40
0.0
 40
0.0
 40
0.0
 40
0.0
 40
0.0136367521843063
 40
0.1088239941387548
 40
0.2038653352994499
 40
0.2988760925031401
 40
0.3939817346478394
 40
0.4891786477178329
 40
0.584229672263486
 40
0.6792378856858472
 40
0.7743287969829369
 40
0.8695317092761328
 40
0.9645936031025928
 40
1.0
 40
1.0
 40
1.0
 40
1.0
 10
30.35824185322785
 20
-0.7477906145207539
 30
0.0
 10
30.28891989861503
 20
-0.700389439315568
 30
0.0
 10
29.73571691593169
 20
-0.3221186353160845
 30
0.0
 10
28.69884831630683
 20
0.4119298008685611
 30
0.0
 10
27.24936916538389
 20
1.415428872220514
 30
0.0
 10
25.80029076346871
 20
2.374654038854728
 30
0.0
 10
24.35000420273571
 20
3.253985708849182
 30
0.0
 10
22.89875606014553
 20
4.024559581912483
 30
0.0
 10
21.44910808602874
 20
4.662289047599669
 30
0.0
 10
20.00007934758449
 20
5.143827366906559
 30
0.0
 10
18.54995474671655
 20
5.457292134201822
 30
0.0
 10
17.09864423081563
 20
5.57732664193068
 30
0.0
 10
15.95176058325267
 20
5.560213949551985
 30
0.0
 10
15.28874353419202
 20
5.440964850520247
 30
0.0
 10
15.10881441380159
 20
5.408603110310807
 30
0.0
  0
SPLINE
  5
BB
330
1F
100
AcDbEntity
  8
0
  6
Continuous
 62
     1
370
    25
100
AcDbSpline
210
0.0
220
0.0
230
1.0
 70
     8
 71
     3
 72
    26
 73
    22
 74
     0
 42
0.000000001
 43
0.00000001
 40
0.0
 40
0.0
 40
0.0
 40
0.0
 40
0.0555407212325951
 40
0.1109895383113751
 40
0.1665571950507599
 40
0.2220686394500678
 40
0.277523031238204
 40
0.333107411611556
 40
0.3885951067276719
 40
0.4440606437326128
 40
0.4996515197541308
 40
0.5551210110088527
 40
0.6106032553397786
 40
0.6661903927628352
 40
0.7216472392864561
 40
0.7771517404690103
 40
0.8327249086505855
 40
0.8881746791005618
 40
0.9437069699082158
 40
0.9992559516662606
 40
1.0
 40
1.0
 40
1.0
 40
1.0
 10
41.75
 20
-7.531143220804308
 30
0.0
 10
41.33526315812686
 20
-7.38267764759194
 30
0.0
 10
40.50647574632056
 20
-7.085992169616836
 30
0.0
 10
39.26501845107581
 20
-6.41681007631925
 30
0.0
 10
38.02088727868551
 20
-5.605543803186587
 30
0.0
 10
36.77802933447773
 20
-4.652850050970621
 30
0.0
 10
35.53645238575473
 20
-3.58578948865805
 30
0.0
 10
34.29195278754933
 20
-2.433637672896376
 30
0.0
 10
33.0496311441013
 20
-1.219860076255248
 30
0.0
 10
31.80780717926484
 20
0.0244564080465003
 30
0.0
 10
30.56316439343984
 20
1.26513358261238
 30
0.0
 10
29.32125198364054
 20
2.477834039660908
 30
0.0
 10
28.07905315829495
 20
3.629468047287161
 30
0.0
 10
26.83449268819811
 20
4.690230738622654
 30
0.0
 10
25.59286215668335
 20
5.638807522335068
 30
0.0
 10
24.35015984360777
 20
6.448724186627524
 30
0.0
 10
23.1059122020381
 20
7.098506765971266
 30
0.0
 10
21.86441679920922
 20
7.582304411115648
 30
0.0
 10
20.62115365974208
 20
7.856201557538514
 30
0.0
 10
19.78582355480165
 20
7.970057171966598
 30
0.0
 10
19.36595005184457
 20
7.93771814445005
 30
0.0
 10
19.36040040955764
 20
7.937290706106454
 30
0.0
  0
SPLINE
  5
BC
330
1F
100
AcDbEntity
  8
0
  6
Continuous
 62
     1
370
    25
100
AcDbSpline
210
0.0
220
0.0
230
1.0
 70
     8
 71
     3
 72
    16
 73
    12
 74
     0
 42
0.000000001
 43
0.00000001
 40
0.0
 40
0.0
 40
0.0
 40
0.0
 40
0.1220198921673987
 40
0.2438843788073935
 40
0.3657416315215314
 40
0.4877399323102125
 40
0.6097799414743014
 40
0.7316530682239731
 40
0.8535044942451329
 40
0.975482590481123
 40
1.0
 40
1.0
 40
1.0
 40
1.0
 10
41.74999999999999
 20
-6.261392419698818
 30
0.0
 10
41.26615459040221
 20
-6.088349080475864
 30
0.0
 10
40.29908000065684
 20
-5.742482791434655
 30
0.0
 10
38.849880207182
 20
-4.97623735138046
 30
0.0
 10
37.40076813147412
 20
-4.059271697801226
 30
0.0
 10
35.9500772820922
 20
-3.003389251807901
 30
0.0
 10
34.49894513381891
 20
-1.849473375504099
 30
0.0
 10
33.04963879976357
 20
-0.6310163554159856
 30
0.0
 10
31.60060200069412
 20
0.6016845732701238
 30
0.0
 10
30.53678043462023
 20
1.50889727097133
 30
0.0
 10
29.95587968132166
 20
1.967334061726886
 30
0.0
 10
29.85866044182992
 20
2.044057797923143
 30
0.0
  0
LINE
  5
BD
330
1F
100
AcDbEntity
  8
0
  6
Continuous
 62
     1
370
    25
100
AcDbLine
 10
41.74999999999972
 20
-7.53114322080431
 30
0.0
 11
41.74999999999999
 21
-6.261392419698818
 31
0.0
  0
LINE
  5
BE
330
1F
100
AcDbEntity
  8
0
  6
Continuous
 62
     1
370
    25
100
AcDbLine
 10
41.74999999999999
 20
-7.929716417161404
 30
0.0
 11
41.74999999999874
 21
-7.531143220804232
 31
0.0
  0
SPLINE
  5
BF
330
1F
100
AcDbEntity
  8
0
  6
Continuous
 62
     1
370
    25
100
AcDbSpline
210
0.0
220
0.0
230
1.0
 70
     8
 71
     3
 72
    20
 73
    16
 74
     0
 42
0.000000001
 43
0.00000001
 40
0.0
 40
0.0
 40
0.0
 40
0.0
 40
0.0191589241956782
 40
0.1042014209177106
 40
0.1890550845836413
 40
0.2740350274860617
 40
0.3590405122127179
 40
0.4438918772714615
 40
0.5289163715367625
 40
0.6138756526693967
 40
0.6910099486149763
 40
0.7683607192945106
 40
0.8454896351432323
 40
0.9227765571994734
 40
0.9999999999999999
 40
0.9999999999999999
 40
0.9999999999999999
 40
0.9999999999999999
 10
24.63069690395898
 20
-6.237713063578512
 30
0.0
 10
24.53727589244301
 20
-6.299278518428322
 30
0.0
 10
24.0291783581498
 20
-6.634120277249128
 30
0.0
 10
23.10583351939875
 20
-7.089556232546438
 30
0.0
 10
21.86445146930241
 20
-7.578340246088636
 30
0.0
 10
20.62109360091976
 20
-7.868143734070805
 30
0.0
 10
19.37739091534522
 20
-7.969081803169621
 30
0.0
 10
18.13593143703885
 20
-7.87390745518405
 30
0.0
 10
16.89198223644285
 20
-7.586591311214209
 30
0.0
 10
15.68647454433183
 20
-7.128006097055992
 30
0.0
 10
14.52054661105272
 20
-6.52635823837559
 30
0.0
 10
13.38882692212496
 20
-5.815047497280544
 30
0.0
 10
12.26056730155919
 20
-4.981625834656612
 30
0.0
 10
11.12977126613419
 20
-4.054588199444084
 30
0.0
 10
10.37648726195411
 20
-3.369811418019124
 30
0.0
 10
9.999999999994197
 20
-3.02756369463487
 30
0.0
  0
SPLINE
  5
C0
330
1F
100
AcDbEntity
  8
0
  6
Continuous
 62
     4
370
    25
100
AcDbSpline
210
0.0
220
0.0
230
1.0
 70
    24
 71
     3
 72
     8
 73
     4
 74
     0
 42
0.000000001
 43
0.00000001
 40
0.0
 40
0.0
 40
0.0
 40
0.0
 40
1.0
 40
1.0
 40
1.0
 40
1.0
 10
9.999999999999991
 20
-2.192705880214016
 30
0.0
 10
9.999999999999991
 20
-2.444035243297939
 30
0.0
 10
9.999999999999991
 20
-2.723990118754099
 30
0.0
 10
9.999999999999991
 20
-3.027563694628868
 30
0.0
  0
SPLINE
  5
C1
330
1F
100
AcDbEntity
  8
0
  6
Continuous
 62
     1
370
    25
100
AcDbSpline
210
0.0
220
0.0
230
1.0
 70
     8
 71
     3
 72
    16
 73
    12
 74
     0
 42
0.000000001
 43
0.00000001
 40
0.0
 40
0.0
 40
0.0
 40
0.0
 40
0.0017872011112123
 40
0.1281110467131841
 40
0.2545363519667965
 40
0.3810990043909583
 40
0.5074886568437998
 40
0.6338108428512448
 40
0.760219531456789
 40
0.8867850459768747
 40
1.0
 40
1.0
 40
1.0
 40
1.0
 10
21.46947490068181
 20
-6.60250420854722
 30
0.0
 10
21.46264299079703
 20
-6.604192401998684
 30
0.0
 10
20.97291459878864
 20
-6.725206331972483
 30
0.0
 10
20.00024820249022
 20
-6.76570821390353
 30
0.0
 10
18.5501151236431
 20
-6.69830999863269
 30
0.0
 10
17.09863265784028
 20
-6.382124058288622
 30
0.0
 10
15.64893122739338
 20
-5.860076121897663
 30
0.0
 10
14.19998504284733
 20
-5.141492419860917
 30
0.0
 10
12.7501202204612
 20
-4.250708422320482
 30
0.0
 10
11.34891251374197
 20
-3.260048751809483
 30
0.0
 10
10.43263186563224
 20
-2.535030925836625
 30
0.0
 10
10.0
 20
-2.192705880214024
 30
0.0
  0
SPLINE
  5
C2
330
1F
100
AcDbEntity
  8
0
  6
Continuous
 62
     1
370
    25
100
AcDbSpline
210
0.0
220
0.0
230
1.0
 70
     8
 71
     3
 72
    14
 73
    10
 74
     0
 42
0.000000001
 43
0.00000001
 40
0.0
 40
0.0
 40
0.0
 40
0.0
 40
0.1582364676143296
 40
0.3166029683790946
 40
0.4746457385771577
 40
0.6331431068356722
 40
0.7911968438168422
 40
0.96528972131803
 40
1.0
 40
1.0
 40
1.0
 40
1.0
 10
9.999999999999991
 20
-4.93609936015566
 30
0.0
 10
10.37647834896429
 20
-5.221357362274435
 30
0.0
 10
11.12974442352727
 20
-5.792107781481314
 30
0.0
 10
12.2605140606663
 20
-6.503285237960513
 30
0.0
 10
13.38874455030004
 20
-7.091001910106782
 30
0.0
 10
14.520446407867
 20
-7.535127036027264
 30
0.0
 10
15.68632386086615
 20
-7.823524063613264
 30
0.0
 10
16.5597890761953
 20
-7.954855568668602
 30
0.0
 10
17.05696422068864
 20
-7.92574328677611
 30
0.0
 10
17.13961185942441
 20
-7.920903822488174
 30
0.0
  0
SPLINE
  5
C3
330
1F
100
AcDbEntity
  8
0
  6
Continuous
 62
     1
370
    25
100
AcDbSpline
210
0.0
220
0.0
230
1.0
 70
     8
 71
     3
 72
    13
 73
     9
 74
     0
 42
0.000000001
 43
0.00000001
 40
0.0
 40
0.0
 40
0.0
 40
0.0
 40
0.0142831587331259
 40
0.2112481672380882
 40
0.4084158418844068
 40
0.6057831410998027
 40
0.8027283564697709
 40
1.0
 40
1.0
 40
1.0
 40
1.0
 10
35.44678037393241
 20
5.322497780785234
 30
0.0
 10
35.4768130143804
 20
5.346103714865821
 30
0.0
 10
35.92099629137816
 20
5.695235892393316
 30
0.0
 10
36.77792058965632
 20
6.252466327427594
 30
0.0
 10
38.02089049595477
 20
6.956499657131058
 30
0.0
 10
39.26499972742749
 20
7.472841806537456
 30
0.0
 10
40.50647083613405
 20
7.824824528623338
 30
0.0
 10
41.33526152084847
 20
7.896166001365997
 30
0.0
 10
41.74999999999999
 20
7.931866274609194
 30
0.0
  0
SPLINE
  5
C4
330
1F
100
AcDbEntity
  8
0
  6
Continuous
 62
     1
370
    25
100
AcDbSpline
210
0.0
220
0.0
230
1.0
 70
     8
 71
     3
 72
    14
 73
    10
 74
     0
 42
0.000000001
 43
0.00000001
 40
0.0
 40
0.0
 40
0.0
 40
0.0
 40
0.1469643548479155
 40
0.2943161885653631
 40
0.4413871676501392
 40
0.6140266595616843
 40
0.786850461884234
 40
0.9597873553430978
 40
1.0
 40
1.0
 40
1.0
 40
1.0
 10
36.75341232800455
 20
3.739231401892862
 30
0.0
 10
36.34261407797113
 20
3.996623949525525
 30
0.0
 10
35.51993448777883
 20
4.512087673111888
 30
0.0
 10
34.28396787738307
 20
5.150419618808448
 30
0.0
 10
32.97811956924825
 20
5.701664964637632
 30
0.0
 10
31.60050600599415
 20
6.119031021545583
 30
0.0
 10
30.15011954901351
 20
6.337605695370854
 30
0.0
 10
29.06953948153194
 20
6.391227662081748
 30
0.0
 10
28.47335443168709
 20
6.305860694802368
 30
0.0
 10
28.360878571917
 20
6.289755421711047
 30
0.0
  0
LINE
  5
C5
330
1F
100
AcDbEntity
  8
0
  6
Continuous
 62
     1
370
    25
100
AcDbLine
 10
36.75341232800454
 20
3.739231401892863
 30
0.0
 11
36.74999999999999
 21
3.736368118722781
 31
0.0
  0
SPLINE
  5
C6
330
1F
100
AcDbEntity
  8
0
  6
Continuous
 62
     1
370
    25
100
AcDbSpline
210
0.0
220
0.0
230
1.0
 70
    24
 71
     3
 72
     8
 73
     4
 74
     0
 42
0.000000001
 43
0.00000001
 40
0.0
 40
0.0
 40
0.0
 40
0.0
 40
1.0
 40
1.0
 40
1.0
 40
1.0
 10
36.75000000000001
 20
2.37073005406791
 30
0.0
 10
36.75000000000001
 20
2.849248124110907
 30
0.0
 10
36.75
 20
3.307186531291083
 30
0.0
 10
36.75000000000001
 20
3.736368118722726
 30
0.0
  0
SPLINE
  5
C7
330
1F
100
AcDbEntity
  8
0
  6
Continuous
 62
     1
370
    25
100
AcDbSpline
210
0.0
220
0.0
230
1.0
 70
     8
 71
     3
 72
    12
 73
     8
 74
     0
 42
0.000000001
 43
0.00000001
 40
0.0
 40
0.0
 40
0.0
 40
0.0
 40
0.5000000000000007
 40
0.5000000000000007
 40
0.7500000000000004
 40
0.7500000000000004
 40
1.0
 40
1.0
 40
1.0
 40
1.0
 10
41.74999999999999
 20
-2.12016595538641
 30
0.0
 10
40.87732973825548
 20
-1.43235272824226
 30
0.0
 10
40.01770572116982
 20
-0.7119220747674451
 30
0.0
 10
38.74955254449562
 20
0.4219339881946937
 30
0.0
 10
38.33013585197271
 20
0.8094323278618599
 30
0.0
 10
37.52074484029423
 20
1.585620105550962
 30
0.0
 10
37.12811696924773
 20
1.976500027144736
 30
0.0
 10
36.75000000000001
 20
2.37073005406791
 30
0.0
  0
SPLINE
  5
C8
330
1F
100
AcDbEntity
  8
0
  6
Continuous
 62
     1
370
    25
100
AcDbSpline
210
0.0
220
0.0
230
1.0
 70
    24
 71
     3
 72
    10
 73
     6
 74
     0
 42
0.000000001
 43
0.00000001
 40
0.0
 40
0.0
 40
0.0
 40
0.0
 40
0.5
 40
0.5
 40
1.0
 40
1.0
 40
1.0
 40
1.0
 10
41.74999999999999
 20
-6.261392419698817
 30
0.0
 10
41.75
 20
-5.781325471493804
 30
0.0
 10
41.74999999999999
 20
-5.174742474783697
 30
0.0
 10
41.74999999999999
 20
-3.764495384534625
 30
0.0
 10
41.74999999999999
 20
-2.962052900495875
 30
0.0
 10
41.74999999999999
 20
-2.120165955386663
 30
0.0
  0
LINE
  5
C9
330
1F
100
AcDbEntity
  8
0
  6
Continuous
 62
     1
370
    25
100
AcDbLine
 10
36.74999999999999
 20
2.938794364020485
 30
0.0
 11
41.74999999999999
 21
0.0010749287238972
 31
0.0
  0
LINE
  5
CA
330
1F
100
AcDbEntity
  8
0
  6
Continuous
 62
     1
370
    25
100
AcDbLine
 10
41.74999999999999
 20
0.0010749287238972
 30
0.0
 11
41.74999999999999
 21
-2.120165955386411
 31
0.0
  0
SPLINE
  5
CB
330
1F
100
AcDbEntity
  8
0
  6
Continuous
 62
     1
370
    25
100
AcDbSpline
210
0.0
220
0.0
230
1.0
 70
     8
 71
     3
 72
    23
 73
    19
 74
     0
 42
0.000000001
 43
0.00000001
 40
0.0
 40
0.0
 40
0.0
 40
0.0
 40
0.020199251439788
 40
0.0859937858822664
 40
0.151831374455966
 40
0.2175733355726519
 40
0.2832952542831905
 40
0.3490793625038631
 40
0.4149232900535197
 40
0.4806715968307367
 40
0.5463918483548036
 40
0.612166302270207
 40
0.6780141624579151
 40
0.7437695920513616
 40
0.8094889576586483
 40
0.875254530596939
 40
0.9411039164015609
 40
1.0
 40
1.0
 40
1.0
 40
1.0
 10
32.04614668683121
 20
-5.946864999463847
 30
0.0
 10
31.89775343625276
 20
-5.993361736544682
 30
0.0
 10
31.2660024302981
 20
-6.191311173664773
 30
0.0
 10
30.15005443984178
 20
-6.337243816930617
 30
0.0
 10
28.69882284192439
 20
-6.369612965001678
 30
0.0
 10
27.24935970452646
 20
-6.175579527757639
 30
0.0
 10
25.80034317387511
 20
-5.779765950895396
 30
0.0
 10
24.35006316375775
 20
-5.190492438557313
 30
0.0
 10
22.8986959167097
 20
-4.429380291726718
 30
0.0
 10
21.44910805118375
 20
-3.519908843982005
 30
0.0
 10
20.00012650973228
 20
-2.493432378766367
 30
0.0
 10
18.55002872967264
 20
-1.383832399793608
 30
0.0
 10
17.09858985048538
 20
-0.229209076123571
 30
0.0
 10
15.64886218680241
 20
0.934143331449944
 30
0.0
 10
14.19988999247149
 20
2.066945978394441
 30
0.0
 10
12.7499995889579
 20
3.12823931981212
 30
0.0
 10
11.34889723764287
 20
4.061637859134467
 30
0.0
 10
10.43260777953271
 20
4.56771215901094
 30
0.0
 10
9.999999999999996
 20
4.806645039019926
 30
0.0
  0
SPLINE
  5
CC
330
1F
100
AcDbEntity
  8
0
  6
Continuous
 62
     4
370
    25
100
AcDbSpline
210
0.0
220
0.0
230
1.0
 70
    24
 71
     3
 72
    14
 73
    10
 74
     0
 42
0.000000001
 43
0.00000001
 40
0.0
 40
0.0
 40
0.0
 40
0.0
 40
0.25
 40
0.25
 40
0.5
 40
0.5
 40
0.75
 40
0.75
 40
1.0
 40
1.0
 40
1.0
 40
1.0
 10
9.999999999999991
 20
4.806645039019932
 30
0.0
 10
9.999999999999991
 20
4.355639394500144
 30
0.0
 10
9.999999999999991
 20
3.849910179508986
 30
0.0
 10
9.999999999999991
 20
2.754236021216491
 30
0.0
 10
9.999999999999991
 20
2.164495656974204
 30
0.0
 10
9.999999999999991
 20
0.9411856660357809
 30
0.0
 10
9.999999999999991
 20
0.3079692941301073
 30
0.0
 10
9.999999999999991
 20
-0.9554871090759377
 30
0.0
 10
9.999999999999991
 20
-1.585390442567236
 30
0.0
 10
9.999999999999991
 20
-2.192705880214017
 30
0.0
  0
SPLINE
  5
CD
330
1F
100
AcDbEntity
  8
0
  6
Continuous
 62
     4
370
    25
100
AcDbSpline
210
0.0
220
0.0
230
1.0
 70
    24
 71
     3
 72
    10
 73
     6
 74
     0
 42
0.000000001
 43
0.00000001
 40
0.0
 40
0.0
 40
0.0
 40
0.0
 40
0.0489672056072046
 40
0.5244836028036024
 40
1.0
 40
1.0
 40
1.0
 40
1.0
 10
9.999999999999988
 20
5.375075378755373
 30
0.0
 10
9.999999999999988
 20
5.375899115698631
 30
0.0
 10
9.999999999999988
 20
5.384722092513513
 30
0.0
 10
9.999999999999988
 20
5.252994219591039
 30
0.0
 10
9.999999999999988
 20
4.955428099210296
 30
0.0
 10
9.999999999999988
 20
4.806645039019926
 30
0.0
  0
SPLINE
  5
CE
330
1F
100
AcDbEntity
  8
0
  6
Continuous
 62
     1
370
    25
100
AcDbSpline
210
0.0
220
0.0
230
1.0
 70
    24
 71
     3
 72
     8
 73
     4
 74
     0
 42
0.000000001
 43
0.00000001
 40
0.0
 40
0.0
 40
0.0
 40
0.0
 40
1.0
 40
1.0
 40
1.0
 40
1.0
 10
37.59571283100883
 20
4.446005443304191
 30
0.0
 10
37.34202788756785
 20
4.233138500827637
 30
0.0
 10
37.05857687316551
 20
3.995294859185805
 30
0.0
 10
36.75341232800455
 20
3.739231401892861
 30
0.0
  0
SPLINE
  5
CF
330
1F
100
AcDbEntity
  8
0
  6
Continuous
 62
     1
370
    25
100
AcDbSpline
210
0.0
220
0.0
230
1.0
 70
     8
 71
     3
 72
     9
 73
     5
 74
     0
 42
0.000000001
 43
0.00000001
 40
0.0
 40
0.0
 40
0.0
 40
0.0
 40
0.8513899591233703
 40
1.0
 40
1.0
 40
1.0
 40
1.0
 10
41.75
 20
5.557324928723897
 30
0.0
 10
41.26613278690079
 20
5.552328504465479
 30
0.0
 10
40.69780659522547
 20
5.546459954801633
 30
0.0
 10
40.12981085745862
 20
5.433643506907544
 30
0.0
 10
40.04540098765133
 20
5.416877849974449
 30
0.0
  0
SPLINE
  5
D0
330
1F
100
AcDbEntity
  8
0
  6
Continuous
 62
     1
370
    25
100
AcDbSpline
210
0.0
220
0.0
230
1.0
 70
     8
 71
     3
 72
    10
 73
     6
 74
     0
 42
0.000000001
 43
0.00000001
 40
0.0
 40
0.0
 40
0.0
 40
0.0
 40
0.5
 40
0.5
 40
1.0
 40
1.0
 40
1.0
 40
1.0
 10
41.74999999999999
 20
5.557324928723896
 30
0.0
 10
41.06514655856021
 20
5.327144611636839
 30
0.0
 10
40.37646394394296
 20
5.116359780453944
 30
0.0
 10
38.99147315865432
 20
4.744028020953074
 30
0.0
 10
38.29492174548521
 20
4.582845792818466
 30
0.0
 10
37.59571283100327
 20
4.446005443299519
 30
0.0
  0
SPLINE
  5
D1
330
1F
100
AcDbEntity
  8
0
  6
Continuous
 62
     4
370
    25
100
AcDbSpline
210
0.0
220
0.0
230
1.0
 70
    24
 71
     3
 72
    10
 73
     6
 74
     0
 42
0.000000001
 43
0.00000001
 40
0.0
 40
0.0
 40
0.0
 40
0.0
 40
0.4971091516759051
 40
0.7762896463370876
 40
0.9999999999999999
 40
0.9999999999999999
 40
0.9999999999999999
 40
0.9999999999999999
 10
9.99999999999999
 20
-4.998716908559703
 30
0.0
 10
9.99999999999999
 20
-5.111911809675592
 30
0.0
 10
9.999999999999988
 20
-5.28867787696317
 30
0.0
 10
9.99999999999999
 20
-5.374737398210686
 30
0.0
 10
9.99999999999999
 20
-5.37349607206415
 30
0.0
 10
9.99999999999999
 20
-5.372943869708154
 30
0.0
  0
SPLINE
  5
D2
330
1F
100
AcDbEntity
  8
0
  6
Continuous
 62
     1
370
    25
100
AcDbSpline
210
0.0
220
0.0
230
1.0
 70
    24
 71
     3
 72
    10
 73
     6
 74
     0
 42
0.000000001
 43
0.00000001
 40
0.0
 40
0.0
 40
0.0
 40
0.0
 40
0.5
 40
0.5
 40
1.0
 40
1.0
 40
1.0
 40
1.0
 10
41.74999999999999
 20
5.557324928723897
 30
0.0
 10
41.74999999999999
 20
5.894130967131952
 30
0.0
 10
41.75000000000001
 20
6.285530775356641
 30
0.0
 10
41.75
 20
7.106686518850687
 30
0.0
 10
41.75
 20
7.534345325398085
 30
0.0
 10
41.75
 20
7.931866274609196
 30
0.0
  0
LINE
  5
D3
330
1F
100
AcDbEntity
  8
0
  6
Continuous
 62
     1
370
    25
100
AcDbLine
 10
41.74999999999999
 20
0.0010749287238972
 30
0.0
 11
41.74999999999999
 21
5.557324928723896
 31
0.0
  0
LINE
  5
D4
330
1F
100
AcDbEntity
  8
중심선
100
AcDbLine
 10
-50.14999999999999
 20
0.0010749287238931
 30
0.0
 11
44.74999999999997
 21
0.0010749287238973
 31
0.0
  0
CIRCLE
  5
D5
330
1F
100
AcDbEntity
  8
외형선
100
AcDbCircle
 10
0.0000000000000087
 20
0.0
 30
0.0
 40
3.000000000000003
  0
INSERT
  5
D6
330
1F
100
AcDbEntity
  8
0
  6
Continuous
 62
     7
100
AcDbBlockReference
 66
     1
  2
블럭10
 10
-16.6381869743017
 20
-52.04609937292004
 30
0.0
  0
ATTRIB
  5
D7
330
D6
100
AcDbEntity
  8
FORMAT
 62
     2
100
AcDbText
 10
-25.81948226304298
 20
-49.97073246008785
 30
0.0
 40
4.233333333333333
  1
E5254040 [ 2 FLUTE ]
 41
0.75
  7
SLDTEXTSTYLE0
 11
-25.81948226304298
 21
-52.08739912675452
 31
0.0
100
AcDbAttribute
  2
AUTOATTR0
 70
     0
 74
     1
  0
SEQEND
  5
D8
330
D6
100
AcDbEntity
  8
0
  6
Continuous
 62
     7
  0
HATCH
  5
D9
330
1F
100
AcDbEntity
  8
중심선
100
AcDbHatch
 10
0.0
 20
0.0
 30
0.0
210
0.0
220
0.0
230
1.0
  2
SOLID
 70
     1
 71
     0
 91
        1
 92
        0
 93
        4
 72
     1
 10
-10.92327766992085
 20
-35.7989250712761
 11
-14.36955291375813
 21
-35.7989250712761
 72
     1
 10
-14.36955291375813
 20
-35.7989250712761
 11
-16.49778277296215
 21
-38.3352506518487
 72
     1
 10
-16.49778277296215
 20
-38.3352506518487
 11
-13.05147444401172
 21
-38.33521122254621
 72
     1
 10
-13.05147444401172
 20
-38.33521122254621
 11
-10.92327766992085
 21
-35.7989250712761
 97
        0
 75
     0
 76
     1
 98
        1
 10
0.0
 20
0.0
  0
HATCH
  5
DA
330
1F
100
AcDbEntity
  8
중심선
100
AcDbHatch
 10
0.0
 20
0.0
 30
0.0
210
0.0
220
0.0
230
1.0
  2
SOLID
 70
     1
 71
     0
 91
        1
 92
        0
 93
        4
 72
     1
 10
-5.910513678884898
 20
-35.7989250712761
 11
-9.356788922722181
 21
-35.7989250712761
 72
     1
 10
-9.356788922722181
 20
-35.7989250712761
 11
-13.88792693107957
 21
-41.19892507127612
 72
     1
 10
-13.88792693107957
 20
-41.19892507127612
 11
-10.44165168724229
 21
-41.19892507127612
 72
     1
 10
-10.44165168724229
 20
-41.19892507127612
 11
-5.910513678884898
 21
-35.7989250712761
 97
        0
 75
     0
 76
     1
 98
        1
 10
0.0
 20
0.0
  0
HATCH
  5
DB
330
1F
100
AcDbEntity
  8
중심선
100
AcDbHatch
 10
0.0
 20
0.0
 30
0.0
210
0.0
220
0.0
230
1.0
  2
SOLID
 70
     1
 71
     0
 91
        1
 92
        0
 93
        4
 72
     1
 10
-0.8977496878490032
 20
-35.79892507127613
 11
-4.344024931686119
 21
-35.7989250712761
 72
     1
 10
-4.344024931686119
 20
-35.7989250712761
 11
-11.39246183357537
 21
-44.19892507127612
 72
     1
 10
-11.39246183357537
 20
-44.19892507127612
 11
-7.946186589738086
 21
-44.19892507127612
 72
     1
 10
-7.946186589738086
 20
-44.19892507127612
 11
-0.8977496878490028
 21
-35.79892507127613
 97
        0
 75
     0
 76
     1
 98
        1
 10
0.0
 20
0.0
  0
HATCH
  5
DC
330
1F
100
AcDbEntity
  8
중심선
100
AcDbHatch
 10
0.0
 20
0.0
 30
0.0
210
0.0
220
0.0
230
1.0
  2
SOLID
 70
     1
 71
     0
 91
        1
 92
        0
 93
        6
 72
     3
 10
3.902140743163196
 20
-39.99892507132738
 11
3.960054785062284
 21
1.540850780301639E-10
 40
0.3939339440162633
 50
17.09539180608433
 51
320.0019657685079
 73
     0
 72
     1
 10
5.585140398863792
 20
-38.58681907591441
 11
7.89044227256483
 21
-36.65249236586649
 72
     3
 10
3.902140743110349
 20
-39.99892507127625
 11
6.600054785286829
 21
-1.249000902703301E-13
 40
0.6363583540795982
 50
39.99873849337408
 51
368.4976242363724
 73
     1
 72
     1
 10
10.32747323501096
 20
-39.03892507120613
 11
2.582208049946273
 21
-39.0389250712061
 72
     1
 10
2.582208049946272
 20
-39.0389250712061
 11
2.582183005500338
 21
-40.95892507120602
 72
     1
 10
2.582183005500338
 20
-40.95892507120602
 11
7.023562774972376
 21
-40.95892507120599
 97
        0
 75
     0
 76
     1
 98
        1
 10
0.0
 20
0.0
  0
DIMENSION
  5
DD
330
1F
100
AcDbEntity
  8
치수문자_일반주서
100
AcDbDimension
  2
_D
 10
-47.15
 20
43.52204973625513
 30
0.0
 11
-2.70000000000001
 21
43.52204973625513
 31
0.0
 70
   160
  1
<>
 71
     2
 42
88.9
  3
SLDDIMSTYLE0
100
AcDbAlignedDimension
 13
41.74999999999999
 23
7.931866274609194
 33
0.0
 14
-47.15000000000001
 24
6.938574928723886
 34
0.0
100
AcDbRotatedDimension
1001
ACAD
1000
DSTYLE
1002
{
1070
   273
1070
     7
1002
}
  0
DIMENSION
  5
F1
330
1F
100
AcDbEntity
  8
치수문자_일반주서
100
AcDbDimension
  2
_D_1
 10
-59.95999999999996
 20
-7.936425071276169
 30
0.0
 11
-59.95999999999999
 21
0.0010749287238854
 31
0.0
 70
   160
  1
%%c<>
 71
     2
 42
15.875
  3
SLDDIMSTYLE2
100
AcDbAlignedDimension
 13
-46.14999999999998
 23
7.938574928723879
 33
0.0
 14
-46.14999999999998
 24
-7.936425071276121
 34
0.0
 50
90.0000000000002
100
AcDbRotatedDimension
1001
ACAD
1000
DSTYLE
1002
{
1070
   171
1070
     5
1070
   273
1070
     7
1002
}
1001
PE_URL
1000

  0
DIMENSION
  5
106
330
1F
100
AcDbEntity
  8
치수문자_일반주서
100
AcDbDimension
  2
_D_2
 10
9.999999999999996
 20
28.1684837881097
 30
0.0
 11
25.87500000000001
 21
28.1684837881097
 31
0.0
 70
   160
  1
<>
 71
     2
 42
31.75
  3
SLDDIMSTYLE2
100
AcDbAlignedDimension
 13
41.74999999999999
 23
7.931866274609194
 33
0.0
 14
9.999999999999996
 24
4.806645039019925
 34
0.0
 50
-0.0000000000000256
100
AcDbRotatedDimension
1001
ACAD
1000
DSTYLE
1002
{
1070
   273
1070
     7
1002
}
  0
DIMENSION
  5
11A
330
1F
100
AcDbEntity
  8
치수문자_일반주서
100
AcDbDimension
  2
_D_3
 10
61.95935371504387
 20
-7.936425071275956
 30
0.0
 11
61.95935371504373
 21
28.92819073936763
 31
0.0
 70
   160
  1
%%c<>
 71
     2
 42
15.87500000000001
  3
SLDDIMSTYLE2
100
AcDbAlignedDimension
 13
17.13961185942441
 23
7.938574928723897
 33
0.0
 14
17.13961185942441
 24
-7.93642507127611
 34
0.0
 50
90.0000000000002
100
AcDbRotatedDimension
1001
ACAD
1000
DSTYLE
1002
{
1070
   171
1070
     5
1070
   273
1070
     7
1002
}
  0
INSERT
  5
133
330
1F
100
AcDbEntity
  8
외형선
100
AcDbBlockReference
  2
SW_DOWELSYMBOL_0
 10
0.0000000000000087
 20
0.0
 30
0.0
  0
ENDSEC
  0
SECTION
  2
OBJECTS
  0
DICTIONARY
  5
C
330
0
100
AcDbDictionary
281
     1
  3
ACAD_GROUP
350
D
  3
ACAD_IMAGE_VARS
350
157
  3
ACAD_LAYOUT
350
1A
  3
ACAD_MLINESTYLE
350
17
  3
ACAD_PLOTSETTINGS
350
19
  3
ACAD_PLOTSTYLENAME
350
E
  3
ACAD_SCALELIST
350
47
  3
APPDATA
350
155
  3
DWGPROPS
350
180
  0
DICTIONARY
  5
17D
330
1F
100
AcDbDictionary
280
     1
281
     1
  3
DIM_BOUNDING_BOXES_V1
360
17E
  0
DICTIONARY
  5
D
102
{ACAD_REACTORS
330
C
102
}
330
C
100
AcDbDictionary
281
     1
  0
RASTERVARIABLES
  5
157
102
{ACAD_REACTORS
330
C
102
}
330
C
100
AcDbRasterVariables
 90
        0
 70
     1
 71
     1
 72
     1
  0
DICTIONARY
  5
1A
102
{ACAD_REACTORS
330
C
102
}
330
C
100
AcDbDictionary
281
     1
  3
Layout1
350
1E
  3
Layout2
350
26
  3
Model
350
22
  0
DICTIONARY
  5
17
102
{ACAD_REACTORS
330
C
102
}
330
C
100
AcDbDictionary
281
     1
  3
Standard
350
18
  0
DICTIONARY
  5
19
102
{ACAD_REACTORS
330
C
102
}
330
C
100
AcDbDictionary
281
     1
  0
ACDBDICTIONARYWDFLT
  5
E
102
{ACAD_REACTORS
330
C
102
}
330
C
100
AcDbDictionary
281
     1
  3
Normal
350
F
100
AcDbDictionaryWithDefault
340
F
  0
DICTIONARY
  5
47
102
{ACAD_REACTORS
330
C
102
}
330
C
100
AcDbDictionary
281
     1
  3
A0
350
48
  3
A1
350
49
  3
A2
350
4A
  3
A3
350
4B
  3
A4
350
4C
  3
A5
350
4D
  3
A6
350
4E
  3
A7
350
4F
  3
A8
350
50
  3
A9
350
51
  3
B0
350
52
  3
B1
350
53
  3
B2
350
54
  3
B3
350
55
  3
B4
350
56
  3
B5
350
57
  3
B6
350
58
  3
B7
350
59
  3
B8
350
5A
  3
B9
350
5B
  3
C0
350
5C
  3
C1
350
5D
  3
C2
350
5E
  3
C3
350
5F
  3
C4
350
60
  3
C5
350
61
  3
C6
350
62
  3
C7
350
63
  3
C8
350
64
  3
C9
350
65
  3
D0
350
66
  3
D1
350
67
  3
D2
350
68
  0
DICTIONARY
  5
155
102
{ACAD_REACTORS
330
C
102
}
330
C
100
AcDbDictionary
281
     1
  0
XRECORD
  5
180
102
{ACAD_REACTORS
330
C
102
}
330
C
100
AcDbXrecord
280
     1
  1
DWGPROPS COOKIE
  2

  3

  4

  6

  7

  8
12016016
  9

300
=
301
=
302
=
303
=
304
=
305
=
306
=
307
=
308
=
309
=
 40
0.0
 41
2458263.24726794
 42
2459730.975418217
  1

 90
        0
  0
DICTIONARY
  5
17E
102
{ACAD_REACTORS
330
17D
102
}
330
17D
100
AcDbDictionary
281
     1
  0
LAYOUT
  5
1E
102
{ACAD_REACTORS
330
1A
102
}
330
1A
100
AcDbPlotSettings
  1

  2
none_device
  4

  6

 40
0.0
 41
0.0
 42
0.0
 43
0.0
 44
0.0
 45
0.0
 46
0.0
 47
0.0
 48
0.0
 49
0.0
140
0.0
141
0.0
142
1.0
143
1.0
 70
   688
 72
     1
 73
     0
 74
     5
  7

 75
    16
147
1.0
148
0.0
149
0.0
100
AcDbLayout
  1
Layout1
 70
     1
 71
     1
 10
0.0
 20
0.0
 11
420.0
 21
297.0
 12
0.0
 22
0.0
 32
0.0
 14
1.000000000000000E+20
 24
1.000000000000000E+20
 34
1.000000000000000E+20
 15
-1.000000000000000E+20
 25
-1.000000000000000E+20
 35
-1.000000000000000E+20
146
0.0
 13
0.0
 23
0.0
 33
0.0
 16
1.0
 26
0.0
 36
0.0
 17
0.0
 27
1.0
 37
0.0
 76
     0
330
1B
  0
LAYOUT
  5
26
102
{ACAD_REACTORS
330
1A
102
}
330
1A
100
AcDbPlotSettings
  1

  2
none_device
  4

  6

 40
0.0
 41
0.0
 42
0.0
 43
0.0
 44
0.0
 45
0.0
 46
0.0
 47
0.0
 48
0.0
 49
0.0
140
0.0
141
0.0
142
1.0
143
1.0
 70
   688
 72
     1
 73
     0
 74
     5
  7

 75
    16
147
1.0
148
0.0
149
0.0
100
AcDbLayout
  1
Layout2
 70
     1
 71
     2
 10
0.0
 20
0.0
 11
0.0
 21
0.0
 12
0.0
 22
0.0
 32
0.0
 14
0.0
 24
0.0
 34
0.0
 15
0.0
 25
0.0
 35
0.0
146
0.0
 13
0.0
 23
0.0
 33
0.0
 16
1.0
 26
0.0
 36
0.0
 17
0.0
 27
1.0
 37
0.0
 76
     0
330
23
  0
LAYOUT
  5
22
102
{ACAD_REACTORS
330
1A
102
}
330
1A
100
AcDbPlotSettings
  1

  2
none_device
  4
ANSI_A_(11.00_x_8.50_Inches)
  6

 40
6.35
 41
19.05
 42
6.35000508
 43
19.05000254
 44
279.4
 45
215.9
 46
141.2801238158127
 47
85.23666363790527
 48
0.0
 49
0.0
140
0.0
141
0.0
142
0.0801202482387234
143
1.0
 70
  1696
 72
     0
 73
     0
 74
     0
  7

 75
     0
147
0.0235690232323232
148
0.0
149
0.0
100
AcDbLayout
  1
Model
 70
     1
 71
     0
 10
0.0
 20
0.0
 11
420.0
 21
297.0
 12
0.0
 22
0.0
 32
0.0
 14
-64.33500000000002
 24
-49.97073246008785
 34
0.0
 15
62.50968704837719
 25
47.89704973625513
 35
0.0
146
0.0
 13
0.0
 23
0.0
 33
0.0
 16
1.0
 26
0.0
 36
0.0
 17
0.0
 27
1.0
 37
0.0
 76
     0
330
1F
331
29
  0
MLINESTYLE
  5
18
102
{ACAD_REACTORS
330
17
102
}
330
17
100
AcDbMlineStyle
  2
Standard
 70
     0
  3

 62
   256
 51
90.0
 52
90.0
 71
     2
 49
0.5
 62
   256
  6
BYLAYER
 49
-0.5
 62
   256
  6
BYLAYER
  0
ACDBPLACEHOLDER
  5
F
102
{ACAD_REACTORS
330
E
102
}
330
E
  0
SCALE
  5
48
102
{ACAD_REACTORS
330
47
102
}
330
47
100
AcDbScale
 70
     0
300
1:1
140
1.0
141
1.0
290
     1
  0
SCALE
  5
49
102
{ACAD_REACTORS
330
47
102
}
330
47
100
AcDbScale
 70
     0
300
1:2
140
1.0
141
2.0
290
     0
  0
SCALE
  5
4A
102
{ACAD_REACTORS
330
47
102
}
330
47
100
AcDbScale
 70
     0
300
1:4
140
1.0
141
4.0
290
     0
  0
SCALE
  5
4B
102
{ACAD_REACTORS
330
47
102
}
330
47
100
AcDbScale
 70
     0
300
1:5
140
1.0
141
5.0
290
     0
  0
SCALE
  5
4C
102
{ACAD_REACTORS
330
47
102
}
330
47
100
AcDbScale
 70
     0
300
1:8
140
1.0
141
8.0
290
     0
  0
SCALE
  5
4D
102
{ACAD_REACTORS
330
47
102
}
330
47
100
AcDbScale
 70
     0
300
1:10
140
1.0
141
10.0
290
     0
  0
SCALE
  5
4E
102
{ACAD_REACTORS
330
47
102
}
330
47
100
AcDbScale
 70
     0
300
1:16
140
1.0
141
16.0
290
     0
  0
SCALE
  5
4F
102
{ACAD_REACTORS
330
47
102
}
330
47
100
AcDbScale
 70
     0
300
1:20
140
1.0
141
20.0
290
     0
  0
SCALE
  5
50
102
{ACAD_REACTORS
330
47
102
}
330
47
100
AcDbScale
 70
     0
300
1:30
140
1.0
141
30.0
290
     0
  0
SCALE
  5
51
102
{ACAD_REACTORS
330
47
102
}
330
47
100
AcDbScale
 70
     0
300
1:40
140
1.0
141
40.0
290
     0
  0
SCALE
  5
52
102
{ACAD_REACTORS
330
47
102
}
330
47
100
AcDbScale
 70
     0
300
1:50
140
1.0
141
50.0
290
     0
  0
SCALE
  5
53
102
{ACAD_REACTORS
330
47
102
}
330
47
100
AcDbScale
 70
     0
300
1:100
140
1.0
141
100.0
290
     0
  0
SCALE
  5
54
102
{ACAD_REACTORS
330
47
102
}
330
47
100
AcDbScale
 70
     0
300
2:1
140
2.0
141
1.0
290
     0
  0
SCALE
  5
55
102
{ACAD_REACTORS
330
47
102
}
330
47
100
AcDbScale
 70
     0
300
4:1
140
4.0
141
1.0
290
     0
  0
SCALE
  5
56
102
{ACAD_REACTORS
330
47
102
}
330
47
100
AcDbScale
 70
     0
300
8:1
140
8.0
141
1.0
290
     0
  0
SCALE
  5
57
102
{ACAD_REACTORS
330
47
102
}
330
47
100
AcDbScale
 70
     0
300
10:1
140
10.0
141
1.0
290
     0
  0
SCALE
  5
58
102
{ACAD_REACTORS
330
47
102
}
330
47
100
AcDbScale
 70
     0
300
100:1
140
100.0
141
1.0
290
     0
  0
SCALE
  5
59
102
{ACAD_REACTORS
330
47
102
}
330
47
100
AcDbScale
 70
     0
300
1/128" = 1'-0"
140
0.0078125
141
12.0
290
     0
  0
SCALE
  5
5A
102
{ACAD_REACTORS
330
47
102
}
330
47
100
AcDbScale
 70
     0
300
1/64" = 1'-0"
140
0.015625
141
12.0
290
     0
  0
SCALE
  5
5B
102
{ACAD_REACTORS
330
47
102
}
330
47
100
AcDbScale
 70
     0
300
1/32" = 1'-0"
140
0.03125
141
12.0
290
     0
  0
SCALE
  5
5C
102
{ACAD_REACTORS
330
47
102
}
330
47
100
AcDbScale
 70
     0
300
1/16" = 1'-0"
140
0.0625
141
12.0
290
     0
  0
SCALE
  5
5D
102
{ACAD_REACTORS
330
47
102
}
330
47
100
AcDbScale
 70
     0
300
3/32" = 1'-0"
140
0.09375
141
12.0
290
     0
  0
SCALE
  5
5E
102
{ACAD_REACTORS
330
47
102
}
330
47
100
AcDbScale
 70
     0
300
1/8" = 1'-0"
140
0.125
141
12.0
290
     0
  0
SCALE
  5
5F
102
{ACAD_REACTORS
330
47
102
}
330
47
100
AcDbScale
 70
     0
300
3/16" = 1'-0"
140
0.1875
141
12.0
290
     0
  0
SCALE
  5
60
102
{ACAD_REACTORS
330
47
102
}
330
47
100
AcDbScale
 70
     0
300
1/4" = 1'-0"
140
0.25
141
12.0
290
     0
  0
SCALE
  5
61
102
{ACAD_REACTORS
330
47
102
}
330
47
100
AcDbScale
 70
     0
300
3/8" = 1'-0"
140
0.375
141
12.0
290
     0
  0
SCALE
  5
62
102
{ACAD_REACTORS
330
47
102
}
330
47
100
AcDbScale
 70
     0
300
1/2" = 1'-0"
140
0.5
141
12.0
290
     0
  0
SCALE
  5
63
102
{ACAD_REACTORS
330
47
102
}
330
47
100
AcDbScale
 70
     0
300
3/4" = 1'-0"
140
0.75
141
12.0
290
     0
  0
SCALE
  5
64
102
{ACAD_REACTORS
330
47
102
}
330
47
100
AcDbScale
 70
     0
300
1" = 1'-0"
140
1.0
141
12.0
290
     0
  0
SCALE
  5
65
102
{ACAD_REACTORS
330
47
102
}
330
47
100
AcDbScale
 70
     0
300
1-1/2" = 1'-0"
140
1.5
141
12.0
290
     0
  0
SCALE
  5
66
102
{ACAD_REACTORS
330
47
102
}
330
47
100
AcDbScale
 70
     0
300
3" = 1'-0"
140
3.0
141
12.0
290
     0
  0
SCALE
  5
67
102
{ACAD_REACTORS
330
47
102
}
330
47
100
AcDbScale
 70
     0
300
6" = 1'-0"
140
6.0
141
12.0
290
     0
  0
SCALE
  5
68
102
{ACAD_REACTORS
330
47
102
}
330
47
100
AcDbScale
 70
     0
300
1'-0" = 1'-0"
140
12.0
141
12.0
290
     0
  0
ENDSEC
  0
EOF
