  0
SECTION
  2
HEADER
  9
$ACADVER
  1
AC1015
  9
$ACADMAINTVER
 70
     6
  9
$DWGCODEPAGE
  3
ANSI_949
  9
$INSBASE
 10
0.0
 20
0.0
 30
0.0
  9
$EXTMIN
 10
-70.68500000000004
 20
-49.97073246008785
 30
0.0
  9
$EXTMAX
 10
106.9596870483772
 20
49.48320800543221
 30
0.0
  9
$LIMMIN
 10
0.0
 20
0.0
  9
$LIMMAX
 10
420.0
 20
297.0
  9
$ORTHOMODE
 70
     0
  9
$REGENMODE
 70
     1
  9
$FILLMODE
 70
     1
  9
$QTEXTMODE
 70
     0
  9
$MIRRTEXT
 70
     1
  9
$LTSCALE
 40
1.0
  9
$ATTMODE
 70
     1
  9
$TEXTSIZE
 40
3.5
  9
$TRACEWID
 40
1.0
  9
$TEXTSTYLE
  7
Standard
  9
$CLAYER
  8
0
  9
$CELTYPE
  6
ByLayer
  9
$CECOLOR
 62
   256
  9
$CELTSCALE
 40
1.0
  9
$DISPSILH
 70
     0
  9
$DIMSCALE
 40
1.0
  9
$DIMASZ
 40
3.302
  9
$DIMEXO
 40
1.0
  9
$DIMDLI
 40
3.75
  9
$DIMRND
 40
0.0
  9
$DIMDLE
 40
0.0
  9
$DIMEXE
 40
1.0
  9
$DIMTP
 40
0.0
  9
$DIMTM
 40
0.0
  9
$DIMTXT
 40
3.5
  9
$DIMCEN
 40
2.5
  9
$DIMTSZ
 40
0.0
  9
$DIMTOL
 70
     0
  9
$DIMLIM
 70
     0
  9
$DIMTIH
 70
     1
  9
$DIMTOH
 70
     1
  9
$DIMSE1
 70
     0
  9
$DIMSE2
 70
     0
  9
$DIMTAD
 70
     1
  9
$DIMZIN
 70
     0
  9
$DIMBLK
  1

  9
$DIMASO
 70
     1
  9
$DIMSHO
 70
     1
  9
$DIMPOST
  1

  9
$DIMAPOST
  1

  9
$DIMALT
 70
     0
  9
$DIMALTD
 70
     3
  9
$DIMALTF
 40
0.0393700787401575
  9
$DIMLFAC
 40
1.0
  9
$DIMTOFL
 70
     1
  9
$DIMTVP
 40
0.0
  9
$DIMTIX
 70
     0
  9
$DIMSOXD
 70
     0
  9
$DIMSAH
 70
     0
  9
$DIMBLK1
  1

  9
$DIMBLK2
  1

  9
$DIMSTYLE
  2
ISO-25
  9
$DIMCLRD
 70
     0
  9
$DIMCLRE
 70
     0
  9
$DIMCLRT
 70
     0
  9
$DIMTFAC
 40
1.0
  9
$DIMGAP
 40
1.524
  9
$DIMJUST
 70
     0
  9
$DIMSD1
 70
     0
  9
$DIMSD2
 70
     0
  9
$DIMTOLJ
 70
     0
  9
$DIMTZIN
 70
     0
  9
$DIMALTZ
 70
     0
  9
$DIMALTTZ
 70
     0
  9
$DIMUPT
 70
     0
  9
$DIMDEC
 70
     2
  9
$DIMTDEC
 70
     2
  9
$DIMALTU
 70
     2
  9
$DIMALTTD
 70
     3
  9
$DIMTXSTY
  7
Standard
  9
$DIMAUNIT
 70
     0
  9
$DIMADEC
 70
     2
  9
$DIMALTRND
 40
0.0
  9
$DIMAZIN
 70
     0
  9
$DIMDSEP
 70
    44
  9
$DIMATFIT
 70
     3
  9
$DIMFRAC
 70
     0
  9
$DIMLDRBLK
  1

  9
$DIMLUNIT
 70
     2
  9
$DIMLWD
 70
    -2
  9
$DIMLWE
 70
    -2
  9
$DIMTMOVE
 70
     0
  9
$LUNITS
 70
     2
  9
$LUPREC
 70
     2
  9
$SKETCHINC
 40
1.0
  9
$FILLETRAD
 40
10.0
  9
$AUNITS
 70
     0
  9
$AUPREC
 70
     2
  9
$MENU
  1
.
  9
$ELEVATION
 40
0.0
  9
$PELEVATION
 40
0.0
  9
$THICKNESS
 40
0.0
  9
$LIMCHECK
 70
     0
  9
$CHAMFERA
 40
0.0
  9
$CHAMFERB
 40
0.0
  9
$CHAMFERC
 40
0.0
  9
$CHAMFERD
 40
0.0
  9
$SKPOLY
 70
     0
  9
$TDCREATE
 40
2458263.623023923
  9
$TDUCREATE
 40
2458263.248023923
  9
$TDUPDATE
 40
2458274.720263739
  9
$TDUUPDATE
 40
2458274.345263739
  9
$TDINDWG
 40
0.0003364236
  9
$TDUSRTIMER
 40
2458274.344927731
  9
$USRTIMER
 70
     1
  9
$ANGBASE
 50
0.0
  9
$ANGDIR
 70
     0
  9
$PDMODE
 70
     0
  9
$PDSIZE
 40
-1.0
  9
$PLINEWID
 40
0.0
  9
$SPLFRAME
 70
     0
  9
$SPLINETYPE
 70
     6
  9
$SPLINESEGS
 70
     8
  9
$HANDSEED
  5
168
  9
$SURFTAB1
 70
     6
  9
$SURFTAB2
 70
     6
  9
$SURFTYPE
 70
     6
  9
$SURFU
 70
     6
  9
$SURFV
 70
     6
  9
$UCSBASE
  2

  9
$UCSNAME
  2

  9
$UCSORG
 10
0.0
 20
0.0
 30
0.0
  9
$UCSXDIR
 10
1.0
 20
0.0
 30
0.0
  9
$UCSYDIR
 10
0.0
 20
1.0
 30
0.0
  9
$UCSORTHOREF
  2

  9
$UCSORTHOVIEW
 70
     0
  9
$UCSORGTOP
 10
0.0
 20
0.0
 30
0.0
  9
$UCSORGBOTTOM
 10
0.0
 20
0.0
 30
0.0
  9
$UCSORGLEFT
 10
0.0
 20
0.0
 30
0.0
  9
$UCSORGRIGHT
 10
0.0
 20
0.0
 30
0.0
  9
$UCSORGFRONT
 10
0.0
 20
0.0
 30
0.0
  9
$UCSORGBACK
 10
0.0
 20
0.0
 30
0.0
  9
$PUCSBASE
  2

  9
$PUCSNAME
  2

  9
$PUCSORG
 10
0.0
 20
0.0
 30
0.0
  9
$PUCSXDIR
 10
1.0
 20
0.0
 30
0.0
  9
$PUCSYDIR
 10
0.0
 20
1.0
 30
0.0
  9
$PUCSORTHOREF
  2

  9
$PUCSORTHOVIEW
 70
     0
  9
$PUCSORGTOP
 10
0.0
 20
0.0
 30
0.0
  9
$PUCSORGBOTTOM
 10
0.0
 20
0.0
 30
0.0
  9
$PUCSORGLEFT
 10
0.0
 20
0.0
 30
0.0
  9
$PUCSORGRIGHT
 10
0.0
 20
0.0
 30
0.0
  9
$PUCSORGFRONT
 10
0.0
 20
0.0
 30
0.0
  9
$PUCSORGBACK
 10
0.0
 20
0.0
 30
0.0
  9
$USERI1
 70
     0
  9
$USERI2
 70
     0
  9
$USERI3
 70
     0
  9
$USERI4
 70
     0
  9
$USERI5
 70
     0
  9
$USERR1
 40
0.0
  9
$USERR2
 40
0.0
  9
$USERR3
 40
0.0
  9
$USERR4
 40
0.0
  9
$USERR5
 40
0.0
  9
$WORLDVIEW
 70
     1
  9
$SHADEDGE
 70
     3
  9
$SHADEDIF
 70
    70
  9
$TILEMODE
 70
     1
  9
$MAXACTVP
 70
    64
  9
$PINSBASE
 10
0.0
 20
0.0
 30
0.0
  9
$PLIMCHECK
 70
     0
  9
$PEXTMIN
 10
1.000000000000000E+20
 20
1.000000000000000E+20
 30
1.000000000000000E+20
  9
$PEXTMAX
 10
-1.000000000000000E+20
 20
-1.000000000000000E+20
 30
-1.000000000000000E+20
  9
$PLIMMIN
 10
0.0
 20
0.0
  9
$PLIMMAX
 10
0.0
 20
0.0
  9
$UNITMODE
 70
     0
  9
$VISRETAIN
 70
     1
  9
$PLINEGEN
 70
     0
  9
$PSLTSCALE
 70
     1
  9
$TREEDEPTH
 70
  3020
  9
$CMLSTYLE
  2
Standard
  9
$CMLJUST
 70
     0
  9
$CMLSCALE
 40
20.0
  9
$PROXYGRAPHICS
 70
     1
  9
$MEASUREMENT
 70
     1
  9
$CELWEIGHT
370
    -1
  9
$ENDCAPS
280
     0
  9
$JOINSTYLE
280
     0
  9
$LWDISPLAY
290
     1
  9
$INSUNITS
 70
     4
  9
$HYPERLINKBASE
  1

  9
$STYLESHEET
  1

  9
$XEDIT
290
     1
  9
$CEPSNTYPE
380
     0
  9
$PSTYLEMODE
290
     1
  9
$FINGERPRINTGUID
  2
{2D268201-EFCE-4969-882E-B87A617B18C0}
  9
$VERSIONGUID
  2
{FAEB1C32-E019-11D5-929B-00C0DF256EC4}
  9
$EXTNAMES
290
     1
  9
$PSVPSCALE
 40
0.0
  9
$OLESTARTUP
290
     0
  0
ENDSEC
  0
SECTION
  2
CLASSES
  0
CLASS
  1
ACDBDICTIONARYWDFLT
  2
AcDbDictionaryWithDefault
  3
ObjectDBX Classes
 90
        0
280
     0
281
     0
  0
CLASS
  1
VISUALSTYLE
  2
AcDbVisualStyle
  3
ObjectDBX Classes
 90
     4095
280
     0
281
     0
  0
CLASS
  1
MATERIAL
  2
AcDbMaterial
  3
ObjectDBX Classes
 90
     1153
280
     0
281
     0
  0
CLASS
  1
SCALE
  2
AcDbScale
  3
ObjectDBX Classes
 90
     1153
280
     0
281
     0
  0
CLASS
  1
TABLESTYLE
  2
AcDbTableStyle
  3
ObjectDBX Classes
 90
     4095
280
     0
281
     0
  0
CLASS
  1
MLEADERSTYLE
  2
AcDbMLeaderStyle
  3
ACDB_MLEADERSTYLE_CLASS
 90
     4095
280
     0
281
     0
  0
CLASS
  1
SUN
  2
AcDbSun
  3
SCENEOE
 90
     1153
280
     0
281
     0
  0
CLASS
  1
ACDBPLACEHOLDER
  2
AcDbPlaceHolder
  3
ObjectDBX Classes
 90
        0
280
     0
281
     0
  0
CLASS
  1
LAYOUT
  2
AcDbLayout
  3
ObjectDBX Classes
 90
        0
280
     0
281
     0
  0
CLASS
  1
RASTERVARIABLES
  2
AcDbRasterVariables
  3
ISM
 90
        0
280
     0
281
     0
  0
ENDSEC
  0
SECTION
  2
TABLES
  0
TABLE
  2
VPORT
  5
8
330
0
100
AcDbSymbolTable
 70
     1
  0
VPORT
  5
29
330
8
100
AcDbSymbolTableRecord
100
AcDbViewportTableRecord
  2
*Active
 70
     0
 10
0.0
 20
0.0
 11
1.0
 21
1.0
 12
38.50626332946644
 22
10.01067399028206
 13
0.0
 23
0.0
 14
10.0
 24
10.0
 15
10.0
 25
10.0
 16
0.0
 26
0.0
 36
1.0
 17
0.0
 27
0.0
 37
0.0
 40
141.2063799425969
 41
1.666023166023166
 42
50.0
 43
0.0
 44
0.0
 50
0.0
 51
0.0
 71
    16
 72
  2000
 73
     1
 74
     3
 75
     0
 76
     0
 77
     0
 78
     0
281
     0
 65
     1
110
0.0
120
0.0
130
0.0
111
1.0
121
0.0
131
0.0
112
0.0
122
1.0
132
0.0
 79
     0
146
0.0
  0
ENDTAB
  0
TABLE
  2
LTYPE
  5
5
330
0
100
AcDbSymbolTable
 70
     6
  0
LTYPE
  5
14
330
5
100
AcDbSymbolTableRecord
100
AcDbLinetypeTableRecord
  2
ByBlock
 70
     0
  3

 72
    65
 73
     0
 40
0.0
  0
LTYPE
  5
15
330
5
100
AcDbSymbolTableRecord
100
AcDbLinetypeTableRecord
  2
ByLayer
 70
     0
  3

 72
    65
 73
     0
 40
0.0
  0
LTYPE
  5
16
330
5
100
AcDbSymbolTableRecord
100
AcDbLinetypeTableRecord
  2
Continuous
 70
     0
  3
Solid line
 72
    65
 73
     0
 40
0.0
  0
LTYPE
  5
6E
330
5
100
AcDbSymbolTableRecord
100
AcDbLinetypeTableRecord
  2
HIDDEN
 70
     0
  3
Hidden __ __ __ __ __ __ __ __ __ __ __ __ __ __
 72
    65
 73
     2
 40
1.905
 49
1.27
 74
     0
 49
-0.635
 74
     0
  0
LTYPE
  5
6F
330
5
100
AcDbSymbolTableRecord
100
AcDbLinetypeTableRecord
  2
PHANTOM
 70
     0
  3
Phantom ______  __  __  ______  __  __  ______
 72
    65
 73
     6
 40
12.7
 49
6.35
 74
     0
 49
-1.27
 74
     0
 49
1.27
 74
     0
 49
-1.27
 74
     0
 49
1.27
 74
     0
 49
-1.27
 74
     0
  0
LTYPE
  5
70
330
5
100
AcDbSymbolTableRecord
100
AcDbLinetypeTableRecord
  2
CENTER
 70
     0
  3
Center ____ _ ____ _ ____ _ ____ _ ____ _ ____
 72
    65
 73
     4
 40
10.16
 49
6.35
 74
     0
 49
-1.27
 74
     0
 49
1.27
 74
     0
 49
-1.27
 74
     0
  0
LTYPE
  5
71
330
5
100
AcDbSymbolTableRecord
100
AcDbLinetypeTableRecord
  2
CENTERX2
 70
     0
  3
Center (2x) ________  __  ________  __  _____
 72
    65
 73
     4
 40
20.32
 49
12.7
 74
     0
 49
-2.54
 74
     0
 49
2.54
 74
     0
 49
-2.54
 74
     0
  0
LTYPE
  5
72
330
5
100
AcDbSymbolTableRecord
100
AcDbLinetypeTableRecord
  2
DOT2
 70
     0
  3
Dot (.5x) ........................................
 72
    65
 73
     2
 40
0.635
 49
0.0
 74
     0
 49
-0.635
 74
     0
  0
ENDTAB
  0
TABLE
  2
LAYER
  5
2
330
0
100
AcDbSymbolTable
 70
    17
  0
LAYER
  5
10
330
2
100
AcDbSymbolTableRecord
100
AcDbLayerTableRecord
  2
0
 70
     0
 62
     7
  6
Continuous
370
    -3
390
F
  0
LAYER
  5
73
330
2
100
AcDbSymbolTableRecord
100
AcDbLayerTableRecord
  2
FORMAT
 70
     0
 62
     2
  6
Continuous
370
    -3
390
F
  0
LAYER
  5
74
330
2
100
AcDbSymbolTableRecord
100
AcDbLayerTableRecord
  2
외형선
 70
     0
 62
   100
  6
Continuous
370
    35
390
F
  0
LAYER
  5
75
330
2
100
AcDbSymbolTableRecord
100
AcDbLayerTableRecord
  2
숨은선
 70
     0
 62
     2
  6
HIDDEN
370
    25
390
F
  0
LAYER
  5
76
330
2
100
AcDbSymbolTableRecord
100
AcDbLayerTableRecord
  2
중심선
 70
     0
 62
     1
  6
CENTERX2
370
    -3
390
F
  0
LAYER
  5
77
330
2
100
AcDbSymbolTableRecord
100
AcDbLayerTableRecord
  2
파단선
 70
     0
 62
     4
  6
Continuous
370
    -3
390
F
  0
LAYER
  5
78
330
2
100
AcDbSymbolTableRecord
100
AcDbLayerTableRecord
  2
해칭선
 70
     0
 62
     4
  6
Continuous
370
    -3
390
F
  0
LAYER
  5
79
330
2
100
AcDbSymbolTableRecord
100
AcDbLayerTableRecord
  2
가는실선
 70
     0
 62
     4
  6
Continuous
370
    -3
390
F
  0
LAYER
  5
7A
330
2
100
AcDbSymbolTableRecord
100
AcDbLayerTableRecord
  2
치수_보조선
 70
     0
 62
     4
  6
Continuous
370
    -3
390
F
  0
LAYER
  5
7B
330
2
100
AcDbSymbolTableRecord
100
AcDbLayerTableRecord
  2
치수문자_일반주서
 70
     0
 62
     7
  6
Continuous
370
    25
390
F
  0
LAYER
  5
7C
330
2
100
AcDbSymbolTableRecord
100
AcDbLayerTableRecord
  2
개별주서
 70
     0
 62
   100
  6
Continuous
370
    35
390
F
  0
LAYER
  5
7D
330
2
100
AcDbSymbolTableRecord
100
AcDbLayerTableRecord
  2
중간선
 70
     0
 62
     2
  6
Continuous
370
    25
390
F
  0
LAYER
  5
7E
330
2
100
AcDbSymbolTableRecord
100
AcDbLayerTableRecord
  2
윤곽선
 70
     0
 62
     3
  6
Continuous
370
    50
390
F
  0
LAYER
  5
7F
330
2
100
AcDbSymbolTableRecord
100
AcDbLayerTableRecord
  2
중심마크
 70
     0
 62
   100
  6
Continuous
370
    35
390
F
  0
LAYER
  5
80
330
2
100
AcDbSymbolTableRecord
100
AcDbLayerTableRecord
  2
가상선
 70
     0
 62
     4
  6
PHANTOM
370
    -3
390
F
  0
LAYER
  5
81
330
2
100
AcDbSymbolTableRecord
100
AcDbLayerTableRecord
  2
특수지정선
 70
     0
 62
     5
  6
CENTERX2
370
    70
390
F
  0
LAYER
  5
165
330
2
100
AcDbSymbolTableRecord
100
AcDbLayerTableRecord
  2
Defpoints
 70
     0
 62
     7
  6
Continuous
290
     0
370
    -3
390
F
  0
ENDTAB
  0
TABLE
  2
STYLE
  5
3
330
0
100
AcDbSymbolTable
 70
     2
  0
STYLE
  5
11
330
3
100
AcDbSymbolTableRecord
100
AcDbTextStyleTableRecord
  2
Standard
 70
     0
 40
0.0
 41
1.0
 50
0.0
 71
     0
 42
3.5
  3
txt
  4

  0
STYLE
  5
97
330
3
100
AcDbSymbolTableRecord
100
AcDbTextStyleTableRecord
  2
SLDTEXTSTYLE0
 70
     0
 40
0.0
 41
0.75
 50
0.0
 71
     0
 42
3.5
  3
TXT
  4

  0
ENDTAB
  0
TABLE
  2
VIEW
  5
6
330
0
100
AcDbSymbolTable
 70
     0
  0
ENDTAB
  0
TABLE
  2
UCS
  5
7
330
0
100
AcDbSymbolTable
 70
     0
  0
ENDTAB
  0
TABLE
  2
APPID
  5
9
330
0
100
AcDbSymbolTable
 70
     1
  0
APPID
  5
12
330
9
100
AcDbSymbolTableRecord
100
AcDbRegAppTableRecord
  2
ACAD
 70
     0
  0
ENDTAB
  0
TABLE
  2
DIMSTYLE
  5
A
330
0
100
AcDbSymbolTable
 70
     4
100
AcDbDimStyleTable
  0
DIMSTYLE
105
27
330
A
100
AcDbSymbolTableRecord
100
AcDbDimStyleTableRecord
  2
ISO-25
 70
     0
 41
2.5
 42
0.625
 43
3.75
 44
1.25
 73
     0
 74
     0
 77
     1
 78
     8
140
2.5
141
2.5
143
0.03937007874016
147
0.625
171
     3
172
     1
178
     0
271
     2
272
     2
274
     3
278
    44
283
     0
284
     8
340
11
  0
DIMSTYLE
105
EB
102
{ACAD_REACTORS
330
EA
330
113
102
}
330
A
100
AcDbSymbolTableRecord
100
AcDbDimStyleTableRecord
  2
SLDDIMSTYLE0
 70
     0
 41
3.302
 44
0.0
 45
0.000000001
 73
     0
 74
     0
 77
     1
 78
     4
 79
     1
140
3.5
143
0.0393700787401575
147
0.875
148
0.000000001
170
     1
173
     1
178
     0
271
     2
272
     2
276
     2
284
    12
340
97
  0
DIMSTYLE
105
FF
102
{ACAD_REACTORS
330
FE
102
}
330
A
100
AcDbSymbolTableRecord
100
AcDbDimStyleTableRecord
  2
SLDDIMSTYLE1
 70
     0
 41
3.302
 44
0.0
 45
0.000000001
 73
     0
 74
     0
 77
     1
 78
    12
 79
     3
140
3.5
143
0.0393700787401575
147
0.875
148
0.000000001
170
     1
172
     1
173
     1
178
     0
271
     2
272
     2
276
     2
284
    12
289
     0
340
97
  0
DIMSTYLE
105
127
102
{ACAD_REACTORS
330
126
102
}
330
A
100
AcDbSymbolTableRecord
100
AcDbDimStyleTableRecord
  2
SLDDIMSTYLE2
 70
     0
 41
3.302
 44
0.0
 45
0.000000001
 73
     0
 74
     0
 77
     1
 78
    12
 79
     3
140
3.5
143
0.0393700787401575
147
0.875
148
0.000000001
170
     1
173
     1
178
     0
271
     2
272
     2
276
     2
284
    12
340
97
  0
ENDTAB
  0
TABLE
  2
BLOCK_RECORD
  5
1
330
0
100
AcDbSymbolTable
 70
     7
  0
BLOCK_RECORD
  5
1F
330
1
100
AcDbSymbolTableRecord
100
AcDbBlockTableRecord
  2
*Model_Space
340
22
  0
BLOCK_RECORD
  5
1B
330
1
100
AcDbSymbolTableRecord
100
AcDbBlockTableRecord
  2
*Paper_Space
340
1E
  0
BLOCK_RECORD
  5
23
330
1
100
AcDbSymbolTableRecord
100
AcDbBlockTableRecord
  2
*Paper_Space0
340
26
  0
BLOCK_RECORD
  5
82
330
1
100
AcDbSymbolTableRecord
100
AcDbBlockTableRecord
  2
블럭10
340
0
102
{BLKREFS
331
E3
102
}
  0
BLOCK_RECORD
  5
EC
330
1
100
AcDbSymbolTableRecord
100
AcDbBlockTableRecord
  2
_D
340
0
  0
BLOCK_RECORD
  5
100
330
1
100
AcDbSymbolTableRecord
100
AcDbBlockTableRecord
  2
_D_1
340
0
  0
BLOCK_RECORD
  5
114
330
1
100
AcDbSymbolTableRecord
100
AcDbBlockTableRecord
  2
_D_2
340
0
  0
BLOCK_RECORD
  5
128
330
1
100
AcDbSymbolTableRecord
100
AcDbBlockTableRecord
  2
_D_3
340
0
  0
BLOCK_RECORD
  5
13A
330
1
100
AcDbSymbolTableRecord
100
AcDbBlockTableRecord
  2
SW_DOWELSYMBOL_0
340
0
102
{BLKREFS
331
140
102
}
  0
ENDTAB
  0
ENDSEC
  0
SECTION
  2
BLOCKS
  0
BLOCK
  5
20
330
1F
100
AcDbEntity
  8
0
100
AcDbBlockBegin
  2
*Model_Space
 70
     0
 10
0.0
 20
0.0
 30
0.0
  3
*Model_Space
  1
*Model_Space
  0
ENDBLK
  5
21
330
1F
100
AcDbEntity
  8
0
100
AcDbBlockEnd
  0
BLOCK
  5
1C
330
1B
100
AcDbEntity
 67
     1
  8
0
100
AcDbBlockBegin
  2
*Paper_Space
 70
     0
 10
0.0
 20
0.0
 30
0.0
  3
*Paper_Space
  1
*Paper_Space
  0
ENDBLK
  5
1D
330
1B
100
AcDbEntity
 67
     1
  8
0
100
AcDbBlockEnd
  0
BLOCK
  5
24
330
23
100
AcDbEntity
  8
0
100
AcDbBlockBegin
  2
*Paper_Space0
 70
     0
 10
0.0
 20
0.0
 30
0.0
  3
*Paper_Space0
  1
*Paper_Space0
  0
ENDBLK
  5
25
330
23
100
AcDbEntity
  8
0
100
AcDbBlockEnd
  0
BLOCK
  5
83
330
82
100
AcDbEntity
  8
0
100
AcDbBlockBegin
  2
블럭10
 70
     2
 10
0.0
 20
0.0
 30
0.0
  3
블럭10
  1
블럭10
  0
ELLIPSE
  5
85
330
82
100
AcDbEntity
  8
중심선
100
AcDbEllipse
 10
20.54032771741204
 20
12.0471743016438
 30
0.0
 11
6.600054785286829
 21
-1.261213355974178E-13
 31
0.0
210
0.0
220
0.0
230
1.0
 40
0.636358354079598
 41
0.9219305317359503
 42
6.513795318482858
  0
ELLIPSE
  5
86
330
82
100
AcDbEntity
  8
중심선
100
AcDbEllipse
 10
20.54032771746488
 20
12.04717430159265
 30
0.0
 11
3.960054785062283
 21
1.540847449632565E-10
 31
0.0
210
0.0
220
0.0
230
1.0
 40
0.3939339440162632
 41
1.131841032648279
 42
5.62031148352944
  0
LINE
  5
87
330
82
100
AcDbEntity
  8
중심선
100
AcDbLine
 10
2.268634060543552
 20
16.24717430164393
 30
0.0
 11
5.714909304380834
 21
16.24717430164393
 31
0.0
  0
LINE
  5
88
330
82
100
AcDbEntity
  8
중심선
100
AcDbLine
 10
5.245725140726316
 20
7.84717430164391
 30
0.0
 11
8.692000384563599
 21
7.84717430164391
 31
0.0
  0
LINE
  5
89
330
82
100
AcDbEntity
  8
중심선
100
AcDbLine
 10
15.74043728645272
 20
16.24717430164393
 30
0.0
 11
8.692000384563599
 21
7.84717430164391
 31
0.0
  0
LINE
  5
8A
330
82
100
AcDbEntity
  8
중심선
100
AcDbLine
 10
0.1404042013395286
 20
13.71084872107135
 30
0.0
 11
3.58671253028996
 21
13.71088815037384
 31
0.0
  0
LINE
  5
8B
330
82
100
AcDbEntity
  8
중심선
100
AcDbLine
 10
2.750260043222114
 20
10.84717430164391
 30
0.0
 11
6.196535287059397
 21
10.84717430164391
 31
0.0
  0
LINE
  5
8C
330
82
100
AcDbEntity
  8
중심선
100
AcDbLine
 10
12.29416204261559
 20
16.24717430164393
 30
0.0
 11
5.245725140726316
 21
7.84717430164391
 31
0.0
  0
LINE
  5
8D
330
82
100
AcDbEntity
  8
중심선
100
AcDbLine
 10
10.72767329541681
 20
16.24717430164393
 30
0.0
 11
6.196535287059397
 21
10.84717430164391
 31
0.0
  0
LINE
  5
8E
330
82
100
AcDbEntity
  8
중심선
100
AcDbLine
 10
7.28139805157953
 20
16.24717430164393
 30
0.0
 11
2.750260043222114
 21
10.84717430164391
 31
0.0
  0
LINE
  5
8F
330
82
100
AcDbEntity
  8
중심선
100
AcDbLine
 10
5.714909304380834
 20
16.24717430164393
 30
0.0
 11
3.58671253028996
 21
13.71088815037384
 31
0.0
  0
LINE
  5
90
330
82
100
AcDbEntity
  8
중심선
100
AcDbLine
 10
2.268634060543552
 20
16.24717430164393
 30
0.0
 11
0.1404042013395286
 21
13.71084872107135
 31
0.0
  0
LINE
  5
91
330
82
100
AcDbEntity
  8
중심선
100
AcDbLine
 10
7.28139805157953
 20
16.24717430164393
 30
0.0
 11
10.72767329541681
 21
16.24717430164393
 31
0.0
  0
LINE
  5
92
330
82
100
AcDbEntity
  8
중심선
100
AcDbLine
 10
12.29416204261559
 20
16.24717430164393
 30
0.0
 11
15.74043728645272
 21
16.24717430164393
 31
0.0
  0
LINE
  5
93
330
82
100
AcDbEntity
  8
중심선
100
AcDbLine
 10
19.22036997980202
 20
11.08717430171403
 30
0.0
 11
23.66174974927406
 21
11.08717430171406
 31
0.0
  0
LINE
  5
94
330
82
100
AcDbEntity
  8
중심선
100
AcDbLine
 10
19.22039502424796
 20
13.00717430171391
 30
0.0
 11
19.22036997980202
 21
11.08717430171403
 31
0.0
  0
LINE
  5
95
330
82
100
AcDbEntity
  8
중심선
100
AcDbLine
 10
19.22039502424796
 20
13.00717430171391
 30
0.0
 11
26.96566020931264
 21
13.00717430171391
 31
0.0
  0
LINE
  5
96
330
82
100
AcDbEntity
  8
중심선
100
AcDbLine
 10
22.22332737316547
 20
13.45928029700563
 30
0.0
 11
24.52862924686651
 21
15.39360700705356
 31
0.0
  0
ATTDEF
  5
98
330
82
100
AcDbEntity
  8
FORMAT
 62
     2
100
AcDbText
 10
-9.18129528874128
 20
2.075366912832191
 30
0.0
 40
4.233333333333333
  1
E5254902 [ 2 FLUTE ]
 41
0.75
  7
SLDTEXTSTYLE0
 11
-9.18129528874128
 21
-0.0412997538344756
 31
0.0
100
AcDbAttributeDefinition
  3

  2
AUTOATTR0
 70
     0
 74
     1
  0
ENDBLK
  5
84
330
82
100
AcDbEntity
  8
0
100
AcDbBlockEnd
  0
BLOCK
  5
ED
330
EC
100
AcDbEntity
  8
0
100
AcDbBlockBegin
  2
_D
 70
     0
 10
0.0
 20
0.0
 30
0.0
  3
_D
  1
_D
  0
LINE
  5
EF
330
EC
100
AcDbEntity
  8
치수문자_일반주서
 62
     0
370
    -2
100
AcDbLine
 10
86.19999999999999
 20
9.580524543786266
 30
0.0
 11
86.19999999999999
 21
45.10820800543221
 31
0.0
  0
LINE
  5
F0
330
EC
100
AcDbEntity
  8
치수문자_일반주서
 62
     0
370
    -2
100
AcDbLine
 10
-53.49999999999999
 20
8.588574928723888
 30
0.0
 11
-53.49999999999999
 21
45.10820800543221
 31
0.0
  0
LINE
  5
F1
330
EC
100
AcDbEntity
  8
치수문자_일반주서
 62
     0
370
    -2
100
AcDbLine
 10
82.898
 20
45.10820800543221
 30
0.0
 11
-50.19799999999999
 21
45.10820800543221
 31
0.0
  0
SOLID
  5
F2
330
EC
100
AcDbEntity
  8
치수문자_일반주서
 62
     0
100
AcDbTrace
 10
82.898
 20
44.55787467209888
 30
0.0
 11
82.898
 21
45.65854133876554
 31
0.0
 12
86.19999999999999
 22
45.10820800543221
 32
0.0
 13
86.19999999999999
 23
45.10820800543221
 33
0.0
  0
SOLID
  5
F3
330
EC
100
AcDbEntity
  8
치수문자_일반주서
 62
     0
100
AcDbTrace
 10
-50.19799999999999
 20
45.65854133876554
 30
0.0
 11
-50.19799999999999
 21
44.55787467209888
 31
0.0
 12
-53.49999999999999
 22
45.10820800543221
 32
0.0
 13
-53.49999999999999
 23
45.10820800543221
 33
0.0
  0
MTEXT
  5
F4
330
EC
100
AcDbEntity
  8
치수문자_일반주서
 62
     0
100
AcDbMText
 10
16.34999999999999
 20
49.48320800543221
 30
0.0
 40
3.5
 41
0.0
 71
     2
 72
     1
  1
\A1;139.70 [5 1/2]
  7
SLDTEXTSTYLE0
 73
     1
 44
1.0
  0
POINT
  5
F5
330
EC
100
AcDbEntity
  8
Defpoints
 62
     0
100
AcDbPoint
 10
86.19999999999999
 20
9.518024543786266
 30
0.0
  0
POINT
  5
F6
330
EC
100
AcDbEntity
  8
Defpoints
 62
     0
100
AcDbPoint
 10
-53.49999999999999
 20
8.526074928723888
 30
0.0
  0
POINT
  5
F7
330
EC
100
AcDbEntity
  8
Defpoints
 62
     0
100
AcDbPoint
 10
-53.49999999999999
 20
45.10820800543221
 30
0.0
  0
ENDBLK
  5
EE
330
EC
100
AcDbEntity
  8
0
100
AcDbBlockEnd
  0
BLOCK
  5
101
330
100
100
AcDbEntity
  8
0
100
AcDbBlockBegin
  2
_D_1
 70
     0
 10
0.0
 20
0.0
 30
0.0
  3
_D_1
  1
_D_1
  0
LINE
  5
103
330
100
100
AcDbEntity
  8
치수문자_일반주서
 62
     0
370
    -2
100
AcDbLine
 10
-52.56250000000001
 20
9.526074928723899
 30
0.0
 11
-66.31000000000003
 21
9.526074928723851
 31
0.0
  0
LINE
  5
104
330
100
100
AcDbEntity
  8
치수문자_일반주서
 62
     0
370
    -2
100
AcDbLine
 10
-52.56250000000001
 20
-9.523925071276112
 30
0.0
 11
-66.30999999999996
 21
-9.52392507127616
 31
0.0
  0
LINE
  5
105
330
100
100
AcDbEntity
  8
치수문자_일반주서
 62
     0
370
    -2
100
AcDbLine
 10
-66.31000000000002
 20
6.224074928723851
 30
0.0
 11
-66.30999999999997
 21
-6.221925071276161
 31
0.0
  0
SOLID
  5
106
330
100
100
AcDbEntity
  8
치수문자_일반주서
 62
     0
100
AcDbTrace
 10
-65.75966666666669
 20
6.224074928723853
 30
0.0
 11
-66.86033333333334
 21
6.22407492872385
 31
0.0
 12
-66.31000000000003
 22
9.526074928723851
 32
0.0
 13
-66.31000000000003
 23
9.526074928723851
 33
0.0
  0
SOLID
  5
107
330
100
100
AcDbEntity
  8
치수문자_일반주서
 62
     0
100
AcDbTrace
 10
-66.8603333333333
 20
-6.221925071276162
 30
0.0
 11
-65.75966666666665
 21
-6.221925071276159
 31
0.0
 12
-66.30999999999996
 22
-9.52392507127616
 32
0.0
 13
-66.30999999999996
 23
-9.52392507127616
 33
0.0
  0
MTEXT
  5
108
330
100
100
AcDbEntity
  8
치수문자_일반주서
 62
     0
100
AcDbMText
 10
-70.685
 20
0.0010749287238847
 30
0.0
 40
3.5
 41
0.0
 71
     2
 72
     1
  1
\A1;%%c19.05 [3/4]
  7
SLDTEXTSTYLE0
 11
-3.729883127349605E-15
 21
1.0
 31
0.0
 73
     1
 44
1.0
  0
POINT
  5
109
330
100
100
AcDbEntity
  8
Defpoints
 62
     0
100
AcDbPoint
 10
-52.50000000000001
 20
9.526074928723899
 30
0.0
  0
POINT
  5
10A
330
100
100
AcDbEntity
  8
Defpoints
 62
     0
100
AcDbPoint
 10
-52.50000000000001
 20
-9.523925071276112
 30
0.0
  0
POINT
  5
10B
330
100
100
AcDbEntity
  8
Defpoints
 62
     0
100
AcDbPoint
 10
-66.30999999999996
 20
-9.52392507127616
 30
0.0
  0
ENDBLK
  5
102
330
100
100
AcDbEntity
  8
0
100
AcDbBlockEnd
  0
BLOCK
  5
115
330
114
100
AcDbEntity
  8
0
100
AcDbBlockBegin
  2
_D_2
 70
     0
 10
0.0
 20
0.0
 30
0.0
  3
_D_2
  1
_D_2
  0
LINE
  5
117
330
114
100
AcDbEntity
  8
치수문자_일반주서
 62
     0
370
    -2
100
AcDbLine
 10
86.19999999999999
 20
9.580524543786266
 30
0.0
 11
86.19999999999999
 21
29.75464205728676
 31
0.0
  0
LINE
  5
118
330
114
100
AcDbEntity
  8
치수문자_일반주서
 62
     0
370
    -2
100
AcDbLine
 10
10.00000000000003
 20
7.602556266367128
 30
0.0
 11
10.00000000000004
 21
29.75464205728676
 31
0.0
  0
LINE
  5
119
330
114
100
AcDbEntity
  8
치수문자_일반주서
 62
     0
370
    -2
100
AcDbLine
 10
82.898
 20
29.75464205728676
 30
0.0
 11
13.30200000000004
 21
29.75464205728676
 31
0.0
  0
SOLID
  5
11A
330
114
100
AcDbEntity
  8
치수문자_일반주서
 62
     0
100
AcDbTrace
 10
82.898
 20
29.20430872395343
 30
0.0
 11
82.898
 21
30.3049753906201
 31
0.0
 12
86.19999999999999
 22
29.75464205728676
 32
0.0
 13
86.19999999999999
 23
29.75464205728676
 33
0.0
  0
SOLID
  5
11B
330
114
100
AcDbEntity
  8
치수문자_일반주서
 62
     0
100
AcDbTrace
 10
13.30200000000004
 20
30.3049753906201
 30
0.0
 11
13.30200000000004
 21
29.20430872395343
 31
0.0
 12
10.00000000000004
 22
29.75464205728676
 32
0.0
 13
10.00000000000004
 23
29.75464205728676
 33
0.0
  0
MTEXT
  5
11C
330
114
100
AcDbEntity
  8
치수문자_일반주서
 62
     0
100
AcDbMText
 10
48.1
 20
34.12964205728676
 30
0.0
 40
3.5
 41
0.0
 71
     2
 72
     1
  1
\A1;76.20 [3]
  7
SLDTEXTSTYLE0
 73
     1
 44
1.0
  0
POINT
  5
11D
330
114
100
AcDbEntity
  8
Defpoints
 62
     0
100
AcDbPoint
 10
86.19999999999999
 20
9.518024543786266
 30
0.0
  0
POINT
  5
11E
330
114
100
AcDbEntity
  8
Defpoints
 62
     0
100
AcDbPoint
 10
10.00000000000003
 20
7.540056266367128
 30
0.0
  0
POINT
  5
11F
330
114
100
AcDbEntity
  8
Defpoints
 62
     0
100
AcDbPoint
 10
10.00000000000003
 20
29.75464205728676
 30
0.0
  0
ENDBLK
  5
116
330
114
100
AcDbEntity
  8
0
100
AcDbBlockEnd
  0
BLOCK
  5
129
330
128
100
AcDbEntity
  8
0
100
AcDbBlockBegin
  2
_D_3
 70
     0
 10
0.0
 20
0.0
 30
0.0
  3
_D_3
  1
_D_3
  0
LINE
  5
12B
330
128
100
AcDbEntity
  8
치수문자_일반주서
 62
     0
370
    -2
100
AcDbLine
 10
86.26249999999999
 20
9.518024543786266
 30
0.0
 11
106.4093537150438
 21
9.518024543786339
 31
0.0
  0
LINE
  5
12C
330
128
100
AcDbEntity
  8
치수문자_일반주서
 62
     0
370
    -2
100
AcDbLine
 10
86.26249999999999
 20
-9.51587468633847
 30
0.0
 11
106.4093537150439
 21
-9.5158746863384
 31
0.0
  0
LINE
  5
12D
330
128
100
AcDbEntity
  8
치수문자_일반주서
 62
     0
370
    -2
100
AcDbLine
 10
106.4093537150438
 20
9.518024543786339
 30
0.0
 11
106.4093537150437
 21
40.38252454378634
 31
0.0
  0
LINE
  5
12E
330
128
100
AcDbEntity
  8
치수문자_일반주서
 62
     0
370
    -2
100
AcDbLine
 10
106.4093537150438
 20
6.21602454378634
 30
0.0
 11
106.4093537150439
 21
-6.2138746863384
 31
0.0
  0
SOLID
  5
12F
330
128
100
AcDbEntity
  8
치수문자_일반주서
 62
     0
100
AcDbTrace
 10
106.9596870483772
 20
6.216024543786341
 30
0.0
 11
105.8590203817105
 21
6.216024543786338
 31
0.0
 12
106.4093537150438
 22
9.518024543786339
 32
0.0
 13
106.4093537150438
 23
9.518024543786339
 33
0.0
  0
SOLID
  5
130
330
128
100
AcDbEntity
  8
치수문자_일반주서
 62
     0
100
AcDbTrace
 10
105.8590203817106
 20
-6.213874686338402
 30
0.0
 11
106.9596870483772
 21
-6.213874686338398
 31
0.0
 12
106.4093537150439
 22
-9.5158746863384
 32
0.0
 13
106.4093537150439
 23
-9.5158746863384
 33
0.0
  0
MTEXT
  5
131
330
128
100
AcDbEntity
  8
치수문자_일반주서
 62
     0
100
AcDbMText
 10
102.0343537150438
 20
26.60127454378632
 30
0.0
 40
3.5
 41
0.0
 71
     2
 72
     1
  1
\A1;%%c19.03 [3/4]
  7
SLDTEXTSTYLE0
 11
-3.733038234412486E-15
 21
1.0
 31
0.0
 73
     1
 44
1.0
  0
POINT
  5
132
330
128
100
AcDbEntity
  8
Defpoints
 62
     0
100
AcDbPoint
 10
86.19999999999999
 20
9.518024543786266
 30
0.0
  0
POINT
  5
133
330
128
100
AcDbEntity
  8
Defpoints
 62
     0
100
AcDbPoint
 10
86.19999999999999
 20
-9.51587468633847
 30
0.0
  0
POINT
  5
134
330
128
100
AcDbEntity
  8
Defpoints
 62
     0
100
AcDbPoint
 10
106.4093537150439
 20
-9.5158746863384
 30
0.0
  0
ENDBLK
  5
12A
330
128
100
AcDbEntity
  8
0
100
AcDbBlockEnd
  0
BLOCK
  5
13B
330
13A
100
AcDbEntity
  8
0
100
AcDbBlockBegin
  2
SW_DOWELSYMBOL_0
 70
     0
 10
0.0
 20
0.0
 30
0.0
  3
SW_DOWELSYMBOL_0
  1
SW_DOWELSYMBOL_0
  0
CIRCLE
  5
13D
330
13A
100
AcDbEntity
  8
외형선
 62
     0
100
AcDbCircle
 10
0.0
 20
0.0
 30
0.0
 40
3.000000000000003
  0
HATCH
  5
13E
330
13A
100
AcDbEntity
  8
0
  6
Continuous
 62
     0
370
    35
100
AcDbHatch
 10
0.0
 20
0.0
 30
0.0
210
0.0
220
0.0
230
1.0
  2
SOLID
 70
     1
 71
     0
 91
        1
 92
        0
 93
        3
 72
     2
 10
0.0000000000000087
 20
0.0
 40
3.000000000000003
 50
0.0
 51
90.0
 73
     1
 72
     1
 10
0.0000000000000087
 20
3.000000000000003
 11
0.0000000000000087
 21
0.0
 72
     1
 10
0.0000000000000087
 20
0.0
 11
3.000000000000012
 21
0.0
 97
        0
 75
     0
 76
     1
 98
        1
 10
0.0
 20
0.0
  0
HATCH
  5
13F
330
13A
100
AcDbEntity
  8
0
  6
Continuous
 62
     0
370
    35
100
AcDbHatch
 10
0.0
 20
0.0
 30
0.0
210
0.0
220
0.0
230
1.0
  2
SOLID
 70
     1
 71
     0
 91
        1
 92
        0
 93
        3
 72
     2
 10
0.0000000000000087
 20
0.0
 40
3.000000000000003
 50
180.0
 51
270.0000000000008
 73
     1
 72
     1
 10
0.0000000000000087
 20
-3.000000000000003
 11
0.0000000000000087
 21
0.0
 72
     1
 10
0.0000000000000087
 20
0.0
 11
-2.999999999999994
 21
0.0
 97
        0
 75
     0
 76
     1
 98
        1
 10
0.0
 20
0.0
  0
ENDBLK
  5
13C
330
13A
100
AcDbEntity
  8
0
100
AcDbBlockEnd
  0
ENDSEC
  0
SECTION
  2
ENTITIES
  0
LINE
  5
99
330
1F
100
AcDbEntity
  8
0
  6
Continuous
 62
     4
370
    25
100
AcDbLine
 10
6.950179235641273
 20
9.526074928723894
 30
0.0
 11
-52.49999999999999
 21
9.52607492872389
 31
0.0
  0
LINE
  5
9A
330
1F
100
AcDbEntity
  8
0
  6
Continuous
 62
     4
370
    25
100
AcDbLine
 10
-52.49999999999999
 20
-9.52392507127611
 30
0.0
 11
6.950179235641271
 21
-9.523925071276107
 31
0.0
  0
LINE
  5
9B
330
1F
100
AcDbEntity
  8
0
  6
Continuous
 62
     4
370
    25
100
AcDbLine
 10
-52.49999999999999
 20
9.526074928723887
 30
0.0
 11
-53.49999999999999
 21
8.526074928723888
 31
0.0
  0
LINE
  5
9C
330
1F
100
AcDbEntity
  8
0
  6
Continuous
 62
     4
370
    25
100
AcDbLine
 10
-53.49999999999999
 20
-8.523925071276109
 30
0.0
 11
-52.49999999999999
 21
-9.523925071276107
 31
0.0
  0
SPLINE
  5
9D
330
1F
100
AcDbEntity
  8
0
  6
Continuous
 62
     4
370
    25
100
AcDbSpline
210
0.0
220
0.0
230
1.0
 70
     8
 71
     3
 72
     9
 73
     5
 74
     0
 42
0.000000001
 43
0.00000001
 40
0.0
 40
0.0
 40
0.0
 40
0.0
 40
0.5611947190909378
 40
1.0
 40
1.0
 40
1.0
 40
1.0
 10
10.00000000000009
 20
7.543865475362963
 30
0.0
 10
9.428142137911005
 20
7.504452624531255
 30
0.0
 10
8.409141347925988
 20
7.434222364888841
 30
0.0
 10
7.38245214456508
 20
7.441563013685006
 30
0.0
 10
6.931935500277994
 20
7.444784129142062
 30
0.0
  0
SPLINE
  5
9E
330
1F
100
AcDbEntity
  8
0
  6
Continuous
 62
     4
370
    25
100
AcDbSpline
210
0.0
220
0.0
230
1.0
 70
     8
 71
     3
 72
    11
 73
     7
 74
     0
 42
0.000000001
 43
0.00000001
 40
0.0
 40
0.0
 40
0.0
 40
0.0
 40
0.2255479510234599
 40
0.4798747741489242
 40
0.7671054437059966
 40
1.0
 40
1.0
 40
1.0
 40
1.0
 10
6.950228509655923
 20
-7.442284268437683
 30
0.0
 10
7.154696001148363
 20
-7.439832173235556
 30
0.0
 10
7.589720087403644
 20
-7.434615106860207
 30
0.0
 10
8.316412823896544
 20
-7.444939168155297
 30
0.0
 10
9.046932639099534
 20
-7.465989689501245
 30
0.0
 10
9.529697249487562
 20
-7.484203491284445
 30
0.0
 10
9.74586298062816
 20
-7.492359018211223
 30
0.0
  0
SPLINE
  5
9F
330
1F
100
AcDbEntity
  8
0
  6
Continuous
 62
     1
370
    25
100
AcDbSpline
210
0.0
220
0.0
230
1.0
 70
     8
 71
     3
 72
     9
 73
     5
 74
     0
 42
0.000000001
 43
0.00000001
 40
0.0
 40
0.0
 40
0.0
 40
0.0
 40
0.4732847588604139
 40
1.0
 40
1.0
 40
1.0
 40
1.0
 10
12.10446604427245
 20
2.44198266405386
 30
0.0
 10
11.86253844330122
 20
2.641852150485762
 30
0.0
 10
11.35137133630679
 20
3.064154966475765
 30
0.0
 10
10.84653015587508
 20
3.522087251672243
 30
0.0
 10
10.58062261178679
 20
3.763287165695109
 30
0.0
  0
SPLINE
  5
A0
330
1F
100
AcDbEntity
  8
0
  6
Continuous
 62
     1
370
    25
100
AcDbSpline
210
0.0
220
0.0
230
1.0
 70
     8
 71
     3
 72
     9
 73
     5
 74
     0
 42
0.000000001
 43
0.00000001
 40
0.0
 40
0.0
 40
0.0
 40
0.0
 40
0.4732847588604085
 40
1.0
 40
1.0
 40
1.0
 40
1.0
 10
71.95180609515803
 20
2.441982664053867
 30
0.0
 10
71.7098784941868
 20
2.641852150485767
 30
0.0
 10
71.19871138719239
 20
3.064154966475768
 30
0.0
 10
70.69387020676065
 20
3.522087251672248
 30
0.0
 10
70.42796266267237
 20
3.763287165695117
 30
0.0
  0
SPLINE
  5
A1
330
1F
100
AcDbEntity
  8
0
  6
Continuous
 62
     1
370
    25
100
AcDbSpline
210
0.0
220
0.0
230
1.0
 70
     8
 71
     3
 72
     9
 73
     5
 74
     0
 42
0.000000001
 43
0.00000001
 40
0.0
 40
0.0
 40
0.0
 40
0.0
 40
0.4732847588611956
 40
1.0
 40
1.0
 40
1.0
 40
1.0
 10
42.02813606971528
 20
2.441982664053812
 30
0.0
 10
41.78620846874406
 20
2.641852150485717
 30
0.0
 10
41.2750413617505
 20
3.064154966475028
 30
0.0
 10
40.7702001813196
 20
3.522087251670668
 30
0.0
 10
40.50429263723215
 20
3.763287165692733
 30
0.0
  0
LINE
  5
A2
330
1F
100
AcDbEntity
  8
0
  6
Continuous
 62
     1
370
    25
100
AcDbLine
 10
68.93810688414312
 20
2.658421358724725
 30
0.0
 11
68.85292326684564
 21
2.739465079647806
 31
0.0
  0
LINE
  5
A3
330
1F
100
AcDbEntity
  8
0
  6
Continuous
 62
     4
370
    25
100
AcDbLine
 10
39.00462223501538
 20
2.667758994858572
 30
0.0
 11
38.92925324140288
 21
2.739465079647775
 31
0.0
  0
LINE
  5
A4
330
1F
100
AcDbEntity
  8
0
  6
Continuous
 62
     1
370
    25
100
AcDbLine
 10
26.7434888497079
 20
-9.523925071276114
 30
0.0
 11
29.41038298577865
 21
-9.523925071276114
 31
0.0
  0
LINE
  5
A5
330
1F
100
AcDbEntity
  8
0
  6
Continuous
 62
     1
370
    25
100
AcDbLine
 10
59.33423888191944
 20
9.5260749287239
 30
0.0
 11
56.66717616920506
 21
9.5260749287239
 31
0.0
  0
LINE
  5
A6
330
1F
100
AcDbEntity
  8
0
  6
Continuous
 62
     1
370
    25
100
AcDbLine
 10
56.66717616920506
 20
-9.523925071276114
 30
0.0
 11
59.33423888191943
 21
-9.523925071276114
 31
0.0
  0
LINE
  5
A7
330
1F
100
AcDbEntity
  8
0
  6
Continuous
 62
     1
370
    25
100
AcDbLine
 10
29.41038298577862
 20
9.5260749287239
 30
0.0
 11
26.74348884970791
 21
9.5260749287239
 31
0.0
  0
LINE
  5
A8
330
1F
100
AcDbEntity
  8
0
  6
Continuous
 62
     4
370
    25
100
AcDbLine
 10
9.998882127069757
 20
-7.54599144958119
 30
0.0
 11
10.28723640063702
 21
-7.567843290332871
 31
0.0
  0
SPLINE
  5
A9
330
1F
100
AcDbEntity
  8
0
  6
Continuous
 62
     1
370
    25
100
AcDbSpline
210
0.0
220
0.0
230
1.0
 70
     8
 71
     3
 72
    12
 73
     8
 74
     0
 42
0.000000001
 43
0.00000001
 40
0.0
 40
0.0
 40
0.0
 40
0.0
 40
0.2138792833115406
 40
0.4844536763322059
 40
0.6744174538578396
 40
0.7806385839075964
 40
1.0
 40
1.0
 40
1.0
 40
1.0
 10
61.86421727640404
 20
-7.925053233574543
 30
0.0
 10
62.45933029768205
 20
-7.830805687100359
 30
0.0
 10
63.8073088701151
 20
-7.617327459252538
 30
0.0
 10
65.63448981237624
 20
-7.466249212797194
 30
0.0
 10
67.20820819911249
 20
-7.429791485340733
 30
0.0
 10
68.6179788323065
 20
-7.452480138588545
 30
0.0
 10
69.52408615444797
 20
-7.521405076341567
 30
0.0
 10
70.13457645152259
 20
-7.567843290332871
 30
0.0
  0
SPLINE
  5
AA
330
1F
100
AcDbEntity
  8
0
  6
Continuous
 62
     1
370
    25
100
AcDbSpline
210
0.0
220
0.0
230
1.0
 70
     8
 71
     3
 72
    13
 73
     9
 74
     0
 42
0.000000001
 43
0.00000001
 40
0.0
 40
0.0
 40
0.0
 40
0.0
 40
0.256730479918001
 40
0.4727787734890276
 40
0.6516256358434607
 40
0.7861417426090601
 40
0.9029104378603307
 40
1.0
 40
1.0
 40
1.0
 40
1.0
 10
40.21090642607981
 20
7.569993147780657
 30
0.0
 10
39.8554732451021
 20
7.539515613999109
 30
0.0
 10
39.20092975882176
 20
7.483390096511614
 30
0.0
 10
38.20477003777294
 20
7.443216619596072
 30
0.0
 10
37.36683349152138
 20
7.436660747309267
 30
0.0
 10
36.7030779751024
 20
7.446389683174685
 30
0.0
 10
36.18081652709566
 20
7.462953455247854
 30
0.0
 10
35.85826320094458
 20
7.480752111298943
 30
0.0
 10
35.71182713817682
 20
7.48883252747626
 30
0.0
  0
LINE
  5
AB
330
1F
100
AcDbEntity
  8
0
  6
Continuous
 62
     4
370
    25
100
AcDbLine
 10
10.28723640063702
 20
7.569993147780659
 30
0.0
 11
9.998881144994732
 21
7.547836599654519
 31
0.0
  0
SPLINE
  5
AC
330
1F
100
AcDbEntity
  8
0
  6
Continuous
 62
     1
370
    25
100
AcDbSpline
210
0.0
220
0.0
230
1.0
 70
     8
 71
     3
 72
    12
 73
     8
 74
     0
 42
0.000000001
 43
0.00000001
 40
0.0
 40
0.0
 40
0.0
 40
0.0
 40
0.2138792833115415
 40
0.4844536763322045
 40
0.6744174538578387
 40
0.7806385839075956
 40
1.0
 40
1.0
 40
1.0
 40
1.0
 10
31.94054725096127
 20
-7.925053233574538
 30
0.0
 10
32.53566027223927
 20
-7.830805687100352
 30
0.0
 10
33.88363884467233
 20
-7.617327459252535
 30
0.0
 10
35.71081978693341
 20
-7.466249212797183
 30
0.0
 10
37.28453817366972
 20
-7.429791485340735
 30
0.0
 10
38.6943088068637
 20
-7.452480138588536
 30
0.0
 10
39.60041612900517
 20
-7.521405076341562
 30
0.0
 10
40.21090642607982
 20
-7.567843290332869
 30
0.0
  0
SPLINE
  5
AD
330
1F
100
AcDbEntity
  8
0
  6
Continuous
 62
     1
370
    25
100
AcDbSpline
210
0.0
220
0.0
230
1.0
 70
     8
 71
     3
 72
    13
 73
     9
 74
     0
 42
0.000000001
 43
0.00000001
 40
0.0
 40
0.0
 40
0.0
 40
0.0
 40
0.2566795634891976
 40
0.4726850089825016
 40
0.6514964012847012
 40
0.7859858299567015
 40
0.9027313668943991
 40
1.0
 40
1.0
 40
1.0
 40
1.0
 10
70.13457645152259
 20
7.569993147780666
 30
0.0
 10
69.77914326761181
 20
7.539515625475675
 30
0.0
 10
69.12459977593008
 20
7.483390129122686
 30
0.0
 10
68.12844008856555
 20
7.443216520407669
 30
0.0
 10
67.29050344752777
 20
7.436661018999184
 30
0.0
 10
66.62674818014322
 20
7.446388980445885
 30
0.0
 10
66.10418863710808
 20
7.462964990683616
 30
0.0
 10
65.78133581499742
 20
7.480781366445892
 30
0.0
 10
65.6346004250247
 20
7.488878842033333
 30
0.0
  0
SPLINE
  5
AE
330
1F
100
AcDbEntity
  8
0
  6
Continuous
 62
     1
370
    25
100
AcDbSpline
210
0.0
220
0.0
230
1.0
 70
     8
 71
     3
 72
    22
 73
    18
 74
     0
 42
0.000000001
 43
0.00000001
 40
0.0
 40
0.0
 40
0.0
 40
0.0
 40
0.0882156593976114
 40
0.1596002421087222
 40
0.2161891321751258
 40
0.2755171906318326
 40
0.3259744327079226
 40
0.3685988185705328
 40
0.4087655785600741
 40
0.496306860960284
 40
0.5983003979441783
 40
0.6289082449578689
 40
0.671152038234002
 40
0.7294785736334087
 40
0.8041035298388177
 40
0.8943733835910299
 40
1.0
 40
1.0
 40
1.0
 40
1.0
 10
24.34106502035409
 20
6.520500515285497
 30
0.0
 10
24.12426950238048
 20
6.48723730032551
 30
0.0
 10
23.73204189343954
 20
6.427057314173619
 30
0.0
 10
23.11222083343784
 20
6.348221845201651
 30
0.0
 10
22.4741040738344
 20
6.298211808950628
 30
0.0
 10
21.87391740048636
 20
6.28236076900025
 30
0.0
 10
21.32977857003859
 20
6.269475376837772
 30
0.0
 10
20.85735748882938
 20
6.268105199056148
 30
0.0
 10
20.33888397262441
 20
6.277706935439117
 30
0.0
 10
19.59282781072567
 20
6.310497970141573
 30
0.0
 10
18.87410518590642
 20
6.373373232618974
 30
0.0
 10
18.30289718995583
 20
6.439814245138052
 30
0.0
 10
17.87661355646309
 20
6.496326571660429
 30
0.0
 10
17.30799765791811
 20
6.584153097926204
 30
0.0
 10
16.58009093855667
 20
6.716440414042404
 30
0.0
 10
15.69602920751448
 20
6.905094338455927
 30
0.0
 10
15.05062987365123
 20
7.074053020037442
 30
0.0
 10
14.70263305771836
 20
7.165154885393626
 30
0.0
  0
SPLINE
  5
AF
330
1F
100
AcDbEntity
  8
0
  6
Continuous
 62
     1
370
    25
100
AcDbSpline
210
0.0
220
0.0
230
1.0
 70
     8
 71
     3
 72
    14
 73
    10
 74
     0
 42
0.000000001
 43
0.00000001
 40
0.0
 40
0.0
 40
0.0
 40
0.0
 40
0.3139521140106545
 40
0.5575296399120532
 40
0.7083647480552823
 40
0.8050356024778813
 40
0.8712616658417209
 40
0.9417216371627017
 40
1.0
 40
1.0
 40
1.0
 40
1.0
 10
44.62630308316114
 20
-7.163005027945836
 30
0.0
 10
45.06075322077215
 20
-7.050303340530529
 30
0.0
 10
45.83226842316311
 20
-6.850162846493265
 30
0.0
 10
46.80309265733663
 20
-6.656546919259305
 30
0.0
 10
47.47228645648539
 20
-6.543759470804722
 30
0.0
 10
47.89579228011701
 20
-6.481541571875914
 30
0.0
 10
48.20881559080161
 20
-6.44035734783257
 30
0.0
 10
48.47329358604469
 20
-6.408419856916406
 30
0.0
 10
48.64919661704308
 20
-6.390224167798836
 30
0.0
 10
48.7288258955461
 20
-6.38198718866281
 30
0.0
  0
SPLINE
  5
B0
330
1F
100
AcDbEntity
  8
0
  6
Continuous
 62
     1
370
    25
100
AcDbSpline
210
0.0
220
0.0
230
1.0
 70
     8
 71
     3
 72
    22
 73
    18
 74
     0
 42
0.000000001
 43
0.00000001
 40
0.0
 40
0.0
 40
0.0
 40
0.0
 40
0.0882156593976122
 40
0.1596002421087233
 40
0.2161891321751255
 40
0.2755171906318325
 40
0.3259744327079233
 40
0.3685988185705323
 40
0.4087655785600732
 40
0.4963068609602837
 40
0.5983003979441777
 40
0.6289082449578688
 40
0.6711520382340014
 40
0.72947857363341
 40
0.8041035298388183
 40
0.8943733835910301
 40
1.0
 40
1.0
 40
1.0
 40
1.0
 10
84.18840507123966
 20
6.520500515285502
 30
0.0
 10
83.97160955326606
 20
6.487237300325518
 30
0.0
 10
83.57938194432509
 20
6.427057314173626
 30
0.0
 10
82.95956088432342
 20
6.348221845201655
 30
0.0
 10
82.32144412471995
 20
6.298211808950636
 30
0.0
 10
81.72125745137193
 20
6.282360769000256
 30
0.0
 10
81.17711862092416
 20
6.269475376837783
 30
0.0
 10
80.70469753971497
 20
6.268105199056153
 30
0.0
 10
80.18622402350995
 20
6.277706935439123
 30
0.0
 10
79.44016786161126
 20
6.310497970141583
 30
0.0
 10
78.721445236792
 20
6.373373232618983
 30
0.0
 10
78.15023724084142
 20
6.439814245138059
 30
0.0
 10
77.72395360734869
 20
6.496326571660434
 30
0.0
 10
77.15533770880367
 20
6.584153097926206
 30
0.0
 10
76.42743098944223
 20
6.716440414042417
 30
0.0
 10
75.54336925840003
 20
6.905094338455934
 30
0.0
 10
74.8979699245368
 20
7.074053020037447
 30
0.0
 10
74.54997310860394
 20
7.165154885393633
 30
0.0
  0
SPLINE
  5
B1
330
1F
100
AcDbEntity
  8
0
  6
Continuous
 62
     1
370
    25
100
AcDbSpline
210
0.0
220
0.0
230
1.0
 70
     8
 71
     3
 72
    14
 73
    10
 74
     0
 42
0.000000001
 43
0.00000001
 40
0.0
 40
0.0
 40
0.0
 40
0.0
 40
0.3145330434020401
 40
0.5585612792606717
 40
0.7096754890364868
 40
0.8065252208678323
 40
0.8728738273360732
 40
0.9434641760822402
 40
1.0
 40
1.0
 40
1.0
 40
1.0
 10
14.70263305771838
 20
-7.163005027945839
 30
0.0
 10
15.13708321701853
 20
-7.050303390187812
 30
0.0
 10
15.90859845792604
 20
-6.850162984334071
 30
0.0
 10
16.87942248032375
 20
-6.656546572240072
 30
0.0
 10
17.54861671799061
 20
-6.543760127771324
 30
0.0
 10
17.97212167733516
 20
-6.481540250059824
 30
0.0
 10
18.28514703471872
 20
-6.440360711927745
 30
0.0
 10
18.54711262179141
 20
-6.40870991755825
 30
0.0
 10
18.72048895013302
 20
-6.39076819780295
 30
0.0
 10
18.7975932423903
 20
-6.382789117747192
 30
0.0
  0
SPLINE
  5
B2
330
1F
100
AcDbEntity
  8
0
  6
Continuous
 62
     1
370
    25
100
AcDbSpline
210
0.0
220
0.0
230
1.0
 70
     8
 71
     3
 72
    14
 73
    10
 74
     0
 42
0.000000001
 43
0.00000001
 40
0.0
 40
0.0
 40
0.0
 40
0.0
 40
0.3145330434020434
 40
0.5585612792606726
 40
0.709675489036489
 40
0.8065252208678343
 40
0.8728738273360754
 40
0.9434641760822423
 40
1.0
 40
1.0
 40
1.0
 40
1.0
 10
74.54997310860396
 20
-7.16300502794584
 30
0.0
 10
74.98442326790412
 20
-7.050303390187813
 30
0.0
 10
75.75593850881164
 20
-6.850162984334071
 30
0.0
 10
76.72676253120932
 20
-6.656546572240068
 30
0.0
 10
77.39595676887618
 20
-6.543760127771325
 30
0.0
 10
77.81946172822072
 20
-6.481540250059823
 30
0.0
 10
78.1324870856043
 20
-6.440360711927752
 30
0.0
 10
78.39445267267698
 20
-6.408709917558248
 30
0.0
 10
78.56782900101858
 20
-6.390768197802948
 30
0.0
 10
78.64493329327586
 20
-6.382789117747192
 30
0.0
  0
SPLINE
  5
B3
330
1F
100
AcDbEntity
  8
0
  6
Continuous
 62
     1
370
    25
100
AcDbSpline
210
0.0
220
0.0
230
1.0
 70
     8
 71
     3
 72
    22
 73
    18
 74
     0
 42
0.000000001
 43
0.00000001
 40
0.0
 40
0.0
 40
0.0
 40
0.0
 40
0.0823297496202365
 40
0.1512977829969842
 40
0.2081209984431052
 40
0.2679241231502869
 40
0.3191666145813531
 40
0.362818893231779
 40
0.4034643994621582
 40
0.4917906023602898
 40
0.5946986429433877
 40
0.6255809287802216
 40
0.6682034921445156
 40
0.7270530001569853
 40
0.8023470653379098
 40
0.8934263047492282
 40
1.0
 40
1.0
 40
1.0
 40
1.0
 10
54.23250955346317
 20
6.515721245375421
 30
0.0
 10
54.01938716227885
 20
6.48437815232965
 30
0.0
 10
53.62773110305432
 20
6.42677879715163
 30
0.0
 10
53.01596422761595
 20
6.354657223922596
 30
0.0
 10
52.39789285859636
 20
6.30579015381856
 30
0.0
 10
51.79525548887729
 20
6.282908939697236
 30
0.0
 10
51.25073733193073
 20
6.269284264459777
 30
0.0
 10
50.78414223295907
 20
6.268096709868252
 30
0.0
 10
50.26265390373682
 20
6.277667207685687
 30
0.0
 10
49.51661722159619
 20
6.31050768936928
 30
0.0
 10
48.79776633994118
 20
6.37337251039319
 30
0.0
 10
48.22656894209606
 20
6.439814385709355
 30
0.0
 10
47.80028284080913
 20
6.496326511327362
 30
0.0
 10
47.23166797627054
 20
6.584153121772122
 30
0.0
 10
46.50376085829134
 20
6.716440405436657
 30
0.0
 10
45.61969926711615
 20
6.905094341236818
 30
0.0
 10
44.97429991106022
 20
7.074053021011618
 30
0.0
 10
44.62630308316114
 20
7.165154885393626
 30
0.0
  0
SPLINE
  5
B4
330
1F
100
AcDbEntity
  8
0
  6
Continuous
 62
     4
370
    25
100
AcDbSpline
210
0.0
220
0.0
230
1.0
 70
     8
 71
     3
 72
    12
 73
     8
 74
     0
 42
0.000000001
 43
0.00000001
 40
0.0
 40
0.0
 40
0.0
 40
0.0
 40
0.5000000000000003
 40
0.5000000000000003
 40
0.7500000000000001
 40
0.7500000000000001
 40
1.0
 40
1.0
 40
1.0
 40
1.0
 10
9.999999999999995
 20
4.288375995119037
 30
0.0
 10
9.490258721416104
 20
4.742865612091404
 30
0.0
 10
8.985870626256553
 20
5.17744998757669
 30
0.0
 10
8.221139697742696
 20
5.795708613629453
 30
0.0
 10
7.965761539281024
 20
5.995926492396181
 30
0.0
 10
7.456526526606049
 20
6.382713583878619
 30
0.0
 10
7.203673137769575
 20
6.56904804600467
 30
0.0
 10
6.950298093491711
 20
6.748319101628569
 30
0.0
  0
LINE
  5
B5
330
1F
100
AcDbEntity
  8
0
  6
Continuous
 62
     4
370
    25
100
AcDbLine
 10
9.999999999999995
 20
4.288375995119037
 30
0.0
 11
9.999999999999995
 21
1.772550289353119
 31
0.0
  0
SPLINE
  5
B6
330
1F
100
AcDbEntity
  8
0
  6
Continuous
 62
     4
370
    25
100
AcDbSpline
210
0.0
220
0.0
230
1.0
 70
     8
 71
     3
 72
    12
 73
     8
 74
     0
 42
0.000000001
 43
0.00000001
 40
0.0
 40
0.0
 40
0.0
 40
0.0
 40
0.5000000000000002
 40
0.5000000000000002
 40
0.7500000000000002
 40
0.7500000000000002
 40
1.0
 40
1.0
 40
1.0
 40
1.0
 10
9.999999999999995
 20
1.772550289353119
 30
0.0
 10
9.490238794861886
 20
2.272652442755392
 30
0.0
 10
8.985830913258289
 20
2.763436410515341
 30
0.0
 10
8.221069870778067
 20
3.481391090918588
 30
0.0
 10
7.965681733993352
 20
3.717378792445789
 30
0.0
 10
7.456427171084752
 20
4.18043115784197
 30
0.0
 10
7.203564636148075
 20
4.407203300370243
 30
0.0
 10
6.950179235641269
 20
4.629197889801878
 30
0.0
  0
LINE
  5
B7
330
1F
100
AcDbEntity
  8
0
  6
Continuous
 62
     4
370
    25
100
AcDbLine
 10
6.950179235641273
 20
6.748607229373595
 30
0.0
 11
6.950179235641278
 21
9.526074928723894
 31
0.0
  0
LINE
  5
B8
330
1F
100
AcDbEntity
  8
0
  6
Continuous
 62
     4
370
    25
100
AcDbLine
 10
-52.49999999999999
 20
9.526074928723887
 30
0.0
 11
-52.49999999999999
 21
-9.523925071276118
 31
0.0
  0
LINE
  5
B9
330
1F
100
AcDbEntity
  8
0
  6
Continuous
 62
     4
370
    25
100
AcDbLine
 10
6.95017923564128
 20
-9.523925071276107
 30
0.0
 11
6.950179235641269
 21
4.629198230910515
 31
0.0
  0
LINE
  5
BA
330
1F
100
AcDbEntity
  8
0
  6
Continuous
 62
     4
370
    25
100
AcDbLine
 10
-53.49999999999999
 20
8.526074928723888
 30
0.0
 11
-53.49999999999999
 21
-8.523925071276114
 31
0.0
  0
SPLINE
  5
BB
330
1F
100
AcDbEntity
  8
0
  6
Continuous
 62
     4
370
    25
100
AcDbSpline
210
0.0
220
0.0
230
1.0
 70
    24
 71
     3
 72
    11
 73
     7
 74
     0
 42
0.000000001
 43
0.00000001
 40
0.0
 40
0.0
 40
0.0
 40
0.0
 40
0.1597080573615594
 40
0.4330782250709667
 40
0.714376146163372
 40
0.9999999999999999
 40
0.9999999999999999
 40
0.9999999999999999
 40
0.9999999999999999
 10
9.999999999999996
 20
1.772550289353116
 30
0.0
 10
9.999999999999996
 20
1.766903931835613
 30
0.0
 10
9.999999999999996
 20
1.751592778896972
 30
0.0
 10
9.999999999999996
 20
1.605243753010839
 30
0.0
 10
9.999999999999996
 20
1.354412594574663
 30
0.0
 10
9.999999999999996
 20
1.099300355956608
 30
0.0
 10
9.999999999999996
 20
0.970770911547634
 30
0.0
  0
SPLINE
  5
BC
330
1F
100
AcDbEntity
  8
0
  6
Continuous
 62
     4
370
    25
100
AcDbSpline
210
0.0
220
0.0
230
1.0
 70
     8
 71
     3
 72
    10
 73
     6
 74
     0
 42
0.000000001
 43
0.00000001
 40
0.0
 40
0.0
 40
0.0
 40
0.0
 40
0.5
 40
0.5
 40
1.0
 40
1.0
 40
1.0
 40
1.0
 10
10.00000000000006
 20
0.9707709115475863
 30
0.0
 10
9.49024439326495
 20
1.323266438946162
 30
0.0
 10
8.985842070703736
 20
1.670385770855013
 30
0.0
 10
7.966171961493903
 20
2.349870389327098
 30
0.0
 10
7.456977610814265
 20
2.680830403192003
 30
0.0
 10
6.950212629000025
 20
2.998459301911114
 30
0.0
  0
SPLINE
  5
BD
330
1F
100
AcDbEntity
  8
0
  6
Continuous
 62
     4
370
    25
100
AcDbSpline
210
0.0
220
0.0
230
1.0
 70
    24
 71
     3
 72
    17
 73
    13
 74
     0
 42
0.000000001
 43
0.00000001
 40
0.0
 40
0.0
 40
0.0
 40
0.0
 40
0.1170175457084544
 40
0.2561200283630753
 40
0.3567687631310887
 40
0.458116319544093
 40
0.5616679207709885
 40
0.6659811147493375
 40
0.7568145895496907
 40
0.8481605662742912
 40
0.9411074933362784
 40
1.0
 40
1.0
 40
1.0
 40
1.0
 10
9.999999999999995
 20
7.5354370408682
 30
0.0
 10
9.999999999999995
 20
7.53399707314961
 30
0.0
 10
9.999999999999996
 20
7.530845369952497
 30
0.0
 10
9.999999999999995
 20
7.37752343214195
 30
0.0
 10
9.999999999999996
 20
7.147309974594643
 30
0.0
 10
9.999999999999995
 20
6.868589642007816
 30
0.0
 10
9.999999999999996
 20
6.517086647557032
 30
0.0
 10
9.999999999999996
 20
6.110985533484946
 30
0.0
 10
9.999999999999996
 20
5.665120183701178
 30
0.0
 10
9.999999999999995
 20
5.186552681282631
 30
0.0
 10
9.999999999999996
 20
4.728249936070958
 30
0.0
 10
9.999999999999996
 20
4.411306002552617
 30
0.0
 10
9.999999999999996
 20
4.288375995118094
 30
0.0
  0
SPLINE
  5
BE
330
1F
100
AcDbEntity
  8
0
  6
Continuous
 62
     4
370
    25
100
AcDbSpline
210
0.0
220
0.0
230
1.0
 70
     8
 71
     3
 72
    12
 73
     8
 74
     0
 42
0.000000001
 43
0.00000001
 40
0.0
 40
0.0
 40
0.0
 40
0.0
 40
0.5000000000000003
 40
0.5000000000000003
 40
0.7500000000000001
 40
0.7500000000000001
 40
1.0
 40
1.0
 40
1.0
 40
1.0
 10
10.00000000000004
 20
-7.537906408919341
 30
0.0
 10
9.490247055660925
 20
-7.47868780498769
 30
0.0
 10
8.985847376776242
 20
-7.387469506555463
 30
0.0
 10
8.221098818409084
 20
-7.20342339161699
 30
0.0
 10
7.96571481825855
 20
-7.134244011182581
 30
0.0
 10
7.456468360129057
 20
-6.980907180762118
 30
0.0
 10
7.203609616863048
 20
-6.896874089343839
 30
0.0
 10
6.950228509655923
 20
-6.805529579593972
 30
0.0
  0
SPLINE
  5
BF
330
1F
100
AcDbEntity
  8
0
  6
Continuous
 62
     4
370
    25
100
AcDbSpline
210
0.0
220
0.0
230
1.0
 70
    24
 71
     3
 72
    14
 73
    10
 74
     0
 42
0.000000001
 43
0.00000001
 40
0.0
 40
0.0
 40
0.0
 40
0.0
 40
0.25
 40
0.25
 40
0.5
 40
0.5
 40
0.75
 40
0.75
 40
1.0
 40
1.0
 40
1.0
 40
1.0
 10
9.999999999999995
 20
0.9707709115476324
 30
0.0
 10
9.999999999999995
 20
0.1289867110028877
 30
0.0
 10
9.999999999999995
 20
-0.7327411404102068
 30
0.0
 10
9.999999999999995
 20
-2.414900608271923
 30
0.0
 10
9.999999999999995
 20
-3.23443415908746
 30
0.0
 10
9.999999999999995
 20
-4.746671433546951
 30
0.0
 10
9.999999999999995
 20
-5.438569373947124
 30
0.0
 10
9.999999999999995
 20
-6.634395926235817
 30
0.0
 10
9.999999999999995
 20
-7.138109553312481
 30
0.0
 10
9.999999999999995
 20
-7.537906408919336
 30
0.0
  0
SPLINE
  5
C0
330
1F
100
AcDbEntity
  8
0
  6
Continuous
 62
     1
370
    25
100
AcDbSpline
210
0.0
220
0.0
230
1.0
 70
     8
 71
     3
 72
    24
 73
    20
 74
     0
 42
0.000000001
 43
0.00000001
 40
0.0
 40
0.0
 40
0.0
 40
0.0
 40
0.0614869252335924
 40
0.1229172829374225
 40
0.1843382915362845
 40
0.2457972736828747
 40
0.3073033206081969
 40
0.3687503916651039
 40
0.4301694316759431
 40
0.4916077852502322
 40
0.5531080085259915
 40
0.614579128131364
 40
0.6760035834983495
 40
0.7374286588443087
 40
0.7989016314742885
 40
0.8604005866890929
 40
0.9218378319298327
 40
0.9832570024861336
 40
1.0
 40
1.0
 40
1.0
 40
1.0
 10
86.20000000000002
 20
-9.037586850709951
 30
0.0
 10
85.64915610920886
 20
-8.83775678879499
 30
0.0
 10
84.54797510005119
 20
-8.438280507187331
 30
0.0
 10
82.8976743832325
 20
-7.51321317591667
 30
0.0
 10
81.24764844735097
 20
-6.382464836820494
 30
0.0
 10
79.59646833200134
 20
-5.055000719799601
 30
0.0
 10
77.94387036893046
 20
-3.578229620917615
 30
0.0
 10
76.29305513505426
 20
-1.992860677479693
 30
0.0
 10
74.64307996132122
 20
-0.3481686067847848
 30
0.0
 10
72.99253251953273
 20
1.307387711192712
 30
0.0
 10
71.3401092684679
 20
2.922866084554085
 30
0.0
 10
69.68856001877533
 20
4.451420159218139
 30
0.0
 10
68.03843763785503
 20
5.846524661724484
 30
0.0
 10
66.38829811756561
 20
7.066854133825562
 30
0.0
 10
64.73668959341907
 20
8.073706355560926
 30
0.0
 10
63.08431627401819
 20
8.844304392595422
 30
0.0
 10
61.43375853115131
 20
9.328208380443224
 30
0.0
 10
60.18412838678414
 20
9.545084931955664
 30
0.0
 10
59.48417484988749
 20
9.506093013809153
 30
0.0
 10
59.33423888191944
 20
9.497740615139735
 30
0.0
  0
SPLINE
  5
C1
330
1F
100
AcDbEntity
  8
0
  6
Continuous
 62
     1
370
    25
100
AcDbSpline
210
0.0
220
0.0
230
1.0
 70
     8
 71
     3
 72
    24
 73
    20
 74
     0
 42
0.000000001
 43
0.00000001
 40
0.0
 40
0.0
 40
0.0
 40
0.0
 40
0.0265783690184014
 40
0.0908363445596606
 40
0.1550468282045014
 40
0.2192592561610378
 40
0.2835230429597804
 40
0.3478105802909888
 40
0.3637184495948158
 40
0.4279948513801687
 40
0.492212119337359
 40
0.5564196140488555
 40
0.6206668050535351
 40
0.6849631960241622
 40
0.7491979355689051
 40
0.813403372383471
 40
0.8776289989596734
 40
0.9419193020793023
 40
1.0
 40
1.0
 40
1.0
 40
1.0
 10
35.7000883754384
 20
-7.494007375632115
 30
0.0
 10
35.47230714630692
 20
-7.64020829506067
 30
0.0
 10
34.69382392939904
 20
-8.139876167192213
 30
0.0
 10
33.36540286627753
 20
-8.749038241741264
 30
0.0
 10
31.71534341241786
 20
-9.294909237139018
 30
0.0
 10
30.0650493937767
 20
-9.548553754475057
 30
0.0
 10
28.4138791384774
 20
-9.519536318841219
 30
0.0
 10
27.17429096508253
 20
-9.28344117401669
 30
0.0
 10
25.93928969295817
 20
-8.918007127350906
 30
0.0
 10
24.70018583396066
 20
-8.426192748252834
 30
0.0
 10
23.05045464025191
 20
-7.516450705014173
 30
0.0
 10
21.40027609984199
 20
-6.381594939210776
 30
0.0
 10
19.74913709751142
 20
-5.055241110808906
 30
0.0
 10
18.09652738755378
 20
-3.578138985443297
 30
0.0
 10
16.44571799245939
 20
-1.992982843685619
 30
0.0
 10
14.79573120775419
 20
-0.3477706185471659
 30
0.0
 10
13.14522439712205
 20
1.305916723664861
 30
0.0
 10
11.54562125323894
 20
2.87635149668639
 30
0.0
 10
10.49747805992433
 20
3.833897767302962
 30
0.0
 10
9.999999999999995
 20
4.288375995118097
 30
0.0
  0
SPLINE
  5
C2
330
1F
100
AcDbEntity
  8
0
  6
Continuous
 62
     1
370
    25
100
AcDbSpline
210
0.0
220
0.0
230
1.0
 70
     8
 71
     3
 72
    16
 73
    12
 74
     0
 42
0.000000001
 43
0.00000001
 40
0.0
 40
0.0
 40
0.0
 40
0.0
 40
0.1156767527184675
 40
0.2312385045551763
 40
0.3467812482756884
 40
0.4624011951400384
 40
0.578116819328774
 40
0.6937125508048799
 40
0.8092512920386787
 40
0.9248293003198944
 40
1.0
 40
1.0
 40
1.0
 40
1.0
 10
86.2
 20
-7.513885889383356
 30
0.0
 10
85.64916627471291
 20
-7.318031427538859
 30
0.0
 10
84.5480464394774
 20
-6.926517213982017
 30
0.0
 10
82.89768180288394
 20
-6.07088802569716
 30
0.0
 10
81.24760818895889
 20
-5.049531291032801
 30
0.0
 10
79.596402567374
 20
-3.872262474510585
 30
0.0
 10
77.94395105114626
 20
-2.581139168705592
 30
0.0
 10
76.29308246491217
 20
-1.21056170119341
 30
0.0
 10
74.64306047529043
 20
0.1930770685813734
 30
0.0
 10
73.18536731587768
 20
1.437369286259869
 30
0.0
 10
72.27698390270601
 20
2.171746329713216
 30
0.0
 10
71.91900602974573
 20
2.461151363044237
 30
0.0
  0
SPLINE
  5
C3
330
1F
100
AcDbEntity
  8
0
  6
Continuous
 62
     1
370
    25
100
AcDbSpline
210
0.0
220
0.0
230
1.0
 70
     8
 71
     3
 72
    20
 73
    16
 74
     0
 42
0.000000001
 43
0.00000001
 40
0.0
 40
0.0
 40
0.0
 40
0.0
 40
0.0113990114769927
 40
0.0944078422598266
 40
0.1774884251813175
 40
0.2606021866664324
 40
0.3436262675053441
 40
0.4266257592387847
 40
0.5096698048659961
 40
0.5927969022156074
 40
0.6758496894369659
 40
0.7588506260415602
 40
0.8418688384119484
 40
0.9249728411818481
 40
1.0
 40
1.0
 40
1.0
 40
1.0
 10
31.94189211051289
 20
-7.910769617426833
 30
0.0
 10
31.86637086112126
 20
-7.928367197057726
 30
0.0
 10
31.2408957298592
 20
-8.074112249188008
 30
0.0
 10
30.0651086958234
 20
-8.121238015739573
 30
0.0
 10
28.41345573061825
 20
-8.029221089685349
 30
0.0
 10
26.76122953693179
 20
-7.673836461047594
 30
0.0
 10
25.11068113142028
 20
-7.094285865018858
 30
0.0
 10
23.46065491698718
 20
-6.300530402910811
 30
0.0
 10
21.80970606556714
 20
-5.318117579160207
 30
0.0
 10
20.15723724607382
 20
-4.176973887423479
 30
0.0
 10
18.5061205343348
 20
-2.909959571480518
 30
0.0
 10
16.85606235136341
 20
-1.55539115674935
 30
0.0
 10
15.20565459685088
 20
-0.1556350874385468
 30
0.0
 10
13.60700917403961
 20
1.208886158718875
 30
0.0
 10
12.55897526296571
 20
2.066714905783478
 30
0.0
 10
12.06172345058864
 20
2.47372167787346
 30
0.0
  0
LINE
  5
C4
330
1F
100
AcDbEntity
  8
0
  6
Continuous
 62
     1
370
    25
100
AcDbLine
 10
86.2
 20
-9.037586850709953
 30
0.0
 11
86.2
 21
-7.513885889383356
 31
0.0
  0
SPLINE
  5
C5
330
1F
100
AcDbEntity
  8
0
  6
Continuous
 62
     1
370
    25
100
AcDbSpline
210
0.0
220
0.0
230
1.0
 70
     8
 71
     3
 72
    30
 73
    26
 74
     0
 42
0.000000001
 43
0.00000001
 40
0.0
 40
0.0
 40
0.0
 40
0.0
 40
0.0244528478335257
 40
0.0700795158850245
 40
0.1156604007115519
 40
0.1612278757553577
 40
0.2068170653585586
 40
0.2524492813418793
 40
0.2980451098196741
 40
0.3436136820938485
 40
0.3891901102683494
 40
0.4348093663858796
 40
0.4804255672773612
 40
0.5260007129224281
 40
0.5715698421386056
 40
0.6171680608184462
 40
0.6627996223655439
 40
0.7083868060828163
 40
0.7539541115116632
 40
0.7995366648861658
 40
0.8451651331618651
 40
0.8907697987250759
 40
0.9363407587126771
 40
0.9819130986018996
 40
1.0
 40
1.0
 40
1.0
 40
1.0
 10
65.62243118297033
 20
-7.494120433772264
 30
0.0
 10
65.32724393464332
 20
-7.679782404981693
 30
0.0
 10
64.48126560119827
 20
-8.211871802061136
 30
0.0
 10
63.08428426499532
 20
-8.8315062919465
 30
0.0
 10
61.43379960840784
 20
-9.34167412400954
 30
0.0
 10
59.78381338933299
 20
-9.560568291168128
 30
0.0
 10
58.1329582667021
 20
-9.495818323465308
 30
0.0
 10
56.48034812964111
 20
-9.145825817248147
 30
0.0
 10
54.82921697412563
 20
-8.521698312869676
 30
0.0
 10
53.17920025573599
 20
-7.642115944310206
 30
0.0
 10
51.52887230259762
 20
-6.533294184832748
 30
0.0
 10
49.87678632000527
 20
-5.229050974885056
 30
0.0
 10
48.22482369572904
 20
-3.768038340000273
 30
0.0
 10
46.57454917129546
 20
-2.193619398107339
 30
0.0
 10
44.92451299248725
 20
-0.5535996074126635
 30
0.0
 10
43.27328313531969
 20
1.103210488680425
 30
0.0
 10
41.62070007174643
 20
2.726100341388444
 30
0.0
 10
39.96992585994522
 20
4.268353187410973
 30
0.0
 10
38.31995303374639
 20
5.682260290508514
 30
0.0
 10
36.66937118304608
 20
6.92650379240088
 30
0.0
 10
35.01691063992212
 20
7.961264666772059
 30
0.0
 10
33.36542610645299
 20
8.762685726699797
 30
0.0
 10
31.71528507386277
 20
9.283634677834943
 30
0.0
 10
30.39733363145755
 20
9.53067969116718
 30
0.0
 10
29.628752665702
 20
9.50043743526726
 30
0.0
 10
29.41038298577863
 20
9.49184498758085
 30
0.0
  0
SPLINE
  5
C6
330
1F
100
AcDbEntity
  8
0
  6
Continuous
 62
     1
370
    25
100
AcDbSpline
210
0.0
220
0.0
230
1.0
 70
     8
 71
     3
 72
    20
 73
    16
 74
     0
 42
0.000000001
 43
0.00000001
 40
0.0
 40
0.0
 40
0.0
 40
0.0
 40
0.0217770489736486
 40
0.104796131858449
 40
0.1878579719875698
 40
0.2710045252627289
 40
0.354079437114135
 40
0.4371006805835848
 40
0.5201373930806336
 40
0.603258430887094
 40
0.6863734535492101
 40
0.7694076406491522
 40
0.8524299808044873
 40
0.9355095988136445
 40
0.9999999999999999
 40
0.9999999999999999
 40
0.9999999999999999
 40
0.9999999999999999
 10
61.86641485411551
 20
-7.901627723310939
 30
0.0
 10
61.72215598877118
 20
-7.933477678955124
 30
0.0
 10
61.02794939114317
 20
-8.086746937586671
 30
0.0
 10
59.78381197596705
 20
-8.123548166000502
 30
0.0
 10
58.13287131868393
 20
-7.997888078142791
 30
0.0
 10
56.48041850811249
 20
-7.614218533730724
 30
0.0
 10
54.82925487089906
 20
-7.007026158187377
 30
0.0
 10
53.1791919609942
 20
-6.188482378462671
 30
0.0
 10
51.52879882034897
 20
-5.184613571242717
 30
0.0
 10
49.87679199883338
 20
-4.02566225348547
 30
0.0
 10
48.22489353829651
 20
-2.746190017083622
 30
0.0
 10
46.57455277539404
 20
-1.383295989346722
 30
0.0
 10
44.92448143930535
 20
0.018716158373761
 30
0.0
 10
43.39677202272417
 20
1.323045988451359
 30
0.0
 10
42.418722298594
 20
2.118516805798724
 30
0.0
 10
41.99129930689679
 20
2.466149966127876
 30
0.0
  0
SPLINE
  5
C7
330
1F
100
AcDbEntity
  8
0
  6
Continuous
 62
     1
370
    25
100
AcDbSpline
210
0.0
220
0.0
230
1.0
 70
     8
 71
     3
 72
    17
 73
    13
 74
     0
 42
0.000000001
 43
0.00000001
 40
0.0
 40
0.0
 40
0.0
 40
0.0
 40
0.1023348090313243
 40
0.204750614609939
 40
0.3071257306743097
 40
0.4094363320197019
 40
0.5079908552219382
 40
0.6066023597917941
 40
0.7052954909927143
 40
0.8038973545481123
 40
0.9024502842699177
 40
1.0
 40
1.0
 40
1.0
 40
1.0
 10
9.999999999999995
 20
1.772550289353118
 30
0.0
 10
10.57107026374499
 20
1.20572193904924
 30
0.0
 10
11.7136627852345
 20
0.0716166018561857
 30
0.0
 10
13.42873480310193
 20
-1.645985442898632
 30
0.0
 10
15.14300087794386
 20
-3.306821902533038
 30
0.0
 10
16.83517755177182
 20
-4.842919828343115
 30
0.0
 10
18.50596554352254
 20
-6.209540004435591
 30
0.0
 10
20.15707263992388
 20
-7.372765518948317
 30
0.0
 10
21.80968221338902
 20
-8.315915060181624
 30
0.0
 10
23.46060672269924
 20
-9.00473364420039
 30
0.0
 10
25.10476601070191
 20
-9.442941126209409
 30
0.0
 10
26.19911404385927
 20
-9.496037091894479
 30
0.0
 10
26.7434888497079
 20
-9.522449261638833
 30
0.0
  0
SPLINE
  5
C8
330
1F
100
AcDbEntity
  8
0
  6
Continuous
 62
     1
370
    25
100
AcDbSpline
210
0.0
220
0.0
230
1.0
 70
     8
 71
     3
 72
    30
 73
    26
 74
     0
 42
0.000000001
 43
0.00000001
 40
0.0
 40
0.0
 40
0.0
 40
0.0
 40
0.0305392478737535
 40
0.0746302421122368
 40
0.1186798468187601
 40
0.1627218623585139
 40
0.2067902239905458
 40
0.2508937490978286
 40
0.294955687017109
 40
0.338996640836602
 40
0.3830505576573388
 40
0.4271487240014132
 40
0.4712282536869802
 40
0.5174025759169996
 40
0.5635562427741743
 40
0.6092873489903448
 40
0.6550546507272996
 40
0.7008037692427742
 40
0.746524057592892
 40
0.7905658397714849
 40
0.8346330856314941
 40
0.8787368085824423
 40
0.9227997460916529
 40
0.9668408161799658
 40
1.0
 40
1.0
 40
1.0
 40
1.0
 10
48.7322119437906
 20
6.386561067162423
 30
0.0
 10
49.11369961988612
 20
6.668158227490212
 30
0.0
 10
50.04595956772559
 20
7.356310874217405
 30
0.0
 10
51.5288365750376
 20
8.208846946830306
 30
0.0
 10
53.17914604135323
 20
8.94000987672001
 30
0.0
 10
54.82917083805454
 20
9.395907229895412
 30
0.0
 10
56.48030327578692
 20
9.572141559526212
 30
0.0
 10
58.1329158107345
 20
9.461061272974964
 30
0.0
 10
59.7837748625558
 20
9.066490763293254
 30
0.0
 10
61.43375729260814
 20
8.40022812119131
 30
0.0
 10
63.08426802287983
 20
7.482022872121537
 30
0.0
 10
64.73667514903237
 20
6.340168566816026
 30
0.0
 10
66.41480486995513
 20
4.986533201867168
 30
0.0
 10
68.11812579716678
 20
3.4528343991346
 30
0.0
 10
69.84204082776994
 20
1.787378671646229
 30
0.0
 10
71.56100883799272
 20
0.0690544887009045
 30
0.0
 10
73.27607324799098
 20
-1.645299126139076
 30
0.0
 10
74.99034135109724
 20
-3.307005119949941
 30
0.0
 10
76.6825175243955
 20
-4.842875508807367
 30
0.0
 10
78.35330550721339
 20
-6.209541864234606
 30
0.0
 10
80.00441311844543
 20
-7.37280188363317
 30
0.0
 10
81.6570206401741
 20
-8.315767660903118
 30
0.0
 10
83.30795283442885
 20
-9.005286152645754
 30
0.0
 10
84.8218285850568
 20
-9.406378019720162
 30
0.0
 10
85.78590728419537
 20
-9.482974735316489
 30
0.0
 10
86.19999999999999
 20
-9.51587468633847
 30
0.0
  0
SPLINE
  5
C9
330
1F
100
AcDbEntity
  8
0
  6
Continuous
 62
     1
370
    25
100
AcDbSpline
210
0.0
220
0.0
230
1.0
 70
     8
 71
     3
 72
    19
 73
    15
 74
     0
 42
0.000000001
 43
0.00000001
 40
0.0
 40
0.0
 40
0.0
 40
0.0
 40
0.0655693997291106
 40
0.1557732396126556
 40
0.2458968684773413
 40
0.3360215598146725
 40
0.4262285745167888
 40
0.5164802512382973
 40
0.606625868004116
 40
0.6967404098645601
 40
0.7869052580974143
 40
0.8771697800065409
 40
0.9673500211941897
 40
1.0
 40
1.0
 40
1.0
 40
1.0
 10
72.54077439539063
 20
-0.9053596839633605
 30
0.0
 10
72.14049369711431
 20
-0.627477336630387
 30
0.0
 10
71.18954674041622
 20
0.0326878266021309
 30
0.0
 10
69.68864756067778
 20
1.086159832618983
 30
0.0
 10
68.03841954086431
 20
2.209912875370154
 30
0.0
 10
66.38815627209219
 20
3.268284587531247
 30
0.0
 10
64.73659097294683
 20
4.228325326388913
 30
0.0
 10
63.0844558893941
 20
5.061327227286808
 30
0.0
 10
61.43379904402177
 20
5.743506643294374
 30
0.0
 10
59.78372710594542
 20
6.252449378026668
 30
0.0
 10
58.13275632499716
 20
6.577502364825848
 30
0.0
 10
56.48046793950242
 20
6.69241095850455
 30
0.0
 10
55.17995996818229
 20
6.662994016029839
 30
0.0
 10
54.43046652333679
 20
6.528722629420734
 30
0.0
 10
54.23124075389178
 20
6.493031429590213
 30
0.0
  0
SPLINE
  5
CA
330
1F
100
AcDbEntity
  8
0
  6
Continuous
 62
     1
370
    25
100
AcDbSpline
210
0.0
220
0.0
230
1.0
 70
     8
 71
     3
 72
     9
 73
     5
 74
     0
 42
0.000000001
 43
0.00000001
 40
0.0
 40
0.0
 40
0.0
 40
0.0
 40
0.2935967713531533
 40
0.9999999999999999
 40
0.9999999999999999
 40
0.9999999999999999
 40
0.9999999999999999
 10
12.69153942925506
 20
-0.9034750939576449
 30
0.0
 10
12.428117734938
 20
-0.7214465451745082
 30
0.0
 10
11.5308950130975
 20
-0.1014514820674171
 30
0.0
 10
10.63374773430841
 20
0.5269008180306439
 30
0.0
 10
10.00000000000006
 20
0.9707709115475867
 30
0.0
  0
SPLINE
  5
CB
330
1F
100
AcDbEntity
  8
0
  6
Continuous
 62
     4
370
    25
100
AcDbSpline
210
0.0
220
0.0
230
1.0
 70
    24
 71
     3
 72
    11
 73
     7
 74
     0
 42
0.000000001
 43
0.00000001
 40
0.0
 40
0.0
 40
0.0
 40
0.0
 40
0.2332126103616482
 40
0.4826697176673751
 40
0.7393610979844071
 40
1.0
 40
1.0
 40
1.0
 40
1.0
 10
9.999999999999995
 20
1.788709772646001
 30
0.0
 10
9.999999999999995
 20
1.781213690185374
 30
0.0
 10
9.999999999999995
 20
1.765699383307751
 30
0.0
 10
9.999999999999996
 20
1.60680884378802
 30
0.0
 10
9.999999999999995
 20
1.354009568751484
 30
0.0
 10
9.999999999999995
 20
1.099165332346225
 30
0.0
 10
9.999999999999995
 20
0.970770911547634
 30
0.0
  0
SPLINE
  5
CC
330
1F
100
AcDbEntity
  8
0
  6
Continuous
 62
     1
370
    25
100
AcDbSpline
210
0.0
220
0.0
230
1.0
 70
     8
 71
     3
 72
    31
 73
    27
 74
     0
 42
0.000000001
 43
0.00000001
 40
0.0
 40
0.0
 40
0.0
 40
0.0
 40
0.0358090151182965
 40
0.0794480852710433
 40
0.1230467996752475
 40
0.1666238770417875
 40
0.2102129055403124
 40
0.253845504718004
 40
0.2974619681051013
 40
0.3410435799460174
 40
0.3846238778455724
 40
0.4282364140578941
 40
0.471871700594456
 40
0.515463078078691
 40
0.5590398788350769
 40
0.6026356941186508
 40
0.6462739454872606
 40
0.6898803027979392
 40
0.7334588459552672
 40
0.7770431467806825
 40
0.8206667129060649
 40
0.8642931884491268
 40
0.9078787105177896
 40
0.9514567233750093
 40
0.9950608047564318
 40
0.9999999999999999
 40
0.9999999999999999
 40
0.9999999999999999
 40
0.9999999999999999
 10
18.80086116971327
 20
6.38723015031278
 30
0.0
 10
19.25279144992119
 20
6.715377073675225
 30
0.0
 10
20.25547178949241
 20
7.443424037899305
 30
0.0
 10
21.80969912476201
 20
8.313602556507318
 30
0.0
 10
23.46058692850825
 20
9.011345879831637
 30
0.0
 10
25.11057600089332
 20
9.433236526402922
 30
0.0
 10
26.76105785949465
 20
9.573946694012102
 30
0.0
 10
28.41340487026888
 20
9.42735627089549
 30
0.0
 10
30.06506913653998
 20
8.998373460880508
 30
0.0
 10
31.71523124330583
 20
8.299593363453635
 30
0.0
 10
33.3653388920012
 20
7.352103971954142
 30
0.0
 10
35.01683589337562
 20
6.184270924530923
 30
0.0
 10
36.6692961353185
 20
4.831694283654836
 30
0.0
 10
38.31988096033862
 20
3.33352969327504
 30
0.0
 10
39.96985609969715
 20
1.73581598913376
 30
0.0
 10
41.62063306556545
 20
0.0857373043008095
 30
0.0
 10
43.27321868165344
 20
-1.565842108980289
 30
0.0
 10
44.92445078597162
 20
-3.171347832347966
 30
0.0
 10
46.57448936810818
 20
-4.681637797389928
 30
0.0
 10
48.22476661177424
 20
-6.051580460232684
 30
0.0
 10
49.87673156171628
 20
-7.240293885713189
 30
0.0
 10
51.52882137285249
 20
-8.209919425158176
 30
0.0
 10
53.17914575014536
 20
-8.941488354345184
 30
0.0
 10
54.82918719737862
 20
-9.376021522743907
 30
0.0
 10
55.99182141588227
 20
-9.560061031190374
 30
0.0
 10
56.6048060343031
 20
-9.514237632247564
 30
0.0
 10
56.66717616920506
 20
-9.509575179899096
 30
0.0
  0
SPLINE
  5
CD
330
1F
100
AcDbEntity
  8
0
  6
Continuous
 62
     1
370
    25
100
AcDbSpline
210
0.0
220
0.0
230
1.0
 70
     8
 71
     3
 72
    12
 73
     8
 74
     0
 42
0.000000001
 43
0.00000001
 40
0.0
 40
0.0
 40
0.0
 40
0.0
 40
0.1795534688803626
 40
0.398368379001576
 40
0.6169809374352007
 40
0.8354850034918052
 40
1.0
 40
1.0
 40
1.0
 40
1.0
 10
78.64820122059886
 20
6.387230150312793
 30
0.0
 10
79.10013187364665
 20
6.71532795626657
 30
0.0
 10
80.10281304042331
 20
7.443265945584216
 30
0.0
 10
81.65703312952307
 20
8.314399064601844
 30
0.0
 10
83.30794947550928
 20
9.008382272637686
 30
0.0
 10
84.82182918746753
 20
9.408358168217617
 30
0.0
 10
85.78590746519887
 20
9.485073601110138
 30
0.0
 10
86.19999999999999
 20
9.518024543786266
 30
0.0
  0
SPLINE
  5
CE
330
1F
100
AcDbEntity
  8
0
  6
Continuous
 62
     1
370
    25
100
AcDbSpline
210
0.0
220
0.0
230
1.0
 70
    24
 71
     3
 72
    10
 73
     6
 74
     0
 42
0.000000001
 43
0.00000001
 40
0.0
 40
0.0
 40
0.0
 40
0.0
 40
0.4999999999999996
 40
0.4999999999999996
 40
1.0
 40
1.0
 40
1.0
 40
1.0
 10
86.2
 20
6.668574928723903
 30
0.0
 10
86.20000000000002
 20
7.072742174813569
 30
0.0
 10
86.20000000000003
 20
7.542421944683197
 30
0.0
 10
86.19999999999999
 20
8.527808836876057
 30
0.0
 10
86.19999999999999
 20
9.040999404732935
 30
0.0
 10
86.2
 20
9.51802454378627
 30
0.0
  0
SPLINE
  5
CF
330
1F
100
AcDbEntity
  8
0
  6
Continuous
 62
     1
370
    25
100
AcDbSpline
210
0.0
220
0.0
230
1.0
 70
     8
 71
     3
 72
     9
 73
     5
 74
     0
 42
0.000000001
 43
0.00000001
 40
0.0
 40
0.0
 40
0.0
 40
0.0
 40
0.8210347119005775
 40
0.9999999999999999
 40
0.9999999999999999
 40
0.9999999999999999
 40
0.9999999999999999
 10
86.2
 20
6.668574928723902
 30
0.0
 10
85.64915015539293
 20
6.662220156739751
 30
0.0
 10
84.97822865034236
 20
6.654480201422342
 30
0.0
 10
84.30761159499403
 20
6.526721677740372
 30
0.0
 10
84.18759442047921
 20
6.503857336742469
 30
0.0
  0
SPLINE
  5
D0
330
1F
100
AcDbEntity
  8
0
  6
Continuous
 62
     1
370
    25
100
AcDbSpline
210
0.0
220
0.0
230
1.0
 70
     8
 71
     3
 72
    19
 73
    15
 74
     0
 42
0.000000001
 43
0.00000001
 40
0.0
 40
0.0
 40
0.0
 40
0.0
 40
0.0544000878842406
 40
0.1447314479300127
 40
0.2350166551991313
 40
0.3253372501082546
 40
0.4157644105930915
 40
0.5061363520548077
 40
0.5964300472433935
 40
0.6867269358917519
 40
0.7771084198631496
 40
0.8675290508416689
 40
0.9578439370880503
 40
0.9999999999999999
 40
0.9999999999999999
 40
0.9999999999999999
 40
0.9999999999999999
 10
42.61476185750013
 20
-0.9032773368818773
 30
0.0
 10
42.28327401198499
 20
-0.6738392518270067
 30
0.0
 10
41.40135051298812
 20
-0.0634191670112862
 30
0.0
 10
39.96992892015951
 20
0.9441323055275761
 30
0.0
 10
38.31986331139598
 20
2.073430739421748
 30
0.0
 10
36.66914081669675
 20
3.141988804892596
 30
0.0
 10
35.01695365996779
 20
4.115302006110116
 30
0.0
 10
33.36547162577669
 20
4.965913136600738
 30
0.0
 10
31.71525125224285
 20
5.66794150343942
 30
0.0
 10
30.06496926525028
 20
6.199333344486292
 30
0.0
 10
28.41336131340156
 20
6.547716007556547
 30
0.0
 10
26.76125311464693
 20
6.689069276972316
 30
0.0
 10
25.40376673053704
 20
6.673751301493256
 30
0.0
 10
24.59697102624298
 20
6.538888243772941
 30
0.0
 10
24.34022544780933
 20
6.495970943173242
 30
0.0
  0
LINE
  5
D1
330
1F
100
AcDbEntity
  8
0
  6
Continuous
 62
     1
370
    25
100
AcDbLine
 10
86.19999999999999
 20
-9.51587468633847
 30
0.0
 11
86.2
 21
-9.037586850709962
 31
0.0
  0
SPLINE
  5
D2
330
1F
100
AcDbEntity
  8
0
  6
Continuous
 62
     1
370
    25
100
AcDbSpline
210
0.0
220
0.0
230
1.0
 70
     8
 71
     3
 72
    28
 73
    24
 74
     0
 42
0.000000001
 43
0.00000001
 40
0.0
 40
0.0
 40
0.0
 40
0.0
 40
0.0453919395202535
 40
0.0935091419715827
 40
0.1416010784618856
 40
0.1896524939377811
 40
0.2377044464451163
 40
0.2857979877919035
 40
0.3339140920791165
 40
0.3819766149363371
 40
0.4300234402098164
 40
0.4780956792758324
 40
0.5262182737085631
 40
0.5742982879280195
 40
0.6223463984043195
 40
0.6704037015794285
 40
0.7185111260271838
 40
0.7666149839340636
 40
0.8146707897184631
 40
0.8627195504406758
 40
0.9108023549873959
 40
0.9589241855857138
 40
1.0
 40
1.0
 40
1.0
 40
1.0
 10
74.55149210381485
 20
-7.156906529243721
 30
0.0
 10
74.03199857348255
 20
-7.282443884032559
 30
0.0
 10
72.96182191228286
 20
-7.541055665237648
 30
0.0
 10
71.34014986114369
 20
-7.65376222247368
 30
0.0
 10
69.68861961854797
 20
-7.557001207013874
 30
0.0
 10
68.0384209343225
 20
-7.228892064167033
 30
0.0
 10
66.3882036567644
 20
-6.685318020364252
 30
0.0
 10
64.7366231177485
 20
-5.94104754172438
 30
0.0
 10
63.08439815324891
 20
-5.019211334874807
 30
0.0
 10
61.43379249928837
 20
-3.946215208050507
 30
0.0
 10
59.78375339151031
 20
-2.755148462680468
 30
0.0
 10
58.13282443261449
 20
-1.481179933607864
 30
0.0
 10
56.48041538157062
 20
-0.1638311259465993
 30
0.0
 10
54.82924158970728
 20
1.159417117625972
 30
0.0
 10
53.17915963731582
 20
2.44777952385351
 30
0.0
 10
51.52874160621361
 20
3.663004680855576
 30
0.0
 10
49.87676247420058
 20
4.767884527676874
 30
0.0
 10
48.22488423545763
 20
5.730160997175871
 30
0.0
 10
46.57452339907319
 20
6.520613279454145
 30
0.0
 10
44.92441749721394
 20
7.117172866459159
 30
0.0
 10
43.27316596712158
 20
7.494313940254695
 30
0.0
 10
41.70085374544286
 20
7.661099322911881
 30
0.0
 10
40.67997142137889
 20
7.588975242710389
 30
0.0
 10
40.20985169034618
 20
7.555761862102204
 30
0.0
  0
SPLINE
  5
D3
330
1F
100
AcDbEntity
  8
0
  6
Continuous
 62
     1
370
    25
100
AcDbSpline
210
0.0
220
0.0
230
1.0
 70
     8
 71
     3
 72
    10
 73
     6
 74
     0
 42
0.000000001
 43
0.00000001
 40
0.0
 40
0.0
 40
0.0
 40
0.0
 40
0.2452676283870178
 40
0.5961659315409356
 40
1.0
 40
1.0
 40
1.0
 40
1.0
 10
14.7083571992215
 20
-7.138713018874307
 30
0.0
 10
14.32339309877648
 20
-7.242103787818788
 30
0.0
 10
13.38767042285333
 20
-7.493413161525697
 30
0.0
 10
11.8181931032667
 20
-7.661767454950533
 30
0.0
 10
10.63375590103471
 20
-7.581079858807344
 30
0.0
 10
10.00000000000004
 20
-7.537906408919342
 30
0.0
  0
SPLINE
  5
D4
330
1F
100
AcDbEntity
  8
0
  6
Continuous
 62
     1
370
    25
100
AcDbSpline
210
0.0
220
0.0
230
1.0
 70
     8
 71
     3
 72
    14
 73
    10
 74
     0
 42
0.000000001
 43
0.00000001
 40
0.0
 40
0.0
 40
0.0
 40
0.0
 40
0.1477536951958755
 40
0.2956513818424312
 40
0.4433878963161951
 40
0.5924854486024861
 40
0.7416350432899002
 40
0.8909513394315308
 40
1.0
 40
1.0
 40
1.0
 40
1.0
 10
81.19999999974765
 20
3.820332728564736
 30
0.0
 10
80.6550331829118
 20
4.186825117514712
 30
0.0
 10
79.5645684588845
 20
4.920167055827322
 30
0.0
 10
77.92806359465642
 20
5.844337859892216
 30
0.0
 10
76.28779148169659
 20
6.607547489856343
 30
0.0
 10
74.64304222772688
 20
7.176557006256915
 30
0.0
 10
72.99242145985222
 20
7.525136561420861
 30
0.0
 10
71.4884292266276
 20
7.663520036143828
 30
0.0
 10
70.53532913100636
 20
7.581921909788101
 30
0.0
 10
70.13305209568924
 20
7.547481610696094
 30
0.0
  0
SPLINE
  5
D5
330
1F
100
AcDbEntity
  8
0
  6
Continuous
 62
     1
370
    25
100
AcDbSpline
210
0.0
220
0.0
230
1.0
 70
     8
 71
     3
 72
    28
 73
    24
 74
     0
 42
0.000000001
 43
0.00000001
 40
0.0
 40
0.0
 40
0.0
 40
0.0
 40
0.0395108227076307
 40
0.0876290457289775
 40
0.1356953392897245
 40
0.1837383645457111
 40
0.2317992320928979
 40
0.2799138306823633
 40
0.3280005847972762
 40
0.3760478890014068
 40
0.4240968041748161
 40
0.4721883724855634
 40
0.5202996768399405
 40
0.5683576645463311
 40
0.6164010289789463
 40
0.6644708767921882
 40
0.71259010333464
 40
0.760665159733903
 40
0.8087093851256775
 40
0.8567638761597809
 40
0.9048693658706414
 40
0.9529678452591309
 40
1.0
 40
1.0
 40
1.0
 40
1.0
 10
44.63046067208759
 20
-7.146050097435483
 30
0.0
 10
44.17816787892555
 20
-7.261870380330803
 30
0.0
 10
43.17505067865452
 20
-7.518742299735736
 30
0.0
 10
41.62076279941789
 20
-7.649300268526547
 30
0.0
 10
39.96992161961957
 20
-7.582116691736237
 30
0.0
 10
38.31988590374407
 20
-7.281407850070111
 30
0.0
 10
36.66921414410072
 20
-6.763930259998236
 30
0.0
 10
35.01692938567223
 20
-6.043737667342873
 30
0.0
 10
33.36544270225018
 20
-5.142175232275688
 30
0.0
 10
31.71526330686406
 20
-4.086318547485337
 30
0.0
 10
30.06502500554554
 20
-2.907911741921144
 30
0.0
 10
28.41339682122918
 20
-1.64251489987907
 30
0.0
 10
26.76120563065081
 20
-0.3283539216201146
 30
0.0
 10
25.11063253323187
 20
0.9965548481269975
 30
0.0
 10
23.4605887025172
 20
2.291320615930365
 30
0.0
 10
21.80962097783372
 20
3.517686942412645
 30
0.0
 10
20.15720489320232
 20
4.637727644767498
 30
0.0
 10
18.50607388161222
 20
5.619767509543648
 30
0.0
 10
16.85599839075744
 20
6.432752015692682
 30
0.0
 10
15.20556208249433
 20
7.054822648435378
 30
0.0
 10
13.55349414110231
 20
7.458589174782742
 30
0.0
 10
11.91349225280499
 20
7.662266594222839
 30
0.0
 10
10.824330055313
 20
7.587534166650857
 30
0.0
 10
10.28585319684182
 20
7.550586792864334
 30
0.0
  0
SPLINE
  5
D6
330
1F
100
AcDbEntity
  8
0
  6
Continuous
 62
     1
370
    25
100
AcDbSpline
210
0.0
220
0.0
230
1.0
 70
    24
 71
     3
 72
     8
 73
     4
 74
     0
 42
0.000000001
 43
0.00000001
 40
0.0
 40
0.0
 40
0.0
 40
0.0
 40
1.0
 40
1.0
 40
1.0
 40
1.0
 10
81.19999999999999
 20
1.834784839967826
 30
0.0
 10
81.19999999999999
 20
2.525947940547784
 30
0.0
 10
81.2
 20
3.193467519352226
 30
0.0
 10
81.2
 20
3.820332728390289
 30
0.0
  0
SPLINE
  5
D7
330
1F
100
AcDbEntity
  8
0
  6
Continuous
 62
     1
370
    25
100
AcDbSpline
210
0.0
220
0.0
230
1.0
 70
     8
 71
     3
 72
    12
 73
     8
 74
     0
 42
0.000000001
 43
0.00000001
 40
0.0
 40
0.0
 40
0.0
 40
0.0
 40
0.5
 40
0.5
 40
0.75
 40
0.75
 40
1.0
 40
1.0
 40
1.0
 40
1.0
 10
86.2
 20
-2.544414132208464
 30
0.0
 10
85.3408752631895
 20
-1.867279834678612
 30
0.0
 10
84.49238695688948
 20
-1.163513899255644
 30
0.0
 10
83.23629642070019
 20
-0.0661967246377683
 30
0.0
 10
82.81927218818322
 20
0.307650069937011
 30
0.0
 10
81.99666457882861
 20
1.066431095201115
 30
0.0
 10
81.59369868701407
 20
1.448898214515334
 30
0.0
 10
81.20000000000006
 20
1.834784839967777
 30
0.0
  0
SPLINE
  5
D8
330
1F
100
AcDbEntity
  8
0
  6
Continuous
 62
     1
370
    25
100
AcDbSpline
210
0.0
220
0.0
230
1.0
 70
    24
 71
     3
 72
    10
 73
     6
 74
     0
 42
0.000000001
 43
0.00000001
 40
0.0
 40
0.0
 40
0.0
 40
0.0
 40
0.5
 40
0.5
 40
1.0
 40
1.0
 40
1.0
 40
1.0
 10
86.2
 20
-7.513885889383356
 30
0.0
 10
86.2
 20
-6.93780555153734
 30
0.0
 10
86.2
 20
-6.209905955485214
 30
0.0
 10
86.19999999999997
 20
-4.517609447186326
 30
0.0
 10
86.2
 20
-3.554678466339823
 30
0.0
 10
86.2
 20
-2.544414132208768
 30
0.0
  0
SPLINE
  5
D9
330
1F
100
AcDbEntity
  8
0
  6
Continuous
 62
     4
370
    25
100
AcDbSpline
210
0.0
220
0.0
230
1.0
 70
    24
 71
     3
 72
    13
 73
     9
 74
     0
 42
0.000000001
 43
0.00000001
 40
0.0
 40
0.0
 40
0.0
 40
0.0
 40
0.0964939610271068
 40
0.2391516020942054
 40
0.4461315434651824
 40
0.659113917157735
 40
0.84581821981938
 40
1.0
 40
1.0
 40
1.0
 40
1.0
 10
9.999999999999995
 20
7.530217601605059
 30
0.0
 10
9.999999999999995
 20
7.528360292608403
 30
0.0
 10
9.999999999999995
 20
7.523757119338218
 30
0.0
 10
9.999999999999995
 20
7.333587004676447
 30
0.0
 10
9.999999999999995
 20
6.902435359592692
 30
0.0
 10
9.999999999999995
 20
6.153898629355056
 30
0.0
 10
9.999999999999995
 20
5.276345701434713
 30
0.0
 10
9.999999999999995
 20
4.596064979723786
 30
0.0
 10
9.999999999999995
 20
4.288375995118096
 30
0.0
  0
LINE
  5
DA
330
1F
100
AcDbEntity
  8
0
  6
Continuous
 62
     1
370
    25
100
AcDbLine
 10
81.19999999999999
 20
2.938794364020493
 30
0.0
 11
86.2
 21
0.0010749287239026
 31
0.0
  0
LINE
  5
DB
330
1F
100
AcDbEntity
  8
0
  6
Continuous
 62
     1
370
    25
100
AcDbLine
 10
86.2
 20
0.0010749287239026
 30
0.0
 11
86.2
 21
-2.544414132208465
 31
0.0
  0
SPLINE
  5
DC
330
1F
100
AcDbEntity
  8
0
  6
Continuous
 62
     1
370
    25
100
AcDbSpline
210
0.0
220
0.0
230
1.0
 70
    24
 71
     3
 72
     8
 73
     4
 74
     0
 42
0.000000001
 43
0.00000001
 40
0.0
 40
0.0
 40
0.0
 40
0.0
 40
1.0
 40
1.0
 40
1.0
 40
1.0
 10
81.2147488220297
 20
5.334902119025275
 30
0.0
 10
81.20984286635314
 20
5.330785533426501
 30
0.0
 10
81.20492657400986
 20
5.326660274334521
 30
0.0
 10
81.19999999999996
 20
5.322526387899846
 30
0.0
  0
SPLINE
  5
DD
330
1F
100
AcDbEntity
  8
0
  6
Continuous
 62
     1
370
    25
100
AcDbSpline
210
0.0
220
0.0
230
1.0
 70
    24
 71
     3
 72
     8
 73
     4
 74
     0
 42
0.000000001
 43
0.00000001
 40
0.0
 40
0.0
 40
0.0
 40
0.0
 40
1.0
 40
1.0
 40
1.0
 40
1.0
 10
81.19999999999999
 20
3.820332728390295
 30
0.0
 10
81.19999999999999
 20
4.407890405146217
 30
0.0
 10
81.19999999999997
 20
4.922728688806282
 30
0.0
 10
81.19999999999997
 20
5.322526387902807
 30
0.0
  0
SPLINE
  5
DE
330
1F
100
AcDbEntity
  8
0
  6
Continuous
 62
     1
370
    25
100
AcDbSpline
210
0.0
220
0.0
230
1.0
 70
     8
 71
     3
 72
    10
 73
     6
 74
     0
 42
0.000000001
 43
0.00000001
 40
0.0
 40
0.0
 40
0.0
 40
0.0
 40
0.5
 40
0.5
 40
1.0
 40
1.0
 40
1.0
 40
1.0
 10
86.2
 20
6.668574928723902
 30
0.0
 10
85.37801137772728
 20
6.392388234418068
 30
0.0
 10
84.55136092561796
 20
6.139312902246151
 30
0.0
 10
82.88941061716399
 20
5.69252328392007
 30
0.0
 10
82.05410114551631
 20
5.499532816135496
 30
0.0
 10
81.21474882200995
 20
5.334902119018583
 30
0.0
  0
SPLINE
  5
DF
330
1F
100
AcDbEntity
  8
0
  6
Continuous
 62
     4
370
    25
100
AcDbSpline
210
0.0
220
0.0
230
1.0
 70
    24
 71
     3
 72
    14
 73
    10
 74
     0
 42
0.000000001
 43
0.00000001
 40
0.0
 40
0.0
 40
0.0
 40
0.0
 40
0.25
 40
0.25
 40
0.5
 40
0.5
 40
0.75
 40
0.75
 40
1.0
 40
1.0
 40
1.0
 40
1.0
 10
9.999999999999995
 20
0.9707709115476324
 30
0.0
 10
9.999999999999995
 20
0.1289867110028877
 30
0.0
 10
9.999999999999995
 20
-0.7327411404102068
 30
0.0
 10
9.999999999999995
 20
-2.414900608271923
 30
0.0
 10
9.999999999999995
 20
-3.23443415908746
 30
0.0
 10
9.999999999999995
 20
-4.746671433546951
 30
0.0
 10
9.999999999999995
 20
-5.438569373947124
 30
0.0
 10
9.999999999999995
 20
-6.634395926235817
 30
0.0
 10
9.999999999999995
 20
-7.138109553312481
 30
0.0
 10
9.999999999999995
 20
-7.537906408919336
 30
0.0
  0
LINE
  5
E0
330
1F
100
AcDbEntity
  8
0
  6
Continuous
 62
     1
370
    25
100
AcDbLine
 10
86.2
 20
0.0010749287239026
 30
0.0
 11
86.2
 21
6.668574928723903
 31
0.0
  0
LINE
  5
E1
330
1F
100
AcDbEntity
  8
중심선
100
AcDbLine
 10
-56.49999999999998
 20
0.0010749287238931
 30
0.0
 11
93.20000000000002
 21
0.0010749287239031
 31
0.0
  0
CIRCLE
  5
E2
330
1F
100
AcDbEntity
  8
외형선
100
AcDbCircle
 10
0.0000000000000087
 20
0.0
 30
0.0
 40
3.000000000000003
  0
INSERT
  5
E3
330
1F
100
AcDbEntity
  8
0
  6
Continuous
 62
     7
100
AcDbBlockReference
 66
     1
  2
블럭10
 10
-16.6381869743017
 20
-52.04609937292004
 30
0.0
  0
ATTRIB
  5
E4
330
E3
100
AcDbEntity
  8
FORMAT
 62
     2
100
AcDbText
 10
-25.81948226304298
 20
-49.97073246008785
 30
0.0
 40
4.233333333333333
  1
E5254902 [ 2 FLUTE ]
 41
0.75
  7
SLDTEXTSTYLE0
 11
-25.81948226304298
 21
-52.08739912675452
 31
0.0
100
AcDbAttribute
  2
AUTOATTR0
 70
     0
 74
     1
  0
SEQEND
  5
E5
330
E3
100
AcDbEntity
  8
0
  6
Continuous
 62
     7
  0
HATCH
  5
E6
330
1F
100
AcDbEntity
  8
중심선
100
AcDbHatch
 10
0.0
 20
0.0
 30
0.0
210
0.0
220
0.0
230
1.0
  2
SOLID
 70
     1
 71
     0
 91
        1
 92
        0
 93
        4
 72
     1
 10
-10.92327766992085
 20
-35.7989250712761
 11
-14.36955291375813
 21
-35.7989250712761
 72
     1
 10
-14.36955291375813
 20
-35.7989250712761
 11
-16.49778277296215
 21
-38.3352506518487
 72
     1
 10
-16.49778277296215
 20
-38.3352506518487
 11
-13.05147444401172
 21
-38.33521122254621
 72
     1
 10
-13.05147444401172
 20
-38.33521122254621
 11
-10.92327766992085
 21
-35.7989250712761
 97
        0
 75
     0
 76
     1
 98
        1
 10
0.0
 20
0.0
  0
HATCH
  5
E7
330
1F
100
AcDbEntity
  8
중심선
100
AcDbHatch
 10
0.0
 20
0.0
 30
0.0
210
0.0
220
0.0
230
1.0
  2
SOLID
 70
     1
 71
     0
 91
        1
 92
        0
 93
        4
 72
     1
 10
-5.910513678884898
 20
-35.7989250712761
 11
-9.356788922722181
 21
-35.7989250712761
 72
     1
 10
-9.356788922722181
 20
-35.7989250712761
 11
-13.88792693107957
 21
-41.19892507127612
 72
     1
 10
-13.88792693107957
 20
-41.19892507127612
 11
-10.44165168724229
 21
-41.19892507127612
 72
     1
 10
-10.44165168724229
 20
-41.19892507127612
 11
-5.910513678884898
 21
-35.7989250712761
 97
        0
 75
     0
 76
     1
 98
        1
 10
0.0
 20
0.0
  0
HATCH
  5
E8
330
1F
100
AcDbEntity
  8
중심선
100
AcDbHatch
 10
0.0
 20
0.0
 30
0.0
210
0.0
220
0.0
230
1.0
  2
SOLID
 70
     1
 71
     0
 91
        1
 92
        0
 93
        4
 72
     1
 10
-0.8977496878490032
 20
-35.79892507127613
 11
-4.344024931686119
 21
-35.7989250712761
 72
     1
 10
-4.344024931686119
 20
-35.7989250712761
 11
-11.39246183357537
 21
-44.19892507127612
 72
     1
 10
-11.39246183357537
 20
-44.19892507127612
 11
-7.946186589738086
 21
-44.19892507127612
 72
     1
 10
-7.946186589738086
 20
-44.19892507127612
 11
-0.8977496878490028
 21
-35.79892507127613
 97
        0
 75
     0
 76
     1
 98
        1
 10
0.0
 20
0.0
  0
HATCH
  5
E9
330
1F
100
AcDbEntity
  8
중심선
100
AcDbHatch
 10
0.0
 20
0.0
 30
0.0
210
0.0
220
0.0
230
1.0
  2
SOLID
 70
     1
 71
     0
 91
        1
 92
        0
 93
        6
 72
     3
 10
3.902140743163196
 20
-39.99892507132738
 11
3.960054785062284
 21
1.540850780301639E-10
 40
0.3939339440162633
 50
17.09539180608433
 51
320.0019657685079
 73
     0
 72
     1
 10
5.585140398863792
 20
-38.58681907591441
 11
7.89044227256483
 21
-36.65249236586649
 72
     3
 10
3.902140743110349
 20
-39.99892507127625
 11
6.600054785286829
 21
-1.249000902703301E-13
 40
0.6363583540795982
 50
39.99873849337408
 51
368.4976242363725
 73
     1
 72
     1
 10
10.32747323501096
 20
-39.03892507120613
 11
2.582208049946272
 21
-39.0389250712061
 72
     1
 10
2.582208049946272
 20
-39.0389250712061
 11
2.582183005500338
 21
-40.95892507120602
 72
     1
 10
2.582183005500338
 20
-40.95892507120602
 11
7.023562774972376
 21
-40.95892507120599
 97
        0
 75
     0
 76
     1
 98
        1
 10
0.0
 20
0.0
  0
DIMENSION
  5
EA
330
1F
100
AcDbEntity
  8
치수문자_일반주서
100
AcDbDimension
  2
_D
 10
-53.49999999999999
 20
45.10820800543221
 30
0.0
 11
16.34999999999999
 21
45.10820800543221
 31
0.0
 70
   160
  1
<>
 71
     2
 42
139.7
  3
SLDDIMSTYLE0
100
AcDbAlignedDimension
 13
86.19999999999999
 23
9.518024543786266
 33
0.0
 14
-53.49999999999999
 24
8.526074928723888
 34
0.0
 50
0.0000000000000058
100
AcDbRotatedDimension
1001
ACAD
1000
DSTYLE
1002
{
1070
   171
1070
     6
1070
   273
1070
     7
1002
}
  0
DIMENSION
  5
FE
330
1F
100
AcDbEntity
  8
치수문자_일반주서
100
AcDbDimension
  2
_D_1
 10
-66.30999999999996
 20
-9.52392507127616
 30
0.0
 11
-66.31
 21
0.001074928723901
 31
0.0
 70
   160
  1
%%c<>
 71
     2
 42
19.05000000000001
  3
SLDDIMSTYLE1
100
AcDbAlignedDimension
 13
-52.50000000000001
 23
9.526074928723899
 33
0.0
 14
-52.50000000000001
 24
-9.523925071276112
 34
0.0
 50
90.0000000000002
100
AcDbRotatedDimension
1001
ACAD
1000
DSTYLE
1002
{
1070
   171
1070
     6
1070
   273
1070
     7
1002
}
  0
DIMENSION
  5
113
330
1F
100
AcDbEntity
  8
치수문자_일반주서
100
AcDbDimension
  2
_D_2
 10
10.00000000000004
 20
29.75464205728676
 30
0.0
 11
48.1
 21
29.75464205728676
 31
0.0
 70
   160
  1
<>
 71
     2
 42
76.19999999999996
  3
SLDDIMSTYLE0
100
AcDbAlignedDimension
 13
86.19999999999999
 23
9.518024543786266
 33
0.0
 14
10.00000000000003
 24
7.540056266367128
 34
0.0
 50
0.0000000000000134
100
AcDbRotatedDimension
1001
ACAD
1000
DSTYLE
1002
{
1070
   171
1070
     6
1070
   273
1070
     7
1002
}
  0
DIMENSION
  5
126
330
1F
100
AcDbEntity
  8
치수문자_일반주서
100
AcDbDimension
  2
_D_3
 10
106.4093537150439
 20
-9.5158746863384
 30
0.0
 11
106.4093537150438
 21
26.60127454378634
 31
0.0
 70
   160
  1
%%c<>
 71
     2
 42
19.03389923012474
  3
SLDDIMSTYLE2
100
AcDbAlignedDimension
 13
86.19999999999999
 23
9.518024543786266
 33
0.0
 14
86.19999999999999
 24
-9.51587468633847
 34
0.0
 50
90.0000000000002
100
AcDbRotatedDimension
1001
ACAD
1000
DSTYLE
1002
{
1070
   171
1070
     6
1070
   273
1070
     7
1002
}
  0
INSERT
  5
140
330
1F
100
AcDbEntity
  8
외형선
100
AcDbBlockReference
  2
SW_DOWELSYMBOL_0
 10
0.0000000000000087
 20
0.0
 30
0.0
  0
ENDSEC
  0
SECTION
  2
OBJECTS
  0
DICTIONARY
  5
C
330
0
100
AcDbDictionary
281
     1
  3
ACAD_GROUP
350
D
  3
ACAD_IMAGE_VARS
350
164
  3
ACAD_LAYOUT
350
1A
  3
ACAD_MLINESTYLE
350
17
  3
ACAD_PLOTSETTINGS
350
19
  3
ACAD_PLOTSTYLENAME
350
E
  3
ACAD_SCALELIST
350
47
  3
APPDATA
350
162
  3
DWGPROPS
350
167
  0
DICTIONARY
  5
D
102
{ACAD_REACTORS
330
C
102
}
330
C
100
AcDbDictionary
281
     1
  0
RASTERVARIABLES
  5
164
102
{ACAD_REACTORS
330
C
102
}
330
C
100
AcDbRasterVariables
 90
        0
 70
     1
 71
     1
 72
     1
  0
DICTIONARY
  5
1A
102
{ACAD_REACTORS
330
C
102
}
330
C
100
AcDbDictionary
281
     1
  3
Layout1
350
1E
  3
Layout2
350
26
  3
Model
350
22
  0
DICTIONARY
  5
17
102
{ACAD_REACTORS
330
C
102
}
330
C
100
AcDbDictionary
281
     1
  3
Standard
350
18
  0
DICTIONARY
  5
19
102
{ACAD_REACTORS
330
C
102
}
330
C
100
AcDbDictionary
281
     1
  0
ACDBDICTIONARYWDFLT
  5
E
102
{ACAD_REACTORS
330
C
102
}
330
C
100
AcDbDictionary
281
     1
  3
Normal
350
F
100
AcDbDictionaryWithDefault
340
F
  0
DICTIONARY
  5
47
102
{ACAD_REACTORS
330
C
102
}
330
C
100
AcDbDictionary
281
     1
  3
A0
350
48
  3
A1
350
49
  3
A2
350
4A
  3
A3
350
4B
  3
A4
350
4C
  3
A5
350
4D
  3
A6
350
4E
  3
A7
350
4F
  3
A8
350
50
  3
A9
350
51
  3
B0
350
52
  3
B1
350
53
  3
B2
350
54
  3
B3
350
55
  3
B4
350
56
  3
B5
350
57
  3
B6
350
58
  3
B7
350
59
  3
B8
350
5A
  3
B9
350
5B
  3
C0
350
5C
  3
C1
350
5D
  3
C2
350
5E
  3
C3
350
5F
  3
C4
350
60
  3
C5
350
61
  3
C6
350
62
  3
C7
350
63
  3
C8
350
64
  3
C9
350
65
  3
D0
350
66
  3
D1
350
67
  3
D2
350
68
  0
DICTIONARY
  5
162
102
{ACAD_REACTORS
330
C
102
}
330
C
100
AcDbDictionary
281
     1
  0
XRECORD
  5
167
102
{ACAD_REACTORS
330
C
102
}
330
C
100
AcDbXrecord
280
     1
  1
DWGPROPS COOKIE
  2

  3

  4

  6

  7

  8
12016016
  9

300
=
301
=
302
=
303
=
304
=
305
=
306
=
307
=
308
=
309
=
 40
0.0
 41
2458263.248023923
 42
2458274.345263739
  1

 90
        0
  0
LAYOUT
  5
1E
102
{ACAD_REACTORS
330
1A
102
}
330
1A
100
AcDbPlotSettings
  1

  2
none_device
  4

  6

 40
0.0
 41
0.0
 42
0.0
 43
0.0
 44
0.0
 45
0.0
 46
0.0
 47
0.0
 48
0.0
 49
0.0
140
0.0
141
0.0
142
1.0
143
1.0
 70
   688
 72
     1
 73
     0
 74
     5
  7

 75
    16
147
1.0
148
0.0
149
0.0
100
AcDbLayout
  1
Layout1
 70
     1
 71
     1
 10
0.0
 20
0.0
 11
420.0
 21
297.0
 12
0.0
 22
0.0
 32
0.0
 14
1.000000000000000E+20
 24
1.000000000000000E+20
 34
1.000000000000000E+20
 15
-1.000000000000000E+20
 25
-1.000000000000000E+20
 35
-1.000000000000000E+20
146
0.0
 13
0.0
 23
0.0
 33
0.0
 16
1.0
 26
0.0
 36
0.0
 17
0.0
 27
1.0
 37
0.0
 76
     0
330
1B
  0
LAYOUT
  5
26
102
{ACAD_REACTORS
330
1A
102
}
330
1A
100
AcDbPlotSettings
  1

  2
none_device
  4

  6

 40
0.0
 41
0.0
 42
0.0
 43
0.0
 44
0.0
 45
0.0
 46
0.0
 47
0.0
 48
0.0
 49
0.0
140
0.0
141
0.0
142
1.0
143
1.0
 70
   688
 72
     1
 73
     0
 74
     5
  7

 75
    16
147
1.0
148
0.0
149
0.0
100
AcDbLayout
  1
Layout2
 70
     1
 71
     2
 10
0.0
 20
0.0
 11
0.0
 21
0.0
 12
0.0
 22
0.0
 32
0.0
 14
0.0
 24
0.0
 34
0.0
 15
0.0
 25
0.0
 35
0.0
146
0.0
 13
0.0
 23
0.0
 33
0.0
 16
1.0
 26
0.0
 36
0.0
 17
0.0
 27
1.0
 37
0.0
 76
     0
330
23
  0
LAYOUT
  5
22
102
{ACAD_REACTORS
330
1A
102
}
330
1A
100
AcDbPlotSettings
  1

  2
none_device
  4
ANSI_A_(11.00_x_8.50_Inches)
  6

 40
6.35
 41
19.05
 42
6.35000508
 43
19.05000254
 44
279.4
 45
215.9
 46
110.6334768613251
 47
85.01248685199057
 48
0.0
 49
0.0
140
0.0
141
0.0
142
0.0590204762007087
143
1.0
 70
  1696
 72
     0
 73
     0
 74
     0
  7

 75
     0
147
0.0235690232323232
148
0.0
149
0.0
100
AcDbLayout
  1
Model
 70
     1
 71
     0
 10
0.0
 20
0.0
 11
420.0
 21
297.0
 12
0.0
 22
0.0
 32
0.0
 14
-70.68500000000004
 24
-49.97073246008785
 34
0.0
 15
106.9596870483772
 25
49.48320800543221
 35
0.0
146
0.0
 13
0.0
 23
0.0
 33
0.0
 16
1.0
 26
0.0
 36
0.0
 17
0.0
 27
1.0
 37
0.0
 76
     0
330
1F
331
29
  0
MLINESTYLE
  5
18
102
{ACAD_REACTORS
330
17
102
}
330
17
100
AcDbMlineStyle
  2
Standard
 70
     0
  3

 62
   256
 51
90.0
 52
90.0
 71
     2
 49
0.5
 62
   256
  6
BYLAYER
 49
-0.5
 62
   256
  6
BYLAYER
  0
ACDBPLACEHOLDER
  5
F
102
{ACAD_REACTORS
330
E
102
}
330
E
  0
SCALE
  5
48
102
{ACAD_REACTORS
330
47
102
}
330
47
100
AcDbScale
 70
     0
300
1:1
140
1.0
141
1.0
290
     1
  0
SCALE
  5
49
102
{ACAD_REACTORS
330
47
102
}
330
47
100
AcDbScale
 70
     0
300
1:2
140
1.0
141
2.0
290
     0
  0
SCALE
  5
4A
102
{ACAD_REACTORS
330
47
102
}
330
47
100
AcDbScale
 70
     0
300
1:4
140
1.0
141
4.0
290
     0
  0
SCALE
  5
4B
102
{ACAD_REACTORS
330
47
102
}
330
47
100
AcDbScale
 70
     0
300
1:5
140
1.0
141
5.0
290
     0
  0
SCALE
  5
4C
102
{ACAD_REACTORS
330
47
102
}
330
47
100
AcDbScale
 70
     0
300
1:8
140
1.0
141
8.0
290
     0
  0
SCALE
  5
4D
102
{ACAD_REACTORS
330
47
102
}
330
47
100
AcDbScale
 70
     0
300
1:10
140
1.0
141
10.0
290
     0
  0
SCALE
  5
4E
102
{ACAD_REACTORS
330
47
102
}
330
47
100
AcDbScale
 70
     0
300
1:16
140
1.0
141
16.0
290
     0
  0
SCALE
  5
4F
102
{ACAD_REACTORS
330
47
102
}
330
47
100
AcDbScale
 70
     0
300
1:20
140
1.0
141
20.0
290
     0
  0
SCALE
  5
50
102
{ACAD_REACTORS
330
47
102
}
330
47
100
AcDbScale
 70
     0
300
1:30
140
1.0
141
30.0
290
     0
  0
SCALE
  5
51
102
{ACAD_REACTORS
330
47
102
}
330
47
100
AcDbScale
 70
     0
300
1:40
140
1.0
141
40.0
290
     0
  0
SCALE
  5
52
102
{ACAD_REACTORS
330
47
102
}
330
47
100
AcDbScale
 70
     0
300
1:50
140
1.0
141
50.0
290
     0
  0
SCALE
  5
53
102
{ACAD_REACTORS
330
47
102
}
330
47
100
AcDbScale
 70
     0
300
1:100
140
1.0
141
100.0
290
     0
  0
SCALE
  5
54
102
{ACAD_REACTORS
330
47
102
}
330
47
100
AcDbScale
 70
     0
300
2:1
140
2.0
141
1.0
290
     0
  0
SCALE
  5
55
102
{ACAD_REACTORS
330
47
102
}
330
47
100
AcDbScale
 70
     0
300
4:1
140
4.0
141
1.0
290
     0
  0
SCALE
  5
56
102
{ACAD_REACTORS
330
47
102
}
330
47
100
AcDbScale
 70
     0
300
8:1
140
8.0
141
1.0
290
     0
  0
SCALE
  5
57
102
{ACAD_REACTORS
330
47
102
}
330
47
100
AcDbScale
 70
     0
300
10:1
140
10.0
141
1.0
290
     0
  0
SCALE
  5
58
102
{ACAD_REACTORS
330
47
102
}
330
47
100
AcDbScale
 70
     0
300
100:1
140
100.0
141
1.0
290
     0
  0
SCALE
  5
59
102
{ACAD_REACTORS
330
47
102
}
330
47
100
AcDbScale
 70
     0
300
1/128" = 1'-0"
140
0.0078125
141
12.0
290
     0
  0
SCALE
  5
5A
102
{ACAD_REACTORS
330
47
102
}
330
47
100
AcDbScale
 70
     0
300
1/64" = 1'-0"
140
0.015625
141
12.0
290
     0
  0
SCALE
  5
5B
102
{ACAD_REACTORS
330
47
102
}
330
47
100
AcDbScale
 70
     0
300
1/32" = 1'-0"
140
0.03125
141
12.0
290
     0
  0
SCALE
  5
5C
102
{ACAD_REACTORS
330
47
102
}
330
47
100
AcDbScale
 70
     0
300
1/16" = 1'-0"
140
0.0625
141
12.0
290
     0
  0
SCALE
  5
5D
102
{ACAD_REACTORS
330
47
102
}
330
47
100
AcDbScale
 70
     0
300
3/32" = 1'-0"
140
0.09375
141
12.0
290
     0
  0
SCALE
  5
5E
102
{ACAD_REACTORS
330
47
102
}
330
47
100
AcDbScale
 70
     0
300
1/8" = 1'-0"
140
0.125
141
12.0
290
     0
  0
SCALE
  5
5F
102
{ACAD_REACTORS
330
47
102
}
330
47
100
AcDbScale
 70
     0
300
3/16" = 1'-0"
140
0.1875
141
12.0
290
     0
  0
SCALE
  5
60
102
{ACAD_REACTORS
330
47
102
}
330
47
100
AcDbScale
 70
     0
300
1/4" = 1'-0"
140
0.25
141
12.0
290
     0
  0
SCALE
  5
61
102
{ACAD_REACTORS
330
47
102
}
330
47
100
AcDbScale
 70
     0
300
3/8" = 1'-0"
140
0.375
141
12.0
290
     0
  0
SCALE
  5
62
102
{ACAD_REACTORS
330
47
102
}
330
47
100
AcDbScale
 70
     0
300
1/2" = 1'-0"
140
0.5
141
12.0
290
     0
  0
SCALE
  5
63
102
{ACAD_REACTORS
330
47
102
}
330
47
100
AcDbScale
 70
     0
300
3/4" = 1'-0"
140
0.75
141
12.0
290
     0
  0
SCALE
  5
64
102
{ACAD_REACTORS
330
47
102
}
330
47
100
AcDbScale
 70
     0
300
1" = 1'-0"
140
1.0
141
12.0
290
     0
  0
SCALE
  5
65
102
{ACAD_REACTORS
330
47
102
}
330
47
100
AcDbScale
 70
     0
300
1-1/2" = 1'-0"
140
1.5
141
12.0
290
     0
  0
SCALE
  5
66
102
{ACAD_REACTORS
330
47
102
}
330
47
100
AcDbScale
 70
     0
300
3" = 1'-0"
140
3.0
141
12.0
290
     0
  0
SCALE
  5
67
102
{ACAD_REACTORS
330
47
102
}
330
47
100
AcDbScale
 70
     0
300
6" = 1'-0"
140
6.0
141
12.0
290
     0
  0
SCALE
  5
68
102
{ACAD_REACTORS
330
47
102
}
330
47
100
AcDbScale
 70
     0
300
1'-0" = 1'-0"
140
12.0
141
12.0
290
     0
  0
ENDSEC
  0
EOF
