  0
SECTION
  2
HEADER
  9
$ACADVER
  1
AC1015
  9
$ACADMAINTVER
 70
     6
  9
$DWGCODEPAGE
  3
ANSI_949
  9
$INSBASE
 10
0.0
 20
0.0
 30
0.0
  9
$EXTMIN
 10
1.000000000000000E+20
 20
1.000000000000000E+20
 30
1.000000000000000E+20
  9
$EXTMAX
 10
-1.000000000000000E+20
 20
-1.000000000000000E+20
 30
-1.000000000000000E+20
  9
$LIMMIN
 10
0.0
 20
0.0
  9
$LIMMAX
 10
420.0
 20
297.0
  9
$ORTHOMODE
 70
     1
  9
$REGENMODE
 70
     1
  9
$FILLMODE
 70
     1
  9
$QTEXTMODE
 70
     0
  9
$MIRRTEXT
 70
     1
  9
$LTSCALE
 40
1.0
  9
$ATTMODE
 70
     1
  9
$TEXTSIZE
 40
3.5
  9
$TRACEWID
 40
1.0
  9
$TEXTSTYLE
  7
Standard
  9
$CLAYER
  8
0
  9
$CELTYPE
  6
ByLayer
  9
$CECOLOR
 62
   256
  9
$CELTSCALE
 40
1.0
  9
$DISPSILH
 70
     0
  9
$DIMSCALE
 40
1.0
  9
$DIMASZ
 40
3.302
  9
$DIMEXO
 40
1.0
  9
$DIMDLI
 40
3.75
  9
$DIMRND
 40
0.0
  9
$DIMDLE
 40
0.0
  9
$DIMEXE
 40
1.0
  9
$DIMTP
 40
0.0
  9
$DIMTM
 40
0.0
  9
$DIMTXT
 40
3.5
  9
$DIMCEN
 40
2.5
  9
$DIMTSZ
 40
0.0
  9
$DIMTOL
 70
     0
  9
$DIMLIM
 70
     0
  9
$DIMTIH
 70
     1
  9
$DIMTOH
 70
     1
  9
$DIMSE1
 70
     0
  9
$DIMSE2
 70
     0
  9
$DIMTAD
 70
     1
  9
$DIMZIN
 70
     0
  9
$DIMBLK
  1

  9
$DIMASO
 70
     1
  9
$DIMSHO
 70
     1
  9
$DIMPOST
  1

  9
$DIMAPOST
  1

  9
$DIMALT
 70
     0
  9
$DIMALTD
 70
     3
  9
$DIMALTF
 40
0.0393700787401575
  9
$DIMLFAC
 40
1.0
  9
$DIMTOFL
 70
     1
  9
$DIMTVP
 40
0.0
  9
$DIMTIX
 70
     0
  9
$DIMSOXD
 70
     0
  9
$DIMSAH
 70
     0
  9
$DIMBLK1
  1

  9
$DIMBLK2
  1

  9
$DIMSTYLE
  2
ISO-25
  9
$DIMCLRD
 70
     0
  9
$DIMCLRE
 70
     0
  9
$DIMCLRT
 70
     0
  9
$DIMTFAC
 40
1.0
  9
$DIMGAP
 40
1.524
  9
$DIMJUST
 70
     0
  9
$DIMSD1
 70
     0
  9
$DIMSD2
 70
     0
  9
$DIMTOLJ
 70
     0
  9
$DIMTZIN
 70
     0
  9
$DIMALTZ
 70
     0
  9
$DIMALTTZ
 70
     0
  9
$DIMUPT
 70
     0
  9
$DIMDEC
 70
     2
  9
$DIMTDEC
 70
     2
  9
$DIMALTU
 70
     2
  9
$DIMALTTD
 70
     3
  9
$DIMTXSTY
  7
Standard
  9
$DIMAUNIT
 70
     0
  9
$DIMADEC
 70
     2
  9
$DIMALTRND
 40
0.0
  9
$DIMAZIN
 70
     0
  9
$DIMDSEP
 70
    44
  9
$DIMATFIT
 70
     3
  9
$DIMFRAC
 70
     0
  9
$DIMLDRBLK
  1

  9
$DIMLUNIT
 70
     2
  9
$DIMLWD
 70
    -2
  9
$DIMLWE
 70
    -2
  9
$DIMTMOVE
 70
     0
  9
$LUNITS
 70
     2
  9
$LUPREC
 70
     2
  9
$SKETCHINC
 40
1.0
  9
$FILLETRAD
 40
10.0
  9
$AUNITS
 70
     0
  9
$AUPREC
 70
     2
  9
$MENU
  1
.
  9
$ELEVATION
 40
0.0
  9
$PELEVATION
 40
0.0
  9
$THICKNESS
 40
0.0
  9
$LIMCHECK
 70
     0
  9
$CHAMFERA
 40
0.0
  9
$CHAMFERB
 40
0.0
  9
$CHAMFERC
 40
0.0
  9
$CHAMFERD
 40
0.0
  9
$SKPOLY
 70
     0
  9
$TDCREATE
 40
2458269.735748565
  9
$TDUCREATE
 40
2458269.360748565
  9
$TDUPDATE
 40
2458274.790732361
  9
$TDUUPDATE
 40
2458274.415732361
  9
$TDINDWG
 40
0.0020591551
  9
$TDUSRTIMER
 40
2458274.414446296
  9
$USRTIMER
 70
     1
  9
$ANGBASE
 50
0.0
  9
$ANGDIR
 70
     0
  9
$PDMODE
 70
     0
  9
$PDSIZE
 40
-1.0
  9
$PLINEWID
 40
0.0
  9
$SPLFRAME
 70
     0
  9
$SPLINETYPE
 70
     6
  9
$SPLINESEGS
 70
     8
  9
$HANDSEED
  5
4B2
  9
$SURFTAB1
 70
     6
  9
$SURFTAB2
 70
     6
  9
$SURFTYPE
 70
     6
  9
$SURFU
 70
     6
  9
$SURFV
 70
     6
  9
$UCSBASE
  2

  9
$UCSNAME
  2

  9
$UCSORG
 10
0.0
 20
0.0
 30
0.0
  9
$UCSXDIR
 10
1.0
 20
0.0
 30
0.0
  9
$UCSYDIR
 10
0.0
 20
1.0
 30
0.0
  9
$UCSORTHOREF
  2

  9
$UCSORTHOVIEW
 70
     0
  9
$UCSORGTOP
 10
0.0
 20
0.0
 30
0.0
  9
$UCSORGBOTTOM
 10
0.0
 20
0.0
 30
0.0
  9
$UCSORGLEFT
 10
0.0
 20
0.0
 30
0.0
  9
$UCSORGRIGHT
 10
0.0
 20
0.0
 30
0.0
  9
$UCSORGFRONT
 10
0.0
 20
0.0
 30
0.0
  9
$UCSORGBACK
 10
0.0
 20
0.0
 30
0.0
  9
$PUCSBASE
  2

  9
$PUCSNAME
  2

  9
$PUCSORG
 10
0.0
 20
0.0
 30
0.0
  9
$PUCSXDIR
 10
1.0
 20
0.0
 30
0.0
  9
$PUCSYDIR
 10
0.0
 20
1.0
 30
0.0
  9
$PUCSORTHOREF
  2

  9
$PUCSORTHOVIEW
 70
     0
  9
$PUCSORGTOP
 10
0.0
 20
0.0
 30
0.0
  9
$PUCSORGBOTTOM
 10
0.0
 20
0.0
 30
0.0
  9
$PUCSORGLEFT
 10
0.0
 20
0.0
 30
0.0
  9
$PUCSORGRIGHT
 10
0.0
 20
0.0
 30
0.0
  9
$PUCSORGFRONT
 10
0.0
 20
0.0
 30
0.0
  9
$PUCSORGBACK
 10
0.0
 20
0.0
 30
0.0
  9
$USERI1
 70
     0
  9
$USERI2
 70
     0
  9
$USERI3
 70
     0
  9
$USERI4
 70
     0
  9
$USERI5
 70
     0
  9
$USERR1
 40
0.0
  9
$USERR2
 40
0.0
  9
$USERR3
 40
0.0
  9
$USERR4
 40
0.0
  9
$USERR5
 40
0.0
  9
$WORLDVIEW
 70
     1
  9
$SHADEDGE
 70
     3
  9
$SHADEDIF
 70
    70
  9
$TILEMODE
 70
     1
  9
$MAXACTVP
 70
    64
  9
$PINSBASE
 10
0.0
 20
0.0
 30
0.0
  9
$PLIMCHECK
 70
     0
  9
$PEXTMIN
 10
1.000000000000000E+20
 20
1.000000000000000E+20
 30
1.000000000000000E+20
  9
$PEXTMAX
 10
-1.000000000000000E+20
 20
-1.000000000000000E+20
 30
-1.000000000000000E+20
  9
$PLIMMIN
 10
0.0
 20
0.0
  9
$PLIMMAX
 10
0.0
 20
0.0
  9
$UNITMODE
 70
     0
  9
$VISRETAIN
 70
     1
  9
$PLINEGEN
 70
     0
  9
$PSLTSCALE
 70
     1
  9
$TREEDEPTH
 70
  3020
  9
$CMLSTYLE
  2
Standard
  9
$CMLJUST
 70
     0
  9
$CMLSCALE
 40
20.0
  9
$PROXYGRAPHICS
 70
     1
  9
$MEASUREMENT
 70
     1
  9
$CELWEIGHT
370
    -1
  9
$ENDCAPS
280
     0
  9
$JOINSTYLE
280
     0
  9
$LWDISPLAY
290
     1
  9
$INSUNITS
 70
     4
  9
$HYPERLINKBASE
  1

  9
$STYLESHEET
  1

  9
$XEDIT
290
     1
  9
$CEPSNTYPE
380
     0
  9
$PSTYLEMODE
290
     1
  9
$FINGERPRINTGUID
  2
{F00A7CC7-571B-4B81-A9B0-11557940BC4D}
  9
$VERSIONGUID
  2
{FAEB1C32-E019-11D5-929B-00C0DF256EC4}
  9
$EXTNAMES
290
     1
  9
$PSVPSCALE
 40
0.0
  9
$OLESTARTUP
290
     0
  0
ENDSEC
  0
SECTION
  2
CLASSES
  0
CLASS
  1
ACDBDICTIONARYWDFLT
  2
AcDbDictionaryWithDefault
  3
ObjectDBX Classes
 90
        0
280
     0
281
     0
  0
CLASS
  1
VISUALSTYLE
  2
AcDbVisualStyle
  3
ObjectDBX Classes
 90
     4095
280
     0
281
     0
  0
CLASS
  1
MATERIAL
  2
AcDbMaterial
  3
ObjectDBX Classes
 90
     1153
280
     0
281
     0
  0
CLASS
  1
SCALE
  2
AcDbScale
  3
ObjectDBX Classes
 90
     1153
280
     0
281
     0
  0
CLASS
  1
SUN
  2
AcDbSun
  3
SCENEOE
 90
     1153
280
     0
281
     0
  0
CLASS
  1
ACDBPLACEHOLDER
  2
AcDbPlaceHolder
  3
ObjectDBX Classes
 90
        0
280
     0
281
     0
  0
CLASS
  1
LAYOUT
  2
AcDbLayout
  3
ObjectDBX Classes
 90
        0
280
     0
281
     0
  0
CLASS
  1
TABLESTYLE
  2
AcDbTableStyle
  3
ObjectDBX Classes
 90
     4095
280
     0
281
     0
  0
CLASS
  1
MLEADERSTYLE
  2
AcDbMLeaderStyle
  3
ACDB_MLEADERSTYLE_CLASS
 90
     4095
280
     0
281
     0
  0
CLASS
  1
RASTERVARIABLES
  2
AcDbRasterVariables
  3
ISM
 90
        0
280
     0
281
     0
  0
CLASS
  1
DIMASSOC
  2
AcDbDimAssoc
  3
"AcDbDimAssoc|Product Desc:     AcDim ARX App For Dimension|Company:          Autodesk, Inc.|WEB Address:      www.autodesk.com"
 90
        0
280
     0
281
     0
  0
ENDSEC
  0
SECTION
  2
TABLES
  0
TABLE
  2
VPORT
  5
8
330
0
100
AcDbSymbolTable
 70
     1
  0
VPORT
  5
29
330
8
100
AcDbSymbolTableRecord
100
AcDbViewportTableRecord
  2
*Active
 70
     0
 10
0.0
 20
0.0
 11
1.0
 21
1.0
 12
4.147371014231972
 22
7.489155782240612
 13
0.0
 23
0.0
 14
10.0
 24
10.0
 15
10.0
 25
10.0
 16
0.0
 26
0.0
 36
1.0
 17
0.0
 27
0.0
 37
0.0
 40
176.4748603635236
 41
1.666023166023166
 42
50.0
 43
0.0
 44
0.0
 50
0.0
 51
0.0
 71
    16
 72
  2000
 73
     1
 74
     3
 75
     0
 76
     0
 77
     0
 78
     0
281
     0
 65
     1
110
0.0
120
0.0
130
0.0
111
1.0
121
0.0
131
0.0
112
0.0
122
1.0
132
0.0
 79
     0
146
0.0
  0
ENDTAB
  0
TABLE
  2
LTYPE
  5
5
330
0
100
AcDbSymbolTable
 70
     6
  0
LTYPE
  5
14
330
5
100
AcDbSymbolTableRecord
100
AcDbLinetypeTableRecord
  2
ByBlock
 70
     0
  3

 72
    65
 73
     0
 40
0.0
  0
LTYPE
  5
15
330
5
100
AcDbSymbolTableRecord
100
AcDbLinetypeTableRecord
  2
ByLayer
 70
     0
  3

 72
    65
 73
     0
 40
0.0
  0
LTYPE
  5
16
330
5
100
AcDbSymbolTableRecord
100
AcDbLinetypeTableRecord
  2
Continuous
 70
     0
  3
Solid line
 72
    65
 73
     0
 40
0.0
  0
LTYPE
  5
6A
330
5
100
AcDbSymbolTableRecord
100
AcDbLinetypeTableRecord
  2
HIDDEN
 70
     0
  3
Hidden __ __ __ __ __ __ __ __ __ __ __ __ __ __
 72
    65
 73
     2
 40
1.905
 49
1.27
 74
     0
 49
-0.635
 74
     0
  0
LTYPE
  5
6B
330
5
100
AcDbSymbolTableRecord
100
AcDbLinetypeTableRecord
  2
PHANTOM
 70
     0
  3
Phantom ______  __  __  ______  __  __  ______
 72
    65
 73
     6
 40
12.7
 49
6.35
 74
     0
 49
-1.27
 74
     0
 49
1.27
 74
     0
 49
-1.27
 74
     0
 49
1.27
 74
     0
 49
-1.27
 74
     0
  0
LTYPE
  5
6C
330
5
100
AcDbSymbolTableRecord
100
AcDbLinetypeTableRecord
  2
CENTER
 70
     0
  3
Center ____ _ ____ _ ____ _ ____ _ ____ _ ____
 72
    65
 73
     4
 40
10.16
 49
6.35
 74
     0
 49
-1.27
 74
     0
 49
1.27
 74
     0
 49
-1.27
 74
     0
  0
LTYPE
  5
6D
330
5
100
AcDbSymbolTableRecord
100
AcDbLinetypeTableRecord
  2
CENTERX2
 70
     0
  3
Center (2x) ________  __  ________  __  _____
 72
    65
 73
     4
 40
20.32
 49
12.7
 74
     0
 49
-2.54
 74
     0
 49
2.54
 74
     0
 49
-2.54
 74
     0
  0
LTYPE
  5
6E
330
5
100
AcDbSymbolTableRecord
100
AcDbLinetypeTableRecord
  2
DOT2
 70
     0
  3
Dot (.5x) ........................................
 72
    65
 73
     2
 40
0.635
 49
0.0
 74
     0
 49
-0.635
 74
     0
  0
ENDTAB
  0
TABLE
  2
LAYER
  5
2
330
0
100
AcDbSymbolTable
 70
    17
  0
LAYER
  5
10
330
2
100
AcDbSymbolTableRecord
100
AcDbLayerTableRecord
  2
0
 70
     0
 62
     7
  6
Continuous
370
    -3
390
F
  0
LAYER
  5
6F
330
2
100
AcDbSymbolTableRecord
100
AcDbLayerTableRecord
  2
FORMAT
 70
     0
 62
     2
  6
Continuous
370
    -3
390
F
  0
LAYER
  5
70
330
2
100
AcDbSymbolTableRecord
100
AcDbLayerTableRecord
  2
외형선
 70
     0
 62
   100
  6
Continuous
370
    30
390
F
  0
LAYER
  5
71
330
2
100
AcDbSymbolTableRecord
100
AcDbLayerTableRecord
  2
숨은선
 70
     0
 62
     2
  6
HIDDEN
370
    15
390
F
  0
LAYER
  5
72
330
2
100
AcDbSymbolTableRecord
100
AcDbLayerTableRecord
  2
중심선
 70
     0
 62
     1
  6
CENTERX2
370
    -3
390
F
  0
LAYER
  5
73
330
2
100
AcDbSymbolTableRecord
100
AcDbLayerTableRecord
  2
파단선
 70
     0
 62
     4
  6
Continuous
370
    -3
390
F
  0
LAYER
  5
74
330
2
100
AcDbSymbolTableRecord
100
AcDbLayerTableRecord
  2
해칭선
 70
     0
 62
     4
  6
Continuous
370
    -3
390
F
  0
LAYER
  5
75
330
2
100
AcDbSymbolTableRecord
100
AcDbLayerTableRecord
  2
가는실선
 70
     0
 62
     4
  6
Continuous
370
    -3
390
F
  0
LAYER
  5
76
330
2
100
AcDbSymbolTableRecord
100
AcDbLayerTableRecord
  2
치수_보조선
 70
     0
 62
     4
  6
Continuous
370
    -3
390
F
  0
LAYER
  5
77
330
2
100
AcDbSymbolTableRecord
100
AcDbLayerTableRecord
  2
치수문자_일반주서
 70
     0
 62
     7
  6
Continuous
370
    15
390
F
  0
LAYER
  5
78
330
2
100
AcDbSymbolTableRecord
100
AcDbLayerTableRecord
  2
개별주서
 70
     0
 62
   100
  6
Continuous
370
    30
390
F
  0
LAYER
  5
79
330
2
100
AcDbSymbolTableRecord
100
AcDbLayerTableRecord
  2
중간선
 70
     0
 62
     2
  6
Continuous
370
    15
390
F
  0
LAYER
  5
7A
330
2
100
AcDbSymbolTableRecord
100
AcDbLayerTableRecord
  2
윤곽선
 70
     0
 62
     3
  6
Continuous
370
    40
390
F
  0
LAYER
  5
7B
330
2
100
AcDbSymbolTableRecord
100
AcDbLayerTableRecord
  2
중심마크
 70
     0
 62
   100
  6
Continuous
370
    30
390
F
  0
LAYER
  5
7C
330
2
100
AcDbSymbolTableRecord
100
AcDbLayerTableRecord
  2
가상선
 70
     0
 62
     4
  6
PHANTOM
370
    -3
390
F
  0
LAYER
  5
7D
330
2
100
AcDbSymbolTableRecord
100
AcDbLayerTableRecord
  2
특수지정선
 70
     0
 62
     5
  6
CENTERX2
370
    60
390
F
  0
LAYER
  5
157
330
2
100
AcDbSymbolTableRecord
100
AcDbLayerTableRecord
  2
Defpoints
 70
     0
 62
     7
  6
Continuous
290
     0
370
    -3
390
F
  0
ENDTAB
  0
TABLE
  2
STYLE
  5
3
330
0
100
AcDbSymbolTable
 70
     2
  0
STYLE
  5
11
330
3
100
AcDbSymbolTableRecord
100
AcDbTextStyleTableRecord
  2
Standard
 70
     0
 40
0.0
 41
1.0
 50
0.0
 71
     0
 42
3.5
  3
txt
  4

  0
STYLE
  5
93
330
3
100
AcDbSymbolTableRecord
100
AcDbTextStyleTableRecord
  2
SLDTEXTSTYLE0
 70
     0
 40
0.0
 41
0.75
 50
0.0
 71
     0
 42
3.5
  3
TXT
  4

  0
ENDTAB
  0
TABLE
  2
VIEW
  5
6
330
0
100
AcDbSymbolTable
 70
     0
  0
ENDTAB
  0
TABLE
  2
UCS
  5
7
330
0
100
AcDbSymbolTable
 70
     0
  0
ENDTAB
  0
TABLE
  2
APPID
  5
9
330
0
100
AcDbSymbolTable
 70
     4
  0
APPID
  5
12
330
9
100
AcDbSymbolTableRecord
100
AcDbRegAppTableRecord
  2
ACAD
 70
     0
  0
APPID
  5
171
330
9
100
AcDbSymbolTableRecord
100
AcDbRegAppTableRecord
  2
PE_DIMMEASUREMENT
 70
     0
  0
APPID
  5
176
330
9
100
AcDbSymbolTableRecord
100
AcDbRegAppTableRecord
  2
ACAD_DSTYLE_DIMFLIPARROW_SYMBOL
 70
     0
  0
APPID
  5
177
330
9
100
AcDbSymbolTableRecord
100
AcDbRegAppTableRecord
  2
ACAD_DSTYLE_DIMFLIPARROW_WHICH_SYMBOL
 70
     0
  0
ENDTAB
  0
TABLE
  2
DIMSTYLE
  5
A
330
0
100
AcDbSymbolTable
 70
     3
100
AcDbDimStyleTable
  0
DIMSTYLE
105
27
330
A
100
AcDbSymbolTableRecord
100
AcDbDimStyleTableRecord
  2
ISO-25
 70
     0
 41
2.5
 42
0.625
 43
3.75
 44
1.25
 73
     0
 74
     0
 77
     1
 78
     8
140
2.5
141
2.5
143
0.03937007874016
147
0.625
171
     3
172
     1
178
     0
271
     2
272
     2
274
     3
278
    44
283
     0
284
     8
340
11
  0
DIMSTYLE
105
DC
102
{ACAD_REACTORS
330
3B8
330
3CF
330
3DB
330
460
330
462
330
463
330
49C
102
}
330
A
100
AcDbSymbolTableRecord
100
AcDbDimStyleTableRecord
  2
SLDDIMSTYLE0
 70
     0
 41
3.302
 44
0.0
 45
0.000000001
 73
     0
 74
     0
 77
     1
 78
    12
 79
     3
140
3.5
143
0.0393700787401575
147
0.875
148
0.000000001
170
     1
172
     1
173
     1
178
     0
271
     2
272
     2
276
     2
284
    12
289
     0
340
93
  0
DIMSTYLE
105
F1
102
{ACAD_REACTORS
330
3C5
330
461
102
}
330
A
100
AcDbSymbolTableRecord
100
AcDbDimStyleTableRecord
  2
SLDDIMSTYLE1
 70
     0
 41
3.302
 44
0.0
 45
0.000000001
 73
     0
 74
     0
 77
     1
 78
    12
 79
     3
140
3.5
143
0.0393700787401575
147
0.875
148
0.000000001
170
     1
173
     1
178
     0
271
     2
272
     2
276
     2
284
    12
340
93
  0
ENDTAB
  0
TABLE
  2
BLOCK_RECORD
  5
1
330
0
100
AcDbSymbolTable
 70
    27
  0
BLOCK_RECORD
  5
1F
330
1
100
AcDbSymbolTableRecord
100
AcDbBlockTableRecord
  2
*Model_Space
340
22
  0
BLOCK_RECORD
  5
1B
330
1
100
AcDbSymbolTableRecord
100
AcDbBlockTableRecord
  2
*Paper_Space
340
1E
  0
BLOCK_RECORD
  5
23
330
1
100
AcDbSymbolTableRecord
100
AcDbBlockTableRecord
  2
*Paper_Space0
340
26
  0
BLOCK_RECORD
  5
7E
330
1
100
AcDbSymbolTableRecord
100
AcDbBlockTableRecord
  2
블럭10
340
0
102
{BLKREFS
331
0
331
39A
331
458
102
}
  0
BLOCK_RECORD
  5
DD
330
1
100
AcDbSymbolTableRecord
100
AcDbBlockTableRecord
  2
_D
340
0
  0
BLOCK_RECORD
  5
F2
330
1
100
AcDbSymbolTableRecord
100
AcDbBlockTableRecord
  2
_D_1
340
0
  0
BLOCK_RECORD
  5
105
330
1
100
AcDbSymbolTableRecord
100
AcDbBlockTableRecord
  2
_D_2
340
0
  0
BLOCK_RECORD
  5
118
330
1
100
AcDbSymbolTableRecord
100
AcDbBlockTableRecord
  2
_D_3
340
0
  0
BLOCK_RECORD
  5
12C
330
1
100
AcDbSymbolTableRecord
100
AcDbBlockTableRecord
  2
SW_DOWELSYMBOL_0
340
0
102
{BLKREFS
331
0
331
3E7
331
464
102
}
  0
BLOCK_RECORD
  5
15F
330
1
100
AcDbSymbolTableRecord
100
AcDbBlockTableRecord
  2
*D7
340
0
  0
BLOCK_RECORD
  5
258
330
1
100
AcDbSymbolTableRecord
100
AcDbBlockTableRecord
  2
*D8
340
0
  0
BLOCK_RECORD
  5
264
330
1
100
AcDbSymbolTableRecord
100
AcDbBlockTableRecord
  2
*D9
340
0
  0
BLOCK_RECORD
  5
270
330
1
100
AcDbSymbolTableRecord
100
AcDbBlockTableRecord
  2
*D10
340
0
  0
BLOCK_RECORD
  5
27C
330
1
100
AcDbSymbolTableRecord
100
AcDbBlockTableRecord
  2
*D11
340
0
  0
BLOCK_RECORD
  5
2CF
330
1
100
AcDbSymbolTableRecord
100
AcDbBlockTableRecord
  2
*D12
340
0
  0
BLOCK_RECORD
  5
2DB
330
1
100
AcDbSymbolTableRecord
100
AcDbBlockTableRecord
  2
*D13
340
0
  0
BLOCK_RECORD
  5
2E7
330
1
100
AcDbSymbolTableRecord
100
AcDbBlockTableRecord
  2
*D14
340
0
  0
BLOCK_RECORD
  5
2F3
330
1
100
AcDbSymbolTableRecord
100
AcDbBlockTableRecord
  2
*D15
340
0
  0
BLOCK_RECORD
  5
305
330
1
100
AcDbSymbolTableRecord
100
AcDbBlockTableRecord
  2
*D16
340
0
  0
BLOCK_RECORD
  5
3F0
330
1
100
AcDbSymbolTableRecord
100
AcDbBlockTableRecord
  2
*D18
340
0
  0
BLOCK_RECORD
  5
3FC
330
1
100
AcDbSymbolTableRecord
100
AcDbBlockTableRecord
  2
*D19
340
0
  0
BLOCK_RECORD
  5
408
330
1
100
AcDbSymbolTableRecord
100
AcDbBlockTableRecord
  2
*D20
340
0
  0
BLOCK_RECORD
  5
414
330
1
100
AcDbSymbolTableRecord
100
AcDbBlockTableRecord
  2
*D21
340
0
  0
BLOCK_RECORD
  5
465
330
1
100
AcDbSymbolTableRecord
100
AcDbBlockTableRecord
  2
*D22
340
0
  0
BLOCK_RECORD
  5
471
330
1
100
AcDbSymbolTableRecord
100
AcDbBlockTableRecord
  2
*D23
340
0
  0
BLOCK_RECORD
  5
47D
330
1
100
AcDbSymbolTableRecord
100
AcDbBlockTableRecord
  2
*D24
340
0
  0
BLOCK_RECORD
  5
489
330
1
100
AcDbSymbolTableRecord
100
AcDbBlockTableRecord
  2
*D25
340
0
  0
BLOCK_RECORD
  5
49F
330
1
100
AcDbSymbolTableRecord
100
AcDbBlockTableRecord
  2
*D26
340
0
  0
ENDTAB
  0
ENDSEC
  0
SECTION
  2
BLOCKS
  0
BLOCK
  5
20
330
1F
100
AcDbEntity
  8
0
100
AcDbBlockBegin
  2
*Model_Space
 70
     0
 10
0.0
 20
0.0
 30
0.0
  3
*Model_Space
  1
*Model_Space
  0
ENDBLK
  5
21
330
1F
100
AcDbEntity
  8
0
100
AcDbBlockEnd
  0
BLOCK
  5
1C
330
1B
100
AcDbEntity
 67
     1
  8
0
100
AcDbBlockBegin
  2
*Paper_Space
 70
     0
 10
0.0
 20
0.0
 30
0.0
  3
*Paper_Space
  1
*Paper_Space
  0
ENDBLK
  5
1D
330
1B
100
AcDbEntity
 67
     1
  8
0
100
AcDbBlockEnd
  0
BLOCK
  5
24
330
23
100
AcDbEntity
  8
0
100
AcDbBlockBegin
  2
*Paper_Space0
 70
     0
 10
0.0
 20
0.0
 30
0.0
  3
*Paper_Space0
  1
*Paper_Space0
  0
ENDBLK
  5
25
330
23
100
AcDbEntity
  8
0
100
AcDbBlockEnd
  0
BLOCK
  5
7F
330
7E
100
AcDbEntity
  8
0
100
AcDbBlockBegin
  2
블럭10
 70
     2
 10
0.0
 20
0.0
 30
0.0
  3
블럭10
  1
블럭10
  0
ELLIPSE
  5
81
330
7E
100
AcDbEntity
  8
중심선
100
AcDbEllipse
 10
20.54032771741204
 20
12.0471743016438
 30
0.0
 11
6.600054785286829
 21
-1.261213355974178E-13
 31
0.0
210
0.0
220
0.0
230
1.0
 40
0.636358354079598
 41
0.9219305317359503
 42
6.513795318482858
  0
ELLIPSE
  5
82
330
7E
100
AcDbEntity
  8
중심선
100
AcDbEllipse
 10
20.54032771746488
 20
12.04717430159265
 30
0.0
 11
3.960054785062283
 21
1.540847449632565E-10
 31
0.0
210
0.0
220
0.0
230
1.0
 40
0.3939339440162632
 41
1.131841032648279
 42
5.62031148352944
  0
LINE
  5
83
330
7E
100
AcDbEntity
  8
중심선
100
AcDbLine
 10
2.268634060543552
 20
16.24717430164393
 30
0.0
 11
5.714909304380834
 21
16.24717430164393
 31
0.0
  0
LINE
  5
84
330
7E
100
AcDbEntity
  8
중심선
100
AcDbLine
 10
5.245725140726316
 20
7.84717430164391
 30
0.0
 11
8.692000384563599
 21
7.84717430164391
 31
0.0
  0
LINE
  5
85
330
7E
100
AcDbEntity
  8
중심선
100
AcDbLine
 10
15.74043728645272
 20
16.24717430164393
 30
0.0
 11
8.692000384563599
 21
7.84717430164391
 31
0.0
  0
LINE
  5
86
330
7E
100
AcDbEntity
  8
중심선
100
AcDbLine
 10
0.1404042013395286
 20
13.71084872107135
 30
0.0
 11
3.58671253028996
 21
13.71088815037384
 31
0.0
  0
LINE
  5
87
330
7E
100
AcDbEntity
  8
중심선
100
AcDbLine
 10
2.750260043222114
 20
10.84717430164391
 30
0.0
 11
6.196535287059397
 21
10.84717430164391
 31
0.0
  0
LINE
  5
88
330
7E
100
AcDbEntity
  8
중심선
100
AcDbLine
 10
12.29416204261559
 20
16.24717430164393
 30
0.0
 11
5.245725140726316
 21
7.84717430164391
 31
0.0
  0
LINE
  5
89
330
7E
100
AcDbEntity
  8
중심선
100
AcDbLine
 10
10.72767329541681
 20
16.24717430164393
 30
0.0
 11
6.196535287059397
 21
10.84717430164391
 31
0.0
  0
LINE
  5
8A
330
7E
100
AcDbEntity
  8
중심선
100
AcDbLine
 10
7.28139805157953
 20
16.24717430164393
 30
0.0
 11
2.750260043222114
 21
10.84717430164391
 31
0.0
  0
LINE
  5
8B
330
7E
100
AcDbEntity
  8
중심선
100
AcDbLine
 10
5.714909304380834
 20
16.24717430164393
 30
0.0
 11
3.58671253028996
 21
13.71088815037384
 31
0.0
  0
LINE
  5
8C
330
7E
100
AcDbEntity
  8
중심선
100
AcDbLine
 10
2.268634060543552
 20
16.24717430164393
 30
0.0
 11
0.1404042013395286
 21
13.71084872107135
 31
0.0
  0
LINE
  5
8D
330
7E
100
AcDbEntity
  8
중심선
100
AcDbLine
 10
7.28139805157953
 20
16.24717430164393
 30
0.0
 11
10.72767329541681
 21
16.24717430164393
 31
0.0
  0
LINE
  5
8E
330
7E
100
AcDbEntity
  8
중심선
100
AcDbLine
 10
12.29416204261559
 20
16.24717430164393
 30
0.0
 11
15.74043728645272
 21
16.24717430164393
 31
0.0
  0
LINE
  5
8F
330
7E
100
AcDbEntity
  8
중심선
100
AcDbLine
 10
19.22036997980202
 20
11.08717430171403
 30
0.0
 11
23.66174974927406
 21
11.08717430171406
 31
0.0
  0
LINE
  5
90
330
7E
100
AcDbEntity
  8
중심선
100
AcDbLine
 10
19.22039502424796
 20
13.00717430171391
 30
0.0
 11
19.22036997980202
 21
11.08717430171403
 31
0.0
  0
LINE
  5
91
330
7E
100
AcDbEntity
  8
중심선
100
AcDbLine
 10
19.22039502424796
 20
13.00717430171391
 30
0.0
 11
26.96566020931264
 21
13.00717430171391
 31
0.0
  0
LINE
  5
92
330
7E
100
AcDbEntity
  8
중심선
100
AcDbLine
 10
22.22332737316547
 20
13.45928029700563
 30
0.0
 11
24.52862924686651
 21
15.39360700705356
 31
0.0
  0
ATTDEF
  5
94
330
7E
100
AcDbEntity
  8
FORMAT
 62
     2
100
AcDbText
 10
-9.18129528874128
 20
2.075366912832191
 30
0.0
 40
4.233333333333333
  1
E5975040 [ 3 FLUTE ]
 41
0.75
  7
SLDTEXTSTYLE0
 11
-9.18129528874128
 21
-0.0412997538344756
 31
0.0
100
AcDbAttributeDefinition
  3

  2
AUTOATTR0
 70
     0
 74
     1
  0
ENDBLK
  5
80
330
7E
100
AcDbEntity
  8
0
100
AcDbBlockEnd
  0
BLOCK
  5
DE
330
DD
100
AcDbEntity
  8
0
100
AcDbBlockBegin
  2
_D
 70
     0
 10
0.0
 20
0.0
 30
0.0
  3
_D
  1
_D
  0
LINE
  5
E0
330
DD
100
AcDbEntity
  8
치수문자_일반주서
 62
     0
370
    -2
100
AcDbLine
 10
-60.25769999999999
 20
7.937499999999994
 30
0.0
 11
-72.69165802161208
 21
7.937499999999947
 31
0.0
  0
LINE
  5
E1
330
DD
100
AcDbEntity
  8
치수문자_일반주서
 62
     0
370
    -2
100
AcDbLine
 10
-60.25769999999999
 20
-7.93750000000001
 30
0.0
 11
-72.69165802161203
 21
-7.937500000000057
 31
0.0
  0
LINE
  5
E2
330
DD
100
AcDbEntity
  8
치수문자_일반주서
 62
     0
370
    -2
100
AcDbLine
 10
-72.69165802161207
 20
4.635499999999947
 30
0.0
 11
-72.69165802161204
 21
-4.635500000000057
 31
0.0
  0
SOLID
  5
E3
330
DD
100
AcDbEntity
  8
치수문자_일반주서
 62
     0
100
AcDbTrace
 10
-72.14132468827874
 20
4.635499999999949
 30
0.0
 11
-73.2419913549454
 21
4.635499999999945
 31
0.0
 12
-72.69165802161208
 22
7.937499999999947
 32
0.0
 13
-72.69165802161208
 23
7.937499999999947
 33
0.0
  0
SOLID
  5
E4
330
DD
100
AcDbEntity
  8
치수문자_일반주서
 62
     0
100
AcDbTrace
 10
-73.24199135494537
 20
-4.635500000000059
 30
0.0
 11
-72.14132468827871
 21
-4.635500000000055
 31
0.0
 12
-72.69165802161203
 22
-7.937500000000057
 32
0.0
 13
-72.69165802161203
 23
-7.937500000000057
 33
0.0
  0
MTEXT
  5
E5
330
DD
100
AcDbEntity
  8
치수문자_일반주서
 62
     0
100
AcDbMText
 10
-77.06665802161206
 20
-0.0000000000000243
 30
0.0
 40
3.5
 41
0.0
 71
     2
 72
     1
  1
\A1;%%c15.88 [5/8]
  7
SLDTEXTSTYLE0
 11
-3.580687802255622E-15
 21
1.0
 31
0.0
 73
     1
 44
1.0
  0
POINT
  5
E6
330
DD
100
AcDbEntity
  8
Defpoints
 62
     0
100
AcDbPoint
 10
-60.19519999999999
 20
7.937499999999994
 30
0.0
  0
POINT
  5
E7
330
DD
100
AcDbEntity
  8
Defpoints
 62
     0
100
AcDbPoint
 10
-60.19519999999999
 20
-7.93750000000001
 30
0.0
  0
POINT
  5
E8
330
DD
100
AcDbEntity
  8
Defpoints
 62
     0
100
AcDbPoint
 10
-72.69165802161203
 20
-7.937500000000057
 30
0.0
  0
ENDBLK
  5
DF
330
DD
100
AcDbEntity
  8
0
100
AcDbBlockEnd
  0
BLOCK
  5
F3
330
F2
100
AcDbEntity
  8
0
100
AcDbBlockBegin
  2
_D_1
 70
     0
 10
0.0
 20
0.0
 30
0.0
  3
_D_1
  1
_D_1
  0
LINE
  5
F5
330
F2
100
AcDbEntity
  8
치수문자_일반주서
 62
     0
370
    -2
100
AcDbLine
 10
-61.19519999999998
 20
6.999999999999993
 30
0.0
 11
-61.19519999999998
 21
47.93750000000005
 31
0.0
  0
LINE
  5
F6
330
F2
100
AcDbEntity
  8
치수문자_일반주서
 62
     0
370
    -2
100
AcDbLine
 10
40.4048
 20
0.0625000000000016
 30
0.0
 11
40.4048
 21
47.93750000000005
 31
0.0
  0
LINE
  5
F7
330
F2
100
AcDbEntity
  8
치수문자_일반주서
 62
     0
370
    -2
100
AcDbLine
 10
-57.89319999999998
 20
47.93750000000005
 30
0.0
 11
37.1028
 21
47.93750000000005
 31
0.0
  0
SOLID
  5
F8
330
F2
100
AcDbEntity
  8
치수문자_일반주서
 62
     0
100
AcDbTrace
 10
-57.89319999999998
 20
48.48783333333338
 30
0.0
 11
-57.89319999999998
 21
47.38716666666672
 31
0.0
 12
-61.19519999999998
 22
47.93750000000005
 32
0.0
 13
-61.19519999999998
 23
47.93750000000005
 33
0.0
  0
SOLID
  5
F9
330
F2
100
AcDbEntity
  8
치수문자_일반주서
 62
     0
100
AcDbTrace
 10
37.1028
 20
47.38716666666672
 30
0.0
 11
37.1028
 21
48.48783333333338
 31
0.0
 12
40.4048
 22
47.93750000000005
 32
0.0
 13
40.4048
 23
47.93750000000005
 33
0.0
  0
MTEXT
  5
FA
330
F2
100
AcDbEntity
  8
치수문자_일반주서
 62
     0
100
AcDbMText
 10
-6.517714346807331
 20
52.31250000000005
 30
0.0
 40
3.5
 41
0.0
 71
     2
 72
     1
  1
\A1;101.6 [4]
  7
SLDTEXTSTYLE0
 73
     1
 44
1.0
  0
POINT
  5
FB
330
F2
100
AcDbEntity
  8
Defpoints
 62
     0
100
AcDbPoint
 10
-61.19519999999998
 20
6.937499999999993
 30
0.0
  0
POINT
  5
FC
330
F2
100
AcDbEntity
  8
Defpoints
 62
     0
100
AcDbPoint
 10
40.4048
 20
0.0000000000000016
 30
0.0
  0
POINT
  5
FD
330
F2
100
AcDbEntity
  8
Defpoints
 62
     0
100
AcDbPoint
 10
40.4048
 20
47.93750000000005
 30
0.0
  0
ENDBLK
  5
F4
330
F2
100
AcDbEntity
  8
0
100
AcDbBlockEnd
  0
BLOCK
  5
106
330
105
100
AcDbEntity
  8
0
100
AcDbBlockBegin
  2
_D_2
 70
     0
 10
0.0
 20
0.0
 30
0.0
  3
_D_2
  1
_D_2
  0
LINE
  5
108
330
105
100
AcDbEntity
  8
치수문자_일반주서
 62
     0
370
    -2
100
AcDbLine
 10
2.304799999999997
 20
7.695200000000002
 30
0.0
 11
2.304799999999993
 21
38.8124602550265
 31
0.0
  0
LINE
  5
109
330
105
100
AcDbEntity
  8
치수문자_일반주서
 62
     0
370
    -2
100
AcDbLine
 10
40.4048
 20
0.0625000000000016
 30
0.0
 11
40.40479999999999
 21
38.8124602550265
 31
0.0
  0
LINE
  5
10A
330
105
100
AcDbEntity
  8
치수문자_일반주서
 62
     0
370
    -2
100
AcDbLine
 10
5.606799999999993
 20
38.8124602550265
 30
0.0
 11
37.10279999999999
 21
38.8124602550265
 31
0.0
  0
SOLID
  5
10B
330
105
100
AcDbEntity
  8
치수문자_일반주서
 62
     0
100
AcDbTrace
 10
5.606799999999993
 20
39.36279358835984
 30
0.0
 11
5.606799999999993
 21
38.26212692169317
 31
0.0
 12
2.304799999999993
 22
38.8124602550265
 32
0.0
 13
2.304799999999993
 23
38.8124602550265
 33
0.0
  0
SOLID
  5
10C
330
105
100
AcDbEntity
  8
치수문자_일반주서
 62
     0
100
AcDbTrace
 10
37.10279999999999
 20
38.26212692169317
 30
0.0
 11
37.10279999999999
 21
39.36279358835984
 31
0.0
 12
40.40479999999999
 22
38.8124602550265
 32
0.0
 13
40.40479999999999
 23
38.8124602550265
 33
0.0
  0
MTEXT
  5
10D
330
105
100
AcDbEntity
  8
치수문자_일반주서
 62
     0
100
AcDbMText
 10
23.38766327159427
 20
43.1874602550265
 30
0.0
 40
3.5
 41
0.0
 71
     2
 72
     1
  1
\A1;38.1 [1.50]
  7
SLDTEXTSTYLE0
 73
     1
 44
1.0
  0
POINT
  5
10E
330
105
100
AcDbEntity
  8
Defpoints
 62
     0
100
AcDbPoint
 10
2.304799999999997
 20
7.632700000000002
 30
0.0
  0
POINT
  5
10F
330
105
100
AcDbEntity
  8
Defpoints
 62
     0
100
AcDbPoint
 10
40.4048
 20
0.0000000000000016
 30
0.0
  0
POINT
  5
110
330
105
100
AcDbEntity
  8
Defpoints
 62
     0
100
AcDbPoint
 10
40.4048
 20
38.8124602550265
 30
0.0
  0
ENDBLK
  5
107
330
105
100
AcDbEntity
  8
0
100
AcDbBlockEnd
  0
BLOCK
  5
119
330
118
100
AcDbEntity
  8
0
100
AcDbBlockBegin
  2
_D_3
 70
     0
 10
0.0
 20
0.0
 30
0.0
  3
_D_3
  1
_D_3
  0
LINE
  5
11B
330
118
100
AcDbEntity
  8
치수문자_일반주서
 62
     0
370
    -2
100
AcDbLine
 10
15.0048
 20
7.995579102997329
 30
0.0
 11
15.0048
 21
25.69526785413745
 31
0.0
  0
LINE
  5
11C
330
118
100
AcDbEntity
  8
치수문자_일반주서
 62
     0
370
    -2
100
AcDbLine
 10
40.4048
 20
0.0625000000000016
 30
0.0
 11
40.40479999999999
 21
25.69526785413745
 31
0.0
  0
LINE
  5
11D
330
118
100
AcDbEntity
  8
치수문자_일반주서
 62
     0
370
    -2
100
AcDbLine
 10
15.0048
 20
25.69526785413745
 30
0.0
 11
40.40479999999999
 21
25.69526785413745
 31
0.0
  0
LINE
  5
11E
330
118
100
AcDbEntity
  8
치수문자_일반주서
 62
     0
370
    -2
100
AcDbLine
 10
11.7028
 20
25.69526785413745
 30
0.0
 11
8.400800000000004
 21
25.69526785413745
 31
0.0
  0
LINE
  5
11F
330
118
100
AcDbEntity
  8
치수문자_일반주서
 62
     0
370
    -2
100
AcDbLine
 10
43.70679999999999
 20
25.69526785413745
 30
0.0
 11
47.00879999999999
 21
25.69526785413745
 31
0.0
  0
SOLID
  5
120
330
118
100
AcDbEntity
  8
치수문자_일반주서
 62
     0
100
AcDbTrace
 10
11.7028
 20
25.14493452080411
 30
0.0
 11
11.7028
 21
26.24560118747078
 31
0.0
 12
15.0048
 22
25.69526785413745
 32
0.0
 13
15.0048
 23
25.69526785413745
 33
0.0
  0
SOLID
  5
121
330
118
100
AcDbEntity
  8
치수문자_일반주서
 62
     0
100
AcDbTrace
 10
43.70679999999999
 20
26.24560118747078
 30
0.0
 11
43.70679999999999
 21
25.14493452080411
 31
0.0
 12
40.40479999999999
 22
25.69526785413745
 32
0.0
 13
40.40479999999999
 23
25.69526785413745
 33
0.0
  0
MTEXT
  5
122
330
118
100
AcDbEntity
  8
치수문자_일반주서
 62
     0
100
AcDbMText
 10
24.22493087165102
 20
30.07026785413745
 30
0.0
 40
3.5
 41
0.0
 71
     2
 72
     1
  1
\A1;25.4 [1]
  7
SLDTEXTSTYLE0
 73
     1
 44
1.0
  0
POINT
  5
123
330
118
100
AcDbEntity
  8
Defpoints
 62
     0
100
AcDbPoint
 10
15.0048
 20
7.933079102997329
 30
0.0
  0
POINT
  5
158
330
118
100
AcDbEntity
  8
Defpoints
 62
     0
100
AcDbPoint
 10
40.4048
 20
0.0000000000000016
 30
0.0
  0
POINT
  5
159
330
118
100
AcDbEntity
  8
Defpoints
 62
     0
100
AcDbPoint
 10
40.4048
 20
25.69526785413745
 30
0.0
  0
ENDBLK
  5
11A
330
118
100
AcDbEntity
  8
0
100
AcDbBlockEnd
  0
BLOCK
  5
12D
330
12C
100
AcDbEntity
  8
0
100
AcDbBlockBegin
  2
SW_DOWELSYMBOL_0
 70
     0
 10
0.0
 20
0.0
 30
0.0
  3
SW_DOWELSYMBOL_0
  1
SW_DOWELSYMBOL_0
  0
CIRCLE
  5
12F
330
12C
100
AcDbEntity
  8
외형선
 62
     0
100
AcDbCircle
 10
0.0
 20
0.0
 30
0.0
 40
3.000000000000004
  0
HATCH
  5
130
330
12C
100
AcDbEntity
  8
0
  6
Continuous
 62
     0
370
    30
100
AcDbHatch
 10
0.0
 20
0.0
 30
0.0
210
0.0
220
0.0
230
1.0
  2
SOLID
 70
     1
 71
     0
 91
        1
 92
        0
 93
        3
 72
     2
 10
0.0
 20
0.0
 40
3.000000000000004
 50
0.0
 51
90.0
 73
     1
 72
     1
 10
0.0
 20
3.000000000000004
 11
0.0
 21
0.0
 72
     1
 10
0.0
 20
0.0
 11
3.000000000000006
 21
0.0
 97
        0
 75
     0
 76
     1
 98
        1
 10
0.0
 20
0.0
  0
HATCH
  5
131
330
12C
100
AcDbEntity
  8
0
  6
Continuous
 62
     0
370
    30
100
AcDbHatch
 10
0.0
 20
0.0
 30
0.0
210
0.0
220
0.0
230
1.0
  2
SOLID
 70
     1
 71
     0
 91
        1
 92
        0
 93
        3
 72
     2
 10
0.0
 20
0.0
 40
3.000000000000004
 50
180.0
 51
270.0000000000007
 73
     1
 72
     1
 10
0.0
 20
-3.000000000000004
 11
0.0
 21
0.0
 72
     1
 10
0.0
 20
0.0
 11
-3.000000000000006
 21
0.0
 97
        0
 75
     0
 76
     1
 98
        1
 10
0.0
 20
0.0
  0
ENDBLK
  5
12E
330
12C
100
AcDbEntity
  8
0
100
AcDbBlockEnd
  0
BLOCK
  5
160
330
15F
100
AcDbEntity
  8
0
100
AcDbBlockBegin
  2
*D7
 70
     1
 10
0.0
 20
0.0
 30
0.0
  3
*D7
  1
*D7
  0
LINE
  5
162
330
15F
100
AcDbEntity
  8
치수문자_일반주서
 62
     0
370
    -2
100
AcDbLine
 10
40.4673
 20
7.937500000000003
 30
0.0
 11
60.19927684825788
 21
7.937500000000004
 31
0.0
  0
LINE
  5
163
330
15F
100
AcDbEntity
  8
치수문자_일반주서
 62
     0
370
    -2
100
AcDbLine
 10
40.4673
 20
-7.937499999999999
 30
0.0
 11
60.19927684825788
 21
-7.9375
 31
0.0
  0
LINE
  5
164
330
15F
100
AcDbEntity
  8
치수문자_일반주서
 62
     0
370
    -2
100
AcDbLine
 10
60.19927684825788
 20
7.937500000000004
 30
0.0
 11
60.19927684825788
 21
42.5415
 31
0.0
  0
LINE
  5
165
330
15F
100
AcDbEntity
  8
치수문자_일반주서
 62
     0
370
    -2
100
AcDbLine
 10
60.19927684825788
 20
7.937500000000004
 30
0.0
 11
60.19927684825788
 21
-7.9375
 31
0.0
  0
LINE
  5
166
330
15F
100
AcDbEntity
  8
치수문자_일반주서
 62
     0
370
    -2
100
AcDbLine
 10
60.19927684825788
 20
11.2395
 30
0.0
 11
60.19927684825788
 21
14.5415
 31
0.0
  0
LINE
  5
167
330
15F
100
AcDbEntity
  8
치수문자_일반주서
 62
     0
370
    -2
100
AcDbLine
 10
60.19927684825788
 20
-11.2395
 30
0.0
 11
60.19927684825788
 21
-14.5415
 31
0.0
  0
SOLID
  5
168
330
15F
100
AcDbEntity
  8
치수문자_일반주서
 62
     0
100
AcDbTrace
 10
59.64894351492455
 20
11.2395
 30
0.0
 11
60.74961018159122
 21
11.2395
 31
0.0
 12
60.19927684825788
 22
7.937500000000004
 32
0.0
 13
60.19927684825788
 23
7.937500000000004
 33
0.0
  0
SOLID
  5
169
330
15F
100
AcDbEntity
  8
치수문자_일반주서
 62
     0
100
AcDbTrace
 10
60.74961018159122
 20
-11.2395
 30
0.0
 11
59.64894351492455
 21
-11.2395
 31
0.0
 12
60.19927684825788
 22
-7.9375
 32
0.0
 13
60.19927684825788
 23
-7.9375
 33
0.0
  0
MTEXT
  5
16A
330
15F
100
AcDbEntity
  8
치수문자_일반주서
 62
     0
100
AcDbMText
 10
57.57427684825788
 20
28.5415
 30
0.0
 40
3.5
 41
0.0
 71
     5
 72
     1
  1
\A1;{%%c15.88 [5/8]}
  7
SLDTEXTSTYLE0
 11
0.0
 21
1.0
 31
0.0
 73
     1
 44
1.0
  0
POINT
  5
16B
330
15F
100
AcDbEntity
  8
Defpoints
 62
     0
100
AcDbPoint
 10
40.4048
 20
7.937500000000003
 30
0.0
  0
POINT
  5
16C
330
15F
100
AcDbEntity
  8
Defpoints
 62
     0
100
AcDbPoint
 10
40.4048
 20
-7.937499999999999
 30
0.0
  0
POINT
  5
16D
330
15F
100
AcDbEntity
  8
Defpoints
 62
     0
100
AcDbPoint
 10
60.19927684825788
 20
-7.9375
 30
0.0
  0
ENDBLK
  5
161
330
15F
100
AcDbEntity
  8
0
100
AcDbBlockEnd
  0
BLOCK
  5
259
330
258
100
AcDbEntity
  8
0
100
AcDbBlockBegin
  2
*D8
 70
     1
 10
0.0
 20
0.0
 30
0.0
  3
*D8
  1
*D9
  0
LINE
  5
25B
330
258
100
AcDbEntity
  8
치수문자_일반주서
 62
     0
370
    -2
100
AcDbLine
 10
16.80895802161213
 20
53.05727576695242
 30
0.0
 11
4.375000000000046
 21
53.05727576695237
 31
0.0
  0
LINE
  5
25C
330
258
100
AcDbEntity
  8
치수문자_일반주서
 62
     0
370
    -2
100
AcDbLine
 10
16.80895802161213
 20
46.70727576695243
 30
0.0
 11
4.375000000000068
 21
46.70727576695238
 31
0.0
  0
LINE
  5
25D
330
258
100
AcDbEntity
  8
치수문자_일반주서
 62
     0
370
    -2
100
AcDbLine
 10
4.375000000000058
 20
49.75527576695237
 30
0.0
 11
4.375000000000057
 21
50.00927576695238
 31
0.0
  0
SOLID
  5
25E
330
258
100
AcDbEntity
  8
치수문자_일반주서
 62
     0
100
AcDbTrace
 10
4.925333333333391
 20
49.75527576695237
 30
0.0
 11
3.824666666666724
 21
49.75527576695237
 31
0.0
 12
4.375000000000046
 22
53.05727576695237
 32
0.0
 13
4.375000000000046
 23
53.05727576695237
 33
0.0
  0
SOLID
  5
25F
330
258
100
AcDbEntity
  8
치수문자_일반주서
 62
     0
100
AcDbTrace
 10
3.824666666666723
 20
50.00927576695238
 30
0.0
 11
4.92533333333339
 21
50.00927576695238
 31
0.0
 12
4.375000000000068
 22
46.70727576695238
 32
0.0
 13
4.375000000000068
 23
46.70727576695238
 33
0.0
  0
MTEXT
  5
260
330
258
100
AcDbEntity
  8
치수문자_일반주서
 62
     0
100
AcDbMText
 10
0.0000000000000568
 20
49.88227576695241
 30
0.0
 40
3.5
 41
0.0
 71
     2
 72
     1
  1
\A1;%%c6.35 [1/4]
  7
SLDTEXTSTYLE0
 11
-3.496765431890260E-15
 21
1.0
 31
0.0
 73
     1
 44
1.0
  0
POINT
  5
261
330
258
100
AcDbEntity
  8
Defpoints
 62
     0
100
AcDbPoint
 10
16.87145802161213
 20
53.05727576695242
 30
0.0
  0
POINT
  5
262
330
258
100
AcDbEntity
  8
Defpoints
 62
     0
100
AcDbPoint
 10
16.87145802161213
 20
46.70727576695243
 30
0.0
  0
POINT
  5
263
330
258
100
AcDbEntity
  8
Defpoints
 62
     0
100
AcDbPoint
 10
4.375000000000071
 20
46.70727576695238
 30
0.0
  0
ENDBLK
  5
25A
330
258
100
AcDbEntity
  8
0
100
AcDbBlockEnd
  0
BLOCK
  5
265
330
264
100
AcDbEntity
  8
0
100
AcDbBlockBegin
  2
*D9
 70
     1
 10
0.0
 20
0.0
 30
0.0
  3
*D9
  1
*D10
  0
LINE
  5
267
330
264
100
AcDbEntity
  8
치수문자_일반주서
 62
     0
370
    -2
100
AcDbLine
 10
15.87145802161213
 20
52.11977576695242
 30
0.0
 11
15.87145802161213
 21
92.26438749628338
 31
0.0
  0
LINE
  5
268
330
264
100
AcDbEntity
  8
치수문자_일반주서
 62
     0
370
    -2
100
AcDbLine
 10
76.19645802161214
 20
49.94477576695243
 30
0.0
 11
76.19645802161214
 21
92.26438749628338
 31
0.0
  0
LINE
  5
269
330
264
100
AcDbEntity
  8
치수문자_일반주서
 62
     0
370
    -2
100
AcDbLine
 10
19.17345802161213
 20
92.26438749628338
 30
0.0
 11
72.89445802161214
 21
92.26438749628338
 31
0.0
  0
SOLID
  5
26A
330
264
100
AcDbEntity
  8
치수문자_일반주서
 62
     0
100
AcDbTrace
 10
19.17345802161213
 20
92.8147208296167
 30
0.0
 11
19.17345802161213
 21
91.71405416295005
 31
0.0
 12
15.87145802161213
 22
92.26438749628338
 32
0.0
 13
15.87145802161213
 23
92.26438749628338
 33
0.0
  0
SOLID
  5
26B
330
264
100
AcDbEntity
  8
치수문자_일반주서
 62
     0
100
AcDbTrace
 10
72.89445802161214
 20
91.71405416295005
 30
0.0
 11
72.89445802161214
 21
92.8147208296167
 31
0.0
 12
76.19645802161214
 22
92.26438749628338
 32
0.0
 13
76.19645802161214
 23
92.26438749628338
 33
0.0
  0
MTEXT
  5
26C
330
264
100
AcDbEntity
  8
치수문자_일반주서
 62
     0
100
AcDbMText
 10
41.86388241369192
 20
96.63938749628338
 30
0.0
 40
3.5
 41
0.0
 71
     2
 72
     1
  1
\A1;60.33 [2.38]
  7
SLDTEXTSTYLE0
 73
     1
 44
1.0
  0
POINT
  5
26D
330
264
100
AcDbEntity
  8
Defpoints
 62
     0
100
AcDbPoint
 10
15.87145802161213
 20
52.05727576695242
 30
0.0
  0
POINT
  5
26E
330
264
100
AcDbEntity
  8
Defpoints
 62
     0
100
AcDbPoint
 10
76.19645802161214
 20
49.88227576695243
 30
0.0
  0
POINT
  5
26F
330
264
100
AcDbEntity
  8
Defpoints
 62
     0
100
AcDbPoint
 10
76.19645802161214
 20
92.26438749628338
 30
0.0
  0
ENDBLK
  5
266
330
264
100
AcDbEntity
  8
0
100
AcDbBlockEnd
  0
BLOCK
  5
271
330
270
100
AcDbEntity
  8
0
100
AcDbBlockBegin
  2
*D10
 70
     1
 10
0.0
 20
0.0
 30
0.0
  3
*D10
  1
*D11
  0
LINE
  5
273
330
270
100
AcDbEntity
  8
치수문자_일반주서
 62
     0
370
    -2
100
AcDbLine
 10
69.84645802161214
 20
51.43067576695243
 30
0.0
 11
69.84645802161214
 21
80.69516861617166
 31
0.0
  0
LINE
  5
274
330
270
100
AcDbEntity
  8
치수문자_일반주서
 62
     0
370
    -2
100
AcDbLine
 10
76.19645802161214
 20
49.94477576695243
 30
0.0
 11
76.19645802161214
 21
80.69516861617166
 31
0.0
  0
LINE
  5
275
330
270
100
AcDbEntity
  8
치수문자_일반주서
 62
     0
370
    -2
100
AcDbLine
 10
73.14845802161214
 20
80.69516861617166
 30
0.0
 11
72.89445802161214
 21
80.69516861617166
 31
0.0
  0
SOLID
  5
276
330
270
100
AcDbEntity
  8
치수문자_일반주서
 62
     0
100
AcDbTrace
 10
73.14845802161214
 20
81.24550194950498
 30
0.0
 11
73.14845802161214
 21
80.14483528283833
 31
0.0
 12
69.84645802161214
 22
80.69516861617166
 32
0.0
 13
69.84645802161214
 23
80.69516861617166
 33
0.0
  0
SOLID
  5
277
330
270
100
AcDbEntity
  8
치수문자_일반주서
 62
     0
100
AcDbTrace
 10
72.89445802161214
 20
80.14483528283833
 30
0.0
 11
72.89445802161214
 21
81.24550194950498
 31
0.0
 12
76.19645802161214
 22
80.69516861617166
 32
0.0
 13
76.19645802161214
 23
80.69516861617166
 33
0.0
  0
MTEXT
  5
278
330
270
100
AcDbEntity
  8
치수문자_일반주서
 62
     0
100
AcDbMText
 10
72.23475169032352
 20
85.07016861617166
 30
0.0
 40
3.5
 41
0.0
 71
     2
 72
     1
  1
\A1;6.35 [0.25]
  7
SLDTEXTSTYLE0
 73
     1
 44
1.0
  0
POINT
  5
279
330
270
100
AcDbEntity
  8
Defpoints
 62
     0
100
AcDbPoint
 10
69.84645802161214
 20
51.36817576695243
 30
0.0
  0
POINT
  5
27A
330
270
100
AcDbEntity
  8
Defpoints
 62
     0
100
AcDbPoint
 10
76.19645802161214
 20
49.88227576695243
 30
0.0
  0
POINT
  5
27B
330
270
100
AcDbEntity
  8
Defpoints
 62
     0
100
AcDbPoint
 10
76.19645802161214
 20
80.69516861617166
 30
0.0
  0
ENDBLK
  5
272
330
270
100
AcDbEntity
  8
0
100
AcDbBlockEnd
  0
BLOCK
  5
27D
330
27C
100
AcDbEntity
  8
0
100
AcDbBlockBegin
  2
*D11
 70
     1
 10
0.0
 20
0.0
 30
0.0
  3
*D11
  1
*D12
  0
LINE
  5
27F
330
27C
100
AcDbEntity
  8
치수문자_일반주서
 62
     0
370
    -2
100
AcDbLine
 10
71.43395802161214
 20
51.50546640504277
 30
0.0
 11
71.43395802161214
 21
75.26374700002702
 31
0.0
  0
LINE
  5
280
330
27C
100
AcDbEntity
  8
치수문자_일반주서
 62
     0
370
    -2
100
AcDbLine
 10
76.19645802161214
 20
49.94477576695243
 30
0.0
 11
76.19645802161214
 21
75.26374700002702
 31
0.0
  0
LINE
  5
281
330
27C
100
AcDbEntity
  8
치수문자_일반주서
 62
     0
370
    -2
100
AcDbLine
 10
74.73595802161215
 20
75.26374700002702
 30
0.0
 11
72.89445802161214
 21
75.26374700002702
 31
0.0
  0
SOLID
  5
282
330
27C
100
AcDbEntity
  8
치수문자_일반주서
 62
     0
100
AcDbTrace
 10
74.73595802161215
 20
75.81408033336035
 30
0.0
 11
74.73595802161215
 21
74.7134136666937
 31
0.0
 12
71.43395802161214
 22
75.26374700002702
 32
0.0
 13
71.43395802161214
 23
75.26374700002702
 33
0.0
  0
SOLID
  5
283
330
27C
100
AcDbEntity
  8
치수문자_일반주서
 62
     0
100
AcDbTrace
 10
72.89445802161214
 20
74.7134136666937
 30
0.0
 11
72.89445802161214
 21
75.81408033336035
 31
0.0
 12
76.19645802161214
 22
75.26374700002702
 32
0.0
 13
76.19645802161214
 23
75.26374700002702
 33
0.0
  0
MTEXT
  5
284
330
27C
100
AcDbEntity
  8
치수문자_일반주서
 62
     0
100
AcDbMText
 10
74.12898058983993
 20
79.63874700002702
 30
0.0
 40
3.5
 41
0.0
 71
     2
 72
     1
  1
\A1;4.76 [0.19]
  7
SLDTEXTSTYLE0
 73
     1
 44
1.0
  0
POINT
  5
285
330
27C
100
AcDbEntity
  8
Defpoints
 62
     0
100
AcDbPoint
 10
71.43395802161214
 20
51.44296640504277
 30
0.0
  0
POINT
  5
286
330
27C
100
AcDbEntity
  8
Defpoints
 62
     0
100
AcDbPoint
 10
76.19645802161214
 20
49.88227576695243
 30
0.0
  0
POINT
  5
287
330
27C
100
AcDbEntity
  8
Defpoints
 62
     0
100
AcDbPoint
 10
76.19645802161214
 20
75.26374700002702
 30
0.0
  0
ENDBLK
  5
27E
330
27C
100
AcDbEntity
  8
0
100
AcDbBlockEnd
  0
BLOCK
  5
2D0
330
2CF
100
AcDbEntity
  8
0
100
AcDbBlockBegin
  2
*D12
 70
     1
 10
0.0
 20
0.0
 30
0.0
  3
*D12
  1
*D13
  0
LINE
  5
2D2
330
2CF
100
AcDbEntity
  8
치수문자_일반주서
 62
     0
370
    -2
100
AcDbLine
 10
-39.0189290019209
 20
3.17499999999999
 30
0.0
 11
-51.45288702353299
 21
3.174999999999943
 31
0.0
  0
LINE
  5
2D3
330
2CF
100
AcDbEntity
  8
치수문자_일반주서
 62
     0
370
    -2
100
AcDbLine
 10
-39.0189290019209
 20
-3.174999999999998
 30
0.0
 11
-51.45288702353297
 21
-3.175000000000045
 31
0.0
  0
LINE
  5
2D4
330
2CF
100
AcDbEntity
  8
치수문자_일반주서
 62
     0
370
    -2
100
AcDbLine
 10
-51.45288702353297
 20
-0.1270000000000575
 30
0.0
 11
-51.45288702353298
 21
0.1269999999999554
 31
0.0
  0
SOLID
  5
2D5
330
2CF
100
AcDbEntity
  8
치수문자_일반주서
 62
     0
100
AcDbTrace
 10
-50.90255369019964
 20
-0.1270000000000557
 30
0.0
 11
-52.00322035686631
 21
-0.1270000000000594
 31
0.0
 12
-51.45288702353299
 22
3.174999999999943
 32
0.0
 13
-51.45288702353299
 23
3.174999999999943
 33
0.0
  0
SOLID
  5
2D6
330
2CF
100
AcDbEntity
  8
치수문자_일반주서
 62
     0
100
AcDbTrace
 10
-52.00322035686631
 20
0.1269999999999535
 30
0.0
 11
-50.90255369019965
 21
0.1269999999999572
 31
0.0
 12
-51.45288702353297
 22
-3.175000000000045
 32
0.0
 13
-51.45288702353297
 23
-3.175000000000045
 33
0.0
  0
MTEXT
  5
2D7
330
2CF
100
AcDbEntity
  8
치수문자_일반주서
 62
     0
100
AcDbMText
 10
-55.82788702353298
 20
-0.0000000000000216
 30
0.0
 40
3.5
 41
0.0
 71
     2
 72
     1
  1
\A1;%%c6.35 [1/4]
  7
SLDTEXTSTYLE0
 11
-3.356894814614654E-15
 21
1.0
 31
0.0
 73
     1
 44
1.0
  0
POINT
  5
2D8
330
2CF
100
AcDbEntity
  8
Defpoints
 62
     0
100
AcDbPoint
 10
-38.9564290019209
 20
3.17499999999999
 30
0.0
  0
POINT
  5
2D9
330
2CF
100
AcDbEntity
  8
Defpoints
 62
     0
100
AcDbPoint
 10
-38.9564290019209
 20
-3.174999999999997
 30
0.0
  0
POINT
  5
2DA
330
2CF
100
AcDbEntity
  8
Defpoints
 62
     0
100
AcDbPoint
 10
-51.45288702353297
 20
-3.175000000000044
 30
0.0
  0
ENDBLK
  5
2D1
330
2CF
100
AcDbEntity
  8
0
100
AcDbBlockEnd
  0
BLOCK
  5
2DC
330
2DB
100
AcDbEntity
  8
0
100
AcDbBlockBegin
  2
*D13
 70
     1
 10
0.0
 20
0.0
 30
0.0
  3
*D13
  1
*D14
  0
LINE
  5
2DE
330
2DB
100
AcDbEntity
  8
치수문자_일반주서
 62
     0
370
    -2
100
AcDbLine
 10
-39.9564290019209
 20
2.23749999999999
 30
0.0
 11
-39.9564290019209
 21
42.38211172933094
 31
0.0
  0
LINE
  5
2DF
330
2DB
100
AcDbEntity
  8
치수문자_일반주서
 62
     0
370
    -2
100
AcDbLine
 10
20.36857099807911
 20
0.0625
 30
0.0
 11
20.36857099807911
 21
42.38211172933094
 31
0.0
  0
LINE
  5
2E0
330
2DB
100
AcDbEntity
  8
치수문자_일반주서
 62
     0
370
    -2
100
AcDbLine
 10
-36.6544290019209
 20
42.38211172933094
 30
0.0
 11
17.06657099807911
 21
42.38211172933094
 31
0.0
  0
SOLID
  5
2E1
330
2DB
100
AcDbEntity
  8
치수문자_일반주서
 62
     0
100
AcDbTrace
 10
-36.6544290019209
 20
42.93244506266428
 30
0.0
 11
-36.6544290019209
 21
41.83177839599761
 31
0.0
 12
-39.9564290019209
 22
42.38211172933094
 32
0.0
 13
-39.9564290019209
 23
42.38211172933094
 33
0.0
  0
SOLID
  5
2E2
330
2DB
100
AcDbEntity
  8
치수문자_일반주서
 62
     0
100
AcDbTrace
 10
17.06657099807911
 20
41.83177839599761
 30
0.0
 11
17.06657099807911
 21
42.93244506266428
 31
0.0
 12
20.36857099807911
 22
42.38211172933094
 32
0.0
 13
20.36857099807911
 23
42.38211172933094
 33
0.0
  0
MTEXT
  5
2E3
330
2DB
100
AcDbEntity
  8
치수문자_일반주서
 62
     0
100
AcDbMText
 10
-13.96400460984111
 20
46.75711172933094
 30
0.0
 40
3.5
 41
0.0
 71
     2
 72
     1
  1
\A1;60.33 [2 3/8]
  7
SLDTEXTSTYLE0
 73
     1
 44
1.0
  0
POINT
  5
2E4
330
2DB
100
AcDbEntity
  8
Defpoints
 62
     0
100
AcDbPoint
 10
-39.9564290019209
 20
2.17499999999999
 30
0.0
  0
POINT
  5
2E5
330
2DB
100
AcDbEntity
  8
Defpoints
 62
     0
100
AcDbPoint
 10
20.36857099807911
 20
0.0
 30
0.0
  0
POINT
  5
2E6
330
2DB
100
AcDbEntity
  8
Defpoints
 62
     0
100
AcDbPoint
 10
20.36857099807911
 20
42.38211172933094
 30
0.0
  0
ENDBLK
  5
2DD
330
2DB
100
AcDbEntity
  8
0
100
AcDbBlockEnd
  0
BLOCK
  5
2E8
330
2E7
100
AcDbEntity
  8
0
100
AcDbBlockBegin
  2
*D14
 70
     1
 10
0.0
 20
0.0
 30
0.0
  3
*D14
  1
*D15
  0
LINE
  5
2EA
330
2E7
100
AcDbEntity
  8
치수문자_일반주서
 62
     0
370
    -2
100
AcDbLine
 10
14.0185709980791
 20
1.548400000000001
 30
0.0
 11
14.0185709980791
 21
30.81289284921922
 31
0.0
  0
LINE
  5
2EB
330
2E7
100
AcDbEntity
  8
치수문자_일반주서
 62
     0
370
    -2
100
AcDbLine
 10
20.36857099807911
 20
0.0625
 30
0.0
 11
20.36857099807911
 21
30.81289284921922
 31
0.0
  0
LINE
  5
2EC
330
2E7
100
AcDbEntity
  8
치수문자_일반주서
 62
     0
370
    -2
100
AcDbLine
 10
17.3205709980791
 20
30.81289284921922
 30
0.0
 11
17.06657099807911
 21
30.81289284921922
 31
0.0
  0
SOLID
  5
2ED
330
2E7
100
AcDbEntity
  8
치수문자_일반주서
 62
     0
100
AcDbTrace
 10
17.3205709980791
 20
31.36322618255256
 30
0.0
 11
17.3205709980791
 21
30.26255951588589
 31
0.0
 12
14.0185709980791
 22
30.81289284921922
 32
0.0
 13
14.0185709980791
 23
30.81289284921922
 33
0.0
  0
SOLID
  5
2EE
330
2E7
100
AcDbEntity
  8
치수문자_일반주서
 62
     0
100
AcDbTrace
 10
17.06657099807911
 20
30.26255951588589
 30
0.0
 11
17.06657099807911
 21
31.36322618255256
 31
0.0
 12
20.36857099807911
 22
30.81289284921922
 32
0.0
 13
20.36857099807911
 23
30.81289284921922
 33
0.0
  0
MTEXT
  5
2EF
330
2E7
100
AcDbEntity
  8
치수문자_일반주서
 62
     0
100
AcDbMText
 10
16.40686466679048
 20
35.18789284921922
 30
0.0
 40
3.5
 41
0.0
 71
     2
 72
     1
  1
\A1;6.35 [1/4]
  7
SLDTEXTSTYLE0
 73
     1
 44
1.0
  0
POINT
  5
2F0
330
2E7
100
AcDbEntity
  8
Defpoints
 62
     0
100
AcDbPoint
 10
14.0185709980791
 20
1.485900000000001
 30
0.0
  0
POINT
  5
2F1
330
2E7
100
AcDbEntity
  8
Defpoints
 62
     0
100
AcDbPoint
 10
20.36857099807911
 20
0.0
 30
0.0
  0
POINT
  5
2F2
330
2E7
100
AcDbEntity
  8
Defpoints
 62
     0
100
AcDbPoint
 10
20.36857099807911
 20
30.81289284921922
 30
0.0
  0
ENDBLK
  5
2E9
330
2E7
100
AcDbEntity
  8
0
100
AcDbBlockEnd
  0
BLOCK
  5
2F4
330
2F3
100
AcDbEntity
  8
0
100
AcDbBlockBegin
  2
*D15
 70
     1
 10
0.0
 20
0.0
 30
0.0
  3
*D15
  1
*D16
  0
LINE
  5
2F6
330
2F3
100
AcDbEntity
  8
치수문자_일반주서
 62
     0
370
    -2
100
AcDbLine
 10
15.6060709980791
 20
1.623190638090342
 30
0.0
 11
15.6060709980791
 21
18.67722180546534
 31
0.0
  0
LINE
  5
2F7
330
2F3
100
AcDbEntity
  8
치수문자_일반주서
 62
     0
370
    -2
100
AcDbLine
 10
20.36857099807911
 20
0.0625
 30
0.0
 11
20.36857099807911
 21
18.67722180546534
 31
0.0
  0
LINE
  5
2F8
330
2F3
100
AcDbEntity
  8
치수문자_일반주서
 62
     0
370
    -2
100
AcDbLine
 10
15.6060709980791
 20
18.67722180546534
 30
0.0
 11
20.36857099807911
 21
18.67722180546534
 31
0.0
  0
LINE
  5
2F9
330
2F3
100
AcDbEntity
  8
치수문자_일반주서
 62
     0
370
    -2
100
AcDbLine
 10
12.3040709980791
 20
18.67722180546534
 30
0.0
 11
9.002070998079105
 21
18.67722180546534
 31
0.0
  0
LINE
  5
2FA
330
2F3
100
AcDbEntity
  8
치수문자_일반주서
 62
     0
370
    -2
100
AcDbLine
 10
23.67057099807911
 20
18.67722180546534
 30
0.0
 11
26.97257099807911
 21
18.67722180546534
 31
0.0
  0
SOLID
  5
2FB
330
2F3
100
AcDbEntity
  8
치수문자_일반주서
 62
     0
100
AcDbTrace
 10
12.3040709980791
 20
18.126888472132
 30
0.0
 11
12.3040709980791
 21
19.22755513879867
 31
0.0
 12
15.6060709980791
 22
18.67722180546534
 32
0.0
 13
15.6060709980791
 23
18.67722180546534
 33
0.0
  0
SOLID
  5
2FC
330
2F3
100
AcDbEntity
  8
치수문자_일반주서
 62
     0
100
AcDbTrace
 10
23.67057099807911
 20
19.22755513879867
 30
0.0
 11
23.67057099807911
 21
18.126888472132
 31
0.0
 12
20.36857099807911
 22
18.67722180546534
 32
0.0
 13
20.36857099807911
 23
18.67722180546534
 33
0.0
  0
MTEXT
  5
2FD
330
2F3
100
AcDbEntity
  8
치수문자_일반주서
 62
     0
100
AcDbMText
 10
18.30109356630689
 20
23.05222180546534
 30
0.0
 40
3.5
 41
0.0
 71
     2
 72
     1
  1
\A1;4.76 [3/16]
  7
SLDTEXTSTYLE0
 73
     1
 44
1.0
  0
POINT
  5
2FE
330
2F3
100
AcDbEntity
  8
Defpoints
 62
     0
100
AcDbPoint
 10
15.6060709980791
 20
1.560690638090342
 30
0.0
  0
POINT
  5
300
330
2F3
100
AcDbEntity
  8
Defpoints
 62
     0
100
AcDbPoint
 10
20.36857099807911
 20
0.0
 30
0.0
  0
POINT
  5
301
330
2F3
100
AcDbEntity
  8
Defpoints
 62
     0
100
AcDbPoint
 10
20.36857099807911
 20
18.67722180546534
 30
0.0
  0
ENDBLK
  5
2F5
330
2F3
100
AcDbEntity
  8
0
100
AcDbBlockEnd
  0
BLOCK
  5
306
330
305
100
AcDbEntity
  8
0
100
AcDbBlockBegin
  2
*D16
 70
     1
 10
0.0
 20
0.0
 30
0.0
  3
*D16
  1
*D17
  0
LINE
  5
308
330
305
100
AcDbEntity
  8
치수문자_일반주서
 62
     0
370
    -2
100
AcDbLine
 10
16.02123319444036
 20
1.587499999999999
 30
0.0
 11
40.9203269190854
 21
1.587499999999999
 31
0.0
  0
LINE
  5
309
330
305
100
AcDbEntity
  8
치수문자_일반주서
 62
     0
370
    -2
100
AcDbLine
 10
17.85720978110836
 20
-1.587499999999991
 30
0.0
 11
40.9203269190854
 21
-1.587499999999991
 31
0.0
  0
LINE
  5
30A
330
305
100
AcDbEntity
  8
치수문자_일반주서
 62
     0
370
    -2
100
AcDbLine
 10
40.9203269190854
 20
1.587499999999999
 30
0.0
 11
40.9203269190854
 21
32.6915
 31
0.0
  0
LINE
  5
30B
330
305
100
AcDbEntity
  8
치수문자_일반주서
 62
     0
370
    -2
100
AcDbLine
 10
40.9203269190854
 20
1.587499999999999
 30
0.0
 11
40.9203269190854
 21
-1.587499999999991
 31
0.0
  0
LINE
  5
30C
330
305
100
AcDbEntity
  8
치수문자_일반주서
 62
     0
370
    -2
100
AcDbLine
 10
40.9203269190854
 20
4.889499999999998
 30
0.0
 11
40.9203269190854
 21
8.191499999999998
 31
0.0
  0
LINE
  5
30D
330
305
100
AcDbEntity
  8
치수문자_일반주서
 62
     0
370
    -2
100
AcDbLine
 10
40.9203269190854
 20
-4.889499999999991
 30
0.0
 11
40.9203269190854
 21
-8.19149999999999
 31
0.0
  0
SOLID
  5
30E
330
305
100
AcDbEntity
  8
치수문자_일반주서
 62
     0
100
AcDbTrace
 10
40.36999358575206
 20
4.889499999999998
 30
0.0
 11
41.47066025241873
 21
4.889499999999998
 31
0.0
 12
40.9203269190854
 22
1.587499999999999
 32
0.0
 13
40.9203269190854
 23
1.587499999999999
 33
0.0
  0
SOLID
  5
30F
330
305
100
AcDbEntity
  8
치수문자_일반주서
 62
     0
100
AcDbTrace
 10
41.47066025241873
 20
-4.889499999999991
 30
0.0
 11
40.36999358575206
 21
-4.889499999999991
 31
0.0
 12
40.9203269190854
 22
-1.587499999999991
 32
0.0
 13
40.9203269190854
 23
-1.587499999999991
 33
0.0
  0
MTEXT
  5
310
330
305
100
AcDbEntity
  8
치수문자_일반주서
 62
     0
100
AcDbMText
 10
38.2953269190854
 20
20.4415
 30
0.0
 40
3.5
 41
0.0
 71
     5
 72
     1
  1
\A1;{%%C3.18 [1/8]}
  7
SLDTEXTSTYLE0
 11
0.0
 21
1.0
 31
0.0
 73
     1
 44
1.0
  0
POINT
  5
311
330
305
100
AcDbEntity
  8
Defpoints
 62
     0
100
AcDbPoint
 10
15.95873319444036
 20
1.587499999999999
 30
0.0
  0
POINT
  5
312
330
305
100
AcDbEntity
  8
Defpoints
 62
     0
100
AcDbPoint
 10
17.79470978110836
 20
-1.587499999999991
 30
0.0
  0
POINT
  5
314
330
305
100
AcDbEntity
  8
Defpoints
 62
     0
100
AcDbPoint
 10
40.9203269190854
 20
-1.587499999999993
 30
0.0
  0
ENDBLK
  5
307
330
305
100
AcDbEntity
  8
0
100
AcDbBlockEnd
  0
BLOCK
  5
3F1
330
3F0
100
AcDbEntity
  8
0
100
AcDbBlockBegin
  2
*D18
 70
     1
 10
0.0
 20
0.0
 30
0.0
  3
*D18
  1
*D18
  0
LINE
  5
3F3
330
3F0
100
AcDbEntity
  8
치수문자_일반주서
 62
     0
370
    -2
100
AcDbLine
 10
16.80895802161209
 20
53.05727576695242
 30
0.0
 11
4.375000000000011
 21
53.05727576695237
 31
0.0
  0
LINE
  5
3F4
330
3F0
100
AcDbEntity
  8
치수문자_일반주서
 62
     0
370
    -2
100
AcDbLine
 10
16.80895802161209
 20
46.70727576695243
 30
0.0
 11
4.375000000000033
 21
46.70727576695238
 31
0.0
  0
LINE
  5
3F5
330
3F0
100
AcDbEntity
  8
치수문자_일반주서
 62
     0
370
    -2
100
AcDbLine
 10
4.375000000000022
 20
49.75527576695237
 30
0.0
 11
4.375000000000021
 21
50.00927576695238
 31
0.0
  0
SOLID
  5
3F6
330
3F0
100
AcDbEntity
  8
치수문자_일반주서
 62
     0
100
AcDbTrace
 10
4.925333333333356
 20
49.75527576695237
 30
0.0
 11
3.824666666666689
 21
49.75527576695237
 31
0.0
 12
4.375000000000011
 22
53.05727576695237
 32
0.0
 13
4.375000000000011
 23
53.05727576695237
 33
0.0
  0
SOLID
  5
3F7
330
3F0
100
AcDbEntity
  8
치수문자_일반주서
 62
     0
100
AcDbTrace
 10
3.824666666666688
 20
50.00927576695238
 30
0.0
 11
4.925333333333355
 21
50.00927576695238
 31
0.0
 12
4.375000000000033
 22
46.70727576695238
 32
0.0
 13
4.375000000000033
 23
46.70727576695238
 33
0.0
  0
MTEXT
  5
3F8
330
3F0
100
AcDbEntity
  8
치수문자_일반주서
 62
     0
100
AcDbMText
 10
0.0000000000000213
 20
49.88227576695241
 30
0.0
 40
3.5
 41
0.0
 71
     2
 72
     1
  1
\A1;%%c6.35 [0.25]
  7
SLDTEXTSTYLE0
 11
-3.496765431890260E-15
 21
1.0
 31
0.0
 73
     1
 44
1.0
  0
POINT
  5
3F9
330
3F0
100
AcDbEntity
  8
Defpoints
 62
     0
100
AcDbPoint
 10
16.87145802161209
 20
53.05727576695242
 30
0.0
  0
POINT
  5
3FA
330
3F0
100
AcDbEntity
  8
Defpoints
 62
     0
100
AcDbPoint
 10
16.87145802161209
 20
46.70727576695243
 30
0.0
  0
POINT
  5
3FB
330
3F0
100
AcDbEntity
  8
Defpoints
 62
     0
100
AcDbPoint
 10
4.375000000000021
 20
46.70727576695238
 30
0.0
  0
ENDBLK
  5
3F2
330
3F0
100
AcDbEntity
  8
0
100
AcDbBlockEnd
  0
BLOCK
  5
3FD
330
3FC
100
AcDbEntity
  8
0
100
AcDbBlockBegin
  2
*D19
 70
     1
 10
0.0
 20
0.0
 30
0.0
  3
*D19
  1
*D19
  0
LINE
  5
3FF
330
3FC
100
AcDbEntity
  8
치수문자_일반주서
 62
     0
370
    -2
100
AcDbLine
 10
16.3214580216121
 20
52.56977576695243
 30
0.0
 11
16.3214580216121
 21
92.71438749628338
 31
0.0
  0
LINE
  5
400
330
3FC
100
AcDbEntity
  8
치수문자_일반주서
 62
     0
370
    -2
100
AcDbLine
 10
76.64016034841119
 20
49.98675222298242
 30
0.0
 11
76.64016034841119
 21
92.71438749628338
 31
0.0
  0
LINE
  5
401
330
3FC
100
AcDbEntity
  8
치수문자_일반주서
 62
     0
370
    -2
100
AcDbLine
 10
19.62345802161209
 20
92.71438749628338
 30
0.0
 11
73.33816034841118
 21
92.71438749628338
 31
0.0
  0
SOLID
  5
402
330
3FC
100
AcDbEntity
  8
치수문자_일반주서
 62
     0
100
AcDbTrace
 10
19.62345802161209
 20
93.2647208296167
 30
0.0
 11
19.62345802161209
 21
92.16405416295005
 31
0.0
 12
16.3214580216121
 22
92.71438749628338
 32
0.0
 13
16.3214580216121
 23
92.71438749628338
 33
0.0
  0
SOLID
  5
403
330
3FC
100
AcDbEntity
  8
치수문자_일반주서
 62
     0
100
AcDbTrace
 10
73.33816034841118
 20
92.16405416295005
 30
0.0
 11
73.33816034841118
 21
93.2647208296167
 31
0.0
 12
76.64016034841119
 22
92.71438749628338
 32
0.0
 13
76.64016034841119
 23
92.71438749628338
 33
0.0
  0
MTEXT
  5
404
330
3FC
100
AcDbEntity
  8
치수문자_일반주서
 62
     0
100
AcDbMText
 10
42.31478703909683
 20
97.08938749628338
 30
0.0
 40
3.5
 41
0.0
 71
     2
 72
     1
  1
\A1;60.32 [2.37]
  7
SLDTEXTSTYLE0
 73
     1
 44
1.0
  0
POINT
  5
405
330
3FC
100
AcDbEntity
  8
Defpoints
 62
     0
100
AcDbPoint
 10
16.3214580216121
 20
52.50727576695243
 30
0.0
  0
POINT
  5
406
330
3FC
100
AcDbEntity
  8
Defpoints
 62
     0
100
AcDbPoint
 10
76.64016034841119
 20
49.92425222298242
 30
0.0
  0
POINT
  5
407
330
3FC
100
AcDbEntity
  8
Defpoints
 62
     0
100
AcDbPoint
 10
76.64016034841119
 20
92.71438749628338
 30
0.0
  0
ENDBLK
  5
3FE
330
3FC
100
AcDbEntity
  8
0
100
AcDbBlockEnd
  0
BLOCK
  5
409
330
408
100
AcDbEntity
  8
0
100
AcDbBlockBegin
  2
*D20
 70
     1
 10
0.0
 20
0.0
 30
0.0
  3
*D20
  1
*D20
  0
LINE
  5
40B
330
408
100
AcDbEntity
  8
치수문자_일반주서
 62
     0
370
    -2
100
AcDbLine
 10
71.8839580216121
 20
51.08777576695243
 30
0.0
 11
71.8839580216121
 21
80.35226861617166
 31
0.0
  0
LINE
  5
40C
330
408
100
AcDbEntity
  8
치수문자_일반주서
 62
     0
370
    -2
100
AcDbLine
 10
75.45583302161211
 20
49.94477576695243
 30
0.0
 11
75.45583302161211
 21
80.35226861617166
 31
0.0
  0
LINE
  5
40D
330
408
100
AcDbEntity
  8
치수문자_일반주서
 62
     0
370
    -2
100
AcDbLine
 10
75.18595802161211
 20
80.35226861617166
 30
0.0
 11
72.1538330216121
 21
80.35226861617166
 31
0.0
  0
SOLID
  5
40E
330
408
100
AcDbEntity
  8
치수문자_일반주서
 62
     0
100
AcDbTrace
 10
75.18595802161211
 20
80.90260194950498
 30
0.0
 11
75.18595802161211
 21
79.80193528283833
 31
0.0
 12
71.8839580216121
 22
80.35226861617166
 32
0.0
 13
71.8839580216121
 23
80.35226861617166
 33
0.0
  0
SOLID
  5
40F
330
408
100
AcDbEntity
  8
치수문자_일반주서
 62
     0
100
AcDbTrace
 10
72.1538330216121
 20
79.80193528283833
 30
0.0
 11
72.1538330216121
 21
80.90260194950498
 31
0.0
 12
75.45583302161211
 22
80.35226861617166
 32
0.0
 13
75.45583302161211
 23
80.35226861617166
 33
0.0
  0
MTEXT
  5
410
330
408
100
AcDbEntity
  8
치수문자_일반주서
 62
     0
100
AcDbMText
 10
73.67517827314563
 20
84.72726861617166
 30
0.0
 40
3.5
 41
0.0
 71
     2
 72
     1
  1
\A1;3.57 [0.14]
  7
SLDTEXTSTYLE0
 73
     1
 44
1.0
  0
POINT
  5
411
330
408
100
AcDbEntity
  8
Defpoints
 62
     0
100
AcDbPoint
 10
71.8839580216121
 20
51.02527576695243
 30
0.0
  0
POINT
  5
412
330
408
100
AcDbEntity
  8
Defpoints
 62
     0
100
AcDbPoint
 10
75.45583302161211
 20
49.88227576695243
 30
0.0
  0
POINT
  5
413
330
408
100
AcDbEntity
  8
Defpoints
 62
     0
100
AcDbPoint
 10
75.45583302161211
 20
80.35226861617166
 30
0.0
  0
ENDBLK
  5
40A
330
408
100
AcDbEntity
  8
0
100
AcDbBlockEnd
  0
BLOCK
  5
415
330
414
100
AcDbEntity
  8
0
100
AcDbBlockBegin
  2
*D21
 70
     1
 10
0.0
 20
0.0
 30
0.0
  3
*D21
  1
*D21
  0
LINE
  5
417
330
414
100
AcDbEntity
  8
치수문자_일반주서
 62
     0
370
    -2
100
AcDbLine
 10
73.47145802161211
 20
51.1312791971885
 30
0.0
 11
73.47145802161211
 21
74.88955979206355
 31
0.0
  0
LINE
  5
418
330
414
100
AcDbEntity
  8
치수문자_일반주서
 62
     0
370
    -2
100
AcDbLine
 10
76.64016034841119
 20
49.98675222298242
 30
0.0
 11
76.64016034841119
 21
74.88955979206355
 31
0.0
  0
LINE
  5
419
330
414
100
AcDbEntity
  8
치수문자_일반주서
 62
     0
370
    -2
100
AcDbLine
 10
76.77345802161211
 20
74.88955979206355
 30
0.0
 11
73.33816034841118
 21
74.88955979206355
 31
0.0
  0
SOLID
  5
41A
330
414
100
AcDbEntity
  8
치수문자_일반주서
 62
     0
100
AcDbTrace
 10
76.77345802161211
 20
75.43989312539688
 30
0.0
 11
76.77345802161211
 21
74.33922645873022
 31
0.0
 12
73.47145802161211
 22
74.88955979206355
 32
0.0
 13
73.47145802161211
 23
74.88955979206355
 33
0.0
  0
SOLID
  5
41B
330
414
100
AcDbEntity
  8
치수문자_일반주서
 62
     0
100
AcDbTrace
 10
73.33816034841118
 20
74.33922645873022
 30
0.0
 11
73.33816034841118
 21
75.43989312539688
 31
0.0
 12
76.64016034841119
 22
74.88955979206355
 32
0.0
 13
76.64016034841119
 23
74.88955979206355
 33
0.0
  0
MTEXT
  5
41C
330
414
100
AcDbEntity
  8
치수문자_일반주서
 62
     0
100
AcDbMText
 10
75.26774306336506
 20
79.26455979206355
 30
0.0
 40
3.5
 41
0.0
 71
     2
 72
     1
  1
\A1;3.17 [0.12]
  7
SLDTEXTSTYLE0
 73
     1
 44
1.0
  0
POINT
  5
41D
330
414
100
AcDbEntity
  8
Defpoints
 62
     0
100
AcDbPoint
 10
73.47145802161211
 20
51.0687791971885
 30
0.0
  0
POINT
  5
41E
330
414
100
AcDbEntity
  8
Defpoints
 62
     0
100
AcDbPoint
 10
76.64016034841119
 20
49.92425222298242
 30
0.0
  0
POINT
  5
41F
330
414
100
AcDbEntity
  8
Defpoints
 62
     0
100
AcDbPoint
 10
76.64016034841119
 20
74.88955979198013
 30
0.0
  0
ENDBLK
  5
416
330
414
100
AcDbEntity
  8
0
100
AcDbBlockEnd
  0
BLOCK
  5
466
330
465
100
AcDbEntity
  8
0
100
AcDbBlockBegin
  2
*D22
 70
     1
 10
0.0
 20
0.0
 30
0.0
  3
*D22
  1
*D22
  0
LINE
  5
468
330
465
100
AcDbEntity
  8
치수문자_일반주서
 62
     0
370
    -2
100
AcDbLine
 10
-40.24545692218038
 20
3.17499999999999
 30
0.0
 11
-52.67941494379244
 21
3.174999999999943
 31
0.0
  0
LINE
  5
469
330
465
100
AcDbEntity
  8
치수문자_일반주서
 62
     0
370
    -2
100
AcDbLine
 10
-40.24545692218038
 20
-3.175000000000005
 30
0.0
 11
-52.67941494379242
 21
-3.175000000000052
 31
0.0
  0
LINE
  5
46A
330
465
100
AcDbEntity
  8
치수문자_일반주서
 62
     0
370
    -2
100
AcDbLine
 10
-52.67941494379243
 20
-0.1270000000000575
 30
0.0
 11
-52.67941494379244
 21
0.1269999999999483
 31
0.0
  0
SOLID
  5
46B
330
465
100
AcDbEntity
  8
치수문자_일반주서
 62
     0
100
AcDbTrace
 10
-52.1290816104591
 20
-0.1270000000000557
 30
0.0
 11
-53.22974827712576
 21
-0.1270000000000594
 31
0.0
 12
-52.67941494379244
 22
3.174999999999943
 32
0.0
 13
-52.67941494379244
 23
3.174999999999943
 33
0.0
  0
SOLID
  5
46C
330
465
100
AcDbEntity
  8
치수문자_일반주서
 62
     0
100
AcDbTrace
 10
-53.22974827712577
 20
0.1269999999999464
 30
0.0
 11
-52.1290816104591
 21
0.1269999999999501
 31
0.0
 12
-52.67941494379242
 22
-3.175000000000052
 32
0.0
 13
-52.67941494379242
 23
-3.175000000000052
 33
0.0
  0
MTEXT
  5
46D
330
465
100
AcDbEntity
  8
치수문자_일반주서
 62
     0
100
AcDbMText
 10
-57.05441494379244
 20
-0.0000000000000216
 30
0.0
 40
3.5
 41
0.0
 71
     2
 72
     1
  1
\A1;%%c6.35 [1/4]
  7
SLDTEXTSTYLE0
 11
-3.356894814614650E-15
 21
1.0
 31
0.0
 73
     1
 44
1.0
  0
POINT
  5
46E
330
465
100
AcDbEntity
  8
Defpoints
 62
     0
100
AcDbPoint
 10
-40.18295692218038
 20
3.17499999999999
 30
0.0
  0
POINT
  5
46F
330
465
100
AcDbEntity
  8
Defpoints
 62
     0
100
AcDbPoint
 10
-40.18295692218038
 20
-3.175000000000004
 30
0.0
  0
POINT
  5
470
330
465
100
AcDbEntity
  8
Defpoints
 62
     0
100
AcDbPoint
 10
-52.67941494379242
 20
-3.175000000000051
 30
0.0
  0
ENDBLK
  5
467
330
465
100
AcDbEntity
  8
0
100
AcDbBlockEnd
  0
BLOCK
  5
472
330
471
100
AcDbEntity
  8
0
100
AcDbBlockBegin
  2
*D23
 70
     1
 10
0.0
 20
0.0
 30
0.0
  3
*D23
  1
*D23
  0
LINE
  5
474
330
471
100
AcDbEntity
  8
치수문자_일반주서
 62
     0
370
    -2
100
AcDbLine
 10
-40.73295692218036
 20
2.687499999999993
 30
0.0
 11
-40.73295692218036
 21
42.83211172933095
 31
0.0
  0
LINE
  5
475
330
471
100
AcDbEntity
  8
치수문자_일반주서
 62
     0
370
    -2
100
AcDbLine
 10
19.59204307781964
 20
0.0625
 30
0.0
 11
19.59204307781964
 21
42.83211172933095
 31
0.0
  0
LINE
  5
476
330
471
100
AcDbEntity
  8
치수문자_일반주서
 62
     0
370
    -2
100
AcDbLine
 10
-37.43095692218036
 20
42.83211172933095
 30
0.0
 11
16.29004307781964
 21
42.83211172933095
 31
0.0
  0
SOLID
  5
477
330
471
100
AcDbEntity
  8
치수문자_일반주서
 62
     0
100
AcDbTrace
 10
-37.43095692218036
 20
43.38244506266428
 30
0.0
 11
-37.43095692218036
 21
42.28177839599761
 31
0.0
 12
-40.73295692218036
 22
42.83211172933095
 32
0.0
 13
-40.73295692218036
 23
42.83211172933095
 33
0.0
  0
SOLID
  5
478
330
471
100
AcDbEntity
  8
치수문자_일반주서
 62
     0
100
AcDbTrace
 10
16.29004307781964
 20
42.28177839599761
 30
0.0
 11
16.29004307781964
 21
43.38244506266428
 31
0.0
 12
19.59204307781964
 22
42.83211172933095
 32
0.0
 13
19.59204307781964
 23
42.83211172933095
 33
0.0
  0
MTEXT
  5
479
330
471
100
AcDbEntity
  8
치수문자_일반주서
 62
     0
100
AcDbMText
 10
-14.73962790469562
 20
47.20711172933095
 30
0.0
 40
3.5
 41
0.0
 71
     2
 72
     1
  1
\A1;60.33 [2 3/8]
  7
SLDTEXTSTYLE0
 73
     1
 44
1.0
  0
POINT
  5
47A
330
471
100
AcDbEntity
  8
Defpoints
 62
     0
100
AcDbPoint
 10
-40.73295692218036
 20
2.624999999999993
 30
0.0
  0
POINT
  5
47B
330
471
100
AcDbEntity
  8
Defpoints
 62
     0
100
AcDbPoint
 10
19.59204307781964
 20
0.0
 30
0.0
  0
POINT
  5
47C
330
471
100
AcDbEntity
  8
Defpoints
 62
     0
100
AcDbPoint
 10
19.59204307781964
 20
42.83211172933095
 30
0.0
  0
ENDBLK
  5
473
330
471
100
AcDbEntity
  8
0
100
AcDbBlockEnd
  0
BLOCK
  5
47E
330
47D
100
AcDbEntity
  8
0
100
AcDbBlockBegin
  2
*D24
 70
     1
 10
0.0
 20
0.0
 30
0.0
  3
*D24
  1
*D24
  0
LINE
  5
480
330
47D
100
AcDbEntity
  8
치수문자_일반주서
 62
     0
370
    -2
100
AcDbLine
 10
14.82954307781964
 20
1.205500000000001
 30
0.0
 11
14.82954307781964
 21
34.84499284921922
 31
0.0
  0
LINE
  5
481
330
47D
100
AcDbEntity
  8
치수문자_일반주서
 62
     0
370
    -2
100
AcDbLine
 10
19.59204307781964
 20
0.0625
 30
0.0
 11
19.59204307781964
 21
34.84499284921922
 31
0.0
  0
LINE
  5
482
330
47D
100
AcDbEntity
  8
치수문자_일반주서
 62
     0
370
    -2
100
AcDbLine
 10
18.13154307781964
 20
34.84499284921922
 30
0.0
 11
16.29004307781964
 21
34.84499284921922
 31
0.0
  0
SOLID
  5
483
330
47D
100
AcDbEntity
  8
치수문자_일반주서
 62
     0
100
AcDbTrace
 10
18.13154307781964
 20
35.39532618255256
 30
0.0
 11
18.13154307781964
 21
34.29465951588589
 31
0.0
 12
14.82954307781964
 22
34.84499284921922
 32
0.0
 13
14.82954307781964
 23
34.84499284921922
 33
0.0
  0
SOLID
  5
484
330
47D
100
AcDbEntity
  8
치수문자_일반주서
 62
     0
100
AcDbTrace
 10
16.29004307781964
 20
34.29465951588589
 30
0.0
 11
16.29004307781964
 21
35.39532618255256
 31
0.0
 12
19.59204307781964
 22
34.84499284921922
 32
0.0
 13
19.59204307781964
 23
34.84499284921922
 33
0.0
  0
MTEXT
  5
485
330
47D
100
AcDbEntity
  8
치수문자_일반주서
 62
     0
100
AcDbMText
 10
17.21079307781964
 20
39.21999284921922
 30
0.0
 40
3.5
 41
0.0
 71
     2
 72
     1
  1
\A1;4.76 [3/16]
  7
SLDTEXTSTYLE0
 73
     1
 44
1.0
  0
POINT
  5
486
330
47D
100
AcDbEntity
  8
Defpoints
 62
     0
100
AcDbPoint
 10
14.82954307781964
 20
1.143000000000001
 30
0.0
  0
POINT
  5
487
330
47D
100
AcDbEntity
  8
Defpoints
 62
     0
100
AcDbPoint
 10
19.59204307781964
 20
0.0
 30
0.0
  0
POINT
  5
488
330
47D
100
AcDbEntity
  8
Defpoints
 62
     0
100
AcDbPoint
 10
19.59204307781964
 20
34.84499284921922
 30
0.0
  0
ENDBLK
  5
47F
330
47D
100
AcDbEntity
  8
0
100
AcDbBlockEnd
  0
BLOCK
  5
48A
330
489
100
AcDbEntity
  8
0
100
AcDbBlockBegin
  2
*D25
 70
     1
 10
0.0
 20
0.0
 30
0.0
  3
*D25
  1
*D25
  0
LINE
  5
48C
330
489
100
AcDbEntity
  8
치수문자_일반주서
 62
     0
370
    -2
100
AcDbLine
 10
16.41704307781964
 20
1.249003430236066
 30
0.0
 11
16.41704307781964
 21
24.73211735844445
 31
0.0
  0
LINE
  5
48D
330
489
100
AcDbEntity
  8
치수문자_일반주서
 62
     0
370
    -2
100
AcDbLine
 10
19.59204307781964
 20
0.0625
 30
0.0
 11
19.59204307781964
 21
24.73211735844445
 31
0.0
  0
LINE
  5
48E
330
489
100
AcDbEntity
  8
치수문자_일반주서
 62
     0
370
    -2
100
AcDbLine
 10
16.41704307781964
 20
24.73211735844445
 30
0.0
 11
19.59204307781964
 21
24.73211735844445
 31
0.0
  0
LINE
  5
48F
330
489
100
AcDbEntity
  8
치수문자_일반주서
 62
     0
370
    -2
100
AcDbLine
 10
13.11504307781964
 20
24.73211735844445
 30
0.0
 11
9.813043077819643
 21
24.73211735844445
 31
0.0
  0
LINE
  5
490
330
489
100
AcDbEntity
  8
치수문자_일반주서
 62
     0
370
    -2
100
AcDbLine
 10
22.89404307781964
 20
24.73211735844445
 30
0.0
 11
26.19604307781964
 21
24.73211735844445
 31
0.0
  0
SOLID
  5
491
330
489
100
AcDbEntity
  8
치수문자_일반주서
 62
     0
100
AcDbTrace
 10
13.11504307781964
 20
24.18178402511112
 30
0.0
 11
13.11504307781964
 21
25.28245069177779
 31
0.0
 12
16.41704307781964
 22
24.73211735844445
 32
0.0
 13
16.41704307781964
 23
24.73211735844445
 33
0.0
  0
SOLID
  5
492
330
489
100
AcDbEntity
  8
치수문자_일반주서
 62
     0
100
AcDbTrace
 10
22.89404307781964
 20
25.28245069177779
 30
0.0
 11
22.89404307781964
 21
24.18178402511112
 31
0.0
 12
19.59204307781964
 22
24.73211735844445
 32
0.0
 13
19.59204307781964
 23
24.73211735844445
 33
0.0
  0
MTEXT
  5
493
330
489
100
AcDbEntity
  8
치수문자_일반주서
 62
     0
100
AcDbMText
 10
17.94104307781964
 20
29.10711735844445
 30
0.0
 40
3.5
 41
0.0
 71
     2
 72
     1
  1
\A1;3.18 [1/8]
  7
SLDTEXTSTYLE0
 73
     1
 44
1.0
  0
POINT
  5
494
330
489
100
AcDbEntity
  8
Defpoints
 62
     0
100
AcDbPoint
 10
16.41704307781964
 20
1.186503430236066
 30
0.0
  0
POINT
  5
497
330
489
100
AcDbEntity
  8
Defpoints
 62
     0
100
AcDbPoint
 10
19.59204307781964
 20
0.0
 30
0.0
  0
POINT
  5
4AF
330
489
100
AcDbEntity
  8
Defpoints
 62
     0
100
AcDbPoint
 10
19.59204307781964
 20
24.73211735844445
 30
0.0
  0
ENDBLK
  5
48B
330
489
100
AcDbEntity
  8
0
100
AcDbBlockEnd
  0
BLOCK
  5
4A0
330
49F
100
AcDbEntity
  8
0
100
AcDbBlockBegin
  2
*D26
 70
     1
 10
0.0
 20
0.0
 30
0.0
  3
*D26
  1
*D26
  0
LINE
  5
4A2
330
49F
100
AcDbEntity
  8
치수문자_일반주서
 62
     0
370
    -2
100
AcDbLine
 10
16.47954307781956
 20
1.186503430236073
 30
0.0
 11
40.32860373139216
 21
1.186503430236073
 31
0.0
  0
LINE
  5
4A3
330
49F
100
AcDbEntity
  8
치수문자_일반주서
 62
     0
370
    -2
100
AcDbLine
 10
17.72382338321499
 20
-1.190624999999997
 30
0.0
 11
40.32860373139216
 21
-1.190624999999997
 31
0.0
  0
LINE
  5
4A4
330
49F
100
AcDbEntity
  8
치수문자_일반주서
 62
     0
370
    -2
100
AcDbLine
 10
40.32860373139216
 20
1.186503430236073
 30
0.0
 11
40.32860373139216
 21
43.76337790790353
 31
0.0
  0
LINE
  5
4A5
330
49F
100
AcDbEntity
  8
치수문자_일반주서
 62
     0
370
    -2
100
AcDbLine
 10
40.32860373139216
 20
1.186503430236073
 30
0.0
 11
40.32860373139216
 21
-1.190624999999997
 31
0.0
  0
LINE
  5
4A6
330
49F
100
AcDbEntity
  8
치수문자_일반주서
 62
     0
370
    -2
100
AcDbLine
 10
40.32860373139216
 20
4.488503430236072
 30
0.0
 11
40.32860373139216
 21
7.790503430236072
 31
0.0
  0
LINE
  5
4A7
330
49F
100
AcDbEntity
  8
치수문자_일반주서
 62
     0
370
    -2
100
AcDbLine
 10
40.32860373139216
 20
-4.492624999999997
 30
0.0
 11
40.32860373139216
 21
-7.794624999999996
 31
0.0
  0
SOLID
  5
4A8
330
49F
100
AcDbEntity
  8
치수문자_일반주서
 62
     0
100
AcDbTrace
 10
39.77827039805883
 20
4.488503430236072
 30
0.0
 11
40.8789370647255
 21
4.488503430236072
 31
0.0
 12
40.32860373139216
 22
1.186503430236073
 32
0.0
 13
40.32860373139216
 23
1.186503430236073
 33
0.0
  0
SOLID
  5
4A9
330
49F
100
AcDbEntity
  8
치수문자_일반주서
 62
     0
100
AcDbTrace
 10
40.8789370647255
 20
-4.492624999999997
 30
0.0
 11
39.77827039805883
 21
-4.492624999999997
 31
0.0
 12
40.32860373139216
 22
-1.190624999999997
 32
0.0
 13
40.32860373139216
 23
-1.190624999999997
 33
0.0
  0
MTEXT
  5
4AA
330
49F
100
AcDbEntity
  8
치수문자_일반주서
 62
     0
100
AcDbMText
 10
37.70360373139216
 20
29.32587790790353
 30
0.0
 40
3.5
 41
0.0
 71
     5
 72
     1
  1
\A1;{%%C2.38 [3/32]}
  7
SLDTEXTSTYLE0
 11
0.0
 21
1.0
 31
0.0
 73
     1
 44
1.0
  0
POINT
  5
4AB
330
49F
100
AcDbEntity
  8
Defpoints
 62
     0
100
AcDbPoint
 10
16.41704307781956
 20
1.186503430236073
 30
0.0
  0
POINT
  5
4AC
330
49F
100
AcDbEntity
  8
Defpoints
 62
     0
100
AcDbPoint
 10
17.66132338321499
 20
-1.190624999999997
 30
0.0
  0
POINT
  5
4AE
330
49F
100
AcDbEntity
  8
Defpoints
 62
     0
100
AcDbPoint
 10
40.32860373139216
 20
-1.190624999999998
 30
0.0
  0
ENDBLK
  5
4A1
330
49F
100
AcDbEntity
  8
0
100
AcDbBlockEnd
  0
ENDSEC
  0
SECTION
  2
ENTITIES
  0
LINE
  5
421
330
1F
100
AcDbEntity
  8
0
  6
Continuous
 62
     4
370
    15
100
AcDbLine
 10
2.0
 20
3.174999999999997
 30
0.0
 11
-40.18295692218038
 21
3.17499999999999
 31
0.0
  0
LINE
  5
422
330
1F
100
AcDbEntity
  8
0
  6
Continuous
 62
     4
370
    15
100
AcDbLine
 10
-40.18295692218038
 20
-3.175000000000004
 30
0.0
 11
2.0
 21
-3.174999999999997
 31
0.0
  0
LINE
  5
423
330
1F
100
AcDbEntity
  8
0
  6
Continuous
 62
     4
370
    15
100
AcDbLine
 10
-40.18295692218038
 20
3.17499999999999
 30
0.0
 11
-40.73295692218036
 21
2.624999999999993
 31
0.0
  0
LINE
  5
424
330
1F
100
AcDbEntity
  8
0
  6
Continuous
 62
     4
370
    15
100
AcDbLine
 10
-40.73295692218036
 20
-2.625000000000007
 30
0.0
 11
-40.18295692218038
 21
-3.175000000000011
 31
0.0
  0
LINE
  5
425
330
1F
100
AcDbEntity
  8
0
  6
Continuous
 62
     4
370
    15
100
AcDbLine
 10
2.0
 20
-3.174999999999997
 30
0.0
 11
14.82954307781964
 21
-1.143000000000001
 31
0.0
  0
LINE
  5
426
330
1F
100
AcDbEntity
  8
0
  6
Continuous
 62
     4
370
    15
100
AcDbLine
 10
14.82954307781964
 20
1.143000000000001
 30
0.0
 11
2.0
 21
3.174999999999997
 31
0.0
  0
LINE
  5
427
330
1F
100
AcDbEntity
  8
0
  6
Continuous
 62
     4
370
    15
100
AcDbLine
 10
15.52692499543537
 20
1.143000000000001
 30
0.0
 11
14.82954307781964
 21
1.143000000000001
 31
0.0
  0
LINE
  5
428
330
1F
100
AcDbEntity
  8
0
  6
Continuous
 62
     4
370
    15
100
AcDbLine
 10
16.29226630493002
 20
1.143000000000001
 30
0.0
 11
15.72326838584476
 21
1.143000000000001
 31
0.0
  0
LINE
  5
429
330
1F
100
AcDbEntity
  8
0
  6
Continuous
 62
     4
370
    15
100
AcDbLine
 10
14.82954307781964
 20
-1.143000000000001
 30
0.0
 11
15.52692499543537
 21
-1.143000000000001
 31
0.0
  0
ARC
  5
42A
330
1F
100
AcDbEntity
  8
0
  6
Continuous
 62
     1
370
    15
100
AcDbCircle
 10
18.40141807781964
 20
0.0
 30
0.0
 40
1.190625000000001
100
AcDbArc
 50
353.5800701243586
 51
0.0
  0
ARC
  5
42B
330
1F
100
AcDbEntity
  8
0
  6
Continuous
 62
     1
370
    15
100
AcDbCircle
 10
18.40141807781964
 20
0.0
 30
0.0
 40
1.190625000000001
100
AcDbArc
 50
0.0
 51
60.02542973212216
  0
LINE
  5
42C
102
{ACAD_REACTORS
102
}
330
1F
100
AcDbEntity
  8
0
  6
Continuous
 62
     1
370
    15
100
AcDbLine
 10
17.38441319434071
 20
-1.190624999999997
 30
0.0
 11
17.93823357208927
 21
-1.190624999999997
 31
0.0
  0
LINE
  5
42D
330
1F
100
AcDbEntity
  8
0
  6
Continuous
 62
     4
370
    15
100
AcDbLine
 10
2.0
 20
3.174999999999997
 30
0.0
 11
2.0
 21
-3.174999999999997
 31
0.0
  0
LINE
  5
42E
330
1F
100
AcDbEntity
  8
0
  6
Continuous
 62
     4
370
    15
100
AcDbLine
 10
-40.18295692218038
 20
3.17499999999999
 30
0.0
 11
-40.18295692218038
 21
-3.175000000000004
 31
0.0
  0
LINE
  5
42F
330
1F
100
AcDbEntity
  8
0
  6
Continuous
 62
     4
370
    15
100
AcDbLine
 10
-40.73295692218036
 20
2.624999999999993
 30
0.0
 11
-40.73295692218036
 21
-2.625000000000007
 31
0.0
  0
LINE
  5
430
330
1F
100
AcDbEntity
  8
0
  6
Continuous
 62
     4
370
    15
100
AcDbLine
 10
14.82954307781964
 20
1.143000000000001
 30
0.0
 11
14.82954307781964
 21
-1.143000000000001
 31
0.0
  0
LINE
  5
431
330
1F
100
AcDbEntity
  8
0
  6
Continuous
 62
     4
370
    15
100
AcDbLine
 10
16.41704307781953
 20
1.139431550563849
 30
0.0
 11
16.29226630493002
 21
1.132384222917025
 31
0.0
  0
LINE
  5
432
330
1F
100
AcDbEntity
  8
0
  6
Continuous
 62
     1
370
    15
100
AcDbLine
 10
16.41704307781964
 20
1.079810079648233
 30
0.0
 11
16.41704307781964
 21
1.034590368644174
 31
0.0
  0
SPLINE
  5
433
330
1F
100
AcDbEntity
  8
0
  6
Continuous
 62
     4
370
    15
100
AcDbSpline
210
0.0
220
0.0
230
1.0
 70
     8
 71
     3
 72
    12
 73
     8
 74
     0
 42
0.000000001
 43
0.00000001
 40
0.0
 40
0.0
 40
0.0
 40
0.0
 40
0.2499999999999999
 40
0.2499999999999999
 40
0.4999999999999998
 40
0.4999999999999998
 40
1.0
 40
1.0
 40
1.0
 40
1.0
 10
15.52700008745239
 20
1.134262470998756
 30
0.0
 10
15.60176121422722
 20
1.140895468655224
 30
0.0
 10
15.67667912603866
 20
1.143752343092899
 30
0.0
 10
15.82461536386262
 20
1.141909192210015
 30
0.0
 10
15.89677486129506
 20
1.137264413510628
 30
0.0
 10
16.11821920188055
 20
1.112102552222069
 30
0.0
 10
16.26998404301074
 20
1.080032731875946
 30
0.0
 10
16.41704307781981
 20
1.034590368644125
 30
0.0
  0
SPLINE
  5
434
330
1F
100
AcDbEntity
  8
0
  6
Continuous
 62
     4
370
    15
100
AcDbSpline
210
0.0
220
0.0
230
1.0
 70
     8
 71
     3
 72
    12
 73
     8
 74
     0
 42
0.000000001
 43
0.00000001
 40
0.0
 40
0.0
 40
0.0
 40
0.0
 40
0.5
 40
0.5
 40
0.75
 40
0.75
 40
1.0
 40
1.0
 40
1.0
 40
1.0
 10
16.41704307781953
 20
-0.647873028206746
 30
0.0
 10
16.26997173384231
 20
-0.5597953370356734
 30
0.0
 10
16.11819379904716
 20
-0.4621323102984647
 30
0.0
 10
15.89673195669019
 20
-0.3097579848911849
 30
0.0
 10
15.82456630818302
 20
-0.2581690787911484
 30
0.0
 10
15.6766167380319
 20
-0.152791811556547
 30
0.0
 10
15.60169227317772
 20
-0.0991983193225607
 30
0.0
 10
15.52692499543537
 20
-0.0454893093630844
 30
0.0
  0
SPLINE
  5
435
330
1F
100
AcDbEntity
  8
0
  6
Continuous
 62
     4
370
    15
100
AcDbSpline
210
0.0
220
0.0
230
1.0
 70
     8
 71
     3
 72
    12
 73
     8
 74
     0
 42
0.000000001
 43
0.00000001
 40
0.0
 40
0.0
 40
0.0
 40
0.0
 40
0.2499999999999998
 40
0.2499999999999998
 40
0.5
 40
0.5
 40
1.0
 40
1.0
 40
1.0
 40
1.0
 10
15.52700008745239
 20
-0.4449705414818226
 30
0.0
 10
15.60176121422722
 20
-0.4944775951308742
 30
0.0
 10
15.67667912603866
 20
-0.5425347462250798
 30
0.0
 10
15.82461536386262
 20
-0.6343622734592813
 30
0.0
 10
15.89677486129506
 20
-0.6779814644733193
 30
0.0
 10
16.11821920188055
 20
-0.8027307531106089
 30
0.0
 10
16.26998404301074
 20
-0.8769951833737011
 30
0.0
 10
16.41704307781981
 20
-0.93807282967839
 30
0.0
  0
LINE
  5
436
330
1F
100
AcDbEntity
  8
0
  6
Continuous
 62
     4
370
    15
100
AcDbLine
 10
15.52692499543537
 20
-1.143000000000001
 30
0.0
 11
15.52692499543537
 21
-0.4449101666769408
 31
0.0
  0
LINE
  5
437
330
1F
100
AcDbEntity
  8
0
  6
Continuous
 62
     4
370
    15
100
AcDbLine
 10
15.86335585604189
 20
-0.81224003948995
 30
0.0
 11
15.52692499543537
 21
-0.9663381487531595
 31
0.0
  0
LINE
  5
438
330
1F
100
AcDbEntity
  8
0
  6
Continuous
 62
     4
370
    15
100
AcDbLine
 10
15.52692499543537
 20
-0.0455503478937658
 30
0.0
 11
15.52692499543537
 21
1.143000000000001
 31
0.0
  0
SPLINE
  5
439
330
1F
100
AcDbEntity
  8
0
  6
Continuous
 62
     4
370
    15
100
AcDbSpline
210
0.0
220
0.0
230
1.0
 70
    24
 71
     3
 72
    12
 73
     8
 74
     0
 42
0.000000001
 43
0.00000001
 40
0.0
 40
0.0
 40
0.0
 40
0.0
 40
0.4999999999999999
 40
0.4999999999999999
 40
0.75
 40
0.75
 40
1.0
 40
1.0
 40
1.0
 40
1.0
 10
16.41704307781964
 20
0.2147996750941132
 30
0.0
 10
16.41704307781964
 20
0.106786963263616
 30
0.0
 10
16.41704307781964
 20
-0.0388782204697549
 30
0.0
 10
16.41704307781964
 20
-0.2797735828591428
 30
0.0
 10
16.41704307781964
 20
-0.3626727052646075
 30
0.0
 10
16.41704307781964
 20
-0.5175525437513429
 30
0.0
 10
16.41704307781964
 20
-0.5891712335578063
 30
0.0
 10
16.41704307781964
 20
-0.6478730282031293
 30
0.0
  0
SPLINE
  5
43A
330
1F
100
AcDbEntity
  8
0
  6
Continuous
 62
     4
370
    15
100
AcDbSpline
210
0.0
220
0.0
230
1.0
 70
     8
 71
     3
 72
    12
 73
     8
 74
     0
 42
0.000000001
 43
0.00000001
 40
0.0
 40
0.0
 40
0.0
 40
0.0
 40
0.5000000000000002
 40
0.5000000000000002
 40
0.7500000000000001
 40
0.7500000000000001
 40
1.0
 40
1.0
 40
1.0
 40
1.0
 10
16.41704307776183
 20
0.2147996751232668
 30
0.0
 10
16.269971733793
 20
0.2889646486607305
 30
0.0
 10
16.118193799008
 20
0.3610247716831623
 30
0.0
 10
15.89673195666634
 20
0.4596351886009202
 30
0.0
 10
15.82456630816381
 20
0.490869188940934
 30
0.0
 10
15.67661673802212
 20
0.5504220728479936
 30
0.0
 10
15.60169227317283
 20
0.5786020284362365
 30
0.0
 10
15.52692499543537
 20
0.6047483926164432
 30
0.0
  0
SPLINE
  5
43B
330
1F
100
AcDbEntity
  8
0
  6
Continuous
 62
     4
370
    15
100
AcDbSpline
210
0.0
220
0.0
230
1.0
 70
     8
 71
     3
 72
     9
 73
     5
 74
     0
 42
0.000000001
 43
0.00000001
 40
0.0
 40
0.0
 40
0.0
 40
0.0
 40
0.27796246769197
 40
1.0
 40
1.0
 40
1.0
 40
1.0
 10
16.14149104392425
 20
-0.8108651439130057
 30
0.0
 10
16.08450435537344
 20
-0.8154855789507636
 30
0.0
 10
15.87948858823046
 20
-0.8321080930481557
 30
0.0
 10
15.67475228824833
 20
-0.8040986445234211
 30
0.0
 10
15.52692499543537
 20
-0.7838747714293177
 30
0.0
  0
SPLINE
  5
43C
330
1F
100
AcDbEntity
  8
0
  6
Continuous
 62
     4
370
    15
100
AcDbSpline
210
0.0
220
0.0
230
1.0
 70
    24
 71
     3
 72
    12
 73
     8
 74
     0
 42
0.000000001
 43
0.00000001
 40
0.0
 40
0.0
 40
0.0
 40
0.0
 40
0.2500000000000001
 40
0.2500000000000001
 40
0.5000000000000002
 40
0.5000000000000002
 40
1.0
 40
1.0
 40
1.0
 40
1.0
 10
16.41704307781964
 20
1.034590368646057
 30
0.0
 10
16.41704307781964
 20
0.9515023766829103
 30
0.0
 10
16.41704307781964
 20
0.8624169834761659
 30
0.0
 10
16.41704307781964
 20
0.689622639237605
 30
0.0
 10
16.41704307781964
 20
0.6062368085936782
 30
0.0
 10
16.41704307781964
 20
0.3847745604458197
 30
0.0
 10
16.41704307781964
 20
0.2790507481660072
 30
0.0
 10
16.41704307781964
 20
0.2147996750941203
 30
0.0
  0
SPLINE
  5
43D
330
1F
100
AcDbEntity
  8
0
  6
Continuous
 62
     1
370
    15
100
AcDbSpline
210
0.0
220
0.0
230
1.0
 70
     8
 71
     3
 72
    20
 73
    16
 74
     0
 42
0.000000001
 43
0.00000001
 40
0.0
 40
0.0
 40
0.0
 40
0.0
 40
0.2500000000000003
 40
0.2500000000000003
 40
0.3750000000000003
 40
0.3750000000000003
 40
0.5000000000000004
 40
0.5000000000000004
 40
0.6250000000000002
 40
0.6250000000000002
 40
0.7500000000000001
 40
0.7500000000000001
 40
0.8750000000000001
 40
0.8750000000000001
 40
1.0
 40
1.0
 40
1.0
 40
1.0
 10
18.40141807781964
 20
0.2725032123489868
 30
0.0
 10
18.509166276521
 20
0.19290069139727
 30
0.0
 10
18.6156846578217
 20
0.1106319905265352
 30
0.0
 10
18.77835244071156
 20
-0.0019222217106787
 30
0.0
 10
18.83195367401686
 20
-0.0367821317124282
 30
0.0
 10
18.94008098525615
 20
-0.0973083165524145
 30
0.0
 10
18.99457290061599
 20
-0.1231627007990284
 30
0.0
 10
19.1025392059307
 20
-0.1536074383855777
 30
0.0
 10
19.15696424405411
 20
-0.1585472566077826
 30
0.0
 10
19.25611274174469
 20
-0.1289376527010333
 30
0.0
 10
19.30027386190508
 20
-0.0915464651579185
 30
0.0
 10
19.35145213654749
 20
0.0196896594841718
 30
0.0
 10
19.35799601408434
 20
0.0892875346516888
 30
0.0
 10
19.34498217024719
 20
0.2232374382517364
 30
0.0
 10
19.32651054731278
 20
0.288834732493811
 30
0.0
 10
19.30124922274624
 20
0.3515613374658813
 30
0.0
  0
SPLINE
  5
43E
102
{ACAD_REACTORS
102
}
330
1F
100
AcDbEntity
  8
0
  6
Continuous
 62
     1
370
    15
100
AcDbSpline
210
0.0
220
0.0
230
1.0
 70
     8
 71
     3
 72
    20
 73
    16
 74
     0
 42
0.000000001
 43
0.00000001
 40
0.0
 40
0.0
 40
0.0
 40
0.0
 40
0.1250000000000001
 40
0.1250000000000001
 40
0.2500000000000002
 40
0.2500000000000002
 40
0.3750000000000002
 40
0.3750000000000002
 40
0.5000000000000003
 40
0.5000000000000003
 40
0.75
 40
0.75
 40
0.875
 40
0.875
 40
1.0
 40
1.0
 40
1.0
 40
1.0
 10
18.4014180778197
 20
0.2725032123488873
 30
0.0
 10
18.31953981660155
 20
0.3329934672456289
 30
0.0
 10
18.23809588639938
 20
0.3922709583388126
 30
0.0
 10
18.07162768722398
 20
0.5079569437898073
 30
0.0
 10
17.98768670119318
 20
0.5640911297336118
 30
0.0
 10
17.821495227909
 20
0.670873156915043
 30
0.0
 10
17.74049353952242
 20
0.7212832296965175
 30
0.0
 10
17.57619244776566
 20
0.8162866525582544
 30
0.0
 10
17.49257437224264
 20
0.8609024240651664
 30
0.0
 10
17.24191522141069
 20
0.9834523662105212
 30
0.0
 10
17.08002944377262
 20
1.049431169907344
 30
0.0
 10
16.83032095347167
 20
1.121988967148091
 30
0.0
 10
16.7463801775792
 20
1.141679560303011
 30
0.0
 10
16.58019364699709
 20
1.171357770075211
 30
0.0
 10
16.49919789172787
 20
1.181331676495226
 30
0.0
 10
16.41704307781956
 20
1.186503430236073
 30
0.0
  0
SPLINE
  5
43F
330
1F
100
AcDbEntity
  8
0
  6
Continuous
 62
     1
370
    15
100
AcDbSpline
210
0.0
220
0.0
230
1.0
 70
     8
 71
     3
 72
    11
 73
     7
 74
     0
 42
0.000000001
 43
0.00000001
 40
0.0
 40
0.0
 40
0.0
 40
0.0
 40
0.1960907067995126
 40
0.5922136779274606
 40
0.9884751242770466
 40
1.0
 40
1.0
 40
1.0
 40
1.0
 10
18.82625772432974
 20
0.608536097275163
 30
0.0
 10
18.74251992583123
 20
0.636247353673042
 30
0.0
 10
18.48962334322539
 20
0.7199381381025276
 30
0.0
 10
18.06795961111862
 20
0.8016398546125743
 30
0.0
 10
17.72493906772442
 20
0.8391476067913644
 30
0.0
 10
17.55087415141753
 20
0.8186616100712953
 30
0.0
 10
17.54595472077557
 20
0.818082633893134
 30
0.0
  0
SPLINE
  5
440
330
1F
100
AcDbEntity
  8
0
  6
Continuous
 62
     1
370
    15
100
AcDbSpline
210
0.0
220
0.0
230
1.0
 70
     8
 71
     3
 72
     8
 73
     4
 74
     0
 42
0.000000001
 43
0.00000001
 40
0.0
 40
0.0
 40
0.0
 40
0.0
 40
1.0
 40
1.0
 40
1.0
 40
1.0
 10
18.62271206623046
 20
0.5482755737322762
 30
0.0
 10
18.68875218711392
 20
0.577231238287041
 30
0.0
 10
18.7583899857496
 20
0.5952392729445037
 30
0.0
 10
18.8262577243093
 20
0.6085360972822969
 30
0.0
  0
SPLINE
  5
441
330
1F
100
AcDbEntity
  8
0
  6
Continuous
 62
     1
370
    15
100
AcDbSpline
210
0.0
220
0.0
230
1.0
 70
     8
 71
     3
 72
     8
 73
     4
 74
     0
 42
0.000000001
 43
0.00000001
 40
0.0
 40
0.0
 40
0.0
 40
0.0
 40
1.0
 40
1.0
 40
1.0
 40
1.0
 10
18.62271206623046
 20
0.5482755737322762
 30
0.0
 10
18.84715125853523
 20
0.4870218906363988
 30
0.0
 10
19.07374489398964
 20
0.4204776641594776
 30
0.0
 10
19.30124922274609
 20
0.351561337465732
 30
0.0
  0
SPLINE
  5
442
330
1F
100
AcDbEntity
  8
0
  6
Continuous
 62
     1
370
    15
100
AcDbSpline
210
0.0
220
0.0
230
1.0
 70
     8
 71
     3
 72
     8
 73
     4
 74
     0
 42
0.000000001
 43
0.00000001
 40
0.0
 40
0.0
 40
0.0
 40
0.0
 40
1.0
 40
1.0
 40
1.0
 40
1.0
 10
18.8262577243093
 20
-0.7821761269882259
 30
0.0
 10
18.78748923038003
 20
-0.7543160447592001
 30
0.0
 10
18.74793078961389
 20
-0.726557882288823
 30
0.0
 10
18.70737688349686
 20
-0.6989281557885221
 30
0.0
  0
SPLINE
  5
443
330
1F
100
AcDbEntity
  8
0
  6
Continuous
 62
     1
370
    15
100
AcDbSpline
210
0.0
220
0.0
230
1.0
 70
     8
 71
     3
 72
    22
 73
    18
 74
     0
 42
0.000000001
 43
0.00000001
 40
0.0
 40
0.0
 40
0.0
 40
0.0
 40
0.125
 40
0.125
 40
0.2500000000000001
 40
0.2500000000000001
 40
0.3750000000000001
 40
0.3750000000000001
 40
0.5000000000000001
 40
0.5000000000000001
 40
0.6250000000000001
 40
0.6250000000000001
 40
0.7500000000000002
 40
0.7500000000000002
 40
0.8750000000000002
 40
0.8750000000000002
 40
1.0
 40
1.0
 40
1.0
 40
1.0
 10
18.82625772432942
 20
-0.7821761269914305
 30
0.0
 10
18.72572620987603
 20
-0.7662165818706157
 30
0.0
 10
18.62369085695525
 20
-0.7453950427557814
 30
0.0
 10
18.42214386876458
 20
-0.6951350274603172
 30
0.0
 10
18.32435274931888
 20
-0.6659212921960318
 30
0.0
 10
18.12367182669459
 20
-0.5993454920021506
 30
0.0
 10
18.02166194503164
 20
-0.5620108630167167
 30
0.0
 10
17.81983022697995
 20
-0.4812319491114607
 30
0.0
 10
17.7218601495407
 20
-0.4380935212105186
 30
0.0
 10
17.52160065071678
 20
-0.3464607765539753
 30
0.0
 10
17.41963700791899
 20
-0.2979745352858245
 30
0.0
 10
17.2175606402314
 20
-0.198254325072206
 30
0.0
 10
17.11930802382759
 20
-0.1473562863856941
 30
0.0
 10
16.91950898835248
 20
-0.0438526458668562
 30
0.0
 10
16.81761232039372
 20
0.008823583666441
 30
0.0
 10
16.61533154612874
 20
0.1131753940422797
 30
0.0
 10
16.51669299537707
 20
0.1645483256539748
 30
0.0
 10
16.41704307763757
 20
0.2147996751859367
 30
0.0
  0
SPLINE
  5
444
330
1F
100
AcDbEntity
  8
0
  6
Continuous
 62
     4
370
    15
100
AcDbSpline
210
0.0
220
0.0
230
1.0
 70
    24
 71
     3
 72
    14
 73
    10
 74
     0
 42
0.000000001
 43
0.00000001
 40
0.0
 40
0.0
 40
0.0
 40
0.0
 40
0.25
 40
0.25
 40
0.4999999999999999
 40
0.4999999999999999
 40
0.75
 40
0.75
 40
1.0
 40
1.0
 40
1.0
 40
1.0
 10
16.41704307781964
 20
1.079810079590018
 30
0.0
 10
16.41704307781964
 20
0.9954446466901103
 30
0.0
 10
16.41704307781964
 20
0.9028991727889206
 30
0.0
 10
16.41704307781964
 20
0.7209443902237496
 30
0.0
 10
16.41704307781964
 20
0.6319688014202569
 30
0.0
 10
16.41704307781964
 20
0.4740752011117593
 30
0.0
 10
16.41704307781964
 20
0.405215960893095
 30
0.0
 10
16.41704307781964
 20
0.2924803346643614
 30
0.0
 10
16.41704307781964
 20
0.2484030895672547
 30
0.0
 10
16.41704307781964
 20
0.2147996750941203
 30
0.0
  0
SPLINE
  5
445
330
1F
100
AcDbEntity
  8
0
  6
Continuous
 62
     1
370
    15
100
AcDbSpline
210
0.0
220
0.0
230
1.0
 70
     8
 71
     3
 72
    20
 73
    16
 74
     0
 42
0.000000001
 43
0.00000001
 40
0.0
 40
0.0
 40
0.0
 40
0.0
 40
0.1249999999999999
 40
0.1249999999999999
 40
0.25
 40
0.25
 40
0.4999999999999999
 40
0.4999999999999999
 40
0.6249999999999999
 40
0.6249999999999999
 40
0.75
 40
0.75
 40
0.875
 40
0.875
 40
1.0
 40
1.0
 40
1.0
 40
1.0
 10
16.41704307781964
 20
1.079810079590224
 30
0.0
 10
16.49919789172796
 20
1.053602081401841
 30
0.0
 10
16.58019364699717
 20
1.023123644394943
 30
0.0
 10
16.74638017757928
 20
0.9534777404587231
 30
0.0
 10
16.83032095347176
 20
0.9144342881472625
 30
0.0
 10
17.08002944377267
 20
0.7867886532540567
 30
0.0
 10
17.24191522141075
 20
0.6881362024574855
 30
0.0
 10
17.49257437224267
 20
0.5241261341218149
 30
0.0
 10
17.57619244776569
 20
0.4670330131871765
 30
0.0
 10
17.74049353952245
 20
0.3501726061658843
 30
0.0
 10
17.82149522790903
 20
0.2903494310565193
 30
0.0
 10
17.98768670119318
 20
0.1677921343444595
 30
0.0
 10
18.07162768722401
 20
0.1053563613859936
 30
0.0
 10
18.23809588639938
 20
-0.0195222062568305
 30
0.0
 10
18.31953981660155
 20
-0.0816874365638824
 30
0.0
 10
18.4014180778197
 20
-0.143374937636537
 30
0.0
  0
SPLINE
  5
446
330
1F
100
AcDbEntity
  8
0
  6
Continuous
 62
     1
370
    15
100
AcDbSpline
210
0.0
220
0.0
230
1.0
 70
     8
 71
     3
 72
    12
 73
     8
 74
     0
 42
0.000000001
 43
0.00000001
 40
0.0
 40
0.0
 40
0.0
 40
0.0
 40
0.2500000000000004
 40
0.2500000000000004
 40
0.5000000000000008
 40
0.5000000000000008
 40
1.0
 40
1.0
 40
1.0
 40
1.0
 10
19.24864089798737
 20
-0.6067865422777388
 30
0.0
 10
19.20085912437128
 20
-0.5923420082039783
 30
0.0
 10
19.14133405409521
 20
-0.5752117504215022
 30
0.0
 10
19.01187865828086
 20
-0.5258231718725597
 30
0.0
 10
18.94048827631002
 20
-0.4928023954968523
 30
0.0
 10
18.71964796956044
 20
-0.3734080727705162
 30
0.0
 10
18.56070327725561
 20
-0.2633812221481193
 30
0.0
 10
18.40141807781964
 20
-0.1433749376364872
 30
0.0
  0
SPLINE
  5
447
330
1F
100
AcDbEntity
  8
0
  6
Continuous
 62
     1
370
    15
100
AcDbSpline
210
0.0
220
0.0
230
1.0
 70
     8
 71
     3
 72
    10
 73
     6
 74
     0
 42
0.000000001
 43
0.00000001
 40
0.0
 40
0.0
 40
0.0
 40
0.0
 40
0.5
 40
0.5
 40
1.0
 40
1.0
 40
1.0
 40
1.0
 10
19.24864089798737
 20
-0.6067865422777317
 30
0.0
 10
19.19114385275662
 20
-0.5813742946010763
 30
0.0
 10
19.09898490408364
 20
-0.582033937367278
 30
0.0
 10
18.90537202438165
 20
-0.6202759280558539
 30
0.0
 10
18.80348966666904
 20
-0.6557421016238223
 30
0.0
 10
18.70737688348737
 20
-0.6989281557820064
 30
0.0
  0
SPLINE
  5
448
330
1F
100
AcDbEntity
  8
0
  6
Continuous
 62
     1
370
    15
100
AcDbSpline
210
0.0
220
0.0
230
1.0
 70
     8
 71
     3
 72
    10
 73
     6
 74
     0
 42
0.000000001
 43
0.00000001
 40
0.0
 40
0.0
 40
0.0
 40
0.0
 40
0.4394703841806254
 40
0.7900399870799405
 40
0.9999999999999999
 40
0.9999999999999999
 40
0.9999999999999999
 40
0.9999999999999999
 10
18.40141807781964
 20
-1.139993314689839
 30
0.0
 10
18.50069946520856
 20
-1.108002764652269
 30
0.0
 10
18.67917853645761
 20
-1.050493056039059
 30
0.0
 10
18.90685637775215
 20
-0.8938209892695141
 30
0.0
 10
19.03350722188577
 20
-0.7994367226642609
 30
0.0
 10
19.08094737869493
 20
-0.7640827979533924
 30
0.0
  0
ARC
  5
449
330
1F
100
AcDbEntity
  8
0
  6
Continuous
 62
     1
370
    15
100
AcDbCircle
 10
18.38688022304635
 20
0.0073856458291033
 30
0.0
 40
1.205663292046036
100
AcDbArc
 50
319.3229072875673
 51
353.9127239809762
  0
ARC
  5
44A
330
1F
100
AcDbEntity
  8
0
  6
Continuous
 62
     1
370
    15
100
AcDbCircle
 10
18.82373902729512
 20
0.0477406738419361
 30
0.0
 40
0.7803508674687123
100
AcDbArc
 50
302.9905740772334
 51
347.5519888686786
  0
ARC
  5
44B
330
1F
100
AcDbEntity
  8
0
  6
Continuous
 62
     1
370
    15
100
AcDbCircle
 10
18.94369492356611
 20
-0.2625296032934443
 30
0.0
 40
0.7106002817228358
100
AcDbArc
 50
25.37363891444321
 51
59.78990681420755
  0
ARC
  5
44C
330
1F
100
AcDbEntity
  8
0
  6
Continuous
 62
     1
370
    15
100
AcDbCircle
 10
18.48328645750536
 20
0.0078634610234332
 30
0.0
 40
1.102986593979542
100
AcDbArc
 50
1.772317433671398
 51
46.06094790708745
  0
SPLINE
  5
44D
330
1F
100
AcDbEntity
  8
0
  6
Continuous
 62
     1
370
    15
100
AcDbSpline
210
0.0
220
0.0
230
1.0
 70
     8
 71
     3
 72
    12
 73
     8
 74
     0
 42
0.000000001
 43
0.00000001
 40
0.0
 40
0.0
 40
0.0
 40
0.0
 40
0.2499999999999993
 40
0.2499999999999993
 40
0.4999999999999988
 40
0.4999999999999988
 40
1.0
 40
1.0
 40
1.0
 40
1.0
 10
19.24864089798737
 20
0.8021002059131703
 30
0.0
 10
19.20085912437128
 20
0.8689393080600212
 30
0.0
 10
19.14133405409521
 20
0.9292995983426735
 30
0.0
 10
19.01187865828086
 20
1.026891229221128
 30
0.0
 10
18.94048827631002
 20
1.065189674383177
 30
0.0
 10
18.71964796956044
 20
1.14164396857533
 30
0.0
 10
18.56070327725561
 20
1.142691960928346
 30
0.0
 10
18.40141807781964
 20
1.095295615724105
 30
0.0
  0
LINE
  5
44E
330
1F
100
AcDbEntity
  8
0
  6
Continuous
 62
     4
370
    15
100
AcDbLine
 10
16.41704307768828
 20
1.079810079648233
 30
0.0
 11
16.41704307781964
 21
1.186503430236066
 31
0.0
  0
SPLINE
  5
44F
330
1F
100
AcDbEntity
  8
0
  6
Continuous
 62
     1
370
    15
100
AcDbSpline
210
0.0
220
0.0
230
1.0
 70
     8
 71
     3
 72
    20
 73
    16
 74
     0
 42
0.000000001
 43
0.00000001
 40
0.0
 40
0.0
 40
0.0
 40
0.0
 40
0.1249999999999999
 40
0.1249999999999999
 40
0.2499999999999999
 40
0.2499999999999999
 40
0.3749999999999998
 40
0.3749999999999998
 40
0.4999999999999998
 40
0.4999999999999998
 40
0.7499999999999997
 40
0.7499999999999997
 40
0.8749999999999998
 40
0.8749999999999998
 40
1.0
 40
1.0
 40
1.0
 40
1.0
 10
18.4014180778197
 20
-1.139993314689839
 30
0.0
 10
18.31953981660155
 20
-1.157921686267159
 30
0.0
 10
18.23809588639938
 20
-1.171179755920811
 30
0.0
 10
18.07162768722398
 20
-1.188110971936787
 30
0.0
 10
17.98768670119318
 20
-1.19169735321136
 30
0.0
 10
17.821495227909
 20
-1.188995236968864
 30
0.0
 10
17.74049353952242
 20
-1.182776756262975
 30
0.0
 10
17.57619244776566
 20
-1.160705874823435
 30
0.0
 10
17.49257437224264
 20
-1.144777085748608
 30
0.0
 10
17.24191522141069
 20
-1.08295210892755
 30
0.0
 10
17.08002944377262
 20
-1.02363740749685
 30
0.0
 10
16.83032095347167
 20
-0.9102427287341897
 30
0.0
 10
16.7463801775792
 20
-0.8683986084464195
 30
0.0
 10
16.58019364699709
 20
-0.7781786278162031
 30
0.0
 10
16.49919789172787
 20
-0.7300753664669912
 30
0.0
 10
16.41704307781956
 20
-0.6789729230964596
 30
0.0
  0
SPLINE
  5
450
330
1F
100
AcDbEntity
  8
0
  6
Continuous
 62
     1
370
    15
100
AcDbSpline
210
0.0
220
0.0
230
1.0
 70
     8
 71
     3
 72
    12
 73
     8
 74
     0
 42
0.000000001
 43
0.00000001
 40
0.0
 40
0.0
 40
0.0
 40
0.0
 40
0.047331236366042
 40
0.3389726622922303
 40
0.6309976434922168
 40
0.92312612536507
 40
1.0
 40
1.0
 40
1.0
 40
1.0
 10
18.75511745841601
 20
-0.7319187299534136
 30
0.0
 10
18.76367150500533
 20
-0.7330494120862028
 30
0.0
 10
18.82493311928769
 20
-0.7411470313792066
 30
0.0
 10
18.939648614335
 20
-0.7523120098253884
 30
0.0
 10
19.09905626070764
 20
-0.7662687587586561
 30
0.0
 10
19.21976421024473
 20
-0.773919844755973
 30
0.0
 10
19.2872003271151
 20
-0.7776771898508628
 30
0.0
 10
19.30124922274609
 20
-0.778459953621045
 30
0.0
  0
SPLINE
  5
451
330
1F
100
AcDbEntity
  8
0
  6
Continuous
 62
     4
370
    15
100
AcDbSpline
210
0.0
220
0.0
230
1.0
 70
    24
 71
     3
 72
    14
 73
    10
 74
     0
 42
0.000000001
 43
0.00000001
 40
0.0
 40
0.0
 40
0.0
 40
0.0
 40
0.25
 40
0.25
 40
0.5
 40
0.5
 40
0.75
 40
0.75
 40
1.0
 40
1.0
 40
1.0
 40
1.0
 10
16.41704307781964
 20
0.2147996750941132
 30
0.0
 10
16.41704307781964
 20
0.1583088532214205
 30
0.0
 10
16.41704307781964
 20
0.0925073527616789
 30
0.0
 10
16.41704307781964
 20
-0.0552538296729566
 30
0.0
 10
16.41704307781964
 20
-0.1372974498573925
 30
0.0
 10
16.41704307781964
 20
-0.3060930363673648
 30
0.0
 10
16.41704307781964
 20
-0.3926042903617457
 30
0.0
 10
16.41704307781964
 20
-0.5510664320217984
 30
0.0
 10
16.41704307781964
 20
-0.6225697526998175
 30
0.0
 10
16.41704307781964
 20
-0.6789729230963886
 30
0.0
  0
SPLINE
  5
452
330
1F
100
AcDbEntity
  8
0
  6
Continuous
 62
     1
370
    15
100
AcDbSpline
210
0.0
220
0.0
230
1.0
 70
     8
 71
     3
 72
    10
 73
     6
 74
     0
 42
0.000000001
 43
0.00000001
 40
0.0
 40
0.0
 40
0.0
 40
0.0
 40
0.3055138136694827
 40
0.6149669188574023
 40
1.0
 40
1.0
 40
1.0
 40
1.0
 10
16.41704307781964
 20
-0.9742995171774425
 30
0.0
 10
16.51532479981603
 20
-1.013526762742039
 30
0.0
 10
16.71315548717575
 20
-1.092487049513949
 30
0.0
 10
17.03650287435943
 20
-1.173486045665257
 30
0.0
 10
17.260323716274
 20
-1.180822143711559
 30
0.0
 10
17.38441319434071
 20
-1.184889381462192
 30
0.0
  0
LINE
  5
453
330
1F
100
AcDbEntity
  8
0
  6
Continuous
 62
     4
370
    15
100
AcDbLine
 10
16.41704307768831
 20
-0.9742995170982951
 30
0.0
 11
16.41704307781964
 21
-0.6789729230965165
 31
0.0
  0
SPLINE
  5
454
330
1F
100
AcDbEntity
  8
0
  6
Continuous
 62
     1
370
    15
100
AcDbSpline
210
0.0
220
0.0
230
1.0
 70
     8
 71
     3
 72
    10
 73
     6
 74
     0
 42
0.000000001
 43
0.00000001
 40
0.0
 40
0.0
 40
0.0
 40
0.0
 40
0.2264493148132266
 40
0.6114573146926473
 40
0.9999999999999999
 40
0.9999999999999999
 40
0.9999999999999999
 40
0.9999999999999999
 10
17.75163399137227
 20
0.8102705939282444
 30
0.0
 10
17.80065391697067
 20
0.8392929492427825
 30
0.0
 10
17.93301727650459
 20
0.9176589688587953
 30
0.0
 10
18.15043295433733
 20
1.011175628285429
 30
0.0
 10
18.31750190006144
 20
1.067170331958351
 30
0.0
 10
18.40141807781964
 20
1.095295615724105
 30
0.0
  0
SPLINE
  5
455
330
1F
100
AcDbEntity
  8
0
  6
Continuous
 62
     1
370
    15
100
AcDbSpline
210
0.0
220
0.0
230
1.0
 70
     8
 71
     3
 72
    10
 73
     6
 74
     0
 42
0.000000001
 43
0.00000001
 40
0.0
 40
0.0
 40
0.0
 40
0.0
 40
0.5
 40
0.5
 40
1.0
 40
1.0
 40
1.0
 40
1.0
 10
19.24864089798737
 20
0.8021002059131703
 30
0.0
 10
19.19114385275662
 20
0.7150287143445127
 30
0.0
 10
19.09898490408364
 20
0.6582496219453589
 30
0.0
 10
18.90537202438165
 20
0.6126771517320364
 30
0.0
 10
18.80348966666901
 20
0.6193813386278464
 30
0.0
 10
18.70737688348734
 20
0.6451625126752987
 30
0.0
  0
LINE
  5
456
330
1F
100
AcDbEntity
  8
중심선
100
AcDbLine
 10
-43.73295692218038
 20
-0.0000000000000142
 30
0.0
 11
22.58574540461871
 21
-0.0000000000000142
 31
0.0
  0
CIRCLE
  5
457
330
1F
100
AcDbEntity
  8
외형선
100
AcDbCircle
 10
0.0
 20
0.0
 30
0.0
 40
3.000000000000004
  0
INSERT
  5
458
330
1F
100
AcDbEntity
  8
0
  6
Continuous
 62
     7
100
AcDbBlockReference
 66
     1
  2
블럭10
 10
-28.20385259953119
 20
-51.95764267978461
 30
0.0
  0
ATTRIB
  5
459
330
458
100
AcDbEntity
  8
FORMAT
 62
     2
100
AcDbText
 10
-37.38514788827248
 20
-49.88227576695244
 30
0.0
 40
4.233333333333333
  1
E5975006 [ 3 FLUTE ]
 41
0.75
  7
SLDTEXTSTYLE0
 11
-37.38514788827248
 21
-51.99894243361911
 31
0.0
100
AcDbAttribute
  2
AUTOATTR0
 70
     0
 74
     1
  0
SEQEND
  5
45A
330
458
100
AcDbEntity
  8
0
  6
Continuous
 62
     7
  0
HATCH
  5
45B
330
1F
100
AcDbEntity
  8
중심선
100
AcDbHatch
 10
0.0
 20
0.0
 30
0.0
210
0.0
220
0.0
230
1.0
  2
SOLID
 70
     1
 71
     0
 91
        1
 92
        0
 93
        4
 72
     1
 10
-22.48894329515034
 20
-35.71046837814069
 11
-25.93521853898762
 21
-35.71046837814069
 72
     1
 10
-25.93521853898761
 20
-35.71046837814069
 11
-28.06344839819163
 21
-38.24679395871328
 72
     1
 10
-28.06344839819164
 20
-38.24679395871328
 11
-24.6171400692412
 21
-38.24675452941079
 72
     1
 10
-24.61714006924123
 20
-38.24675452941079
 11
-22.48894329515035
 21
-35.71046837814069
 97
        0
 75
     0
 76
     1
 98
        1
 10
-30.75260045457483
 20
-0.0000000000000071
  0
HATCH
  5
45C
330
1F
100
AcDbEntity
  8
중심선
100
AcDbHatch
 10
0.0
 20
0.0
 30
0.0
210
0.0
220
0.0
230
1.0
  2
SOLID
 70
     1
 71
     0
 91
        1
 92
        0
 93
        4
 72
     1
 10
-17.47617930411437
 20
-35.71046837814069
 11
-20.92245454795165
 21
-35.71046837814069
 72
     1
 10
-20.92245454795167
 20
-35.71046837814069
 11
-25.45359255630906
 21
-41.1104683781407
 72
     1
 10
-25.45359255630905
 20
-41.11046837814069
 11
-22.00731731247176
 21
-41.11046837814069
 72
     1
 10
-22.00731731247177
 20
-41.11046837814069
 11
-17.47617930411438
 21
-35.71046837814068
 97
        0
 75
     0
 76
     1
 98
        1
 10
-30.75260045457483
 20
-0.0000000000000071
  0
HATCH
  5
45D
330
1F
100
AcDbEntity
  8
중심선
100
AcDbHatch
 10
0.0
 20
0.0
 30
0.0
210
0.0
220
0.0
230
1.0
  2
SOLID
 70
     1
 71
     0
 91
        1
 92
        0
 93
        4
 72
     1
 10
-12.46341531307849
 20
-35.71046837814072
 11
-15.90969055691559
 21
-35.71046837814069
 72
     1
 10
-15.90969055691559
 20
-35.71046837814069
 11
-22.95812745880484
 21
-44.11046837814071
 72
     1
 10
-22.95812745880485
 20
-44.11046837814071
 11
-19.51185221496758
 21
-44.11046837814071
 72
     1
 10
-19.51185221496758
 20
-44.11046837814071
 11
-12.4634153130785
 21
-35.71046837814072
 97
        0
 75
     0
 76
     1
 98
        1
 10
-30.75260045457483
 20
-0.0000000000000071
  0
HATCH
  5
45E
330
1F
100
AcDbEntity
  8
중심선
100
AcDbHatch
 10
0.0
 20
0.0
 30
0.0
210
0.0
220
0.0
230
1.0
  2
SOLID
 70
     1
 71
     0
 91
        1
 92
        0
 93
        6
 72
     3
 10
-7.663524882066298
 20
-39.91046837819196
 11
3.960054785062283
 21
1.540882976769353E-10
 40
0.3939339440162628
 50
17.09539180608451
 51
320.0019657685079
 73
     0
 72
     1
 10
-5.9805252263657
 20
-38.49836238277899
 11
-3.675223352664659
 21
-36.56403567273107
 72
     3
 10
-7.663524882119134
 20
-39.91046837814083
 11
6.600054785286829
 21
-1.278976924368180E-13
 40
0.636358354079598
 50
39.99873849337411
 51
368.4976242363724
 73
     1
 72
     1
 10
-1.238192390218529
 20
-38.95046837807071
 11
-8.98345757528321
 21
-38.95046837807068
 72
     1
 10
-8.98345757528321
 20
-38.95046837807068
 11
-8.983482619729145
 21
-40.8704683780706
 72
     1
 10
-8.98348261972913
 20
-40.8704683780706
 11
-4.542102850257095
 21
-40.87046837807057
 97
        0
 75
     0
 76
     1
 98
        1
 10
-30.75260045457483
 20
-0.0000000000000071
  0
POINT
  5
45F
330
1F
100
AcDbEntity
  8
치수문자_일반주서
100
AcDbPoint
 10
-40.73295692218036
 20
-0.0000000000000142
 30
0.0
  0
DIMENSION
  5
460
330
1F
100
AcDbEntity
  8
치수문자_일반주서
100
AcDbDimension
  2
*D22
 10
-52.67941494379242
 20
-3.175000000000052
 30
0.0
 11
-52.67941494379244
 21
-0.0000000000000071
 31
0.0
 70
   160
  1
%%c<>
 71
     2
 42
6.349999999999994
 52
-270.0
  3
SLDDIMSTYLE0
100
AcDbAlignedDimension
 13
-40.18295692218038
 23
3.17499999999999
 33
0.0
 14
-40.18295692218038
 24
-3.175000000000004
 34
0.0
 50
90.0000000000002
100
AcDbRotatedDimension
1001
ACAD
1000
DSTYLE
1002
{
1070
   171
1070
     6
1070
   273
1070
     7
1002
}
  0
DIMENSION
  5
461
330
1F
100
AcDbEntity
  8
치수문자_일반주서
100
AcDbDimension
  2
*D23
 10
19.59204307781964
 20
42.83211172933095
 30
0.0
 11
-14.73962790469562
 21
42.83211172933095
 31
0.0
 70
   160
  1
<>
 71
     2
 42
60.325
  3
SLDDIMSTYLE1
100
AcDbAlignedDimension
 13
-40.73295692218036
 23
2.624999999999993
 33
0.0
 14
19.59204307781964
 24
0.0
 34
0.0
100
AcDbRotatedDimension
1001
ACAD
1000
DSTYLE
1002
{
1070
   171
1070
     6
1070
   273
1070
     7
1002
}
  0
DIMENSION
  5
462
330
1F
100
AcDbEntity
  8
치수문자_일반주서
100
AcDbDimension
  2
*D24
 10
19.59204307781964
 20
34.84499284921922
 30
0.0
 11
17.21079307781964
 21
34.84499284921922
 31
0.0
 70
   160
  1
<>
 71
     2
 42
4.762500000000006
  3
SLDDIMSTYLE0
100
AcDbAlignedDimension
 13
14.82954307781964
 23
1.143000000000001
 33
0.0
 14
19.59204307781964
 24
0.0
 34
0.0
100
AcDbRotatedDimension
1001
ACAD
1000
DSTYLE
1002
{
1070
   171
1070
     6
1070
   273
1070
     7
1002
}
  0
DIMENSION
  5
463
330
1F
100
AcDbEntity
  8
치수문자_일반주서
100
AcDbDimension
  2
*D25
 10
19.59204307781964
 20
24.73211735844445
 30
0.0
 11
17.94104307781964
 21
24.73211735844445
 31
0.0
 70
   160
  1
<>
 71
     2
 42
3.175000000072119
  3
SLDDIMSTYLE0
100
AcDbAlignedDimension
 13
16.41704307781964
 23
1.186503430236066
 33
0.0
 14
19.59204307781964
 24
0.0
 34
0.0
 50
-0.0000000034825457
100
AcDbRotatedDimension
1001
ACAD
1000
DSTYLE
1002
{
1070
   171
1070
     6
1070
   273
1070
     7
1002
}
1001
ACAD_DSTYLE_DIMFLIPARROW_SYMBOL
1070
   385
1070
     0
1001
ACAD_DSTYLE_DIMFLIPARROW_WHICH_SYMBOL
1070
   386
1070
     3
  0
INSERT
  5
464
330
1F
100
AcDbEntity
  8
외형선
100
AcDbBlockReference
  2
SW_DOWELSYMBOL_0
 10
0.0
 20
0.0
 30
0.0
  0
DIMENSION
  5
49C
102
{ACAD_REACTORS
102
}
102
{ACAD_XDICTIONARY
360
49D
102
}
330
1F
100
AcDbEntity
  8
치수문자_일반주서
100
AcDbDimension
  2
*D26
 10
40.32860373139216
 20
-1.190624999999997
 30
0.0
 11
40.32860373139216
 21
29.32587790790353
 31
0.0
 70
   160
  1
{%%C<>[]}
 71
     5
 42
2.37712843023607
  3
SLDDIMSTYLE0
100
AcDbAlignedDimension
 13
16.41704307781956
 23
1.186503430236073
 33
0.0
 14
17.66132338321499
 24
-1.190624999999997
 34
0.0
 50
90.0
100
AcDbRotatedDimension
1001
ACAD
1000
DSTYLE
1002
{
1070
   283
1070
     1
1070
   170
1070
     1
1070
   171
1070
     6
1070
   273
1070
     7
1002
}
  0
ENDSEC
  0
SECTION
  2
OBJECTS
  0
DICTIONARY
  5
C
330
0
100
AcDbDictionary
281
     1
  3
ACAD_GROUP
350
D
  3
ACAD_IMAGE_VARS
350
156
  3
ACAD_LAYOUT
350
1A
  3
ACAD_MLINESTYLE
350
17
  3
ACAD_PLOTSETTINGS
350
19
  3
ACAD_PLOTSTYLENAME
350
E
  3
ACAD_SCALELIST
350
47
  3
APPDATA
350
154
  3
DWGPROPS
350
4B1
  0
DICTIONARY
  5
49D
330
49C
100
AcDbDictionary
280
     1
281
     1
  0
DICTIONARY
  5
D
102
{ACAD_REACTORS
330
C
102
}
330
C
100
AcDbDictionary
281
     1
  0
RASTERVARIABLES
  5
156
102
{ACAD_REACTORS
330
C
102
}
330
C
100
AcDbRasterVariables
 90
        0
 70
     1
 71
     1
 72
     1
  0
DICTIONARY
  5
1A
102
{ACAD_REACTORS
330
C
102
}
330
C
100
AcDbDictionary
281
     1
  3
Layout1
350
1E
  3
Layout2
350
26
  3
Model
350
22
  0
DICTIONARY
  5
17
102
{ACAD_REACTORS
330
C
102
}
330
C
100
AcDbDictionary
281
     1
  3
Standard
350
18
  0
DICTIONARY
  5
19
102
{ACAD_REACTORS
330
C
102
}
330
C
100
AcDbDictionary
281
     1
  0
ACDBDICTIONARYWDFLT
  5
E
102
{ACAD_REACTORS
330
C
102
}
330
C
100
AcDbDictionary
281
     1
  3
Normal
350
F
100
AcDbDictionaryWithDefault
340
F
  0
DICTIONARY
  5
47
102
{ACAD_REACTORS
330
C
102
}
330
C
100
AcDbDictionary
281
     1
  3
A0
350
48
  3
A1
350
49
  3
A2
350
4A
  3
A3
350
4B
  3
A4
350
4C
  3
A5
350
4D
  3
A6
350
4E
  3
A7
350
4F
  3
A8
350
50
  3
A9
350
51
  3
B0
350
52
  3
B1
350
53
  3
B2
350
54
  3
B3
350
55
  3
B4
350
56
  3
B5
350
57
  3
B6
350
58
  3
B7
350
59
  3
B8
350
5A
  3
B9
350
5B
  3
C0
350
5C
  3
C1
350
5D
  3
C2
350
5E
  3
C3
350
5F
  3
C4
350
60
  3
C5
350
61
  3
C6
350
62
  3
C7
350
63
  3
C8
350
64
  3
C9
350
65
  3
D0
350
66
  3
D1
350
67
  3
D2
350
68
  0
DICTIONARY
  5
154
102
{ACAD_REACTORS
330
C
102
}
330
C
100
AcDbDictionary
281
     1
  0
XRECORD
  5
4B1
102
{ACAD_REACTORS
330
C
102
}
330
C
100
AcDbXrecord
280
     1
  1
DWGPROPS COOKIE
  2

  3

  4

  6

  7

  8
12016016
  9

300
=
301
=
302
=
303
=
304
=
305
=
306
=
307
=
308
=
309
=
 40
0.0
 41
2458269.360748565
 42
2458274.415732361
  1

 90
        0
  0
LAYOUT
  5
1E
102
{ACAD_REACTORS
330
1A
102
}
330
1A
100
AcDbPlotSettings
  1

  2
none_device
  4

  6

 40
0.0
 41
0.0
 42
0.0
 43
0.0
 44
0.0
 45
0.0
 46
0.0
 47
0.0
 48
0.0
 49
0.0
140
0.0
141
0.0
142
1.0
143
1.0
 70
   688
 72
     1
 73
     0
 74
     5
  7

 75
    16
147
1.0
148
0.0
149
0.0
100
AcDbLayout
  1
Layout1
 70
     1
 71
     1
 10
0.0
 20
0.0
 11
420.0
 21
297.0
 12
0.0
 22
0.0
 32
0.0
 14
1.000000000000000E+20
 24
1.000000000000000E+20
 34
1.000000000000000E+20
 15
-1.000000000000000E+20
 25
-1.000000000000000E+20
 35
-1.000000000000000E+20
146
0.0
 13
0.0
 23
0.0
 33
0.0
 16
1.0
 26
0.0
 36
0.0
 17
0.0
 27
1.0
 37
0.0
 76
     0
330
1B
  0
LAYOUT
  5
26
102
{ACAD_REACTORS
330
1A
102
}
330
1A
100
AcDbPlotSettings
  1

  2
none_device
  4

  6

 40
0.0
 41
0.0
 42
0.0
 43
0.0
 44
0.0
 45
0.0
 46
0.0
 47
0.0
 48
0.0
 49
0.0
140
0.0
141
0.0
142
1.0
143
1.0
 70
   688
 72
     1
 73
     0
 74
     5
  7

 75
    16
147
1.0
148
0.0
149
0.0
100
AcDbLayout
  1
Layout2
 70
     1
 71
     2
 10
0.0
 20
0.0
 11
0.0
 21
0.0
 12
0.0
 22
0.0
 32
0.0
 14
0.0
 24
0.0
 34
0.0
 15
0.0
 25
0.0
 35
0.0
146
0.0
 13
0.0
 23
0.0
 33
0.0
 16
1.0
 26
0.0
 36
0.0
 17
0.0
 27
1.0
 37
0.0
 76
     0
330
23
  0
LAYOUT
  5
22
102
{ACAD_REACTORS
330
1A
102
}
330
1A
100
AcDbPlotSettings
  1

  2
none_device
  4
ANSI_A_(11.00_x_8.50_Inches)
  6

 40
6.35
 41
19.05
 42
6.35000508
 43
19.05000254
 44
279.4
 45
215.9
 46
150.0256824125995
 47
80.98009876478682
 48
0.0
 49
0.0
140
0.0
141
0.0
142
0.0769500717208878
143
1.0
 70
  1696
 72
     0
 73
     0
 74
     0
  7

 75
     0
147
0.0235690232323232
148
0.0
149
0.0
100
AcDbLayout
  1
Model
 70
     1
 71
     0
 10
0.0
 20
0.0
 11
420.0
 21
297.0
 12
0.0
 22
0.0
 32
0.0
 14
1.000000000000000E+20
 24
1.000000000000000E+20
 34
1.000000000000000E+20
 15
-1.000000000000000E+20
 25
-1.000000000000000E+20
 35
-1.000000000000000E+20
146
0.0
 13
0.0
 23
0.0
 33
0.0
 16
1.0
 26
0.0
 36
0.0
 17
0.0
 27
1.0
 37
0.0
 76
     0
330
1F
331
29
  0
MLINESTYLE
  5
18
102
{ACAD_REACTORS
330
17
102
}
330
17
100
AcDbMlineStyle
  2
Standard
 70
     0
  3

 62
   256
 51
90.0
 52
90.0
 71
     2
 49
0.5
 62
   256
  6
BYLAYER
 49
-0.5
 62
   256
  6
BYLAYER
  0
ACDBPLACEHOLDER
  5
F
102
{ACAD_REACTORS
330
E
102
}
330
E
  0
SCALE
  5
48
102
{ACAD_REACTORS
330
47
102
}
330
47
100
AcDbScale
 70
     0
300
1:1
140
1.0
141
1.0
290
     1
  0
SCALE
  5
49
102
{ACAD_REACTORS
330
47
102
}
330
47
100
AcDbScale
 70
     0
300
1:2
140
1.0
141
2.0
290
     0
  0
SCALE
  5
4A
102
{ACAD_REACTORS
330
47
102
}
330
47
100
AcDbScale
 70
     0
300
1:4
140
1.0
141
4.0
290
     0
  0
SCALE
  5
4B
102
{ACAD_REACTORS
330
47
102
}
330
47
100
AcDbScale
 70
     0
300
1:5
140
1.0
141
5.0
290
     0
  0
SCALE
  5
4C
102
{ACAD_REACTORS
330
47
102
}
330
47
100
AcDbScale
 70
     0
300
1:8
140
1.0
141
8.0
290
     0
  0
SCALE
  5
4D
102
{ACAD_REACTORS
330
47
102
}
330
47
100
AcDbScale
 70
     0
300
1:10
140
1.0
141
10.0
290
     0
  0
SCALE
  5
4E
102
{ACAD_REACTORS
330
47
102
}
330
47
100
AcDbScale
 70
     0
300
1:16
140
1.0
141
16.0
290
     0
  0
SCALE
  5
4F
102
{ACAD_REACTORS
330
47
102
}
330
47
100
AcDbScale
 70
     0
300
1:20
140
1.0
141
20.0
290
     0
  0
SCALE
  5
50
102
{ACAD_REACTORS
330
47
102
}
330
47
100
AcDbScale
 70
     0
300
1:30
140
1.0
141
30.0
290
     0
  0
SCALE
  5
51
102
{ACAD_REACTORS
330
47
102
}
330
47
100
AcDbScale
 70
     0
300
1:40
140
1.0
141
40.0
290
     0
  0
SCALE
  5
52
102
{ACAD_REACTORS
330
47
102
}
330
47
100
AcDbScale
 70
     0
300
1:50
140
1.0
141
50.0
290
     0
  0
SCALE
  5
53
102
{ACAD_REACTORS
330
47
102
}
330
47
100
AcDbScale
 70
     0
300
1:100
140
1.0
141
100.0
290
     0
  0
SCALE
  5
54
102
{ACAD_REACTORS
330
47
102
}
330
47
100
AcDbScale
 70
     0
300
2:1
140
2.0
141
1.0
290
     0
  0
SCALE
  5
55
102
{ACAD_REACTORS
330
47
102
}
330
47
100
AcDbScale
 70
     0
300
4:1
140
4.0
141
1.0
290
     0
  0
SCALE
  5
56
102
{ACAD_REACTORS
330
47
102
}
330
47
100
AcDbScale
 70
     0
300
8:1
140
8.0
141
1.0
290
     0
  0
SCALE
  5
57
102
{ACAD_REACTORS
330
47
102
}
330
47
100
AcDbScale
 70
     0
300
10:1
140
10.0
141
1.0
290
     0
  0
SCALE
  5
58
102
{ACAD_REACTORS
330
47
102
}
330
47
100
AcDbScale
 70
     0
300
100:1
140
100.0
141
1.0
290
     0
  0
SCALE
  5
59
102
{ACAD_REACTORS
330
47
102
}
330
47
100
AcDbScale
 70
     0
300
1/128" = 1'-0"
140
0.0078125
141
12.0
290
     0
  0
SCALE
  5
5A
102
{ACAD_REACTORS
330
47
102
}
330
47
100
AcDbScale
 70
     0
300
1/64" = 1'-0"
140
0.015625
141
12.0
290
     0
  0
SCALE
  5
5B
102
{ACAD_REACTORS
330
47
102
}
330
47
100
AcDbScale
 70
     0
300
1/32" = 1'-0"
140
0.03125
141
12.0
290
     0
  0
SCALE
  5
5C
102
{ACAD_REACTORS
330
47
102
}
330
47
100
AcDbScale
 70
     0
300
1/16" = 1'-0"
140
0.0625
141
12.0
290
     0
  0
SCALE
  5
5D
102
{ACAD_REACTORS
330
47
102
}
330
47
100
AcDbScale
 70
     0
300
3/32" = 1'-0"
140
0.09375
141
12.0
290
     0
  0
SCALE
  5
5E
102
{ACAD_REACTORS
330
47
102
}
330
47
100
AcDbScale
 70
     0
300
1/8" = 1'-0"
140
0.125
141
12.0
290
     0
  0
SCALE
  5
5F
102
{ACAD_REACTORS
330
47
102
}
330
47
100
AcDbScale
 70
     0
300
3/16" = 1'-0"
140
0.1875
141
12.0
290
     0
  0
SCALE
  5
60
102
{ACAD_REACTORS
330
47
102
}
330
47
100
AcDbScale
 70
     0
300
1/4" = 1'-0"
140
0.25
141
12.0
290
     0
  0
SCALE
  5
61
102
{ACAD_REACTORS
330
47
102
}
330
47
100
AcDbScale
 70
     0
300
3/8" = 1'-0"
140
0.375
141
12.0
290
     0
  0
SCALE
  5
62
102
{ACAD_REACTORS
330
47
102
}
330
47
100
AcDbScale
 70
     0
300
1/2" = 1'-0"
140
0.5
141
12.0
290
     0
  0
SCALE
  5
63
102
{ACAD_REACTORS
330
47
102
}
330
47
100
AcDbScale
 70
     0
300
3/4" = 1'-0"
140
0.75
141
12.0
290
     0
  0
SCALE
  5
64
102
{ACAD_REACTORS
330
47
102
}
330
47
100
AcDbScale
 70
     0
300
1" = 1'-0"
140
1.0
141
12.0
290
     0
  0
SCALE
  5
65
102
{ACAD_REACTORS
330
47
102
}
330
47
100
AcDbScale
 70
     0
300
1-1/2" = 1'-0"
140
1.5
141
12.0
290
     0
  0
SCALE
  5
66
102
{ACAD_REACTORS
330
47
102
}
330
47
100
AcDbScale
 70
     0
300
3" = 1'-0"
140
3.0
141
12.0
290
     0
  0
SCALE
  5
67
102
{ACAD_REACTORS
330
47
102
}
330
47
100
AcDbScale
 70
     0
300
6" = 1'-0"
140
6.0
141
12.0
290
     0
  0
SCALE
  5
68
102
{ACAD_REACTORS
330
47
102
}
330
47
100
AcDbScale
 70
     0
300
1'-0" = 1'-0"
140
12.0
141
12.0
290
     0
  0
ENDSEC
  0
EOF
