  0
SECTION
  2
HEADER
  9
$ACADVER
  1
AC1015
  9
$ACADMAINTVER
 70
     6
  9
$DWGCODEPAGE
  3
ANSI_949
  9
$INSBASE
 10
0.0
 20
0.0
 30
0.0
  9
$EXTMIN
 10
1.000000000000000E+20
 20
1.000000000000000E+20
 30
1.000000000000000E+20
  9
$EXTMAX
 10
-1.000000000000000E+20
 20
-1.000000000000000E+20
 30
-1.000000000000000E+20
  9
$LIMMIN
 10
0.0
 20
0.0
  9
$LIMMAX
 10
420.0
 20
297.0
  9
$ORTHOMODE
 70
     1
  9
$REGENMODE
 70
     1
  9
$FILLMODE
 70
     1
  9
$QTEXTMODE
 70
     0
  9
$MIRRTEXT
 70
     1
  9
$LTSCALE
 40
1.0
  9
$ATTMODE
 70
     1
  9
$TEXTSIZE
 40
3.5
  9
$TRACEWID
 40
1.0
  9
$TEXTSTYLE
  7
Standard
  9
$CLAYER
  8
0
  9
$CELTYPE
  6
ByLayer
  9
$CECOLOR
 62
   256
  9
$CELTSCALE
 40
1.0
  9
$DISPSILH
 70
     0
  9
$DIMSCALE
 40
1.0
  9
$DIMASZ
 40
3.302
  9
$DIMEXO
 40
1.0
  9
$DIMDLI
 40
3.75
  9
$DIMRND
 40
0.0
  9
$DIMDLE
 40
0.0
  9
$DIMEXE
 40
1.0
  9
$DIMTP
 40
0.0
  9
$DIMTM
 40
0.0
  9
$DIMTXT
 40
3.5
  9
$DIMCEN
 40
2.5
  9
$DIMTSZ
 40
0.0
  9
$DIMTOL
 70
     0
  9
$DIMLIM
 70
     0
  9
$DIMTIH
 70
     1
  9
$DIMTOH
 70
     1
  9
$DIMSE1
 70
     0
  9
$DIMSE2
 70
     0
  9
$DIMTAD
 70
     1
  9
$DIMZIN
 70
     0
  9
$DIMBLK
  1

  9
$DIMASO
 70
     1
  9
$DIMSHO
 70
     1
  9
$DIMPOST
  1

  9
$DIMAPOST
  1

  9
$DIMALT
 70
     0
  9
$DIMALTD
 70
     3
  9
$DIMALTF
 40
0.0393700787401575
  9
$DIMLFAC
 40
1.0
  9
$DIMTOFL
 70
     1
  9
$DIMTVP
 40
0.0
  9
$DIMTIX
 70
     0
  9
$DIMSOXD
 70
     0
  9
$DIMSAH
 70
     0
  9
$DIMBLK1
  1

  9
$DIMBLK2
  1

  9
$DIMSTYLE
  2
ISO-25
  9
$DIMCLRD
 70
     0
  9
$DIMCLRE
 70
     0
  9
$DIMCLRT
 70
     0
  9
$DIMTFAC
 40
1.0
  9
$DIMGAP
 40
1.524
  9
$DIMJUST
 70
     0
  9
$DIMSD1
 70
     0
  9
$DIMSD2
 70
     0
  9
$DIMTOLJ
 70
     0
  9
$DIMTZIN
 70
     0
  9
$DIMALTZ
 70
     0
  9
$DIMALTTZ
 70
     0
  9
$DIMUPT
 70
     0
  9
$DIMDEC
 70
     2
  9
$DIMTDEC
 70
     2
  9
$DIMALTU
 70
     2
  9
$DIMALTTD
 70
     3
  9
$DIMTXSTY
  7
Standard
  9
$DIMAUNIT
 70
     0
  9
$DIMADEC
 70
     2
  9
$DIMALTRND
 40
0.0
  9
$DIMAZIN
 70
     0
  9
$DIMDSEP
 70
    44
  9
$DIMATFIT
 70
     3
  9
$DIMFRAC
 70
     0
  9
$DIMLDRBLK
  1

  9
$DIMLUNIT
 70
     2
  9
$DIMLWD
 70
    -2
  9
$DIMLWE
 70
    -2
  9
$DIMTMOVE
 70
     0
  9
$LUNITS
 70
     2
  9
$LUPREC
 70
     2
  9
$SKETCHINC
 40
1.0
  9
$FILLETRAD
 40
10.0
  9
$AUNITS
 70
     0
  9
$AUPREC
 70
     2
  9
$MENU
  1
.
  9
$ELEVATION
 40
0.0
  9
$PELEVATION
 40
0.0
  9
$THICKNESS
 40
0.0
  9
$LIMCHECK
 70
     0
  9
$CHAMFERA
 40
0.0
  9
$CHAMFERB
 40
0.0
  9
$CHAMFERC
 40
0.0
  9
$CHAMFERD
 40
0.0
  9
$SKPOLY
 70
     0
  9
$TDCREATE
 40
2458269.735748565
  9
$TDUCREATE
 40
2458269.360748565
  9
$TDUPDATE
 40
2458274.789138576
  9
$TDUUPDATE
 40
2458274.414138576
  9
$TDINDWG
 40
0.0007727894
  9
$TDUSRTIMER
 40
2458274.413563171
  9
$USRTIMER
 70
     1
  9
$ANGBASE
 50
0.0
  9
$ANGDIR
 70
     0
  9
$PDMODE
 70
     0
  9
$PDSIZE
 40
-1.0
  9
$PLINEWID
 40
0.0
  9
$SPLFRAME
 70
     0
  9
$SPLINETYPE
 70
     6
  9
$SPLINESEGS
 70
     8
  9
$HANDSEED
  5
317
  9
$SURFTAB1
 70
     6
  9
$SURFTAB2
 70
     6
  9
$SURFTYPE
 70
     6
  9
$SURFU
 70
     6
  9
$SURFV
 70
     6
  9
$UCSBASE
  2

  9
$UCSNAME
  2

  9
$UCSORG
 10
0.0
 20
0.0
 30
0.0
  9
$UCSXDIR
 10
1.0
 20
0.0
 30
0.0
  9
$UCSYDIR
 10
0.0
 20
1.0
 30
0.0
  9
$UCSORTHOREF
  2

  9
$UCSORTHOVIEW
 70
     0
  9
$UCSORGTOP
 10
0.0
 20
0.0
 30
0.0
  9
$UCSORGBOTTOM
 10
0.0
 20
0.0
 30
0.0
  9
$UCSORGLEFT
 10
0.0
 20
0.0
 30
0.0
  9
$UCSORGRIGHT
 10
0.0
 20
0.0
 30
0.0
  9
$UCSORGFRONT
 10
0.0
 20
0.0
 30
0.0
  9
$UCSORGBACK
 10
0.0
 20
0.0
 30
0.0
  9
$PUCSBASE
  2

  9
$PUCSNAME
  2

  9
$PUCSORG
 10
0.0
 20
0.0
 30
0.0
  9
$PUCSXDIR
 10
1.0
 20
0.0
 30
0.0
  9
$PUCSYDIR
 10
0.0
 20
1.0
 30
0.0
  9
$PUCSORTHOREF
  2

  9
$PUCSORTHOVIEW
 70
     0
  9
$PUCSORGTOP
 10
0.0
 20
0.0
 30
0.0
  9
$PUCSORGBOTTOM
 10
0.0
 20
0.0
 30
0.0
  9
$PUCSORGLEFT
 10
0.0
 20
0.0
 30
0.0
  9
$PUCSORGRIGHT
 10
0.0
 20
0.0
 30
0.0
  9
$PUCSORGFRONT
 10
0.0
 20
0.0
 30
0.0
  9
$PUCSORGBACK
 10
0.0
 20
0.0
 30
0.0
  9
$USERI1
 70
     0
  9
$USERI2
 70
     0
  9
$USERI3
 70
     0
  9
$USERI4
 70
     0
  9
$USERI5
 70
     0
  9
$USERR1
 40
0.0
  9
$USERR2
 40
0.0
  9
$USERR3
 40
0.0
  9
$USERR4
 40
0.0
  9
$USERR5
 40
0.0
  9
$WORLDVIEW
 70
     1
  9
$SHADEDGE
 70
     3
  9
$SHADEDIF
 70
    70
  9
$TILEMODE
 70
     1
  9
$MAXACTVP
 70
    64
  9
$PINSBASE
 10
0.0
 20
0.0
 30
0.0
  9
$PLIMCHECK
 70
     0
  9
$PEXTMIN
 10
1.000000000000000E+20
 20
1.000000000000000E+20
 30
1.000000000000000E+20
  9
$PEXTMAX
 10
-1.000000000000000E+20
 20
-1.000000000000000E+20
 30
-1.000000000000000E+20
  9
$PLIMMIN
 10
0.0
 20
0.0
  9
$PLIMMAX
 10
0.0
 20
0.0
  9
$UNITMODE
 70
     0
  9
$VISRETAIN
 70
     1
  9
$PLINEGEN
 70
     0
  9
$PSLTSCALE
 70
     1
  9
$TREEDEPTH
 70
  3020
  9
$CMLSTYLE
  2
Standard
  9
$CMLJUST
 70
     0
  9
$CMLSCALE
 40
20.0
  9
$PROXYGRAPHICS
 70
     1
  9
$MEASUREMENT
 70
     1
  9
$CELWEIGHT
370
    -1
  9
$ENDCAPS
280
     0
  9
$JOINSTYLE
280
     0
  9
$LWDISPLAY
290
     1
  9
$INSUNITS
 70
     4
  9
$HYPERLINKBASE
  1

  9
$STYLESHEET
  1

  9
$XEDIT
290
     1
  9
$CEPSNTYPE
380
     0
  9
$PSTYLEMODE
290
     1
  9
$FINGERPRINTGUID
  2
{F00A7CC7-571B-4B81-A9B0-11557940BC4D}
  9
$VERSIONGUID
  2
{FAEB1C32-E019-11D5-929B-00C0DF256EC4}
  9
$EXTNAMES
290
     1
  9
$PSVPSCALE
 40
0.0
  9
$OLESTARTUP
290
     0
  0
ENDSEC
  0
SECTION
  2
CLASSES
  0
CLASS
  1
ACDBDICTIONARYWDFLT
  2
AcDbDictionaryWithDefault
  3
ObjectDBX Classes
 90
        0
280
     0
281
     0
  0
CLASS
  1
VISUALSTYLE
  2
AcDbVisualStyle
  3
ObjectDBX Classes
 90
     4095
280
     0
281
     0
  0
CLASS
  1
MATERIAL
  2
AcDbMaterial
  3
ObjectDBX Classes
 90
     1153
280
     0
281
     0
  0
CLASS
  1
SCALE
  2
AcDbScale
  3
ObjectDBX Classes
 90
     1153
280
     0
281
     0
  0
CLASS
  1
SUN
  2
AcDbSun
  3
SCENEOE
 90
     1153
280
     0
281
     0
  0
CLASS
  1
ACDBPLACEHOLDER
  2
AcDbPlaceHolder
  3
ObjectDBX Classes
 90
        0
280
     0
281
     0
  0
CLASS
  1
LAYOUT
  2
AcDbLayout
  3
ObjectDBX Classes
 90
        0
280
     0
281
     0
  0
CLASS
  1
TABLESTYLE
  2
AcDbTableStyle
  3
ObjectDBX Classes
 90
     4095
280
     0
281
     0
  0
CLASS
  1
MLEADERSTYLE
  2
AcDbMLeaderStyle
  3
ACDB_MLEADERSTYLE_CLASS
 90
     4095
280
     0
281
     0
  0
CLASS
  1
RASTERVARIABLES
  2
AcDbRasterVariables
  3
ISM
 90
        0
280
     0
281
     0
  0
CLASS
  1
DIMASSOC
  2
AcDbDimAssoc
  3
"AcDbDimAssoc|Product Desc:     AcDim ARX App For Dimension|Company:          Autodesk, Inc.|WEB Address:      www.autodesk.com"
 90
        0
280
     0
281
     0
  0
ENDSEC
  0
SECTION
  2
TABLES
  0
TABLE
  2
VPORT
  5
8
330
0
100
AcDbSymbolTable
 70
     1
  0
VPORT
  5
29
330
8
100
AcDbSymbolTableRecord
100
AcDbViewportTableRecord
  2
*Active
 70
     0
 10
0.0
 20
0.0
 11
1.0
 21
1.0
 12
-13.1716707147566
 22
-51.75452248079126
 13
0.0
 23
0.0
 14
10.0
 24
10.0
 15
10.0
 25
10.0
 16
0.0
 26
0.0
 36
1.0
 17
0.0
 27
0.0
 37
0.0
 40
220.5935754544044
 41
1.666023166023166
 42
50.0
 43
0.0
 44
0.0
 50
0.0
 51
0.0
 71
    16
 72
  2000
 73
     1
 74
     3
 75
     0
 76
     0
 77
     0
 78
     0
281
     0
 65
     1
110
0.0
120
0.0
130
0.0
111
1.0
121
0.0
131
0.0
112
0.0
122
1.0
132
0.0
 79
     0
146
0.0
  0
ENDTAB
  0
TABLE
  2
LTYPE
  5
5
330
0
100
AcDbSymbolTable
 70
     6
  0
LTYPE
  5
14
330
5
100
AcDbSymbolTableRecord
100
AcDbLinetypeTableRecord
  2
ByBlock
 70
     0
  3

 72
    65
 73
     0
 40
0.0
  0
LTYPE
  5
15
330
5
100
AcDbSymbolTableRecord
100
AcDbLinetypeTableRecord
  2
ByLayer
 70
     0
  3

 72
    65
 73
     0
 40
0.0
  0
LTYPE
  5
16
330
5
100
AcDbSymbolTableRecord
100
AcDbLinetypeTableRecord
  2
Continuous
 70
     0
  3
Solid line
 72
    65
 73
     0
 40
0.0
  0
LTYPE
  5
6A
330
5
100
AcDbSymbolTableRecord
100
AcDbLinetypeTableRecord
  2
HIDDEN
 70
     0
  3
Hidden __ __ __ __ __ __ __ __ __ __ __ __ __ __
 72
    65
 73
     2
 40
1.905
 49
1.27
 74
     0
 49
-0.635
 74
     0
  0
LTYPE
  5
6B
330
5
100
AcDbSymbolTableRecord
100
AcDbLinetypeTableRecord
  2
PHANTOM
 70
     0
  3
Phantom ______  __  __  ______  __  __  ______
 72
    65
 73
     6
 40
12.7
 49
6.35
 74
     0
 49
-1.27
 74
     0
 49
1.27
 74
     0
 49
-1.27
 74
     0
 49
1.27
 74
     0
 49
-1.27
 74
     0
  0
LTYPE
  5
6C
330
5
100
AcDbSymbolTableRecord
100
AcDbLinetypeTableRecord
  2
CENTER
 70
     0
  3
Center ____ _ ____ _ ____ _ ____ _ ____ _ ____
 72
    65
 73
     4
 40
10.16
 49
6.35
 74
     0
 49
-1.27
 74
     0
 49
1.27
 74
     0
 49
-1.27
 74
     0
  0
LTYPE
  5
6D
330
5
100
AcDbSymbolTableRecord
100
AcDbLinetypeTableRecord
  2
CENTERX2
 70
     0
  3
Center (2x) ________  __  ________  __  _____
 72
    65
 73
     4
 40
20.32
 49
12.7
 74
     0
 49
-2.54
 74
     0
 49
2.54
 74
     0
 49
-2.54
 74
     0
  0
LTYPE
  5
6E
330
5
100
AcDbSymbolTableRecord
100
AcDbLinetypeTableRecord
  2
DOT2
 70
     0
  3
Dot (.5x) ........................................
 72
    65
 73
     2
 40
0.635
 49
0.0
 74
     0
 49
-0.635
 74
     0
  0
ENDTAB
  0
TABLE
  2
LAYER
  5
2
330
0
100
AcDbSymbolTable
 70
    17
  0
LAYER
  5
10
330
2
100
AcDbSymbolTableRecord
100
AcDbLayerTableRecord
  2
0
 70
     0
 62
     7
  6
Continuous
370
    -3
390
F
  0
LAYER
  5
6F
330
2
100
AcDbSymbolTableRecord
100
AcDbLayerTableRecord
  2
FORMAT
 70
     0
 62
     2
  6
Continuous
370
    -3
390
F
  0
LAYER
  5
70
330
2
100
AcDbSymbolTableRecord
100
AcDbLayerTableRecord
  2
외형선
 70
     0
 62
   100
  6
Continuous
370
    30
390
F
  0
LAYER
  5
71
330
2
100
AcDbSymbolTableRecord
100
AcDbLayerTableRecord
  2
숨은선
 70
     0
 62
     2
  6
HIDDEN
370
    15
390
F
  0
LAYER
  5
72
330
2
100
AcDbSymbolTableRecord
100
AcDbLayerTableRecord
  2
중심선
 70
     0
 62
     1
  6
CENTERX2
370
    -3
390
F
  0
LAYER
  5
73
330
2
100
AcDbSymbolTableRecord
100
AcDbLayerTableRecord
  2
파단선
 70
     0
 62
     4
  6
Continuous
370
    -3
390
F
  0
LAYER
  5
74
330
2
100
AcDbSymbolTableRecord
100
AcDbLayerTableRecord
  2
해칭선
 70
     0
 62
     4
  6
Continuous
370
    -3
390
F
  0
LAYER
  5
75
330
2
100
AcDbSymbolTableRecord
100
AcDbLayerTableRecord
  2
가는실선
 70
     0
 62
     4
  6
Continuous
370
    -3
390
F
  0
LAYER
  5
76
330
2
100
AcDbSymbolTableRecord
100
AcDbLayerTableRecord
  2
치수_보조선
 70
     0
 62
     4
  6
Continuous
370
    -3
390
F
  0
LAYER
  5
77
330
2
100
AcDbSymbolTableRecord
100
AcDbLayerTableRecord
  2
치수문자_일반주서
 70
     0
 62
     7
  6
Continuous
370
    15
390
F
  0
LAYER
  5
78
330
2
100
AcDbSymbolTableRecord
100
AcDbLayerTableRecord
  2
개별주서
 70
     0
 62
   100
  6
Continuous
370
    30
390
F
  0
LAYER
  5
79
330
2
100
AcDbSymbolTableRecord
100
AcDbLayerTableRecord
  2
중간선
 70
     0
 62
     2
  6
Continuous
370
    15
390
F
  0
LAYER
  5
7A
330
2
100
AcDbSymbolTableRecord
100
AcDbLayerTableRecord
  2
윤곽선
 70
     0
 62
     3
  6
Continuous
370
    40
390
F
  0
LAYER
  5
7B
330
2
100
AcDbSymbolTableRecord
100
AcDbLayerTableRecord
  2
중심마크
 70
     0
 62
   100
  6
Continuous
370
    30
390
F
  0
LAYER
  5
7C
330
2
100
AcDbSymbolTableRecord
100
AcDbLayerTableRecord
  2
가상선
 70
     0
 62
     4
  6
PHANTOM
370
    -3
390
F
  0
LAYER
  5
7D
330
2
100
AcDbSymbolTableRecord
100
AcDbLayerTableRecord
  2
특수지정선
 70
     0
 62
     5
  6
CENTERX2
370
    60
390
F
  0
LAYER
  5
157
330
2
100
AcDbSymbolTableRecord
100
AcDbLayerTableRecord
  2
Defpoints
 70
     0
 62
     7
  6
Continuous
290
     0
370
    -3
390
F
  0
ENDTAB
  0
TABLE
  2
STYLE
  5
3
330
0
100
AcDbSymbolTable
 70
     2
  0
STYLE
  5
11
330
3
100
AcDbSymbolTableRecord
100
AcDbTextStyleTableRecord
  2
Standard
 70
     0
 40
0.0
 41
1.0
 50
0.0
 71
     0
 42
3.5
  3
txt
  4

  0
STYLE
  5
93
330
3
100
AcDbSymbolTableRecord
100
AcDbTextStyleTableRecord
  2
SLDTEXTSTYLE0
 70
     0
 40
0.0
 41
0.75
 50
0.0
 71
     0
 42
3.5
  3
TXT
  4

  0
ENDTAB
  0
TABLE
  2
VIEW
  5
6
330
0
100
AcDbSymbolTable
 70
     0
  0
ENDTAB
  0
TABLE
  2
UCS
  5
7
330
0
100
AcDbSymbolTable
 70
     0
  0
ENDTAB
  0
TABLE
  2
APPID
  5
9
330
0
100
AcDbSymbolTable
 70
     4
  0
APPID
  5
12
330
9
100
AcDbSymbolTableRecord
100
AcDbRegAppTableRecord
  2
ACAD
 70
     0
  0
APPID
  5
171
330
9
100
AcDbSymbolTableRecord
100
AcDbRegAppTableRecord
  2
PE_DIMMEASUREMENT
 70
     0
  0
APPID
  5
176
330
9
100
AcDbSymbolTableRecord
100
AcDbRegAppTableRecord
  2
ACAD_DSTYLE_DIMFLIPARROW_SYMBOL
 70
     0
  0
APPID
  5
177
330
9
100
AcDbSymbolTableRecord
100
AcDbRegAppTableRecord
  2
ACAD_DSTYLE_DIMFLIPARROW_WHICH_SYMBOL
 70
     0
  0
ENDTAB
  0
TABLE
  2
DIMSTYLE
  5
A
330
0
100
AcDbSymbolTable
 70
     3
100
AcDbDimStyleTable
  0
DIMSTYLE
105
27
330
A
100
AcDbSymbolTableRecord
100
AcDbDimStyleTableRecord
  2
ISO-25
 70
     0
 41
2.5
 42
0.625
 43
3.75
 44
1.25
 73
     0
 74
     0
 77
     1
 78
     8
140
2.5
141
2.5
143
0.03937007874016
147
0.625
171
     3
172
     1
178
     0
271
     2
272
     2
274
     3
278
    44
283
     0
284
     8
340
11
  0
DIMSTYLE
105
DC
102
{ACAD_REACTORS
330
21B
330
235
330
242
330
2CA
330
2CC
330
2CD
330
302
102
}
330
A
100
AcDbSymbolTableRecord
100
AcDbDimStyleTableRecord
  2
SLDDIMSTYLE0
 70
     0
 41
3.302
 44
0.0
 45
0.000000001
 73
     0
 74
     0
 77
     1
 78
    12
 79
     3
140
3.5
143
0.0393700787401575
147
0.875
148
0.000000001
170
     1
172
     1
173
     1
178
     0
271
     2
272
     2
276
     2
284
    12
289
     0
340
93
  0
DIMSTYLE
105
F1
102
{ACAD_REACTORS
330
228
330
2CB
102
}
330
A
100
AcDbSymbolTableRecord
100
AcDbDimStyleTableRecord
  2
SLDDIMSTYLE1
 70
     0
 41
3.302
 44
0.0
 45
0.000000001
 73
     0
 74
     0
 77
     1
 78
    12
 79
     3
140
3.5
143
0.0393700787401575
147
0.875
148
0.000000001
170
     1
173
     1
178
     0
271
     2
272
     2
276
     2
284
    12
340
93
  0
ENDTAB
  0
TABLE
  2
BLOCK_RECORD
  5
1
330
0
100
AcDbSymbolTable
 70
    18
  0
BLOCK_RECORD
  5
1F
330
1
100
AcDbSymbolTableRecord
100
AcDbBlockTableRecord
  2
*Model_Space
340
22
  0
BLOCK_RECORD
  5
1B
330
1
100
AcDbSymbolTableRecord
100
AcDbBlockTableRecord
  2
*Paper_Space
340
1E
  0
BLOCK_RECORD
  5
23
330
1
100
AcDbSymbolTableRecord
100
AcDbBlockTableRecord
  2
*Paper_Space0
340
26
  0
BLOCK_RECORD
  5
7E
330
1
100
AcDbSymbolTableRecord
100
AcDbBlockTableRecord
  2
블럭10
340
0
102
{BLKREFS
331
0
331
1FD
331
2C2
102
}
  0
BLOCK_RECORD
  5
DD
330
1
100
AcDbSymbolTableRecord
100
AcDbBlockTableRecord
  2
_D
340
0
  0
BLOCK_RECORD
  5
F2
330
1
100
AcDbSymbolTableRecord
100
AcDbBlockTableRecord
  2
_D_1
340
0
  0
BLOCK_RECORD
  5
105
330
1
100
AcDbSymbolTableRecord
100
AcDbBlockTableRecord
  2
_D_2
340
0
  0
BLOCK_RECORD
  5
118
330
1
100
AcDbSymbolTableRecord
100
AcDbBlockTableRecord
  2
_D_3
340
0
  0
BLOCK_RECORD
  5
12C
330
1
100
AcDbSymbolTableRecord
100
AcDbBlockTableRecord
  2
SW_DOWELSYMBOL_0
340
0
102
{BLKREFS
331
0
331
24F
331
2CE
102
}
  0
BLOCK_RECORD
  5
15F
330
1
100
AcDbSymbolTableRecord
100
AcDbBlockTableRecord
  2
*D7
340
0
  0
BLOCK_RECORD
  5
258
330
1
100
AcDbSymbolTableRecord
100
AcDbBlockTableRecord
  2
*D9
340
0
  0
BLOCK_RECORD
  5
264
330
1
100
AcDbSymbolTableRecord
100
AcDbBlockTableRecord
  2
*D10
340
0
  0
BLOCK_RECORD
  5
270
330
1
100
AcDbSymbolTableRecord
100
AcDbBlockTableRecord
  2
*D11
340
0
  0
BLOCK_RECORD
  5
27C
330
1
100
AcDbSymbolTableRecord
100
AcDbBlockTableRecord
  2
*D12
340
0
  0
BLOCK_RECORD
  5
2CF
330
1
100
AcDbSymbolTableRecord
100
AcDbBlockTableRecord
  2
*D13
340
0
  0
BLOCK_RECORD
  5
2DB
330
1
100
AcDbSymbolTableRecord
100
AcDbBlockTableRecord
  2
*D14
340
0
  0
BLOCK_RECORD
  5
2E7
330
1
100
AcDbSymbolTableRecord
100
AcDbBlockTableRecord
  2
*D15
340
0
  0
BLOCK_RECORD
  5
2F3
330
1
100
AcDbSymbolTableRecord
100
AcDbBlockTableRecord
  2
*D16
340
0
  0
BLOCK_RECORD
  5
305
330
1
100
AcDbSymbolTableRecord
100
AcDbBlockTableRecord
  2
*D17
340
0
  0
ENDTAB
  0
ENDSEC
  0
SECTION
  2
BLOCKS
  0
BLOCK
  5
20
330
1F
100
AcDbEntity
  8
0
100
AcDbBlockBegin
  2
*Model_Space
 70
     0
 10
0.0
 20
0.0
 30
0.0
  3
*Model_Space
  1
*Model_Space
  0
ENDBLK
  5
21
330
1F
100
AcDbEntity
  8
0
100
AcDbBlockEnd
  0
BLOCK
  5
1C
330
1B
100
AcDbEntity
 67
     1
  8
0
100
AcDbBlockBegin
  2
*Paper_Space
 70
     0
 10
0.0
 20
0.0
 30
0.0
  3
*Paper_Space
  1
*Paper_Space
  0
ENDBLK
  5
1D
330
1B
100
AcDbEntity
 67
     1
  8
0
100
AcDbBlockEnd
  0
BLOCK
  5
24
330
23
100
AcDbEntity
  8
0
100
AcDbBlockBegin
  2
*Paper_Space0
 70
     0
 10
0.0
 20
0.0
 30
0.0
  3
*Paper_Space0
  1
*Paper_Space0
  0
ENDBLK
  5
25
330
23
100
AcDbEntity
  8
0
100
AcDbBlockEnd
  0
BLOCK
  5
7F
330
7E
100
AcDbEntity
  8
0
100
AcDbBlockBegin
  2
블럭10
 70
     2
 10
0.0
 20
0.0
 30
0.0
  3
블럭10
  1
블럭10
  0
ELLIPSE
  5
81
330
7E
100
AcDbEntity
  8
중심선
100
AcDbEllipse
 10
20.54032771741204
 20
12.0471743016438
 30
0.0
 11
6.600054785286829
 21
-1.261213355974178E-13
 31
0.0
210
0.0
220
0.0
230
1.0
 40
0.636358354079598
 41
0.9219305317359503
 42
6.513795318482858
  0
ELLIPSE
  5
82
330
7E
100
AcDbEntity
  8
중심선
100
AcDbEllipse
 10
20.54032771746488
 20
12.04717430159265
 30
0.0
 11
3.960054785062283
 21
1.540847449632565E-10
 31
0.0
210
0.0
220
0.0
230
1.0
 40
0.3939339440162632
 41
1.131841032648279
 42
5.62031148352944
  0
LINE
  5
83
330
7E
100
AcDbEntity
  8
중심선
100
AcDbLine
 10
2.268634060543552
 20
16.24717430164393
 30
0.0
 11
5.714909304380834
 21
16.24717430164393
 31
0.0
  0
LINE
  5
84
330
7E
100
AcDbEntity
  8
중심선
100
AcDbLine
 10
5.245725140726316
 20
7.84717430164391
 30
0.0
 11
8.692000384563599
 21
7.84717430164391
 31
0.0
  0
LINE
  5
85
330
7E
100
AcDbEntity
  8
중심선
100
AcDbLine
 10
15.74043728645272
 20
16.24717430164393
 30
0.0
 11
8.692000384563599
 21
7.84717430164391
 31
0.0
  0
LINE
  5
86
330
7E
100
AcDbEntity
  8
중심선
100
AcDbLine
 10
0.1404042013395286
 20
13.71084872107135
 30
0.0
 11
3.58671253028996
 21
13.71088815037384
 31
0.0
  0
LINE
  5
87
330
7E
100
AcDbEntity
  8
중심선
100
AcDbLine
 10
2.750260043222114
 20
10.84717430164391
 30
0.0
 11
6.196535287059397
 21
10.84717430164391
 31
0.0
  0
LINE
  5
88
330
7E
100
AcDbEntity
  8
중심선
100
AcDbLine
 10
12.29416204261559
 20
16.24717430164393
 30
0.0
 11
5.245725140726316
 21
7.84717430164391
 31
0.0
  0
LINE
  5
89
330
7E
100
AcDbEntity
  8
중심선
100
AcDbLine
 10
10.72767329541681
 20
16.24717430164393
 30
0.0
 11
6.196535287059397
 21
10.84717430164391
 31
0.0
  0
LINE
  5
8A
330
7E
100
AcDbEntity
  8
중심선
100
AcDbLine
 10
7.28139805157953
 20
16.24717430164393
 30
0.0
 11
2.750260043222114
 21
10.84717430164391
 31
0.0
  0
LINE
  5
8B
330
7E
100
AcDbEntity
  8
중심선
100
AcDbLine
 10
5.714909304380834
 20
16.24717430164393
 30
0.0
 11
3.58671253028996
 21
13.71088815037384
 31
0.0
  0
LINE
  5
8C
330
7E
100
AcDbEntity
  8
중심선
100
AcDbLine
 10
2.268634060543552
 20
16.24717430164393
 30
0.0
 11
0.1404042013395286
 21
13.71084872107135
 31
0.0
  0
LINE
  5
8D
330
7E
100
AcDbEntity
  8
중심선
100
AcDbLine
 10
7.28139805157953
 20
16.24717430164393
 30
0.0
 11
10.72767329541681
 21
16.24717430164393
 31
0.0
  0
LINE
  5
8E
330
7E
100
AcDbEntity
  8
중심선
100
AcDbLine
 10
12.29416204261559
 20
16.24717430164393
 30
0.0
 11
15.74043728645272
 21
16.24717430164393
 31
0.0
  0
LINE
  5
8F
330
7E
100
AcDbEntity
  8
중심선
100
AcDbLine
 10
19.22036997980202
 20
11.08717430171403
 30
0.0
 11
23.66174974927406
 21
11.08717430171406
 31
0.0
  0
LINE
  5
90
330
7E
100
AcDbEntity
  8
중심선
100
AcDbLine
 10
19.22039502424796
 20
13.00717430171391
 30
0.0
 11
19.22036997980202
 21
11.08717430171403
 31
0.0
  0
LINE
  5
91
330
7E
100
AcDbEntity
  8
중심선
100
AcDbLine
 10
19.22039502424796
 20
13.00717430171391
 30
0.0
 11
26.96566020931264
 21
13.00717430171391
 31
0.0
  0
LINE
  5
92
330
7E
100
AcDbEntity
  8
중심선
100
AcDbLine
 10
22.22332737316547
 20
13.45928029700563
 30
0.0
 11
24.52862924686651
 21
15.39360700705356
 31
0.0
  0
ATTDEF
  5
94
330
7E
100
AcDbEntity
  8
FORMAT
 62
     2
100
AcDbText
 10
-9.18129528874128
 20
2.075366912832191
 30
0.0
 40
4.233333333333333
  1
E5975040 [ 3 FLUTE ]
 41
0.75
  7
SLDTEXTSTYLE0
 11
-9.18129528874128
 21
-0.0412997538344756
 31
0.0
100
AcDbAttributeDefinition
  3

  2
AUTOATTR0
 70
     0
 74
     1
  0
ENDBLK
  5
80
330
7E
100
AcDbEntity
  8
0
100
AcDbBlockEnd
  0
BLOCK
  5
DE
330
DD
100
AcDbEntity
  8
0
100
AcDbBlockBegin
  2
_D
 70
     0
 10
0.0
 20
0.0
 30
0.0
  3
_D
  1
_D
  0
LINE
  5
E0
330
DD
100
AcDbEntity
  8
치수문자_일반주서
 62
     0
370
    -2
100
AcDbLine
 10
-60.25769999999999
 20
7.937499999999994
 30
0.0
 11
-72.69165802161208
 21
7.937499999999947
 31
0.0
  0
LINE
  5
E1
330
DD
100
AcDbEntity
  8
치수문자_일반주서
 62
     0
370
    -2
100
AcDbLine
 10
-60.25769999999999
 20
-7.93750000000001
 30
0.0
 11
-72.69165802161203
 21
-7.937500000000057
 31
0.0
  0
LINE
  5
E2
330
DD
100
AcDbEntity
  8
치수문자_일반주서
 62
     0
370
    -2
100
AcDbLine
 10
-72.69165802161207
 20
4.635499999999947
 30
0.0
 11
-72.69165802161204
 21
-4.635500000000057
 31
0.0
  0
SOLID
  5
E3
330
DD
100
AcDbEntity
  8
치수문자_일반주서
 62
     0
100
AcDbTrace
 10
-72.14132468827874
 20
4.635499999999949
 30
0.0
 11
-73.2419913549454
 21
4.635499999999945
 31
0.0
 12
-72.69165802161208
 22
7.937499999999947
 32
0.0
 13
-72.69165802161208
 23
7.937499999999947
 33
0.0
  0
SOLID
  5
E4
330
DD
100
AcDbEntity
  8
치수문자_일반주서
 62
     0
100
AcDbTrace
 10
-73.24199135494537
 20
-4.635500000000059
 30
0.0
 11
-72.14132468827871
 21
-4.635500000000055
 31
0.0
 12
-72.69165802161203
 22
-7.937500000000057
 32
0.0
 13
-72.69165802161203
 23
-7.937500000000057
 33
0.0
  0
MTEXT
  5
E5
330
DD
100
AcDbEntity
  8
치수문자_일반주서
 62
     0
100
AcDbMText
 10
-77.06665802161206
 20
-0.0000000000000243
 30
0.0
 40
3.5
 41
0.0
 71
     2
 72
     1
  1
\A1;%%c15.88 [5/8]
  7
SLDTEXTSTYLE0
 11
-3.580687802255622E-15
 21
1.0
 31
0.0
 73
     1
 44
1.0
  0
POINT
  5
E6
330
DD
100
AcDbEntity
  8
Defpoints
 62
     0
100
AcDbPoint
 10
-60.19519999999999
 20
7.937499999999994
 30
0.0
  0
POINT
  5
E7
330
DD
100
AcDbEntity
  8
Defpoints
 62
     0
100
AcDbPoint
 10
-60.19519999999999
 20
-7.93750000000001
 30
0.0
  0
POINT
  5
E8
330
DD
100
AcDbEntity
  8
Defpoints
 62
     0
100
AcDbPoint
 10
-72.69165802161203
 20
-7.937500000000057
 30
0.0
  0
ENDBLK
  5
DF
330
DD
100
AcDbEntity
  8
0
100
AcDbBlockEnd
  0
BLOCK
  5
F3
330
F2
100
AcDbEntity
  8
0
100
AcDbBlockBegin
  2
_D_1
 70
     0
 10
0.0
 20
0.0
 30
0.0
  3
_D_1
  1
_D_1
  0
LINE
  5
F5
330
F2
100
AcDbEntity
  8
치수문자_일반주서
 62
     0
370
    -2
100
AcDbLine
 10
-61.19519999999998
 20
6.999999999999993
 30
0.0
 11
-61.19519999999998
 21
47.93750000000005
 31
0.0
  0
LINE
  5
F6
330
F2
100
AcDbEntity
  8
치수문자_일반주서
 62
     0
370
    -2
100
AcDbLine
 10
40.4048
 20
0.0625000000000016
 30
0.0
 11
40.4048
 21
47.93750000000005
 31
0.0
  0
LINE
  5
F7
330
F2
100
AcDbEntity
  8
치수문자_일반주서
 62
     0
370
    -2
100
AcDbLine
 10
-57.89319999999998
 20
47.93750000000005
 30
0.0
 11
37.1028
 21
47.93750000000005
 31
0.0
  0
SOLID
  5
F8
330
F2
100
AcDbEntity
  8
치수문자_일반주서
 62
     0
100
AcDbTrace
 10
-57.89319999999998
 20
48.48783333333338
 30
0.0
 11
-57.89319999999998
 21
47.38716666666672
 31
0.0
 12
-61.19519999999998
 22
47.93750000000005
 32
0.0
 13
-61.19519999999998
 23
47.93750000000005
 33
0.0
  0
SOLID
  5
F9
330
F2
100
AcDbEntity
  8
치수문자_일반주서
 62
     0
100
AcDbTrace
 10
37.1028
 20
47.38716666666672
 30
0.0
 11
37.1028
 21
48.48783333333338
 31
0.0
 12
40.4048
 22
47.93750000000005
 32
0.0
 13
40.4048
 23
47.93750000000005
 33
0.0
  0
MTEXT
  5
FA
330
F2
100
AcDbEntity
  8
치수문자_일반주서
 62
     0
100
AcDbMText
 10
-6.517714346807331
 20
52.31250000000005
 30
0.0
 40
3.5
 41
0.0
 71
     2
 72
     1
  1
\A1;101.6 [4]
  7
SLDTEXTSTYLE0
 73
     1
 44
1.0
  0
POINT
  5
FB
330
F2
100
AcDbEntity
  8
Defpoints
 62
     0
100
AcDbPoint
 10
-61.19519999999998
 20
6.937499999999993
 30
0.0
  0
POINT
  5
FC
330
F2
100
AcDbEntity
  8
Defpoints
 62
     0
100
AcDbPoint
 10
40.4048
 20
0.0000000000000016
 30
0.0
  0
POINT
  5
FD
330
F2
100
AcDbEntity
  8
Defpoints
 62
     0
100
AcDbPoint
 10
40.4048
 20
47.93750000000005
 30
0.0
  0
ENDBLK
  5
F4
330
F2
100
AcDbEntity
  8
0
100
AcDbBlockEnd
  0
BLOCK
  5
106
330
105
100
AcDbEntity
  8
0
100
AcDbBlockBegin
  2
_D_2
 70
     0
 10
0.0
 20
0.0
 30
0.0
  3
_D_2
  1
_D_2
  0
LINE
  5
108
330
105
100
AcDbEntity
  8
치수문자_일반주서
 62
     0
370
    -2
100
AcDbLine
 10
2.304799999999997
 20
7.695200000000002
 30
0.0
 11
2.304799999999993
 21
38.8124602550265
 31
0.0
  0
LINE
  5
109
330
105
100
AcDbEntity
  8
치수문자_일반주서
 62
     0
370
    -2
100
AcDbLine
 10
40.4048
 20
0.0625000000000016
 30
0.0
 11
40.40479999999999
 21
38.8124602550265
 31
0.0
  0
LINE
  5
10A
330
105
100
AcDbEntity
  8
치수문자_일반주서
 62
     0
370
    -2
100
AcDbLine
 10
5.606799999999993
 20
38.8124602550265
 30
0.0
 11
37.10279999999999
 21
38.8124602550265
 31
0.0
  0
SOLID
  5
10B
330
105
100
AcDbEntity
  8
치수문자_일반주서
 62
     0
100
AcDbTrace
 10
5.606799999999993
 20
39.36279358835984
 30
0.0
 11
5.606799999999993
 21
38.26212692169317
 31
0.0
 12
2.304799999999993
 22
38.8124602550265
 32
0.0
 13
2.304799999999993
 23
38.8124602550265
 33
0.0
  0
SOLID
  5
10C
330
105
100
AcDbEntity
  8
치수문자_일반주서
 62
     0
100
AcDbTrace
 10
37.10279999999999
 20
38.26212692169317
 30
0.0
 11
37.10279999999999
 21
39.36279358835984
 31
0.0
 12
40.40479999999999
 22
38.8124602550265
 32
0.0
 13
40.40479999999999
 23
38.8124602550265
 33
0.0
  0
MTEXT
  5
10D
330
105
100
AcDbEntity
  8
치수문자_일반주서
 62
     0
100
AcDbMText
 10
23.38766327159427
 20
43.1874602550265
 30
0.0
 40
3.5
 41
0.0
 71
     2
 72
     1
  1
\A1;38.1 [1.50]
  7
SLDTEXTSTYLE0
 73
     1
 44
1.0
  0
POINT
  5
10E
330
105
100
AcDbEntity
  8
Defpoints
 62
     0
100
AcDbPoint
 10
2.304799999999997
 20
7.632700000000002
 30
0.0
  0
POINT
  5
10F
330
105
100
AcDbEntity
  8
Defpoints
 62
     0
100
AcDbPoint
 10
40.4048
 20
0.0000000000000016
 30
0.0
  0
POINT
  5
110
330
105
100
AcDbEntity
  8
Defpoints
 62
     0
100
AcDbPoint
 10
40.4048
 20
38.8124602550265
 30
0.0
  0
ENDBLK
  5
107
330
105
100
AcDbEntity
  8
0
100
AcDbBlockEnd
  0
BLOCK
  5
119
330
118
100
AcDbEntity
  8
0
100
AcDbBlockBegin
  2
_D_3
 70
     0
 10
0.0
 20
0.0
 30
0.0
  3
_D_3
  1
_D_3
  0
LINE
  5
11B
330
118
100
AcDbEntity
  8
치수문자_일반주서
 62
     0
370
    -2
100
AcDbLine
 10
15.0048
 20
7.995579102997329
 30
0.0
 11
15.0048
 21
25.69526785413745
 31
0.0
  0
LINE
  5
11C
330
118
100
AcDbEntity
  8
치수문자_일반주서
 62
     0
370
    -2
100
AcDbLine
 10
40.4048
 20
0.0625000000000016
 30
0.0
 11
40.40479999999999
 21
25.69526785413745
 31
0.0
  0
LINE
  5
11D
330
118
100
AcDbEntity
  8
치수문자_일반주서
 62
     0
370
    -2
100
AcDbLine
 10
15.0048
 20
25.69526785413745
 30
0.0
 11
40.40479999999999
 21
25.69526785413745
 31
0.0
  0
LINE
  5
11E
330
118
100
AcDbEntity
  8
치수문자_일반주서
 62
     0
370
    -2
100
AcDbLine
 10
11.7028
 20
25.69526785413745
 30
0.0
 11
8.400800000000004
 21
25.69526785413745
 31
0.0
  0
LINE
  5
11F
330
118
100
AcDbEntity
  8
치수문자_일반주서
 62
     0
370
    -2
100
AcDbLine
 10
43.70679999999999
 20
25.69526785413745
 30
0.0
 11
47.00879999999999
 21
25.69526785413745
 31
0.0
  0
SOLID
  5
120
330
118
100
AcDbEntity
  8
치수문자_일반주서
 62
     0
100
AcDbTrace
 10
11.7028
 20
25.14493452080411
 30
0.0
 11
11.7028
 21
26.24560118747078
 31
0.0
 12
15.0048
 22
25.69526785413745
 32
0.0
 13
15.0048
 23
25.69526785413745
 33
0.0
  0
SOLID
  5
121
330
118
100
AcDbEntity
  8
치수문자_일반주서
 62
     0
100
AcDbTrace
 10
43.70679999999999
 20
26.24560118747078
 30
0.0
 11
43.70679999999999
 21
25.14493452080411
 31
0.0
 12
40.40479999999999
 22
25.69526785413745
 32
0.0
 13
40.40479999999999
 23
25.69526785413745
 33
0.0
  0
MTEXT
  5
122
330
118
100
AcDbEntity
  8
치수문자_일반주서
 62
     0
100
AcDbMText
 10
24.22493087165102
 20
30.07026785413745
 30
0.0
 40
3.5
 41
0.0
 71
     2
 72
     1
  1
\A1;25.4 [1]
  7
SLDTEXTSTYLE0
 73
     1
 44
1.0
  0
POINT
  5
123
330
118
100
AcDbEntity
  8
Defpoints
 62
     0
100
AcDbPoint
 10
15.0048
 20
7.933079102997329
 30
0.0
  0
POINT
  5
158
330
118
100
AcDbEntity
  8
Defpoints
 62
     0
100
AcDbPoint
 10
40.4048
 20
0.0000000000000016
 30
0.0
  0
POINT
  5
159
330
118
100
AcDbEntity
  8
Defpoints
 62
     0
100
AcDbPoint
 10
40.4048
 20
25.69526785413745
 30
0.0
  0
ENDBLK
  5
11A
330
118
100
AcDbEntity
  8
0
100
AcDbBlockEnd
  0
BLOCK
  5
12D
330
12C
100
AcDbEntity
  8
0
100
AcDbBlockBegin
  2
SW_DOWELSYMBOL_0
 70
     0
 10
0.0
 20
0.0
 30
0.0
  3
SW_DOWELSYMBOL_0
  1
SW_DOWELSYMBOL_0
  0
CIRCLE
  5
12F
330
12C
100
AcDbEntity
  8
외형선
 62
     0
100
AcDbCircle
 10
0.0
 20
0.0
 30
0.0
 40
3.000000000000004
  0
HATCH
  5
130
330
12C
100
AcDbEntity
  8
0
  6
Continuous
 62
     0
370
    30
100
AcDbHatch
 10
0.0
 20
0.0
 30
0.0
210
0.0
220
0.0
230
1.0
  2
SOLID
 70
     1
 71
     0
 91
        1
 92
        0
 93
        3
 72
     2
 10
0.0
 20
0.0
 40
3.000000000000004
 50
0.0
 51
90.0
 73
     1
 72
     1
 10
0.0
 20
3.000000000000004
 11
0.0
 21
0.0
 72
     1
 10
0.0
 20
0.0
 11
3.000000000000006
 21
0.0
 97
        0
 75
     0
 76
     1
 98
        1
 10
0.0
 20
0.0
  0
HATCH
  5
131
330
12C
100
AcDbEntity
  8
0
  6
Continuous
 62
     0
370
    30
100
AcDbHatch
 10
0.0
 20
0.0
 30
0.0
210
0.0
220
0.0
230
1.0
  2
SOLID
 70
     1
 71
     0
 91
        1
 92
        0
 93
        3
 72
     2
 10
0.0
 20
0.0
 40
3.000000000000004
 50
180.0
 51
270.0000000000007
 73
     1
 72
     1
 10
0.0
 20
-3.000000000000004
 11
0.0
 21
0.0
 72
     1
 10
0.0
 20
0.0
 11
-3.000000000000006
 21
0.0
 97
        0
 75
     0
 76
     1
 98
        1
 10
0.0
 20
0.0
  0
ENDBLK
  5
12E
330
12C
100
AcDbEntity
  8
0
100
AcDbBlockEnd
  0
BLOCK
  5
160
330
15F
100
AcDbEntity
  8
0
100
AcDbBlockBegin
  2
*D7
 70
     1
 10
0.0
 20
0.0
 30
0.0
  3
*D7
  1
*D7
  0
LINE
  5
162
330
15F
100
AcDbEntity
  8
치수문자_일반주서
 62
     0
370
    -2
100
AcDbLine
 10
40.4673
 20
7.937500000000003
 30
0.0
 11
60.19927684825788
 21
7.937500000000004
 31
0.0
  0
LINE
  5
163
330
15F
100
AcDbEntity
  8
치수문자_일반주서
 62
     0
370
    -2
100
AcDbLine
 10
40.4673
 20
-7.937499999999999
 30
0.0
 11
60.19927684825788
 21
-7.9375
 31
0.0
  0
LINE
  5
164
330
15F
100
AcDbEntity
  8
치수문자_일반주서
 62
     0
370
    -2
100
AcDbLine
 10
60.19927684825788
 20
7.937500000000004
 30
0.0
 11
60.19927684825788
 21
42.5415
 31
0.0
  0
LINE
  5
165
330
15F
100
AcDbEntity
  8
치수문자_일반주서
 62
     0
370
    -2
100
AcDbLine
 10
60.19927684825788
 20
7.937500000000004
 30
0.0
 11
60.19927684825788
 21
-7.9375
 31
0.0
  0
LINE
  5
166
330
15F
100
AcDbEntity
  8
치수문자_일반주서
 62
     0
370
    -2
100
AcDbLine
 10
60.19927684825788
 20
11.2395
 30
0.0
 11
60.19927684825788
 21
14.5415
 31
0.0
  0
LINE
  5
167
330
15F
100
AcDbEntity
  8
치수문자_일반주서
 62
     0
370
    -2
100
AcDbLine
 10
60.19927684825788
 20
-11.2395
 30
0.0
 11
60.19927684825788
 21
-14.5415
 31
0.0
  0
SOLID
  5
168
330
15F
100
AcDbEntity
  8
치수문자_일반주서
 62
     0
100
AcDbTrace
 10
59.64894351492455
 20
11.2395
 30
0.0
 11
60.74961018159122
 21
11.2395
 31
0.0
 12
60.19927684825788
 22
7.937500000000004
 32
0.0
 13
60.19927684825788
 23
7.937500000000004
 33
0.0
  0
SOLID
  5
169
330
15F
100
AcDbEntity
  8
치수문자_일반주서
 62
     0
100
AcDbTrace
 10
60.74961018159122
 20
-11.2395
 30
0.0
 11
59.64894351492455
 21
-11.2395
 31
0.0
 12
60.19927684825788
 22
-7.9375
 32
0.0
 13
60.19927684825788
 23
-7.9375
 33
0.0
  0
MTEXT
  5
16A
330
15F
100
AcDbEntity
  8
치수문자_일반주서
 62
     0
100
AcDbMText
 10
57.57427684825788
 20
28.5415
 30
0.0
 40
3.5
 41
0.0
 71
     5
 72
     1
  1
\A1;{%%c15.88 [5/8]}
  7
SLDTEXTSTYLE0
 11
0.0
 21
1.0
 31
0.0
 73
     1
 44
1.0
  0
POINT
  5
16B
330
15F
100
AcDbEntity
  8
Defpoints
 62
     0
100
AcDbPoint
 10
40.4048
 20
7.937500000000003
 30
0.0
  0
POINT
  5
16C
330
15F
100
AcDbEntity
  8
Defpoints
 62
     0
100
AcDbPoint
 10
40.4048
 20
-7.937499999999999
 30
0.0
  0
POINT
  5
16D
330
15F
100
AcDbEntity
  8
Defpoints
 62
     0
100
AcDbPoint
 10
60.19927684825788
 20
-7.9375
 30
0.0
  0
ENDBLK
  5
161
330
15F
100
AcDbEntity
  8
0
100
AcDbBlockEnd
  0
BLOCK
  5
259
330
258
100
AcDbEntity
  8
0
100
AcDbBlockBegin
  2
*D9
 70
     1
 10
0.0
 20
0.0
 30
0.0
  3
*D9
  1
*D9
  0
LINE
  5
25B
330
258
100
AcDbEntity
  8
치수문자_일반주서
 62
     0
370
    -2
100
AcDbLine
 10
16.80895802161213
 20
53.05727576695242
 30
0.0
 11
4.375000000000046
 21
53.05727576695237
 31
0.0
  0
LINE
  5
25C
330
258
100
AcDbEntity
  8
치수문자_일반주서
 62
     0
370
    -2
100
AcDbLine
 10
16.80895802161213
 20
46.70727576695243
 30
0.0
 11
4.375000000000068
 21
46.70727576695238
 31
0.0
  0
LINE
  5
25D
330
258
100
AcDbEntity
  8
치수문자_일반주서
 62
     0
370
    -2
100
AcDbLine
 10
4.375000000000058
 20
49.75527576695237
 30
0.0
 11
4.375000000000057
 21
50.00927576695238
 31
0.0
  0
SOLID
  5
25E
330
258
100
AcDbEntity
  8
치수문자_일반주서
 62
     0
100
AcDbTrace
 10
4.925333333333391
 20
49.75527576695237
 30
0.0
 11
3.824666666666724
 21
49.75527576695237
 31
0.0
 12
4.375000000000046
 22
53.05727576695237
 32
0.0
 13
4.375000000000046
 23
53.05727576695237
 33
0.0
  0
SOLID
  5
25F
330
258
100
AcDbEntity
  8
치수문자_일반주서
 62
     0
100
AcDbTrace
 10
3.824666666666723
 20
50.00927576695238
 30
0.0
 11
4.92533333333339
 21
50.00927576695238
 31
0.0
 12
4.375000000000068
 22
46.70727576695238
 32
0.0
 13
4.375000000000068
 23
46.70727576695238
 33
0.0
  0
MTEXT
  5
260
330
258
100
AcDbEntity
  8
치수문자_일반주서
 62
     0
100
AcDbMText
 10
0.0000000000000568
 20
49.88227576695241
 30
0.0
 40
3.5
 41
0.0
 71
     2
 72
     1
  1
\A1;%%c6.35 [1/4]
  7
SLDTEXTSTYLE0
 11
-3.496765431890260E-15
 21
1.0
 31
0.0
 73
     1
 44
1.0
  0
POINT
  5
261
330
258
100
AcDbEntity
  8
Defpoints
 62
     0
100
AcDbPoint
 10
16.87145802161213
 20
53.05727576695242
 30
0.0
  0
POINT
  5
262
330
258
100
AcDbEntity
  8
Defpoints
 62
     0
100
AcDbPoint
 10
16.87145802161213
 20
46.70727576695243
 30
0.0
  0
POINT
  5
263
330
258
100
AcDbEntity
  8
Defpoints
 62
     0
100
AcDbPoint
 10
4.375000000000071
 20
46.70727576695238
 30
0.0
  0
ENDBLK
  5
25A
330
258
100
AcDbEntity
  8
0
100
AcDbBlockEnd
  0
BLOCK
  5
265
330
264
100
AcDbEntity
  8
0
100
AcDbBlockBegin
  2
*D10
 70
     1
 10
0.0
 20
0.0
 30
0.0
  3
*D10
  1
*D10
  0
LINE
  5
267
330
264
100
AcDbEntity
  8
치수문자_일반주서
 62
     0
370
    -2
100
AcDbLine
 10
15.87145802161213
 20
52.11977576695242
 30
0.0
 11
15.87145802161213
 21
92.26438749628338
 31
0.0
  0
LINE
  5
268
330
264
100
AcDbEntity
  8
치수문자_일반주서
 62
     0
370
    -2
100
AcDbLine
 10
76.19645802161214
 20
49.94477576695243
 30
0.0
 11
76.19645802161214
 21
92.26438749628338
 31
0.0
  0
LINE
  5
269
330
264
100
AcDbEntity
  8
치수문자_일반주서
 62
     0
370
    -2
100
AcDbLine
 10
19.17345802161213
 20
92.26438749628338
 30
0.0
 11
72.89445802161214
 21
92.26438749628338
 31
0.0
  0
SOLID
  5
26A
330
264
100
AcDbEntity
  8
치수문자_일반주서
 62
     0
100
AcDbTrace
 10
19.17345802161213
 20
92.8147208296167
 30
0.0
 11
19.17345802161213
 21
91.71405416295005
 31
0.0
 12
15.87145802161213
 22
92.26438749628338
 32
0.0
 13
15.87145802161213
 23
92.26438749628338
 33
0.0
  0
SOLID
  5
26B
330
264
100
AcDbEntity
  8
치수문자_일반주서
 62
     0
100
AcDbTrace
 10
72.89445802161214
 20
91.71405416295005
 30
0.0
 11
72.89445802161214
 21
92.8147208296167
 31
0.0
 12
76.19645802161214
 22
92.26438749628338
 32
0.0
 13
76.19645802161214
 23
92.26438749628338
 33
0.0
  0
MTEXT
  5
26C
330
264
100
AcDbEntity
  8
치수문자_일반주서
 62
     0
100
AcDbMText
 10
41.86388241369192
 20
96.63938749628338
 30
0.0
 40
3.5
 41
0.0
 71
     2
 72
     1
  1
\A1;60.33 [2.38]
  7
SLDTEXTSTYLE0
 73
     1
 44
1.0
  0
POINT
  5
26D
330
264
100
AcDbEntity
  8
Defpoints
 62
     0
100
AcDbPoint
 10
15.87145802161213
 20
52.05727576695242
 30
0.0
  0
POINT
  5
26E
330
264
100
AcDbEntity
  8
Defpoints
 62
     0
100
AcDbPoint
 10
76.19645802161214
 20
49.88227576695243
 30
0.0
  0
POINT
  5
26F
330
264
100
AcDbEntity
  8
Defpoints
 62
     0
100
AcDbPoint
 10
76.19645802161214
 20
92.26438749628338
 30
0.0
  0
ENDBLK
  5
266
330
264
100
AcDbEntity
  8
0
100
AcDbBlockEnd
  0
BLOCK
  5
271
330
270
100
AcDbEntity
  8
0
100
AcDbBlockBegin
  2
*D11
 70
     1
 10
0.0
 20
0.0
 30
0.0
  3
*D11
  1
*D11
  0
LINE
  5
273
330
270
100
AcDbEntity
  8
치수문자_일반주서
 62
     0
370
    -2
100
AcDbLine
 10
69.84645802161214
 20
51.43067576695243
 30
0.0
 11
69.84645802161214
 21
80.69516861617166
 31
0.0
  0
LINE
  5
274
330
270
100
AcDbEntity
  8
치수문자_일반주서
 62
     0
370
    -2
100
AcDbLine
 10
76.19645802161214
 20
49.94477576695243
 30
0.0
 11
76.19645802161214
 21
80.69516861617166
 31
0.0
  0
LINE
  5
275
330
270
100
AcDbEntity
  8
치수문자_일반주서
 62
     0
370
    -2
100
AcDbLine
 10
73.14845802161214
 20
80.69516861617166
 30
0.0
 11
72.89445802161214
 21
80.69516861617166
 31
0.0
  0
SOLID
  5
276
330
270
100
AcDbEntity
  8
치수문자_일반주서
 62
     0
100
AcDbTrace
 10
73.14845802161214
 20
81.24550194950498
 30
0.0
 11
73.14845802161214
 21
80.14483528283833
 31
0.0
 12
69.84645802161214
 22
80.69516861617166
 32
0.0
 13
69.84645802161214
 23
80.69516861617166
 33
0.0
  0
SOLID
  5
277
330
270
100
AcDbEntity
  8
치수문자_일반주서
 62
     0
100
AcDbTrace
 10
72.89445802161214
 20
80.14483528283833
 30
0.0
 11
72.89445802161214
 21
81.24550194950498
 31
0.0
 12
76.19645802161214
 22
80.69516861617166
 32
0.0
 13
76.19645802161214
 23
80.69516861617166
 33
0.0
  0
MTEXT
  5
278
330
270
100
AcDbEntity
  8
치수문자_일반주서
 62
     0
100
AcDbMText
 10
72.23475169032352
 20
85.07016861617166
 30
0.0
 40
3.5
 41
0.0
 71
     2
 72
     1
  1
\A1;6.35 [0.25]
  7
SLDTEXTSTYLE0
 73
     1
 44
1.0
  0
POINT
  5
279
330
270
100
AcDbEntity
  8
Defpoints
 62
     0
100
AcDbPoint
 10
69.84645802161214
 20
51.36817576695243
 30
0.0
  0
POINT
  5
27A
330
270
100
AcDbEntity
  8
Defpoints
 62
     0
100
AcDbPoint
 10
76.19645802161214
 20
49.88227576695243
 30
0.0
  0
POINT
  5
27B
330
270
100
AcDbEntity
  8
Defpoints
 62
     0
100
AcDbPoint
 10
76.19645802161214
 20
80.69516861617166
 30
0.0
  0
ENDBLK
  5
272
330
270
100
AcDbEntity
  8
0
100
AcDbBlockEnd
  0
BLOCK
  5
27D
330
27C
100
AcDbEntity
  8
0
100
AcDbBlockBegin
  2
*D12
 70
     1
 10
0.0
 20
0.0
 30
0.0
  3
*D12
  1
*D12
  0
LINE
  5
27F
330
27C
100
AcDbEntity
  8
치수문자_일반주서
 62
     0
370
    -2
100
AcDbLine
 10
71.43395802161214
 20
51.50546640504277
 30
0.0
 11
71.43395802161214
 21
75.26374700002702
 31
0.0
  0
LINE
  5
280
330
27C
100
AcDbEntity
  8
치수문자_일반주서
 62
     0
370
    -2
100
AcDbLine
 10
76.19645802161214
 20
49.94477576695243
 30
0.0
 11
76.19645802161214
 21
75.26374700002702
 31
0.0
  0
LINE
  5
281
330
27C
100
AcDbEntity
  8
치수문자_일반주서
 62
     0
370
    -2
100
AcDbLine
 10
74.73595802161215
 20
75.26374700002702
 30
0.0
 11
72.89445802161214
 21
75.26374700002702
 31
0.0
  0
SOLID
  5
282
330
27C
100
AcDbEntity
  8
치수문자_일반주서
 62
     0
100
AcDbTrace
 10
74.73595802161215
 20
75.81408033336035
 30
0.0
 11
74.73595802161215
 21
74.7134136666937
 31
0.0
 12
71.43395802161214
 22
75.26374700002702
 32
0.0
 13
71.43395802161214
 23
75.26374700002702
 33
0.0
  0
SOLID
  5
283
330
27C
100
AcDbEntity
  8
치수문자_일반주서
 62
     0
100
AcDbTrace
 10
72.89445802161214
 20
74.7134136666937
 30
0.0
 11
72.89445802161214
 21
75.81408033336035
 31
0.0
 12
76.19645802161214
 22
75.26374700002702
 32
0.0
 13
76.19645802161214
 23
75.26374700002702
 33
0.0
  0
MTEXT
  5
284
330
27C
100
AcDbEntity
  8
치수문자_일반주서
 62
     0
100
AcDbMText
 10
74.12898058983993
 20
79.63874700002702
 30
0.0
 40
3.5
 41
0.0
 71
     2
 72
     1
  1
\A1;4.76 [0.19]
  7
SLDTEXTSTYLE0
 73
     1
 44
1.0
  0
POINT
  5
285
330
27C
100
AcDbEntity
  8
Defpoints
 62
     0
100
AcDbPoint
 10
71.43395802161214
 20
51.44296640504277
 30
0.0
  0
POINT
  5
286
330
27C
100
AcDbEntity
  8
Defpoints
 62
     0
100
AcDbPoint
 10
76.19645802161214
 20
49.88227576695243
 30
0.0
  0
POINT
  5
287
330
27C
100
AcDbEntity
  8
Defpoints
 62
     0
100
AcDbPoint
 10
76.19645802161214
 20
75.26374700002702
 30
0.0
  0
ENDBLK
  5
27E
330
27C
100
AcDbEntity
  8
0
100
AcDbBlockEnd
  0
BLOCK
  5
2D0
330
2CF
100
AcDbEntity
  8
0
100
AcDbBlockBegin
  2
*D13
 70
     1
 10
0.0
 20
0.0
 30
0.0
  3
*D13
  1
*D13
  0
LINE
  5
2D2
330
2CF
100
AcDbEntity
  8
치수문자_일반주서
 62
     0
370
    -2
100
AcDbLine
 10
-39.0189290019209
 20
3.17499999999999
 30
0.0
 11
-51.45288702353299
 21
3.174999999999943
 31
0.0
  0
LINE
  5
2D3
330
2CF
100
AcDbEntity
  8
치수문자_일반주서
 62
     0
370
    -2
100
AcDbLine
 10
-39.0189290019209
 20
-3.174999999999998
 30
0.0
 11
-51.45288702353297
 21
-3.175000000000045
 31
0.0
  0
LINE
  5
2D4
330
2CF
100
AcDbEntity
  8
치수문자_일반주서
 62
     0
370
    -2
100
AcDbLine
 10
-51.45288702353297
 20
-0.1270000000000575
 30
0.0
 11
-51.45288702353298
 21
0.1269999999999554
 31
0.0
  0
SOLID
  5
2D5
330
2CF
100
AcDbEntity
  8
치수문자_일반주서
 62
     0
100
AcDbTrace
 10
-50.90255369019964
 20
-0.1270000000000557
 30
0.0
 11
-52.00322035686631
 21
-0.1270000000000594
 31
0.0
 12
-51.45288702353299
 22
3.174999999999943
 32
0.0
 13
-51.45288702353299
 23
3.174999999999943
 33
0.0
  0
SOLID
  5
2D6
330
2CF
100
AcDbEntity
  8
치수문자_일반주서
 62
     0
100
AcDbTrace
 10
-52.00322035686631
 20
0.1269999999999535
 30
0.0
 11
-50.90255369019965
 21
0.1269999999999572
 31
0.0
 12
-51.45288702353297
 22
-3.175000000000045
 32
0.0
 13
-51.45288702353297
 23
-3.175000000000045
 33
0.0
  0
MTEXT
  5
2D7
330
2CF
100
AcDbEntity
  8
치수문자_일반주서
 62
     0
100
AcDbMText
 10
-55.82788702353298
 20
-0.0000000000000216
 30
0.0
 40
3.5
 41
0.0
 71
     2
 72
     1
  1
\A1;%%c6.35 [1/4]
  7
SLDTEXTSTYLE0
 11
-3.356894814614654E-15
 21
1.0
 31
0.0
 73
     1
 44
1.0
  0
POINT
  5
2D8
330
2CF
100
AcDbEntity
  8
Defpoints
 62
     0
100
AcDbPoint
 10
-38.9564290019209
 20
3.17499999999999
 30
0.0
  0
POINT
  5
2D9
330
2CF
100
AcDbEntity
  8
Defpoints
 62
     0
100
AcDbPoint
 10
-38.9564290019209
 20
-3.174999999999997
 30
0.0
  0
POINT
  5
2DA
330
2CF
100
AcDbEntity
  8
Defpoints
 62
     0
100
AcDbPoint
 10
-51.45288702353297
 20
-3.175000000000044
 30
0.0
  0
ENDBLK
  5
2D1
330
2CF
100
AcDbEntity
  8
0
100
AcDbBlockEnd
  0
BLOCK
  5
2DC
330
2DB
100
AcDbEntity
  8
0
100
AcDbBlockBegin
  2
*D14
 70
     1
 10
0.0
 20
0.0
 30
0.0
  3
*D14
  1
*D14
  0
LINE
  5
2DE
330
2DB
100
AcDbEntity
  8
치수문자_일반주서
 62
     0
370
    -2
100
AcDbLine
 10
-39.9564290019209
 20
2.23749999999999
 30
0.0
 11
-39.9564290019209
 21
42.38211172933094
 31
0.0
  0
LINE
  5
2DF
330
2DB
100
AcDbEntity
  8
치수문자_일반주서
 62
     0
370
    -2
100
AcDbLine
 10
20.36857099807911
 20
0.0625
 30
0.0
 11
20.36857099807911
 21
42.38211172933094
 31
0.0
  0
LINE
  5
2E0
330
2DB
100
AcDbEntity
  8
치수문자_일반주서
 62
     0
370
    -2
100
AcDbLine
 10
-36.6544290019209
 20
42.38211172933094
 30
0.0
 11
17.06657099807911
 21
42.38211172933094
 31
0.0
  0
SOLID
  5
2E1
330
2DB
100
AcDbEntity
  8
치수문자_일반주서
 62
     0
100
AcDbTrace
 10
-36.6544290019209
 20
42.93244506266428
 30
0.0
 11
-36.6544290019209
 21
41.83177839599761
 31
0.0
 12
-39.9564290019209
 22
42.38211172933094
 32
0.0
 13
-39.9564290019209
 23
42.38211172933094
 33
0.0
  0
SOLID
  5
2E2
330
2DB
100
AcDbEntity
  8
치수문자_일반주서
 62
     0
100
AcDbTrace
 10
17.06657099807911
 20
41.83177839599761
 30
0.0
 11
17.06657099807911
 21
42.93244506266428
 31
0.0
 12
20.36857099807911
 22
42.38211172933094
 32
0.0
 13
20.36857099807911
 23
42.38211172933094
 33
0.0
  0
MTEXT
  5
2E3
330
2DB
100
AcDbEntity
  8
치수문자_일반주서
 62
     0
100
AcDbMText
 10
-13.96400460984111
 20
46.75711172933094
 30
0.0
 40
3.5
 41
0.0
 71
     2
 72
     1
  1
\A1;60.33 [2 3/8]
  7
SLDTEXTSTYLE0
 73
     1
 44
1.0
  0
POINT
  5
2E4
330
2DB
100
AcDbEntity
  8
Defpoints
 62
     0
100
AcDbPoint
 10
-39.9564290019209
 20
2.17499999999999
 30
0.0
  0
POINT
  5
2E5
330
2DB
100
AcDbEntity
  8
Defpoints
 62
     0
100
AcDbPoint
 10
20.36857099807911
 20
0.0
 30
0.0
  0
POINT
  5
2E6
330
2DB
100
AcDbEntity
  8
Defpoints
 62
     0
100
AcDbPoint
 10
20.36857099807911
 20
42.38211172933094
 30
0.0
  0
ENDBLK
  5
2DD
330
2DB
100
AcDbEntity
  8
0
100
AcDbBlockEnd
  0
BLOCK
  5
2E8
330
2E7
100
AcDbEntity
  8
0
100
AcDbBlockBegin
  2
*D15
 70
     1
 10
0.0
 20
0.0
 30
0.0
  3
*D15
  1
*D15
  0
LINE
  5
2EA
330
2E7
100
AcDbEntity
  8
치수문자_일반주서
 62
     0
370
    -2
100
AcDbLine
 10
14.0185709980791
 20
1.548400000000001
 30
0.0
 11
14.0185709980791
 21
30.81289284921922
 31
0.0
  0
LINE
  5
2EB
330
2E7
100
AcDbEntity
  8
치수문자_일반주서
 62
     0
370
    -2
100
AcDbLine
 10
20.36857099807911
 20
0.0625
 30
0.0
 11
20.36857099807911
 21
30.81289284921922
 31
0.0
  0
LINE
  5
2EC
330
2E7
100
AcDbEntity
  8
치수문자_일반주서
 62
     0
370
    -2
100
AcDbLine
 10
17.3205709980791
 20
30.81289284921922
 30
0.0
 11
17.06657099807911
 21
30.81289284921922
 31
0.0
  0
SOLID
  5
2ED
330
2E7
100
AcDbEntity
  8
치수문자_일반주서
 62
     0
100
AcDbTrace
 10
17.3205709980791
 20
31.36322618255256
 30
0.0
 11
17.3205709980791
 21
30.26255951588589
 31
0.0
 12
14.0185709980791
 22
30.81289284921922
 32
0.0
 13
14.0185709980791
 23
30.81289284921922
 33
0.0
  0
SOLID
  5
2EE
330
2E7
100
AcDbEntity
  8
치수문자_일반주서
 62
     0
100
AcDbTrace
 10
17.06657099807911
 20
30.26255951588589
 30
0.0
 11
17.06657099807911
 21
31.36322618255256
 31
0.0
 12
20.36857099807911
 22
30.81289284921922
 32
0.0
 13
20.36857099807911
 23
30.81289284921922
 33
0.0
  0
MTEXT
  5
2EF
330
2E7
100
AcDbEntity
  8
치수문자_일반주서
 62
     0
100
AcDbMText
 10
16.40686466679048
 20
35.18789284921922
 30
0.0
 40
3.5
 41
0.0
 71
     2
 72
     1
  1
\A1;6.35 [1/4]
  7
SLDTEXTSTYLE0
 73
     1
 44
1.0
  0
POINT
  5
2F0
330
2E7
100
AcDbEntity
  8
Defpoints
 62
     0
100
AcDbPoint
 10
14.0185709980791
 20
1.485900000000001
 30
0.0
  0
POINT
  5
2F1
330
2E7
100
AcDbEntity
  8
Defpoints
 62
     0
100
AcDbPoint
 10
20.36857099807911
 20
0.0
 30
0.0
  0
POINT
  5
2F2
330
2E7
100
AcDbEntity
  8
Defpoints
 62
     0
100
AcDbPoint
 10
20.36857099807911
 20
30.81289284921922
 30
0.0
  0
ENDBLK
  5
2E9
330
2E7
100
AcDbEntity
  8
0
100
AcDbBlockEnd
  0
BLOCK
  5
2F4
330
2F3
100
AcDbEntity
  8
0
100
AcDbBlockBegin
  2
*D16
 70
     1
 10
0.0
 20
0.0
 30
0.0
  3
*D16
  1
*D16
  0
LINE
  5
2F6
330
2F3
100
AcDbEntity
  8
치수문자_일반주서
 62
     0
370
    -2
100
AcDbLine
 10
15.6060709980791
 20
1.623190638090342
 30
0.0
 11
15.6060709980791
 21
18.67722180546534
 31
0.0
  0
LINE
  5
2F7
330
2F3
100
AcDbEntity
  8
치수문자_일반주서
 62
     0
370
    -2
100
AcDbLine
 10
20.36857099807911
 20
0.0625
 30
0.0
 11
20.36857099807911
 21
18.67722180546534
 31
0.0
  0
LINE
  5
2F8
330
2F3
100
AcDbEntity
  8
치수문자_일반주서
 62
     0
370
    -2
100
AcDbLine
 10
15.6060709980791
 20
18.67722180546534
 30
0.0
 11
20.36857099807911
 21
18.67722180546534
 31
0.0
  0
LINE
  5
2F9
330
2F3
100
AcDbEntity
  8
치수문자_일반주서
 62
     0
370
    -2
100
AcDbLine
 10
12.3040709980791
 20
18.67722180546534
 30
0.0
 11
9.002070998079105
 21
18.67722180546534
 31
0.0
  0
LINE
  5
2FA
330
2F3
100
AcDbEntity
  8
치수문자_일반주서
 62
     0
370
    -2
100
AcDbLine
 10
23.67057099807911
 20
18.67722180546534
 30
0.0
 11
26.97257099807911
 21
18.67722180546534
 31
0.0
  0
SOLID
  5
2FB
330
2F3
100
AcDbEntity
  8
치수문자_일반주서
 62
     0
100
AcDbTrace
 10
12.3040709980791
 20
18.126888472132
 30
0.0
 11
12.3040709980791
 21
19.22755513879867
 31
0.0
 12
15.6060709980791
 22
18.67722180546534
 32
0.0
 13
15.6060709980791
 23
18.67722180546534
 33
0.0
  0
SOLID
  5
2FC
330
2F3
100
AcDbEntity
  8
치수문자_일반주서
 62
     0
100
AcDbTrace
 10
23.67057099807911
 20
19.22755513879867
 30
0.0
 11
23.67057099807911
 21
18.126888472132
 31
0.0
 12
20.36857099807911
 22
18.67722180546534
 32
0.0
 13
20.36857099807911
 23
18.67722180546534
 33
0.0
  0
MTEXT
  5
2FD
330
2F3
100
AcDbEntity
  8
치수문자_일반주서
 62
     0
100
AcDbMText
 10
18.30109356630689
 20
23.05222180546534
 30
0.0
 40
3.5
 41
0.0
 71
     2
 72
     1
  1
\A1;4.76 [3/16]
  7
SLDTEXTSTYLE0
 73
     1
 44
1.0
  0
POINT
  5
2FE
330
2F3
100
AcDbEntity
  8
Defpoints
 62
     0
100
AcDbPoint
 10
15.6060709980791
 20
1.560690638090342
 30
0.0
  0
POINT
  5
300
330
2F3
100
AcDbEntity
  8
Defpoints
 62
     0
100
AcDbPoint
 10
20.36857099807911
 20
0.0
 30
0.0
  0
POINT
  5
301
330
2F3
100
AcDbEntity
  8
Defpoints
 62
     0
100
AcDbPoint
 10
20.36857099807911
 20
18.67722180546534
 30
0.0
  0
ENDBLK
  5
2F5
330
2F3
100
AcDbEntity
  8
0
100
AcDbBlockEnd
  0
BLOCK
  5
306
330
305
100
AcDbEntity
  8
0
100
AcDbBlockBegin
  2
*D17
 70
     1
 10
0.0
 20
0.0
 30
0.0
  3
*D17
  1
*D17
  0
LINE
  5
308
330
305
100
AcDbEntity
  8
치수문자_일반주서
 62
     0
370
    -2
100
AcDbLine
 10
16.02123319444036
 20
1.587499999999999
 30
0.0
 11
40.9203269190854
 21
1.587499999999999
 31
0.0
  0
LINE
  5
309
330
305
100
AcDbEntity
  8
치수문자_일반주서
 62
     0
370
    -2
100
AcDbLine
 10
17.85720978110836
 20
-1.587499999999991
 30
0.0
 11
40.9203269190854
 21
-1.587499999999991
 31
0.0
  0
LINE
  5
30A
330
305
100
AcDbEntity
  8
치수문자_일반주서
 62
     0
370
    -2
100
AcDbLine
 10
40.9203269190854
 20
1.587499999999999
 30
0.0
 11
40.9203269190854
 21
32.6915
 31
0.0
  0
LINE
  5
30B
330
305
100
AcDbEntity
  8
치수문자_일반주서
 62
     0
370
    -2
100
AcDbLine
 10
40.9203269190854
 20
1.587499999999999
 30
0.0
 11
40.9203269190854
 21
-1.587499999999991
 31
0.0
  0
LINE
  5
30C
330
305
100
AcDbEntity
  8
치수문자_일반주서
 62
     0
370
    -2
100
AcDbLine
 10
40.9203269190854
 20
4.889499999999998
 30
0.0
 11
40.9203269190854
 21
8.191499999999998
 31
0.0
  0
LINE
  5
30D
330
305
100
AcDbEntity
  8
치수문자_일반주서
 62
     0
370
    -2
100
AcDbLine
 10
40.9203269190854
 20
-4.889499999999991
 30
0.0
 11
40.9203269190854
 21
-8.19149999999999
 31
0.0
  0
SOLID
  5
30E
330
305
100
AcDbEntity
  8
치수문자_일반주서
 62
     0
100
AcDbTrace
 10
40.36999358575206
 20
4.889499999999998
 30
0.0
 11
41.47066025241873
 21
4.889499999999998
 31
0.0
 12
40.9203269190854
 22
1.587499999999999
 32
0.0
 13
40.9203269190854
 23
1.587499999999999
 33
0.0
  0
SOLID
  5
30F
330
305
100
AcDbEntity
  8
치수문자_일반주서
 62
     0
100
AcDbTrace
 10
41.47066025241873
 20
-4.889499999999991
 30
0.0
 11
40.36999358575206
 21
-4.889499999999991
 31
0.0
 12
40.9203269190854
 22
-1.587499999999991
 32
0.0
 13
40.9203269190854
 23
-1.587499999999991
 33
0.0
  0
MTEXT
  5
310
330
305
100
AcDbEntity
  8
치수문자_일반주서
 62
     0
100
AcDbMText
 10
38.2953269190854
 20
20.4415
 30
0.0
 40
3.5
 41
0.0
 71
     5
 72
     1
  1
\A1;{%%C3.18 [1/8]}
  7
SLDTEXTSTYLE0
 11
0.0
 21
1.0
 31
0.0
 73
     1
 44
1.0
  0
POINT
  5
311
330
305
100
AcDbEntity
  8
Defpoints
 62
     0
100
AcDbPoint
 10
15.95873319444036
 20
1.587499999999999
 30
0.0
  0
POINT
  5
312
330
305
100
AcDbEntity
  8
Defpoints
 62
     0
100
AcDbPoint
 10
17.79470978110836
 20
-1.587499999999991
 30
0.0
  0
POINT
  5
314
330
305
100
AcDbEntity
  8
Defpoints
 62
     0
100
AcDbPoint
 10
40.9203269190854
 20
-1.587499999999993
 30
0.0
  0
ENDBLK
  5
307
330
305
100
AcDbEntity
  8
0
100
AcDbBlockEnd
  0
ENDSEC
  0
SECTION
  2
ENTITIES
  0
LINE
  5
289
330
1F
100
AcDbEntity
  8
0
  6
Continuous
 62
     4
370
    15
100
AcDbLine
 10
2.0
 20
3.174999999999997
 30
0.0
 11
-38.9564290019209
 21
3.17499999999999
 31
0.0
  0
LINE
  5
28A
330
1F
100
AcDbEntity
  8
0
  6
Continuous
 62
     4
370
    15
100
AcDbLine
 10
-38.9564290019209
 20
-3.174999999999997
 30
0.0
 11
2.0
 21
-3.174999999999997
 31
0.0
  0
LINE
  5
28B
330
1F
100
AcDbEntity
  8
0
  6
Continuous
 62
     4
370
    15
100
AcDbLine
 10
-38.9564290019209
 20
3.17499999999999
 30
0.0
 11
-39.9564290019209
 21
2.17499999999999
 31
0.0
  0
LINE
  5
28C
330
1F
100
AcDbEntity
  8
0
  6
Continuous
 62
     4
370
    15
100
AcDbLine
 10
-39.9564290019209
 20
-2.174999999999997
 30
0.0
 11
-38.9564290019209
 21
-3.174999999999997
 31
0.0
  0
LINE
  5
28D
330
1F
100
AcDbEntity
  8
0
  6
Continuous
 62
     4
370
    15
100
AcDbLine
 10
2.0
 20
-3.174999999999997
 30
0.0
 11
14.0185709980791
 21
-1.485900000000001
 31
0.0
  0
LINE
  5
28E
330
1F
100
AcDbEntity
  8
0
  6
Continuous
 62
     4
370
    15
100
AcDbLine
 10
14.0185709980791
 20
1.485900000000001
 30
0.0
 11
2.0
 21
3.174999999999997
 31
0.0
  0
LINE
  5
28F
330
1F
100
AcDbEntity
  8
0
  6
Continuous
 62
     4
370
    15
100
AcDbLine
 10
14.71572182927565
 20
1.485900000000001
 30
0.0
 11
14.0185709980791
 21
1.485900000000001
 31
0.0
  0
LINE
  5
290
330
1F
100
AcDbEntity
  8
0
  6
Continuous
 62
     4
370
    15
100
AcDbLine
 10
15.6060709980791
 20
1.485900000000001
 30
0.0
 11
15.20105201599324
 21
1.485900000000001
 31
0.0
  0
LINE
  5
291
330
1F
100
AcDbEntity
  8
0
  6
Continuous
 62
     4
370
    15
100
AcDbLine
 10
14.0185709980791
 20
-1.485900000000001
 30
0.0
 11
14.71572182927565
 21
-1.485900000000001
 31
0.0
  0
ARC
  5
292
330
1F
100
AcDbEntity
  8
0
  6
Continuous
 62
     1
370
    15
100
AcDbCircle
 10
18.7810709980791
 20
0.0
 30
0.0
 40
1.587500000000002
100
AcDbArc
 50
353.5800701243587
 51
0.0
  0
ARC
  5
293
330
1F
100
AcDbEntity
  8
0
  6
Continuous
 62
     1
370
    15
100
AcDbCircle
 10
18.7810709980791
 20
0.0
 30
0.0
 40
1.587500000000002
100
AcDbArc
 50
0.0
 51
59.9614107630825
  0
LINE
  5
294
102
{ACAD_REACTORS
102
}
330
1F
100
AcDbEntity
  8
0
  6
Continuous
 62
     1
370
    15
100
AcDbLine
 10
15.95873319444036
 20
1.587499999999999
 30
0.0
 11
15.6060709980791
 21
1.587499999999999
 31
0.0
  0
LINE
  5
295
102
{ACAD_REACTORS
102
}
330
1F
100
AcDbEntity
  8
0
  6
Continuous
 62
     1
370
    15
100
AcDbLine
 10
17.4243737682566
 20
-1.587499999999991
 30
0.0
 11
18.16504579396012
 21
-1.587499999999991
 31
0.0
  0
LINE
  5
296
330
1F
100
AcDbEntity
  8
0
  6
Continuous
 62
     4
370
    15
100
AcDbLine
 10
2.0
 20
3.174999999999997
 30
0.0
 11
2.0
 21
-3.174999999999997
 31
0.0
  0
LINE
  5
297
330
1F
100
AcDbEntity
  8
0
  6
Continuous
 62
     4
370
    15
100
AcDbLine
 10
-38.9564290019209
 20
3.17499999999999
 30
0.0
 11
-38.9564290019209
 21
-3.174999999999997
 31
0.0
  0
LINE
  5
298
330
1F
100
AcDbEntity
  8
0
  6
Continuous
 62
     4
370
    15
100
AcDbLine
 10
-39.9564290019209
 20
2.17499999999999
 30
0.0
 11
-39.9564290019209
 21
-2.174999999999997
 31
0.0
  0
LINE
  5
299
330
1F
100
AcDbEntity
  8
0
  6
Continuous
 62
     4
370
    15
100
AcDbLine
 10
14.0185709980791
 20
1.485900000000001
 30
0.0
 11
14.0185709980791
 21
-1.485900000000001
 31
0.0
  0
SPLINE
  5
29A
330
1F
100
AcDbEntity
  8
0
  6
Continuous
 62
     4
370
    15
100
AcDbSpline
210
0.0
220
0.0
230
1.0
 70
    24
 71
     3
 72
    14
 73
    10
 74
     0
 42
0.000000001
 43
0.00000001
 40
0.0
 40
0.0
 40
0.0
 40
0.0
 40
0.2500000000000001
 40
0.2500000000000001
 40
0.5000000000000001
 40
0.5000000000000001
 40
0.75
 40
0.75
 40
1.0
 40
1.0
 40
1.0
 40
1.0
 10
15.6060709980791
 20
0.5398398370067312
 30
0.0
 10
15.6060709980791
 20
0.4627749876725673
 30
0.0
 10
15.6060709980791
 20
0.3767519845294771
 30
0.0
 10
15.6060709980791
 20
0.1920733733306292
 30
0.0
 10
15.6060709980791
 20
0.0933839831490673
 30
0.0
 10
15.6060709980791
 20
-0.1028309126362288
 30
0.0
 10
15.6060709980791
 20
-0.2001160034624192
 30
0.0
 10
15.6060709980791
 20
-0.3734678556635913
 30
0.0
 10
15.6060709980791
 20
-0.4491270104224299
 30
0.0
 10
15.6060709980791
 20
-0.506332060691804
 30
0.0
  0
SPLINE
  5
29B
330
1F
100
AcDbEntity
  8
0
  6
Continuous
 62
     4
370
    15
100
AcDbSpline
210
0.0
220
0.0
230
1.0
 70
     8
 71
     3
 72
    10
 73
     6
 74
     0
 42
0.000000001
 43
0.00000001
 40
0.0
 40
0.0
 40
0.0
 40
0.0
 40
0.5
 40
0.5
 40
1.0
 40
1.0
 40
1.0
 40
1.0
 10
15.60607099807908
 20
-0.5063320606917898
 30
0.0
 10
15.45672463127113
 20
-0.4077971495366626
 30
0.0
 10
15.30894915282448
 20
-0.3058292318352329
 30
0.0
 10
15.01501138050392
 20
-0.0992767061059965
 30
0.0
 10
14.86460280682257
 20
0.0063093715377533
 30
0.0
 10
14.71572182927565
 20
0.110716909508298
 30
0.0
  0
SPLINE
  5
29C
330
1F
100
AcDbEntity
  8
0
  6
Continuous
 62
     4
370
    15
100
AcDbSpline
210
0.0
220
0.0
230
1.0
 70
     8
 71
     3
 72
    10
 73
     6
 74
     0
 42
0.000000001
 43
0.00000001
 40
0.0
 40
0.0
 40
0.0
 40
0.0
 40
0.5
 40
0.5
 40
1.0
 40
1.0
 40
1.0
 40
1.0
 10
15.60607099807905
 20
0.5398398370067596
 30
0.0
 10
15.45672463127107
 20
0.6070626445312612
 30
0.0
 10
15.30894915282448
 20
0.6700045414220384
 30
0.0
 10
15.01501138050389
 20
0.7849055580655175
 30
0.0
 10
14.86460280682257
 20
0.8373683547809136
 30
0.0
 10
14.71572182927565
 20
0.8830314066022353
 30
0.0
  0
SPLINE
  5
29D
330
1F
100
AcDbEntity
  8
0
  6
Continuous
 62
     4
370
    15
100
AcDbSpline
210
0.0
220
0.0
230
1.0
 70
     8
 71
     3
 72
    10
 73
     6
 74
     0
 42
0.000000001
 43
0.00000001
 40
0.0
 40
0.0
 40
0.0
 40
0.0
 40
0.5
 40
0.5
 40
1.0
 40
1.0
 40
1.0
 40
1.0
 10
14.71594357071177
 20
1.446813346193515
 30
0.0
 10
14.8647891152271
 20
1.470663651746683
 30
0.0
 10
15.01515900233682
 20
1.483703996273611
 30
0.0
 10
15.30902042219762
 20
1.487581729393064
 30
0.0
 10
15.45676170350896
 20
1.478531965353575
 30
0.0
 10
15.60607099807606
 20
1.458503962821624
 30
0.0
  0
SPLINE
  5
29E
330
1F
100
AcDbEntity
  8
0
  6
Continuous
 62
     4
370
    15
100
AcDbSpline
210
0.0
220
0.0
230
1.0
 70
     8
 71
     3
 72
    10
 73
     6
 74
     0
 42
0.000000001
 43
0.00000001
 40
0.0
 40
0.0
 40
0.0
 40
0.0
 40
0.5
 40
0.5
 40
1.0
 40
1.0
 40
1.0
 40
1.0
 10
14.71594357071177
 20
-0.4301960602989681
 30
0.0
 10
14.8647891152271
 20
-0.5303861126366343
 30
0.0
 10
15.01515900233682
 20
-0.6276688541214668
 30
0.0
 10
15.30902042219762
 20
-0.8100962232877293
 30
0.0
 10
15.45676170350896
 20
-0.8961605383457112
 30
0.0
 10
15.60607099807606
 20
-0.9752169185974395
 30
0.0
  0
LINE
  5
29F
330
1F
100
AcDbEntity
  8
0
  6
Continuous
 62
     4
370
    15
100
AcDbLine
 10
14.71572182927565
 20
-1.485900000000001
 30
0.0
 11
14.71572182927565
 21
-0.4301150578769608
 31
0.0
  0
SPLINE
  5
2A0
330
1F
100
AcDbEntity
  8
0
  6
Continuous
 62
     4
370
    15
100
AcDbSpline
210
0.0
220
0.0
230
1.0
 70
     8
 71
     3
 72
     9
 73
     5
 74
     0
 42
0.000000001
 43
0.00000001
 40
0.0
 40
0.0
 40
0.0
 40
0.0
 40
0.3760391101562987
 40
0.9999999999999999
 40
0.9999999999999999
 40
0.9999999999999999
 40
0.9999999999999999
 10
15.34562879501954
 20
-1.082144861372228
 30
0.0
 10
15.26674735022823
 20
-1.121933188439641
 30
0.0
 10
15.05697809309288
 20
-1.227742201366169
 30
0.0
 10
14.84683986504103
 20
-1.296011211549214
 30
0.0
 10
14.71572182927565
 20
-1.338608403891769
 30
0.0
  0
LINE
  5
2A1
330
1F
100
AcDbEntity
  8
0
  6
Continuous
 62
     4
370
    15
100
AcDbLine
 10
14.71572182927565
 20
0.1106576378469697
 30
0.0
 11
14.71572182927565
 21
1.485900000000001
 31
0.0
  0
SPLINE
  5
2A2
330
1F
100
AcDbEntity
  8
0
  6
Continuous
 62
     4
370
    15
100
AcDbSpline
210
0.0
220
0.0
230
1.0
 70
     8
 71
     3
 72
    10
 73
     6
 74
     0
 42
0.000000001
 43
0.00000001
 40
0.0
 40
0.0
 40
0.0
 40
0.0
 40
0.5
 40
0.5
 40
1.0
 40
1.0
 40
1.0
 40
1.0
 10
15.60607099807905
 20
-1.095281771605514
 30
0.0
 10
15.45672463127107
 20
-1.095917139474437
 30
0.0
 10
15.30894915282448
 20
-1.088356077905402
 30
0.0
 10
15.01501138050389
 20
-1.05740689147008
 30
0.0
 10
14.86460280682257
 20
-1.033802419273869
 30
0.0
 10
14.71572182927565
 20
-1.002750170334608
 30
0.0
  0
SPLINE
  5
2A3
330
1F
100
AcDbEntity
  8
0
  6
Continuous
 62
     4
370
    15
100
AcDbSpline
210
0.0
220
0.0
230
1.0
 70
    24
 71
     3
 72
    13
 73
     9
 74
     0
 42
0.000000001
 43
0.00000001
 40
0.0
 40
0.0
 40
0.0
 40
0.0
 40
0.0391272214703869
 40
0.2612920166929708
 40
0.4898996060275224
 40
0.7120644012501038
 40
0.9406719905846526
 40
1.0
 40
1.0
 40
1.0
 40
1.0
 10
15.6060709980791
 20
-0.8448923197014011
 30
0.0
 10
15.6060709980791
 20
-0.8442345289590065
 30
0.0
 10
15.6060709980791
 20
-0.8398417951235189
 30
0.0
 10
15.6060709980791
 20
-0.8579020789381389
 30
0.0
 10
15.6060709980791
 20
-0.89988038671261
 30
0.0
 10
15.6060709980791
 20
-0.9704705619484457
 30
0.0
 10
15.6060709980791
 20
-1.040237872483615
 30
0.0
 10
15.6060709980791
 20
-1.085877834974738
 30
0.0
 10
15.6060709980791
 20
-1.095281771605514
 30
0.0
  0
SPLINE
  5
2A4
330
1F
100
AcDbEntity
  8
0
  6
Continuous
 62
     4
370
    15
100
AcDbSpline
210
0.0
220
0.0
230
1.0
 70
    24
 71
     3
 72
    14
 73
    10
 74
     0
 42
0.000000001
 43
0.00000001
 40
0.0
 40
0.0
 40
0.0
 40
0.0
 40
0.2499999999999999
 40
0.2499999999999999
 40
0.4999999999999998
 40
0.4999999999999998
 40
0.7499999999999999
 40
0.7499999999999999
 40
1.0
 40
1.0
 40
1.0
 40
1.0
 10
15.6060709980791
 20
1.458503962821212
 30
0.0
 10
15.6060709980791
 20
1.345404344698601
 30
0.0
 10
15.6060709980791
 20
1.231042748003702
 30
0.0
 10
15.6060709980791
 20
1.020599619020686
 30
0.0
 10
15.6060709980791
 20
0.9248056042873571
 30
0.0
 10
15.6060709980791
 20
0.7638714166807148
 30
0.0
 10
15.6060709980791
 20
0.69864730017715
 30
0.0
 10
15.6060709980791
 20
0.5985408566277499
 30
0.0
 10
15.6060709980791
 20
0.5634357961884717
 30
0.0
 10
15.6060709980791
 20
0.5398398370067312
 30
0.0
  0
SPLINE
  5
2A5
330
1F
100
AcDbEntity
  8
0
  6
Continuous
 62
     1
370
    15
100
AcDbSpline
210
0.0
220
0.0
230
1.0
 70
     8
 71
     3
 72
     8
 73
     4
 74
     0
 42
0.000000001
 43
0.00000001
 40
0.0
 40
0.0
 40
0.0
 40
0.0
 40
1.0
 40
1.0
 40
1.0
 40
1.0
 10
19.34746442044795
 20
-1.042990799219723
 30
0.0
 10
19.29569392465143
 20
-1.00581497698478
 30
0.0
 10
19.24290633629828
 20
-0.9687698507044331
 30
0.0
 10
19.18881304464156
 20
-0.9318925067351387
 30
0.0
  0
SPLINE
  5
2A6
330
1F
100
AcDbEntity
  8
0
  6
Continuous
 62
     1
370
    15
100
AcDbSpline
210
0.0
220
0.0
230
1.0
 70
     8
 71
     3
 72
    22
 73
    18
 74
     0
 42
0.000000001
 43
0.00000001
 40
0.0
 40
0.0
 40
0.0
 40
0.0
 40
0.1249999999999999
 40
0.1249999999999999
 40
0.2499999999999997
 40
0.2499999999999997
 40
0.3749999999999996
 40
0.3749999999999996
 40
0.4999999999999997
 40
0.4999999999999997
 40
0.6249999999999998
 40
0.6249999999999998
 40
0.7499999999999998
 40
0.7499999999999998
 40
0.8749999999999999
 40
0.8749999999999999
 40
1.0
 40
1.0
 40
1.0
 40
1.0
 10
19.34746442049179
 20
-1.042990799226658
 30
0.0
 10
19.1905755846206
 20
-1.018187268383414
 30
0.0
 10
19.0333679061287
 20
-0.9846893005928194
 30
0.0
 10
18.7256662097471
 20
-0.9027745575661186
 30
0.0
 10
18.56751802332994
 20
-0.8536616870171514
 30
0.0
 10
18.25413568997425
 20
-0.7424508602500879
 30
0.0
 10
18.10144763110092
 20
-0.6807883441752693
 30
0.0
 10
17.7885030605396
 20
-0.5463497498193846
 30
0.0
 10
17.63018627037133
 20
-0.4737626419213257
 30
0.0
 10
17.32141230507455
 20
-0.3232665643397468
 30
0.0
 10
17.16540602974897
 20
-0.2444874196554849
 30
0.0
 10
16.85141204304506
 20
-0.0838496643586382
 30
0.0
 10
16.69806485664296
 20
-0.0028085435930549
 30
0.0
 10
16.38643888019743
 20
0.1588438071037501
 30
0.0
 10
16.22793330083556
 20
0.2394775543808763
 30
0.0
 10
15.91713032908933
 20
0.3944706366552708
 30
0.0
 10
15.7631283424783
 20
0.4691462148014338
 30
0.0
 10
15.60607099807905
 20
0.5398398370067525
 30
0.0
  0
SPLINE
  5
2A7
330
1F
100
AcDbEntity
  8
0
  6
Continuous
 62
     4
370
    15
100
AcDbSpline
210
0.0
220
0.0
230
1.0
 70
    24
 71
     3
 72
    14
 73
    10
 74
     0
 42
0.000000001
 43
0.00000001
 40
0.0
 40
0.0
 40
0.0
 40
0.0
 40
0.25
 40
0.25
 40
0.5
 40
0.5
 40
0.75
 40
0.75
 40
1.0
 40
1.0
 40
1.0
 40
1.0
 10
15.6060709980791
 20
1.560690638094812
 30
0.0
 10
15.6060709980791
 20
1.4409537737275
 30
0.0
 10
15.6060709980791
 20
1.315921870370289
 30
0.0
 10
15.6060709980791
 20
1.081816903439076
 30
0.0
 10
15.6060709980791
 20
0.973256075324386
 30
0.0
 10
15.6060709980791
 20
0.7906219187465666
 30
0.0
 10
15.6060709980791
 20
0.7164999446434166
 30
0.0
 10
15.6060709980791
 20
0.6039600708207402
 30
0.0
 10
15.6060709980791
 20
0.5652240893548708
 30
0.0
 10
15.6060709980791
 20
0.5398398370067312
 30
0.0
  0
SPLINE
  5
2A8
330
1F
100
AcDbEntity
  8
0
  6
Continuous
 62
     1
370
    15
100
AcDbSpline
210
0.0
220
0.0
230
1.0
 70
     8
 71
     3
 72
    22
 73
    18
 74
     0
 42
0.000000001
 43
0.00000001
 40
0.0
 40
0.0
 40
0.0
 40
0.0
 40
0.1250000000000001
 40
0.1250000000000001
 40
0.2500000000000002
 40
0.2500000000000002
 40
0.3750000000000002
 40
0.3750000000000002
 40
0.5000000000000003
 40
0.5000000000000003
 40
0.6250000000000004
 40
0.6250000000000004
 40
0.7500000000000004
 40
0.7500000000000004
 40
0.8750000000000002
 40
0.8750000000000002
 40
1.0
 40
1.0
 40
1.0
 40
1.0
 10
15.60607099807908
 20
1.560690638090357
 30
0.0
 10
15.73933098214519
 20
1.542406195252362
 30
0.0
 10
15.87117239763558
 20
1.514896376808586
 30
0.0
 10
16.13307676291367
 20
1.442635815802205
 30
0.0
 10
16.26688054584832
 20
1.397482713171478
 30
0.0
 10
16.53315654573612
 20
1.291238648361883
 30
0.0
 10
16.66354112644916
 20
1.230533615320049
 30
0.0
 10
16.9269595453888
 20
1.095018686957317
 30
0.0
 10
17.06101543489609
 20
1.019945942168818
 30
0.0
 10
17.32674233052913
 20
0.8590297047535955
 30
0.0
 10
17.45635762299531
 20
0.7736960488382891
 30
0.0
 10
17.72099581127756
 20
0.5937793580790611
 30
0.0
 10
17.85514775462892
 20
0.4993315264854701
 30
0.0
 10
18.12002250633981
 20
0.3064462502604641
 30
0.0
 10
18.24955896542978
 20
0.2083386593534229
 30
0.0
 10
18.5151180241666
 20
0.0092222506837558
 30
0.0
 10
18.64920959261649
 20
-0.0913075032668331
 30
0.0
 10
18.781070998079
 20
-0.1901532662604026
 30
0.0
  0
SPLINE
  5
2A9
330
1F
100
AcDbEntity
  8
0
  6
Continuous
 62
     1
370
    15
100
AcDbSpline
210
0.0
220
0.0
230
1.0
 70
     8
 71
     3
 72
    14
 73
    10
 74
     0
 42
0.000000001
 43
0.00000001
 40
0.0
 40
0.0
 40
0.0
 40
0.0
 40
0.25
 40
0.25
 40
0.5
 40
0.5
 40
0.75
 40
0.75
 40
1.0
 40
1.0
 40
1.0
 40
1.0
 10
19.91065151478995
 20
-0.8090881227150675
 30
0.0
 10
19.84692845047118
 20
-0.7897864409251554
 30
0.0
 10
19.76756535330109
 20
-0.7668466256788662
 30
0.0
 10
19.59507444788981
 20
-0.7005879479988977
 30
0.0
 10
19.49960656349018
 20
-0.6568973532867517
 30
0.0
 10
19.30293517553412
 20
-0.5511756071555993
 30
0.0
 10
19.20085202632981
 20
-0.4887067014396678
 30
0.0
 10
18.99147503420804
 20
-0.3472550792372289
 30
0.0
 10
18.8874927066407
 20
-0.2699289591173084
 30
0.0
 10
18.78107099807912
 20
-0.1901532662604808
 30
0.0
  0
SPLINE
  5
2AA
330
1F
100
AcDbEntity
  8
0
  6
Continuous
 62
     1
370
    15
100
AcDbSpline
210
0.0
220
0.0
230
1.0
 70
     8
 71
     3
 72
    10
 73
     6
 74
     0
 42
0.000000001
 43
0.00000001
 40
0.0
 40
0.0
 40
0.0
 40
0.0
 40
0.5
 40
0.5
 40
1.0
 40
1.0
 40
1.0
 40
1.0
 10
19.91065151478993
 20
-0.8090881227150675
 30
0.0
 10
19.83403423771293
 20
-0.7751410192757078
 30
0.0
 10
19.71113712592899
 20
-0.775968294080414
 30
0.0
 10
19.45285396043727
 20
-0.8271252036013976
 30
0.0
 10
19.31698642302216
 20
-0.8742918028543585
 30
0.0
 10
19.1888130446342
 20
-0.931892506730108
 30
0.0
  0
SPLINE
  5
2AB
330
1F
100
AcDbEntity
  8
0
  6
Continuous
 62
     1
370
    15
100
AcDbSpline
210
0.0
220
0.0
230
1.0
 70
     8
 71
     3
 72
    20
 73
    16
 74
     0
 42
0.000000001
 43
0.00000001
 40
0.0
 40
0.0
 40
0.0
 40
0.0
 40
0.2499999999999993
 40
0.2499999999999993
 40
0.3749999999999994
 40
0.3749999999999994
 40
0.4999999999999996
 40
0.4999999999999996
 40
0.6249999999999997
 40
0.6249999999999997
 40
0.7499999999999998
 40
0.7499999999999998
 40
0.8749999999999999
 40
0.8749999999999999
 40
1.0
 40
1.0
 40
1.0
 40
1.0
 10
18.7810709980791
 20
0.3643311531599878
 30
0.0
 10
18.92501586506265
 20
0.2585458708962776
 30
0.0
 10
19.06606447058674
 20
0.1475438796779898
 30
0.0
 10
19.28297736068862
 20
-0.0027260227218591
 30
0.0
 10
19.35451088743312
 20
-0.0491442981770973
 30
0.0
 10
19.49892483663693
 20
-0.1294590574402932
 30
0.0
 10
19.57182440694658
 20
-0.1634392381036847
 30
0.0
 10
19.71570350331191
 20
-0.2045325689857691
 30
0.0
 10
19.78830896354619
 20
-0.2113274560025502
 30
0.0
 10
19.92060019627397
 20
-0.1720723776164022
 30
0.0
 10
19.97952625326513
 20
-0.1222374353013649
 30
0.0
 10
20.04780186881479
 20
0.0261387345447304
 30
0.0
 10
20.05651382511356
 20
0.1189796813133128
 30
0.0
 10
20.03912988510194
 20
0.2976417454778968
 30
0.0
 10
20.014478982673
 20
0.3851323692629691
 30
0.0
 10
19.98077966989212
 20
0.4687952536767028
 30
0.0
  0
SPLINE
  5
2AC
330
1F
100
AcDbEntity
  8
0
  6
Continuous
 62
     1
370
    15
100
AcDbSpline
210
0.0
220
0.0
230
1.0
 70
     8
 71
     3
 72
    13
 73
     9
 74
     0
 42
0.000000001
 43
0.00000001
 40
0.0
 40
0.0
 40
0.0
 40
0.0
 40
0.2102966245634223
 40
0.4204218951991127
 40
0.6301755889358687
 40
0.7947900271069052
 40
0.9603733558931745
 40
1.0
 40
1.0
 40
1.0
 40
1.0
 10
18.78107099807907
 20
0.3643311531600091
 30
0.0
 10
18.58310191542614
 20
0.5065205412718043
 30
0.0
 10
18.18732505931845
 20
0.7907834587164615
 30
0.0
 10
17.59432047615792
 20
1.146620080960908
 30
0.0
 10
17.04430145254364
 20
1.39746440777089
 30
0.0
 10
16.53755971398067
 20
1.536924375495069
 30
0.0
 10
16.18877643525263
 20
1.593614129502086
 30
0.0
 10
15.99596554042091
 20
1.582574636976588
 30
0.0
 10
15.95873319444036
 20
1.580442878781504
 30
0.0
  0
SPLINE
  5
2AD
330
1F
100
AcDbEntity
  8
0
  6
Continuous
 62
     1
370
    15
100
AcDbSpline
210
0.0
220
0.0
230
1.0
 70
     8
 71
     3
 72
    10
 73
     6
 74
     0
 42
0.000000001
 43
0.00000001
 40
0.0
 40
0.0
 40
0.0
 40
0.0
 40
0.2348057833805078
 40
0.6573937494539702
 40
1.0
 40
1.0
 40
1.0
 40
1.0
 10
19.34746442050213
 20
0.8111850962114602
 30
0.0
 10
19.21661692925255
 20
0.8536968415013391
 30
0.0
 10
18.85027875120257
 20
0.9727184227826626
 30
0.0
 10
18.29276859477524
 20
1.088746141918286
 30
0.0
 10
17.86623708578992
 20
1.085573450840364
 30
0.0
 10
17.67526287576678
 20
1.084152917633588
 30
0.0
  0
SPLINE
  5
2AE
330
1F
100
AcDbEntity
  8
0
  6
Continuous
 62
     1
370
    15
100
AcDbSpline
210
0.0
220
0.0
230
1.0
 70
     8
 71
     3
 72
     8
 73
     4
 74
     0
 42
0.000000001
 43
0.00000001
 40
0.0
 40
0.0
 40
0.0
 40
0.0
 40
1.0
 40
1.0
 40
1.0
 40
1.0
 10
19.07629707927254
 20
0.7310130457764075
 30
0.0
 10
19.1643162259038
 20
0.769460070200978
 30
0.0
 10
19.25704568117453
 20
0.7933848181881018
 30
0.0
 10
19.34746442044795
 20
0.8111850962303109
 30
0.0
  0
SPLINE
  5
2AF
330
1F
100
AcDbEntity
  8
0
  6
Continuous
 62
     1
370
    15
100
AcDbSpline
210
0.0
220
0.0
230
1.0
 70
     8
 71
     3
 72
     8
 73
     4
 74
     0
 42
0.000000001
 43
0.00000001
 40
0.0
 40
0.0
 40
0.0
 40
0.0
 40
1.0
 40
1.0
 40
1.0
 40
1.0
 10
19.07629707927254
 20
0.7310130457764075
 30
0.0
 10
19.37542972384138
 20
0.6494702258893739
 30
0.0
 10
19.67754016971426
 20
0.5606071475879943
 30
0.0
 10
19.98077966989521
 20
0.46879525368945
 30
0.0
  0
SPLINE
  5
2B0
330
1F
100
AcDbEntity
  8
0
  6
Continuous
 62
     1
370
    15
100
AcDbSpline
210
0.0
220
0.0
230
1.0
 70
     8
 71
     3
 72
    11
 73
     7
 74
     0
 42
0.000000001
 43
0.00000001
 40
0.0
 40
0.0
 40
0.0
 40
0.0
 40
0.2178303870073231
 40
0.4413357928448964
 40
0.7901830468921839
 40
1.0
 40
1.0
 40
1.0
 40
1.0
 10
18.7810709980791
 20
-1.520285263165462
 30
0.0
 10
18.84639119154966
 20
-1.502494024615046
 30
0.0
 10
18.97873333063396
 20
-1.466448041870294
 30
0.0
 10
19.2167847006406
 20
-1.350615227990218
 30
0.0
 10
19.45548973141676
 20
-1.192271914358756
 30
0.0
 10
19.62417393313903
 20
-1.066078187686216
 30
0.0
 10
19.68752648873414
 20
-1.018683736972108
 30
0.0
  0
ARC
  5
2B1
330
1F
100
AcDbEntity
  8
0
  6
Continuous
 62
     1
370
    15
100
AcDbCircle
 10
18.76087854746115
 20
0.0103387280232781
 30
0.0
 40
1.608484506393062
100
AcDbArc
 50
319.3247945225206
 51
352.5506390066534
  0
ARC
  5
2B2
330
1F
100
AcDbEntity
  8
0
  6
Continuous
 62
     1
370
    15
100
AcDbCircle
 10
19.34411673353888
 20
0.0636786819143538
 30
0.0
 40
1.040520808840588
100
AcDbArc
 50
302.9886113622874
 51
347.5512541663521
  0
ARC
  5
2B3
330
1F
100
AcDbEntity
  8
0
  6
Continuous
 62
     1
370
    15
100
AcDbCircle
 10
19.50401950223352
 20
-0.3501032901783532
 30
0.0
 40
0.9475732597628572
100
AcDbArc
 50
25.37486377706031
 51
59.79216982018447
  0
ARC
  5
2B4
330
1F
100
AcDbEntity
  8
0
  6
Continuous
 62
     1
370
    15
100
AcDbCircle
 10
18.89023421795409
 20
0.0104862092340241
 30
0.0
 40
1.470643364937675
100
AcDbArc
 50
1.772261823712964
 51
46.06373557319897
  0
SPLINE
  5
2B5
330
1F
100
AcDbEntity
  8
0
  6
Continuous
 62
     1
370
    15
100
AcDbSpline
210
0.0
220
0.0
230
1.0
 70
     8
 71
     3
 72
    14
 73
    10
 74
     0
 42
0.000000001
 43
0.00000001
 40
0.0
 40
0.0
 40
0.0
 40
0.0
 40
0.25
 40
0.25
 40
0.5
 40
0.5
 40
0.75
 40
0.75
 40
1.0
 40
1.0
 40
1.0
 40
1.0
 10
19.91065151478995
 20
1.069514276451031
 30
0.0
 10
19.84692845047117
 20
1.158661575024553
 30
0.0
 10
19.76756535330109
 20
1.239142499335429
 30
0.0
 10
19.59507444788981
 20
1.369168428678975
 30
0.0
 10
19.49960656349018
 20
1.420358338818076
 30
0.0
 10
19.30293517553412
 20
1.488443834507137
 30
0.0
 10
19.20085202632981
 20
1.506140625051707
 30
0.0
 10
18.99147503420804
 20
1.507701348705929
 30
0.0
 10
18.8874927066407
 20
1.491546049529518
 30
0.0
 10
18.78107099807912
 20
1.459993659545347
 30
0.0
  0
LINE
  5
2B6
330
1F
100
AcDbEntity
  8
0
  6
Continuous
 62
     1
370
    15
100
AcDbLine
 10
15.6060709980791
 20
1.560690638090342
 30
0.0
 11
15.6060709980791
 21
1.587499999999999
 31
0.0
  0
SPLINE
  5
2B7
330
1F
100
AcDbEntity
  8
0
  6
Continuous
 62
     1
370
    15
100
AcDbSpline
210
0.0
220
0.0
230
1.0
 70
     8
 71
     3
 72
    22
 73
    18
 74
     0
 42
0.000000001
 43
0.00000001
 40
0.0
 40
0.0
 40
0.0
 40
0.0
 40
0.125
 40
0.125
 40
0.2500000000000001
 40
0.2500000000000001
 40
0.3750000000000001
 40
0.3750000000000001
 40
0.5000000000000001
 40
0.5000000000000001
 40
0.6250000000000001
 40
0.6250000000000001
 40
0.7500000000000002
 40
0.7500000000000002
 40
0.8750000000000002
 40
0.8750000000000002
 40
1.0
 40
1.0
 40
1.0
 40
1.0
 10
18.78107099807907
 20
-1.520285263165547
 30
0.0
 10
18.64920959261654
 20
-1.548949487311901
 30
0.0
 10
18.51511802416665
 20
-1.568724053463271
 30
0.0
 10
18.24955896542983
 20
-1.589322092163187
 30
0.0
 10
18.12002250633985
 20
-1.590246515841599
 30
0.0
 10
17.85514775462897
 20
-1.573390287346058
 30
0.0
 10
17.72099581127759
 20
-1.555483189235687
 30
0.0
 10
17.45635762299534
 20
-1.501674422808364
 30
0.0
 10
17.32674233052916
 20
-1.465976298442044
 30
0.0
 10
17.06101543489612
 20
-1.377114352109274
 30
0.0
 10
16.92695954538883
 20
-1.324049525677111
 30
0.0
 10
16.66354112644916
 20
-1.203594362238618
 30
0.0
 10
16.53315654573615
 20
-1.136143758381621
 30
0.0
 10
16.26688054584835
 20
-0.9876501110096427
 30
0.0
 10
16.13307676291367
 20
-0.9069248993640286
 30
0.0
 10
15.87117239763558
 20
-0.7369592362073547
 30
0.0
 10
15.73933098214519
 20
-0.6469448470171244
 30
0.0
 10
15.60607099807908
 20
-0.5532968180904305
 30
0.0
  0
SPLINE
  5
2B8
330
1F
100
AcDbEntity
  8
0
  6
Continuous
 62
     1
370
    15
100
AcDbSpline
210
0.0
220
0.0
230
1.0
 70
     8
 71
     3
 72
    12
 73
     8
 74
     0
 42
0.000000001
 43
0.00000001
 40
0.0
 40
0.0
 40
0.0
 40
0.0
 40
0.0485737292871311
 40
0.3412547963030039
 40
0.6343219580067048
 40
0.9274775738456661
 40
0.9999999999999999
 40
0.9999999999999999
 40
0.9999999999999999
 40
0.9999999999999999
 10
19.25265185941268
 20
-0.9760228005551284
 30
0.0
 10
19.26435470708446
 20
-0.9775752873232904
 30
0.0
 10
19.34657307814653
 20
-0.9884822850689972
 30
0.0
 10
19.50037224112631
 20
-1.003126281286072
 30
0.0
 10
19.71366164689552
 20
-1.021707478475221
 30
0.0
 10
19.87401740561063
 20
-1.032029863023354
 30
0.0
 10
19.96311045456922
 20
-1.037031668151755
 30
0.0
 10
19.98077966989521
 20
-1.038023641968621
 30
0.0
  0
SPLINE
  5
2B9
330
1F
100
AcDbEntity
  8
0
  6
Continuous
 62
     4
370
    15
100
AcDbSpline
210
0.0
220
0.0
230
1.0
 70
    24
 71
     3
 72
    14
 73
    10
 74
     0
 42
0.000000001
 43
0.00000001
 40
0.0
 40
0.0
 40
0.0
 40
0.0
 40
0.25
 40
0.25
 40
0.5
 40
0.5
 40
0.75
 40
0.75
 40
1.0
 40
1.0
 40
1.0
 40
1.0
 10
15.6060709980791
 20
0.5398398370067312
 30
0.0
 10
15.6060709980791
 20
0.4569343883408905
 30
0.0
 10
15.6060709980791
 20
0.3636004729215188
 30
0.0
 10
15.6060709980791
 20
0.1630335080669383
 30
0.0
 10
15.6060709980791
 20
0.0557762253161087
 30
0.0
 10
15.6060709980791
 20
-0.154257071652637
 30
0.0
 10
15.6060709980791
 20
-0.2566244727929643
 30
0.0
 10
15.6060709980791
 20
-0.4316871556436439
 30
0.0
 10
15.6060709980791
 20
-0.5038354009534913
 30
0.0
 10
15.6060709980791
 20
-0.5532968180903168
 30
0.0
  0
SPLINE
  5
2BA
330
1F
100
AcDbEntity
  8
0
  6
Continuous
 62
     1
370
    15
100
AcDbSpline
210
0.0
220
0.0
230
1.0
 70
     8
 71
     3
 72
    13
 73
     9
 74
     0
 42
0.000000001
 43
0.00000001
 40
0.0
 40
0.0
 40
0.0
 40
0.0
 40
0.2171586084528384
 40
0.4371112565676221
 40
0.5972973701562744
 40
0.7586012769980851
 40
0.9183413568010268
 40
1.0
 40
1.0
 40
1.0
 40
1.0
 10
15.6060709980791
 20
-1.031941695475496
 30
0.0
 10
15.73760261981158
 20
-1.103918788101041
 30
0.0
 10
16.00235819576352
 20
-1.248799056149309
 30
0.0
 10
16.36501099653438
 20
-1.396660052315823
 30
0.0
 10
16.6929109696307
 20
-1.497909812798795
 30
0.0
 10
16.98417097384771
 20
-1.557056100766388
 30
0.0
 10
17.22906285123716
 20
-1.586475991310778
 30
0.0
 10
17.37500537070756
 20
-1.58436758076391
 30
0.0
 10
17.4243737682566
 20
-1.583654362639052
 30
0.0
  0
LINE
  5
2BB
330
1F
100
AcDbEntity
  8
0
  6
Continuous
 62
     4
370
    15
100
AcDbLine
 10
15.6060709980791
 20
-1.031941695475496
 30
0.0
 11
15.6060709980791
 21
-0.5532968180904447
 31
0.0
  0
LINE
  5
2BC
330
1F
100
AcDbEntity
  8
0
  6
Continuous
 62
     1
370
    15
100
AcDbLine
 10
15.71294717352811
 20
-1.087952769153588
 30
0.0
 11
15.6060709980791
 21
-1.095281771605514
 31
0.0
  0
LINE
  5
2BD
330
1F
100
AcDbEntity
  8
0
  6
Continuous
 62
     4
370
    15
100
AcDbLine
 10
15.6060709980791
 20
-1.073567205557254
 30
0.0
 11
15.6060709980791
 21
-1.095281771605514
 31
0.0
  0
SPLINE
  5
2BE
330
1F
100
AcDbEntity
  8
0
  6
Continuous
 62
     1
370
    15
100
AcDbSpline
210
0.0
220
0.0
230
1.0
 70
     8
 71
     3
 72
     9
 73
     5
 74
     0
 42
0.000000001
 43
0.00000001
 40
0.0
 40
0.0
 40
0.0
 40
0.0
 40
0.2908810568062699
 40
1.0
 40
1.0
 40
1.0
 40
1.0
 10
17.91309608579107
 20
1.078269608876482
 30
0.0
 10
17.9972494965732
 20
1.127177267974176
 30
0.0
 10
18.28655472567984
 20
1.295313548949892
 30
0.0
 10
18.57589460712489
 20
1.391667352323985
 30
0.0
 10
18.78107099807903
 20
1.459993659545319
 30
0.0
  0
SPLINE
  5
2BF
330
1F
100
AcDbEntity
  8
0
  6
Continuous
 62
     1
370
    15
100
AcDbSpline
210
0.0
220
0.0
230
1.0
 70
     8
 71
     3
 72
    10
 73
     6
 74
     0
 42
0.000000001
 43
0.00000001
 40
0.0
 40
0.0
 40
0.0
 40
0.0
 40
0.5
 40
0.5
 40
1.0
 40
1.0
 40
1.0
 40
1.0
 10
19.91065151478993
 20
1.069514276451031
 30
0.0
 10
19.83403423771293
 20
0.9533193935793918
 30
0.0
 10
19.71113712592899
 20
0.87749776805952
 30
0.0
 10
19.45285396043727
 20
0.8169860212920526
 30
0.0
 10
19.31698642302217
 20
0.8256662945962674
 30
0.0
 10
19.18881304463422
 20
0.8600652899334733
 30
0.0
  0
LINE
  5
2C0
330
1F
100
AcDbEntity
  8
중심선
100
AcDbLine
 10
-42.95642900192092
 20
-0.0000000000000142
 30
0.0
 11
23.36017410047788
 21
-0.0000000000000142
 31
0.0
  0
CIRCLE
  5
2C1
330
1F
100
AcDbEntity
  8
외형선
100
AcDbCircle
 10
0.0
 20
0.0
 30
0.0
 40
3.000000000000004
  0
INSERT
  5
2C2
330
1F
100
AcDbEntity
  8
0
  6
Continuous
 62
     7
100
AcDbBlockReference
 66
     1
  2
블럭10
 10
-29.01747330377768
 20
-51.95764267978463
 30
0.0
  0
ATTRIB
  5
2C3
330
2C2
100
AcDbEntity
  8
FORMAT
 62
     2
100
AcDbText
 10
-38.19876859251895
 20
-49.88227576695243
 30
0.0
 40
4.233333333333333
  1
E5975008 [ 3 FLUTE ]
 41
0.75
  7
SLDTEXTSTYLE0
 11
-38.19876859251895
 21
-51.99894243361909
 31
0.0
100
AcDbAttribute
  2
AUTOATTR0
 70
     0
 74
     1
  0
SEQEND
  5
2C4
330
2C2
100
AcDbEntity
  8
0
  6
Continuous
 62
     7
  0
HATCH
  5
2C5
330
1F
100
AcDbEntity
  8
중심선
100
AcDbHatch
 10
0.0
 20
0.0
 30
0.0
210
0.0
220
0.0
230
1.0
  2
SOLID
 70
     1
 71
     0
 91
        1
 92
        0
 93
        4
 72
     1
 10
-23.30256399939682
 20
-35.71046837814069
 11
-26.74883924323411
 21
-35.71046837814069
 72
     1
 10
-26.7488392432341
 20
-35.71046837814069
 11
-28.87706910243813
 21
-38.24679395871328
 72
     1
 10
-28.87706910243813
 20
-38.24679395871328
 11
-25.4307607734877
 21
-38.24675452941079
 72
     1
 10
-25.43076077348769
 20
-38.24675452941079
 11
-23.30256399939682
 21
-35.71046837814069
 97
        0
 75
     0
 76
     1
 98
        1
 10
-31.56622115882132
 20
-0.0000000000000071
  0
HATCH
  5
2C6
330
1F
100
AcDbEntity
  8
중심선
100
AcDbHatch
 10
0.0
 20
0.0
 30
0.0
210
0.0
220
0.0
230
1.0
  2
SOLID
 70
     1
 71
     0
 91
        1
 92
        0
 93
        4
 72
     1
 10
-18.28980000836088
 20
-35.71046837814069
 11
-21.73607525219816
 21
-35.71046837814069
 72
     1
 10
-21.73607525219813
 20
-35.71046837814069
 11
-26.26721326055552
 21
-41.1104683781407
 72
     1
 10
-26.26721326055554
 20
-41.11046837814071
 11
-22.82093801671826
 21
-41.11046837814071
 72
     1
 10
-22.82093801671826
 20
-41.11046837814071
 11
-18.28980000836087
 21
-35.7104683781407
 97
        0
 75
     0
 76
     1
 98
        1
 10
-31.56622115882132
 20
-0.0000000000000071
  0
HATCH
  5
2C7
330
1F
100
AcDbEntity
  8
중심선
100
AcDbHatch
 10
0.0
 20
0.0
 30
0.0
210
0.0
220
0.0
230
1.0
  2
SOLID
 70
     1
 71
     0
 91
        1
 92
        0
 93
        4
 72
     1
 10
-13.27703601732497
 20
-35.71046837814072
 11
-16.72331126116208
 21
-35.71046837814069
 72
     1
 10
-16.72331126116208
 20
-35.71046837814069
 11
-23.77174816305133
 21
-44.11046837814071
 72
     1
 10
-23.77174816305134
 20
-44.11046837814071
 11
-20.32547291921406
 21
-44.11046837814071
 72
     1
 10
-20.32547291921406
 20
-44.11046837814071
 11
-13.27703601732499
 21
-35.71046837814072
 97
        0
 75
     0
 76
     1
 98
        1
 10
-31.56622115882132
 20
-0.0000000000000071
  0
HATCH
  5
2C8
330
1F
100
AcDbEntity
  8
중심선
100
AcDbHatch
 10
0.0
 20
0.0
 30
0.0
210
0.0
220
0.0
230
1.0
  2
SOLID
 70
     1
 71
     0
 91
        1
 92
        0
 93
        6
 72
     3
 10
-8.477145586312773
 20
-39.91046837819196
 11
3.960054785062283
 21
1.540882976769353E-10
 40
0.3939339440162628
 50
17.09539180608457
 51
320.0019657685086
 73
     0
 72
     1
 10
-6.794145930612174
 20
-38.49836238277899
 11
-4.488844056911134
 21
-36.56403567273107
 72
     3
 10
-8.477145586365623
 20
-39.91046837814083
 11
6.600054785286829
 21
-1.278976924368180E-13
 40
0.636358354079598
 50
39.99873849337399
 51
368.4976242363725
 73
     1
 72
     1
 10
-2.051813094465018
 20
-38.95046837807071
 11
-9.7970782795297
 21
-38.95046837807068
 72
     1
 10
-9.7970782795297
 20
-38.95046837807068
 11
-9.797103323975634
 21
-40.8704683780706
 72
     1
 10
-9.797103323975634
 20
-40.87046837807061
 11
-5.355723554503598
 21
-40.87046837807058
 97
        0
 75
     0
 76
     1
 98
        1
 10
-31.56622115882132
 20
-0.0000000000000071
  0
POINT
  5
2C9
330
1F
100
AcDbEntity
  8
치수문자_일반주서
100
AcDbPoint
 10
-39.9564290019209
 20
-0.0000000000000142
 30
0.0
  0
DIMENSION
  5
2CA
330
1F
100
AcDbEntity
  8
치수문자_일반주서
100
AcDbDimension
  2
*D13
 10
-51.45288702353297
 20
-3.175000000000045
 30
0.0
 11
-51.45288702353298
 21
-0.0000000000000071
 31
0.0
 70
   160
  1
%%c<>
 71
     2
 42
6.349999999999987
 52
-270.0
  3
SLDDIMSTYLE0
100
AcDbAlignedDimension
 13
-38.9564290019209
 23
3.17499999999999
 33
0.0
 14
-38.9564290019209
 24
-3.174999999999997
 34
0.0
 50
90.0000000000002
100
AcDbRotatedDimension
1001
ACAD
1000
DSTYLE
1002
{
1070
   171
1070
     6
1070
   273
1070
     7
1070
   170
1070
     1
1002
}
  0
DIMENSION
  5
2CB
330
1F
100
AcDbEntity
  8
치수문자_일반주서
100
AcDbDimension
  2
*D14
 10
20.36857099807911
 20
42.38211172933094
 30
0.0
 11
-13.96400460984111
 21
42.38211172933094
 31
0.0
 70
   160
  1
<>
 71
     2
 42
60.325
  3
SLDDIMSTYLE1
100
AcDbAlignedDimension
 13
-39.9564290019209
 23
2.17499999999999
 33
0.0
 14
20.36857099807911
 24
0.0
 34
0.0
100
AcDbRotatedDimension
1001
ACAD
1000
DSTYLE
1002
{
1070
   171
1070
     6
1070
   273
1070
     7
1002
}
  0
DIMENSION
  5
2CC
330
1F
100
AcDbEntity
  8
치수문자_일반주서
100
AcDbDimension
  2
*D15
 10
20.36857099807911
 20
30.81289284921922
 30
0.0
 11
16.40686466679048
 21
30.81289284921922
 31
0.0
 70
   160
  1
<>
 71
     2
 42
6.350000000000009
  3
SLDDIMSTYLE0
100
AcDbAlignedDimension
 13
14.0185709980791
 23
1.485900000000001
 33
0.0
 14
20.36857099807911
 24
0.0
 34
0.0
100
AcDbRotatedDimension
1001
ACAD
1000
DSTYLE
1002
{
1070
   171
1070
     6
1070
   273
1070
     7
1002
}
  0
DIMENSION
  5
2CD
330
1F
100
AcDbEntity
  8
치수문자_일반주서
100
AcDbDimension
  2
*D16
 10
20.36857099807911
 20
18.67722180546534
 30
0.0
 11
18.30109356630689
 21
18.67722180546534
 31
0.0
 70
   160
  1
<>
 71
     2
 42
4.762500000000003
  3
SLDDIMSTYLE0
100
AcDbAlignedDimension
 13
15.6060709980791
 23
1.560690638090342
 33
0.0
 14
20.36857099807911
 24
0.0
 34
0.0
100
AcDbRotatedDimension
1001
ACAD
1000
DSTYLE
1002
{
1070
   171
1070
     6
1070
   273
1070
     7
1002
}
1001
ACAD_DSTYLE_DIMFLIPARROW_SYMBOL
1070
   385
1070
     0
1001
ACAD_DSTYLE_DIMFLIPARROW_WHICH_SYMBOL
1070
   386
1070
     3
  0
INSERT
  5
2CE
330
1F
100
AcDbEntity
  8
외형선
100
AcDbBlockReference
  2
SW_DOWELSYMBOL_0
 10
0.0
 20
0.0
 30
0.0
  0
DIMENSION
  5
302
102
{ACAD_REACTORS
102
}
102
{ACAD_XDICTIONARY
360
303
102
}
330
1F
100
AcDbEntity
  8
치수문자_일반주서
100
AcDbDimension
  2
*D17
 10
40.9203269190854
 20
-1.587499999999991
 30
0.0
 11
40.9203269190854
 21
20.4415
 31
0.0
 70
   160
  1
{%%C<>[]}
 71
     5
 42
3.17499999999999
  3
SLDDIMSTYLE0
100
AcDbAlignedDimension
 13
15.95873319444036
 23
1.587499999999999
 33
0.0
 14
17.79470978110836
 24
-1.587499999999991
 34
0.0
 50
90.0
100
AcDbRotatedDimension
1001
ACAD
1000
DSTYLE
1002
{
1070
   283
1070
     1
1070
   170
1070
     1
1070
   171
1070
     6
1070
   273
1070
     7
1002
}
  0
ENDSEC
  0
SECTION
  2
OBJECTS
  0
DICTIONARY
  5
C
330
0
100
AcDbDictionary
281
     1
  3
ACAD_GROUP
350
D
  3
ACAD_IMAGE_VARS
350
156
  3
ACAD_LAYOUT
350
1A
  3
ACAD_MLINESTYLE
350
17
  3
ACAD_PLOTSETTINGS
350
19
  3
ACAD_PLOTSTYLENAME
350
E
  3
ACAD_SCALELIST
350
47
  3
APPDATA
350
154
  3
DWGPROPS
350
316
  0
DICTIONARY
  5
303
330
302
100
AcDbDictionary
280
     1
281
     1
  0
DICTIONARY
  5
D
102
{ACAD_REACTORS
330
C
102
}
330
C
100
AcDbDictionary
281
     1
  0
RASTERVARIABLES
  5
156
102
{ACAD_REACTORS
330
C
102
}
330
C
100
AcDbRasterVariables
 90
        0
 70
     1
 71
     1
 72
     1
  0
DICTIONARY
  5
1A
102
{ACAD_REACTORS
330
C
102
}
330
C
100
AcDbDictionary
281
     1
  3
Layout1
350
1E
  3
Layout2
350
26
  3
Model
350
22
  0
DICTIONARY
  5
17
102
{ACAD_REACTORS
330
C
102
}
330
C
100
AcDbDictionary
281
     1
  3
Standard
350
18
  0
DICTIONARY
  5
19
102
{ACAD_REACTORS
330
C
102
}
330
C
100
AcDbDictionary
281
     1
  0
ACDBDICTIONARYWDFLT
  5
E
102
{ACAD_REACTORS
330
C
102
}
330
C
100
AcDbDictionary
281
     1
  3
Normal
350
F
100
AcDbDictionaryWithDefault
340
F
  0
DICTIONARY
  5
47
102
{ACAD_REACTORS
330
C
102
}
330
C
100
AcDbDictionary
281
     1
  3
A0
350
48
  3
A1
350
49
  3
A2
350
4A
  3
A3
350
4B
  3
A4
350
4C
  3
A5
350
4D
  3
A6
350
4E
  3
A7
350
4F
  3
A8
350
50
  3
A9
350
51
  3
B0
350
52
  3
B1
350
53
  3
B2
350
54
  3
B3
350
55
  3
B4
350
56
  3
B5
350
57
  3
B6
350
58
  3
B7
350
59
  3
B8
350
5A
  3
B9
350
5B
  3
C0
350
5C
  3
C1
350
5D
  3
C2
350
5E
  3
C3
350
5F
  3
C4
350
60
  3
C5
350
61
  3
C6
350
62
  3
C7
350
63
  3
C8
350
64
  3
C9
350
65
  3
D0
350
66
  3
D1
350
67
  3
D2
350
68
  0
DICTIONARY
  5
154
102
{ACAD_REACTORS
330
C
102
}
330
C
100
AcDbDictionary
281
     1
  0
XRECORD
  5
316
102
{ACAD_REACTORS
330
C
102
}
330
C
100
AcDbXrecord
280
     1
  1
DWGPROPS COOKIE
  2

  3

  4

  6

  7

  8
12016016
  9

300
=
301
=
302
=
303
=
304
=
305
=
306
=
307
=
308
=
309
=
 40
0.0
 41
2458269.360748565
 42
2458274.414138576
  1

 90
        0
  0
LAYOUT
  5
1E
102
{ACAD_REACTORS
330
1A
102
}
330
1A
100
AcDbPlotSettings
  1

  2
none_device
  4

  6

 40
0.0
 41
0.0
 42
0.0
 43
0.0
 44
0.0
 45
0.0
 46
0.0
 47
0.0
 48
0.0
 49
0.0
140
0.0
141
0.0
142
1.0
143
1.0
 70
   688
 72
     1
 73
     0
 74
     5
  7

 75
    16
147
1.0
148
0.0
149
0.0
100
AcDbLayout
  1
Layout1
 70
     1
 71
     1
 10
0.0
 20
0.0
 11
420.0
 21
297.0
 12
0.0
 22
0.0
 32
0.0
 14
1.000000000000000E+20
 24
1.000000000000000E+20
 34
1.000000000000000E+20
 15
-1.000000000000000E+20
 25
-1.000000000000000E+20
 35
-1.000000000000000E+20
146
0.0
 13
0.0
 23
0.0
 33
0.0
 16
1.0
 26
0.0
 36
0.0
 17
0.0
 27
1.0
 37
0.0
 76
     0
330
1B
  0
LAYOUT
  5
26
102
{ACAD_REACTORS
330
1A
102
}
330
1A
100
AcDbPlotSettings
  1

  2
none_device
  4

  6

 40
0.0
 41
0.0
 42
0.0
 43
0.0
 44
0.0
 45
0.0
 46
0.0
 47
0.0
 48
0.0
 49
0.0
140
0.0
141
0.0
142
1.0
143
1.0
 70
   688
 72
     1
 73
     0
 74
     5
  7

 75
    16
147
1.0
148
0.0
149
0.0
100
AcDbLayout
  1
Layout2
 70
     1
 71
     2
 10
0.0
 20
0.0
 11
0.0
 21
0.0
 12
0.0
 22
0.0
 32
0.0
 14
0.0
 24
0.0
 34
0.0
 15
0.0
 25
0.0
 35
0.0
146
0.0
 13
0.0
 23
0.0
 33
0.0
 16
1.0
 26
0.0
 36
0.0
 17
0.0
 27
1.0
 37
0.0
 76
     0
330
23
  0
LAYOUT
  5
22
102
{ACAD_REACTORS
330
1A
102
}
330
1A
100
AcDbPlotSettings
  1

  2
none_device
  4
ANSI_A_(11.00_x_8.50_Inches)
  6

 40
6.35
 41
19.05
 42
6.35000508
 43
19.05000254
 44
279.4
 45
215.9
 46
150.0256824125995
 47
80.98009876478682
 48
0.0
 49
0.0
140
0.0
141
0.0
142
0.0769500717208878
143
1.0
 70
  1696
 72
     0
 73
     0
 74
     0
  7

 75
     0
147
0.0235690232323232
148
0.0
149
0.0
100
AcDbLayout
  1
Model
 70
     1
 71
     0
 10
0.0
 20
0.0
 11
420.0
 21
297.0
 12
0.0
 22
0.0
 32
0.0
 14
1.000000000000000E+20
 24
1.000000000000000E+20
 34
1.000000000000000E+20
 15
-1.000000000000000E+20
 25
-1.000000000000000E+20
 35
-1.000000000000000E+20
146
0.0
 13
0.0
 23
0.0
 33
0.0
 16
1.0
 26
0.0
 36
0.0
 17
0.0
 27
1.0
 37
0.0
 76
     0
330
1F
331
29
  0
MLINESTYLE
  5
18
102
{ACAD_REACTORS
330
17
102
}
330
17
100
AcDbMlineStyle
  2
Standard
 70
     0
  3

 62
   256
 51
90.0
 52
90.0
 71
     2
 49
0.5
 62
   256
  6
BYLAYER
 49
-0.5
 62
   256
  6
BYLAYER
  0
ACDBPLACEHOLDER
  5
F
102
{ACAD_REACTORS
330
E
102
}
330
E
  0
SCALE
  5
48
102
{ACAD_REACTORS
330
47
102
}
330
47
100
AcDbScale
 70
     0
300
1:1
140
1.0
141
1.0
290
     1
  0
SCALE
  5
49
102
{ACAD_REACTORS
330
47
102
}
330
47
100
AcDbScale
 70
     0
300
1:2
140
1.0
141
2.0
290
     0
  0
SCALE
  5
4A
102
{ACAD_REACTORS
330
47
102
}
330
47
100
AcDbScale
 70
     0
300
1:4
140
1.0
141
4.0
290
     0
  0
SCALE
  5
4B
102
{ACAD_REACTORS
330
47
102
}
330
47
100
AcDbScale
 70
     0
300
1:5
140
1.0
141
5.0
290
     0
  0
SCALE
  5
4C
102
{ACAD_REACTORS
330
47
102
}
330
47
100
AcDbScale
 70
     0
300
1:8
140
1.0
141
8.0
290
     0
  0
SCALE
  5
4D
102
{ACAD_REACTORS
330
47
102
}
330
47
100
AcDbScale
 70
     0
300
1:10
140
1.0
141
10.0
290
     0
  0
SCALE
  5
4E
102
{ACAD_REACTORS
330
47
102
}
330
47
100
AcDbScale
 70
     0
300
1:16
140
1.0
141
16.0
290
     0
  0
SCALE
  5
4F
102
{ACAD_REACTORS
330
47
102
}
330
47
100
AcDbScale
 70
     0
300
1:20
140
1.0
141
20.0
290
     0
  0
SCALE
  5
50
102
{ACAD_REACTORS
330
47
102
}
330
47
100
AcDbScale
 70
     0
300
1:30
140
1.0
141
30.0
290
     0
  0
SCALE
  5
51
102
{ACAD_REACTORS
330
47
102
}
330
47
100
AcDbScale
 70
     0
300
1:40
140
1.0
141
40.0
290
     0
  0
SCALE
  5
52
102
{ACAD_REACTORS
330
47
102
}
330
47
100
AcDbScale
 70
     0
300
1:50
140
1.0
141
50.0
290
     0
  0
SCALE
  5
53
102
{ACAD_REACTORS
330
47
102
}
330
47
100
AcDbScale
 70
     0
300
1:100
140
1.0
141
100.0
290
     0
  0
SCALE
  5
54
102
{ACAD_REACTORS
330
47
102
}
330
47
100
AcDbScale
 70
     0
300
2:1
140
2.0
141
1.0
290
     0
  0
SCALE
  5
55
102
{ACAD_REACTORS
330
47
102
}
330
47
100
AcDbScale
 70
     0
300
4:1
140
4.0
141
1.0
290
     0
  0
SCALE
  5
56
102
{ACAD_REACTORS
330
47
102
}
330
47
100
AcDbScale
 70
     0
300
8:1
140
8.0
141
1.0
290
     0
  0
SCALE
  5
57
102
{ACAD_REACTORS
330
47
102
}
330
47
100
AcDbScale
 70
     0
300
10:1
140
10.0
141
1.0
290
     0
  0
SCALE
  5
58
102
{ACAD_REACTORS
330
47
102
}
330
47
100
AcDbScale
 70
     0
300
100:1
140
100.0
141
1.0
290
     0
  0
SCALE
  5
59
102
{ACAD_REACTORS
330
47
102
}
330
47
100
AcDbScale
 70
     0
300
1/128" = 1'-0"
140
0.0078125
141
12.0
290
     0
  0
SCALE
  5
5A
102
{ACAD_REACTORS
330
47
102
}
330
47
100
AcDbScale
 70
     0
300
1/64" = 1'-0"
140
0.015625
141
12.0
290
     0
  0
SCALE
  5
5B
102
{ACAD_REACTORS
330
47
102
}
330
47
100
AcDbScale
 70
     0
300
1/32" = 1'-0"
140
0.03125
141
12.0
290
     0
  0
SCALE
  5
5C
102
{ACAD_REACTORS
330
47
102
}
330
47
100
AcDbScale
 70
     0
300
1/16" = 1'-0"
140
0.0625
141
12.0
290
     0
  0
SCALE
  5
5D
102
{ACAD_REACTORS
330
47
102
}
330
47
100
AcDbScale
 70
     0
300
3/32" = 1'-0"
140
0.09375
141
12.0
290
     0
  0
SCALE
  5
5E
102
{ACAD_REACTORS
330
47
102
}
330
47
100
AcDbScale
 70
     0
300
1/8" = 1'-0"
140
0.125
141
12.0
290
     0
  0
SCALE
  5
5F
102
{ACAD_REACTORS
330
47
102
}
330
47
100
AcDbScale
 70
     0
300
3/16" = 1'-0"
140
0.1875
141
12.0
290
     0
  0
SCALE
  5
60
102
{ACAD_REACTORS
330
47
102
}
330
47
100
AcDbScale
 70
     0
300
1/4" = 1'-0"
140
0.25
141
12.0
290
     0
  0
SCALE
  5
61
102
{ACAD_REACTORS
330
47
102
}
330
47
100
AcDbScale
 70
     0
300
3/8" = 1'-0"
140
0.375
141
12.0
290
     0
  0
SCALE
  5
62
102
{ACAD_REACTORS
330
47
102
}
330
47
100
AcDbScale
 70
     0
300
1/2" = 1'-0"
140
0.5
141
12.0
290
     0
  0
SCALE
  5
63
102
{ACAD_REACTORS
330
47
102
}
330
47
100
AcDbScale
 70
     0
300
3/4" = 1'-0"
140
0.75
141
12.0
290
     0
  0
SCALE
  5
64
102
{ACAD_REACTORS
330
47
102
}
330
47
100
AcDbScale
 70
     0
300
1" = 1'-0"
140
1.0
141
12.0
290
     0
  0
SCALE
  5
65
102
{ACAD_REACTORS
330
47
102
}
330
47
100
AcDbScale
 70
     0
300
1-1/2" = 1'-0"
140
1.5
141
12.0
290
     0
  0
SCALE
  5
66
102
{ACAD_REACTORS
330
47
102
}
330
47
100
AcDbScale
 70
     0
300
3" = 1'-0"
140
3.0
141
12.0
290
     0
  0
SCALE
  5
67
102
{ACAD_REACTORS
330
47
102
}
330
47
100
AcDbScale
 70
     0
300
6" = 1'-0"
140
6.0
141
12.0
290
     0
  0
SCALE
  5
68
102
{ACAD_REACTORS
330
47
102
}
330
47
100
AcDbScale
 70
     0
300
1'-0" = 1'-0"
140
12.0
141
12.0
290
     0
  0
ENDSEC
  0
EOF
