  0
SECTION
  2
HEADER
  9
$ACADVER
  1
AC1015
  9
$ACADMAINTVER
 70
     6
  9
$DWGCODEPAGE
  3
ANSI_949
  9
$INSBASE
 10
0.0
 20
0.0
 30
0.0
  9
$EXTMIN
 10
-67.73165802161212
 20
-49.88227576695243
 30
0.0
  9
$EXTMAX
 10
57.20722702550602
 20
50.91500000000005
 30
0.0
  9
$LIMMIN
 10
0.0
 20
0.0
  9
$LIMMAX
 10
420.0
 20
297.0
  9
$ORTHOMODE
 70
     0
  9
$REGENMODE
 70
     1
  9
$FILLMODE
 70
     1
  9
$QTEXTMODE
 70
     0
  9
$MIRRTEXT
 70
     1
  9
$LTSCALE
 40
1.0
  9
$ATTMODE
 70
     1
  9
$TEXTSIZE
 40
3.5
  9
$TRACEWID
 40
1.0
  9
$TEXTSTYLE
  7
Standard
  9
$CLAYER
  8
0
  9
$CELTYPE
  6
ByLayer
  9
$CECOLOR
 62
   256
  9
$CELTSCALE
 40
1.0
  9
$DISPSILH
 70
     0
  9
$DIMSCALE
 40
1.0
  9
$DIMASZ
 40
3.302
  9
$DIMEXO
 40
1.0
  9
$DIMDLI
 40
3.75
  9
$DIMRND
 40
0.0
  9
$DIMDLE
 40
0.0
  9
$DIMEXE
 40
1.0
  9
$DIMTP
 40
0.0
  9
$DIMTM
 40
0.0
  9
$DIMTXT
 40
3.5
  9
$DIMCEN
 40
2.5
  9
$DIMTSZ
 40
0.0
  9
$DIMTOL
 70
     0
  9
$DIMLIM
 70
     0
  9
$DIMTIH
 70
     1
  9
$DIMTOH
 70
     1
  9
$DIMSE1
 70
     0
  9
$DIMSE2
 70
     0
  9
$DIMTAD
 70
     1
  9
$DIMZIN
 70
     0
  9
$DIMBLK
  1

  9
$DIMASO
 70
     1
  9
$DIMSHO
 70
     1
  9
$DIMPOST
  1

  9
$DIMAPOST
  1

  9
$DIMALT
 70
     0
  9
$DIMALTD
 70
     3
  9
$DIMALTF
 40
0.0393700787401575
  9
$DIMLFAC
 40
1.0
  9
$DIMTOFL
 70
     1
  9
$DIMTVP
 40
0.0
  9
$DIMTIX
 70
     0
  9
$DIMSOXD
 70
     0
  9
$DIMSAH
 70
     0
  9
$DIMBLK1
  1

  9
$DIMBLK2
  1

  9
$DIMSTYLE
  2
ISO-25
  9
$DIMCLRD
 70
     0
  9
$DIMCLRE
 70
     0
  9
$DIMCLRT
 70
     0
  9
$DIMTFAC
 40
1.0
  9
$DIMGAP
 40
1.524
  9
$DIMJUST
 70
     0
  9
$DIMSD1
 70
     0
  9
$DIMSD2
 70
     0
  9
$DIMTOLJ
 70
     0
  9
$DIMTZIN
 70
     0
  9
$DIMALTZ
 70
     0
  9
$DIMALTTZ
 70
     0
  9
$DIMUPT
 70
     0
  9
$DIMDEC
 70
     2
  9
$DIMTDEC
 70
     2
  9
$DIMALTU
 70
     2
  9
$DIMALTTD
 70
     3
  9
$DIMTXSTY
  7
Standard
  9
$DIMAUNIT
 70
     0
  9
$DIMADEC
 70
     2
  9
$DIMALTRND
 40
0.0
  9
$DIMAZIN
 70
     0
  9
$DIMDSEP
 70
    44
  9
$DIMATFIT
 70
     3
  9
$DIMFRAC
 70
     0
  9
$DIMLDRBLK
  1

  9
$DIMLUNIT
 70
     2
  9
$DIMLWD
 70
    -2
  9
$DIMLWE
 70
    -2
  9
$DIMTMOVE
 70
     0
  9
$LUNITS
 70
     2
  9
$LUPREC
 70
     2
  9
$SKETCHINC
 40
1.0
  9
$FILLETRAD
 40
10.0
  9
$AUNITS
 70
     0
  9
$AUPREC
 70
     2
  9
$MENU
  1
.
  9
$ELEVATION
 40
0.0
  9
$PELEVATION
 40
0.0
  9
$THICKNESS
 40
0.0
  9
$LIMCHECK
 70
     0
  9
$CHAMFERA
 40
0.0
  9
$CHAMFERB
 40
0.0
  9
$CHAMFERC
 40
0.0
  9
$CHAMFERD
 40
0.0
  9
$SKPOLY
 70
     0
  9
$TDCREATE
 40
2458269.735584433
  9
$TDUCREATE
 40
2458269.360584433
  9
$TDUPDATE
 40
2458274.780993727
  9
$TDUUPDATE
 40
2458274.405993727
  9
$TDINDWG
 40
0.0008001505
  9
$TDUSRTIMER
 40
2458274.405193761
  9
$USRTIMER
 70
     1
  9
$ANGBASE
 50
0.0
  9
$ANGDIR
 70
     0
  9
$PDMODE
 70
     0
  9
$PDSIZE
 40
-1.0
  9
$PLINEWID
 40
0.0
  9
$SPLFRAME
 70
     0
  9
$SPLINETYPE
 70
     6
  9
$SPLINESEGS
 70
     8
  9
$HANDSEED
  5
16D
  9
$SURFTAB1
 70
     6
  9
$SURFTAB2
 70
     6
  9
$SURFTYPE
 70
     6
  9
$SURFU
 70
     6
  9
$SURFV
 70
     6
  9
$UCSBASE
  2

  9
$UCSNAME
  2

  9
$UCSORG
 10
0.0
 20
0.0
 30
0.0
  9
$UCSXDIR
 10
1.0
 20
0.0
 30
0.0
  9
$UCSYDIR
 10
0.0
 20
1.0
 30
0.0
  9
$UCSORTHOREF
  2

  9
$UCSORTHOVIEW
 70
     0
  9
$UCSORGTOP
 10
0.0
 20
0.0
 30
0.0
  9
$UCSORGBOTTOM
 10
0.0
 20
0.0
 30
0.0
  9
$UCSORGLEFT
 10
0.0
 20
0.0
 30
0.0
  9
$UCSORGRIGHT
 10
0.0
 20
0.0
 30
0.0
  9
$UCSORGFRONT
 10
0.0
 20
0.0
 30
0.0
  9
$UCSORGBACK
 10
0.0
 20
0.0
 30
0.0
  9
$PUCSBASE
  2

  9
$PUCSNAME
  2

  9
$PUCSORG
 10
0.0
 20
0.0
 30
0.0
  9
$PUCSXDIR
 10
1.0
 20
0.0
 30
0.0
  9
$PUCSYDIR
 10
0.0
 20
1.0
 30
0.0
  9
$PUCSORTHOREF
  2

  9
$PUCSORTHOVIEW
 70
     0
  9
$PUCSORGTOP
 10
0.0
 20
0.0
 30
0.0
  9
$PUCSORGBOTTOM
 10
0.0
 20
0.0
 30
0.0
  9
$PUCSORGLEFT
 10
0.0
 20
0.0
 30
0.0
  9
$PUCSORGRIGHT
 10
0.0
 20
0.0
 30
0.0
  9
$PUCSORGFRONT
 10
0.0
 20
0.0
 30
0.0
  9
$PUCSORGBACK
 10
0.0
 20
0.0
 30
0.0
  9
$USERI1
 70
     0
  9
$USERI2
 70
     0
  9
$USERI3
 70
     0
  9
$USERI4
 70
     0
  9
$USERI5
 70
     0
  9
$USERR1
 40
0.0
  9
$USERR2
 40
0.0
  9
$USERR3
 40
0.0
  9
$USERR4
 40
0.0
  9
$USERR5
 40
0.0
  9
$WORLDVIEW
 70
     1
  9
$SHADEDGE
 70
     3
  9
$SHADEDIF
 70
    70
  9
$TILEMODE
 70
     1
  9
$MAXACTVP
 70
    64
  9
$PINSBASE
 10
0.0
 20
0.0
 30
0.0
  9
$PLIMCHECK
 70
     0
  9
$PEXTMIN
 10
1.000000000000000E+20
 20
1.000000000000000E+20
 30
1.000000000000000E+20
  9
$PEXTMAX
 10
-1.000000000000000E+20
 20
-1.000000000000000E+20
 30
-1.000000000000000E+20
  9
$PLIMMIN
 10
0.0
 20
0.0
  9
$PLIMMAX
 10
0.0
 20
0.0
  9
$UNITMODE
 70
     0
  9
$VISRETAIN
 70
     1
  9
$PLINEGEN
 70
     0
  9
$PSLTSCALE
 70
     1
  9
$TREEDEPTH
 70
  3020
  9
$CMLSTYLE
  2
Standard
  9
$CMLJUST
 70
     0
  9
$CMLSCALE
 40
20.0
  9
$PROXYGRAPHICS
 70
     1
  9
$MEASUREMENT
 70
     1
  9
$CELWEIGHT
370
    -1
  9
$ENDCAPS
280
     0
  9
$JOINSTYLE
280
     0
  9
$LWDISPLAY
290
     1
  9
$INSUNITS
 70
     4
  9
$HYPERLINKBASE
  1

  9
$STYLESHEET
  1

  9
$XEDIT
290
     1
  9
$CEPSNTYPE
380
     0
  9
$PSTYLEMODE
290
     1
  9
$FINGERPRINTGUID
  2
{571A441C-BE65-406A-83BA-80E1CE96D1A4}
  9
$VERSIONGUID
  2
{FAEB1C32-E019-11D5-929B-00C0DF256EC4}
  9
$EXTNAMES
290
     1
  9
$PSVPSCALE
 40
0.0
  9
$OLESTARTUP
290
     0
  0
ENDSEC
  0
SECTION
  2
CLASSES
  0
CLASS
  1
ACDBDICTIONARYWDFLT
  2
AcDbDictionaryWithDefault
  3
ObjectDBX Classes
 90
        0
280
     0
281
     0
  0
CLASS
  1
VISUALSTYLE
  2
AcDbVisualStyle
  3
ObjectDBX Classes
 90
     4095
280
     0
281
     0
  0
CLASS
  1
MATERIAL
  2
AcDbMaterial
  3
ObjectDBX Classes
 90
     1153
280
     0
281
     0
  0
CLASS
  1
SCALE
  2
AcDbScale
  3
ObjectDBX Classes
 90
     1153
280
     0
281
     0
  0
CLASS
  1
SUN
  2
AcDbSun
  3
SCENEOE
 90
     1153
280
     0
281
     0
  0
CLASS
  1
ACDBPLACEHOLDER
  2
AcDbPlaceHolder
  3
ObjectDBX Classes
 90
        0
280
     0
281
     0
  0
CLASS
  1
LAYOUT
  2
AcDbLayout
  3
ObjectDBX Classes
 90
        0
280
     0
281
     0
  0
CLASS
  1
TABLESTYLE
  2
AcDbTableStyle
  3
ObjectDBX Classes
 90
     4095
280
     0
281
     0
  0
CLASS
  1
MLEADERSTYLE
  2
AcDbMLeaderStyle
  3
ACDB_MLEADERSTYLE_CLASS
 90
     4095
280
     0
281
     0
  0
CLASS
  1
RASTERVARIABLES
  2
AcDbRasterVariables
  3
ISM
 90
        0
280
     0
281
     0
  0
CLASS
  1
DIMASSOC
  2
AcDbDimAssoc
  3
"AcDbDimAssoc|Product Desc:     AcDim ARX App For Dimension|Company:          Autodesk, Inc.|WEB Address:      www.autodesk.com"
 90
        0
280
     0
281
     0
  0
ENDSEC
  0
SECTION
  2
TABLES
  0
TABLE
  2
VPORT
  5
8
330
0
100
AcDbSymbolTable
 70
     1
  0
VPORT
  5
29
330
8
100
AcDbSymbolTableRecord
100
AcDbViewportTableRecord
  2
*Active
 70
     0
 10
0.0
 20
0.0
 11
1.0
 21
1.0
 12
-5.321685273290896
 22
-3.911784784791738
 13
0.0
 23
0.0
 14
10.0
 24
10.0
 15
10.0
 25
10.0
 16
0.0
 26
0.0
 36
1.0
 17
0.0
 27
0.0
 37
0.0
 40
57.09745184391944
 41
1.666023166023166
 42
50.0
 43
0.0
 44
0.0
 50
0.0
 51
0.0
 71
    16
 72
  2000
 73
     1
 74
     3
 75
     0
 76
     0
 77
     0
 78
     0
281
     0
 65
     1
110
0.0
120
0.0
130
0.0
111
1.0
121
0.0
131
0.0
112
0.0
122
1.0
132
0.0
 79
     0
146
0.0
  0
ENDTAB
  0
TABLE
  2
LTYPE
  5
5
330
0
100
AcDbSymbolTable
 70
     6
  0
LTYPE
  5
14
330
5
100
AcDbSymbolTableRecord
100
AcDbLinetypeTableRecord
  2
ByBlock
 70
     0
  3

 72
    65
 73
     0
 40
0.0
  0
LTYPE
  5
15
330
5
100
AcDbSymbolTableRecord
100
AcDbLinetypeTableRecord
  2
ByLayer
 70
     0
  3

 72
    65
 73
     0
 40
0.0
  0
LTYPE
  5
16
330
5
100
AcDbSymbolTableRecord
100
AcDbLinetypeTableRecord
  2
Continuous
 70
     0
  3
Solid line
 72
    65
 73
     0
 40
0.0
  0
LTYPE
  5
6A
330
5
100
AcDbSymbolTableRecord
100
AcDbLinetypeTableRecord
  2
HIDDEN
 70
     0
  3
Hidden __ __ __ __ __ __ __ __ __ __ __ __ __ __
 72
    65
 73
     2
 40
1.905
 49
1.27
 74
     0
 49
-0.635
 74
     0
  0
LTYPE
  5
6B
330
5
100
AcDbSymbolTableRecord
100
AcDbLinetypeTableRecord
  2
PHANTOM
 70
     0
  3
Phantom ______  __  __  ______  __  __  ______
 72
    65
 73
     6
 40
12.7
 49
6.35
 74
     0
 49
-1.27
 74
     0
 49
1.27
 74
     0
 49
-1.27
 74
     0
 49
1.27
 74
     0
 49
-1.27
 74
     0
  0
LTYPE
  5
6C
330
5
100
AcDbSymbolTableRecord
100
AcDbLinetypeTableRecord
  2
CENTER
 70
     0
  3
Center ____ _ ____ _ ____ _ ____ _ ____ _ ____
 72
    65
 73
     4
 40
10.16
 49
6.35
 74
     0
 49
-1.27
 74
     0
 49
1.27
 74
     0
 49
-1.27
 74
     0
  0
LTYPE
  5
6D
330
5
100
AcDbSymbolTableRecord
100
AcDbLinetypeTableRecord
  2
CENTERX2
 70
     0
  3
Center (2x) ________  __  ________  __  _____
 72
    65
 73
     4
 40
20.32
 49
12.7
 74
     0
 49
-2.54
 74
     0
 49
2.54
 74
     0
 49
-2.54
 74
     0
  0
LTYPE
  5
6E
330
5
100
AcDbSymbolTableRecord
100
AcDbLinetypeTableRecord
  2
DOT2
 70
     0
  3
Dot (.5x) ........................................
 72
    65
 73
     2
 40
0.635
 49
0.0
 74
     0
 49
-0.635
 74
     0
  0
ENDTAB
  0
TABLE
  2
LAYER
  5
2
330
0
100
AcDbSymbolTable
 70
    17
  0
LAYER
  5
10
330
2
100
AcDbSymbolTableRecord
100
AcDbLayerTableRecord
  2
0
 70
     0
 62
     7
  6
Continuous
370
    -3
390
F
  0
LAYER
  5
6F
330
2
100
AcDbSymbolTableRecord
100
AcDbLayerTableRecord
  2
FORMAT
 70
     0
 62
     2
  6
Continuous
370
    -3
390
F
  0
LAYER
  5
70
330
2
100
AcDbSymbolTableRecord
100
AcDbLayerTableRecord
  2
외형선
 70
     0
 62
   100
  6
Continuous
370
    30
390
F
  0
LAYER
  5
71
330
2
100
AcDbSymbolTableRecord
100
AcDbLayerTableRecord
  2
숨은선
 70
     0
 62
     2
  6
HIDDEN
370
    15
390
F
  0
LAYER
  5
72
330
2
100
AcDbSymbolTableRecord
100
AcDbLayerTableRecord
  2
중심선
 70
     0
 62
     1
  6
CENTERX2
370
    -3
390
F
  0
LAYER
  5
73
330
2
100
AcDbSymbolTableRecord
100
AcDbLayerTableRecord
  2
파단선
 70
     0
 62
     4
  6
Continuous
370
    -3
390
F
  0
LAYER
  5
74
330
2
100
AcDbSymbolTableRecord
100
AcDbLayerTableRecord
  2
해칭선
 70
     0
 62
     4
  6
Continuous
370
    -3
390
F
  0
LAYER
  5
75
330
2
100
AcDbSymbolTableRecord
100
AcDbLayerTableRecord
  2
가는실선
 70
     0
 62
     4
  6
Continuous
370
    -3
390
F
  0
LAYER
  5
76
330
2
100
AcDbSymbolTableRecord
100
AcDbLayerTableRecord
  2
치수_보조선
 70
     0
 62
     4
  6
Continuous
370
    -3
390
F
  0
LAYER
  5
77
330
2
100
AcDbSymbolTableRecord
100
AcDbLayerTableRecord
  2
치수문자_일반주서
 70
     0
 62
     7
  6
Continuous
370
    15
390
F
  0
LAYER
  5
78
330
2
100
AcDbSymbolTableRecord
100
AcDbLayerTableRecord
  2
개별주서
 70
     0
 62
   100
  6
Continuous
370
    30
390
F
  0
LAYER
  5
79
330
2
100
AcDbSymbolTableRecord
100
AcDbLayerTableRecord
  2
중간선
 70
     0
 62
     2
  6
Continuous
370
    15
390
F
  0
LAYER
  5
7A
330
2
100
AcDbSymbolTableRecord
100
AcDbLayerTableRecord
  2
윤곽선
 70
     0
 62
     3
  6
Continuous
370
    40
390
F
  0
LAYER
  5
7B
330
2
100
AcDbSymbolTableRecord
100
AcDbLayerTableRecord
  2
중심마크
 70
     0
 62
   100
  6
Continuous
370
    30
390
F
  0
LAYER
  5
7C
330
2
100
AcDbSymbolTableRecord
100
AcDbLayerTableRecord
  2
가상선
 70
     0
 62
     4
  6
PHANTOM
370
    -3
390
F
  0
LAYER
  5
7D
330
2
100
AcDbSymbolTableRecord
100
AcDbLayerTableRecord
  2
특수지정선
 70
     0
 62
     5
  6
CENTERX2
370
    60
390
F
  0
LAYER
  5
156
330
2
100
AcDbSymbolTableRecord
100
AcDbLayerTableRecord
  2
Defpoints
 70
     0
 62
     7
  6
Continuous
290
     0
370
    -3
390
F
  0
ENDTAB
  0
TABLE
  2
STYLE
  5
3
330
0
100
AcDbSymbolTable
 70
     2
  0
STYLE
  5
11
330
3
100
AcDbSymbolTableRecord
100
AcDbTextStyleTableRecord
  2
Standard
 70
     0
 40
0.0
 41
1.0
 50
0.0
 71
     0
 42
3.5
  3
txt
  4

  0
STYLE
  5
93
330
3
100
AcDbSymbolTableRecord
100
AcDbTextStyleTableRecord
  2
SLDTEXTSTYLE0
 70
     0
 40
0.0
 41
0.75
 50
0.0
 71
     0
 42
3.5
  3
TXT
  4

  0
ENDTAB
  0
TABLE
  2
VIEW
  5
6
330
0
100
AcDbSymbolTable
 70
     0
  0
ENDTAB
  0
TABLE
  2
UCS
  5
7
330
0
100
AcDbSymbolTable
 70
     0
  0
ENDTAB
  0
TABLE
  2
APPID
  5
9
330
0
100
AcDbSymbolTable
 70
     2
  0
APPID
  5
12
330
9
100
AcDbSymbolTableRecord
100
AcDbRegAppTableRecord
  2
ACAD
 70
     0
  0
APPID
  5
16A
330
9
100
AcDbSymbolTableRecord
100
AcDbRegAppTableRecord
  2
PE_DIMMEASUREMENT
 70
     0
  0
ENDTAB
  0
TABLE
  2
DIMSTYLE
  5
A
330
0
100
AcDbSymbolTable
 70
     4
100
AcDbDimStyleTable
  0
DIMSTYLE
105
27
330
A
100
AcDbSymbolTableRecord
100
AcDbDimStyleTableRecord
  2
ISO-25
 70
     0
 41
2.5
 42
0.625
 43
3.75
 44
1.25
 73
     0
 74
     0
 77
     1
 78
     8
140
2.5
141
2.5
143
0.03937007874016
147
0.625
171
     3
172
     1
178
     0
271
     2
272
     2
274
     3
278
    44
283
     0
284
     8
340
11
  0
DIMSTYLE
105
D8
102
{ACAD_REACTORS
330
D7
102
}
330
A
100
AcDbSymbolTableRecord
100
AcDbDimStyleTableRecord
  2
SLDDIMSTYLE0
 70
     0
 41
3.302
 44
0.0
 45
0.000000001
 73
     0
 74
     0
 77
     1
 78
     4
 79
     1
140
3.5
143
0.0393700787401575
147
0.875
148
0.000000001
170
     1
172
     1
173
     1
178
     0
271
     2
272
     2
276
     2
284
    12
289
     0
340
93
  0
DIMSTYLE
105
ED
102
{ACAD_REACTORS
330
EC
102
}
330
A
100
AcDbSymbolTableRecord
100
AcDbDimStyleTableRecord
  2
SLDDIMSTYLE1
 70
     0
 41
3.302
 44
0.0
 45
0.000000001
 73
     0
 74
     0
 77
     1
 78
    12
 79
     3
140
3.5
143
0.0393700787401575
147
0.875
148
0.000000001
170
     1
173
     1
178
     0
271
     2
272
     2
276
     2
284
    12
340
93
  0
DIMSTYLE
105
101
102
{ACAD_REACTORS
330
100
330
116
330
158
102
}
330
A
100
AcDbSymbolTableRecord
100
AcDbDimStyleTableRecord
  2
SLDDIMSTYLE2
 70
     0
 41
3.302
 44
0.0
 45
0.000000001
 73
     0
 74
     0
 77
     1
 78
    12
 79
     3
140
3.5
143
0.0393700787401575
147
0.875
148
0.000000001
170
     1
172
     1
173
     1
178
     0
271
     2
272
     2
276
     2
284
    12
289
     0
340
93
  0
ENDTAB
  0
TABLE
  2
BLOCK_RECORD
  5
1
330
0
100
AcDbSymbolTable
 70
     8
  0
BLOCK_RECORD
  5
1F
330
1
100
AcDbSymbolTableRecord
100
AcDbBlockTableRecord
  2
*Model_Space
340
22
  0
BLOCK_RECORD
  5
1B
330
1
100
AcDbSymbolTableRecord
100
AcDbBlockTableRecord
  2
*Paper_Space
340
1E
  0
BLOCK_RECORD
  5
23
330
1
100
AcDbSymbolTableRecord
100
AcDbBlockTableRecord
  2
*Paper_Space0
340
26
  0
BLOCK_RECORD
  5
7E
330
1
100
AcDbSymbolTableRecord
100
AcDbBlockTableRecord
  2
블럭10
340
0
102
{BLKREFS
331
CF
102
}
  0
BLOCK_RECORD
  5
D9
330
1
100
AcDbSymbolTableRecord
100
AcDbBlockTableRecord
  2
_D
340
0
  0
BLOCK_RECORD
  5
EE
330
1
100
AcDbSymbolTableRecord
100
AcDbBlockTableRecord
  2
_D_1
340
0
  0
BLOCK_RECORD
  5
102
330
1
100
AcDbSymbolTableRecord
100
AcDbBlockTableRecord
  2
_D_2
340
0
  0
BLOCK_RECORD
  5
117
330
1
100
AcDbSymbolTableRecord
100
AcDbBlockTableRecord
  2
_D_3
340
0
  0
BLOCK_RECORD
  5
12B
330
1
100
AcDbSymbolTableRecord
100
AcDbBlockTableRecord
  2
SW_DOWELSYMBOL_0
340
0
102
{BLKREFS
331
131
102
}
  0
BLOCK_RECORD
  5
15B
330
1
100
AcDbSymbolTableRecord
100
AcDbBlockTableRecord
  2
*D7
340
0
  0
ENDTAB
  0
ENDSEC
  0
SECTION
  2
BLOCKS
  0
BLOCK
  5
20
330
1F
100
AcDbEntity
  8
0
100
AcDbBlockBegin
  2
*Model_Space
 70
     0
 10
0.0
 20
0.0
 30
0.0
  3
*Model_Space
  1
*Model_Space
  0
ENDBLK
  5
21
330
1F
100
AcDbEntity
  8
0
100
AcDbBlockEnd
  0
BLOCK
  5
1C
330
1B
100
AcDbEntity
 67
     1
  8
0
100
AcDbBlockBegin
  2
*Paper_Space
 70
     0
 10
0.0
 20
0.0
 30
0.0
  3
*Paper_Space
  1
*Paper_Space
  0
ENDBLK
  5
1D
330
1B
100
AcDbEntity
 67
     1
  8
0
100
AcDbBlockEnd
  0
BLOCK
  5
24
330
23
100
AcDbEntity
  8
0
100
AcDbBlockBegin
  2
*Paper_Space0
 70
     0
 10
0.0
 20
0.0
 30
0.0
  3
*Paper_Space0
  1
*Paper_Space0
  0
ENDBLK
  5
25
330
23
100
AcDbEntity
  8
0
100
AcDbBlockEnd
  0
BLOCK
  5
7F
330
7E
100
AcDbEntity
  8
0
100
AcDbBlockBegin
  2
블럭10
 70
     2
 10
0.0
 20
0.0
 30
0.0
  3
블럭10
  1
블럭10
  0
ELLIPSE
  5
81
330
7E
100
AcDbEntity
  8
중심선
100
AcDbEllipse
 10
20.54032771741204
 20
12.0471743016438
 30
0.0
 11
6.600054785286829
 21
-1.261213355974178E-13
 31
0.0
210
0.0
220
0.0
230
1.0
 40
0.636358354079598
 41
0.9219305317359503
 42
6.513795318482858
  0
ELLIPSE
  5
82
330
7E
100
AcDbEntity
  8
중심선
100
AcDbEllipse
 10
20.54032771746488
 20
12.04717430159265
 30
0.0
 11
3.960054785062283
 21
1.540847449632565E-10
 31
0.0
210
0.0
220
0.0
230
1.0
 40
0.3939339440162632
 41
1.131841032648279
 42
5.62031148352944
  0
LINE
  5
83
330
7E
100
AcDbEntity
  8
중심선
100
AcDbLine
 10
2.268634060543552
 20
16.24717430164393
 30
0.0
 11
5.714909304380834
 21
16.24717430164393
 31
0.0
  0
LINE
  5
84
330
7E
100
AcDbEntity
  8
중심선
100
AcDbLine
 10
5.245725140726316
 20
7.84717430164391
 30
0.0
 11
8.692000384563599
 21
7.84717430164391
 31
0.0
  0
LINE
  5
85
330
7E
100
AcDbEntity
  8
중심선
100
AcDbLine
 10
15.74043728645272
 20
16.24717430164393
 30
0.0
 11
8.692000384563599
 21
7.84717430164391
 31
0.0
  0
LINE
  5
86
330
7E
100
AcDbEntity
  8
중심선
100
AcDbLine
 10
0.1404042013395286
 20
13.71084872107135
 30
0.0
 11
3.58671253028996
 21
13.71088815037384
 31
0.0
  0
LINE
  5
87
330
7E
100
AcDbEntity
  8
중심선
100
AcDbLine
 10
2.750260043222114
 20
10.84717430164391
 30
0.0
 11
6.196535287059397
 21
10.84717430164391
 31
0.0
  0
LINE
  5
88
330
7E
100
AcDbEntity
  8
중심선
100
AcDbLine
 10
12.29416204261559
 20
16.24717430164393
 30
0.0
 11
5.245725140726316
 21
7.84717430164391
 31
0.0
  0
LINE
  5
89
330
7E
100
AcDbEntity
  8
중심선
100
AcDbLine
 10
10.72767329541681
 20
16.24717430164393
 30
0.0
 11
6.196535287059397
 21
10.84717430164391
 31
0.0
  0
LINE
  5
8A
330
7E
100
AcDbEntity
  8
중심선
100
AcDbLine
 10
7.28139805157953
 20
16.24717430164393
 30
0.0
 11
2.750260043222114
 21
10.84717430164391
 31
0.0
  0
LINE
  5
8B
330
7E
100
AcDbEntity
  8
중심선
100
AcDbLine
 10
5.714909304380834
 20
16.24717430164393
 30
0.0
 11
3.58671253028996
 21
13.71088815037384
 31
0.0
  0
LINE
  5
8C
330
7E
100
AcDbEntity
  8
중심선
100
AcDbLine
 10
2.268634060543552
 20
16.24717430164393
 30
0.0
 11
0.1404042013395286
 21
13.71084872107135
 31
0.0
  0
LINE
  5
8D
330
7E
100
AcDbEntity
  8
중심선
100
AcDbLine
 10
7.28139805157953
 20
16.24717430164393
 30
0.0
 11
10.72767329541681
 21
16.24717430164393
 31
0.0
  0
LINE
  5
8E
330
7E
100
AcDbEntity
  8
중심선
100
AcDbLine
 10
12.29416204261559
 20
16.24717430164393
 30
0.0
 11
15.74043728645272
 21
16.24717430164393
 31
0.0
  0
LINE
  5
8F
330
7E
100
AcDbEntity
  8
중심선
100
AcDbLine
 10
19.22036997980202
 20
11.08717430171403
 30
0.0
 11
23.66174974927406
 21
11.08717430171406
 31
0.0
  0
LINE
  5
90
330
7E
100
AcDbEntity
  8
중심선
100
AcDbLine
 10
19.22039502424796
 20
13.00717430171391
 30
0.0
 11
19.22036997980202
 21
11.08717430171403
 31
0.0
  0
LINE
  5
91
330
7E
100
AcDbEntity
  8
중심선
100
AcDbLine
 10
19.22039502424796
 20
13.00717430171391
 30
0.0
 11
26.96566020931264
 21
13.00717430171391
 31
0.0
  0
LINE
  5
92
330
7E
100
AcDbEntity
  8
중심선
100
AcDbLine
 10
22.22332737316547
 20
13.45928029700563
 30
0.0
 11
24.52862924686651
 21
15.39360700705356
 31
0.0
  0
ATTDEF
  5
94
330
7E
100
AcDbEntity
  8
FORMAT
 62
     2
100
AcDbText
 10
-9.18129528874128
 20
2.075366912832191
 30
0.0
 40
4.233333333333333
  1
E5975032 [ 3 FLUTE ]
 41
0.75
  7
SLDTEXTSTYLE0
 11
-9.18129528874128
 21
-0.0412997538344756
 31
0.0
100
AcDbAttributeDefinition
  3

  2
AUTOATTR0
 70
     0
 74
     1
  0
ENDBLK
  5
80
330
7E
100
AcDbEntity
  8
0
100
AcDbBlockEnd
  0
BLOCK
  5
DA
330
D9
100
AcDbEntity
  8
0
100
AcDbBlockBegin
  2
_D
 70
     0
 10
0.0
 20
0.0
 30
0.0
  3
_D
  1
_D
  0
LINE
  5
DC
330
D9
100
AcDbEntity
  8
치수문자_일반주서
 62
     0
370
    -2
100
AcDbLine
 10
-50.92270000000001
 20
6.349999999999993
 30
0.0
 11
-63.3566580216121
 21
6.349999999999947
 31
0.0
  0
LINE
  5
DD
330
D9
100
AcDbEntity
  8
치수문자_일반주서
 62
     0
370
    -2
100
AcDbLine
 10
-50.92270000000001
 20
-6.350000000000005
 30
0.0
 11
-63.35665802161206
 21
-6.35000000000005
 31
0.0
  0
LINE
  5
DE
330
D9
100
AcDbEntity
  8
치수문자_일반주서
 62
     0
370
    -2
100
AcDbLine
 10
-63.35665802161208
 20
3.047999999999948
 30
0.0
 11
-63.35665802161207
 21
-3.048000000000051
 31
0.0
  0
SOLID
  5
DF
330
D9
100
AcDbEntity
  8
치수문자_일반주서
 62
     0
100
AcDbTrace
 10
-62.80632468827875
 20
3.047999999999949
 30
0.0
 11
-63.90699135494542
 21
3.047999999999946
 31
0.0
 12
-63.3566580216121
 22
6.349999999999947
 32
0.0
 13
-63.3566580216121
 23
6.349999999999947
 33
0.0
  0
SOLID
  5
E0
330
D9
100
AcDbEntity
  8
치수문자_일반주서
 62
     0
100
AcDbTrace
 10
-63.9069913549454
 20
-3.048000000000052
 30
0.0
 11
-62.80632468827874
 21
-3.048000000000049
 31
0.0
 12
-63.35665802161206
 22
-6.35000000000005
 32
0.0
 13
-63.35665802161206
 23
-6.35000000000005
 33
0.0
  0
MTEXT
  5
E1
330
D9
100
AcDbEntity
  8
치수문자_일반주서
 62
     0
100
AcDbMText
 10
-67.73165802161208
 20
-0.0000000000000208
 30
0.0
 40
3.5
 41
0.0
 71
     2
 72
     1
  1
\A1;%%c12.70 [1/2]
  7
SLDTEXTSTYLE0
 11
-3.356894814614647E-15
 21
1.0
 31
0.0
 73
     1
 44
1.0
  0
POINT
  5
E2
330
D9
100
AcDbEntity
  8
Defpoints
 62
     0
100
AcDbPoint
 10
-50.86020000000001
 20
6.349999999999993
 30
0.0
  0
POINT
  5
E3
330
D9
100
AcDbEntity
  8
Defpoints
 62
     0
100
AcDbPoint
 10
-50.86020000000001
 20
-6.350000000000005
 30
0.0
  0
POINT
  5
E4
330
D9
100
AcDbEntity
  8
Defpoints
 62
     0
100
AcDbPoint
 10
-63.35665802161206
 20
-6.350000000000052
 30
0.0
  0
ENDBLK
  5
DB
330
D9
100
AcDbEntity
  8
0
100
AcDbBlockEnd
  0
BLOCK
  5
EF
330
EE
100
AcDbEntity
  8
0
100
AcDbBlockBegin
  2
_D_1
 70
     0
 10
0.0
 20
0.0
 30
0.0
  3
_D_1
  1
_D_1
  0
LINE
  5
F1
330
EE
100
AcDbEntity
  8
치수문자_일반주서
 62
     0
370
    -2
100
AcDbLine
 10
-51.67020000000001
 20
5.602499999999994
 30
0.0
 11
-51.67020000000001
 21
46.54000000000005
 31
0.0
  0
LINE
  5
F2
330
EE
100
AcDbEntity
  8
치수문자_일반주서
 62
     0
370
    -2
100
AcDbLine
 10
37.2298
 20
0.0625000000000016
 30
0.0
 11
37.2298
 21
46.54000000000005
 31
0.0
  0
LINE
  5
F3
330
EE
100
AcDbEntity
  8
치수문자_일반주서
 62
     0
370
    -2
100
AcDbLine
 10
-48.36820000000001
 20
46.54000000000005
 30
0.0
 11
33.9278
 21
46.54000000000005
 31
0.0
  0
SOLID
  5
F4
330
EE
100
AcDbEntity
  8
치수문자_일반주서
 62
     0
100
AcDbTrace
 10
-48.36820000000001
 20
47.09033333333338
 30
0.0
 11
-48.36820000000001
 21
45.98966666666671
 31
0.0
 12
-51.67020000000001
 22
46.54000000000005
 32
0.0
 13
-51.67020000000001
 23
46.54000000000005
 33
0.0
  0
SOLID
  5
F5
330
EE
100
AcDbEntity
  8
치수문자_일반주서
 62
     0
100
AcDbTrace
 10
33.9278
 20
45.98966666666671
 30
0.0
 11
33.9278
 21
47.09033333333338
 31
0.0
 12
37.2298
 22
46.54000000000005
 32
0.0
 13
37.2298
 23
46.54000000000005
 33
0.0
  0
MTEXT
  5
F6
330
EE
100
AcDbEntity
  8
치수문자_일반주서
 62
     0
100
AcDbMText
 10
-7.220200000000009
 20
50.91500000000005
 30
0.0
 40
3.5
 41
0.0
 71
     2
 72
     1
  1
\A1;88.9 [3 1/2]
  7
SLDTEXTSTYLE0
 73
     1
 44
1.0
  0
POINT
  5
F7
330
EE
100
AcDbEntity
  8
Defpoints
 62
     0
100
AcDbPoint
 10
-51.67020000000001
 20
5.539999999999994
 30
0.0
  0
POINT
  5
F8
330
EE
100
AcDbEntity
  8
Defpoints
 62
     0
100
AcDbPoint
 10
37.2298
 20
0.0000000000000016
 30
0.0
  0
POINT
  5
F9
330
EE
100
AcDbEntity
  8
Defpoints
 62
     0
100
AcDbPoint
 10
37.2298
 20
46.54000000000005
 30
0.0
  0
ENDBLK
  5
F0
330
EE
100
AcDbEntity
  8
0
100
AcDbBlockEnd
  0
BLOCK
  5
103
330
102
100
AcDbEntity
  8
0
100
AcDbBlockBegin
  2
_D_2
 70
     0
 10
0.0
 20
0.0
 30
0.0
  3
_D_2
  1
_D_2
  0
LINE
  5
105
330
102
100
AcDbEntity
  8
치수문자_일반주서
 62
     0
370
    -2
100
AcDbLine
 10
2.304799999999998
 20
6.107700000000002
 30
0.0
 11
2.3048
 21
22.21869895411231
 31
0.0
  0
LINE
  5
106
330
102
100
AcDbEntity
  8
치수문자_일반주서
 62
     0
370
    -2
100
AcDbLine
 10
37.2298
 20
0.0625000000000016
 30
0.0
 11
37.2298
 21
22.21869895411231
 31
0.0
  0
LINE
  5
107
330
102
100
AcDbEntity
  8
치수문자_일반주서
 62
     0
370
    -2
100
AcDbLine
 10
5.6068
 20
22.21869895411231
 30
0.0
 11
33.9278
 21
22.21869895411231
 31
0.0
  0
SOLID
  5
108
330
102
100
AcDbEntity
  8
치수문자_일반주서
 62
     0
100
AcDbTrace
 10
5.6068
 20
22.76903228744564
 30
0.0
 11
5.6068
 21
21.66836562077897
 31
0.0
 12
2.3048
 22
22.21869895411231
 32
0.0
 13
2.3048
 23
22.21869895411231
 33
0.0
  0
SOLID
  5
109
330
102
100
AcDbEntity
  8
치수문자_일반주서
 62
     0
100
AcDbTrace
 10
33.9278
 20
21.66836562077897
 30
0.0
 11
33.9278
 21
22.76903228744564
 31
0.0
 12
37.2298
 22
22.21869895411231
 32
0.0
 13
37.2298
 23
22.21869895411231
 33
0.0
  0
MTEXT
  5
10A
330
102
100
AcDbEntity
  8
치수문자_일반주서
 62
     0
100
AcDbMText
 10
19.76729999999999
 20
26.59369895411231
 30
0.0
 40
3.5
 41
0.0
 71
     2
 72
     1
  1
\A1;34.93 [1 3/8]
  7
SLDTEXTSTYLE0
 73
     1
 44
1.0
  0
POINT
  5
10B
330
102
100
AcDbEntity
  8
Defpoints
 62
     0
100
AcDbPoint
 10
2.304799999999998
 20
6.045200000000002
 30
0.0
  0
POINT
  5
10C
330
102
100
AcDbEntity
  8
Defpoints
 62
     0
100
AcDbPoint
 10
37.2298
 20
0.0000000000000016
 30
0.0
  0
POINT
  5
10D
330
102
100
AcDbEntity
  8
Defpoints
 62
     0
100
AcDbPoint
 10
37.2298
 20
22.21869895411231
 30
0.0
  0
ENDBLK
  5
104
330
102
100
AcDbEntity
  8
0
100
AcDbBlockEnd
  0
BLOCK
  5
118
330
117
100
AcDbEntity
  8
0
100
AcDbBlockBegin
  2
_D_3
 70
     0
 10
0.0
 20
0.0
 30
0.0
  3
_D_3
  1
_D_3
  0
LINE
  5
11A
330
117
100
AcDbEntity
  8
치수문자_일반주서
 62
     0
370
    -2
100
AcDbLine
 10
18.17979999999725
 20
6.305278252715909
 30
0.0
 11
18.17979999999725
 21
35.85708761462558
 31
0.0
  0
LINE
  5
11B
330
117
100
AcDbEntity
  8
치수문자_일반주서
 62
     0
370
    -2
100
AcDbLine
 10
37.2298
 20
0.0625000000000016
 30
0.0
 11
37.2298
 21
35.85708761462558
 31
0.0
  0
LINE
  5
11C
330
117
100
AcDbEntity
  8
치수문자_일반주서
 62
     0
370
    -2
100
AcDbLine
 10
21.48179999999725
 20
35.85708761462558
 30
0.0
 11
33.9278
 21
35.85708761462558
 31
0.0
  0
SOLID
  5
11D
330
117
100
AcDbEntity
  8
치수문자_일반주서
 62
     0
100
AcDbTrace
 10
21.48179999999725
 20
36.40742094795891
 30
0.0
 11
21.48179999999725
 21
35.30675428129224
 31
0.0
 12
18.17979999999725
 22
35.85708761462558
 32
0.0
 13
18.17979999999725
 23
35.85708761462558
 33
0.0
  0
SOLID
  5
11E
330
117
100
AcDbEntity
  8
치수문자_일반주서
 62
     0
100
AcDbTrace
 10
33.9278
 20
35.30675428129224
 30
0.0
 11
33.9278
 21
36.40742094795891
 31
0.0
 12
37.2298
 22
35.85708761462558
 32
0.0
 13
37.2298
 23
35.85708761462558
 33
0.0
  0
MTEXT
  5
11F
330
117
100
AcDbEntity
  8
치수문자_일반주서
 62
     0
100
AcDbMText
 10
27.70479999999862
 20
40.23208761462558
 30
0.0
 40
3.5
 41
0.0
 71
     2
 72
     1
  1
\A1;19.05 [3/4]
  7
SLDTEXTSTYLE0
 73
     1
 44
1.0
  0
POINT
  5
120
330
117
100
AcDbEntity
  8
Defpoints
 62
     0
100
AcDbPoint
 10
18.17979999999725
 20
6.242778252715909
 30
0.0
  0
POINT
  5
121
330
117
100
AcDbEntity
  8
Defpoints
 62
     0
100
AcDbPoint
 10
37.2298
 20
0.0000000000000016
 30
0.0
  0
POINT
  5
122
330
117
100
AcDbEntity
  8
Defpoints
 62
     0
100
AcDbPoint
 10
37.2298
 20
35.85708761462558
 30
0.0
  0
ENDBLK
  5
119
330
117
100
AcDbEntity
  8
0
100
AcDbBlockEnd
  0
BLOCK
  5
12C
330
12B
100
AcDbEntity
  8
0
100
AcDbBlockBegin
  2
SW_DOWELSYMBOL_0
 70
     0
 10
0.0
 20
0.0
 30
0.0
  3
SW_DOWELSYMBOL_0
  1
SW_DOWELSYMBOL_0
  0
CIRCLE
  5
12E
330
12B
100
AcDbEntity
  8
외형선
 62
     0
100
AcDbCircle
 10
0.0
 20
0.0
 30
0.0
 40
3.000000000000004
  0
HATCH
  5
12F
330
12B
100
AcDbEntity
  8
0
  6
Continuous
 62
     0
370
    30
100
AcDbHatch
 10
0.0
 20
0.0
 30
0.0
210
0.0
220
0.0
230
1.0
  2
SOLID
 70
     1
 71
     0
 91
        1
 92
        0
 93
        3
 72
     2
 10
0.0
 20
0.0
 40
3.000000000000004
 50
0.0
 51
90.0
 73
     1
 72
     1
 10
0.0
 20
3.000000000000004
 11
0.0
 21
0.0
 72
     1
 10
0.0
 20
0.0
 11
3.000000000000006
 21
0.0
 97
        0
 75
     0
 76
     1
 98
        1
 10
0.0
 20
0.0
  0
HATCH
  5
130
330
12B
100
AcDbEntity
  8
0
  6
Continuous
 62
     0
370
    30
100
AcDbHatch
 10
0.0
 20
0.0
 30
0.0
210
0.0
220
0.0
230
1.0
  2
SOLID
 70
     1
 71
     0
 91
        1
 92
        0
 93
        3
 72
     2
 10
0.0
 20
0.0
 40
3.000000000000004
 50
180.0
 51
270.0000000000008
 73
     1
 72
     1
 10
0.0
 20
-3.000000000000004
 11
0.0
 21
0.0
 72
     1
 10
0.0
 20
0.0
 11
-3.000000000000006
 21
0.0
 97
        0
 75
     0
 76
     1
 98
        1
 10
0.0
 20
0.0
  0
ENDBLK
  5
12D
330
12B
100
AcDbEntity
  8
0
100
AcDbBlockEnd
  0
BLOCK
  5
15C
330
15B
100
AcDbEntity
  8
0
100
AcDbBlockBegin
  2
*D7
 70
     1
 10
0.0
 20
0.0
 30
0.0
  3
*D7
  1
*D7
  0
LINE
  5
15E
330
15B
100
AcDbEntity
  8
치수문자_일반주서
 62
     0
370
    -2
100
AcDbLine
 10
19.65399272597429
 20
6.350000000000001
 30
0.0
 11
56.65689369217269
 21
6.349999999999998
 31
0.0
  0
LINE
  5
15F
330
15B
100
AcDbEntity
  8
치수문자_일반주서
 62
     0
370
    -2
100
AcDbLine
 10
26.99695581932363
 20
-6.349999999999998
 30
0.0
 11
56.65689369217269
 21
-6.349999999999998
 31
0.0
  0
LINE
  5
160
330
15B
100
AcDbEntity
  8
치수문자_일반주서
 62
     0
370
    -2
100
AcDbLine
 10
56.65689369217269
 20
6.349999999999998
 30
0.0
 11
56.65689369217269
 21
37.45399999999999
 31
0.0
  0
LINE
  5
161
330
15B
100
AcDbEntity
  8
치수문자_일반주서
 62
     0
370
    -2
100
AcDbLine
 10
56.65689369217269
 20
6.349999999999998
 30
0.0
 11
56.65689369217269
 21
-6.349999999999998
 31
0.0
  0
LINE
  5
162
330
15B
100
AcDbEntity
  8
치수문자_일반주서
 62
     0
370
    -2
100
AcDbLine
 10
56.65689369217269
 20
9.651999999999997
 30
0.0
 11
56.65689369217269
 21
12.954
 31
0.0
  0
LINE
  5
163
330
15B
100
AcDbEntity
  8
치수문자_일반주서
 62
     0
370
    -2
100
AcDbLine
 10
56.65689369217269
 20
-9.651999999999997
 30
0.0
 11
56.65689369217269
 21
-12.954
 31
0.0
  0
SOLID
  5
164
330
15B
100
AcDbEntity
  8
치수문자_일반주서
 62
     0
100
AcDbTrace
 10
56.10656035883935
 20
9.651999999999997
 30
0.0
 11
57.20722702550602
 21
9.651999999999997
 31
0.0
 12
56.65689369217269
 22
6.349999999999998
 32
0.0
 13
56.65689369217269
 23
6.349999999999998
 33
0.0
  0
SOLID
  5
165
330
15B
100
AcDbEntity
  8
치수문자_일반주서
 62
     0
100
AcDbTrace
 10
57.20722702550602
 20
-9.651999999999997
 30
0.0
 11
56.10656035883935
 21
-9.651999999999997
 31
0.0
 12
56.65689369217269
 22
-6.349999999999998
 32
0.0
 13
56.65689369217269
 23
-6.349999999999998
 33
0.0
  0
MTEXT
  5
166
330
15B
100
AcDbEntity
  8
치수문자_일반주서
 62
     0
100
AcDbMText
 10
54.03189369217269
 20
25.204
 30
0.0
 40
3.5
 41
0.0
 71
     5
 72
     1
  1
\A1;{%%c12.7 [1/2]}
  7
SLDTEXTSTYLE0
 11
0.0
 21
1.0
 31
0.0
 73
     1
 44
1.0
  0
POINT
  5
167
330
15B
100
AcDbEntity
  8
Defpoints
 62
     0
100
AcDbPoint
 10
19.59149272597429
 20
6.350000000000001
 30
0.0
  0
POINT
  5
168
330
15B
100
AcDbEntity
  8
Defpoints
 62
     0
100
AcDbPoint
 10
26.93445581932363
 20
-6.349999999999998
 30
0.0
  0
POINT
  5
169
330
15B
100
AcDbEntity
  8
Defpoints
 62
     0
100
AcDbPoint
 10
56.65689369217269
 20
-6.35
 30
0.0
  0
ENDBLK
  5
15D
330
15B
100
AcDbEntity
  8
0
100
AcDbBlockEnd
  0
ENDSEC
  0
SECTION
  2
ENTITIES
  0
LINE
  5
95
330
1F
100
AcDbEntity
  8
0
  6
Continuous
 62
     4
370
    15
100
AcDbLine
 10
2.0
 20
6.35
 30
0.0
 11
-50.86020000000001
 21
6.349999999999993
 31
0.0
  0
LINE
  5
96
330
1F
100
AcDbEntity
  8
0
  6
Continuous
 62
     4
370
    15
100
AcDbLine
 10
-50.86020000000001
 20
-6.350000000000006
 30
0.0
 11
2.0
 21
-6.35
 31
0.0
  0
LINE
  5
97
330
1F
100
AcDbEntity
  8
0
  6
Continuous
 62
     4
370
    15
100
AcDbLine
 10
2.0
 20
-6.35
 30
0.0
 11
2.304799999999998
 21
-6.045200000000002
 31
0.0
  0
LINE
  5
98
330
1F
100
AcDbEntity
  8
0
  6
Continuous
 62
     4
370
    15
100
AcDbLine
 10
2.304799999999998
 20
6.045200000000002
 30
0.0
 11
2.0
 21
6.35
 31
0.0
  0
LINE
  5
99
330
1F
100
AcDbEntity
  8
0
  6
Continuous
 62
     4
370
    15
100
AcDbLine
 10
-50.86020000000001
 20
6.349999999999992
 30
0.0
 11
-51.67020000000001
 21
5.539999999999992
 31
0.0
  0
LINE
  5
9A
330
1F
100
AcDbEntity
  8
0
  6
Continuous
 62
     4
370
    15
100
AcDbLine
 10
-51.67020000000001
 20
-5.540000000000006
 30
0.0
 11
-50.86020000000001
 21
-6.350000000000006
 31
0.0
  0
LINE
  5
9B
330
1F
100
AcDbEntity
  8
0
  6
Continuous
 62
     4
370
    15
100
AcDbLine
 10
16.15021044009819
 20
6.045200000000003
 30
0.0
 11
2.304799999999998
 21
6.045200000000001
 31
0.0
  0
LINE
  5
9C
330
1F
100
AcDbEntity
  8
0
  6
Continuous
 62
     4
370
    15
100
AcDbLine
 10
18.17979999999999
 20
6.045200000000003
 30
0.0
 11
16.58321648047889
 21
6.045200000000003
 31
0.0
  0
LINE
  5
9D
330
1F
100
AcDbEntity
  8
0
  6
Continuous
 62
     4
370
    15
100
AcDbLine
 10
2.304799999999998
 20
-6.045200000000001
 30
0.0
 11
16.1502104400982
 21
-6.045199999999999
 31
0.0
  0
ARC
  5
9E
330
1F
100
AcDbEntity
  8
0
  6
Continuous
 62
     1
370
    15
100
AcDbCircle
 10
30.87979999999999
 20
0.0000000000000016
 30
0.0
 40
6.350000000000001
100
AcDbArc
 50
353.5800701243586
 51
0.0
  0
ARC
  5
9F
330
1F
100
AcDbEntity
  8
0
  6
Continuous
 62
     1
370
    15
100
AcDbCircle
 10
30.87979999999999
 20
0.0000000000000016
 30
0.0
 40
6.350000000000002
100
AcDbArc
 50
0.0
 51
60.07597726596924
  0
LINE
  5
A0
102
{ACAD_REACTORS
102
}
330
1F
100
AcDbEntity
  8
0
  6
Continuous
 62
     1
370
    15
100
AcDbLine
 10
19.59149272597429
 20
6.350000000000001
 30
0.0
 11
18.17979999999999
 21
6.350000000000001
 31
0.0
  0
LINE
  5
A1
102
{ACAD_REACTORS
102
}
330
1F
100
AcDbEntity
  8
0
  6
Continuous
 62
     1
370
    15
100
AcDbLine
 10
25.4533183889752
 20
-6.349999999999998
 30
0.0
 11
28.41559324967206
 21
-6.349999999999998
 31
0.0
  0
LINE
  5
A2
330
1F
100
AcDbEntity
  8
0
  6
Continuous
 62
     4
370
    15
100
AcDbLine
 10
2.0
 20
6.35
 30
0.0
 11
2.0
 21
-6.35
 31
0.0
  0
LINE
  5
A3
330
1F
100
AcDbEntity
  8
0
  6
Continuous
 62
     4
370
    15
100
AcDbLine
 10
-50.86020000000001
 20
6.349999999999993
 30
0.0
 11
-50.86020000000001
 21
-6.350000000000006
 31
0.0
  0
LINE
  5
A4
330
1F
100
AcDbEntity
  8
0
  6
Continuous
 62
     4
370
    15
100
AcDbLine
 10
2.304799999999998
 20
6.045200000000002
 30
0.0
 11
2.304799999999998
 21
-6.045200000000009
 31
0.0
  0
LINE
  5
A5
330
1F
100
AcDbEntity
  8
0
  6
Continuous
 62
     4
370
    15
100
AcDbLine
 10
-51.67020000000001
 20
5.539999999999994
 30
0.0
 11
-51.67020000000001
 21
-5.540000000000006
 31
0.0
  0
SPLINE
  5
A6
330
1F
100
AcDbEntity
  8
0
  6
Continuous
 62
     4
370
    15
100
AcDbSpline
210
0.0
220
0.0
230
1.0
 70
     8
 71
     3
 72
    10
 73
     6
 74
     0
 42
0.000000001
 43
0.00000001
 40
0.0
 40
0.0
 40
0.0
 40
0.0
 40
0.5000000000000001
 40
0.5000000000000001
 40
1.0
 40
1.0
 40
1.0
 40
1.0
 10
18.17979999999493
 20
5.937046910620613
 30
0.0
 10
17.84268016995895
 20
5.982701505072855
 30
0.0
 10
17.5026405233024
 20
6.014111783055175
 30
0.0
 10
16.82408919978026
 20
6.047578336861611
 30
0.0
 10
16.48780049070272
 20
6.049676523857918
 30
0.0
 10
16.14995023058373
 20
6.037195210519884
 30
0.0
  0
SPLINE
  5
A7
330
1F
100
AcDbEntity
  8
0
  6
Continuous
 62
     4
370
    15
100
AcDbSpline
210
0.0
220
0.0
230
1.0
 70
     8
 71
     3
 72
    10
 73
     6
 74
     0
 42
0.000000001
 43
0.00000001
 40
0.0
 40
0.0
 40
0.0
 40
0.0
 40
0.5
 40
0.5
 40
1.0
 40
1.0
 40
1.0
 40
1.0
 10
18.17979999999999
 20
-2.076161005900556
 30
0.0
 10
17.84272344453308
 20
-1.848495501912511
 30
0.0
 10
17.50272782310797
 20
-1.615148793386927
 30
0.0
 10
16.82426320788207
 20
-1.142100735541297
 30
0.0
 10
16.4880160928883
 20
-0.9029388178957723
 30
0.0
 10
16.15021044009819
 20
-0.6618123371137739
 30
0.0
  0
LINE
  5
A8
330
1F
100
AcDbEntity
  8
0
  6
Continuous
 62
     1
370
    15
100
AcDbLine
 10
18.17979999999999
 20
-2.076161005900558
 30
0.0
 11
18.17979999999999
 21
-2.213106856224735
 31
0.0
  0
SPLINE
  5
A9
330
1F
100
AcDbEntity
  8
0
  6
Continuous
 62
     4
370
    15
100
AcDbSpline
210
0.0
220
0.0
230
1.0
 70
     8
 71
     3
 72
    10
 73
     6
 74
     0
 42
0.000000001
 43
0.00000001
 40
0.0
 40
0.0
 40
0.0
 40
0.0
 40
0.5
 40
0.5
 40
1.0
 40
1.0
 40
1.0
 40
1.0
 10
18.17979999999493
 20
-3.954392496216736
 30
0.0
 10
17.84268016995895
 20
-3.771015831987353
 30
0.0
 10
17.5026405233024
 20
-3.577536207353783
 30
0.0
 10
16.82408919978026
 20
-3.17445565342025
 30
0.0
 10
16.48780049070272
 20
-2.965343309565124
 30
0.0
 10
16.14995023058373
 20
-2.749269232159604
 30
0.0
  0
LINE
  5
AA
330
1F
100
AcDbEntity
  8
0
  6
Continuous
 62
     4
370
    15
100
AcDbLine
 10
16.1502104400982
 20
-6.045199999999999
 30
0.0
 11
16.15021044009819
 21
-2.748969048922217
 31
0.0
  0
SPLINE
  5
AB
330
1F
100
AcDbEntity
  8
0
  6
Continuous
 62
     4
370
    15
100
AcDbSpline
210
0.0
220
0.0
230
1.0
 70
     8
 71
     3
 72
    10
 73
     6
 74
     0
 42
0.000000001
 43
0.00000001
 40
0.0
 40
0.0
 40
0.0
 40
0.0
 40
0.0882019345606671
 40
0.5438179307961178
 40
1.0
 40
1.0
 40
1.0
 40
1.0
 10
17.26564462693633
 20
-4.356441404175889
 30
0.0
 10
17.23281861853386
 20
-4.373104639449398
 30
0.0
 10
17.03042655021199
 20
-4.475843498545246
 30
0.0
 10
16.65840778569696
 20
-4.650525101967904
 30
0.0
 10
16.31967965299699
 20
-4.798759536574227
 30
0.0
 10
16.1502104400982
 20
-4.872922768181215
 30
0.0
  0
LINE
  5
AC
330
1F
100
AcDbEntity
  8
0
  6
Continuous
 62
     4
370
    15
100
AcDbLine
 10
16.1502104400982
 20
-0.6621355335817999
 30
0.0
 11
16.15021044009819
 21
6.045200000000003
 31
0.0
  0
SPLINE
  5
AD
330
1F
100
AcDbEntity
  8
0
  6
Continuous
 62
     4
370
    15
100
AcDbSpline
210
0.0
220
0.0
230
1.0
 70
    24
 71
     3
 72
    14
 73
    10
 74
     0
 42
0.000000001
 43
0.00000001
 40
0.0
 40
0.0
 40
0.0
 40
0.0
 40
0.2500000000000001
 40
0.2500000000000001
 40
0.5000000000000001
 40
0.5000000000000001
 40
0.75
 40
0.75
 40
1.0
 40
1.0
 40
1.0
 40
1.0
 10
18.1798
 20
2.159410854706668
 30
0.0
 10
18.1798
 20
1.845294490566907
 30
0.0
 10
18.17979999999999
 20
1.493918548806635
 30
0.0
 10
18.1798
 20
0.7393319044148386
 30
0.0
 10
18.1798
 20
0.3359909214073244
 30
0.0
 10
18.1798
 20
-0.4630949132241459
 30
0.0
 10
18.17979999999999
 20
-0.8577339199372043
 30
0.0
 10
18.1798
 20
-1.554187679057532
 30
0.0
 10
18.1798
 20
-1.854230615885348
 30
0.0
 10
18.1798
 20
-2.076161005900557
 30
0.0
  0
SPLINE
  5
AE
330
1F
100
AcDbEntity
  8
0
  6
Continuous
 62
     4
370
    15
100
AcDbSpline
210
0.0
220
0.0
230
1.0
 70
     8
 71
     3
 72
    10
 73
     6
 74
     0
 42
0.000000001
 43
0.00000001
 40
0.0
 40
0.0
 40
0.0
 40
0.0
 40
0.5
 40
0.5
 40
1.0
 40
1.0
 40
1.0
 40
1.0
 10
18.17979999999728
 20
2.1594108547079
 30
0.0
 10
17.84272344453081
 20
2.312276737505032
 30
0.0
 10
17.50272782310616
 20
2.460355286038092
 30
0.0
 10
16.82426320788117
 20
2.743652983488265
 30
0.0
 10
16.48801609288784
 20
2.878593833545406
 30
0.0
 10
16.15021044009819
 20
3.006481197249305
 30
0.0
  0
SPLINE
  5
AF
330
1F
100
AcDbEntity
  8
0
  6
Continuous
 62
     4
370
    15
100
AcDbSpline
210
0.0
220
0.0
230
1.0
 70
     8
 71
     3
 72
    10
 73
     6
 74
     0
 42
0.000000001
 43
0.00000001
 40
0.0
 40
0.0
 40
0.0
 40
0.0
 40
0.5
 40
0.5
 40
1.0
 40
1.0
 40
1.0
 40
1.0
 10
18.17979999999728
 20
-4.381127572848218
 30
0.0
 10
17.84272344453081
 20
-4.382570048302324
 30
0.0
 10
17.50272782310616
 20
-4.373411102612376
 30
0.0
 10
16.82426320788117
 20
-4.333954765689356
 30
0.0
 10
16.48801609288784
 20
-4.303757712256376
 30
0.0
 10
16.15021044009819
 20
-4.263219352215434
 30
0.0
  0
SPLINE
  5
B0
330
1F
100
AcDbEntity
  8
0
  6
Continuous
 62
     1
370
    15
100
AcDbSpline
210
0.0
220
0.0
230
1.0
 70
    24
 71
     3
 72
     9
 73
     5
 74
     0
 42
0.000000001
 43
0.00000001
 40
0.0
 40
0.0
 40
0.0
 40
0.0
 40
0.0572310107456146
 40
1.0
 40
1.0
 40
1.0
 40
1.0
 10
18.1798
 20
-4.189668524426584
 30
0.0
 10
18.1798
 20
-4.19278469778613
 30
0.0
 10
18.17980000000001
 20
-4.247233733701234
 30
0.0
 10
18.1798
 20
-4.316152807398393
 30
0.0
 10
18.17979999999999
 20
-4.381127572848209
 30
0.0
  0
SPLINE
  5
B1
330
1F
100
AcDbEntity
  8
0
  6
Continuous
 62
     1
370
    15
100
AcDbSpline
210
0.0
220
0.0
230
1.0
 70
    24
 71
     3
 72
    14
 73
    10
 74
     0
 42
0.000000001
 43
0.00000001
 40
0.0
 40
0.0
 40
0.0
 40
0.0
 40
0.25
 40
0.25
 40
0.5
 40
0.5
 40
0.75
 40
0.75
 40
1.0
 40
1.0
 40
1.0
 40
1.0
 10
18.1798
 20
5.93704691063428
 30
0.0
 10
18.1798
 20
5.477154380490616
 30
0.0
 10
18.17979999999999
 20
5.00851110199376
 30
0.0
 10
18.1798
 20
4.142695680102448
 30
0.0
 10
18.17979999999999
 20
3.746869858952863
 30
0.0
 10
18.1798
 20
3.081776615349767
 30
0.0
 10
18.17979999999999
 20
2.812193201621624
 30
0.0
 10
18.1798
 20
2.39958534612623
 30
0.0
 10
18.17979999999999
 20
2.25558351166931
 30
0.0
 10
18.1798
 20
2.159410854706671
 30
0.0
  0
SPLINE
  5
B2
330
1F
100
AcDbEntity
  8
0
  6
Continuous
 62
     1
370
    15
100
AcDbSpline
210
0.0
220
0.0
230
1.0
 70
     8
 71
     3
 72
    34
 73
    30
 74
     0
 42
0.000000001
 43
0.00000001
 40
0.0
 40
0.0
 40
0.0
 40
0.0
 40
0.125000000000002
 40
0.125000000000002
 40
0.2500000000000039
 40
0.2500000000000039
 40
0.3750000000000059
 40
0.3750000000000059
 40
0.4375000000000054
 40
0.4375000000000054
 40
0.5000000000000049
 40
0.5000000000000049
 40
0.5625000000000043
 40
0.5625000000000043
 40
0.6250000000000038
 40
0.6250000000000038
 40
0.6562500000000034
 40
0.6562500000000034
 40
0.6875000000000032
 40
0.6875000000000032
 40
0.7187500000000029
 40
0.7187500000000029
 40
0.7500000000000027
 40
0.7500000000000027
 40
0.812500000000002
 40
0.812500000000002
 40
0.8750000000000013
 40
0.8750000000000013
 40
1.0
 40
1.0
 40
1.0
 40
1.0
 10
30.87979999999999
 20
1.455697675133925
 30
0.0
 10
31.16802443025993
 20
1.244625721985577
 30
0.0
 10
31.45240687846978
 20
1.029467140745209
 30
0.0
 10
32.02234136404557
 20
0.60297569706824
 30
0.0
 10
32.30990941274275
 20
0.390666875064891
 30
0.0
 10
32.88797592389197
 20
-0.010910219506802
 30
0.0
 10
33.17373854180947
 20
-0.1973329786020931
 30
0.0
 10
33.60628478700178
 20
-0.4396943308267697
 30
0.0
 10
33.75237943844893
 20
-0.5141803713666806
 30
0.0
 10
34.0424178646028
 20
-0.6420223712101475
 30
0.0
 10
34.18645634702585
 20
-0.695632660805979
 30
0.0
 10
34.47458343726935
 20
-0.7758692715526382
 30
0.0
 10
34.61973063865885
 20
-0.8024615327952032
 30
0.0
 10
34.90153117568563
 20
-0.8164155048770902
 30
0.0
 10
35.04109143882714
 20
-0.8040045243534999
 30
0.0
 10
35.23963500641349
 20
-0.7456567912064651
 30
0.0
 10
35.30355118702069
 20
-0.719797691152204
 30
0.0
 10
35.42655535058226
 20
-0.6531836981342601
 30
0.0
 10
35.48615546541591
 20
-0.6118016038899862
 30
0.0
 10
35.5951913843946
 20
-0.5155382157538368
 30
0.0
 10
35.64513789584473
 20
-0.4605611032524718
 30
0.0
 10
35.73560788633945
 20
-0.3363016556856876
 30
0.0
 10
35.77637755574109
 20
-0.2661626051853964
 30
0.0
 10
35.87874970044254
 20
-0.0435488253910102
 30
0.0
 10
35.92279671528472
 20
0.1261361554589374
 30
0.0
 10
35.96498322813403
 20
0.473665723258522
 30
0.0
 10
35.96414906528312
 20
0.654849130721049
 30
0.0
 10
35.91183936293312
 20
1.190762518303053
 30
0.0
 10
35.8132311712003
 20
1.540595807134469
 30
0.0
 10
35.67854943504763
 20
1.875241296535795
 30
0.0
  0
SPLINE
  5
B3
330
1F
100
AcDbEntity
  8
0
  6
Continuous
 62
     1
370
    15
100
AcDbSpline
210
0.0
220
0.0
230
1.0
 70
     8
 71
     3
 72
    17
 73
    13
 74
     0
 42
0.000000001
 43
0.00000001
 40
0.0
 40
0.0
 40
0.0
 40
0.0
 40
0.1398698825827527
 40
0.2428981521836967
 40
0.3466433649058326
 40
0.4496550085278637
 40
0.553381532902939
 40
0.656277018669839
 40
0.7598854218999866
 40
0.8499608959124435
 40
0.9405150016584203
 40
1.0
 40
1.0
 40
1.0
 40
1.0
 10
30.87979999999999
 20
1.455697675133971
 30
0.0
 10
30.35350622902675
 20
1.837175876637379
 30
0.0
 10
29.43954403706197
 20
2.499651232536218
 30
0.0
 10
28.13416223574037
 20
3.366521949230476
 30
0.0
 10
26.96935906813268
 20
4.081422218344097
 30
0.0
 10
25.80113422431637
 20
4.717934344078204
 30
0.0
 10
24.63531358235707
 20
5.262401997349157
 30
0.0
 10
23.46926279092593
 20
5.708088763033798
 30
0.0
 10
22.35207564368588
 20
6.029640254528543
 30
0.0
 10
21.28358207979633
 20
6.235443557104234
 30
0.0
 10
20.37970833822625
 20
6.340614056733487
 30
0.0
 10
19.81527129771867
 20
6.339440056877135
 30
0.0
 10
19.59149272597429
 20
6.338974609019836
 30
0.0
  0
SPLINE
  5
B4
330
1F
100
AcDbEntity
  8
0
  6
Continuous
 62
     1
370
    15
100
AcDbSpline
210
0.0
220
0.0
230
1.0
 70
     8
 71
     3
 72
    12
 73
     8
 74
     0
 42
0.000000001
 43
0.00000001
 40
0.0
 40
0.0
 40
0.0
 40
0.0
 40
0.1767046573903631
 40
0.4382680421064394
 40
0.6998114929421455
 40
0.9613415457080292
 40
1.0
 40
1.0
 40
1.0
 40
1.0
 10
33.14529188985797
 20
3.244470746473808
 30
0.0
 10
32.74968642557721
 20
3.375999625456356
 30
0.0
 10
31.76849422137901
 20
3.702221385105799
 30
0.0
 10
30.20191945575989
 20
4.087118809926689
 30
0.0
 10
28.44543042425144
 20
4.331433251417751
 30
0.0
 10
27.18795597331397
 20
4.418550963483029
 30
0.0
 10
26.51596575825145
 20
4.36801323602098
 30
0.0
 10
26.42942645910155
 20
4.36150495745209
 30
0.0
  0
SPLINE
  5
B5
330
1F
100
AcDbEntity
  8
0
  6
Continuous
 62
     1
370
    15
100
AcDbSpline
210
0.0
220
0.0
230
1.0
 70
     8
 71
     3
 72
    10
 73
     6
 74
     0
 42
0.000000001
 43
0.00000001
 40
0.0
 40
0.0
 40
0.0
 40
0.0
 40
0.5
 40
0.5
 40
1.0
 40
1.0
 40
1.0
 40
1.0
 10
32.05978282728863
 20
2.924168051581518
 30
0.0
 10
32.23593865226331
 20
3.001197662784099
 30
0.0
 10
32.41750808475874
 20
3.062701240321859
 30
0.0
 10
32.78273912547844
 20
3.167068137280679
 30
0.0
 10
32.96434906874516
 20
3.209127660269433
 30
0.0
 10
33.14529188985816
 20
3.244470746473744
 30
0.0
  0
SPLINE
  5
B6
330
1F
100
AcDbEntity
  8
0
  6
Continuous
 62
     1
370
    15
100
AcDbSpline
210
0.0
220
0.0
230
1.0
 70
     8
 71
     3
 72
     8
 73
     4
 74
     0
 42
0.000000001
 43
0.00000001
 40
0.0
 40
0.0
 40
0.0
 40
0.0
 40
1.0
 40
1.0
 40
1.0
 40
1.0
 10
32.05978282728863
 20
2.924168051581518
 30
0.0
 10
33.25661780092913
 20
2.597945436835804
 30
0.0
 10
34.4655942413426
 20
2.241809828962015
 30
0.0
 10
35.67854943504744
 20
1.875241296535078
 30
0.0
  0
SPLINE
  5
B7
330
1F
100
AcDbEntity
  8
0
  6
Continuous
 62
     1
370
    15
100
AcDbSpline
210
0.0
220
0.0
230
1.0
 70
     8
 71
     3
 72
     8
 73
     4
 74
     0
 42
0.000000001
 43
0.00000001
 40
0.0
 40
0.0
 40
0.0
 40
0.0
 40
1.0
 40
1.0
 40
1.0
 40
1.0
 10
33.14529188985816
 20
-4.172085720569012
 30
0.0
 10
32.9384776990271
 20
-4.023337752360184
 30
0.0
 10
32.72748102592904
 20
-3.875125391561706
 30
0.0
 10
32.51117215812522
 20
-3.72759330880578
 30
0.0
  0
SPLINE
  5
B8
330
1F
100
AcDbEntity
  8
0
  6
Continuous
 62
     1
370
    15
100
AcDbSpline
210
0.0
220
0.0
230
1.0
 70
     8
 71
     3
 72
    38
 73
    34
 74
     0
 42
0.000000001
 43
0.00000001
 40
0.0
 40
0.0
 40
0.0
 40
0.0
 40
0.0625
 40
0.0625
 40
0.125
 40
0.125
 40
0.1875
 40
0.1875
 40
0.25
 40
0.25
 40
0.3125
 40
0.3125
 40
0.375
 40
0.375
 40
0.4375
 40
0.4375
 40
0.5
 40
0.5
 40
0.5625
 40
0.5625
 40
0.625
 40
0.625
 40
0.6875
 40
0.6875
 40
0.75
 40
0.75
 40
0.8125
 40
0.8125
 40
0.875
 40
0.875
 40
0.9375
 40
0.9375
 40
1.0
 40
1.0
 40
1.0
 40
1.0
 10
33.14529188985679
 20
-4.172085720568795
 30
0.0
 10
32.83389584633522
 20
-4.122615622787537
 30
0.0
 10
32.52051808679562
 20
-4.064454856210582
 30
0.0
 10
31.89557578486481
 20
-3.931766832425662
 30
0.0
 10
31.58593562481867
 20
-3.857419926313695
 30
0.0
 10
30.96331805019529
 20
-3.692979540344725
 30
0.0
 10
30.64996525966864
 20
-3.602812091924388
 30
0.0
 10
30.02494679744934
 20
-3.408187933762032
 30
0.0
 10
29.71517485157521
 20
-3.303965531775037
 30
0.0
 10
29.09273717099012
 20
-3.082107308690386
 30
0.0
 10
28.77941209962963
 20
-2.96435992419757
 30
0.0
 10
28.15432292843816
 20
-2.717347106370695
 30
0.0
 10
27.84440544098625
 20
-2.58835484710669
 30
0.0
 10
27.22215303084892
 20
-2.319977751818772
 30
0.0
 10
26.90885842799412
 20
-2.180430560349736
 30
0.0
 10
26.28370400120446
 20
-1.893148834350727
 30
0.0
 10
25.97362722063916
 20
-1.745708774722455
 30
0.0
 10
25.35156545199623
 20
-1.443992851269804
 30
0.0
 10
25.03830406609238
 20
-1.289495558559047
 30
0.0
 10
24.41308983897771
 20
-0.9760421524437977
 30
0.0
 10
24.10284001837529
 20
-0.8173832875116549
 30
0.0
 10
23.48097425675706
 20
-0.4971422447529919
 30
0.0
 10
23.16774883527466
 20
-0.3352778366917047
 30
0.0
 10
22.54248026484882
 20
-0.0110355260614538
 30
0.0
 10
22.23204366229476
 20
0.1510602260901228
 30
0.0
 10
21.61037926756216
 20
0.4741065023409644
 30
0.0
 10
21.29719255691639
 20
0.6353940313004706
 30
0.0
 10
20.67187510177522
 20
0.9545120116136473
 30
0.0
 10
20.36123798076132
 20
1.112091044232759
 30
0.0
 10
19.73978030695309
 20
1.422088318596658
 30
0.0
 10
19.42663505242346
 20
1.574883932088894
 30
0.0
 10
18.80127417258603
 20
1.873215062445876
 30
0.0
 10
18.49042280240706
 20
2.018541879582719
 30
0.0
 10
18.17979999999723
 20
2.159410854707924
 30
0.0
  0
SPLINE
  5
B9
330
1F
100
AcDbEntity
  8
0
  6
Continuous
 62
     4
370
    15
100
AcDbSpline
210
0.0
220
0.0
230
1.0
 70
    24
 71
     3
 72
    14
 73
    10
 74
     0
 42
0.000000001
 43
0.00000001
 40
0.0
 40
0.0
 40
0.0
 40
0.0
 40
0.25
 40
0.25
 40
0.5
 40
0.5
 40
0.75
 40
0.75
 40
1.0
 40
1.0
 40
1.0
 40
1.0
 10
18.17979999999999
 20
6.242778252714182
 30
0.0
 10
18.1798
 20
5.763830032564154
 30
0.0
 10
18.1798
 20
5.26370291444605
 30
0.0
 10
18.1798
 20
4.327286493034949
 30
0.0
 10
18.17979999999999
 20
3.89304611370512
 30
0.0
 10
18.17979999999999
 20
3.162516804879115
 30
0.0
 10
18.17979999999999
 20
2.866033265499184
 30
0.0
 10
18.1798
 20
2.415882762179927
 30
0.0
 10
18.17979999999999
 20
2.26094346247674
 30
0.0
 10
18.1798
 20
2.159410854706671
 30
0.0
  0
SPLINE
  5
BA
330
1F
100
AcDbEntity
  8
0
  6
Continuous
 62
     1
370
    15
100
AcDbSpline
210
0.0
220
0.0
230
1.0
 70
     8
 71
     3
 72
    32
 73
    28
 74
     0
 42
0.000000001
 43
0.00000001
 40
0.0
 40
0.0
 40
0.0
 40
0.0
 40
0.0625000000000004
 40
0.0625000000000004
 40
0.1250000000000007
 40
0.1250000000000007
 40
0.2500000000000009
 40
0.2500000000000009
 40
0.3750000000000011
 40
0.3750000000000011
 40
0.4375000000000012
 40
0.4375000000000012
 40
0.5000000000000013
 40
0.5000000000000013
 40
0.5625000000000014
 40
0.5625000000000014
 40
0.6250000000000017
 40
0.6250000000000017
 40
0.7500000000000011
 40
0.7500000000000011
 40
0.8125000000000009
 40
0.8125000000000009
 40
0.8750000000000006
 40
0.8750000000000006
 40
0.9375000000000003
 40
0.9375000000000003
 40
1.0
 40
1.0
 40
1.0
 40
1.0
 10
30.87979999999999
 20
-0.762272505936029
 30
0.0
 10
30.61458485579675
 20
-0.5641797461855189
 30
0.0
 10
30.34877401080792
 20
-0.3648080548433988
 30
0.0
 10
29.81949466807472
 20
0.0338390974949687
 30
0.0
 10
29.55717813212101
 20
0.2328237292512018
 30
0.0
 10
28.76367237912522
 20
0.8295100621082092
 30
0.0
 10
28.23099560852836
 20
1.225628690604137
 30
0.0
 10
27.17788564237108
 20
1.995785053302899
 30
0.0
 10
26.64356926561748
 20
2.373153318630188
 30
0.0
 10
25.85159224092808
 20
2.912657515087961
 30
0.0
 10
25.58882047265098
 20
3.088189817164654
 30
0.0
 10
25.05881679384721
 20
3.430587196377101
 30
0.0
 10
24.79295917544853
 20
3.597133911451574
 30
0.0
 10
24.26306819230608
 20
3.918710581131317
 30
0.0
 10
24.00042828452177
 20
4.073483403293332
 30
0.0
 10
23.47224551060421
 20
4.371130642165832
 30
0.0
 10
23.20662620457579
 20
4.513990954779876
 30
0.0
 10
22.4104724882882
 20
4.921738507569573
 30
0.0
 10
21.88529033292298
 20
5.165101018815712
 30
0.0
 10
21.0893701233319
 20
5.483514076562601
 30
0.0
 10
20.82362442399625
 20
5.581725840101538
 30
0.0
 10
20.29478597616213
 20
5.761046583522313
 30
0.0
 10
20.03243894312867
 20
5.842115046511394
 30
0.0
 10
19.50301396330731
 20
5.987238079082014
 30
0.0
 10
19.23718643670133
 20
6.051132622484517
 30
0.0
 10
18.70683579456829
 20
6.160707048938886
 30
0.0
 10
18.44340568203897
 20
6.20633907414967
 30
0.0
 10
18.17979999999308
 20
6.242778252716341
 30
0.0
  0
SPLINE
  5
BB
330
1F
100
AcDbEntity
  8
0
  6
Continuous
 62
     1
370
    15
100
AcDbSpline
210
0.0
220
0.0
230
1.0
 70
     8
 71
     3
 72
    20
 73
    16
 74
     0
 42
0.000000001
 43
0.00000001
 40
0.0
 40
0.0
 40
0.0
 40
0.0
 40
0.1249999999999995
 40
0.1249999999999995
 40
0.2499999999999989
 40
0.2499999999999989
 40
0.3749999999999983
 40
0.3749999999999983
 40
0.4999999999999976
 40
0.4999999999999976
 40
0.6249999999999982
 40
0.6249999999999982
 40
0.7499999999999988
 40
0.7499999999999988
 40
1.0
 40
1.0
 40
1.0
 40
1.0
 10
35.39861921490667
 20
-3.235960018813241
 30
0.0
 10
35.27140267047589
 20
-3.197028255868905
 30
0.0
 10
35.12825965245892
 20
-3.154887488965405
 30
0.0
 10
34.81908383692615
 20
-3.056103533986009
 30
0.0
 10
34.65442633551827
 20
-2.999911556665143
 30
0.0
 10
34.30877863033118
 20
-2.868607314968405
 30
0.0
 10
34.12776093601728
 20
-2.79354624013084
 30
0.0
 10
33.75091466488784
 20
-2.620821897419403
 30
0.0
 10
33.55678340455205
 20
-2.523634871949241
 30
0.0
 10
33.16421792475083
 20
-2.31115659149325
 30
0.0
 10
32.96455413055151
 20
-2.195792891581693
 30
0.0
 10
32.55835719465227
 20
-1.946987345984223
 30
0.0
 10
32.35085879054088
 20
-1.812889938943842
 30
0.0
 10
31.72297953586758
 20
-1.388414793194108
 30
0.0
 10
31.30599829940999
 20
-1.080605750384556
 30
0.0
 10
30.87979999999999
 20
-0.7622725059360268
 30
0.0
  0
SPLINE
  5
BC
330
1F
100
AcDbEntity
  8
0
  6
Continuous
 62
     1
370
    15
100
AcDbSpline
210
0.0
220
0.0
230
1.0
 70
     8
 71
     3
 72
    13
 73
     9
 74
     0
 42
0.000000001
 43
0.00000001
 40
0.0
 40
0.0
 40
0.0
 40
0.0
 40
0.1261576047164737
 40
0.3395901833566872
 40
0.4828004091236343
 40
0.6301106638112398
 40
0.8127160577448738
 40
1.0
 40
1.0
 40
1.0
 40
1.0
 10
35.32678888964951
 20
-3.216635130544801
 30
0.0
 10
35.24398821297513
 20
-3.189626796048386
 30
0.0
 10
35.02110591398804
 20
-3.116925944725081
 30
0.0
 10
34.57712313782324
 20
-3.125609253814805
 30
0.0
 10
34.08435149024803
 20
-3.199175590384136
 30
0.0
 10
33.60244757857751
 20
-3.316798794440393
 30
0.0
 10
33.07014680915017
 20
-3.48900607888326
 30
0.0
 10
32.69906159991082
 20
-3.647396431603716
 30
0.0
 10
32.51117215812532
 20
-3.727593308805737
 30
0.0
  0
SPLINE
  5
BD
330
1F
100
AcDbEntity
  8
0
  6
Continuous
 62
     1
370
    15
100
AcDbSpline
210
0.0
220
0.0
230
1.0
 70
     8
 71
     3
 72
    13
 73
     9
 74
     0
 42
0.000000001
 43
0.00000001
 40
0.0
 40
0.0
 40
0.0
 40
0.0
 40
0.2191045131526573
 40
0.4439933206123802
 40
0.6142578587429166
 40
0.7884468217920529
 40
0.8971063090294873
 40
1.0
 40
1.0
 40
1.0
 40
1.0
 10
30.87979999999999
 20
-6.08065961406165
 30
0.0
 10
31.14364081368422
 20
-6.009186767126184
 30
0.0
 10
31.67828776045484
 20
-5.864354211247301
 30
0.0
 10
32.42070298148256
 20
-5.499455939290603
 30
0.0
 10
33.11013200500675
 20
-5.082252003022764
 30
0.0
 10
33.65966595107722
 20
-4.698923098037713
 30
0.0
 10
34.12843835423433
 20
-4.353860165161669
 30
0.0
 10
34.38345535702155
 20
-4.165732516777383
 30
0.0
 10
34.50748866580606
 20
-4.074232364050605
 30
0.0
  0
ARC
  5
BE
330
1F
100
AcDbEntity
  8
0
  6
Continuous
 62
     1
370
    15
100
AcDbCircle
 10
30.79902987560142
 20
0.0413550333113976
 30
0.0
 40
6.433938360497811
100
AcDbArc
 50
319.3236306497107
 51
352.550638308024
  0
ARC
  5
BF
330
1F
100
AcDbEntity
  8
0
  6
Continuous
 62
     1
370
    15
100
AcDbCircle
 10
33.07730634455444
 20
0.308456512734824
 30
0.0
 40
4.236907125625258
100
AcDbArc
 50
303.221631813595
 51
346.0908706421158
  0
ARC
  5
C0
330
1F
100
AcDbEntity
  8
0
  6
Continuous
 62
     1
370
    15
100
AcDbCircle
 10
33.77148158700177
 20
-1.400495362690358
 30
0.0
 40
3.790429848663996
100
AcDbArc
 50
25.37525816549865
 51
59.79289843897588
  0
ARC
  5
C1
330
1F
100
AcDbEntity
  8
0
  6
Continuous
 62
     1
370
    15
100
AcDbCircle
 10
31.31639928652109
 20
0.0419289544788781
 30
0.0
 40
5.882627518305249
100
AcDbArc
 50
1.772400298709259
 51
46.05679348160062
  0
SPLINE
  5
C2
330
1F
100
AcDbEntity
  8
0
  6
Continuous
 62
     1
370
    15
100
AcDbSpline
210
0.0
220
0.0
230
1.0
 70
     8
 71
     3
 72
    20
 73
    16
 74
     0
 42
0.000000001
 43
0.00000001
 40
0.0
 40
0.0
 40
0.0
 40
0.0
 40
0.1250000000000002
 40
0.1250000000000002
 40
0.2500000000000003
 40
0.2500000000000003
 40
0.3750000000000005
 40
0.3750000000000005
 40
0.5000000000000007
 40
0.5000000000000007
 40
0.6250000000000009
 40
0.6250000000000009
 40
0.750000000000001
 40
0.750000000000001
 40
1.0
 40
1.0
 40
1.0
 40
1.0
 10
35.39861921490666
 20
4.277585571275587
 30
0.0
 10
35.27140267047588
 20
4.455757133817428
 30
0.0
 10
35.12825965245892
 20
4.625868791585501
 30
0.0
 10
34.81908383692617
 20
4.941502244738793
 30
0.0
 10
34.65442633551828
 20
5.085851076896964
 30
0.0
 10
34.30877863033118
 20
5.346336160116112
 30
0.0
 10
34.12776093601731
 20
5.462491934615445
 30
0.0
 10
33.75091466488787
 20
5.664825660186233
 30
0.0
 10
33.55678340455205
 20
5.749874034291264
 30
0.0
 10
33.16421792475083
 20
5.885681289559066
 30
0.0
 10
32.96455413055152
 20
5.937120505190229
 30
0.0
 10
32.55835719465229
 20
6.007143806532666
 30
0.0
 10
32.35085879054088
 20
6.025725587211767
 30
0.0
 10
31.72297953586758
 20
6.03043053049731
 30
0.0
 10
31.30599829940999
 20
5.96646235271111
 30
0.0
 10
30.87979999999999
 20
5.840630778106801
 30
0.0
  0
LINE
  5
C3
330
1F
100
AcDbEntity
  8
0
  6
Continuous
 62
     1
370
    15
100
AcDbLine
 10
18.17979999999725
 20
6.242778252715909
 30
0.0
 11
18.17979999999999
 21
6.350000000000001
 31
0.0
  0
SPLINE
  5
C4
330
1F
100
AcDbEntity
  8
0
  6
Continuous
 62
     1
370
    15
100
AcDbSpline
210
0.0
220
0.0
230
1.0
 70
     8
 71
     3
 72
    32
 73
    28
 74
     0
 42
0.000000001
 43
0.00000001
 40
0.0
 40
0.0
 40
0.0
 40
0.0
 40
0.0624999999999996
 40
0.0624999999999996
 40
0.1249999999999993
 40
0.1249999999999993
 40
0.249999999999999
 40
0.249999999999999
 40
0.3749999999999987
 40
0.3749999999999987
 40
0.4374999999999989
 40
0.4374999999999989
 40
0.4999999999999991
 40
0.4999999999999991
 40
0.5624999999999993
 40
0.5624999999999993
 40
0.6249999999999994
 40
0.6249999999999994
 40
0.7499999999999997
 40
0.7499999999999997
 40
0.8124999999999998
 40
0.8124999999999998
 40
0.8749999999999999
 40
0.8749999999999999
 40
0.9374999999999999
 40
0.9374999999999999
 40
1.0
 40
1.0
 40
1.0
 40
1.0
 10
30.87979999999999
 20
-6.080659614061612
 30
0.0
 10
30.6145848557969
 20
-6.138156539967701
 30
0.0
 10
30.3487740108082
 20
-6.186670201449594
 30
0.0
 10
29.81949466807529
 20
-6.265125396840599
 30
0.0
 10
29.55717813212172
 20
-6.295058467634303
 30
0.0
 10
28.76367237912639
 20
-6.357101241914489
 30
0.0
 10
28.23099560852979
 20
-6.360943632492524
 30
0.0
 10
27.17788564237313
 20
-6.293751789192748
 30
0.0
 10
26.64356926561982
 20
-6.222358186311633
 30
0.0
 10
25.8515922409308
 20
-6.061247690701602
 30
0.0
 10
25.58882047265388
 20
-5.998617082346822
 30
0.0
 10
25.05881679385041
 20
-5.855443947561839
 30
0.0
 10
24.79295917545188
 20
-5.774987273557294
 30
0.0
 10
24.2630681923097
 20
-5.597407409962334
 30
0.0
 10
24.00042828452552
 20
-5.500479488747671
 30
0.0
 10
23.47224551060829
 20
-5.290341321049162
 30
0.0
 10
23.20662620458003
 20
-5.177083631292463
 30
0.0
 10
22.41047248829284
 20
-4.814889069695099
 30
0.0
 10
21.88529033292792
 20
-4.544355855765948
 30
0.0
 10
21.08937012333728
 20
-4.099342742678003
 30
0.0
 10
20.82362442400177
 20
-3.944617326668325
 30
0.0
 10
20.29478597616791
 20
-3.624487774612358
 30
0.0
 10
20.0324389431346
 20
-3.459263101268334
 30
0.0
 10
19.50301396331355
 20
-3.118097367659951
 30
0.0
 10
19.23718643670774
 20
-2.942400013700684
 30
0.0
 10
18.70683579457497
 20
-2.583097163510792
 30
0.0
 10
18.44340568204573
 20
-2.399753073923285
 30
0.0
 10
18.1798
 20
-2.213106856224733
 30
0.0
  0
SPLINE
  5
C5
330
1F
100
AcDbEntity
  8
0
  6
Continuous
 62
     1
370
    15
100
AcDbSpline
210
0.0
220
0.0
230
1.0
 70
     8
 71
     3
 72
    13
 73
     9
 74
     0
 42
0.000000001
 43
0.00000001
 40
0.0
 40
0.0
 40
0.0
 40
0.0
 40
0.1955816348312532
 40
0.3910004620346234
 40
0.5864837471481641
 40
0.7822257568271296
 40
0.977817370499059
 40
0.9999999999999999
 40
0.9999999999999999
 40
0.9999999999999999
 40
0.9999999999999999
 10
18.17979999999307
 20
-4.127701585567029
 30
0.0
 10
18.65403889353986
 20
-4.387913276643569
 30
0.0
 10
19.60212191090276
 20
-4.908120051300714
 30
0.0
 10
21.02360862262074
 20
-5.516841438065041
 30
0.0
 10
22.44560767627488
 20
-5.981886256665934
 30
0.0
 10
23.86902582004526
 20
-6.256411269707748
 30
0.0
 10
24.87169954013844
 20
-6.372321214776944
 30
0.0
 10
25.39955107949686
 20
-6.343986436685317
 30
0.0
 10
25.45331838897521
 20
-6.341100237310956
 30
0.0
  0
LINE
  5
C6
330
1F
100
AcDbEntity
  8
0
  6
Continuous
 62
     4
370
    15
100
AcDbLine
 10
18.17979999999725
 20
-4.127701585568824
 30
0.0
 11
18.1798
 21
-2.213106856224735
 31
0.0
  0
SPLINE
  5
C7
330
1F
100
AcDbEntity
  8
0
  6
Continuous
 62
     1
370
    15
100
AcDbSpline
210
0.0
220
0.0
230
1.0
 70
     8
 71
     3
 72
    12
 73
     8
 74
     0
 42
0.000000001
 43
0.00000001
 40
0.0
 40
0.0
 40
0.0
 40
0.0
 40
0.0507408357321292
 40
0.3458817074514452
 40
0.6414404009345096
 40
0.9370805660559257
 40
1.0
 40
1.0
 40
1.0
 40
1.0
 10
32.76603118711741
 20
-3.903895872922675
 30
0.0
 10
32.81492930059282
 20
-3.9103965275809
 30
0.0
 10
33.14824984480533
 20
-3.954709111327242
 30
0.0
 10
33.77013464590958
 20
-4.015471653171345
 30
0.0
 10
34.63100529513795
 20
-4.087039295271277
 30
0.0
 10
35.26787092994313
 20
-4.128413072992415
 30
0.0
 10
35.61724233065921
 20
-4.148643741828859
 30
0.0
 10
35.67854943504743
 20
-4.152193785489151
 30
0.0
  0
SPLINE
  5
C8
330
1F
100
AcDbEntity
  8
0
  6
Continuous
 62
     4
370
    15
100
AcDbSpline
210
0.0
220
0.0
230
1.0
 70
    24
 71
     3
 72
    14
 73
    10
 74
     0
 42
0.000000001
 43
0.00000001
 40
0.0
 40
0.0
 40
0.0
 40
0.0
 40
0.2499999999999999
 40
0.2499999999999999
 40
0.4999999999999998
 40
0.4999999999999998
 40
0.7499999999999999
 40
0.7499999999999999
 40
1.0
 40
1.0
 40
1.0
 40
1.0
 10
18.1798
 20
2.159410854706669
 30
0.0
 10
18.1798
 20
1.827787973508372
 30
0.0
 10
18.1798
 20
1.454451728744856
 30
0.0
 10
18.1798
 20
0.6521844625393567
 30
0.0
 10
18.1798
 20
0.2231565270927516
 30
0.0
 10
18.1798
 20
-0.6169719574815926
 30
0.0
 10
18.1798
 20
-1.026438037995109
 30
0.0
 10
18.17979999999999
 20
-1.726679689802803
 30
0.0
 10
18.1798
 20
-2.015267130048528
 30
0.0
 10
18.1798
 20
-2.213106856224242
 30
0.0
  0
LINE
  5
C9
330
1F
100
AcDbEntity
  8
0
  6
Continuous
 62
     1
370
    15
100
AcDbLine
 10
18.61473453028256
 20
-4.357614287435751
 30
0.0
 11
18.17979999999723
 21
-4.381127572848217
 31
0.0
  0
LINE
  5
CA
330
1F
100
AcDbEntity
  8
0
  6
Continuous
 62
     4
370
    15
100
AcDbLine
 10
18.1798
 20
-4.189668524426583
 30
0.0
 11
18.17979999999999
 21
-4.381127572848209
 31
0.0
  0
SPLINE
  5
CB
330
1F
100
AcDbEntity
  8
0
  6
Continuous
 62
     1
370
    15
100
AcDbSpline
210
0.0
220
0.0
230
1.0
 70
     8
 71
     3
 72
    10
 73
     6
 74
     0
 42
0.000000001
 43
0.00000001
 40
0.0
 40
0.0
 40
0.0
 40
0.0
 40
0.1900971519524341
 40
0.5952689402192386
 40
1.0
 40
1.0
 40
1.0
 40
1.0
 10
27.42789245258892
 20
4.350637190586421
 30
0.0
 10
27.64655572307111
 20
4.473317747696586
 30
0.0
 10
28.33127641429625
 20
4.857478817267717
 30
0.0
 10
29.48255756602267
 20
5.377080680531633
 30
0.0
 10
30.4142215179326
 20
5.686170145117797
 30
0.0
 10
30.87979999999999
 20
5.840630778106804
 30
0.0
  0
SPLINE
  5
CC
330
1F
100
AcDbEntity
  8
0
  6
Continuous
 62
     1
370
    15
100
AcDbSpline
210
0.0
220
0.0
230
1.0
 70
     8
 71
     3
 72
    13
 73
     9
 74
     0
 42
0.000000001
 43
0.00000001
 40
0.0
 40
0.0
 40
0.0
 40
0.0
 40
0.161934435702559
 40
0.376722915761538
 40
0.5208429321028005
 40
0.6690890241616386
 40
0.8528544795736587
 40
1.0
 40
1.0
 40
1.0
 40
1.0
 10
35.39861921490667
 20
4.27758557127559
 30
0.0
 10
35.29377025716822
 20
4.141242491133863
 30
0.0
 10
35.04985051951375
 20
3.824055090739023
 30
0.0
 10
34.5777477892877
 20
3.538352071222477
 30
0.0
 10
34.08419513767288
 20
3.375517571048231
 30
0.0
 10
33.60256328897601
 20
3.307409794927233
 30
0.0
 10
33.11211202153558
 20
3.312764895557059
 30
0.0
 10
32.78207099273483
 20
3.385103853944501
 30
0.0
 10
32.6353123099142
 20
3.417270673591545
 30
0.0
  0
LINE
  5
CD
330
1F
100
AcDbEntity
  8
중심선
100
AcDbLine
 10
-54.67020000000001
 20
-0.000000000000014
 30
0.0
 11
40.19621240959512
 21
-0.000000000000014
 31
0.0
  0
CIRCLE
  5
CE
330
1F
100
AcDbEntity
  8
외형선
100
AcDbCircle
 10
0.0
 20
0.0
 30
0.0
 40
3.000000000000004
  0
INSERT
  5
CF
330
1F
100
AcDbEntity
  8
0
  6
Continuous
 62
     7
100
AcDbBlockReference
 66
     1
  2
블럭10
 10
1.21807051462724
 20
-51.95764267978461
 30
0.0
  0
ATTRIB
  5
D0
330
CF
100
AcDbEntity
  8
FORMAT
 62
     2
100
AcDbText
 10
-7.96322477411404
 20
-49.88227576695243
 30
0.0
 40
4.233333333333333
  1
E5975032 [ 3 FLUTE ]
 41
0.75
  7
SLDTEXTSTYLE0
 11
-7.96322477411404
 21
-51.99894243361909
 31
0.0
100
AcDbAttribute
  2
AUTOATTR0
 70
     0
 74
     1
  0
SEQEND
  5
D1
330
CF
100
AcDbEntity
  8
0
  6
Continuous
 62
     7
  0
HATCH
  5
D2
330
1F
100
AcDbEntity
  8
중심선
100
AcDbHatch
 10
0.0
 20
0.0
 30
0.0
210
0.0
220
0.0
230
1.0
  2
SOLID
 70
     1
 71
     0
 91
        1
 92
        0
 93
        4
 72
     1
 10
6.932979819008089
 20
-35.71046837814068
 11
3.486704575170807
 21
-35.71046837814068
 72
     1
 10
3.486704575170807
 20
-35.71046837814068
 11
1.358474715966784
 21
-38.24679395871328
 72
     1
 10
1.358474715966784
 20
-38.24679395871328
 11
4.804783044917215
 21
-38.24675452941079
 72
     1
 10
4.804783044917215
 20
-38.24675452941079
 11
6.932979819008089
 21
-35.71046837814068
 97
        0
 75
     0
 76
     1
 98
        1
 10
0.0
 20
0.0
  0
HATCH
  5
D3
330
1F
100
AcDbEntity
  8
중심선
100
AcDbHatch
 10
0.0
 20
0.0
 30
0.0
210
0.0
220
0.0
230
1.0
  2
SOLID
 70
     1
 71
     0
 91
        1
 92
        0
 93
        4
 72
     1
 10
11.94574381004404
 20
-35.71046837814068
 11
8.499468566206758
 21
-35.71046837814068
 72
     1
 10
8.499468566206758
 20
-35.71046837814068
 11
3.96833055784937
 21
-41.11046837814069
 72
     1
 10
3.96833055784937
 20
-41.11046837814069
 11
7.414605801686652
 21
-41.11046837814069
 72
     1
 10
7.414605801686652
 20
-41.11046837814069
 11
11.94574381004404
 21
-35.71046837814068
 97
        0
 75
     0
 76
     1
 98
        1
 10
0.0
 20
0.0
  0
HATCH
  5
D4
330
1F
100
AcDbEntity
  8
중심선
100
AcDbHatch
 10
0.0
 20
0.0
 30
0.0
210
0.0
220
0.0
230
1.0
  2
SOLID
 70
     1
 71
     0
 91
        1
 92
        0
 93
        4
 72
     1
 10
16.95850780107994
 20
-35.71046837814071
 11
13.51223255724282
 21
-35.71046837814068
 72
     1
 10
13.51223255724282
 20
-35.71046837814068
 11
6.463795655353572
 21
-44.1104683781407
 72
     1
 10
6.463795655353572
 20
-44.1104683781407
 11
9.910070899190854
 21
-44.1104683781407
 72
     1
 10
9.910070899190854
 20
-44.1104683781407
 11
16.95850780107994
 21
-35.71046837814071
 97
        0
 75
     0
 76
     1
 98
        1
 10
0.0
 20
0.0
  0
HATCH
  5
D5
330
1F
100
AcDbEntity
  8
중심선
100
AcDbHatch
 10
0.0
 20
0.0
 30
0.0
210
0.0
220
0.0
230
1.0
  2
SOLID
 70
     1
 71
     0
 91
        1
 92
        0
 93
        6
 72
     3
 10
21.75839823209213
 20
-39.91046837819196
 11
3.960054785062284
 21
1.540850780301639E-10
 40
0.3939339440162633
 50
17.09539180608432
 51
320.0019657685081
 73
     0
 72
     1
 10
23.44139788779273
 20
-38.49836238277899
 11
25.74669976149377
 21
-36.56403567273106
 72
     3
 10
21.75839823203929
 20
-39.91046837814083
 11
6.600054785286829
 21
-1.249000902703301E-13
 40
0.6363583540795982
 50
39.9987384933741
 51
368.4976242363725
 73
     1
 72
     1
 10
28.1837307239399
 20
-38.9504683780707
 11
20.43846553887521
 21
-38.95046837807067
 72
     1
 10
20.43846553887521
 20
-38.95046837807067
 11
20.43844049442928
 21
-40.8704683780706
 72
     1
 10
20.43844049442928
 20
-40.8704683780706
 11
24.87982026390132
 21
-40.87046837807057
 97
        0
 75
     0
 76
     1
 98
        1
 10
0.0
 20
0.0
  0
POINT
  5
D6
330
1F
100
AcDbEntity
  8
치수문자_일반주서
100
AcDbPoint
 10
-51.67020000000001
 20
-0.000000000000014
 30
0.0
  0
DIMENSION
  5
D7
330
1F
100
AcDbEntity
  8
치수문자_일반주서
100
AcDbDimension
  2
_D
 10
-63.35665802161206
 20
-6.35000000000005
 30
0.0
 11
-63.35665802161208
 21
-0.0000000000000062
 31
0.0
 70
   160
  1
%%c<>
 71
     2
 42
12.7
 52
-270.0
  3
SLDDIMSTYLE0
100
AcDbAlignedDimension
 13
-50.86020000000001
 23
6.349999999999993
 33
0.0
 14
-50.86020000000001
 24
-6.350000000000005
 34
0.0
 50
90.0000000000002
100
AcDbRotatedDimension
1001
ACAD
1000
DSTYLE
1002
{
1070
   171
1070
     6
1070
   273
1070
     7
1002
}
  0
DIMENSION
  5
EC
330
1F
100
AcDbEntity
  8
치수문자_일반주서
100
AcDbDimension
  2
_D_1
 10
37.2298
 20
46.54000000000005
 30
0.0
 11
-7.220200000000009
 21
46.54000000000005
 31
0.0
 70
   160
  1
<>
 71
     2
 42
88.9
  3
SLDDIMSTYLE1
100
AcDbAlignedDimension
 13
-51.67020000000001
 23
5.539999999999994
 33
0.0
 14
37.2298
 24
0.0000000000000016
 34
0.0
100
AcDbRotatedDimension
1001
ACAD
1000
DSTYLE
1002
{
1070
   171
1070
     6
1070
   273
1070
     7
1002
}
  0
DIMENSION
  5
100
330
1F
100
AcDbEntity
  8
치수문자_일반주서
100
AcDbDimension
  2
_D_2
 10
37.2298
 20
22.21869895411231
 30
0.0
 11
19.76729999999999
 21
22.21869895411231
 31
0.0
 70
   160
  1
<>
 71
     2
 42
34.925
  3
SLDDIMSTYLE2
100
AcDbAlignedDimension
 13
2.304799999999998
 23
6.045200000000002
 33
0.0
 14
37.2298
 24
0.0000000000000016
 34
0.0
100
AcDbRotatedDimension
1001
ACAD
1000
DSTYLE
1002
{
1070
   171
1070
     6
1070
   273
1070
     7
1002
}
  0
DIMENSION
  5
116
330
1F
100
AcDbEntity
  8
치수문자_일반주서
100
AcDbDimension
  2
_D_3
 10
37.2298
 20
35.85708761462558
 30
0.0
 11
27.70479999999862
 21
35.85708761462558
 31
0.0
 70
   160
  1
<>
 71
     2
 42
19.05000000000276
  3
SLDDIMSTYLE2
100
AcDbAlignedDimension
 13
18.17979999999725
 23
6.242778252715909
 33
0.0
 14
37.2298
 24
0.0000000000000016
 34
0.0
 50
-0.0000000000000856
100
AcDbRotatedDimension
1001
ACAD
1000
DSTYLE
1002
{
1070
   171
1070
     6
1070
   273
1070
     7
1002
}
  0
INSERT
  5
131
330
1F
100
AcDbEntity
  8
외형선
100
AcDbBlockReference
  2
SW_DOWELSYMBOL_0
 10
0.0
 20
0.0
 30
0.0
  0
DIMENSION
  5
158
102
{ACAD_REACTORS
102
}
102
{ACAD_XDICTIONARY
360
159
102
}
330
1F
100
AcDbEntity
  8
치수문자_일반주서
100
AcDbDimension
  2
*D7
 10
56.65689369217269
 20
-6.349999999999998
 30
0.0
 11
56.65689369217269
 21
25.204
 31
0.0
 70
   160
  1
{%%c<>[]}
 71
     5
 42
12.7
  3
SLDDIMSTYLE2
100
AcDbAlignedDimension
 13
19.59149272597429
 23
6.350000000000001
 33
0.0
 14
26.93445581932363
 24
-6.349999999999998
 34
0.0
 50
90.0
100
AcDbRotatedDimension
1001
ACAD
1000
DSTYLE
1002
{
1070
   283
1070
     1
1070
   170
1070
     1
1070
   171
1070
     6
1070
   273
1070
     7
1002
}
  0
ENDSEC
  0
SECTION
  2
OBJECTS
  0
DICTIONARY
  5
C
330
0
100
AcDbDictionary
281
     1
  3
ACAD_GROUP
350
D
  3
ACAD_IMAGE_VARS
350
155
  3
ACAD_LAYOUT
350
1A
  3
ACAD_MLINESTYLE
350
17
  3
ACAD_PLOTSETTINGS
350
19
  3
ACAD_PLOTSTYLENAME
350
E
  3
ACAD_SCALELIST
350
47
  3
APPDATA
350
153
  3
DWGPROPS
350
16C
  0
DICTIONARY
  5
159
330
158
100
AcDbDictionary
280
     1
281
     1
  0
DICTIONARY
  5
D
102
{ACAD_REACTORS
330
C
102
}
330
C
100
AcDbDictionary
281
     1
  0
RASTERVARIABLES
  5
155
102
{ACAD_REACTORS
330
C
102
}
330
C
100
AcDbRasterVariables
 90
        0
 70
     1
 71
     1
 72
     1
  0
DICTIONARY
  5
1A
102
{ACAD_REACTORS
330
C
102
}
330
C
100
AcDbDictionary
281
     1
  3
Layout1
350
1E
  3
Layout2
350
26
  3
Model
350
22
  0
DICTIONARY
  5
17
102
{ACAD_REACTORS
330
C
102
}
330
C
100
AcDbDictionary
281
     1
  3
Standard
350
18
  0
DICTIONARY
  5
19
102
{ACAD_REACTORS
330
C
102
}
330
C
100
AcDbDictionary
281
     1
  0
ACDBDICTIONARYWDFLT
  5
E
102
{ACAD_REACTORS
330
C
102
}
330
C
100
AcDbDictionary
281
     1
  3
Normal
350
F
100
AcDbDictionaryWithDefault
340
F
  0
DICTIONARY
  5
47
102
{ACAD_REACTORS
330
C
102
}
330
C
100
AcDbDictionary
281
     1
  3
A0
350
48
  3
A1
350
49
  3
A2
350
4A
  3
A3
350
4B
  3
A4
350
4C
  3
A5
350
4D
  3
A6
350
4E
  3
A7
350
4F
  3
A8
350
50
  3
A9
350
51
  3
B0
350
52
  3
B1
350
53
  3
B2
350
54
  3
B3
350
55
  3
B4
350
56
  3
B5
350
57
  3
B6
350
58
  3
B7
350
59
  3
B8
350
5A
  3
B9
350
5B
  3
C0
350
5C
  3
C1
350
5D
  3
C2
350
5E
  3
C3
350
5F
  3
C4
350
60
  3
C5
350
61
  3
C6
350
62
  3
C7
350
63
  3
C8
350
64
  3
C9
350
65
  3
D0
350
66
  3
D1
350
67
  3
D2
350
68
  0
DICTIONARY
  5
153
102
{ACAD_REACTORS
330
C
102
}
330
C
100
AcDbDictionary
281
     1
  0
XRECORD
  5
16C
102
{ACAD_REACTORS
330
C
102
}
330
C
100
AcDbXrecord
280
     1
  1
DWGPROPS COOKIE
  2

  3

  4

  6

  7

  8
12016016
  9

300
=
301
=
302
=
303
=
304
=
305
=
306
=
307
=
308
=
309
=
 40
0.0
 41
2458269.360584433
 42
2458274.405993727
  1

 90
        0
  0
LAYOUT
  5
1E
102
{ACAD_REACTORS
330
1A
102
}
330
1A
100
AcDbPlotSettings
  1

  2
none_device
  4

  6

 40
0.0
 41
0.0
 42
0.0
 43
0.0
 44
0.0
 45
0.0
 46
0.0
 47
0.0
 48
0.0
 49
0.0
140
0.0
141
0.0
142
1.0
143
1.0
 70
   688
 72
     1
 73
     0
 74
     5
  7

 75
    16
147
1.0
148
0.0
149
0.0
100
AcDbLayout
  1
Layout1
 70
     1
 71
     1
 10
0.0
 20
0.0
 11
420.0
 21
297.0
 12
0.0
 22
0.0
 32
0.0
 14
1.000000000000000E+20
 24
1.000000000000000E+20
 34
1.000000000000000E+20
 15
-1.000000000000000E+20
 25
-1.000000000000000E+20
 35
-1.000000000000000E+20
146
0.0
 13
0.0
 23
0.0
 33
0.0
 16
1.0
 26
0.0
 36
0.0
 17
0.0
 27
1.0
 37
0.0
 76
     0
330
1B
  0
LAYOUT
  5
26
102
{ACAD_REACTORS
330
1A
102
}
330
1A
100
AcDbPlotSettings
  1

  2
none_device
  4

  6

 40
0.0
 41
0.0
 42
0.0
 43
0.0
 44
0.0
 45
0.0
 46
0.0
 47
0.0
 48
0.0
 49
0.0
140
0.0
141
0.0
142
1.0
143
1.0
 70
   688
 72
     1
 73
     0
 74
     5
  7

 75
    16
147
1.0
148
0.0
149
0.0
100
AcDbLayout
  1
Layout2
 70
     1
 71
     2
 10
0.0
 20
0.0
 11
0.0
 21
0.0
 12
0.0
 22
0.0
 32
0.0
 14
0.0
 24
0.0
 34
0.0
 15
0.0
 25
0.0
 35
0.0
146
0.0
 13
0.0
 23
0.0
 33
0.0
 16
1.0
 26
0.0
 36
0.0
 17
0.0
 27
1.0
 37
0.0
 76
     0
330
23
  0
LAYOUT
  5
22
102
{ACAD_REACTORS
330
1A
102
}
330
1A
100
AcDbPlotSettings
  1

  2
none_device
  4
ANSI_A_(11.00_x_8.50_Inches)
  6

 40
6.35
 41
19.05
 42
6.35000508
 43
19.05000254
 44
279.4
 45
215.9
 46
144.1353475159105
 47
82.26098600639314
 48
0.0
 49
0.0
140
0.0
141
0.0
142
0.0779461684102795
143
1.0
 70
  1696
 72
     0
 73
     0
 74
     0
  7

 75
     0
147
0.0235690232323232
148
0.0
149
0.0
100
AcDbLayout
  1
Model
 70
     1
 71
     0
 10
0.0
 20
0.0
 11
420.0
 21
297.0
 12
0.0
 22
0.0
 32
0.0
 14
-67.73165802161212
 24
-49.88227576695243
 34
0.0
 15
57.20722702550602
 25
50.91500000000005
 35
0.0
146
0.0
 13
0.0
 23
0.0
 33
0.0
 16
1.0
 26
0.0
 36
0.0
 17
0.0
 27
1.0
 37
0.0
 76
     0
330
1F
331
29
  0
MLINESTYLE
  5
18
102
{ACAD_REACTORS
330
17
102
}
330
17
100
AcDbMlineStyle
  2
Standard
 70
     0
  3

 62
   256
 51
90.0
 52
90.0
 71
     2
 49
0.5
 62
   256
  6
BYLAYER
 49
-0.5
 62
   256
  6
BYLAYER
  0
ACDBPLACEHOLDER
  5
F
102
{ACAD_REACTORS
330
E
102
}
330
E
  0
SCALE
  5
48
102
{ACAD_REACTORS
330
47
102
}
330
47
100
AcDbScale
 70
     0
300
1:1
140
1.0
141
1.0
290
     1
  0
SCALE
  5
49
102
{ACAD_REACTORS
330
47
102
}
330
47
100
AcDbScale
 70
     0
300
1:2
140
1.0
141
2.0
290
     0
  0
SCALE
  5
4A
102
{ACAD_REACTORS
330
47
102
}
330
47
100
AcDbScale
 70
     0
300
1:4
140
1.0
141
4.0
290
     0
  0
SCALE
  5
4B
102
{ACAD_REACTORS
330
47
102
}
330
47
100
AcDbScale
 70
     0
300
1:5
140
1.0
141
5.0
290
     0
  0
SCALE
  5
4C
102
{ACAD_REACTORS
330
47
102
}
330
47
100
AcDbScale
 70
     0
300
1:8
140
1.0
141
8.0
290
     0
  0
SCALE
  5
4D
102
{ACAD_REACTORS
330
47
102
}
330
47
100
AcDbScale
 70
     0
300
1:10
140
1.0
141
10.0
290
     0
  0
SCALE
  5
4E
102
{ACAD_REACTORS
330
47
102
}
330
47
100
AcDbScale
 70
     0
300
1:16
140
1.0
141
16.0
290
     0
  0
SCALE
  5
4F
102
{ACAD_REACTORS
330
47
102
}
330
47
100
AcDbScale
 70
     0
300
1:20
140
1.0
141
20.0
290
     0
  0
SCALE
  5
50
102
{ACAD_REACTORS
330
47
102
}
330
47
100
AcDbScale
 70
     0
300
1:30
140
1.0
141
30.0
290
     0
  0
SCALE
  5
51
102
{ACAD_REACTORS
330
47
102
}
330
47
100
AcDbScale
 70
     0
300
1:40
140
1.0
141
40.0
290
     0
  0
SCALE
  5
52
102
{ACAD_REACTORS
330
47
102
}
330
47
100
AcDbScale
 70
     0
300
1:50
140
1.0
141
50.0
290
     0
  0
SCALE
  5
53
102
{ACAD_REACTORS
330
47
102
}
330
47
100
AcDbScale
 70
     0
300
1:100
140
1.0
141
100.0
290
     0
  0
SCALE
  5
54
102
{ACAD_REACTORS
330
47
102
}
330
47
100
AcDbScale
 70
     0
300
2:1
140
2.0
141
1.0
290
     0
  0
SCALE
  5
55
102
{ACAD_REACTORS
330
47
102
}
330
47
100
AcDbScale
 70
     0
300
4:1
140
4.0
141
1.0
290
     0
  0
SCALE
  5
56
102
{ACAD_REACTORS
330
47
102
}
330
47
100
AcDbScale
 70
     0
300
8:1
140
8.0
141
1.0
290
     0
  0
SCALE
  5
57
102
{ACAD_REACTORS
330
47
102
}
330
47
100
AcDbScale
 70
     0
300
10:1
140
10.0
141
1.0
290
     0
  0
SCALE
  5
58
102
{ACAD_REACTORS
330
47
102
}
330
47
100
AcDbScale
 70
     0
300
100:1
140
100.0
141
1.0
290
     0
  0
SCALE
  5
59
102
{ACAD_REACTORS
330
47
102
}
330
47
100
AcDbScale
 70
     0
300
1/128" = 1'-0"
140
0.0078125
141
12.0
290
     0
  0
SCALE
  5
5A
102
{ACAD_REACTORS
330
47
102
}
330
47
100
AcDbScale
 70
     0
300
1/64" = 1'-0"
140
0.015625
141
12.0
290
     0
  0
SCALE
  5
5B
102
{ACAD_REACTORS
330
47
102
}
330
47
100
AcDbScale
 70
     0
300
1/32" = 1'-0"
140
0.03125
141
12.0
290
     0
  0
SCALE
  5
5C
102
{ACAD_REACTORS
330
47
102
}
330
47
100
AcDbScale
 70
     0
300
1/16" = 1'-0"
140
0.0625
141
12.0
290
     0
  0
SCALE
  5
5D
102
{ACAD_REACTORS
330
47
102
}
330
47
100
AcDbScale
 70
     0
300
3/32" = 1'-0"
140
0.09375
141
12.0
290
     0
  0
SCALE
  5
5E
102
{ACAD_REACTORS
330
47
102
}
330
47
100
AcDbScale
 70
     0
300
1/8" = 1'-0"
140
0.125
141
12.0
290
     0
  0
SCALE
  5
5F
102
{ACAD_REACTORS
330
47
102
}
330
47
100
AcDbScale
 70
     0
300
3/16" = 1'-0"
140
0.1875
141
12.0
290
     0
  0
SCALE
  5
60
102
{ACAD_REACTORS
330
47
102
}
330
47
100
AcDbScale
 70
     0
300
1/4" = 1'-0"
140
0.25
141
12.0
290
     0
  0
SCALE
  5
61
102
{ACAD_REACTORS
330
47
102
}
330
47
100
AcDbScale
 70
     0
300
3/8" = 1'-0"
140
0.375
141
12.0
290
     0
  0
SCALE
  5
62
102
{ACAD_REACTORS
330
47
102
}
330
47
100
AcDbScale
 70
     0
300
1/2" = 1'-0"
140
0.5
141
12.0
290
     0
  0
SCALE
  5
63
102
{ACAD_REACTORS
330
47
102
}
330
47
100
AcDbScale
 70
     0
300
3/4" = 1'-0"
140
0.75
141
12.0
290
     0
  0
SCALE
  5
64
102
{ACAD_REACTORS
330
47
102
}
330
47
100
AcDbScale
 70
     0
300
1" = 1'-0"
140
1.0
141
12.0
290
     0
  0
SCALE
  5
65
102
{ACAD_REACTORS
330
47
102
}
330
47
100
AcDbScale
 70
     0
300
1-1/2" = 1'-0"
140
1.5
141
12.0
290
     0
  0
SCALE
  5
66
102
{ACAD_REACTORS
330
47
102
}
330
47
100
AcDbScale
 70
     0
300
3" = 1'-0"
140
3.0
141
12.0
290
     0
  0
SCALE
  5
67
102
{ACAD_REACTORS
330
47
102
}
330
47
100
AcDbScale
 70
     0
300
6" = 1'-0"
140
6.0
141
12.0
290
     0
  0
SCALE
  5
68
102
{ACAD_REACTORS
330
47
102
}
330
47
100
AcDbScale
 70
     0
300
1'-0" = 1'-0"
140
12.0
141
12.0
290
     0
  0
ENDSEC
  0
EOF
