  0
SECTION
  2
HEADER
  9
$ACADVER
  1
AC1015
  9
$ACADMAINTVER
 70
     6
  9
$DWGCODEPAGE
  3
ANSI_949
  9
$INSBASE
 10
0.0
 20
0.0
 30
0.0
  9
$EXTMIN
 10
-77.06665802161211
 20
-49.88227576695243
 30
0.0
  9
$EXTMAX
 10
60.74961018159122
 20
52.31250000000005
 30
0.0
  9
$LIMMIN
 10
0.0
 20
0.0
  9
$LIMMAX
 10
420.0
 20
297.0
  9
$ORTHOMODE
 70
     1
  9
$REGENMODE
 70
     1
  9
$FILLMODE
 70
     1
  9
$QTEXTMODE
 70
     0
  9
$MIRRTEXT
 70
     1
  9
$LTSCALE
 40
1.0
  9
$ATTMODE
 70
     1
  9
$TEXTSIZE
 40
3.5
  9
$TRACEWID
 40
1.0
  9
$TEXTSTYLE
  7
Standard
  9
$CLAYER
  8
0
  9
$CELTYPE
  6
ByLayer
  9
$CECOLOR
 62
   256
  9
$CELTSCALE
 40
1.0
  9
$DISPSILH
 70
     0
  9
$DIMSCALE
 40
1.0
  9
$DIMASZ
 40
3.302
  9
$DIMEXO
 40
1.0
  9
$DIMDLI
 40
3.75
  9
$DIMRND
 40
0.0
  9
$DIMDLE
 40
0.0
  9
$DIMEXE
 40
1.0
  9
$DIMTP
 40
0.0
  9
$DIMTM
 40
0.0
  9
$DIMTXT
 40
3.5
  9
$DIMCEN
 40
2.5
  9
$DIMTSZ
 40
0.0
  9
$DIMTOL
 70
     0
  9
$DIMLIM
 70
     0
  9
$DIMTIH
 70
     1
  9
$DIMTOH
 70
     1
  9
$DIMSE1
 70
     0
  9
$DIMSE2
 70
     0
  9
$DIMTAD
 70
     1
  9
$DIMZIN
 70
     0
  9
$DIMBLK
  1

  9
$DIMASO
 70
     1
  9
$DIMSHO
 70
     1
  9
$DIMPOST
  1

  9
$DIMAPOST
  1

  9
$DIMALT
 70
     0
  9
$DIMALTD
 70
     3
  9
$DIMALTF
 40
0.0393700787401575
  9
$DIMLFAC
 40
1.0
  9
$DIMTOFL
 70
     1
  9
$DIMTVP
 40
0.0
  9
$DIMTIX
 70
     0
  9
$DIMSOXD
 70
     0
  9
$DIMSAH
 70
     0
  9
$DIMBLK1
  1

  9
$DIMBLK2
  1

  9
$DIMSTYLE
  2
ISO-25
  9
$DIMCLRD
 70
     0
  9
$DIMCLRE
 70
     0
  9
$DIMCLRT
 70
     0
  9
$DIMTFAC
 40
1.0
  9
$DIMGAP
 40
1.524
  9
$DIMJUST
 70
     0
  9
$DIMSD1
 70
     0
  9
$DIMSD2
 70
     0
  9
$DIMTOLJ
 70
     0
  9
$DIMTZIN
 70
     0
  9
$DIMALTZ
 70
     0
  9
$DIMALTTZ
 70
     0
  9
$DIMUPT
 70
     0
  9
$DIMDEC
 70
     2
  9
$DIMTDEC
 70
     2
  9
$DIMALTU
 70
     2
  9
$DIMALTTD
 70
     3
  9
$DIMTXSTY
  7
Standard
  9
$DIMAUNIT
 70
     0
  9
$DIMADEC
 70
     2
  9
$DIMALTRND
 40
0.0
  9
$DIMAZIN
 70
     0
  9
$DIMDSEP
 70
    44
  9
$DIMATFIT
 70
     3
  9
$DIMFRAC
 70
     0
  9
$DIMLDRBLK
  1

  9
$DIMLUNIT
 70
     2
  9
$DIMLWD
 70
    -2
  9
$DIMLWE
 70
    -2
  9
$DIMTMOVE
 70
     0
  9
$LUNITS
 70
     2
  9
$LUPREC
 70
     2
  9
$SKETCHINC
 40
1.0
  9
$FILLETRAD
 40
10.0
  9
$AUNITS
 70
     0
  9
$AUPREC
 70
     2
  9
$MENU
  1
.
  9
$ELEVATION
 40
0.0
  9
$PELEVATION
 40
0.0
  9
$THICKNESS
 40
0.0
  9
$LIMCHECK
 70
     0
  9
$CHAMFERA
 40
0.0
  9
$CHAMFERB
 40
0.0
  9
$CHAMFERC
 40
0.0
  9
$CHAMFERD
 40
0.0
  9
$SKPOLY
 70
     0
  9
$TDCREATE
 40
2458269.735748565
  9
$TDUCREATE
 40
2458269.360748565
  9
$TDUPDATE
 40
2458274.78017897
  9
$TDUUPDATE
 40
2458274.40517897
  9
$TDINDWG
 40
0.0001971528
  9
$TDUSRTIMER
 40
2458274.403285463
  9
$USRTIMER
 70
     1
  9
$ANGBASE
 50
0.0
  9
$ANGDIR
 70
     0
  9
$PDMODE
 70
     0
  9
$PDSIZE
 40
-1.0
  9
$PLINEWID
 40
0.0
  9
$SPLFRAME
 70
     0
  9
$SPLINETYPE
 70
     6
  9
$SPLINESEGS
 70
     8
  9
$HANDSEED
  5
178
  9
$SURFTAB1
 70
     6
  9
$SURFTAB2
 70
     6
  9
$SURFTYPE
 70
     6
  9
$SURFU
 70
     6
  9
$SURFV
 70
     6
  9
$UCSBASE
  2

  9
$UCSNAME
  2

  9
$UCSORG
 10
0.0
 20
0.0
 30
0.0
  9
$UCSXDIR
 10
1.0
 20
0.0
 30
0.0
  9
$UCSYDIR
 10
0.0
 20
1.0
 30
0.0
  9
$UCSORTHOREF
  2

  9
$UCSORTHOVIEW
 70
     0
  9
$UCSORGTOP
 10
0.0
 20
0.0
 30
0.0
  9
$UCSORGBOTTOM
 10
0.0
 20
0.0
 30
0.0
  9
$UCSORGLEFT
 10
0.0
 20
0.0
 30
0.0
  9
$UCSORGRIGHT
 10
0.0
 20
0.0
 30
0.0
  9
$UCSORGFRONT
 10
0.0
 20
0.0
 30
0.0
  9
$UCSORGBACK
 10
0.0
 20
0.0
 30
0.0
  9
$PUCSBASE
  2

  9
$PUCSNAME
  2

  9
$PUCSORG
 10
0.0
 20
0.0
 30
0.0
  9
$PUCSXDIR
 10
1.0
 20
0.0
 30
0.0
  9
$PUCSYDIR
 10
0.0
 20
1.0
 30
0.0
  9
$PUCSORTHOREF
  2

  9
$PUCSORTHOVIEW
 70
     0
  9
$PUCSORGTOP
 10
0.0
 20
0.0
 30
0.0
  9
$PUCSORGBOTTOM
 10
0.0
 20
0.0
 30
0.0
  9
$PUCSORGLEFT
 10
0.0
 20
0.0
 30
0.0
  9
$PUCSORGRIGHT
 10
0.0
 20
0.0
 30
0.0
  9
$PUCSORGFRONT
 10
0.0
 20
0.0
 30
0.0
  9
$PUCSORGBACK
 10
0.0
 20
0.0
 30
0.0
  9
$USERI1
 70
     0
  9
$USERI2
 70
     0
  9
$USERI3
 70
     0
  9
$USERI4
 70
     0
  9
$USERI5
 70
     0
  9
$USERR1
 40
0.0
  9
$USERR2
 40
0.0
  9
$USERR3
 40
0.0
  9
$USERR4
 40
0.0
  9
$USERR5
 40
0.0
  9
$WORLDVIEW
 70
     1
  9
$SHADEDGE
 70
     3
  9
$SHADEDIF
 70
    70
  9
$TILEMODE
 70
     1
  9
$MAXACTVP
 70
    64
  9
$PINSBASE
 10
0.0
 20
0.0
 30
0.0
  9
$PLIMCHECK
 70
     0
  9
$PEXTMIN
 10
1.000000000000000E+20
 20
1.000000000000000E+20
 30
1.000000000000000E+20
  9
$PEXTMAX
 10
-1.000000000000000E+20
 20
-1.000000000000000E+20
 30
-1.000000000000000E+20
  9
$PLIMMIN
 10
0.0
 20
0.0
  9
$PLIMMAX
 10
0.0
 20
0.0
  9
$UNITMODE
 70
     0
  9
$VISRETAIN
 70
     1
  9
$PLINEGEN
 70
     0
  9
$PSLTSCALE
 70
     1
  9
$TREEDEPTH
 70
  3020
  9
$CMLSTYLE
  2
Standard
  9
$CMLJUST
 70
     0
  9
$CMLSCALE
 40
20.0
  9
$PROXYGRAPHICS
 70
     1
  9
$MEASUREMENT
 70
     1
  9
$CELWEIGHT
370
    -1
  9
$ENDCAPS
280
     0
  9
$JOINSTYLE
280
     0
  9
$LWDISPLAY
290
     1
  9
$INSUNITS
 70
     4
  9
$HYPERLINKBASE
  1

  9
$STYLESHEET
  1

  9
$XEDIT
290
     1
  9
$CEPSNTYPE
380
     0
  9
$PSTYLEMODE
290
     1
  9
$FINGERPRINTGUID
  2
{F00A7CC7-571B-4B81-A9B0-11557940BC4D}
  9
$VERSIONGUID
  2
{FAEB1C32-E019-11D5-929B-00C0DF256EC4}
  9
$EXTNAMES
290
     1
  9
$PSVPSCALE
 40
0.0
  9
$OLESTARTUP
290
     0
  0
ENDSEC
  0
SECTION
  2
CLASSES
  0
CLASS
  1
ACDBDICTIONARYWDFLT
  2
AcDbDictionaryWithDefault
  3
ObjectDBX Classes
 90
        0
280
     0
281
     0
  0
CLASS
  1
VISUALSTYLE
  2
AcDbVisualStyle
  3
ObjectDBX Classes
 90
     4095
280
     0
281
     0
  0
CLASS
  1
MATERIAL
  2
AcDbMaterial
  3
ObjectDBX Classes
 90
     1153
280
     0
281
     0
  0
CLASS
  1
SCALE
  2
AcDbScale
  3
ObjectDBX Classes
 90
     1153
280
     0
281
     0
  0
CLASS
  1
SUN
  2
AcDbSun
  3
SCENEOE
 90
     1153
280
     0
281
     0
  0
CLASS
  1
ACDBPLACEHOLDER
  2
AcDbPlaceHolder
  3
ObjectDBX Classes
 90
        0
280
     0
281
     0
  0
CLASS
  1
LAYOUT
  2
AcDbLayout
  3
ObjectDBX Classes
 90
        0
280
     0
281
     0
  0
CLASS
  1
TABLESTYLE
  2
AcDbTableStyle
  3
ObjectDBX Classes
 90
     4095
280
     0
281
     0
  0
CLASS
  1
MLEADERSTYLE
  2
AcDbMLeaderStyle
  3
ACDB_MLEADERSTYLE_CLASS
 90
     4095
280
     0
281
     0
  0
CLASS
  1
RASTERVARIABLES
  2
AcDbRasterVariables
  3
ISM
 90
        0
280
     0
281
     0
  0
CLASS
  1
DIMASSOC
  2
AcDbDimAssoc
  3
"AcDbDimAssoc|Product Desc:     AcDim ARX App For Dimension|Company:          Autodesk, Inc.|WEB Address:      www.autodesk.com"
 90
        0
280
     0
281
     0
  0
ENDSEC
  0
SECTION
  2
TABLES
  0
TABLE
  2
VPORT
  5
8
330
0
100
AcDbSymbolTable
 70
     1
  0
VPORT
  5
29
330
8
100
AcDbSymbolTableRecord
100
AcDbViewportTableRecord
  2
*Active
 70
     0
 10
0.0
 20
0.0
 11
1.0
 21
1.0
 12
-20.05874739725976
 22
5.002528556214958
 13
0.0
 23
0.0
 14
10.0
 24
10.0
 15
10.0
 25
10.0
 16
0.0
 26
0.0
 36
1.0
 17
0.0
 27
0.0
 37
0.0
 40
141.1798882908188
 41
1.666023166023166
 42
50.0
 43
0.0
 44
0.0
 50
0.0
 51
0.0
 71
    16
 72
  2000
 73
     1
 74
     3
 75
     0
 76
     0
 77
     0
 78
     0
281
     0
 65
     1
110
0.0
120
0.0
130
0.0
111
1.0
121
0.0
131
0.0
112
0.0
122
1.0
132
0.0
 79
     0
146
0.0
  0
ENDTAB
  0
TABLE
  2
LTYPE
  5
5
330
0
100
AcDbSymbolTable
 70
     6
  0
LTYPE
  5
14
330
5
100
AcDbSymbolTableRecord
100
AcDbLinetypeTableRecord
  2
ByBlock
 70
     0
  3

 72
    65
 73
     0
 40
0.0
  0
LTYPE
  5
15
330
5
100
AcDbSymbolTableRecord
100
AcDbLinetypeTableRecord
  2
ByLayer
 70
     0
  3

 72
    65
 73
     0
 40
0.0
  0
LTYPE
  5
16
330
5
100
AcDbSymbolTableRecord
100
AcDbLinetypeTableRecord
  2
Continuous
 70
     0
  3
Solid line
 72
    65
 73
     0
 40
0.0
  0
LTYPE
  5
6A
330
5
100
AcDbSymbolTableRecord
100
AcDbLinetypeTableRecord
  2
HIDDEN
 70
     0
  3
Hidden __ __ __ __ __ __ __ __ __ __ __ __ __ __
 72
    65
 73
     2
 40
1.905
 49
1.27
 74
     0
 49
-0.635
 74
     0
  0
LTYPE
  5
6B
330
5
100
AcDbSymbolTableRecord
100
AcDbLinetypeTableRecord
  2
PHANTOM
 70
     0
  3
Phantom ______  __  __  ______  __  __  ______
 72
    65
 73
     6
 40
12.7
 49
6.35
 74
     0
 49
-1.27
 74
     0
 49
1.27
 74
     0
 49
-1.27
 74
     0
 49
1.27
 74
     0
 49
-1.27
 74
     0
  0
LTYPE
  5
6C
330
5
100
AcDbSymbolTableRecord
100
AcDbLinetypeTableRecord
  2
CENTER
 70
     0
  3
Center ____ _ ____ _ ____ _ ____ _ ____ _ ____
 72
    65
 73
     4
 40
10.16
 49
6.35
 74
     0
 49
-1.27
 74
     0
 49
1.27
 74
     0
 49
-1.27
 74
     0
  0
LTYPE
  5
6D
330
5
100
AcDbSymbolTableRecord
100
AcDbLinetypeTableRecord
  2
CENTERX2
 70
     0
  3
Center (2x) ________  __  ________  __  _____
 72
    65
 73
     4
 40
20.32
 49
12.7
 74
     0
 49
-2.54
 74
     0
 49
2.54
 74
     0
 49
-2.54
 74
     0
  0
LTYPE
  5
6E
330
5
100
AcDbSymbolTableRecord
100
AcDbLinetypeTableRecord
  2
DOT2
 70
     0
  3
Dot (.5x) ........................................
 72
    65
 73
     2
 40
0.635
 49
0.0
 74
     0
 49
-0.635
 74
     0
  0
ENDTAB
  0
TABLE
  2
LAYER
  5
2
330
0
100
AcDbSymbolTable
 70
    17
  0
LAYER
  5
10
330
2
100
AcDbSymbolTableRecord
100
AcDbLayerTableRecord
  2
0
 70
     0
 62
     7
  6
Continuous
370
    -3
390
F
  0
LAYER
  5
6F
330
2
100
AcDbSymbolTableRecord
100
AcDbLayerTableRecord
  2
FORMAT
 70
     0
 62
     2
  6
Continuous
370
    -3
390
F
  0
LAYER
  5
70
330
2
100
AcDbSymbolTableRecord
100
AcDbLayerTableRecord
  2
외형선
 70
     0
 62
   100
  6
Continuous
370
    30
390
F
  0
LAYER
  5
71
330
2
100
AcDbSymbolTableRecord
100
AcDbLayerTableRecord
  2
숨은선
 70
     0
 62
     2
  6
HIDDEN
370
    15
390
F
  0
LAYER
  5
72
330
2
100
AcDbSymbolTableRecord
100
AcDbLayerTableRecord
  2
중심선
 70
     0
 62
     1
  6
CENTERX2
370
    -3
390
F
  0
LAYER
  5
73
330
2
100
AcDbSymbolTableRecord
100
AcDbLayerTableRecord
  2
파단선
 70
     0
 62
     4
  6
Continuous
370
    -3
390
F
  0
LAYER
  5
74
330
2
100
AcDbSymbolTableRecord
100
AcDbLayerTableRecord
  2
해칭선
 70
     0
 62
     4
  6
Continuous
370
    -3
390
F
  0
LAYER
  5
75
330
2
100
AcDbSymbolTableRecord
100
AcDbLayerTableRecord
  2
가는실선
 70
     0
 62
     4
  6
Continuous
370
    -3
390
F
  0
LAYER
  5
76
330
2
100
AcDbSymbolTableRecord
100
AcDbLayerTableRecord
  2
치수_보조선
 70
     0
 62
     4
  6
Continuous
370
    -3
390
F
  0
LAYER
  5
77
330
2
100
AcDbSymbolTableRecord
100
AcDbLayerTableRecord
  2
치수문자_일반주서
 70
     0
 62
     7
  6
Continuous
370
    15
390
F
  0
LAYER
  5
78
330
2
100
AcDbSymbolTableRecord
100
AcDbLayerTableRecord
  2
개별주서
 70
     0
 62
   100
  6
Continuous
370
    30
390
F
  0
LAYER
  5
79
330
2
100
AcDbSymbolTableRecord
100
AcDbLayerTableRecord
  2
중간선
 70
     0
 62
     2
  6
Continuous
370
    15
390
F
  0
LAYER
  5
7A
330
2
100
AcDbSymbolTableRecord
100
AcDbLayerTableRecord
  2
윤곽선
 70
     0
 62
     3
  6
Continuous
370
    40
390
F
  0
LAYER
  5
7B
330
2
100
AcDbSymbolTableRecord
100
AcDbLayerTableRecord
  2
중심마크
 70
     0
 62
   100
  6
Continuous
370
    30
390
F
  0
LAYER
  5
7C
330
2
100
AcDbSymbolTableRecord
100
AcDbLayerTableRecord
  2
가상선
 70
     0
 62
     4
  6
PHANTOM
370
    -3
390
F
  0
LAYER
  5
7D
330
2
100
AcDbSymbolTableRecord
100
AcDbLayerTableRecord
  2
특수지정선
 70
     0
 62
     5
  6
CENTERX2
370
    60
390
F
  0
LAYER
  5
157
330
2
100
AcDbSymbolTableRecord
100
AcDbLayerTableRecord
  2
Defpoints
 70
     0
 62
     7
  6
Continuous
290
     0
370
    -3
390
F
  0
ENDTAB
  0
TABLE
  2
STYLE
  5
3
330
0
100
AcDbSymbolTable
 70
     2
  0
STYLE
  5
11
330
3
100
AcDbSymbolTableRecord
100
AcDbTextStyleTableRecord
  2
Standard
 70
     0
 40
0.0
 41
1.0
 50
0.0
 71
     0
 42
3.5
  3
txt
  4

  0
STYLE
  5
93
330
3
100
AcDbSymbolTableRecord
100
AcDbTextStyleTableRecord
  2
SLDTEXTSTYLE0
 70
     0
 40
0.0
 41
0.75
 50
0.0
 71
     0
 42
3.5
  3
TXT
  4

  0
ENDTAB
  0
TABLE
  2
VIEW
  5
6
330
0
100
AcDbSymbolTable
 70
     0
  0
ENDTAB
  0
TABLE
  2
UCS
  5
7
330
0
100
AcDbSymbolTable
 70
     0
  0
ENDTAB
  0
TABLE
  2
APPID
  5
9
330
0
100
AcDbSymbolTable
 70
     4
  0
APPID
  5
12
330
9
100
AcDbSymbolTableRecord
100
AcDbRegAppTableRecord
  2
ACAD
 70
     0
  0
APPID
  5
171
330
9
100
AcDbSymbolTableRecord
100
AcDbRegAppTableRecord
  2
PE_DIMMEASUREMENT
 70
     0
  0
APPID
  5
176
330
9
100
AcDbSymbolTableRecord
100
AcDbRegAppTableRecord
  2
ACAD_DSTYLE_DIMFLIPARROW_SYMBOL
 70
     0
  0
APPID
  5
177
330
9
100
AcDbSymbolTableRecord
100
AcDbRegAppTableRecord
  2
ACAD_DSTYLE_DIMFLIPARROW_WHICH_SYMBOL
 70
     0
  0
ENDTAB
  0
TABLE
  2
DIMSTYLE
  5
A
330
0
100
AcDbSymbolTable
 70
     3
100
AcDbDimStyleTable
  0
DIMSTYLE
105
27
330
A
100
AcDbSymbolTableRecord
100
AcDbDimStyleTableRecord
  2
ISO-25
 70
     0
 41
2.5
 42
0.625
 43
3.75
 44
1.25
 73
     0
 74
     0
 77
     1
 78
     8
140
2.5
141
2.5
143
0.03937007874016
147
0.625
171
     3
172
     1
178
     0
271
     2
272
     2
274
     3
278
    44
283
     0
284
     8
340
11
  0
DIMSTYLE
105
DC
102
{ACAD_REACTORS
330
DB
330
117
330
15C
102
}
330
A
100
AcDbSymbolTableRecord
100
AcDbDimStyleTableRecord
  2
SLDDIMSTYLE0
 70
     0
 41
3.302
 44
0.0
 45
0.000000001
 73
     0
 74
     0
 77
     1
 78
    12
 79
     3
140
3.5
143
0.0393700787401575
147
0.875
148
0.000000001
170
     1
172
     1
173
     1
178
     0
271
     2
272
     2
276
     2
284
    12
289
     0
340
93
  0
DIMSTYLE
105
F1
102
{ACAD_REACTORS
330
F0
330
104
102
}
330
A
100
AcDbSymbolTableRecord
100
AcDbDimStyleTableRecord
  2
SLDDIMSTYLE1
 70
     0
 41
3.302
 44
0.0
 45
0.000000001
 73
     0
 74
     0
 77
     1
 78
    12
 79
     3
140
3.5
143
0.0393700787401575
147
0.875
148
0.000000001
170
     1
173
     1
178
     0
271
     2
272
     2
276
     2
284
    12
340
93
  0
ENDTAB
  0
TABLE
  2
BLOCK_RECORD
  5
1
330
0
100
AcDbSymbolTable
 70
     8
  0
BLOCK_RECORD
  5
1F
330
1
100
AcDbSymbolTableRecord
100
AcDbBlockTableRecord
  2
*Model_Space
340
22
  0
BLOCK_RECORD
  5
1B
330
1
100
AcDbSymbolTableRecord
100
AcDbBlockTableRecord
  2
*Paper_Space
340
1E
  0
BLOCK_RECORD
  5
23
330
1
100
AcDbSymbolTableRecord
100
AcDbBlockTableRecord
  2
*Paper_Space0
340
26
  0
BLOCK_RECORD
  5
7E
330
1
100
AcDbSymbolTableRecord
100
AcDbBlockTableRecord
  2
블럭10
340
0
102
{BLKREFS
331
D3
102
}
  0
BLOCK_RECORD
  5
DD
330
1
100
AcDbSymbolTableRecord
100
AcDbBlockTableRecord
  2
_D
340
0
  0
BLOCK_RECORD
  5
F2
330
1
100
AcDbSymbolTableRecord
100
AcDbBlockTableRecord
  2
_D_1
340
0
  0
BLOCK_RECORD
  5
105
330
1
100
AcDbSymbolTableRecord
100
AcDbBlockTableRecord
  2
_D_2
340
0
  0
BLOCK_RECORD
  5
118
330
1
100
AcDbSymbolTableRecord
100
AcDbBlockTableRecord
  2
_D_3
340
0
  0
BLOCK_RECORD
  5
12C
330
1
100
AcDbSymbolTableRecord
100
AcDbBlockTableRecord
  2
SW_DOWELSYMBOL_0
340
0
102
{BLKREFS
331
132
102
}
  0
BLOCK_RECORD
  5
15F
330
1
100
AcDbSymbolTableRecord
100
AcDbBlockTableRecord
  2
*D7
340
0
  0
ENDTAB
  0
ENDSEC
  0
SECTION
  2
BLOCKS
  0
BLOCK
  5
20
330
1F
100
AcDbEntity
  8
0
100
AcDbBlockBegin
  2
*Model_Space
 70
     0
 10
0.0
 20
0.0
 30
0.0
  3
*Model_Space
  1
*Model_Space
  0
ENDBLK
  5
21
330
1F
100
AcDbEntity
  8
0
100
AcDbBlockEnd
  0
BLOCK
  5
1C
330
1B
100
AcDbEntity
 67
     1
  8
0
100
AcDbBlockBegin
  2
*Paper_Space
 70
     0
 10
0.0
 20
0.0
 30
0.0
  3
*Paper_Space
  1
*Paper_Space
  0
ENDBLK
  5
1D
330
1B
100
AcDbEntity
 67
     1
  8
0
100
AcDbBlockEnd
  0
BLOCK
  5
24
330
23
100
AcDbEntity
  8
0
100
AcDbBlockBegin
  2
*Paper_Space0
 70
     0
 10
0.0
 20
0.0
 30
0.0
  3
*Paper_Space0
  1
*Paper_Space0
  0
ENDBLK
  5
25
330
23
100
AcDbEntity
  8
0
100
AcDbBlockEnd
  0
BLOCK
  5
7F
330
7E
100
AcDbEntity
  8
0
100
AcDbBlockBegin
  2
블럭10
 70
     2
 10
0.0
 20
0.0
 30
0.0
  3
블럭10
  1
블럭10
  0
ELLIPSE
  5
81
330
7E
100
AcDbEntity
  8
중심선
100
AcDbEllipse
 10
20.54032771741204
 20
12.0471743016438
 30
0.0
 11
6.600054785286829
 21
-1.261213355974178E-13
 31
0.0
210
0.0
220
0.0
230
1.0
 40
0.636358354079598
 41
0.9219305317359503
 42
6.513795318482858
  0
ELLIPSE
  5
82
330
7E
100
AcDbEntity
  8
중심선
100
AcDbEllipse
 10
20.54032771746488
 20
12.04717430159265
 30
0.0
 11
3.960054785062283
 21
1.540847449632565E-10
 31
0.0
210
0.0
220
0.0
230
1.0
 40
0.3939339440162632
 41
1.131841032648279
 42
5.62031148352944
  0
LINE
  5
83
330
7E
100
AcDbEntity
  8
중심선
100
AcDbLine
 10
2.268634060543552
 20
16.24717430164393
 30
0.0
 11
5.714909304380834
 21
16.24717430164393
 31
0.0
  0
LINE
  5
84
330
7E
100
AcDbEntity
  8
중심선
100
AcDbLine
 10
5.245725140726316
 20
7.84717430164391
 30
0.0
 11
8.692000384563599
 21
7.84717430164391
 31
0.0
  0
LINE
  5
85
330
7E
100
AcDbEntity
  8
중심선
100
AcDbLine
 10
15.74043728645272
 20
16.24717430164393
 30
0.0
 11
8.692000384563599
 21
7.84717430164391
 31
0.0
  0
LINE
  5
86
330
7E
100
AcDbEntity
  8
중심선
100
AcDbLine
 10
0.1404042013395286
 20
13.71084872107135
 30
0.0
 11
3.58671253028996
 21
13.71088815037384
 31
0.0
  0
LINE
  5
87
330
7E
100
AcDbEntity
  8
중심선
100
AcDbLine
 10
2.750260043222114
 20
10.84717430164391
 30
0.0
 11
6.196535287059397
 21
10.84717430164391
 31
0.0
  0
LINE
  5
88
330
7E
100
AcDbEntity
  8
중심선
100
AcDbLine
 10
12.29416204261559
 20
16.24717430164393
 30
0.0
 11
5.245725140726316
 21
7.84717430164391
 31
0.0
  0
LINE
  5
89
330
7E
100
AcDbEntity
  8
중심선
100
AcDbLine
 10
10.72767329541681
 20
16.24717430164393
 30
0.0
 11
6.196535287059397
 21
10.84717430164391
 31
0.0
  0
LINE
  5
8A
330
7E
100
AcDbEntity
  8
중심선
100
AcDbLine
 10
7.28139805157953
 20
16.24717430164393
 30
0.0
 11
2.750260043222114
 21
10.84717430164391
 31
0.0
  0
LINE
  5
8B
330
7E
100
AcDbEntity
  8
중심선
100
AcDbLine
 10
5.714909304380834
 20
16.24717430164393
 30
0.0
 11
3.58671253028996
 21
13.71088815037384
 31
0.0
  0
LINE
  5
8C
330
7E
100
AcDbEntity
  8
중심선
100
AcDbLine
 10
2.268634060543552
 20
16.24717430164393
 30
0.0
 11
0.1404042013395286
 21
13.71084872107135
 31
0.0
  0
LINE
  5
8D
330
7E
100
AcDbEntity
  8
중심선
100
AcDbLine
 10
7.28139805157953
 20
16.24717430164393
 30
0.0
 11
10.72767329541681
 21
16.24717430164393
 31
0.0
  0
LINE
  5
8E
330
7E
100
AcDbEntity
  8
중심선
100
AcDbLine
 10
12.29416204261559
 20
16.24717430164393
 30
0.0
 11
15.74043728645272
 21
16.24717430164393
 31
0.0
  0
LINE
  5
8F
330
7E
100
AcDbEntity
  8
중심선
100
AcDbLine
 10
19.22036997980202
 20
11.08717430171403
 30
0.0
 11
23.66174974927406
 21
11.08717430171406
 31
0.0
  0
LINE
  5
90
330
7E
100
AcDbEntity
  8
중심선
100
AcDbLine
 10
19.22039502424796
 20
13.00717430171391
 30
0.0
 11
19.22036997980202
 21
11.08717430171403
 31
0.0
  0
LINE
  5
91
330
7E
100
AcDbEntity
  8
중심선
100
AcDbLine
 10
19.22039502424796
 20
13.00717430171391
 30
0.0
 11
26.96566020931264
 21
13.00717430171391
 31
0.0
  0
LINE
  5
92
330
7E
100
AcDbEntity
  8
중심선
100
AcDbLine
 10
22.22332737316547
 20
13.45928029700563
 30
0.0
 11
24.52862924686651
 21
15.39360700705356
 31
0.0
  0
ATTDEF
  5
94
330
7E
100
AcDbEntity
  8
FORMAT
 62
     2
100
AcDbText
 10
-9.18129528874128
 20
2.075366912832191
 30
0.0
 40
4.233333333333333
  1
E5975040 [ 3 FLUTE ]
 41
0.75
  7
SLDTEXTSTYLE0
 11
-9.18129528874128
 21
-0.0412997538344756
 31
0.0
100
AcDbAttributeDefinition
  3

  2
AUTOATTR0
 70
     0
 74
     1
  0
ENDBLK
  5
80
330
7E
100
AcDbEntity
  8
0
100
AcDbBlockEnd
  0
BLOCK
  5
DE
330
DD
100
AcDbEntity
  8
0
100
AcDbBlockBegin
  2
_D
 70
     0
 10
0.0
 20
0.0
 30
0.0
  3
_D
  1
_D
  0
LINE
  5
E0
330
DD
100
AcDbEntity
  8
치수문자_일반주서
 62
     0
370
    -2
100
AcDbLine
 10
-60.25769999999999
 20
7.937499999999994
 30
0.0
 11
-72.69165802161208
 21
7.937499999999947
 31
0.0
  0
LINE
  5
E1
330
DD
100
AcDbEntity
  8
치수문자_일반주서
 62
     0
370
    -2
100
AcDbLine
 10
-60.25769999999999
 20
-7.93750000000001
 30
0.0
 11
-72.69165802161203
 21
-7.937500000000057
 31
0.0
  0
LINE
  5
E2
330
DD
100
AcDbEntity
  8
치수문자_일반주서
 62
     0
370
    -2
100
AcDbLine
 10
-72.69165802161207
 20
4.635499999999947
 30
0.0
 11
-72.69165802161204
 21
-4.635500000000057
 31
0.0
  0
SOLID
  5
E3
330
DD
100
AcDbEntity
  8
치수문자_일반주서
 62
     0
100
AcDbTrace
 10
-72.14132468827874
 20
4.635499999999949
 30
0.0
 11
-73.2419913549454
 21
4.635499999999945
 31
0.0
 12
-72.69165802161208
 22
7.937499999999947
 32
0.0
 13
-72.69165802161208
 23
7.937499999999947
 33
0.0
  0
SOLID
  5
E4
330
DD
100
AcDbEntity
  8
치수문자_일반주서
 62
     0
100
AcDbTrace
 10
-73.24199135494537
 20
-4.635500000000059
 30
0.0
 11
-72.14132468827871
 21
-4.635500000000055
 31
0.0
 12
-72.69165802161203
 22
-7.937500000000057
 32
0.0
 13
-72.69165802161203
 23
-7.937500000000057
 33
0.0
  0
MTEXT
  5
E5
330
DD
100
AcDbEntity
  8
치수문자_일반주서
 62
     0
100
AcDbMText
 10
-77.06665802161206
 20
-0.0000000000000243
 30
0.0
 40
3.5
 41
0.0
 71
     2
 72
     1
  1
\A1;%%c15.88 [5/8]
  7
SLDTEXTSTYLE0
 11
-3.580687802255622E-15
 21
1.0
 31
0.0
 73
     1
 44
1.0
  0
POINT
  5
E6
330
DD
100
AcDbEntity
  8
Defpoints
 62
     0
100
AcDbPoint
 10
-60.19519999999999
 20
7.937499999999994
 30
0.0
  0
POINT
  5
E7
330
DD
100
AcDbEntity
  8
Defpoints
 62
     0
100
AcDbPoint
 10
-60.19519999999999
 20
-7.93750000000001
 30
0.0
  0
POINT
  5
E8
330
DD
100
AcDbEntity
  8
Defpoints
 62
     0
100
AcDbPoint
 10
-72.69165802161203
 20
-7.937500000000057
 30
0.0
  0
ENDBLK
  5
DF
330
DD
100
AcDbEntity
  8
0
100
AcDbBlockEnd
  0
BLOCK
  5
F3
330
F2
100
AcDbEntity
  8
0
100
AcDbBlockBegin
  2
_D_1
 70
     0
 10
0.0
 20
0.0
 30
0.0
  3
_D_1
  1
_D_1
  0
LINE
  5
F5
330
F2
100
AcDbEntity
  8
치수문자_일반주서
 62
     0
370
    -2
100
AcDbLine
 10
-61.19519999999998
 20
6.999999999999993
 30
0.0
 11
-61.19519999999998
 21
47.93750000000005
 31
0.0
  0
LINE
  5
F6
330
F2
100
AcDbEntity
  8
치수문자_일반주서
 62
     0
370
    -2
100
AcDbLine
 10
40.4048
 20
0.0625000000000016
 30
0.0
 11
40.4048
 21
47.93750000000005
 31
0.0
  0
LINE
  5
F7
330
F2
100
AcDbEntity
  8
치수문자_일반주서
 62
     0
370
    -2
100
AcDbLine
 10
-57.89319999999998
 20
47.93750000000005
 30
0.0
 11
37.1028
 21
47.93750000000005
 31
0.0
  0
SOLID
  5
F8
330
F2
100
AcDbEntity
  8
치수문자_일반주서
 62
     0
100
AcDbTrace
 10
-57.89319999999998
 20
48.48783333333338
 30
0.0
 11
-57.89319999999998
 21
47.38716666666672
 31
0.0
 12
-61.19519999999998
 22
47.93750000000005
 32
0.0
 13
-61.19519999999998
 23
47.93750000000005
 33
0.0
  0
SOLID
  5
F9
330
F2
100
AcDbEntity
  8
치수문자_일반주서
 62
     0
100
AcDbTrace
 10
37.1028
 20
47.38716666666672
 30
0.0
 11
37.1028
 21
48.48783333333338
 31
0.0
 12
40.4048
 22
47.93750000000005
 32
0.0
 13
40.4048
 23
47.93750000000005
 33
0.0
  0
MTEXT
  5
FA
330
F2
100
AcDbEntity
  8
치수문자_일반주서
 62
     0
100
AcDbMText
 10
-6.517714346807331
 20
52.31250000000005
 30
0.0
 40
3.5
 41
0.0
 71
     2
 72
     1
  1
\A1;101.6 [4]
  7
SLDTEXTSTYLE0
 73
     1
 44
1.0
  0
POINT
  5
FB
330
F2
100
AcDbEntity
  8
Defpoints
 62
     0
100
AcDbPoint
 10
-61.19519999999998
 20
6.937499999999993
 30
0.0
  0
POINT
  5
FC
330
F2
100
AcDbEntity
  8
Defpoints
 62
     0
100
AcDbPoint
 10
40.4048
 20
0.0000000000000016
 30
0.0
  0
POINT
  5
FD
330
F2
100
AcDbEntity
  8
Defpoints
 62
     0
100
AcDbPoint
 10
40.4048
 20
47.93750000000005
 30
0.0
  0
ENDBLK
  5
F4
330
F2
100
AcDbEntity
  8
0
100
AcDbBlockEnd
  0
BLOCK
  5
106
330
105
100
AcDbEntity
  8
0
100
AcDbBlockBegin
  2
_D_2
 70
     0
 10
0.0
 20
0.0
 30
0.0
  3
_D_2
  1
_D_2
  0
LINE
  5
108
330
105
100
AcDbEntity
  8
치수문자_일반주서
 62
     0
370
    -2
100
AcDbLine
 10
2.304799999999997
 20
7.695200000000002
 30
0.0
 11
2.304799999999993
 21
38.8124602550265
 31
0.0
  0
LINE
  5
109
330
105
100
AcDbEntity
  8
치수문자_일반주서
 62
     0
370
    -2
100
AcDbLine
 10
40.4048
 20
0.0625000000000016
 30
0.0
 11
40.40479999999999
 21
38.8124602550265
 31
0.0
  0
LINE
  5
10A
330
105
100
AcDbEntity
  8
치수문자_일반주서
 62
     0
370
    -2
100
AcDbLine
 10
5.606799999999993
 20
38.8124602550265
 30
0.0
 11
37.10279999999999
 21
38.8124602550265
 31
0.0
  0
SOLID
  5
10B
330
105
100
AcDbEntity
  8
치수문자_일반주서
 62
     0
100
AcDbTrace
 10
5.606799999999993
 20
39.36279358835984
 30
0.0
 11
5.606799999999993
 21
38.26212692169317
 31
0.0
 12
2.304799999999993
 22
38.8124602550265
 32
0.0
 13
2.304799999999993
 23
38.8124602550265
 33
0.0
  0
SOLID
  5
10C
330
105
100
AcDbEntity
  8
치수문자_일반주서
 62
     0
100
AcDbTrace
 10
37.10279999999999
 20
38.26212692169317
 30
0.0
 11
37.10279999999999
 21
39.36279358835984
 31
0.0
 12
40.40479999999999
 22
38.8124602550265
 32
0.0
 13
40.40479999999999
 23
38.8124602550265
 33
0.0
  0
MTEXT
  5
10D
330
105
100
AcDbEntity
  8
치수문자_일반주서
 62
     0
100
AcDbMText
 10
23.38766327159427
 20
43.1874602550265
 30
0.0
 40
3.5
 41
0.0
 71
     2
 72
     1
  1
\A1;38.1 [1.50]
  7
SLDTEXTSTYLE0
 73
     1
 44
1.0
  0
POINT
  5
10E
330
105
100
AcDbEntity
  8
Defpoints
 62
     0
100
AcDbPoint
 10
2.304799999999997
 20
7.632700000000002
 30
0.0
  0
POINT
  5
10F
330
105
100
AcDbEntity
  8
Defpoints
 62
     0
100
AcDbPoint
 10
40.4048
 20
0.0000000000000016
 30
0.0
  0
POINT
  5
110
330
105
100
AcDbEntity
  8
Defpoints
 62
     0
100
AcDbPoint
 10
40.4048
 20
38.8124602550265
 30
0.0
  0
ENDBLK
  5
107
330
105
100
AcDbEntity
  8
0
100
AcDbBlockEnd
  0
BLOCK
  5
119
330
118
100
AcDbEntity
  8
0
100
AcDbBlockBegin
  2
_D_3
 70
     0
 10
0.0
 20
0.0
 30
0.0
  3
_D_3
  1
_D_3
  0
LINE
  5
11B
330
118
100
AcDbEntity
  8
치수문자_일반주서
 62
     0
370
    -2
100
AcDbLine
 10
15.0048
 20
7.995579102997329
 30
0.0
 11
15.0048
 21
25.69526785413745
 31
0.0
  0
LINE
  5
11C
330
118
100
AcDbEntity
  8
치수문자_일반주서
 62
     0
370
    -2
100
AcDbLine
 10
40.4048
 20
0.0625000000000016
 30
0.0
 11
40.40479999999999
 21
25.69526785413745
 31
0.0
  0
LINE
  5
11D
330
118
100
AcDbEntity
  8
치수문자_일반주서
 62
     0
370
    -2
100
AcDbLine
 10
15.0048
 20
25.69526785413745
 30
0.0
 11
40.40479999999999
 21
25.69526785413745
 31
0.0
  0
LINE
  5
11E
330
118
100
AcDbEntity
  8
치수문자_일반주서
 62
     0
370
    -2
100
AcDbLine
 10
11.7028
 20
25.69526785413745
 30
0.0
 11
8.400800000000004
 21
25.69526785413745
 31
0.0
  0
LINE
  5
11F
330
118
100
AcDbEntity
  8
치수문자_일반주서
 62
     0
370
    -2
100
AcDbLine
 10
43.70679999999999
 20
25.69526785413745
 30
0.0
 11
47.00879999999999
 21
25.69526785413745
 31
0.0
  0
SOLID
  5
120
330
118
100
AcDbEntity
  8
치수문자_일반주서
 62
     0
100
AcDbTrace
 10
11.7028
 20
25.14493452080411
 30
0.0
 11
11.7028
 21
26.24560118747078
 31
0.0
 12
15.0048
 22
25.69526785413745
 32
0.0
 13
15.0048
 23
25.69526785413745
 33
0.0
  0
SOLID
  5
121
330
118
100
AcDbEntity
  8
치수문자_일반주서
 62
     0
100
AcDbTrace
 10
43.70679999999999
 20
26.24560118747078
 30
0.0
 11
43.70679999999999
 21
25.14493452080411
 31
0.0
 12
40.40479999999999
 22
25.69526785413745
 32
0.0
 13
40.40479999999999
 23
25.69526785413745
 33
0.0
  0
MTEXT
  5
122
330
118
100
AcDbEntity
  8
치수문자_일반주서
 62
     0
100
AcDbMText
 10
24.22493087165102
 20
30.07026785413745
 30
0.0
 40
3.5
 41
0.0
 71
     2
 72
     1
  1
\A1;25.4 [1]
  7
SLDTEXTSTYLE0
 73
     1
 44
1.0
  0
POINT
  5
123
330
118
100
AcDbEntity
  8
Defpoints
 62
     0
100
AcDbPoint
 10
15.0048
 20
7.933079102997329
 30
0.0
  0
POINT
  5
158
330
118
100
AcDbEntity
  8
Defpoints
 62
     0
100
AcDbPoint
 10
40.4048
 20
0.0000000000000016
 30
0.0
  0
POINT
  5
159
330
118
100
AcDbEntity
  8
Defpoints
 62
     0
100
AcDbPoint
 10
40.4048
 20
25.69526785413745
 30
0.0
  0
ENDBLK
  5
11A
330
118
100
AcDbEntity
  8
0
100
AcDbBlockEnd
  0
BLOCK
  5
12D
330
12C
100
AcDbEntity
  8
0
100
AcDbBlockBegin
  2
SW_DOWELSYMBOL_0
 70
     0
 10
0.0
 20
0.0
 30
0.0
  3
SW_DOWELSYMBOL_0
  1
SW_DOWELSYMBOL_0
  0
CIRCLE
  5
12F
330
12C
100
AcDbEntity
  8
외형선
 62
     0
100
AcDbCircle
 10
0.0
 20
0.0
 30
0.0
 40
3.000000000000004
  0
HATCH
  5
130
330
12C
100
AcDbEntity
  8
0
  6
Continuous
 62
     0
370
    30
100
AcDbHatch
 10
0.0
 20
0.0
 30
0.0
210
0.0
220
0.0
230
1.0
  2
SOLID
 70
     1
 71
     0
 91
        1
 92
        0
 93
        3
 72
     2
 10
0.0
 20
0.0
 40
3.000000000000004
 50
0.0
 51
90.0
 73
     1
 72
     1
 10
0.0
 20
3.000000000000004
 11
0.0
 21
0.0
 72
     1
 10
0.0
 20
0.0
 11
3.000000000000006
 21
0.0
 97
        0
 75
     0
 76
     1
 98
        1
 10
0.0
 20
0.0
  0
HATCH
  5
131
330
12C
100
AcDbEntity
  8
0
  6
Continuous
 62
     0
370
    30
100
AcDbHatch
 10
0.0
 20
0.0
 30
0.0
210
0.0
220
0.0
230
1.0
  2
SOLID
 70
     1
 71
     0
 91
        1
 92
        0
 93
        3
 72
     2
 10
0.0
 20
0.0
 40
3.000000000000004
 50
180.0
 51
270.0000000000008
 73
     1
 72
     1
 10
0.0
 20
-3.000000000000004
 11
0.0
 21
0.0
 72
     1
 10
0.0
 20
0.0
 11
-3.000000000000006
 21
0.0
 97
        0
 75
     0
 76
     1
 98
        1
 10
0.0
 20
0.0
  0
ENDBLK
  5
12E
330
12C
100
AcDbEntity
  8
0
100
AcDbBlockEnd
  0
BLOCK
  5
160
330
15F
100
AcDbEntity
  8
0
100
AcDbBlockBegin
  2
*D7
 70
     1
 10
0.0
 20
0.0
 30
0.0
  3
*D7
  1
*D7
  0
LINE
  5
162
330
15F
100
AcDbEntity
  8
치수문자_일반주서
 62
     0
370
    -2
100
AcDbLine
 10
40.4673
 20
7.937500000000003
 30
0.0
 11
60.19927684825788
 21
7.937500000000004
 31
0.0
  0
LINE
  5
163
330
15F
100
AcDbEntity
  8
치수문자_일반주서
 62
     0
370
    -2
100
AcDbLine
 10
40.4673
 20
-7.937499999999999
 30
0.0
 11
60.19927684825788
 21
-7.9375
 31
0.0
  0
LINE
  5
164
330
15F
100
AcDbEntity
  8
치수문자_일반주서
 62
     0
370
    -2
100
AcDbLine
 10
60.19927684825788
 20
7.937500000000004
 30
0.0
 11
60.19927684825788
 21
42.5415
 31
0.0
  0
LINE
  5
165
330
15F
100
AcDbEntity
  8
치수문자_일반주서
 62
     0
370
    -2
100
AcDbLine
 10
60.19927684825788
 20
7.937500000000004
 30
0.0
 11
60.19927684825788
 21
-7.9375
 31
0.0
  0
LINE
  5
166
330
15F
100
AcDbEntity
  8
치수문자_일반주서
 62
     0
370
    -2
100
AcDbLine
 10
60.19927684825788
 20
11.2395
 30
0.0
 11
60.19927684825788
 21
14.5415
 31
0.0
  0
LINE
  5
167
330
15F
100
AcDbEntity
  8
치수문자_일반주서
 62
     0
370
    -2
100
AcDbLine
 10
60.19927684825788
 20
-11.2395
 30
0.0
 11
60.19927684825788
 21
-14.5415
 31
0.0
  0
SOLID
  5
168
330
15F
100
AcDbEntity
  8
치수문자_일반주서
 62
     0
100
AcDbTrace
 10
59.64894351492455
 20
11.2395
 30
0.0
 11
60.74961018159122
 21
11.2395
 31
0.0
 12
60.19927684825788
 22
7.937500000000004
 32
0.0
 13
60.19927684825788
 23
7.937500000000004
 33
0.0
  0
SOLID
  5
169
330
15F
100
AcDbEntity
  8
치수문자_일반주서
 62
     0
100
AcDbTrace
 10
60.74961018159122
 20
-11.2395
 30
0.0
 11
59.64894351492455
 21
-11.2395
 31
0.0
 12
60.19927684825788
 22
-7.9375
 32
0.0
 13
60.19927684825788
 23
-7.9375
 33
0.0
  0
MTEXT
  5
16A
330
15F
100
AcDbEntity
  8
치수문자_일반주서
 62
     0
100
AcDbMText
 10
57.57427684825788
 20
28.5415
 30
0.0
 40
3.5
 41
0.0
 71
     5
 72
     1
  1
\A1;{%%c15.88 [5/8]}
  7
SLDTEXTSTYLE0
 11
0.0
 21
1.0
 31
0.0
 73
     1
 44
1.0
  0
POINT
  5
16B
330
15F
100
AcDbEntity
  8
Defpoints
 62
     0
100
AcDbPoint
 10
40.4048
 20
7.937500000000003
 30
0.0
  0
POINT
  5
16C
330
15F
100
AcDbEntity
  8
Defpoints
 62
     0
100
AcDbPoint
 10
40.4048
 20
-7.937499999999999
 30
0.0
  0
POINT
  5
16D
330
15F
100
AcDbEntity
  8
Defpoints
 62
     0
100
AcDbPoint
 10
60.19927684825788
 20
-7.9375
 30
0.0
  0
ENDBLK
  5
161
330
15F
100
AcDbEntity
  8
0
100
AcDbBlockEnd
  0
ENDSEC
  0
SECTION
  2
ENTITIES
  0
LINE
  5
95
330
1F
100
AcDbEntity
  8
0
  6
Continuous
 62
     4
370
    15
100
AcDbLine
 10
1.999999999999998
 20
7.937500000000001
 30
0.0
 11
-60.19519999999998
 21
7.937499999999994
 31
0.0
  0
LINE
  5
96
330
1F
100
AcDbEntity
  8
0
  6
Continuous
 62
     4
370
    15
100
AcDbLine
 10
-60.19519999999998
 20
-7.937500000000006
 30
0.0
 11
2.000000000000002
 21
-7.937499999999999
 31
0.0
  0
LINE
  5
97
330
1F
100
AcDbEntity
  8
0
  6
Continuous
 62
     4
370
    15
100
AcDbLine
 10
-60.19519999999998
 20
7.937499999999994
 30
0.0
 11
-61.19519999999998
 21
6.937499999999991
 31
0.0
  0
LINE
  5
98
330
1F
100
AcDbEntity
  8
0
  6
Continuous
 62
     4
370
    15
100
AcDbLine
 10
-61.19519999999998
 20
-6.93750000000001
 30
0.0
 11
-60.19519999999998
 21
-7.93750000000001
 31
0.0
  0
LINE
  5
99
330
1F
100
AcDbEntity
  8
0
  6
Continuous
 62
     4
370
    15
100
AcDbLine
 10
2.000000000000002
 20
-7.937499999999999
 30
0.0
 11
2.3048
 21
-7.632700000000002
 31
0.0
  0
LINE
  5
9A
330
1F
100
AcDbEntity
  8
0
  6
Continuous
 62
     4
370
    15
100
AcDbLine
 10
2.304799999999997
 20
7.632700000000002
 30
0.0
 11
1.999999999999998
 21
7.937500000000001
 31
0.0
  0
LINE
  5
9B
330
1F
100
AcDbEntity
  8
0
  6
Continuous
 62
     4
370
    15
100
AcDbLine
 10
11.95445289245261
 20
7.632700000000002
 30
0.0
 11
2.304799999999997
 21
7.632700000000001
 31
0.0
  0
LINE
  5
9C
330
1F
100
AcDbEntity
  8
0
  6
Continuous
 62
     4
370
    15
100
AcDbLine
 10
15.0048
 20
7.632700000000002
 30
0.0
 11
14.61115258704518
 21
7.632700000000002
 31
0.0
  0
LINE
  5
9D
330
1F
100
AcDbEntity
  8
0
  6
Continuous
 62
     4
370
    15
100
AcDbLine
 10
2.3048
 20
-7.632700000000001
 30
0.0
 11
11.95445289245261
 21
-7.632699999999999
 31
0.0
  0
ARC
  5
9E
330
1F
100
AcDbEntity
  8
0
  6
Continuous
 62
     1
370
    15
100
AcDbCircle
 10
32.46729999999999
 20
0.0000000000000016
 30
0.0
 40
7.937500000000007
100
AcDbArc
 50
353.5800701243586
 51
0.0
  0
ARC
  5
9F
330
1F
100
AcDbEntity
  8
0
  6
Continuous
 62
     1
370
    15
100
AcDbCircle
 10
32.46729999999999
 20
0.0000000000000016
 30
0.0
 40
7.937500000000007
100
AcDbArc
 50
0.0
 51
60.08105781591513
  0
LINE
  5
A0
330
1F
100
AcDbEntity
  8
0
  6
Continuous
 62
     1
370
    15
100
AcDbLine
 10
18.35696981056222
 20
7.937500000000001
 30
0.0
 11
15.0048
 21
7.937500000000001
 31
0.0
  0
LINE
  5
A1
330
1F
100
AcDbEntity
  8
0
  6
Continuous
 62
     1
370
    15
100
AcDbLine
 10
25.68433519177273
 20
-7.937499999999999
 30
0.0
 11
29.38785582053809
 21
-7.937499999999999
 31
0.0
  0
LINE
  5
A2
330
1F
100
AcDbEntity
  8
0
  6
Continuous
 62
     4
370
    15
100
AcDbLine
 10
1.999999999999998
 20
7.937500000000001
 30
0.0
 11
2.000000000000002
 21
-7.937499999999999
 31
0.0
  0
LINE
  5
A3
330
1F
100
AcDbEntity
  8
0
  6
Continuous
 62
     4
370
    15
100
AcDbLine
 10
-60.19519999999998
 20
7.937499999999994
 30
0.0
 11
-60.19519999999998
 21
-7.93750000000001
 31
0.0
  0
LINE
  5
A4
330
1F
100
AcDbEntity
  8
0
  6
Continuous
 62
     4
370
    15
100
AcDbLine
 10
-61.19519999999998
 20
6.937499999999993
 30
0.0
 11
-61.19519999999998
 21
-6.937500000000017
 31
0.0
  0
LINE
  5
A5
330
1F
100
AcDbEntity
  8
0
  6
Continuous
 62
     4
370
    15
100
AcDbLine
 10
2.304799999999997
 20
7.632700000000002
 30
0.0
 11
2.3048
 21
-7.632700000000002
 31
0.0
  0
SPLINE
  5
A6
330
1F
100
AcDbEntity
  8
0
  6
Continuous
 62
     4
370
    15
100
AcDbSpline
210
0.0
220
0.0
230
1.0
 70
     8
 71
     3
 72
    12
 73
     8
 74
     0
 42
0.000000001
 43
0.00000001
 40
0.0
 40
0.0
 40
0.0
 40
0.0
 40
0.2500000000000001
 40
0.2500000000000001
 40
0.5
 40
0.5
 40
1.0
 40
1.0
 40
1.0
 40
1.0
 10
15.00480000000024
 20
-1.526701941689127
 30
0.0
 10
14.7499756892692
 20
-1.346113028466274
 30
0.0
 10
14.49519129135664
 20
-1.164196851590561
 30
0.0
 10
13.98769941423385
 20
-0.7991473502066688
 30
0.0
 10
13.73537222143455
 20
-0.6161080240845096
 30
0.0
 10
12.97309025878633
 20
-0.0645823937426747
 30
0.0
 10
12.46148151212508
 20
0.3054355143521614
 30
0.0
 10
11.95445289245262
 20
0.6720012930741699
 30
0.0
  0
SPLINE
  5
A7
330
1F
100
AcDbEntity
  8
0
  6
Continuous
 62
     4
370
    15
100
AcDbSpline
210
0.0
220
0.0
230
1.0
 70
     8
 71
     3
 72
    12
 73
     8
 74
     0
 42
0.000000001
 43
0.00000001
 40
0.0
 40
0.0
 40
0.0
 40
0.0
 40
0.2499999999999997
 40
0.2499999999999997
 40
0.4999999999999993
 40
0.4999999999999993
 40
1.0
 40
1.0
 40
1.0
 40
1.0
 10
15.00480000000028
 20
3.383856376373565
 30
0.0
 10
14.74997568926923
 20
3.487839891055124
 30
0.0
 10
14.49519129135668
 20
3.588854068533942
 30
0.0
 10
13.98769941423389
 20
3.784176916210289
 30
0.0
 10
13.73537222143457
 20
3.878448745106718
 30
0.0
 10
12.97309025878635
 20
4.151525365282717
 30
0.0
 10
12.46148151212508
 20
4.320046736385314
 30
0.0
 10
11.95445289245261
 20
4.47243617517909
 30
0.0
  0
SPLINE
  5
A8
330
1F
100
AcDbEntity
  8
0
  6
Continuous
 62
     1
370
    15
100
AcDbSpline
210
0.0
220
0.0
230
1.0
 70
    24
 71
     3
 72
    14
 73
    10
 74
     0
 42
0.000000001
 43
0.00000001
 40
0.0
 40
0.0
 40
0.0
 40
0.0
 40
0.25
 40
0.25
 40
0.5
 40
0.5
 40
0.75
 40
0.75
 40
1.0
 40
1.0
 40
1.0
 40
1.0
 10
15.00480000000001
 20
3.383856376373676
 30
0.0
 10
15.00480000000001
 20
2.976876472490014
 30
0.0
 10
15.00480000000001
 20
2.52918731927655
 30
0.0
 10
15.00480000000001
 20
1.590803413186255
 30
0.0
 10
15.00480000000001
 20
1.100164447589181
 30
0.0
 10
15.00480000000001
 20
0.1597240200008543
 30
0.0
 10
15.00480000000001
 20
-0.2883944559070655
 30
0.0
 10
15.00480000000001
 20
-1.03681391620797
 30
0.0
 10
15.0048
 20
-1.334933676332139
 30
0.0
 10
15.00480000000001
 20
-1.526701941688965
 30
0.0
  0
SPLINE
  5
A9
330
1F
100
AcDbEntity
  8
0
  6
Continuous
 62
     4
370
    15
100
AcDbSpline
210
0.0
220
0.0
230
1.0
 70
     8
 71
     3
 72
    12
 73
     8
 74
     0
 42
0.000000001
 43
0.00000001
 40
0.0
 40
0.0
 40
0.0
 40
0.0
 40
0.4999999999999994
 40
0.4999999999999994
 40
0.7499999999999998
 40
0.7499999999999998
 40
1.0
 40
1.0
 40
1.0
 40
1.0
 10
11.95467289541615
 20
7.391292062854539
 30
0.0
 10
12.46166616912509
 20
7.483104371100663
 30
0.0
 10
12.97323775704318
 20
7.549288364911983
 30
0.0
 10
13.73546385152146
 20
7.608480314858446
 30
0.0
 10
13.98777266549883
 20
7.621556718726518
 30
0.0
 10
14.49522814196738
 20
7.634460242813661
 30
0.0
 10
14.74999411756156
 20
7.63425978546131
 30
0.0
 10
15.00480000000001
 20
7.627379681389709
 30
0.0
  0
SPLINE
  5
AA
330
1F
100
AcDbEntity
  8
0
  6
Continuous
 62
     4
370
    15
100
AcDbSpline
210
0.0
220
0.0
230
1.0
 70
     8
 71
     3
 72
    12
 73
     8
 74
     0
 42
0.000000001
 43
0.00000001
 40
0.0
 40
0.0
 40
0.0
 40
0.0
 40
0.4999999999999993
 40
0.4999999999999993
 40
0.7499999999999997
 40
0.7499999999999997
 40
1.0
 40
1.0
 40
1.0
 40
1.0
 10
11.95467289541615
 20
-2.046348241855073
 30
0.0
 10
12.4616661691251
 20
-2.400845538297518
 30
0.0
 10
12.97323775704318
 20
-2.749231663026405
 30
0.0
 10
13.73546385152146
 20
-3.254441388518106
 30
0.0
 10
13.98777266549882
 20
-3.419766951839743
 30
0.0
 10
14.49522814196738
 20
-3.744789566047783
 30
0.0
 10
14.74999411756155
 20
-3.904394184621116
 30
0.0
 10
15.0048
 20
-4.060451597137811
 30
0.0
  0
LINE
  5
AB
330
1F
100
AcDbEntity
  8
0
  6
Continuous
 62
     4
370
    15
100
AcDbLine
 10
11.95445289245261
 20
-7.632699999999999
 30
0.0
 11
11.95445289245261
 21
-2.045937906225173
 31
0.0
  0
SPLINE
  5
AC
330
1F
100
AcDbEntity
  8
0
  6
Continuous
 62
     4
370
    15
100
AcDbSpline
210
0.0
220
0.0
230
1.0
 70
     8
 71
     3
 72
    12
 73
     8
 74
     0
 42
0.000000001
 43
0.00000001
 40
0.0
 40
0.0
 40
0.0
 40
0.0
 40
0.25
 40
0.25
 40
0.5
 40
0.5
 40
1.0
 40
1.0
 40
1.0
 40
1.0
 10
15.00480000000024
 20
-5.713181114572111
 30
0.0
 10
14.7499756892692
 20
-5.835403010223676
 30
0.0
 10
14.49519129135664
 20
-5.952614495674373
 30
0.0
 10
13.98769941423385
 20
-6.176140075696323
 30
0.0
 10
13.73537222143455
 20
-6.282417904588532
 30
0.0
 10
12.97309025878633
 20
-6.58527433441999
 30
0.0
 10
12.46148151212508
 20
-6.76521947427689
 30
0.0
 10
11.95445289245262
 20
-6.92044387767514
 30
0.0
  0
LINE
  5
AD
330
1F
100
AcDbEntity
  8
0
  6
Continuous
 62
     1
370
    15
100
AcDbLine
 10
15.00480000000001
 20
-1.526701941688964
 30
0.0
 11
15.0048
 21
-1.618472866771022
 31
0.0
  0
LINE
  5
AE
330
1F
100
AcDbEntity
  8
0
  6
Continuous
 62
     1
370
    15
100
AcDbLine
 10
15.0048
 20
7.632700000000002
 30
0.0
 11
15.0048
 21
7.627379681389689
 31
0.0
  0
LINE
  5
AF
330
1F
100
AcDbEntity
  8
0
  6
Continuous
 62
     4
370
    15
100
AcDbLine
 10
11.95445289245261
 20
0.6715799561599465
 30
0.0
 11
11.95445289245261
 21
7.632700000000002
 31
0.0
  0
SPLINE
  5
B0
330
1F
100
AcDbEntity
  8
0
  6
Continuous
 62
     4
370
    15
100
AcDbSpline
210
0.0
220
0.0
230
1.0
 70
     8
 71
     3
 72
    12
 73
     8
 74
     0
 42
0.000000001
 43
0.00000001
 40
0.0
 40
0.0
 40
0.0
 40
0.0
 40
0.2499999999999996
 40
0.2499999999999996
 40
0.4999999999999992
 40
0.4999999999999992
 40
1.0
 40
1.0
 40
1.0
 40
1.0
 10
15.00480000000028
 20
-5.42113036993114
 30
0.0
 10
14.74997568926923
 20
-5.402356599812303
 30
0.0
 10
14.49519129135668
 20
-5.378835900957303
 30
0.0
 10
13.98769941423389
 20
-5.322525145707563
 30
0.0
 10
13.73537222143457
 20
-5.289766196632221
 30
0.0
 10
12.97309025878634
 20
-5.17750545697281
 30
0.0
 10
12.46148151212508
 20
-5.084061316335267
 30
0.0
 10
11.95445289245261
 20
-4.973515639643762
 30
0.0
  0
SPLINE
  5
B1
330
1F
100
AcDbEntity
  8
0
  6
Continuous
 62
     1
370
    15
100
AcDbSpline
210
0.0
220
0.0
230
1.0
 70
    24
 71
     3
 72
     9
 73
     5
 74
     0
 42
0.000000001
 43
0.00000001
 40
0.0
 40
0.0
 40
0.0
 40
0.0
 40
0.4484953076320077
 40
1.0
 40
1.0
 40
1.0
 40
1.0
 10
15.00480000000001
 20
-4.267016589024842
 30
0.0
 10
15.00480000000001
 20
-4.409768344015893
 30
0.0
 10
15.00480000000002
 20
-4.728058753217183
 30
0.0
 10
15.00480000000001
 20
-5.174768080055336
 30
0.0
 10
15.0048
 20
-5.421130369931123
 30
0.0
  0
SPLINE
  5
B2
330
1F
100
AcDbEntity
  8
0
  6
Continuous
 62
     1
370
    15
100
AcDbSpline
210
0.0
220
0.0
230
1.0
 70
    24
 71
     3
 72
    14
 73
    10
 74
     0
 42
0.000000001
 43
0.00000001
 40
0.0
 40
0.0
 40
0.0
 40
0.0
 40
0.25
 40
0.25
 40
0.5
 40
0.5
 40
0.75
 40
0.75
 40
1.0
 40
1.0
 40
1.0
 40
1.0
 10
15.0048
 20
7.627379681396726
 30
0.0
 10
15.0048
 20
7.049186839988815
 30
0.0
 10
15.0048
 20
6.473699853500281
 30
0.0
 10
15.0048
 20
5.439668900891833
 30
0.0
 10
15.0048
 20
4.982704945721852
 30
0.0
 10
15.0048
 20
4.245159602129484
 30
0.0
 10
15.0048
 20
3.963911756296922
 30
0.0
 10
15.0048
 20
3.5647643336213
 30
0.0
 10
15.0048
 20
3.445500873421345
 30
0.0
 10
15.0048
 20
3.38385637637368
 30
0.0
  0
LINE
  5
B3
330
1F
100
AcDbEntity
  8
0
  6
Continuous
 62
     1
370
    15
100
AcDbLine
 10
15.00480000000001
 20
-5.492203321460415
 30
0.0
 11
15.0048
 21
-5.713181114572218
 31
0.0
  0
SPLINE
  5
B4
330
1F
100
AcDbEntity
  8
0
  6
Continuous
 62
     1
370
    15
100
AcDbSpline
210
0.0
220
0.0
230
1.0
 70
     8
 71
     3
 72
    38
 73
    34
 74
     0
 42
0.000000001
 43
0.00000001
 40
0.0
 40
0.0
 40
0.0
 40
0.0
 40
0.1249999999999996
 40
0.1249999999999996
 40
0.1874999999999998
 40
0.1874999999999998
 40
0.2500000000000001
 40
0.2500000000000001
 40
0.3750000000000005
 40
0.3750000000000005
 40
0.4375000000000007
 40
0.4375000000000007
 40
0.5000000000000009
 40
0.5000000000000009
 40
0.562500000000001
 40
0.562500000000001
 40
0.6250000000000012
 40
0.6250000000000012
 40
0.6562500000000013
 40
0.6562500000000013
 40
0.6875000000000014
 40
0.6875000000000014
 40
0.7187500000000016
 40
0.7187500000000016
 40
0.7500000000000017
 40
0.7500000000000017
 40
0.8125000000000013
 40
0.8125000000000013
 40
0.8750000000000009
 40
0.8750000000000009
 40
0.9375000000000006
 40
0.9375000000000006
 40
1.0
 40
1.0
 40
1.0
 40
1.0
 10
32.46729999999999
 20
1.818869058283324
 30
0.0
 10
32.8276486231409
 20
1.554979743069503
 30
0.0
 10
33.18393644892609
 20
1.287007067305108
 30
0.0
 10
33.71843674859075
 20
0.8872518374876042
 30
0.0
 10
33.89655310390293
 20
0.7542848399661158
 30
0.0
 10
34.25497437390224
 20
0.4920565955411016
 30
0.0
 10
34.43604162768482
 20
0.3620608163381052
 30
0.0
 10
34.97796623980282
 20
-0.014590453817003
 30
0.0
 10
35.33537996562276
 20
-0.2472851197656142
 30
0.0
 10
35.87654249590148
 20
-0.5493412498391845
 30
0.0
 10
36.05898192684166
 20
-0.6427536204906859
 30
0.0
 10
36.42134931615344
 20
-0.8028438291869328
 30
0.0
 10
36.60133541590654
 20
-0.8699388141587756
 30
0.0
 10
36.96143047717489
 20
-0.970276296080925
 30
0.0
 10
37.14283941229912
 20
-1.003466160444263
 30
0.0
 10
37.49502378310594
 20
-1.020691905743182
 30
0.0
 10
37.66948140437471
 20
-1.005000994172149
 30
0.0
 10
37.91756080653983
 20
-0.9317775359088483
 30
0.0
 10
37.99741981053733
 20
-0.899332293046641
 30
0.0
 10
38.15111686993816
 20
-0.815915092910185
 30
0.0
 10
38.22559978218284
 20
-0.7642215125053278
 30
0.0
 10
38.36183697613177
 20
-0.6439282166721778
 30
0.0
 10
38.42423999289266
 20
-0.5752231453288533
 30
0.0
 10
38.53726754045036
 20
-0.4199341393441373
 30
0.0
 10
38.58820654975558
 20
-0.3322689345736739
 30
0.0
 10
38.71610839606998
 20
-0.0540134619691316
 30
0.0
 10
38.77111854300376
 20
0.1580594492234995
 30
0.0
 10
38.82378733232719
 20
0.5924033436640593
 30
0.0
 10
38.82272498282236
 20
0.8188198687082842
 30
0.0
 10
38.77911703209372
 20
1.265339701346254
 30
0.0
 10
38.73720264332793
 20
1.485303190247391
 30
0.0
 10
38.62283678031047
 20
1.919865529104665
 30
0.0
 10
38.54995081725903
 20
2.134879857940411
 30
0.0
 10
38.46580773478463
 20
2.344001458526358
 30
0.0
  0
SPLINE
  5
B5
330
1F
100
AcDbEntity
  8
0
  6
Continuous
 62
     1
370
    15
100
AcDbSpline
210
0.0
220
0.0
230
1.0
 70
     8
 71
     3
 72
    15
 73
    11
 74
     0
 42
0.000000001
 43
0.00000001
 40
0.0
 40
0.0
 40
0.0
 40
0.0
 40
0.1385762123508776
 40
0.2771540119613944
 40
0.4157448300005794
 40
0.5543600637785336
 40
0.6930110472059532
 40
0.8292147888175775
 40
0.9653698940831149
 40
1.0
 40
1.0
 40
1.0
 40
1.0
 10
32.46729999999999
 20
1.818869058283207
 30
0.0
 10
31.81556970325792
 20
2.290975449146267
 30
0.0
 10
30.51210164481873
 20
3.23519363840523
 30
0.0
 10
28.55683957203394
 20
4.523517202407003
 30
0.0
 10
26.60133125573955
 20
5.661293057123336
 30
0.0
 10
24.6453735000057
 20
6.601780742811259
 30
0.0
 10
22.70046974023799
 20
7.317121487476212
 30
0.0
 10
20.76698198189197
 20
7.760445500906591
 30
0.0
 10
19.32305865231307
 20
7.956899854499638
 30
0.0
 10
18.51983867247274
 20
7.919982398201478
 30
0.0
 10
18.35696981056223
 20
7.912496648042341
 30
0.0
  0
SPLINE
  5
B6
330
1F
100
AcDbEntity
  8
0
  6
Continuous
 62
     1
370
    15
100
AcDbSpline
210
0.0
220
0.0
230
1.0
 70
     8
 71
     3
 72
    11
 73
     7
 74
     0
 42
0.000000001
 43
0.00000001
 40
0.0
 40
0.0
 40
0.0
 40
0.0
 40
0.2397066119720798
 40
0.5230426731487826
 40
0.8063954924383666
 40
1.0
 40
1.0
 40
1.0
 40
1.0
 10
35.29913965734233
 20
4.055505406859147
 30
0.0
 10
34.63065033161981
 20
4.275168635964861
 30
0.0
 10
33.17199868650768
 20
4.754476409741782
 30
0.0
 10
30.92260178318258
 20
5.231303407744685
 30
0.0
 10
28.8019248510684
 20
5.491654556674931
 30
0.0
 10
27.47152248469377
 20
5.45320411121426
 30
0.0
 10
26.93149116427934
 20
5.437596468475897
 30
0.0
  0
SPLINE
  5
B7
330
1F
100
AcDbEntity
  8
0
  6
Continuous
 62
     1
370
    15
100
AcDbSpline
210
0.0
220
0.0
230
1.0
 70
     8
 71
     3
 72
    10
 73
     6
 74
     0
 42
0.000000001
 43
0.00000001
 40
0.0
 40
0.0
 40
0.0
 40
0.0
 40
0.4999999999999999
 40
0.4999999999999999
 40
1.0
 40
1.0
 40
1.0
 40
1.0
 10
33.94208105200185
 20
3.655234895744861
 30
0.0
 10
34.16234068645559
 20
3.7514119494505
 30
0.0
 10
34.3893160523421
 20
3.828177358831769
 30
0.0
 10
34.84588671467299
 20
3.95857374528271
 30
0.0
 10
35.07292503317278
 20
4.011193741064145
 30
0.0
 10
35.29913965712682
 20
4.055505406934369
 30
0.0
  0
SPLINE
  5
B8
330
1F
100
AcDbEntity
  8
0
  6
Continuous
 62
     1
370
    15
100
AcDbSpline
210
0.0
220
0.0
230
1.0
 70
     8
 71
     3
 72
     8
 73
     4
 74
     0
 42
0.000000001
 43
0.00000001
 40
0.0
 40
0.0
 40
0.0
 40
0.0
 40
1.0
 40
1.0
 40
1.0
 40
1.0
 10
33.94208105200185
 20
3.65523489574486
 30
0.0
 10
35.43808612218915
 20
3.247750937639176
 30
0.0
 10
36.94957783579243
 20
2.802102312898022
 30
0.0
 10
38.46580773478758
 20
2.344001458537998
 30
0.0
  0
SPLINE
  5
B9
330
1F
100
AcDbEntity
  8
0
  6
Continuous
 62
     1
370
    15
100
AcDbSpline
210
0.0
220
0.0
230
1.0
 70
     8
 71
     3
 72
     8
 73
     4
 74
     0
 42
0.000000001
 43
0.00000001
 40
0.0
 40
0.0
 40
0.0
 40
0.0
 40
1.0
 40
1.0
 40
1.0
 40
1.0
 10
35.29913965712683
 20
-5.215144868704234
 30
0.0
 10
35.04047914254655
 20
-5.029207065107344
 30
0.0
 10
34.77669754978193
 20
-4.843924178557331
 30
0.0
 10
34.50634393249565
 20
-4.65948176558276
 30
0.0
  0
SPLINE
  5
BA
330
1F
100
AcDbEntity
  8
0
  6
Continuous
 62
     1
370
    15
100
AcDbSpline
210
0.0
220
0.0
230
1.0
 70
     8
 71
     3
 72
    38
 73
    34
 74
     0
 42
0.000000001
 43
0.00000001
 40
0.0
 40
0.0
 40
0.0
 40
0.0
 40
0.0625
 40
0.0625
 40
0.125
 40
0.125
 40
0.1875
 40
0.1875
 40
0.25
 40
0.25
 40
0.3125
 40
0.3125
 40
0.375
 40
0.375
 40
0.4375
 40
0.4375
 40
0.5
 40
0.5
 40
0.5625
 40
0.5625
 40
0.625
 40
0.625
 40
0.6875
 40
0.6875
 40
0.75
 40
0.75
 40
0.8125
 40
0.8125
 40
0.875
 40
0.875
 40
0.9375
 40
0.9375
 40
1.0
 40
1.0
 40
1.0
 40
1.0
 10
35.29913965734183
 20
-5.215144868738318
 30
0.0
 10
34.87568072645942
 20
-5.148003038265021
 30
0.0
 10
34.45073780474564
 20
-5.068122326222261
 30
0.0
 10
33.60709331865589
 20
-4.88471021291286
 30
0.0
 10
33.18564437972962
 20
-4.781027024751014
 30
0.0
 10
32.33780326597093
 20
-4.550627343421668
 30
0.0
 10
31.91458893577102
 20
-4.424175455877267
 30
0.0
 10
31.07261562893944
 20
-4.151048490828234
 30
0.0
 10
30.64794730209824
 20
-4.003718956534644
 30
0.0
 10
29.80043696750061
 20
-3.690591695036355
 30
0.0
 10
29.38026488934559
 20
-3.525177426745763
 30
0.0
 10
28.53508090658082
 20
-3.177526947049532
 30
0.0
 10
28.10999828397971
 20
-2.995236504940855
 30
0.0
 10
27.26407112991089
 20
-2.617665846964804
 30
0.0
 10
26.84430737792556
 20
-2.422588909199961
 30
0.0
 10
25.99715368032372
 20
-2.02050450947321
 30
0.0
 10
25.57228949125864
 20
-1.813866783842931
 30
0.0
 10
24.72919012932424
 20
-1.393923967803013
 30
0.0
 10
24.30719877279909
 20
-1.180008555256953
 30
0.0
 10
23.45932600540604
 20
-0.7468440961033527
 30
0.0
 10
23.03678652594722
 20
-0.5281674037806536
 30
0.0
 10
22.19420603573194
 20
-0.0897568456545286
 30
0.0
 10
21.76942710359489
 20
0.1307992803134136
 30
0.0
 10
20.92208945356738
 20
0.5698324242343802
 30
0.0
 10
20.50216373693079
 20
0.7878560949721928
 30
0.0
 10
19.65657385606366
 20
1.220037643694121
 30
0.0
 10
19.23148366635687
 20
1.434082468345188
 30
0.0
 10
18.38593268453427
 20
1.853438035439277
 30
0.0
 10
17.9659855953048
 20
2.058686226293914
 30
0.0
 10
17.1186292781961
 20
2.459451429919289
 30
0.0
 10
16.69386059787467
 20
2.654516855184808
 30
0.0
 10
15.8513390475883
 20
3.029856006385053
 30
0.0
 10
15.42873555529008
 20
3.210865389324307
 30
0.0
 10
15.00480000000028
 20
3.383856376373565
 30
0.0
  0
SPLINE
  5
BB
330
1F
100
AcDbEntity
  8
0
  6
Continuous
 62
     1
370
    15
100
AcDbSpline
210
0.0
220
0.0
230
1.0
 70
     8
 71
     3
 72
    32
 73
    28
 74
     0
 42
0.000000001
 43
0.00000001
 40
0.0
 40
0.0
 40
0.0
 40
0.0
 40
0.1250000000000003
 40
0.1250000000000003
 40
0.2500000000000006
 40
0.2500000000000006
 40
0.3750000000000009
 40
0.3750000000000009
 40
0.4375000000000008
 40
0.4375000000000008
 40
0.5000000000000007
 40
0.5000000000000007
 40
0.5625000000000006
 40
0.5625000000000006
 40
0.6250000000000004
 40
0.6250000000000004
 40
0.6875000000000004
 40
0.6875000000000004
 40
0.7500000000000003
 40
0.7500000000000003
 40
0.8125000000000002
 40
0.8125000000000002
 40
0.8750000000000002
 40
0.8750000000000002
 40
0.9375000000000001
 40
0.9375000000000001
 40
1.0
 40
1.0
 40
1.0
 40
1.0
 10
15.0048
 20
7.933079102997354
 30
0.0
 10
15.73441864616092
 20
7.914764991817384
 30
0.0
 10
16.45800077241807
 20
7.839622167221607
 30
0.0
 10
17.91721912777707
 20
7.5780701314575
 30
0.0
 10
18.64082591577075
 20
7.392382089060972
 30
0.0
 10
20.10001465993948
 20
6.917101430619469
 30
0.0
 10
20.82365695399907
 20
6.628810212373633
 30
0.0
 10
21.91801829860386
 20
6.127309930824933
 30
0.0
 10
22.28306916712841
 20
5.948790740037936
 30
0.0
 10
23.00784678082017
 20
5.572056169358975
 30
0.0
 10
23.37126843262477
 20
5.373221439221603
 30
0.0
 10
24.1008171837519
 20
4.956503945652064
 30
0.0
 10
24.46591823982366
 20
4.738801733741759
 30
0.0
 10
25.19091941287618
 20
4.288314847015084
 30
0.0
 10
25.55409636320624
 20
4.054870650842698
 30
0.0
 10
26.28361430008361
 20
3.573603945172805
 30
0.0
 10
26.64876286801834
 20
3.326031607417732
 30
0.0
 10
27.37398237524531
 20
2.821058311465903
 30
0.0
 10
27.73692803064577
 20
2.563004963522796
 30
0.0
 10
28.4664098183843
 20
2.037785883067245
 30
0.0
 10
28.83160322133237
 20
1.77093551785616
 30
0.0
 10
29.55703583226379
 20
1.233077785767791
 30
0.0
 10
29.91976360488628
 20
0.961463376294272
 30
0.0
 10
30.6492039094782
 20
0.4147691544439099
 30
0.0
 10
31.01443946949014
 20
0.1400587890998851
 30
0.0
 10
31.74007994849696
 20
-0.4076696504040075
 30
0.0
 10
32.10260325577554
 20
-0.6812217224508349
 30
0.0
 10
32.46729999999992
 20
-0.9536086630274455
 30
0.0
  0
SPLINE
  5
BC
330
1F
100
AcDbEntity
  8
0
  6
Continuous
 62
     1
370
    15
100
AcDbSpline
210
0.0
220
0.0
230
1.0
 70
     8
 71
     3
 72
    20
 73
    16
 74
     0
 42
0.000000001
 43
0.00000001
 40
0.0
 40
0.0
 40
0.0
 40
0.0
 40
0.125
 40
0.125
 40
0.2500000000000001
 40
0.2500000000000001
 40
0.3750000000000001
 40
0.3750000000000001
 40
0.5000000000000001
 40
0.5000000000000001
 40
0.6250000000000001
 40
0.6250000000000001
 40
0.7500000000000002
 40
0.7500000000000002
 40
1.0
 40
1.0
 40
1.0
 40
1.0
 10
38.11600909142102
 20
-4.04480390417751
 30
0.0
 10
37.95700035294325
 20
-3.996158682622736
 30
0.0
 10
37.77798452806972
 20
-3.943652450831316
 30
0.0
 10
37.39148077016417
 20
-3.820350737340093
 30
0.0
 10
37.18565709588628
 20
-3.750171180886014
 30
0.0
 10
36.75366561346871
 20
-3.586028760124975
 30
0.0
 10
36.52746341357039
 20
-3.492130234220974
 30
0.0
 10
36.0566536976519
 20
-3.275877587631453
 30
0.0
 10
35.81417800890326
 20
-3.154210615259576
 30
0.0
 10
35.32307915543935
 20
-2.88929543848587
 30
0.0
 10
35.07338296147014
 20
-2.745294851481456
 30
0.0
 10
34.56560394663416
 20
-2.434354738733244
 30
0.0
 10
34.30628513162172
 20
-2.266574006666427
 30
0.0
 10
33.5221912143462
 20
-1.735075035382168
 30
0.0
 10
33.00006994919566
 20
-1.351527149525628
 30
0.0
 10
32.46729999999999
 20
-0.9536086630275001
 30
0.0
  0
SPLINE
  5
BD
330
1F
100
AcDbEntity
  8
0
  6
Continuous
 62
     1
370
    15
100
AcDbSpline
210
0.0
220
0.0
230
1.0
 70
     8
 71
     3
 72
    16
 73
    12
 74
     0
 42
0.000000001
 43
0.00000001
 40
0.0
 40
0.0
 40
0.0
 40
0.0
 40
0.125
 40
0.125
 40
0.25
 40
0.25
 40
0.5
 40
0.5
 40
0.75
 40
0.75
 40
1.0
 40
1.0
 40
1.0
 40
1.0
 10
38.11600909142102
 20
-4.044803904177509
 30
0.0
 10
38.02135626741936
 20
-4.002672692623132
 30
0.0
 10
37.91359173647226
 20
-3.970248206347984
 30
0.0
 10
37.67097691350473
 20
-3.925451088435175
 30
0.0
 10
37.53678979313421
 20
-3.91350646312936
 30
0.0
 10
37.11394259541437
 20
-3.907683044778578
 30
0.0
 10
36.796497986451
 20
-3.943662657109815
 30
0.0
 10
36.15154416058606
 20
-4.071046095371875
 30
0.0
 10
35.81486283886961
 20
-4.163948075933205
 30
0.0
 10
35.15502500446839
 20
-4.385473080821387
 30
0.0
 10
34.8289553337879
 20
-4.514343221884769
 30
0.0
 10
34.50634393248912
 20
-4.659481765578314
 30
0.0
  0
SPLINE
  5
BE
330
1F
100
AcDbEntity
  8
0
  6
Continuous
 62
     4
370
    15
100
AcDbSpline
210
0.0
220
0.0
230
1.0
 70
    24
 71
     3
 72
    14
 73
    10
 74
     0
 42
0.000000001
 43
0.00000001
 40
0.0
 40
0.0
 40
0.0
 40
0.0
 40
0.25
 40
0.25
 40
0.5
 40
0.5
 40
0.75
 40
0.75
 40
1.0
 40
1.0
 40
1.0
 40
1.0
 10
15.0048
 20
7.933079102983982
 30
0.0
 10
15.0048
 20
7.330585526721147
 30
0.0
 10
15.0048
 20
6.719385355466861
 30
0.0
 10
15.0048
 20
5.609975575397044
 30
0.0
 10
15.0048
 20
5.114049930502094
 30
0.0
 10
15.0048
 20
4.312834921340936
 30
0.0
 10
15.0048
 20
4.006925662677801
 30
0.0
 10
15.0048
 20
3.575464431650257
 30
0.0
 10
15.0048
 20
3.448218165332426
 30
0.0
 10
15.0048
 20
3.383856376373682
 30
0.0
  0
SPLINE
  5
BF
330
1F
100
AcDbEntity
  8
0
  6
Continuous
 62
     1
370
    15
100
AcDbSpline
210
0.0
220
0.0
230
1.0
 70
     8
 71
     3
 72
    13
 73
     9
 74
     0
 42
0.000000001
 43
0.00000001
 40
0.0
 40
0.0
 40
0.0
 40
0.0
 40
0.2192970681913314
 40
0.444382507428672
 40
0.6145919981205338
 40
0.788746047761282
 40
0.8970967071097081
 40
1.0
 40
1.0
 40
1.0
 40
1.0
 10
32.46729999999999
 20
-7.600601557329873
 30
0.0
 10
32.79775577411842
 20
-7.511320197708327
 30
0.0
 10
33.46738974008144
 20
-7.330400886827943
 30
0.0
 10
34.39453090361368
 20
-6.873342959677477
 30
0.0
 10
35.25658356051419
 20
-6.351664523056857
 30
0.0
 10
35.94329929173064
 20
-5.873339435887028
 30
0.0
 10
36.52828513723678
 20
-5.442057553893306
 30
0.0
 10
36.846570243953
 20
-5.207220307616341
 30
0.0
 10
37.00160916848884
 20
-5.092829425556624
 30
0.0
  0
ARC
  5
C0
330
1F
100
AcDbEntity
  8
0
  6
Continuous
 62
     1
370
    15
100
AcDbCircle
 10
32.3663376123309
 20
0.0516936907878632
 30
0.0
 40
8.042422671978299
100
AcDbArc
 50
319.3244054422556
 51
352.5506387730126
  0
ARC
  5
C1
330
1F
100
AcDbEntity
  8
0
  6
Continuous
 62
     1
370
    15
100
AcDbCircle
 10
35.21436489566383
 20
0.3854765470556858
 30
0.0
 40
5.295934659278791
100
AcDbArc
 50
303.2230837825189
 51
346.0913855491484
  0
ARC
  5
C2
330
1F
100
AcDbEntity
  8
0
  6
Continuous
 62
     1
370
    15
100
AcDbCircle
 10
36.08199553979495
 20
-1.750550800437257
 30
0.0
 40
4.73792346735096
100
AcDbArc
 50
25.37499562050888
 51
59.79241339940571
  0
ARC
  5
C3
330
1F
100
AcDbEntity
  8
0
  6
Continuous
 62
     1
370
    15
100
AcDbCircle
 10
33.01302915662443
 20
0.0524052809452786
 30
0.0
 40
7.353304522723779
100
AcDbArc
 50
1.772441534988403
 51
46.05472588770618
  0
SPLINE
  5
C4
330
1F
100
AcDbEntity
  8
0
  6
Continuous
 62
     1
370
    15
100
AcDbSpline
210
0.0
220
0.0
230
1.0
 70
     8
 71
     3
 72
    20
 73
    16
 74
     0
 42
0.000000001
 43
0.00000001
 40
0.0
 40
0.0
 40
0.0
 40
0.0
 40
0.125
 40
0.125
 40
0.25
 40
0.25
 40
0.375
 40
0.375
 40
0.5
 40
0.5
 40
0.625
 40
0.625
 40
0.75
 40
0.75
 40
1.0
 40
1.0
 40
1.0
 40
1.0
 10
38.11600909142104
 20
5.346806398066402
 30
0.0
 10
37.95700035294327
 20
5.569510248685136
 30
0.0
 10
37.77798452806973
 20
5.782206743080409
 30
0.0
 10
37.39148077016418
 20
6.176771938121762
 30
0.0
 10
37.18565709588628
 20
6.357218074195602
 30
0.0
 10
36.75366561346871
 20
6.682811967797458
 30
0.0
 10
36.52746341357039
 20
6.827984395866601
 30
0.0
 10
36.0566536976519
 20
7.080796819893559
 30
0.0
 10
35.81417800890326
 20
7.187025639418765
 30
0.0
 10
35.32307915543937
 20
7.357054746107599
 30
0.0
 10
35.07338296147015
 20
7.421443844106168
 30
0.0
 10
34.56560394663415
 20
7.5090332516733
 30
0.0
 10
34.30628513162173
 20
7.532229497745494
 30
0.0
 10
33.5221912143462
 20
7.537791081939049
 30
0.0
 10
33.00006994919566
 20
7.458348181661949
 30
0.0
 10
32.46729999999999
 20
7.301092028837858
 30
0.0
  0
LINE
  5
C5
330
1F
100
AcDbEntity
  8
0
  6
Continuous
 62
     1
370
    15
100
AcDbLine
 10
15.0048
 20
7.933079102997329
 30
0.0
 11
15.0048
 21
7.937500000000001
 31
0.0
  0
SPLINE
  5
C6
330
1F
100
AcDbEntity
  8
0
  6
Continuous
 62
     1
370
    15
100
AcDbSpline
210
0.0
220
0.0
230
1.0
 70
     8
 71
     3
 72
    32
 73
    28
 74
     0
 42
0.000000001
 43
0.00000001
 40
0.0
 40
0.0
 40
0.0
 40
0.0
 40
0.0625
 40
0.0625
 40
0.1249999999999999
 40
0.1249999999999999
 40
0.1874999999999999
 40
0.1874999999999999
 40
0.2499999999999999
 40
0.2499999999999999
 40
0.3124999999999999
 40
0.3124999999999999
 40
0.3749999999999998
 40
0.3749999999999998
 40
0.4374999999999998
 40
0.4374999999999998
 40
0.4999999999999998
 40
0.4999999999999998
 40
0.5624999999999998
 40
0.5624999999999998
 40
0.6249999999999998
 40
0.6249999999999998
 40
0.7499999999999998
 40
0.7499999999999998
 40
0.8749999999999998
 40
0.8749999999999998
 40
1.0
 40
1.0
 40
1.0
 40
1.0
 10
32.46729999999999
 20
-7.600601557329946
 30
0.0
 10
32.10260325577561
 20
-7.679689097043116
 30
0.0
 10
31.74007994849705
 20
-7.74500485316204
 30
0.0
 10
31.01443946949023
 20
-7.847829809483768
 30
0.0
 10
30.64920390947828
 20
-7.885393114171214
 30
0.0
 10
29.91976360488639
 20
-7.932071390550663
 30
0.0
 10
29.55703583226389
 20
-7.941196972660831
 30
0.0
 10
28.83160322133247
 20
-7.931112256163889
 30
0.0
 10
28.4664098183844
 20
-7.911847857497593
 30
0.0
 10
27.73692803064588
 20
-7.845027277629777
 30
0.0
 10
27.37398237524543
 20
-7.797550431718045
 30
0.0
 10
26.64876286801846
 20
-7.675009276739883
 30
0.0
 10
26.28361430008374
 20
-7.599746000340284
 30
0.0
 10
25.55409636320638
 20
-7.422282110969022
 30
0.0
 10
25.19091941287633
 20
-7.320211134960035
 30
0.0
 10
24.46591823982381
 20
-7.09047938511529
 30
0.0
 10
24.10081718375204
 20
-6.962442476523926
 30
0.0
 10
23.37126843262492
 20
-6.681926363282002
 30
0.0
 10
23.00784678082032
 20
-6.529605270058794
 30
0.0
 10
22.28306916712856
 20
-6.202535067646529
 30
0.0
 10
21.91801829860401
 20
-6.027207954860371
 30
0.0
 10
20.82365695399923
 20
-5.469858205601056
 30
0.0
 10
20.10001465993967
 20
-5.057420881652316
 30
0.0
 10
18.64082591577095
 20
-4.163985062242361
 30
0.0
 10
17.91721912777728
 20
-3.685437089340873
 30
0.0
 10
16.45800077241829
 20
-2.679929767881018
 30
0.0
 10
15.73441864616115
 20
-2.155748104410017
 30
0.0
 10
15.00480000000024
 20
-1.618472866771187
 30
0.0
  0
SPLINE
  5
C7
330
1F
100
AcDbEntity
  8
0
  6
Continuous
 62
     1
370
    15
100
AcDbSpline
210
0.0
220
0.0
230
1.0
 70
     8
 71
     3
 72
    12
 73
     8
 74
     0
 42
0.000000001
 43
0.00000001
 40
0.0
 40
0.0
 40
0.0
 40
0.0
 40
0.050932776761958
 40
0.3463082452372057
 40
0.6421022986062974
 40
0.937982430279875
 40
1.0
 40
1.0
 40
1.0
 40
1.0
 10
34.8250150634587
 20
-4.879949526640941
 30
0.0
 10
34.8863681350086
 20
-4.888122200217089
 30
0.0
 10
35.30352729850088
 20
-4.943690822722787
 30
0.0
 10
36.08181555113444
 20
-5.019056393403894
 30
0.0
 10
37.15868998977159
 20
-5.109385783963628
 30
0.0
 10
37.95436584774031
 20
-5.160386152502954
 30
0.0
 10
38.39027253740452
 20
-5.185762399446496
 30
0.0
 10
38.46580773478759
 20
-5.190159670392713
 30
0.0
  0
SPLINE
  5
C8
330
1F
100
AcDbEntity
  8
0
  6
Continuous
 62
     4
370
    15
100
AcDbSpline
210
0.0
220
0.0
230
1.0
 70
    24
 71
     3
 72
    14
 73
    10
 74
     0
 42
0.000000001
 43
0.00000001
 40
0.0
 40
0.0
 40
0.0
 40
0.0
 40
0.25
 40
0.25
 40
0.5
 40
0.5
 40
0.75
 40
0.75
 40
1.0
 40
1.0
 40
1.0
 40
1.0
 10
15.0048
 20
3.383856376373679
 30
0.0
 10
15.0048
 20
2.958936781944582
 30
0.0
 10
15.00480000000001
 20
2.48945647826752
 30
0.0
 10
15.00480000000001
 20
1.506218566703986
 30
0.0
 10
15.0048
 20
0.9926085831846505
 30
0.0
 10
15.0048
 20
0.0196486423453019
 30
0.0
 10
15.0048
 20
-0.4374549929104243
 30
0.0
 10
15.0048
 20
-1.176772394166408
 30
0.0
 10
15.0048
 20
-1.456484054903406
 30
0.0
 10
15.0048
 20
-1.618472866770616
 30
0.0
  0
SPLINE
  5
C9
330
1F
100
AcDbEntity
  8
0
  6
Continuous
 62
     1
370
    15
100
AcDbSpline
210
0.0
220
0.0
230
1.0
 70
     8
 71
     3
 72
    15
 73
    11
 74
     0
 42
0.000000001
 43
0.00000001
 40
0.0
 40
0.0
 40
0.0
 40
0.0
 40
0.1858053132334639
 40
0.2799593106279527
 40
0.3741132766545063
 40
0.510226004794564
 40
0.6472843636319083
 40
0.7832124495262128
 40
0.9200821718782378
 40
1.0
 40
1.0
 40
1.0
 40
1.0
 10
15.0048
 20
-4.195933637495556
 30
0.0
 10
15.6663929805245
 20
-4.605536444519774
 30
0.0
 10
16.66323807349126
 20
-5.222699202086828
 30
0.0
 10
17.9947981488268
 20
-5.923406172835085
 30
0.0
 10
19.14916199790436
 20
-6.473910231520338
 30
0.0
 10
20.45738040251171
 20
-7.002014044625187
 30
0.0
 10
21.91379868837898
 20
-7.459225345645091
 30
0.0
 10
23.37186228731995
 20
-7.767820818765806
 30
0.0
 10
24.62824873014624
 20
-7.927020746186439
 30
0.0
 10
25.39987746902604
 20
-7.921357217597568
 30
0.0
 10
25.68433519177273
 20
-7.919269381357254
 30
0.0
  0
LINE
  5
CA
330
1F
100
AcDbEntity
  8
0
  6
Continuous
 62
     4
370
    15
100
AcDbLine
 10
15.0048
 20
-4.195933637495549
 30
0.0
 11
15.00480000000001
 21
-1.618472866771022
 31
0.0
  0
SPLINE
  5
CB
330
1F
100
AcDbEntity
  8
0
  6
Continuous
 62
     1
370
    15
100
AcDbSpline
210
0.0
220
0.0
230
1.0
 70
     8
 71
     3
 72
     9
 73
     5
 74
     0
 42
0.000000001
 43
0.00000001
 40
0.0
 40
0.0
 40
0.0
 40
0.0
 40
0.047551729635282
 40
1.0
 40
1.0
 40
1.0
 40
1.0
 10
17.13715154534248
 20
-5.461938332338365
 30
0.0
 10
17.10335234881677
 20
-5.464585735258744
 30
0.0
 10
16.39256439672876
 20
-5.5202599019123
 30
0.0
 10
15.68178275001731
 20
-5.469487989802862
 30
0.0
 10
15.0048
 20
-5.421130369931118
 30
0.0
  0
SPLINE
  5
CC
330
1F
100
AcDbEntity
  8
0
  6
Continuous
 62
     4
370
    15
100
AcDbSpline
210
0.0
220
0.0
230
1.0
 70
    24
 71
     3
 72
    10
 73
     6
 74
     0
 42
0.000000001
 43
0.00000001
 40
0.0
 40
0.0
 40
0.0
 40
0.0
 40
0.2751892562509691
 40
0.6375946281254848
 40
1.0
 40
1.0
 40
1.0
 40
1.0
 10
15.0048
 20
-4.267016589024842
 30
0.0
 10
15.0048
 20
-4.347797986172694
 30
0.0
 10
15.00480000000001
 20
-4.534962941576945
 30
0.0
 10
15.00480000000001
 20
-4.927147236891361
 30
0.0
 10
15.0048
 20
-5.256469325584535
 30
0.0
 10
15.0048
 20
-5.421130369931122
 30
0.0
  0
SPLINE
  5
CD
330
1F
100
AcDbEntity
  8
0
  6
Continuous
 62
     1
370
    15
100
AcDbSpline
210
0.0
220
0.0
230
1.0
 70
     8
 71
     3
 72
    11
 73
     7
 74
     0
 42
0.000000001
 43
0.00000001
 40
0.0
 40
0.0
 40
0.0
 40
0.0
 40
0.1767169889371707
 40
0.4478366413481391
 40
0.7239182643880898
 40
1.0
 40
1.0
 40
1.0
 40
1.0
 10
28.14987173523409
 20
5.447806651425022
 30
0.0
 10
28.4041680973119
 20
5.587326819825664
 30
0.0
 10
29.04860658273942
 20
5.940899184274931
 30
0.0
 10
30.09053870730478
 20
6.430066464073973
 30
0.0
 10
31.27523945777418
 20
6.922016257529682
 30
0.0
 10
32.06994643191788
 20
7.174733421227593
 30
0.0
 10
32.46729999999992
 20
7.301092028837827
 30
0.0
  0
SPLINE
  5
CE
330
1F
100
AcDbEntity
  8
0
  6
Continuous
 62
     1
370
    15
100
AcDbSpline
210
0.0
220
0.0
230
1.0
 70
     8
 71
     3
 72
    16
 73
    12
 74
     0
 42
0.000000001
 43
0.00000001
 40
0.0
 40
0.0
 40
0.0
 40
0.0
 40
0.1250000000000001
 40
0.1250000000000001
 40
0.2500000000000003
 40
0.2500000000000003
 40
0.5000000000000002
 40
0.5000000000000002
 40
0.7500000000000001
 40
0.7500000000000001
 40
1.0
 40
1.0
 40
1.0
 40
1.0
 10
38.11600909142102
 20
5.346806398066399
 30
0.0
 10
38.02135626741937
 20
5.202873420764959
 30
0.0
 10
37.91359173647224
 20
5.07008807809836
 30
0.0
 10
37.67097691350472
 20
4.827545833647267
 30
0.0
 10
37.53678979313422
 20
4.719063017841141
 30
0.0
 10
37.11394259541436
 20
4.440846991124442
 30
0.0
 10
36.796497986451
 20
4.312684392247932
 30
0.0
 10
36.15154416058606
 20
4.160862742502839
 30
0.0
 10
35.81486283886962
 20
4.134417769005322
 30
0.0
 10
35.1550250044684
 20
4.161496151191023
 30
0.0
 10
34.8289553337879
 20
4.213677242029498
 30
0.0
 10
34.50634393248912
 20
4.300575282806848
 30
0.0
  0
LINE
  5
CF
330
1F
100
AcDbEntity
  8
0
  6
Continuous
 62
     1
370
    15
100
AcDbLine
 10
15.87423599218612
 20
-5.441896909922188
 30
0.0
 11
15.00480000000023
 21
-5.920424692714573
 31
0.0
  0
SPLINE
  5
D0
330
1F
100
AcDbEntity
  8
0
  6
Continuous
 62
     4
370
    15
100
AcDbSpline
210
0.0
220
0.0
230
1.0
 70
    24
 71
     3
 72
     9
 73
     5
 74
     0
 42
0.000000001
 43
0.00000001
 40
0.0
 40
0.0
 40
0.0
 40
0.0
 40
0.7450957085164881
 40
1.0
 40
1.0
 40
1.0
 40
1.0
 10
15.0048
 20
-5.492213321460415
 30
0.0
 10
15.0048
 20
-5.590165911934736
 30
0.0
 10
15.0048
 20
-5.721629010372586
 30
0.0
 10
15.0048
 20
-5.880044025518548
 30
0.0
 10
15.00480000000001
 20
-5.92042469271468
 30
0.0
  0
LINE
  5
D1
330
1F
100
AcDbEntity
  8
중심선
100
AcDbLine
 10
-64.19519999999997
 20
-0.0000000000000158
 30
0.0
 11
43.3628155119939
 21
-0.0000000000000158
 31
0.0
  0
CIRCLE
  5
D2
330
1F
100
AcDbEntity
  8
외형선
100
AcDbCircle
 10
0.0
 20
0.0
 30
0.0
 40
3.000000000000004
  0
INSERT
  5
D3
330
1F
100
AcDbEntity
  8
0
  6
Continuous
 62
     7
100
AcDbBlockReference
 66
     1
  2
블럭10
 10
1.21807051462724
 20
-51.95764267978461
 30
0.0
  0
ATTRIB
  5
D4
330
D3
100
AcDbEntity
  8
FORMAT
 62
     2
100
AcDbText
 10
-7.96322477411404
 20
-49.88227576695243
 30
0.0
 40
4.233333333333333
  1
E5975040 [ 3 FLUTE ]
 41
0.75
  7
SLDTEXTSTYLE0
 11
-7.96322477411404
 21
-51.99894243361909
 31
0.0
100
AcDbAttribute
  2
AUTOATTR0
 70
     0
 74
     1
  0
SEQEND
  5
D5
330
D3
100
AcDbEntity
  8
0
  6
Continuous
 62
     7
  0
HATCH
  5
D6
330
1F
100
AcDbEntity
  8
중심선
100
AcDbHatch
 10
0.0
 20
0.0
 30
0.0
210
0.0
220
0.0
230
1.0
  2
SOLID
 70
     1
 71
     0
 91
        1
 92
        0
 93
        4
 72
     1
 10
6.932979819008089
 20
-35.71046837814068
 11
3.486704575170807
 21
-35.71046837814068
 72
     1
 10
3.486704575170807
 20
-35.71046837814068
 11
1.358474715966784
 21
-38.24679395871328
 72
     1
 10
1.358474715966784
 20
-38.24679395871328
 11
4.804783044917215
 21
-38.24675452941079
 72
     1
 10
4.804783044917215
 20
-38.24675452941079
 11
6.932979819008089
 21
-35.71046837814068
 97
        0
 75
     0
 76
     1
 98
        1
 10
0.0
 20
0.0
  0
HATCH
  5
D7
330
1F
100
AcDbEntity
  8
중심선
100
AcDbHatch
 10
0.0
 20
0.0
 30
0.0
210
0.0
220
0.0
230
1.0
  2
SOLID
 70
     1
 71
     0
 91
        1
 92
        0
 93
        4
 72
     1
 10
11.94574381004404
 20
-35.71046837814068
 11
8.499468566206758
 21
-35.71046837814068
 72
     1
 10
8.499468566206758
 20
-35.71046837814068
 11
3.96833055784937
 21
-41.11046837814069
 72
     1
 10
3.96833055784937
 20
-41.11046837814069
 11
7.414605801686652
 21
-41.11046837814069
 72
     1
 10
7.414605801686652
 20
-41.11046837814069
 11
11.94574381004404
 21
-35.71046837814068
 97
        0
 75
     0
 76
     1
 98
        1
 10
0.0
 20
0.0
  0
HATCH
  5
D8
330
1F
100
AcDbEntity
  8
중심선
100
AcDbHatch
 10
0.0
 20
0.0
 30
0.0
210
0.0
220
0.0
230
1.0
  2
SOLID
 70
     1
 71
     0
 91
        1
 92
        0
 93
        4
 72
     1
 10
16.95850780107994
 20
-35.71046837814071
 11
13.51223255724282
 21
-35.71046837814068
 72
     1
 10
13.51223255724282
 20
-35.71046837814068
 11
6.463795655353572
 21
-44.1104683781407
 72
     1
 10
6.463795655353572
 20
-44.1104683781407
 11
9.910070899190854
 21
-44.1104683781407
 72
     1
 10
9.910070899190854
 20
-44.1104683781407
 11
16.95850780107994
 21
-35.71046837814071
 97
        0
 75
     0
 76
     1
 98
        1
 10
0.0
 20
0.0
  0
HATCH
  5
D9
330
1F
100
AcDbEntity
  8
중심선
100
AcDbHatch
 10
0.0
 20
0.0
 30
0.0
210
0.0
220
0.0
230
1.0
  2
SOLID
 70
     1
 71
     0
 91
        1
 92
        0
 93
        6
 72
     3
 10
21.75839823209213
 20
-39.91046837819196
 11
3.960054785062284
 21
1.540850780301639E-10
 40
0.3939339440162633
 50
17.09539180608432
 51
320.0019657685081
 73
     0
 72
     1
 10
23.44139788779273
 20
-38.49836238277899
 11
25.74669976149377
 21
-36.56403567273106
 72
     3
 10
21.75839823203929
 20
-39.91046837814083
 11
6.600054785286829
 21
-1.249000902703301E-13
 40
0.6363583540795982
 50
39.9987384933741
 51
368.4976242363725
 73
     1
 72
     1
 10
28.1837307239399
 20
-38.9504683780707
 11
20.43846553887521
 21
-38.95046837807067
 72
     1
 10
20.43846553887521
 20
-38.95046837807067
 11
20.43844049442928
 21
-40.8704683780706
 72
     1
 10
20.43844049442928
 20
-40.8704683780706
 11
24.87982026390132
 21
-40.87046837807057
 97
        0
 75
     0
 76
     1
 98
        1
 10
0.0
 20
0.0
  0
POINT
  5
DA
330
1F
100
AcDbEntity
  8
치수문자_일반주서
100
AcDbPoint
 10
-61.19519999999998
 20
-0.0000000000000158
 30
0.0
  0
DIMENSION
  5
DB
330
1F
100
AcDbEntity
  8
치수문자_일반주서
100
AcDbDimension
  2
_D
 10
-72.69165802161203
 20
-7.937500000000057
 30
0.0
 11
-72.69165802161206
 21
-0.0000000000000088
 31
0.0
 70
   160
  1
%%c<>
 71
     2
 42
15.875
 52
-270.0
  3
SLDDIMSTYLE0
100
AcDbAlignedDimension
 13
-60.19519999999999
 23
7.937499999999994
 33
0.0
 14
-60.19519999999999
 24
-7.93750000000001
 34
0.0
 50
90.0000000000002
100
AcDbRotatedDimension
1001
ACAD
1000
DSTYLE
1002
{
1070
   171
1070
     6
1070
   273
1070
     7
1002
}
  0
DIMENSION
  5
F0
330
1F
100
AcDbEntity
  8
치수문자_일반주서
100
AcDbDimension
  2
_D_1
 10
40.4048
 20
47.93750000000005
 30
0.0
 11
-6.517714346807331
 21
47.93750000000005
 31
0.0
 70
   160
  1
<>
 71
     2
 42
101.6
  3
SLDDIMSTYLE1
100
AcDbAlignedDimension
 13
-61.19519999999998
 23
6.937499999999993
 33
0.0
 14
40.4048
 24
0.0000000000000016
 34
0.0
100
AcDbRotatedDimension
1001
ACAD
1000
DSTYLE
1002
{
1070
   171
1070
     6
1070
   273
1070
     7
1002
}
  0
DIMENSION
  5
104
330
1F
100
AcDbEntity
  8
치수문자_일반주서
100
AcDbDimension
  2
_D_2
 10
40.40479999999999
 20
38.8124602550265
 30
0.0
 11
23.38766327159427
 21
38.8124602550265
 31
0.0
 70
   160
  1
<>
 71
     2
 42
38.10000000000001
  3
SLDDIMSTYLE1
100
AcDbAlignedDimension
 13
2.304799999999997
 23
7.632700000000002
 33
0.0
 14
40.4048
 24
0.0000000000000016
 34
0.0
100
AcDbRotatedDimension
  0
DIMENSION
  5
117
330
1F
100
AcDbEntity
  8
치수문자_일반주서
100
AcDbDimension
  2
_D_3
 10
40.40479999999999
 20
25.69526785413745
 30
0.0
 11
24.22493087165102
 21
25.69526785413745
 31
0.0
 70
   160
  1
<>
 71
     2
 42
25.4
  3
SLDDIMSTYLE0
100
AcDbAlignedDimension
 13
15.0048
 23
7.933079102997329
 33
0.0
 14
40.4048
 24
0.0000000000000016
 34
0.0
 50
0.0000000000000161
100
AcDbRotatedDimension
1001
ACAD
1000
DSTYLE
1002
{
1070
   171
1070
     6
1070
   273
1070
     7
1002
}
1001
ACAD_DSTYLE_DIMFLIPARROW_SYMBOL
1070
   385
1070
     0
1001
ACAD_DSTYLE_DIMFLIPARROW_WHICH_SYMBOL
1070
   386
1070
     3
  0
INSERT
  5
132
330
1F
100
AcDbEntity
  8
외형선
100
AcDbBlockReference
  2
SW_DOWELSYMBOL_0
 10
0.0
 20
0.0
 30
0.0
  0
DIMENSION
  5
15C
102
{ACAD_XDICTIONARY
360
15D
102
}
330
1F
100
AcDbEntity
  8
치수문자_일반주서
100
AcDbDimension
  2
*D7
 10
60.19927684825788
 20
-7.9375
 30
0.0
 11
60.19927684825788
 21
28.5415
 31
0.0
 70
   160
  1
{%%c<>[]}
 71
     5
 42
15.875
  3
SLDDIMSTYLE0
100
AcDbAlignedDimension
 13
40.4048
 23
7.937500000000003
 33
0.0
 14
40.4048
 24
-7.937499999999999
 34
0.0
 50
90.0
100
AcDbRotatedDimension
1001
ACAD
1000
DSTYLE
1002
{
1070
   283
1070
     1
1070
   170
1070
     1
1070
   171
1070
     6
1070
   273
1070
     7
1002
}
  0
ENDSEC
  0
SECTION
  2
OBJECTS
  0
DICTIONARY
  5
C
330
0
100
AcDbDictionary
281
     1
  3
ACAD_GROUP
350
D
  3
ACAD_IMAGE_VARS
350
156
  3
ACAD_LAYOUT
350
1A
  3
ACAD_MLINESTYLE
350
17
  3
ACAD_PLOTSETTINGS
350
19
  3
ACAD_PLOTSTYLENAME
350
E
  3
ACAD_SCALELIST
350
47
  3
APPDATA
350
154
  3
DWGPROPS
350
175
  0
DICTIONARY
  5
15D
330
15C
100
AcDbDictionary
280
     1
281
     1
  0
DICTIONARY
  5
D
102
{ACAD_REACTORS
330
C
102
}
330
C
100
AcDbDictionary
281
     1
  0
RASTERVARIABLES
  5
156
102
{ACAD_REACTORS
330
C
102
}
330
C
100
AcDbRasterVariables
 90
        0
 70
     1
 71
     1
 72
     1
  0
DICTIONARY
  5
1A
102
{ACAD_REACTORS
330
C
102
}
330
C
100
AcDbDictionary
281
     1
  3
Layout1
350
1E
  3
Layout2
350
26
  3
Model
350
22
  0
DICTIONARY
  5
17
102
{ACAD_REACTORS
330
C
102
}
330
C
100
AcDbDictionary
281
     1
  3
Standard
350
18
  0
DICTIONARY
  5
19
102
{ACAD_REACTORS
330
C
102
}
330
C
100
AcDbDictionary
281
     1
  0
ACDBDICTIONARYWDFLT
  5
E
102
{ACAD_REACTORS
330
C
102
}
330
C
100
AcDbDictionary
281
     1
  3
Normal
350
F
100
AcDbDictionaryWithDefault
340
F
  0
DICTIONARY
  5
47
102
{ACAD_REACTORS
330
C
102
}
330
C
100
AcDbDictionary
281
     1
  3
A0
350
48
  3
A1
350
49
  3
A2
350
4A
  3
A3
350
4B
  3
A4
350
4C
  3
A5
350
4D
  3
A6
350
4E
  3
A7
350
4F
  3
A8
350
50
  3
A9
350
51
  3
B0
350
52
  3
B1
350
53
  3
B2
350
54
  3
B3
350
55
  3
B4
350
56
  3
B5
350
57
  3
B6
350
58
  3
B7
350
59
  3
B8
350
5A
  3
B9
350
5B
  3
C0
350
5C
  3
C1
350
5D
  3
C2
350
5E
  3
C3
350
5F
  3
C4
350
60
  3
C5
350
61
  3
C6
350
62
  3
C7
350
63
  3
C8
350
64
  3
C9
350
65
  3
D0
350
66
  3
D1
350
67
  3
D2
350
68
  0
DICTIONARY
  5
154
102
{ACAD_REACTORS
330
C
102
}
330
C
100
AcDbDictionary
281
     1
  0
XRECORD
  5
175
102
{ACAD_REACTORS
330
C
102
}
330
C
100
AcDbXrecord
280
     1
  1
DWGPROPS COOKIE
  2

  3

  4

  6

  7

  8
12016016
  9

300
=
301
=
302
=
303
=
304
=
305
=
306
=
307
=
308
=
309
=
 40
0.0
 41
2458269.360748565
 42
2458274.40517897
  1

 90
        0
  0
LAYOUT
  5
1E
102
{ACAD_REACTORS
330
1A
102
}
330
1A
100
AcDbPlotSettings
  1

  2
none_device
  4

  6

 40
0.0
 41
0.0
 42
0.0
 43
0.0
 44
0.0
 45
0.0
 46
0.0
 47
0.0
 48
0.0
 49
0.0
140
0.0
141
0.0
142
1.0
143
1.0
 70
   688
 72
     1
 73
     0
 74
     5
  7

 75
    16
147
1.0
148
0.0
149
0.0
100
AcDbLayout
  1
Layout1
 70
     1
 71
     1
 10
0.0
 20
0.0
 11
420.0
 21
297.0
 12
0.0
 22
0.0
 32
0.0
 14
1.000000000000000E+20
 24
1.000000000000000E+20
 34
1.000000000000000E+20
 15
-1.000000000000000E+20
 25
-1.000000000000000E+20
 35
-1.000000000000000E+20
146
0.0
 13
0.0
 23
0.0
 33
0.0
 16
1.0
 26
0.0
 36
0.0
 17
0.0
 27
1.0
 37
0.0
 76
     0
330
1B
  0
LAYOUT
  5
26
102
{ACAD_REACTORS
330
1A
102
}
330
1A
100
AcDbPlotSettings
  1

  2
none_device
  4

  6

 40
0.0
 41
0.0
 42
0.0
 43
0.0
 44
0.0
 45
0.0
 46
0.0
 47
0.0
 48
0.0
 49
0.0
140
0.0
141
0.0
142
1.0
143
1.0
 70
   688
 72
     1
 73
     0
 74
     5
  7

 75
    16
147
1.0
148
0.0
149
0.0
100
AcDbLayout
  1
Layout2
 70
     1
 71
     2
 10
0.0
 20
0.0
 11
0.0
 21
0.0
 12
0.0
 22
0.0
 32
0.0
 14
0.0
 24
0.0
 34
0.0
 15
0.0
 25
0.0
 35
0.0
146
0.0
 13
0.0
 23
0.0
 33
0.0
 16
1.0
 26
0.0
 36
0.0
 17
0.0
 27
1.0
 37
0.0
 76
     0
330
23
  0
LAYOUT
  5
22
102
{ACAD_REACTORS
330
1A
102
}
330
1A
100
AcDbPlotSettings
  1

  2
none_device
  4
ANSI_A_(11.00_x_8.50_Inches)
  6

 40
6.35
 41
19.05
 42
6.35000508
 43
19.05000254
 44
279.4
 45
215.9
 46
150.0256824125995
 47
80.98009876478682
 48
0.0
 49
0.0
140
0.0
141
0.0
142
0.0769500717208878
143
1.0
 70
  1696
 72
     0
 73
     0
 74
     0
  7

 75
     0
147
0.0235690232323232
148
0.0
149
0.0
100
AcDbLayout
  1
Model
 70
     1
 71
     0
 10
0.0
 20
0.0
 11
420.0
 21
297.0
 12
0.0
 22
0.0
 32
0.0
 14
-77.06665802161211
 24
-49.88227576695243
 34
0.0
 15
60.74961018159122
 25
52.31250000000005
 35
0.0
146
0.0
 13
0.0
 23
0.0
 33
0.0
 16
1.0
 26
0.0
 36
0.0
 17
0.0
 27
1.0
 37
0.0
 76
     0
330
1F
331
29
  0
MLINESTYLE
  5
18
102
{ACAD_REACTORS
330
17
102
}
330
17
100
AcDbMlineStyle
  2
Standard
 70
     0
  3

 62
   256
 51
90.0
 52
90.0
 71
     2
 49
0.5
 62
   256
  6
BYLAYER
 49
-0.5
 62
   256
  6
BYLAYER
  0
ACDBPLACEHOLDER
  5
F
102
{ACAD_REACTORS
330
E
102
}
330
E
  0
SCALE
  5
48
102
{ACAD_REACTORS
330
47
102
}
330
47
100
AcDbScale
 70
     0
300
1:1
140
1.0
141
1.0
290
     1
  0
SCALE
  5
49
102
{ACAD_REACTORS
330
47
102
}
330
47
100
AcDbScale
 70
     0
300
1:2
140
1.0
141
2.0
290
     0
  0
SCALE
  5
4A
102
{ACAD_REACTORS
330
47
102
}
330
47
100
AcDbScale
 70
     0
300
1:4
140
1.0
141
4.0
290
     0
  0
SCALE
  5
4B
102
{ACAD_REACTORS
330
47
102
}
330
47
100
AcDbScale
 70
     0
300
1:5
140
1.0
141
5.0
290
     0
  0
SCALE
  5
4C
102
{ACAD_REACTORS
330
47
102
}
330
47
100
AcDbScale
 70
     0
300
1:8
140
1.0
141
8.0
290
     0
  0
SCALE
  5
4D
102
{ACAD_REACTORS
330
47
102
}
330
47
100
AcDbScale
 70
     0
300
1:10
140
1.0
141
10.0
290
     0
  0
SCALE
  5
4E
102
{ACAD_REACTORS
330
47
102
}
330
47
100
AcDbScale
 70
     0
300
1:16
140
1.0
141
16.0
290
     0
  0
SCALE
  5
4F
102
{ACAD_REACTORS
330
47
102
}
330
47
100
AcDbScale
 70
     0
300
1:20
140
1.0
141
20.0
290
     0
  0
SCALE
  5
50
102
{ACAD_REACTORS
330
47
102
}
330
47
100
AcDbScale
 70
     0
300
1:30
140
1.0
141
30.0
290
     0
  0
SCALE
  5
51
102
{ACAD_REACTORS
330
47
102
}
330
47
100
AcDbScale
 70
     0
300
1:40
140
1.0
141
40.0
290
     0
  0
SCALE
  5
52
102
{ACAD_REACTORS
330
47
102
}
330
47
100
AcDbScale
 70
     0
300
1:50
140
1.0
141
50.0
290
     0
  0
SCALE
  5
53
102
{ACAD_REACTORS
330
47
102
}
330
47
100
AcDbScale
 70
     0
300
1:100
140
1.0
141
100.0
290
     0
  0
SCALE
  5
54
102
{ACAD_REACTORS
330
47
102
}
330
47
100
AcDbScale
 70
     0
300
2:1
140
2.0
141
1.0
290
     0
  0
SCALE
  5
55
102
{ACAD_REACTORS
330
47
102
}
330
47
100
AcDbScale
 70
     0
300
4:1
140
4.0
141
1.0
290
     0
  0
SCALE
  5
56
102
{ACAD_REACTORS
330
47
102
}
330
47
100
AcDbScale
 70
     0
300
8:1
140
8.0
141
1.0
290
     0
  0
SCALE
  5
57
102
{ACAD_REACTORS
330
47
102
}
330
47
100
AcDbScale
 70
     0
300
10:1
140
10.0
141
1.0
290
     0
  0
SCALE
  5
58
102
{ACAD_REACTORS
330
47
102
}
330
47
100
AcDbScale
 70
     0
300
100:1
140
100.0
141
1.0
290
     0
  0
SCALE
  5
59
102
{ACAD_REACTORS
330
47
102
}
330
47
100
AcDbScale
 70
     0
300
1/128" = 1'-0"
140
0.0078125
141
12.0
290
     0
  0
SCALE
  5
5A
102
{ACAD_REACTORS
330
47
102
}
330
47
100
AcDbScale
 70
     0
300
1/64" = 1'-0"
140
0.015625
141
12.0
290
     0
  0
SCALE
  5
5B
102
{ACAD_REACTORS
330
47
102
}
330
47
100
AcDbScale
 70
     0
300
1/32" = 1'-0"
140
0.03125
141
12.0
290
     0
  0
SCALE
  5
5C
102
{ACAD_REACTORS
330
47
102
}
330
47
100
AcDbScale
 70
     0
300
1/16" = 1'-0"
140
0.0625
141
12.0
290
     0
  0
SCALE
  5
5D
102
{ACAD_REACTORS
330
47
102
}
330
47
100
AcDbScale
 70
     0
300
3/32" = 1'-0"
140
0.09375
141
12.0
290
     0
  0
SCALE
  5
5E
102
{ACAD_REACTORS
330
47
102
}
330
47
100
AcDbScale
 70
     0
300
1/8" = 1'-0"
140
0.125
141
12.0
290
     0
  0
SCALE
  5
5F
102
{ACAD_REACTORS
330
47
102
}
330
47
100
AcDbScale
 70
     0
300
3/16" = 1'-0"
140
0.1875
141
12.0
290
     0
  0
SCALE
  5
60
102
{ACAD_REACTORS
330
47
102
}
330
47
100
AcDbScale
 70
     0
300
1/4" = 1'-0"
140
0.25
141
12.0
290
     0
  0
SCALE
  5
61
102
{ACAD_REACTORS
330
47
102
}
330
47
100
AcDbScale
 70
     0
300
3/8" = 1'-0"
140
0.375
141
12.0
290
     0
  0
SCALE
  5
62
102
{ACAD_REACTORS
330
47
102
}
330
47
100
AcDbScale
 70
     0
300
1/2" = 1'-0"
140
0.5
141
12.0
290
     0
  0
SCALE
  5
63
102
{ACAD_REACTORS
330
47
102
}
330
47
100
AcDbScale
 70
     0
300
3/4" = 1'-0"
140
0.75
141
12.0
290
     0
  0
SCALE
  5
64
102
{ACAD_REACTORS
330
47
102
}
330
47
100
AcDbScale
 70
     0
300
1" = 1'-0"
140
1.0
141
12.0
290
     0
  0
SCALE
  5
65
102
{ACAD_REACTORS
330
47
102
}
330
47
100
AcDbScale
 70
     0
300
1-1/2" = 1'-0"
140
1.5
141
12.0
290
     0
  0
SCALE
  5
66
102
{ACAD_REACTORS
330
47
102
}
330
47
100
AcDbScale
 70
     0
300
3" = 1'-0"
140
3.0
141
12.0
290
     0
  0
SCALE
  5
67
102
{ACAD_REACTORS
330
47
102
}
330
47
100
AcDbScale
 70
     0
300
6" = 1'-0"
140
6.0
141
12.0
290
     0
  0
SCALE
  5
68
102
{ACAD_REACTORS
330
47
102
}
330
47
100
AcDbScale
 70
     0
300
1'-0" = 1'-0"
140
12.0
141
12.0
290
     0
  0
ENDSEC
  0
EOF
