  0
SECTION
  2
HEADER
  9
$ACADVER
  1
AC1015
  9
$ACADMAINTVER
 70
     6
  9
$DWGCODEPAGE
  3
ANSI_949
  9
$INSBASE
 10
0.0
 20
0.0
 30
0.0
  9
$EXTMIN
 10
-84.71700000000007
 20
-49.90171307273279
 30
0.0
  9
$EXTMAX
 10
105.8983015103936
 20
49.73812537290537
 30
0.0
  9
$LIMMIN
 10
0.0
 20
0.0
  9
$LIMMAX
 10
420.0
 20
297.0
  9
$ORTHOMODE
 70
     0
  9
$REGENMODE
 70
     1
  9
$FILLMODE
 70
     1
  9
$QTEXTMODE
 70
     0
  9
$MIRRTEXT
 70
     1
  9
$LTSCALE
 40
1.0
  9
$ATTMODE
 70
     1
  9
$TEXTSIZE
 40
3.5
  9
$TRACEWID
 40
1.0
  9
$TEXTSTYLE
  7
Standard
  9
$CLAYER
  8
0
  9
$CELTYPE
  6
ByLayer
  9
$CECOLOR
 62
   256
  9
$CELTSCALE
 40
1.0
  9
$DISPSILH
 70
     0
  9
$DIMSCALE
 40
1.0
  9
$DIMASZ
 40
3.302
  9
$DIMEXO
 40
1.0
  9
$DIMDLI
 40
3.75
  9
$DIMRND
 40
0.0
  9
$DIMDLE
 40
0.0
  9
$DIMEXE
 40
1.0
  9
$DIMTP
 40
0.0
  9
$DIMTM
 40
0.0
  9
$DIMTXT
 40
3.5
  9
$DIMCEN
 40
2.5
  9
$DIMTSZ
 40
0.0
  9
$DIMTOL
 70
     0
  9
$DIMLIM
 70
     0
  9
$DIMTIH
 70
     1
  9
$DIMTOH
 70
     1
  9
$DIMSE1
 70
     0
  9
$DIMSE2
 70
     0
  9
$DIMTAD
 70
     1
  9
$DIMZIN
 70
     0
  9
$DIMBLK
  1

  9
$DIMASO
 70
     1
  9
$DIMSHO
 70
     1
  9
$DIMPOST
  1

  9
$DIMAPOST
  1

  9
$DIMALT
 70
     0
  9
$DIMALTD
 70
     3
  9
$DIMALTF
 40
0.0393700787401575
  9
$DIMLFAC
 40
1.0
  9
$DIMTOFL
 70
     1
  9
$DIMTVP
 40
0.0
  9
$DIMTIX
 70
     0
  9
$DIMSOXD
 70
     0
  9
$DIMSAH
 70
     0
  9
$DIMBLK1
  1

  9
$DIMBLK2
  1

  9
$DIMSTYLE
  2
ISO-25
  9
$DIMCLRD
 70
     0
  9
$DIMCLRE
 70
     0
  9
$DIMCLRT
 70
     0
  9
$DIMTFAC
 40
1.0
  9
$DIMGAP
 40
1.524
  9
$DIMJUST
 70
     0
  9
$DIMSD1
 70
     0
  9
$DIMSD2
 70
     0
  9
$DIMTOLJ
 70
     0
  9
$DIMTZIN
 70
     0
  9
$DIMALTZ
 70
     0
  9
$DIMALTTZ
 70
     0
  9
$DIMUPT
 70
     0
  9
$DIMDEC
 70
     2
  9
$DIMTDEC
 70
     2
  9
$DIMALTU
 70
     2
  9
$DIMALTTD
 70
     3
  9
$DIMTXSTY
  7
Standard
  9
$DIMAUNIT
 70
     0
  9
$DIMADEC
 70
     2
  9
$DIMALTRND
 40
0.0
  9
$DIMAZIN
 70
     0
  9
$DIMDSEP
 70
    44
  9
$DIMATFIT
 70
     3
  9
$DIMFRAC
 70
     0
  9
$DIMLDRBLK
  1

  9
$DIMLUNIT
 70
     2
  9
$DIMLWD
 70
    -2
  9
$DIMLWE
 70
    -2
  9
$DIMTMOVE
 70
     0
  9
$LUNITS
 70
     2
  9
$LUPREC
 70
     2
  9
$SKETCHINC
 40
1.0
  9
$FILLETRAD
 40
10.0
  9
$AUNITS
 70
     0
  9
$AUPREC
 70
     2
  9
$MENU
  1
.
  9
$ELEVATION
 40
0.0
  9
$PELEVATION
 40
0.0
  9
$THICKNESS
 40
0.0
  9
$LIMCHECK
 70
     0
  9
$CHAMFERA
 40
0.0
  9
$CHAMFERB
 40
0.0
  9
$CHAMFERC
 40
0.0
  9
$CHAMFERD
 40
0.0
  9
$SKPOLY
 70
     0
  9
$TDCREATE
 40
2458269.700617153
  9
$TDUCREATE
 40
2458269.325617153
  9
$TDUPDATE
 40
2458275.374011354
  9
$TDUUPDATE
 40
2458274.999011354
  9
$TDINDWG
 40
0.0003383565
  9
$TDUSRTIMER
 40
2458274.998266898
  9
$USRTIMER
 70
     1
  9
$ANGBASE
 50
0.0
  9
$ANGDIR
 70
     0
  9
$PDMODE
 70
     0
  9
$PDSIZE
 40
-1.0
  9
$PLINEWID
 40
0.0
  9
$SPLFRAME
 70
     0
  9
$SPLINETYPE
 70
     6
  9
$SPLINESEGS
 70
     8
  9
$HANDSEED
  5
167
  9
$SURFTAB1
 70
     6
  9
$SURFTAB2
 70
     6
  9
$SURFTYPE
 70
     6
  9
$SURFU
 70
     6
  9
$SURFV
 70
     6
  9
$UCSBASE
  2

  9
$UCSNAME
  2

  9
$UCSORG
 10
0.0
 20
0.0
 30
0.0
  9
$UCSXDIR
 10
1.0
 20
0.0
 30
0.0
  9
$UCSYDIR
 10
0.0
 20
1.0
 30
0.0
  9
$UCSORTHOREF
  2

  9
$UCSORTHOVIEW
 70
     0
  9
$UCSORGTOP
 10
0.0
 20
0.0
 30
0.0
  9
$UCSORGBOTTOM
 10
0.0
 20
0.0
 30
0.0
  9
$UCSORGLEFT
 10
0.0
 20
0.0
 30
0.0
  9
$UCSORGRIGHT
 10
0.0
 20
0.0
 30
0.0
  9
$UCSORGFRONT
 10
0.0
 20
0.0
 30
0.0
  9
$UCSORGBACK
 10
0.0
 20
0.0
 30
0.0
  9
$PUCSBASE
  2

  9
$PUCSNAME
  2

  9
$PUCSORG
 10
0.0
 20
0.0
 30
0.0
  9
$PUCSXDIR
 10
1.0
 20
0.0
 30
0.0
  9
$PUCSYDIR
 10
0.0
 20
1.0
 30
0.0
  9
$PUCSORTHOREF
  2

  9
$PUCSORTHOVIEW
 70
     0
  9
$PUCSORGTOP
 10
0.0
 20
0.0
 30
0.0
  9
$PUCSORGBOTTOM
 10
0.0
 20
0.0
 30
0.0
  9
$PUCSORGLEFT
 10
0.0
 20
0.0
 30
0.0
  9
$PUCSORGRIGHT
 10
0.0
 20
0.0
 30
0.0
  9
$PUCSORGFRONT
 10
0.0
 20
0.0
 30
0.0
  9
$PUCSORGBACK
 10
0.0
 20
0.0
 30
0.0
  9
$USERI1
 70
     0
  9
$USERI2
 70
     0
  9
$USERI3
 70
     0
  9
$USERI4
 70
     0
  9
$USERI5
 70
     0
  9
$USERR1
 40
0.0
  9
$USERR2
 40
0.0
  9
$USERR3
 40
0.0
  9
$USERR4
 40
0.0
  9
$USERR5
 40
0.0
  9
$WORLDVIEW
 70
     1
  9
$SHADEDGE
 70
     3
  9
$SHADEDIF
 70
    70
  9
$TILEMODE
 70
     1
  9
$MAXACTVP
 70
    64
  9
$PINSBASE
 10
0.0
 20
0.0
 30
0.0
  9
$PLIMCHECK
 70
     0
  9
$PEXTMIN
 10
1.000000000000000E+20
 20
1.000000000000000E+20
 30
1.000000000000000E+20
  9
$PEXTMAX
 10
-1.000000000000000E+20
 20
-1.000000000000000E+20
 30
-1.000000000000000E+20
  9
$PLIMMIN
 10
0.0
 20
0.0
  9
$PLIMMAX
 10
0.0
 20
0.0
  9
$UNITMODE
 70
     0
  9
$VISRETAIN
 70
     1
  9
$PLINEGEN
 70
     0
  9
$PSLTSCALE
 70
     1
  9
$TREEDEPTH
 70
  3020
  9
$CMLSTYLE
  2
Standard
  9
$CMLJUST
 70
     0
  9
$CMLSCALE
 40
20.0
  9
$PROXYGRAPHICS
 70
     1
  9
$MEASUREMENT
 70
     1
  9
$CELWEIGHT
370
    -1
  9
$ENDCAPS
280
     0
  9
$JOINSTYLE
280
     0
  9
$LWDISPLAY
290
     1
  9
$INSUNITS
 70
     4
  9
$HYPERLINKBASE
  1

  9
$STYLESHEET
  1

  9
$XEDIT
290
     1
  9
$CEPSNTYPE
380
     0
  9
$PSTYLEMODE
290
     1
  9
$FINGERPRINTGUID
  2
{E9219547-2C75-4F2D-AEC7-E717D74CC4BA}
  9
$VERSIONGUID
  2
{FAEB1C32-E019-11D5-929B-00C0DF256EC4}
  9
$EXTNAMES
290
     1
  9
$PSVPSCALE
 40
0.0
  9
$OLESTARTUP
290
     0
  0
ENDSEC
  0
SECTION
  2
CLASSES
  0
CLASS
  1
ACDBDICTIONARYWDFLT
  2
AcDbDictionaryWithDefault
  3
ObjectDBX Classes
 90
        0
280
     0
281
     0
  0
CLASS
  1
VISUALSTYLE
  2
AcDbVisualStyle
  3
ObjectDBX Classes
 90
     4095
280
     0
281
     0
  0
CLASS
  1
MATERIAL
  2
AcDbMaterial
  3
ObjectDBX Classes
 90
     1153
280
     0
281
     0
  0
CLASS
  1
SCALE
  2
AcDbScale
  3
ObjectDBX Classes
 90
     1153
280
     0
281
     0
  0
CLASS
  1
SUN
  2
AcDbSun
  3
SCENEOE
 90
     1153
280
     0
281
     0
  0
CLASS
  1
ACDBPLACEHOLDER
  2
AcDbPlaceHolder
  3
ObjectDBX Classes
 90
        0
280
     0
281
     0
  0
CLASS
  1
LAYOUT
  2
AcDbLayout
  3
ObjectDBX Classes
 90
        0
280
     0
281
     0
  0
CLASS
  1
TABLESTYLE
  2
AcDbTableStyle
  3
ObjectDBX Classes
 90
     4095
280
     0
281
     0
  0
CLASS
  1
MLEADERSTYLE
  2
AcDbMLeaderStyle
  3
ACDB_MLEADERSTYLE_CLASS
 90
     4095
280
     0
281
     0
  0
CLASS
  1
RASTERVARIABLES
  2
AcDbRasterVariables
  3
ISM
 90
        0
280
     0
281
     0
  0
CLASS
  1
DIMASSOC
  2
AcDbDimAssoc
  3
"AcDbDimAssoc|Product Desc:     AcDim ARX App For Dimension|Company:          Autodesk, Inc.|WEB Address:      www.autodesk.com"
 90
        0
280
     0
281
     0
  0
ENDSEC
  0
SECTION
  2
TABLES
  0
TABLE
  2
VPORT
  5
8
330
0
100
AcDbSymbolTable
 70
     1
  0
VPORT
  5
29
330
8
100
AcDbSymbolTableRecord
100
AcDbViewportTableRecord
  2
*Active
 70
     0
 10
0.0
 20
0.0
 11
1.0
 21
1.0
 12
-21.28258740590593
 22
-22.75004505868552
 13
0.0
 23
0.0
 14
10.0
 24
10.0
 15
10.0
 25
10.0
 16
0.0
 26
0.0
 36
1.0
 17
0.0
 27
0.0
 37
0.0
 40
720.3972502720397
 41
1.540540540540541
 42
50.0
 43
0.0
 44
0.0
 50
0.0
 51
0.0
 71
    16
 72
  2000
 73
     1
 74
     3
 75
     0
 76
     0
 77
     0
 78
     0
281
     0
 65
     1
110
0.0
120
0.0
130
0.0
111
1.0
121
0.0
131
0.0
112
0.0
122
1.0
132
0.0
 79
     0
146
0.0
  0
ENDTAB
  0
TABLE
  2
LTYPE
  5
5
330
0
100
AcDbSymbolTable
 70
     6
  0
LTYPE
  5
14
330
5
100
AcDbSymbolTableRecord
100
AcDbLinetypeTableRecord
  2
ByBlock
 70
     0
  3

 72
    65
 73
     0
 40
0.0
  0
LTYPE
  5
15
330
5
100
AcDbSymbolTableRecord
100
AcDbLinetypeTableRecord
  2
ByLayer
 70
     0
  3

 72
    65
 73
     0
 40
0.0
  0
LTYPE
  5
16
330
5
100
AcDbSymbolTableRecord
100
AcDbLinetypeTableRecord
  2
Continuous
 70
     0
  3
Solid line
 72
    65
 73
     0
 40
0.0
  0
LTYPE
  5
6A
330
5
100
AcDbSymbolTableRecord
100
AcDbLinetypeTableRecord
  2
HIDDEN
 70
     0
  3
Hidden __ __ __ __ __ __ __ __ __ __ __ __ __ __
 72
    65
 73
     2
 40
1.905
 49
1.27
 74
     0
 49
-0.635
 74
     0
  0
LTYPE
  5
6B
330
5
100
AcDbSymbolTableRecord
100
AcDbLinetypeTableRecord
  2
PHANTOM
 70
     0
  3
Phantom ______  __  __  ______  __  __  ______
 72
    65
 73
     6
 40
12.7
 49
6.35
 74
     0
 49
-1.27
 74
     0
 49
1.27
 74
     0
 49
-1.27
 74
     0
 49
1.27
 74
     0
 49
-1.27
 74
     0
  0
LTYPE
  5
6C
330
5
100
AcDbSymbolTableRecord
100
AcDbLinetypeTableRecord
  2
CENTER
 70
     0
  3
Center ____ _ ____ _ ____ _ ____ _ ____ _ ____
 72
    65
 73
     4
 40
10.16
 49
6.35
 74
     0
 49
-1.27
 74
     0
 49
1.27
 74
     0
 49
-1.27
 74
     0
  0
LTYPE
  5
6D
330
5
100
AcDbSymbolTableRecord
100
AcDbLinetypeTableRecord
  2
CENTERX2
 70
     0
  3
Center (2x) ________  __  ________  __  _____
 72
    65
 73
     4
 40
20.32
 49
12.7
 74
     0
 49
-2.54
 74
     0
 49
2.54
 74
     0
 49
-2.54
 74
     0
  0
LTYPE
  5
6E
330
5
100
AcDbSymbolTableRecord
100
AcDbLinetypeTableRecord
  2
DOT2
 70
     0
  3
Dot (.5x) ........................................
 72
    65
 73
     2
 40
0.635
 49
0.0
 74
     0
 49
-0.635
 74
     0
  0
ENDTAB
  0
TABLE
  2
LAYER
  5
2
330
0
100
AcDbSymbolTable
 70
    17
  0
LAYER
  5
10
330
2
100
AcDbSymbolTableRecord
100
AcDbLayerTableRecord
  2
0
 70
     0
 62
     7
  6
Continuous
370
    -3
390
F
  0
LAYER
  5
6F
330
2
100
AcDbSymbolTableRecord
100
AcDbLayerTableRecord
  2
FORMAT
 70
     0
 62
     2
  6
Continuous
370
    -3
390
F
  0
LAYER
  5
70
330
2
100
AcDbSymbolTableRecord
100
AcDbLayerTableRecord
  2
외형선
 70
     0
 62
   100
  6
Continuous
370
    30
390
F
  0
LAYER
  5
71
330
2
100
AcDbSymbolTableRecord
100
AcDbLayerTableRecord
  2
숨은선
 70
     0
 62
     2
  6
HIDDEN
370
    15
390
F
  0
LAYER
  5
72
330
2
100
AcDbSymbolTableRecord
100
AcDbLayerTableRecord
  2
중심선
 70
     0
 62
     1
  6
CENTERX2
370
    -3
390
F
  0
LAYER
  5
73
330
2
100
AcDbSymbolTableRecord
100
AcDbLayerTableRecord
  2
파단선
 70
     0
 62
     4
  6
Continuous
370
    -3
390
F
  0
LAYER
  5
74
330
2
100
AcDbSymbolTableRecord
100
AcDbLayerTableRecord
  2
해칭선
 70
     0
 62
     4
  6
Continuous
370
    -3
390
F
  0
LAYER
  5
75
330
2
100
AcDbSymbolTableRecord
100
AcDbLayerTableRecord
  2
가는실선
 70
     0
 62
     4
  6
Continuous
370
    -3
390
F
  0
LAYER
  5
76
330
2
100
AcDbSymbolTableRecord
100
AcDbLayerTableRecord
  2
치수_보조선
 70
     0
 62
     4
  6
Continuous
370
    -3
390
F
  0
LAYER
  5
77
330
2
100
AcDbSymbolTableRecord
100
AcDbLayerTableRecord
  2
치수문자_일반주서
 70
     0
 62
     7
  6
Continuous
370
    15
390
F
  0
LAYER
  5
78
330
2
100
AcDbSymbolTableRecord
100
AcDbLayerTableRecord
  2
개별주서
 70
     0
 62
   100
  6
Continuous
370
    30
390
F
  0
LAYER
  5
79
330
2
100
AcDbSymbolTableRecord
100
AcDbLayerTableRecord
  2
중간선
 70
     0
 62
     2
  6
Continuous
370
    15
390
F
  0
LAYER
  5
7A
330
2
100
AcDbSymbolTableRecord
100
AcDbLayerTableRecord
  2
윤곽선
 70
     0
 62
     3
  6
Continuous
370
    40
390
F
  0
LAYER
  5
7B
330
2
100
AcDbSymbolTableRecord
100
AcDbLayerTableRecord
  2
중심마크
 70
     0
 62
   100
  6
Continuous
370
    30
390
F
  0
LAYER
  5
7C
330
2
100
AcDbSymbolTableRecord
100
AcDbLayerTableRecord
  2
가상선
 70
     0
 62
     4
  6
PHANTOM
370
    -3
390
F
  0
LAYER
  5
7D
330
2
100
AcDbSymbolTableRecord
100
AcDbLayerTableRecord
  2
특수지정선
 70
     0
 62
     5
  6
CENTERX2
370
    60
390
F
  0
LAYER
  5
14F
330
2
100
AcDbSymbolTableRecord
100
AcDbLayerTableRecord
  2
Defpoints
 70
     0
 62
     7
  6
Continuous
290
     0
370
    -3
390
F
  0
ENDTAB
  0
TABLE
  2
STYLE
  5
3
330
0
100
AcDbSymbolTable
 70
     2
  0
STYLE
  5
11
330
3
100
AcDbSymbolTableRecord
100
AcDbTextStyleTableRecord
  2
Standard
 70
     0
 40
0.0
 41
1.0
 50
0.0
 71
     0
 42
3.5
  3
txt
  4

  0
STYLE
  5
93
330
3
100
AcDbSymbolTableRecord
100
AcDbTextStyleTableRecord
  2
SLDTEXTSTYLE0
 70
     0
 40
0.0
 41
0.75
 50
0.0
 71
     0
 42
3.5
  3
TXT
  4

  0
ENDTAB
  0
TABLE
  2
VIEW
  5
6
330
0
100
AcDbSymbolTable
 70
     0
  0
ENDTAB
  0
TABLE
  2
UCS
  5
7
330
0
100
AcDbSymbolTable
 70
     0
  0
ENDTAB
  0
TABLE
  2
APPID
  5
9
330
0
100
AcDbSymbolTable
 70
     2
  0
APPID
  5
12
330
9
100
AcDbSymbolTableRecord
100
AcDbRegAppTableRecord
  2
ACAD
 70
     0
  0
APPID
  5
161
330
9
100
AcDbSymbolTableRecord
100
AcDbRegAppTableRecord
  2
PE_DIMMEASUREMENT
 70
     0
  0
ENDTAB
  0
TABLE
  2
DIMSTYLE
  5
A
330
0
100
AcDbSymbolTable
 70
     4
100
AcDbDimStyleTable
  0
DIMSTYLE
105
27
330
A
100
AcDbSymbolTableRecord
100
AcDbDimStyleTableRecord
  2
ISO-25
 70
     0
 41
2.5
 42
0.625
 43
3.75
 44
1.25
 73
     0
 74
     0
 77
     1
 78
     8
140
2.5
141
2.5
143
0.03937007874016
147
0.625
171
     3
172
     1
178
     0
271
     2
272
     2
274
     3
278
    44
283
     0
284
     8
340
11
  0
DIMSTYLE
105
D3
102
{ACAD_REACTORS
330
D2
330
10F
330
150
102
}
330
A
100
AcDbSymbolTableRecord
100
AcDbDimStyleTableRecord
  2
SLDDIMSTYLE0
 70
     0
 41
3.302
 44
0.0
 45
0.000000001
 73
     0
 74
     0
 77
     1
 78
    12
 79
     3
140
3.5
143
0.0393700787401575
147
0.875
148
0.000000001
170
     1
172
     1
173
     1
178
     0
271
     2
272
     2
276
     2
284
    12
289
     0
340
93
  0
DIMSTYLE
105
E8
102
{ACAD_REACTORS
330
E7
102
}
330
A
100
AcDbSymbolTableRecord
100
AcDbDimStyleTableRecord
  2
SLDDIMSTYLE1
 70
     0
 41
3.302
 44
0.0
 45
0.000000001
 73
     0
 74
     0
 77
     1
 78
     4
 79
     1
140
3.5
143
0.0393700787401575
147
0.875
148
0.000000001
170
     1
173
     1
178
     0
271
     2
272
     2
276
     2
284
    12
340
93
  0
DIMSTYLE
105
FC
102
{ACAD_REACTORS
330
FB
102
}
330
A
100
AcDbSymbolTableRecord
100
AcDbDimStyleTableRecord
  2
SLDDIMSTYLE2
 70
     0
 41
3.302
 44
0.0
 45
0.000000001
 73
     0
 74
     0
 77
     1
 78
    12
 79
     3
140
3.5
143
0.0393700787401575
147
0.875
148
0.000000001
170
     1
173
     1
178
     0
271
     2
272
     2
276
     2
284
    12
340
93
  0
ENDTAB
  0
TABLE
  2
BLOCK_RECORD
  5
1
330
0
100
AcDbSymbolTable
 70
     8
  0
BLOCK_RECORD
  5
1F
330
1
100
AcDbSymbolTableRecord
100
AcDbBlockTableRecord
  2
*Model_Space
340
22
  0
BLOCK_RECORD
  5
1B
330
1
100
AcDbSymbolTableRecord
100
AcDbBlockTableRecord
  2
*Paper_Space
340
1E
  0
BLOCK_RECORD
  5
23
330
1
100
AcDbSymbolTableRecord
100
AcDbBlockTableRecord
  2
*Paper_Space0
340
26
  0
BLOCK_RECORD
  5
7E
330
1
100
AcDbSymbolTableRecord
100
AcDbBlockTableRecord
  2
블럭10
340
0
102
{BLKREFS
331
CA
102
}
  0
BLOCK_RECORD
  5
D4
330
1
100
AcDbSymbolTableRecord
100
AcDbBlockTableRecord
  2
_D
340
0
  0
BLOCK_RECORD
  5
E9
330
1
100
AcDbSymbolTableRecord
100
AcDbBlockTableRecord
  2
_D_1
340
0
  0
BLOCK_RECORD
  5
FD
330
1
100
AcDbSymbolTableRecord
100
AcDbBlockTableRecord
  2
_D_2
340
0
  0
BLOCK_RECORD
  5
110
330
1
100
AcDbSymbolTableRecord
100
AcDbBlockTableRecord
  2
_D_3
340
0
  0
BLOCK_RECORD
  5
124
330
1
100
AcDbSymbolTableRecord
100
AcDbBlockTableRecord
  2
SW_DOWELSYMBOL_0
340
0
102
{BLKREFS
331
12A
102
}
  0
BLOCK_RECORD
  5
153
330
1
100
AcDbSymbolTableRecord
100
AcDbBlockTableRecord
  2
*D7
340
0
  0
ENDTAB
  0
ENDSEC
  0
SECTION
  2
BLOCKS
  0
BLOCK
  5
20
330
1F
100
AcDbEntity
  8
0
100
AcDbBlockBegin
  2
*Model_Space
 70
     0
 10
0.0
 20
0.0
 30
0.0
  3
*Model_Space
  1
*Model_Space
  0
ENDBLK
  5
21
330
1F
100
AcDbEntity
  8
0
100
AcDbBlockEnd
  0
BLOCK
  5
1C
330
1B
100
AcDbEntity
 67
     1
  8
0
100
AcDbBlockBegin
  2
*Paper_Space
 70
     0
 10
0.0
 20
0.0
 30
0.0
  3
*Paper_Space
  1
*Paper_Space
  0
ENDBLK
  5
1D
330
1B
100
AcDbEntity
 67
     1
  8
0
100
AcDbBlockEnd
  0
BLOCK
  5
24
330
23
100
AcDbEntity
  8
0
100
AcDbBlockBegin
  2
*Paper_Space0
 70
     0
 10
0.0
 20
0.0
 30
0.0
  3
*Paper_Space0
  1
*Paper_Space0
  0
ENDBLK
  5
25
330
23
100
AcDbEntity
  8
0
100
AcDbBlockEnd
  0
BLOCK
  5
7F
330
7E
100
AcDbEntity
  8
0
100
AcDbBlockBegin
  2
블럭10
 70
     2
 10
0.0
 20
0.0
 30
0.0
  3
블럭10
  1
블럭10
  0
ELLIPSE
  5
81
330
7E
100
AcDbEntity
  8
중심선
100
AcDbEllipse
 10
20.54032771741204
 20
12.0471743016438
 30
0.0
 11
6.600054785286829
 21
-1.261213355974178E-13
 31
0.0
210
0.0
220
0.0
230
1.0
 40
0.636358354079598
 41
0.9219305317359503
 42
6.513795318482858
  0
ELLIPSE
  5
82
330
7E
100
AcDbEntity
  8
중심선
100
AcDbEllipse
 10
20.54032771746488
 20
12.04717430159265
 30
0.0
 11
3.960054785062283
 21
1.540847449632565E-10
 31
0.0
210
0.0
220
0.0
230
1.0
 40
0.3939339440162632
 41
1.131841032648279
 42
5.62031148352944
  0
LINE
  5
83
330
7E
100
AcDbEntity
  8
중심선
100
AcDbLine
 10
2.268634060543552
 20
16.24717430164393
 30
0.0
 11
5.714909304380834
 21
16.24717430164393
 31
0.0
  0
LINE
  5
84
330
7E
100
AcDbEntity
  8
중심선
100
AcDbLine
 10
5.245725140726316
 20
7.84717430164391
 30
0.0
 11
8.692000384563599
 21
7.84717430164391
 31
0.0
  0
LINE
  5
85
330
7E
100
AcDbEntity
  8
중심선
100
AcDbLine
 10
15.74043728645272
 20
16.24717430164393
 30
0.0
 11
8.692000384563599
 21
7.84717430164391
 31
0.0
  0
LINE
  5
86
330
7E
100
AcDbEntity
  8
중심선
100
AcDbLine
 10
0.1404042013395286
 20
13.71084872107135
 30
0.0
 11
3.58671253028996
 21
13.71088815037384
 31
0.0
  0
LINE
  5
87
330
7E
100
AcDbEntity
  8
중심선
100
AcDbLine
 10
2.750260043222114
 20
10.84717430164391
 30
0.0
 11
6.196535287059397
 21
10.84717430164391
 31
0.0
  0
LINE
  5
88
330
7E
100
AcDbEntity
  8
중심선
100
AcDbLine
 10
12.29416204261559
 20
16.24717430164393
 30
0.0
 11
5.245725140726316
 21
7.84717430164391
 31
0.0
  0
LINE
  5
89
330
7E
100
AcDbEntity
  8
중심선
100
AcDbLine
 10
10.72767329541681
 20
16.24717430164393
 30
0.0
 11
6.196535287059397
 21
10.84717430164391
 31
0.0
  0
LINE
  5
8A
330
7E
100
AcDbEntity
  8
중심선
100
AcDbLine
 10
7.28139805157953
 20
16.24717430164393
 30
0.0
 11
2.750260043222114
 21
10.84717430164391
 31
0.0
  0
LINE
  5
8B
330
7E
100
AcDbEntity
  8
중심선
100
AcDbLine
 10
5.714909304380834
 20
16.24717430164393
 30
0.0
 11
3.58671253028996
 21
13.71088815037384
 31
0.0
  0
LINE
  5
8C
330
7E
100
AcDbEntity
  8
중심선
100
AcDbLine
 10
2.268634060543552
 20
16.24717430164393
 30
0.0
 11
0.1404042013395286
 21
13.71084872107135
 31
0.0
  0
LINE
  5
8D
330
7E
100
AcDbEntity
  8
중심선
100
AcDbLine
 10
7.28139805157953
 20
16.24717430164393
 30
0.0
 11
10.72767329541681
 21
16.24717430164393
 31
0.0
  0
LINE
  5
8E
330
7E
100
AcDbEntity
  8
중심선
100
AcDbLine
 10
12.29416204261559
 20
16.24717430164393
 30
0.0
 11
15.74043728645272
 21
16.24717430164393
 31
0.0
  0
LINE
  5
8F
330
7E
100
AcDbEntity
  8
중심선
100
AcDbLine
 10
19.22036997980202
 20
11.08717430171403
 30
0.0
 11
23.66174974927406
 21
11.08717430171406
 31
0.0
  0
LINE
  5
90
330
7E
100
AcDbEntity
  8
중심선
100
AcDbLine
 10
19.22039502424796
 20
13.00717430171391
 30
0.0
 11
19.22036997980202
 21
11.08717430171403
 31
0.0
  0
LINE
  5
91
330
7E
100
AcDbEntity
  8
중심선
100
AcDbLine
 10
19.22039502424796
 20
13.00717430171391
 30
0.0
 11
26.96566020931264
 21
13.00717430171391
 31
0.0
  0
LINE
  5
92
330
7E
100
AcDbEntity
  8
중심선
100
AcDbLine
 10
22.22332737316547
 20
13.45928029700563
 30
0.0
 11
24.52862924686651
 21
15.39360700705356
 31
0.0
  0
ATTDEF
  5
94
330
7E
100
AcDbEntity
  8
FORMAT
 62
     2
100
AcDbText
 10
-9.18129528874128
 20
2.075366912832191
 30
0.0
 40
4.233333333333333
  1
E5977903 [ 3 FLUTE ]
 41
0.75
  7
SLDTEXTSTYLE0
 11
-9.18129528874128
 21
-0.0412997538344756
 31
0.0
100
AcDbAttributeDefinition
  3

  2
AUTOATTR0
 70
     0
 74
     1
  0
ENDBLK
  5
80
330
7E
100
AcDbEntity
  8
0
100
AcDbBlockEnd
  0
BLOCK
  5
D5
330
D4
100
AcDbEntity
  8
0
100
AcDbBlockBegin
  2
_D
 70
     0
 10
0.0
 20
0.0
 30
0.0
  3
_D
  1
_D
  0
LINE
  5
D7
330
D4
100
AcDbEntity
  8
치수문자_일반주서
 62
     0
370
    -2
100
AcDbLine
 10
-66.90450000000003
 20
7.937499999999968
 30
0.0
 11
-80.34200000000006
 21
7.937499999999918
 31
0.0
  0
LINE
  5
D8
330
D4
100
AcDbEntity
  8
치수문자_일반주서
 62
     0
370
    -2
100
AcDbLine
 10
-66.90450000000003
 20
-7.937500000000019
 30
0.0
 11
-80.342
 21
-7.937500000000068
 31
0.0
  0
LINE
  5
D9
330
D4
100
AcDbEntity
  8
치수문자_일반주서
 62
     0
370
    -2
100
AcDbLine
 10
-80.34200000000004
 20
4.635499999999919
 30
0.0
 11
-80.34200000000001
 21
-4.635500000000069
 31
0.0
  0
SOLID
  5
DA
330
D4
100
AcDbEntity
  8
치수문자_일반주서
 62
     0
100
AcDbTrace
 10
-79.79166666666671
 20
4.63549999999992
 30
0.0
 11
-80.89233333333337
 21
4.635499999999917
 31
0.0
 12
-80.34200000000006
 22
7.937499999999918
 32
0.0
 13
-80.34200000000006
 23
7.937499999999918
 33
0.0
  0
SOLID
  5
DB
330
D4
100
AcDbEntity
  8
치수문자_일반주서
 62
     0
100
AcDbTrace
 10
-80.89233333333334
 20
-4.635500000000071
 30
0.0
 11
-79.79166666666669
 21
-4.635500000000067
 31
0.0
 12
-80.342
 22
-7.937500000000068
 32
0.0
 13
-80.342
 23
-7.937500000000068
 33
0.0
  0
MTEXT
  5
DC
330
D4
100
AcDbEntity
  8
치수문자_일반주서
 62
     0
100
AcDbMText
 10
-84.71700000000003
 20
0.1752357901973905
 30
0.0
 40
3.5
 41
0.0
 71
     2
 72
     1
  1
\A1;%%c15.88 [5/8]
  7
SLDTEXTSTYLE0
 11
-3.580687802255626E-15
 21
1.0
 31
0.0
 73
     1
 44
1.0
  0
POINT
  5
DD
330
D4
100
AcDbEntity
  8
Defpoints
 62
     0
100
AcDbPoint
 10
-66.84200000000003
 20
7.937499999999968
 30
0.0
  0
POINT
  5
DE
330
D4
100
AcDbEntity
  8
Defpoints
 62
     0
100
AcDbPoint
 10
-66.84200000000003
 20
-7.937500000000019
 30
0.0
  0
POINT
  5
DF
330
D4
100
AcDbEntity
  8
Defpoints
 62
     0
100
AcDbPoint
 10
-80.342
 20
-7.937500000000069
 30
0.0
  0
ENDBLK
  5
D6
330
D4
100
AcDbEntity
  8
0
100
AcDbBlockEnd
  0
BLOCK
  5
EA
330
E9
100
AcDbEntity
  8
0
100
AcDbBlockBegin
  2
_D_1
 70
     0
 10
0.0
 20
0.0
 30
0.0
  3
_D_1
  1
_D_1
  0
LINE
  5
EC
330
E9
100
AcDbEntity
  8
치수문자_일반주서
 62
     0
370
    -2
100
AcDbLine
 10
-67.34200000000003
 20
7.499999999999973
 30
0.0
 11
-67.34200000000001
 21
45.36312537290537
 31
0.0
  0
LINE
  5
ED
330
E9
100
AcDbEntity
  8
치수문자_일반주서
 62
     0
370
    -2
100
AcDbLine
 10
85.05800000000002
 20
5.20206271898624
 30
0.0
 11
85.05800000000004
 21
45.36312537290537
 31
0.0
  0
LINE
  5
EE
330
E9
100
AcDbEntity
  8
치수문자_일반주서
 62
     0
370
    -2
100
AcDbLine
 10
-64.04000000000002
 20
45.36312537290537
 30
0.0
 11
81.75600000000003
 21
45.36312537290537
 31
0.0
  0
SOLID
  5
EF
330
E9
100
AcDbEntity
  8
치수문자_일반주서
 62
     0
100
AcDbTrace
 10
-64.04000000000002
 20
45.9134587062387
 30
0.0
 11
-64.04000000000002
 21
44.81279203957203
 31
0.0
 12
-67.34200000000001
 22
45.36312537290537
 32
0.0
 13
-67.34200000000001
 23
45.36312537290537
 33
0.0
  0
SOLID
  5
F0
330
E9
100
AcDbEntity
  8
치수문자_일반주서
 62
     0
100
AcDbTrace
 10
81.75600000000003
 20
44.81279203957203
 30
0.0
 11
81.75600000000003
 21
45.9134587062387
 31
0.0
 12
85.05800000000004
 22
45.36312537290537
 32
0.0
 13
85.05800000000004
 23
45.36312537290537
 33
0.0
  0
MTEXT
  5
F1
330
E9
100
AcDbEntity
  8
치수문자_일반주서
 62
     0
100
AcDbMText
 10
3.26130581816393
 20
49.73812537290537
 30
0.0
 40
3.5
 41
0.0
 71
     2
 72
     1
  1
\A1;152.40 [6]
  7
SLDTEXTSTYLE0
 73
     1
 44
1.0
  0
POINT
  5
F2
330
E9
100
AcDbEntity
  8
Defpoints
 62
     0
100
AcDbPoint
 10
-67.34200000000003
 20
7.437499999999973
 30
0.0
  0
POINT
  5
F3
330
E9
100
AcDbEntity
  8
Defpoints
 62
     0
100
AcDbPoint
 10
85.05800000000002
 20
5.13956271898624
 30
0.0
  0
POINT
  5
F4
330
E9
100
AcDbEntity
  8
Defpoints
 62
     0
100
AcDbPoint
 10
85.05800000000002
 20
45.36312537290537
 30
0.0
  0
ENDBLK
  5
EB
330
E9
100
AcDbEntity
  8
0
100
AcDbBlockEnd
  0
BLOCK
  5
FE
330
FD
100
AcDbEntity
  8
0
100
AcDbBlockBegin
  2
_D_2
 70
     0
 10
0.0
 20
0.0
 30
0.0
  3
_D_2
  1
_D_2
  0
LINE
  5
100
330
FD
100
AcDbEntity
  8
치수문자_일반주서
 62
     0
370
    -2
100
AcDbLine
 10
2.508000000000008
 20
7.491999999999974
 30
0.0
 11
2.50800000000001
 21
32.83626142194365
 31
0.0
  0
LINE
  5
101
330
FD
100
AcDbEntity
  8
치수문자_일반주서
 62
     0
370
    -2
100
AcDbLine
 10
85.05800000000002
 20
5.20206271898624
 30
0.0
 11
85.05800000000002
 21
32.83626142194365
 31
0.0
  0
LINE
  5
102
330
FD
100
AcDbEntity
  8
치수문자_일반주서
 62
     0
370
    -2
100
AcDbLine
 10
5.810000000000009
 20
32.83626142194365
 30
0.0
 11
81.75600000000003
 21
32.83626142194365
 31
0.0
  0
SOLID
  5
103
330
FD
100
AcDbEntity
  8
치수문자_일반주서
 62
     0
100
AcDbTrace
 10
5.810000000000009
 20
33.38659475527699
 30
0.0
 11
5.810000000000009
 21
32.28592808861032
 31
0.0
 12
2.50800000000001
 22
32.83626142194365
 32
0.0
 13
2.50800000000001
 23
32.83626142194365
 33
0.0
  0
SOLID
  5
104
330
FD
100
AcDbEntity
  8
치수문자_일반주서
 62
     0
100
AcDbTrace
 10
81.75600000000003
 20
32.28592808861032
 30
0.0
 11
81.75600000000003
 21
33.38659475527699
 31
0.0
 12
85.05800000000002
 22
32.83626142194365
 32
0.0
 13
85.05800000000002
 23
32.83626142194365
 33
0.0
  0
MTEXT
  5
105
330
FD
100
AcDbEntity
  8
치수문자_일반주서
 62
     0
100
AcDbMText
 10
42.77696863004562
 20
37.21126142194365
 30
0.0
 40
3.5
 41
0.0
 71
     2
 72
     1
  1
\A1;82.55 [3 1/4]
  7
SLDTEXTSTYLE0
 73
     1
 44
1.0
  0
POINT
  5
106
330
FD
100
AcDbEntity
  8
Defpoints
 62
     0
100
AcDbPoint
 10
2.508000000000008
 20
7.429499999999974
 30
0.0
  0
POINT
  5
107
330
FD
100
AcDbEntity
  8
Defpoints
 62
     0
100
AcDbPoint
 10
85.05800000000002
 20
5.13956271898624
 30
0.0
  0
POINT
  5
108
330
FD
100
AcDbEntity
  8
Defpoints
 62
     0
100
AcDbPoint
 10
85.05800000000002
 20
32.83626142194365
 30
0.0
  0
ENDBLK
  5
FF
330
FD
100
AcDbEntity
  8
0
100
AcDbBlockEnd
  0
BLOCK
  5
111
330
110
100
AcDbEntity
  8
0
100
AcDbBlockBegin
  2
_D_3
 70
     0
 10
0.0
 20
0.0
 30
0.0
  3
_D_3
  1
_D_3
  0
LINE
  5
113
330
110
100
AcDbEntity
  8
치수문자_일반주서
 62
     0
370
    -2
100
AcDbLine
 10
66.00800000000001
 20
7.780180084663556
 30
0.0
 11
66.00800000000001
 21
17.90749175857797
 31
0.0
  0
LINE
  5
114
330
110
100
AcDbEntity
  8
치수문자_일반주서
 62
     0
370
    -2
100
AcDbLine
 10
85.05800000000002
 20
5.20206271898624
 30
0.0
 11
85.05800000000002
 21
17.90749175857797
 31
0.0
  0
LINE
  5
115
330
110
100
AcDbEntity
  8
치수문자_일반주서
 62
     0
370
    -2
100
AcDbLine
 10
69.31
 20
17.90749175857797
 30
0.0
 11
81.75600000000003
 21
17.90749175857797
 31
0.0
  0
SOLID
  5
116
330
110
100
AcDbEntity
  8
치수문자_일반주서
 62
     0
100
AcDbTrace
 10
69.31
 20
18.4578250919113
 30
0.0
 11
69.31
 21
17.35715842524463
 31
0.0
 12
66.00800000000001
 22
17.90749175857797
 32
0.0
 13
66.00800000000001
 23
17.90749175857797
 33
0.0
  0
SOLID
  5
117
330
110
100
AcDbEntity
  8
치수문자_일반주서
 62
     0
100
AcDbTrace
 10
81.75600000000003
 20
17.35715842524463
 30
0.0
 11
81.75600000000003
 21
18.4578250919113
 31
0.0
 12
85.05800000000002
 22
17.90749175857797
 32
0.0
 13
85.05800000000002
 23
17.90749175857797
 33
0.0
  0
MTEXT
  5
118
330
110
100
AcDbEntity
  8
치수문자_일반주서
 62
     0
100
AcDbMText
 10
76.40383218567838
 20
22.28249175857797
 30
0.0
 40
3.5
 41
0.0
 71
     2
 72
     1
  1
\A1;19.05 [3/4]
  7
SLDTEXTSTYLE0
 73
     1
 44
1.0
  0
POINT
  5
119
330
110
100
AcDbEntity
  8
Defpoints
 62
     0
100
AcDbPoint
 10
66.00800000000001
 20
7.717680084663556
 30
0.0
  0
POINT
  5
11A
330
110
100
AcDbEntity
  8
Defpoints
 62
     0
100
AcDbPoint
 10
85.05800000000002
 20
5.13956271898624
 30
0.0
  0
POINT
  5
11B
330
110
100
AcDbEntity
  8
Defpoints
 62
     0
100
AcDbPoint
 10
85.05800000000002
 20
17.90749175857797
 30
0.0
  0
ENDBLK
  5
112
330
110
100
AcDbEntity
  8
0
100
AcDbBlockEnd
  0
BLOCK
  5
125
330
124
100
AcDbEntity
  8
0
100
AcDbBlockBegin
  2
SW_DOWELSYMBOL_0
 70
     0
 10
0.0
 20
0.0
 30
0.0
  3
SW_DOWELSYMBOL_0
  1
SW_DOWELSYMBOL_0
  0
CIRCLE
  5
127
330
124
100
AcDbEntity
  8
외형선
 62
     0
100
AcDbCircle
 10
0.0
 20
0.0
 30
0.0
 40
2.999999999999994
  0
HATCH
  5
128
330
124
100
AcDbEntity
  8
0
  6
Continuous
 62
     0
370
    30
100
AcDbHatch
 10
0.0
 20
0.0
 30
0.0
210
0.0
220
0.0
230
1.0
  2
SOLID
 70
     1
 71
     0
 91
        1
 92
        0
 93
        3
 72
     2
 10
0.0
 20
0.0
 40
2.999999999999994
 50
0.0
 51
90.0
 73
     1
 72
     1
 10
0.0
 20
2.999999999999994
 11
0.0
 21
0.0
 72
     1
 10
0.0
 20
0.0
 11
2.999999999999996
 21
0.0
 97
        0
 75
     0
 76
     1
 98
        1
 10
0.0
 20
0.0
  0
HATCH
  5
129
330
124
100
AcDbEntity
  8
0
  6
Continuous
 62
     0
370
    30
100
AcDbHatch
 10
0.0
 20
0.0
 30
0.0
210
0.0
220
0.0
230
1.0
  2
SOLID
 70
     1
 71
     0
 91
        1
 92
        0
 93
        3
 72
     2
 10
0.0
 20
0.0
 40
2.999999999999994
 50
180.0
 51
270.0000000000008
 73
     1
 72
     1
 10
0.0
 20
-2.999999999999994
 11
0.0
 21
0.0
 72
     1
 10
0.0
 20
0.0
 11
-2.999999999999996
 21
0.0
 97
        0
 75
     0
 76
     1
 98
        1
 10
0.0
 20
0.0
  0
ENDBLK
  5
126
330
124
100
AcDbEntity
  8
0
100
AcDbBlockEnd
  0
BLOCK
  5
154
330
153
100
AcDbEntity
  8
0
100
AcDbBlockBegin
  2
*D7
 70
     1
 10
0.0
 20
0.0
 30
0.0
  3
*D7
  1
*D7
  0
LINE
  5
156
330
153
100
AcDbEntity
  8
치수문자_일반주서
 62
     0
370
    -2
100
AcDbLine
 10
85.12050000000002
 20
7.937499999999991
 30
0.0
 11
105.3479681770603
 21
7.937499999999989
 31
0.0
  0
LINE
  5
157
330
153
100
AcDbEntity
  8
치수문자_일반주서
 62
     0
370
    -2
100
AcDbLine
 10
74.6164162906356
 20
-7.937500000000013
 30
0.0
 11
105.3479681770603
 21
-7.937500000000011
 31
0.0
  0
LINE
  5
158
330
153
100
AcDbEntity
  8
치수문자_일반주서
 62
     0
370
    -2
100
AcDbLine
 10
105.3479681770603
 20
7.937499999999989
 30
0.0
 11
105.3479681770603
 21
42.76024999999998
 31
0.0
  0
LINE
  5
159
330
153
100
AcDbEntity
  8
치수문자_일반주서
 62
     0
370
    -2
100
AcDbLine
 10
105.3479681770603
 20
7.937499999999989
 30
0.0
 11
105.3479681770603
 21
-7.937500000000011
 31
0.0
  0
LINE
  5
15A
330
153
100
AcDbEntity
  8
치수문자_일반주서
 62
     0
370
    -2
100
AcDbLine
 10
105.3479681770603
 20
11.23949999999999
 30
0.0
 11
105.3479681770603
 21
14.54149999999999
 31
0.0
  0
LINE
  5
15B
330
153
100
AcDbEntity
  8
치수문자_일반주서
 62
     0
370
    -2
100
AcDbLine
 10
105.3479681770603
 20
-11.23950000000001
 30
0.0
 11
105.3479681770603
 21
-14.54150000000001
 31
0.0
  0
SOLID
  5
15C
330
153
100
AcDbEntity
  8
치수문자_일반주서
 62
     0
100
AcDbTrace
 10
104.797634843727
 20
11.23949999999999
 30
0.0
 11
105.8983015103936
 21
11.23949999999999
 31
0.0
 12
105.3479681770603
 22
7.937499999999989
 32
0.0
 13
105.3479681770603
 23
7.937499999999989
 33
0.0
  0
SOLID
  5
15D
330
153
100
AcDbEntity
  8
치수문자_일반주서
 62
     0
100
AcDbTrace
 10
105.8983015103936
 20
-11.23950000000001
 30
0.0
 11
104.797634843727
 21
-11.23950000000001
 31
0.0
 12
105.3479681770603
 22
-7.937500000000011
 32
0.0
 13
105.3479681770603
 23
-7.937500000000011
 33
0.0
  0
MTEXT
  5
15E
330
153
100
AcDbEntity
  8
치수문자_일반주서
 62
     0
100
AcDbMText
 10
102.7229681770603
 20
28.76024999999999
 30
0.0
 40
3.5
 41
0.0
 71
     5
 72
     1
  1
\A1;{%%c15.88 [5/8]}
  7
SLDTEXTSTYLE0
 11
0.0
 21
1.0
 31
0.0
 73
     1
 44
1.0
  0
POINT
  5
15F
330
153
100
AcDbEntity
  8
Defpoints
 62
     0
100
AcDbPoint
 10
85.05800000000002
 20
7.937499999999991
 30
0.0
  0
POINT
  5
160
330
153
100
AcDbEntity
  8
Defpoints
 62
     0
100
AcDbPoint
 10
74.5539162906356
 20
-7.937500000000013
 30
0.0
  0
POINT
  5
162
330
153
100
AcDbEntity
  8
Defpoints
 62
     0
100
AcDbPoint
 10
105.3479681770603
 20
-7.937500000000015
 30
0.0
  0
ENDBLK
  5
155
330
153
100
AcDbEntity
  8
0
100
AcDbBlockEnd
  0
ENDSEC
  0
SECTION
  2
ENTITIES
  0
LINE
  5
95
330
1F
100
AcDbEntity
  8
0
  6
Continuous
 62
     4
370
    15
100
AcDbLine
 10
2.0
 20
7.937499999999989
 30
0.0
 11
-66.84200000000003
 21
7.937499999999968
 31
0.0
  0
LINE
  5
96
330
1F
100
AcDbEntity
  8
0
  6
Continuous
 62
     4
370
    15
100
AcDbLine
 10
-66.84200000000003
 20
-7.937500000000019
 30
0.0
 11
2.0
 21
-7.937499999999997
 31
0.0
  0
LINE
  5
97
330
1F
100
AcDbEntity
  8
0
  6
Continuous
 62
     4
370
    15
100
AcDbLine
 10
-66.84200000000003
 20
7.937499999999972
 30
0.0
 11
-67.34200000000003
 21
7.437499999999972
 31
0.0
  0
LINE
  5
98
330
1F
100
AcDbEntity
  8
0
  6
Continuous
 62
     4
370
    15
100
AcDbLine
 10
-67.34200000000003
 20
-7.437500000000026
 30
0.0
 11
-66.84200000000003
 21
-7.937500000000026
 31
0.0
  0
LINE
  5
99
330
1F
100
AcDbEntity
  8
0
  6
Continuous
 62
     4
370
    15
100
AcDbLine
 10
2.0
 20
-7.937499999999988
 30
0.0
 11
2.508000000000008
 21
-7.429499999999981
 31
0.0
  0
LINE
  5
9A
330
1F
100
AcDbEntity
  8
0
  6
Continuous
 62
     4
370
    15
100
AcDbLine
 10
2.508000000000008
 20
7.429499999999976
 30
0.0
 11
2.0
 21
7.937499999999986
 31
0.0
  0
LINE
  5
9B
330
1F
100
AcDbEntity
  8
0
  6
Continuous
 62
     4
370
    15
100
AcDbLine
 10
66.00800000000001
 20
7.42949999999999
 30
0.0
 11
2.508000000000008
 21
7.429499999999972
 31
0.0
  0
LINE
  5
9C
330
1F
100
AcDbEntity
  8
0
  6
Continuous
 62
     4
370
    15
100
AcDbLine
 10
2.508000000000008
 20
-7.429499999999981
 30
0.0
 11
62.95805283632647
 21
-7.429499999999964
 31
0.0
  0
LINE
  5
9D
330
1F
100
AcDbEntity
  8
0
  6
Continuous
 62
     1
370
    15
100
AcDbLine
 10
67.51875671726529
 20
7.373093810340107
 30
0.0
 11
67.51875616392189
 21
7.373327993557016
 31
0.0
  0
LINE
  5
9E
102
{ACAD_REACTORS
102
}
330
1F
100
AcDbEntity
  8
0
  6
Continuous
 62
     1
370
    15
100
AcDbLine
 10
73.36642945246544
 20
-7.937500000000013
 30
0.0
 11
74.5539162906356
 21
-7.937500000000013
 31
0.0
  0
LINE
  5
9F
330
1F
100
AcDbEntity
  8
0
  6
Continuous
 62
     1
370
    15
100
AcDbLine
 10
85.05800000000002
 20
7.937499999999991
 30
0.0
 11
84.39837846891824
 21
7.937499999999991
 31
0.0
  0
LINE
  5
A0
330
1F
100
AcDbEntity
  8
0
  6
Continuous
 62
     4
370
    15
100
AcDbLine
 10
2.0
 20
7.937499999999982
 30
0.0
 11
2.0
 21
-7.937499999999982
 31
0.0
  0
LINE
  5
A1
330
1F
100
AcDbEntity
  8
0
  6
Continuous
 62
     4
370
    15
100
AcDbLine
 10
-66.84200000000003
 20
7.937499999999973
 30
0.0
 11
-66.84200000000003
 21
-7.937500000000019
 31
0.0
  0
LINE
  5
A2
330
1F
100
AcDbEntity
  8
0
  6
Continuous
 62
     4
370
    15
100
AcDbLine
 10
-67.34200000000003
 20
7.437499999999973
 30
0.0
 11
-67.34200000000003
 21
-7.437500000000028
 31
0.0
  0
LINE
  5
A3
330
1F
100
AcDbEntity
  8
0
  6
Continuous
 62
     4
370
    15
100
AcDbLine
 10
2.508000000000008
 20
7.429499999999974
 30
0.0
 11
2.508000000000008
 21
-7.429499999999988
 31
0.0
  0
SPLINE
  5
A4
330
1F
100
AcDbEntity
  8
0
  6
Continuous
 62
     4
370
    15
100
AcDbSpline
210
0.0
220
0.0
230
1.0
 70
     8
 71
     3
 72
     8
 73
     4
 74
     0
 42
0.000000001
 43
0.00000001
 40
0.0
 40
0.0
 40
0.0
 40
0.0
 40
1.0
 40
1.0
 40
1.0
 40
1.0
 10
66.00800000000166
 20
-3.673719274953953
 30
0.0
 10
65.97458280892545
 20
-3.653261688138184
 30
0.0
 10
65.94117234751843
 20
-3.63275016917724
 30
0.0
 10
65.90777087562601
 20
-3.612186132753824
 30
0.0
  0
LINE
  5
A5
330
1F
100
AcDbEntity
  8
0
  6
Continuous
 62
     4
370
    15
100
AcDbLine
 10
65.90784860774869
 20
-1.618603327607401
 30
0.0
 11
65.90778896301683
 21
-3.612186133612316
 31
0.0
  0
SPLINE
  5
A6
330
1F
100
AcDbEntity
  8
0
  6
Continuous
 62
     1
370
    15
100
AcDbSpline
210
0.0
220
0.0
230
1.0
 70
     8
 71
     3
 72
     8
 73
     4
 74
     0
 42
0.000000001
 43
0.00000001
 40
0.0
 40
0.0
 40
0.0
 40
0.0
 40
1.0
 40
1.0
 40
1.0
 40
1.0
 10
65.90777087562601
 20
-1.618603323917964
 30
0.0
 10
65.94117234751845
 20
-1.641570737068895
 30
0.0
 10
65.97458280892548
 20
-1.664515850915761
 30
0.0
 10
66.0080000000017
 20
-1.687437100080307
 30
0.0
  0
LINE
  5
A7
330
1F
100
AcDbEntity
  8
0
  6
Continuous
 62
     4
370
    15
100
AcDbLine
 10
66.00800000000001
 20
-1.687437100079232
 30
0.0
 11
66.00800000000001
 21
-3.673719274978501
 31
0.0
  0
ELLIPSE
  5
A8
330
1F
100
AcDbEntity
  8
0
  6
Continuous
 62
     4
370
    15
100
AcDbEllipse
 10
65.90825969009121
 20
-0.000000000000024
 30
0.0
 11
0.0003526301300667001
 21
7.429499999999975
 31
0.0
210
0.0
220
0.0
230
1.0
 40
0.0000460978991664
 41
1.790419314951381
 42
2.078526545850421
  0
SPLINE
  5
A9
330
1F
100
AcDbEntity
  8
0
  6
Continuous
 62
     4
370
    15
100
AcDbSpline
210
0.0
220
0.0
230
1.0
 70
     8
 71
     3
 72
    10
 73
     6
 74
     0
 42
0.000000001
 43
0.00000001
 40
0.0
 40
0.0
 40
0.0
 40
0.0
 40
0.5
 40
0.5
 40
1.0
 40
1.0
 40
1.0
 40
1.0
 10
66.00800000000001
 20
-1.565911970970812
 30
0.0
 10
65.49842399292571
 20
-1.215070346373683
 30
0.0
 10
64.99360295363189
 20
-0.8598513247356478
 30
0.0
 10
63.97485535310663
 20
-0.1437770396429766
 30
0.0
 10
63.46404110100632
 20
0.2163526977759531
 30
0.0
 10
62.95805283632647
 20
0.5733455093550721
 30
0.0
  0
SPLINE
  5
AA
330
1F
100
AcDbEntity
  8
0
  6
Continuous
 62
     4
370
    15
100
AcDbSpline
210
0.0
220
0.0
230
1.0
 70
     8
 71
     3
 72
    10
 73
     6
 74
     0
 42
0.000000001
 43
0.00000001
 40
0.0
 40
0.0
 40
0.0
 40
0.0
 40
0.5
 40
0.5
 40
1.0
 40
1.0
 40
1.0
 40
1.0
 10
66.00800000000001
 20
6.95464584776026
 30
0.0
 10
65.4984239929257
 20
7.080898647767523
 30
0.0
 10
64.99360295363189
 20
7.182470367721761
 30
0.0
 10
63.97485535310662
 20
7.335380472474949
 30
0.0
 10
63.46404110100632
 20
7.386389146849927
 30
0.0
 10
62.95805283632647
 20
7.411380844983345
 30
0.0
  0
SPLINE
  5
AB
330
1F
100
AcDbEntity
  8
0
  6
Continuous
 62
     4
370
    15
100
AcDbSpline
210
0.0
220
0.0
230
1.0
 70
    24
 71
     3
 72
    18
 73
    14
 74
     0
 42
0.000000001
 43
0.00000001
 40
0.0
 40
0.0
 40
0.0
 40
0.0
 40
0.25
 40
0.25
 40
0.5
 40
0.5
 40
0.625
 40
0.625
 40
0.75
 40
0.75
 40
0.875
 40
0.875
 40
1.0
 40
1.0
 40
1.0
 40
1.0
 10
66.00800000000001
 20
6.95464584776019
 30
0.0
 10
66.00800000000001
 20
6.353784479916657
 30
0.0
 10
66.00800000000001
 20
5.678751036922839
 30
0.0
 10
66.00800000000001
 20
4.203474791273066
 30
0.0
 10
66.00800000000001
 20
3.401783779762256
 30
0.0
 10
66.00800000000001
 20
2.183419454330953
 30
0.0
 10
66.00800000000001
 20
1.775502395844317
 30
0.0
 10
66.00800000000001
 20
0.9792031398913374
 30
0.0
 10
66.00800000000001
 20
0.590926993325184
 30
0.0
 10
66.00800000000001
 20
-0.1382528520221996
 30
0.0
 10
66.00800000000001
 20
-0.4789768280488623
 30
0.0
 10
66.00800000000001
 20
-1.084906306505848
 30
0.0
 10
66.00800000000001
 20
-1.349910097085913
 30
0.0
 10
66.00800000000001
 20
-1.565911970970821
 30
0.0
  0
SPLINE
  5
AC
330
1F
100
AcDbEntity
  8
0
  6
Continuous
 62
     4
370
    15
100
AcDbSpline
210
0.0
220
0.0
230
1.0
 70
     8
 71
     3
 72
    10
 73
     6
 74
     0
 42
0.000000001
 43
0.00000001
 40
0.0
 40
0.0
 40
0.0
 40
0.0
 40
0.5
 40
0.5
 40
1.0
 40
1.0
 40
1.0
 40
1.0
 10
66.00800000000001
 20
-5.740678516064754
 30
0.0
 10
65.49842399292571
 20
-5.512850796539893
 30
0.0
 10
64.99360295363189
 20
-5.265683099596695
 30
0.0
 10
63.97485535310663
 20
-4.734850605131345
 30
0.0
 10
63.46404110100633
 20
-4.451613827502987
 30
0.0
 10
62.95805283632647
 20
-4.154776344627379
 30
0.0
  0
LINE
  5
AD
330
1F
100
AcDbEntity
  8
0
  6
Continuous
 62
     4
370
    15
100
AcDbLine
 10
62.95805283632647
 20
-4.15477598917227
 30
0.0
 11
62.95805283632647
 21
-7.429499999999964
 31
0.0
  0
SPLINE
  5
AE
330
1F
100
AcDbEntity
  8
0
  6
Continuous
 62
     4
370
    15
100
AcDbSpline
210
0.0
220
0.0
230
1.0
 70
     8
 71
     3
 72
     9
 73
     5
 74
     0
 42
0.000000001
 43
0.00000001
 40
0.0
 40
0.0
 40
0.0
 40
0.0
 40
0.5192797299372727
 40
1.0
 40
1.0
 40
1.0
 40
1.0
 10
65.75109300453259
 20
-5.616941309618912
 30
0.0
 10
65.26766610683305
 20
-5.835195583322433
 30
0.0
 10
64.33670949553238
 20
-6.255497515250116
 30
0.0
 10
63.40563784946955
 20
-6.556785563712536
 30
0.0
 10
62.95805283632647
 20
-6.701620835736064
 30
0.0
  0
LINE
  5
AF
330
1F
100
AcDbEntity
  8
0
  6
Continuous
 62
     1
370
    15
100
AcDbLine
 10
66.00800000000001
 20
-1.56591197097082
 30
0.0
 11
66.00800000000001
 21
-1.687437100079232
 31
0.0
  0
LINE
  5
B0
330
1F
100
AcDbEntity
  8
0
  6
Continuous
 62
     4
370
    15
100
AcDbLine
 10
62.95805283632647
 20
7.411380874910192
 30
0.0
 11
62.95805283632647
 21
0.5733419517005158
 31
0.0
  0
SPLINE
  5
B1
330
1F
100
AcDbEntity
  8
0
  6
Continuous
 62
     1
370
    15
100
AcDbSpline
210
0.0
220
0.0
230
1.0
 70
     8
 71
     3
 72
    19
 73
    15
 74
     0
 42
0.000000001
 43
0.00000001
 40
0.0
 40
0.0
 40
0.0
 40
0.0
 40
0.070634989747595
 40
0.150863481303355
 40
0.2310916539370697
 40
0.3094911768122571
 40
0.3878907358828925
 40
0.4681246522649388
 40
0.5483588569096304
 40
0.6352769134394873
 40
0.7221947518477462
 40
0.811624670825612
 40
0.9010545980739143
 40
1.0
 40
1.0
 40
1.0
 40
1.0
 10
67.51926557169114
 20
7.338273971228633
 30
0.0
 10
67.93221896832019
 20
7.379444059114736
 30
0.0
 10
68.81421225881435
 20
7.467375873166905
 30
0.0
 10
70.16588314403523
 20
7.44177233655507
 30
0.0
 10
71.56166236969423
 20
7.296163855809739
 30
0.0
 10
72.94710041094935
 20
7.021108955257637
 30
0.0
 10
74.33270139703876
 20
6.627266442844761
 30
0.0
 10
75.7286304712566
 20
6.113030152310107
 30
0.0
 10
77.1754479838371
 20
5.470339678958568
 30
0.0
 10
78.6613018216387
 20
4.70183357735209
 30
0.0
 10
80.20034098813905
 20
3.806666366937943
 30
0.0
 10
81.75393568727947
 20
2.819136317872006
 30
0.0
 10
83.37767008415437
 20
1.723671995075356
 30
0.0
 10
84.47934033191768
 20
0.9499658200276531
 30
0.0
 10
85.05800000000002
 20
0.5435714752994265
 30
0.0
  0
LINE
  5
B2
330
1F
100
AcDbEntity
  8
0
  6
Continuous
 62
     1
370
    15
100
AcDbLine
 10
85.05800000000002
 20
-3.620082125905352
 30
0.0
 11
85.05800000000002
 21
0.5435714752994139
 31
0.0
  0
SPLINE
  5
B3
330
1F
100
AcDbEntity
  8
0
  6
Continuous
 62
     1
370
    15
100
AcDbSpline
210
0.0
220
0.0
230
1.0
 70
     8
 71
     3
 72
    31
 73
    27
 74
     0
 42
0.000000001
 43
0.00000001
 40
0.0
 40
0.0
 40
0.0
 40
0.0
 40
0.0153930142203402
 40
0.0362334271691268
 40
0.0625210699405098
 40
0.0903793796430179
 40
0.1249919072026855
 40
0.187549614012187
 40
0.249979631606258
 40
0.2618694133865064
 40
0.3808913274251141
 40
0.4998711494924147
 40
0.5311847618961378
 40
0.56246155376393
 40
0.5936345944651702
 40
0.6249056051476509
 40
0.6874555143735587
 40
0.7499257350363864
 40
0.7856478764515532
 40
0.8124341572705414
 40
0.8371228932397513
 40
0.874964248087245
 40
0.9004461499130615
 40
0.9374272261057996
 40
0.9582856503086239
 40
1.0
 40
1.0
 40
1.0
 40
1.0
 10
85.05800000000002
 20
-3.620082125905354
 30
0.0
 10
84.9603611323402
 20
-3.554172051776226
 30
0.0
 10
84.73053020062095
 20
-3.399027137564829
 30
0.0
 10
84.3335393375762
 20
-3.126559800083711
 30
0.0
 10
83.85718080483949
 20
-2.794344698674194
 30
0.0
 10
83.29350614487942
 20
-2.393447090361031
 30
0.0
 10
82.50052309900694
 20
-1.817140214376152
 30
0.0
 10
81.48600514459176
 20
-1.06756768057006
 30
0.0
 10
80.61764631589583
 20
-0.412378597174502
 30
0.0
 10
79.39024992730074
 20
0.5124545168309662
 30
0.0
 10
77.80156998886561
 20
1.708398063808437
 30
0.0
 10
76.09127240913026
 20
2.939621583539879
 30
0.0
 10
74.93780339215505
 20
3.717628098279668
 30
0.0
 10
74.34219546031309
 20
4.107740068614488
 30
0.0
 10
73.74808867761084
 20
4.485910115911362
 30
0.0
 10
72.95415249994775
 20
4.969369177746535
 30
0.0
 10
71.96131037476295
 20
5.535517669700951
 30
0.0
 10
70.94128454337049
 20
6.058109466707004
 30
0.0
 10
70.14714763391947
 20
6.422319525022494
 30
0.0
 10
69.59400080506464
 20
6.658017927595153
 30
0.0
 10
69.02726081951809
 20
6.88257156723583
 30
0.0
 10
68.46800673437988
 20
7.082816609925323
 30
0.0
 10
67.83113000271227
 20
7.286848018701134
 30
0.0
 10
67.30259457155584
 20
7.435545900927236
 30
0.0
 10
66.67047817261931
 20
7.591095109677674
 30
0.0
 10
66.27298809445894
 20
7.667046701263141
 30
0.0
 10
66.00800000000001
 20
7.717680084663558
 30
0.0
  0
SPLINE
  5
B4
330
1F
100
AcDbEntity
  8
0
  6
Continuous
 62
     1
370
    15
100
AcDbSpline
210
0.0
220
0.0
230
1.0
 70
     8
 71
     3
 72
    36
 73
    32
 74
     0
 42
0.000000001
 43
0.00000001
 40
0.0
 40
0.0
 40
0.0
 40
0.0
 40
0.0624999999999999
 40
0.0624999999999999
 40
0.1249999999999999
 40
0.1249999999999999
 40
0.2499999999999998
 40
0.2499999999999998
 40
0.3124999999999999
 40
0.3124999999999999
 40
0.3749999999999999
 40
0.3749999999999999
 40
0.4374999999999999
 40
0.4374999999999999
 40
0.4999999999999999
 40
0.4999999999999999
 40
0.5624999999999999
 40
0.5624999999999999
 40
0.6249999999999999
 40
0.6249999999999999
 40
0.6875
 40
0.6875
 40
0.75
 40
0.75
 40
0.8125
 40
0.8125
 40
0.875
 40
0.875
 40
0.9375
 40
0.9375
 40
1.0
 40
1.0
 40
1.0
 40
1.0
 10
66.00799999999995
 20
-1.573495397051813
 30
0.0
 10
66.40571115667359
 20
-1.847972193667806
 30
0.0
 10
66.80437243316942
 20
-2.119298890629021
 30
0.0
 10
67.59598274724814
 20
-2.650507325188343
 30
0.0
 10
67.99167184596399
 20
-2.911019089845587
 30
0.0
 10
69.1853987564579
 20
-3.673729843750612
 30
0.0
 10
69.97532905053788
 20
-4.153905986506897
 30
0.0
 10
71.16915420124465
 20
-4.816963119698579
 30
0.0
 10
71.56555663582694
 20
-5.027884205102905
 30
0.0
 10
72.35647693950766
 20
-5.427182680688569
 30
0.0
 10
72.75501282920332
 20
-5.616208160108477
 30
0.0
 10
73.55063153240968
 20
-5.96926177785909
 30
0.0
 10
73.94546100727642
 20
-6.13301044383134
 30
0.0
 10
74.73802314788537
 20
-6.434178751379855
 30
0.0
 10
75.13682505478849
 20
-6.571672094365027
 30
0.0
 10
75.93184916934594
 20
-6.817763167652723
 30
0.0
 10
76.32585440979526
 20
-6.926212641363755
 30
0.0
 10
77.1197327445791
 20
-7.113750160531179
 30
0.0
 10
77.5186343709484
 20
-7.192675663585065
 30
0.0
 10
78.31273486035579
 20
-7.319322473122063
 30
0.0
 10
78.70666572657004
 20
-7.367066305955429
 30
0.0
 10
79.50153280004717
 20
-7.431286183386292
 30
0.0
 10
79.90036770906518
 20
-7.447613375087555
 30
0.0
 10
80.69321681151567
 20
-7.448470307830017
 30
0.0
 10
81.08782326611362
 20
-7.433078216203238
 30
0.0
 10
81.88335025864299
 20
-7.370614239383338
 30
0.0
 10
82.28195210654593
 20
-7.323526096616312
 30
0.0
 10
83.07322378438164
 20
-7.198704264161111
 30
0.0
 10
83.46925485967488
 20
-7.120839866650936
 30
0.0
 10
84.26511203997228
 20
-6.934825466781189
 30
0.0
 10
84.66331480790691
 20
-6.826759633099841
 30
0.0
 10
85.05800000000002
 20
-6.704785820095816
 30
0.0
  0
SPLINE
  5
B5
330
1F
100
AcDbEntity
  8
0
  6
Continuous
 62
     1
370
    15
100
AcDbSpline
210
0.0
220
0.0
230
1.0
 70
     8
 71
     3
 72
    36
 73
    32
 74
     0
 42
0.000000001
 43
0.00000001
 40
0.0
 40
0.0
 40
0.0
 40
0.0
 40
0.1177812865777216
 40
0.2446735504740288
 40
0.2976051417542271
 40
0.3505124731715808
 40
0.3957605131532229
 40
0.4654895261347399
 40
0.5017679888996939
 40
0.5253810386769459
 40
0.5574334263961374
 40
0.5907922365243771
 40
0.6223271286709668
 40
0.6597924522443737
 40
0.6912596921248036
 40
0.7167287221006484
 40
0.7292590171308845
 40
0.7449677786079639
 40
0.7638549916490958
 40
0.7859206348641042
 40
0.81116468156215
 40
0.8220626631946558
 40
0.8348904427054128
 40
0.8496480156199113
 40
0.8663353759035138
 40
0.884952516216843
 40
0.9054994280512481
 40
0.9173121000925437
 40
0.9369998672225368
 40
0.9645625738792664
 40
1.0
 40
1.0
 40
1.0
 40
1.0
 10
78.62059860743145
 20
-7.343860235137453
 30
0.0
 10
78.12530441489534
 20
-7.47423714761117
 30
0.0
 10
77.09640252276832
 20
-7.745076285148831
 30
0.0
 10
75.84540297512197
 20
-7.893139556576868
 30
0.0
 10
74.86666769884616
 20
-7.939475087932657
 30
0.0
 10
74.23087050945566
 20
-7.938348384110673
 30
0.0
 10
73.52645630353727
 20
-7.905966120746412
 30
0.0
 10
72.88966954184284
 20
-7.844017388625812
 30
0.0
 10
72.34462411694687
 20
-7.765271261318339
 30
0.0
 10
71.95812712669803
 20
-7.699169806236462
 30
0.0
 10
71.58424738124123
 20
-7.625915338957111
 30
0.0
 10
71.17676474514299
 20
-7.53467868089329
 30
0.0
 10
70.74628308410976
 20
-7.426512011014142
 30
0.0
 10
70.3236753842234
 20
-7.308091882013684
 30
0.0
 10
69.92679538800459
 20
-7.185385582519759
 30
0.0
 10
69.6350091590948
 20
-7.088150640182318
 30
0.0
 10
69.40944569638658
 20
-7.009498372307805
 30
0.0
 10
69.21136834112227
 20
-6.938346146107838
 30
0.0
 10
68.97314757579909
 20
-6.849587765312307
 30
0.0
 10
68.69476854282323
 20
-6.74150275291721
 30
0.0
 10
68.44991388338536
 20
-6.642080245894677
 30
0.0
 10
68.24395967084115
 20
-6.555619958286131
 30
0.0
 10
68.08217533478972
 20
-6.486194379731628
 30
0.0
 10
67.8960897352013
 20
-6.404402170070132
 30
0.0
 10
67.68571337769703
 20
-6.309467767408652
 30
0.0
 10
67.45102672122773
 20
-6.200563900549531
 30
0.0
 10
67.23690104451592
 20
-6.098128175099471
 30
0.0
 10
67.0181360929815
 20
-5.991228106651291
 30
0.0
 10
66.76977056433732
 20
-5.867269088743299
 30
0.0
 10
66.42202898211468
 20
-5.688749186441953
 30
0.0
 10
66.15705003364322
 20
-5.545796602376273
 30
0.0
 10
66.00800000000001
 20
-5.465386110949379
 30
0.0
  0
LINE
  5
B6
330
1F
100
AcDbEntity
  8
0
  6
Continuous
 62
     4
370
    15
100
AcDbLine
 10
66.00800000000001
 20
-1.573495397052009
 30
0.0
 11
66.00800000000001
 21
-5.465386110949376
 31
0.0
  0
SPLINE
  5
B7
330
1F
100
AcDbEntity
  8
0
  6
Continuous
 62
     1
370
    15
100
AcDbSpline
210
0.0
220
0.0
230
1.0
 70
     8
 71
     3
 72
    36
 73
    32
 74
     0
 42
0.000000001
 43
0.00000001
 40
0.0
 40
0.0
 40
0.0
 40
0.0
 40
0.0624999999999997
 40
0.0624999999999997
 40
0.1249999999999995
 40
0.1249999999999995
 40
0.1874999999999992
 40
0.1874999999999992
 40
0.2499999999999989
 40
0.2499999999999989
 40
0.312499999999999
 40
0.312499999999999
 40
0.3749999999999991
 40
0.3749999999999991
 40
0.4374999999999992
 40
0.4374999999999992
 40
0.4999999999999992
 40
0.4999999999999992
 40
0.5624999999999993
 40
0.5624999999999993
 40
0.6249999999999993
 40
0.6249999999999993
 40
0.6874999999999994
 40
0.6874999999999994
 40
0.7499999999999994
 40
0.7499999999999994
 40
0.8749999999999998
 40
0.8749999999999998
 40
0.9374999999999999
 40
0.9374999999999999
 40
1.0
 40
1.0
 40
1.0
 40
1.0
 10
85.05800000000002
 20
-4.391435072996245
 30
0.0
 10
84.66331480790693
 20
-4.142773185572752
 30
0.0
 10
84.2651120399723
 20
-3.884028049595827
 30
0.0
 10
83.46925485967488
 20
-3.351171281011838
 30
0.0
 10
83.07322378438164
 20
-3.077450608411288
 30
0.0
 10
82.28195210654593
 20
-2.518304787577035
 30
0.0
 10
81.88335025864299
 20
-2.232070821116191
 30
0.0
 10
81.08782326611362
 20
-1.651696014243463
 30
0.0
 10
80.6932168115157
 20
-1.358143920264128
 30
0.0
 10
79.9003677090652
 20
-0.7656266666301268
 30
0.0
 10
79.50153280004719
 20
-0.4665030004037853
 30
0.0
 10
78.70666572657004
 20
0.1317622256456332
 30
0.0
 10
78.31273486035579
 20
0.4303718102263088
 30
0.0
 10
77.51863437094842
 20
1.026054900998247
 30
0.0
 10
77.11973274457911
 20
1.322801052394933
 30
0.0
 10
76.32585440979527
 20
1.908429651643716
 30
0.0
 10
75.93184916934595
 20
2.197092027026016
 30
0.0
 10
75.13682505478852
 20
2.765537605476557
 30
0.0
 10
74.7380231478854
 20
3.044759177595946
 30
0.0
 10
73.94546100727644
 20
3.587900206038114
 30
0.0
 10
73.55063153240971
 20
3.852096392426523
 30
0.0
 10
72.75501282920334
 20
4.364272956409139
 30
0.0
 10
72.35647693950769
 20
4.611725138152743
 30
0.0
 10
71.56555663582695
 20
5.084742517959782
 30
0.0
 10
71.16915420124468
 20
5.31113331983667
 30
0.0
 10
69.97532905053791
 20
5.955754984499487
 30
0.0
 10
69.18539875645793
 20
6.337225743160692
 30
0.0
 10
67.99167184596405
 20
6.825299634340828
 30
0.0
 10
67.59598274724819
 20
6.973479192639393
 30
0.0
 10
66.80437243316945
 20
7.23966053219023
 30
0.0
 10
66.40571115667363
 20
7.357917271211702
 30
0.0
 10
66.00800000000001
 20
7.460135795909681
 30
0.0
  0
SPLINE
  5
B8
330
1F
100
AcDbEntity
  8
0
  6
Continuous
 62
     1
370
    15
100
AcDbSpline
210
0.0
220
0.0
230
1.0
 70
     8
 71
     3
 72
    11
 73
     7
 74
     0
 42
0.000000001
 43
0.00000001
 40
0.0
 40
0.0
 40
0.0
 40
0.0
 40
0.2184858327052412
 40
0.5756465102149321
 40
0.9415844645605613
 40
1.0
 40
1.0
 40
1.0
 40
1.0
 10
83.76495613422266
 20
-3.531802384470662
 30
0.0
 10
83.67550628575457
 20
-3.55314216376386
 30
0.0
 10
83.43983199753023
 20
-3.609366264552398
 30
0.0
 10
83.00900112912227
 20
-3.785127022991195
 30
0.0
 10
82.64262075227657
 20
-3.963006815709273
 30
0.0
 10
82.44116040836076
 20
-4.072968541657096
 30
0.0
 10
82.41342783600552
 20
-4.088105622542987
 30
0.0
  0
SPLINE
  5
B9
330
1F
100
AcDbEntity
  8
0
  6
Continuous
 62
     1
370
    15
100
AcDbSpline
210
0.0
220
0.0
230
1.0
 70
     8
 71
     3
 72
     8
 73
     4
 74
     0
 42
0.000000001
 43
0.00000001
 40
0.0
 40
0.0
 40
0.0
 40
0.0
 40
1.0
 40
1.0
 40
1.0
 40
1.0
 10
85.05800000000002
 20
-4.640327385311455
 30
0.0
 10
84.14869810576427
 20
-4.578115589207346
 30
0.0
 10
83.26658264874514
 20
-4.396636166222079
 30
0.0
 10
82.41342783600322
 20
-4.088105622548582
 30
0.0
  0
LINE
  5
BA
330
1F
100
AcDbEntity
  8
0
  6
Continuous
 62
     1
370
    15
100
AcDbLine
 10
85.05800000000002
 20
-6.704785820095877
 30
0.0
 11
85.05800000000002
 21
-4.640327385311446
 31
0.0
  0
SPLINE
  5
BB
330
1F
100
AcDbEntity
  8
0
  6
Continuous
 62
     4
370
    15
100
AcDbSpline
210
0.0
220
0.0
230
1.0
 70
    24
 71
     3
 72
    20
 73
    16
 74
     0
 42
0.000000001
 43
0.00000001
 40
0.0
 40
0.0
 40
0.0
 40
0.0
 40
0.2500000000000003
 40
0.2500000000000003
 40
0.3750000000000004
 40
0.3750000000000004
 40
0.5000000000000003
 40
0.5000000000000003
 40
0.6250000000000002
 40
0.6250000000000002
 40
0.7500000000000002
 40
0.7500000000000002
 40
0.8750000000000001
 40
0.8750000000000001
 40
1.0
 40
1.0
 40
1.0
 40
1.0
 10
66.00800000000001
 20
7.46013579590956
 30
0.0
 10
66.00800000000001
 20
6.859306757668007
 30
0.0
 10
66.00800000000001
 20
6.174422701423788
 30
0.0
 10
66.00800000000001
 20
5.02971483451195
 30
0.0
 10
66.00800000000001
 20
4.629036600773018
 30
0.0
 10
66.00800000000001
 20
3.799266416474048
 30
0.0
 10
66.00800000000001
 20
3.370122485812589
 30
0.0
 10
66.00800000000001
 20
2.50127592699342
 30
0.0
 10
66.00800000000001
 20
2.061587558734491
 30
0.0
 10
66.00800000000001
 20
1.198459501469847
 30
0.0
 10
66.00800000000001
 20
0.775146543263779
 30
0.0
 10
66.00800000000001
 20
-0.0214251894996036
 30
0.0
 10
66.00800000000001
 20
-0.3944391048679433
 30
0.0
 10
66.00800000000001
 20
-1.055229698725536
 30
0.0
 10
66.00800000000001
 20
-1.342717578032179
 30
0.0
 10
66.00800000000001
 20
-1.573495397051748
 30
0.0
  0
LINE
  5
BC
330
1F
100
AcDbEntity
  8
0
  6
Continuous
 62
     4
370
    15
100
AcDbLine
 10
66.00800000000001
 20
7.460135795909681
 30
0.0
 11
66.00800000000001
 21
7.717680084663556
 31
0.0
  0
LINE
  5
BD
330
1F
100
AcDbEntity
  8
0
  6
Continuous
 62
     1
370
    15
100
AcDbLine
 10
85.05800000000002
 20
-4.39143507299625
 30
0.0
 11
85.05800000000002
 21
-3.620082125905355
 31
0.0
  0
SPLINE
  5
BE
330
1F
100
AcDbEntity
  8
0
  6
Continuous
 62
     1
370
    15
100
AcDbSpline
210
0.0
220
0.0
230
1.0
 70
     8
 71
     3
 72
    12
 73
     8
 74
     0
 42
0.000000001
 43
0.00000001
 40
0.0
 40
0.0
 40
0.0
 40
0.0
 40
0.0258670252100719
 40
0.2693817787115192
 40
0.5129077931599102
 40
0.7564466689750631
 40
1.0
 40
1.0
 40
1.0
 40
1.0
 10
76.45257651944254
 20
5.774355108997053
 30
0.0
 10
76.52677458222385
 20
5.816052395501348
 30
0.0
 10
77.29948060337047
 20
6.250292093137605
 30
0.0
 10
78.77068977112341
 20
6.863880841020567
 30
0.0
 10
80.86632657241634
 20
7.545292547171417
 30
0.0
 10
82.96209737831052
 20
7.929058418445123
 30
0.0
 10
84.35935197087774
 20
7.924300016679956
 30
0.0
 10
85.05800000000002
 20
7.921920745190929
 30
0.0
  0
SPLINE
  5
BF
330
1F
100
AcDbEntity
  8
0
  6
Continuous
 62
     1
370
    15
100
AcDbSpline
210
0.0
220
0.0
230
1.0
 70
     8
 71
     3
 72
    18
 73
    14
 74
     0
 42
0.000000001
 43
0.00000001
 40
0.0
 40
0.0
 40
0.0
 40
0.0
 40
0.2499999999999999
 40
0.2499999999999999
 40
0.3749999999999999
 40
0.3749999999999999
 40
0.4999999999999999
 40
0.4999999999999999
 40
0.6249999999999999
 40
0.6249999999999999
 40
0.7499999999999998
 40
0.7499999999999998
 40
1.0
 40
1.0
 40
1.0
 40
1.0
 10
85.05800000000002
 20
5.139562718986241
 30
0.0
 10
84.93416549347086
 20
4.828820125309833
 30
0.0
 10
84.78458115600354
 20
4.54015076087872
 30
0.0
 10
84.51542453927
 20
4.145533049574957
 30
0.0
 10
84.41730997783705
 20
4.019503537416375
 30
0.0
 10
84.20975380288031
 20
3.78732777770249
 30
0.0
 10
84.10045677874733
 20
3.68100478631347
 30
0.0
 10
83.8710290822879
 20
3.487527236320321
 30
0.0
 10
83.75089986428618
 20
3.400370104517916
 30
0.0
 10
83.49973341302572
 20
3.245355854494717
 30
0.0
 10
83.36854899351422
 20
3.177666689881622
 30
0.0
 10
82.97078796598494
 20
3.008659445698047
 30
0.0
 10
82.69459814282891
 20
2.938379517084429
 30
0.0
 10
82.41342783600646
 20
2.906664270008295
 30
0.0
  0
SPLINE
  5
C0
330
1F
100
AcDbEntity
  8
0
  6
Continuous
 62
     1
370
    15
100
AcDbSpline
210
0.0
220
0.0
230
1.0
 70
     8
 71
     3
 72
     8
 73
     4
 74
     0
 42
0.000000001
 43
0.00000001
 40
0.0
 40
0.0
 40
0.0
 40
0.0
 40
1.0
 40
1.0
 40
1.0
 40
1.0
 10
85.05800000000002
 20
1.531147021911043
 30
0.0
 10
84.14869810576445
 20
2.058259412536187
 30
0.0
 10
83.2665826487455
 20
2.518225827299478
 30
0.0
 10
82.41342783600373
 20
2.906664270004993
 30
0.0
  0
LINE
  5
C1
330
1F
100
AcDbEntity
  8
0
  6
Continuous
 62
     1
370
    15
100
AcDbLine
 10
85.05800000000002
 20
0.5435714752995258
 30
0.0
 11
85.05800000000002
 21
1.531147021911042
 31
0.0
  0
LINE
  5
C2
330
1F
100
AcDbEntity
  8
0
  6
Continuous
 62
     1
370
    15
100
AcDbLine
 10
85.05800000000002
 20
5.13956271898624
 30
0.0
 11
85.05800000000002
 21
7.921920745190928
 31
0.0
  0
SPLINE
  5
C3
330
1F
100
AcDbEntity
  8
0
  6
Continuous
 62
     1
370
    15
100
AcDbSpline
210
0.0
220
0.0
230
1.0
 70
     8
 71
     3
 72
    11
 73
     7
 74
     0
 42
0.000000001
 43
0.00000001
 40
0.0
 40
0.0
 40
0.0
 40
0.0
 40
0.2899232476733093
 40
0.5798492214974963
 40
0.8697784552130758
 40
1.0
 40
1.0
 40
1.0
 40
1.0
 10
66.00800000000001
 20
-6.077984020272747
 30
0.0
 10
66.71912316145868
 20
-6.399539955805827
 30
0.0
 10
68.14137617107346
 20
-7.042654850465309
 30
0.0
 10
70.27477529602749
 20
-7.635522141808877
 30
0.0
 10
72.0164611649248
 20
-7.935705996376206
 30
0.0
 10
73.04701848578344
 20
-7.90635070590567
 30
0.0
 10
73.36642945246544
 20
-7.897252326304026
 30
0.0
  0
LINE
  5
C4
330
1F
100
AcDbEntity
  8
0
  6
Continuous
 62
     4
370
    15
100
AcDbLine
 10
66.00800000000001
 20
-6.077984020272744
 30
0.0
 11
66.00800000000001
 21
-5.465386110949377
 31
0.0
  0
LINE
  5
C5
330
1F
100
AcDbEntity
  8
0
  6
Continuous
 62
     1
370
    15
100
AcDbLine
 10
85.05800000000002
 20
1.531147021911043
 30
0.0
 11
85.05800000000002
 21
5.13956271898624
 31
0.0
  0
LINE
  5
C6
330
1F
100
AcDbEntity
  8
0
  6
Continuous
 62
     1
370
    15
100
AcDbLine
 10
85.05800000000002
 20
-4.391435072996252
 30
0.0
 11
85.05800000000002
 21
-4.640327385311457
 31
0.0
  0
LINE
  5
C7
102
{ACAD_REACTORS
102
}
330
1F
100
AcDbEntity
  8
0
  6
Continuous
 62
     1
370
    15
100
AcDbLine
 10
85.05800000000002
 20
7.921920745190928
 30
0.0
 11
85.05800000000002
 21
7.937499999999991
 31
0.0
  0
LINE
  5
C8
330
1F
100
AcDbEntity
  8
중심선
100
AcDbLine
 10
-70.34200000000003
 20
-0.0000000000000296
 30
0.0
 11
88.058
 21
-0.0000000000000296
 31
0.0
  0
CIRCLE
  5
C9
330
1F
100
AcDbEntity
  8
외형선
100
AcDbCircle
 10
0.0
 20
0.0
 30
0.0
 40
2.999999999999997
  0
INSERT
  5
CA
330
1F
100
AcDbEntity
  8
0
  6
Continuous
 62
     7
100
AcDbBlockReference
 66
     1
  2
블럭10
 10
-11.94027293212522
 20
-51.97707998556498
 30
0.0
  0
ATTRIB
  5
CB
330
CA
100
AcDbEntity
  8
FORMAT
 62
     2
100
AcDbText
 10
-21.1215682208665
 20
-49.90171307273279
 30
0.0
 40
4.233333333333333
  1
E5977903 [ 3 FLUTE ]
 41
0.75
  7
SLDTEXTSTYLE0
 11
-21.1215682208665
 21
-52.01837973939946
 31
0.0
100
AcDbAttribute
  2
AUTOATTR0
 70
     0
 74
     1
  0
SEQEND
  5
CC
330
CA
100
AcDbEntity
  8
0
  6
Continuous
 62
     7
  0
HATCH
  5
CD
330
1F
100
AcDbEntity
  8
중심선
100
AcDbHatch
 10
0.0
 20
0.0
 30
0.0
210
0.0
220
0.0
230
1.0
  2
SOLID
 70
     1
 71
     0
 91
        1
 92
        0
 93
        4
 72
     1
 10
-6.225363627744375
 20
-35.72990568392105
 11
-9.67163887158166
 21
-35.72990568392105
 72
     1
 10
-9.67163887158166
 20
-35.72990568392105
 11
-11.79986873078568
 21
-38.26623126449365
 72
     1
 10
-11.79986873078568
 20
-38.26623126449365
 11
-8.35356040183525
 21
-38.26619183519116
 72
     1
 10
-8.35356040183525
 20
-38.26619183519116
 11
-6.225363627744375
 21
-35.72990568392105
 97
        0
 75
     0
 76
     1
 98
        1
 10
18.00200000000001
 20
-0.8966207392715901
  0
HATCH
  5
CE
330
1F
100
AcDbEntity
  8
중심선
100
AcDbHatch
 10
0.0
 20
0.0
 30
0.0
210
0.0
220
0.0
230
1.0
  2
SOLID
 70
     1
 71
     0
 91
        1
 92
        0
 93
        4
 72
     1
 10
-1.212599636708397
 20
-35.72990568392105
 11
-4.658874880545707
 21
-35.72990568392105
 72
     1
 10
-4.658874880545707
 20
-35.72990568392105
 11
-9.190012888903095
 21
-41.12990568392107
 72
     1
 10
-9.190012888903095
 20
-41.12990568392107
 11
-5.743737645065814
 21
-41.12990568392107
 72
     1
 10
-5.743737645065814
 20
-41.12990568392107
 11
-1.212599636708397
 21
-35.72990568392105
 97
        0
 75
     0
 76
     1
 98
        1
 10
18.00200000000001
 20
-0.8966207392715901
  0
HATCH
  5
CF
330
1F
100
AcDbEntity
  8
중심선
100
AcDbHatch
 10
0.0
 20
0.0
 30
0.0
210
0.0
220
0.0
230
1.0
  2
SOLID
 70
     1
 71
     0
 91
        1
 92
        0
 93
        4
 72
     1
 10
3.800164354327498
 20
-35.72990568392105
 11
0.3538891104903534
 21
-35.72990568392105
 72
     1
 10
0.3538891104903534
 20
-35.72990568392105
 11
-6.694547791398893
 21
-44.12990568392107
 72
     1
 10
-6.694547791398893
 20
-44.12990568392107
 11
-3.248272547561612
 21
-44.12990568392107
 72
     1
 10
-3.248272547561612
 20
-44.12990568392107
 11
3.800164354327498
 21
-35.72990568392105
 97
        0
 75
     0
 76
     1
 98
        1
 10
18.00200000000001
 20
-0.8966207392715901
  0
HATCH
  5
D0
330
1F
100
AcDbEntity
  8
중심선
100
AcDbHatch
 10
0.0
 20
0.0
 30
0.0
210
0.0
220
0.0
230
1.0
  2
SOLID
 70
     1
 71
     0
 91
        1
 92
        0
 93
        6
 72
     3
 10
8.600054785339669
 20
-39.92990568397233
 11
3.960054785062283
 21
1.540882976769353E-10
 40
0.3939339440162628
 50
17.09539180608437
 51
320.0019657685087
 73
     0
 72
     1
 10
10.28305444104027
 20
-38.51779968855939
 11
12.5883563147413
 21
-36.58347297851146
 72
     3
 10
8.600054785286822
 20
-39.9299056839212
 11
6.600054785286829
 21
-1.278976924368180E-13
 40
0.636358354079598
 50
39.99873849337384
 51
368.4976242363725
 73
     1
 72
     1
 10
15.02538727718743
 20
-38.96990568385107
 11
7.280122092122745
 21
-38.96990568385107
 72
     1
 10
7.280122092122745
 20
-38.96990568385107
 11
7.280097047676811
 21
-40.88990568385097
 72
     1
 10
7.280097047676811
 20
-40.88990568385097
 11
11.72147681714885
 21
-40.88990568385094
 97
        0
 75
     0
 76
     1
 98
        1
 10
18.00200000000001
 20
-0.8966207392715901
  0
POINT
  5
D1
330
1F
100
AcDbEntity
  8
치수문자_일반주서
100
AcDbPoint
 10
-67.34200000000003
 20
-0.0000000000000296
 30
0.0
  0
DIMENSION
  5
D2
330
1F
100
AcDbEntity
  8
치수문자_일반주서
100
AcDbDimension
  2
_D
 10
-80.342
 20
-7.937500000000068
 30
0.0
 11
-80.34200000000003
 21
0.175235790197406
 31
0.0
 70
   160
  1
%%c<>
 71
     2
 42
15.87499999999999
 52
-270.0
  3
SLDDIMSTYLE0
100
AcDbAlignedDimension
 13
-66.84200000000003
 23
7.937499999999968
 33
0.0
 14
-66.84200000000003
 24
-7.937500000000019
 34
0.0
 50
90.0000000000002
100
AcDbRotatedDimension
1001
ACAD
1000
DSTYLE
1002
{
1070
   171
1070
     6
1070
   273
1070
     7
1002
}
  0
DIMENSION
  5
E7
330
1F
100
AcDbEntity
  8
치수문자_일반주서
100
AcDbDimension
  2
_D_1
 10
85.05800000000004
 20
45.36312537290537
 30
0.0
 11
3.26130581816393
 21
45.36312537290537
 31
0.0
 70
   160
  1
<>
 71
     2
 42
152.4
  3
SLDDIMSTYLE1
100
AcDbAlignedDimension
 13
-67.34200000000003
 23
7.437499999999973
 33
0.0
 14
85.05800000000002
 24
5.13956271898624
 34
0.0
 50
-0.0000000000000053
100
AcDbRotatedDimension
1001
ACAD
1000
DSTYLE
1002
{
1070
   171
1070
     6
1070
   273
1070
     7
1002
}
  0
DIMENSION
  5
FB
330
1F
100
AcDbEntity
  8
치수문자_일반주서
100
AcDbDimension
  2
_D_2
 10
85.05800000000002
 20
32.83626142194365
 30
0.0
 11
42.77696863004562
 21
32.83626142194365
 31
0.0
 70
   160
  1
<>
 71
     2
 42
82.55000000000001
  3
SLDDIMSTYLE2
100
AcDbAlignedDimension
 13
2.508000000000008
 23
7.429499999999974
 33
0.0
 14
85.05800000000002
 24
5.13956271898624
 34
0.0
 50
-0.0000000000000049
100
AcDbRotatedDimension
1001
ACAD
1000
DSTYLE
1002
{
1070
   171
1070
     6
1070
   273
1070
     7
1002
}
  0
DIMENSION
  5
10F
330
1F
100
AcDbEntity
  8
치수문자_일반주서
100
AcDbDimension
  2
_D_3
 10
85.05800000000002
 20
17.90749175857797
 30
0.0
 11
76.40383218567838
 21
17.90749175857797
 31
0.0
 70
   160
  1
<>
 71
     2
 42
19.05000000000001
  3
SLDDIMSTYLE0
100
AcDbAlignedDimension
 13
66.00800000000001
 23
7.717680084663556
 33
0.0
 14
85.05800000000002
 24
5.13956271898624
 34
0.0
100
AcDbRotatedDimension
1001
ACAD
1000
DSTYLE
1002
{
1070
   171
1070
     6
1070
   273
1070
     7
1002
}
  0
INSERT
  5
12A
330
1F
100
AcDbEntity
  8
외형선
100
AcDbBlockReference
  2
SW_DOWELSYMBOL_0
 10
0.0
 20
0.0
 30
0.0
  0
DIMENSION
  5
150
102
{ACAD_REACTORS
102
}
102
{ACAD_XDICTIONARY
360
151
102
}
330
1F
100
AcDbEntity
  8
치수문자_일반주서
100
AcDbDimension
  2
*D7
 10
105.3479681770603
 20
-7.937500000000011
 30
0.0
 11
105.3479681770603
 21
28.76024999999999
 31
0.0
 70
   160
  1
{%%c<>[]}
 71
     5
 42
15.875
  3
SLDDIMSTYLE0
100
AcDbAlignedDimension
 13
85.05800000000002
 23
7.937499999999991
 33
0.0
 14
74.5539162906356
 24
-7.937500000000013
 34
0.0
 50
90.0
100
AcDbRotatedDimension
1001
ACAD
1000
DSTYLE
1002
{
1070
   171
1070
     6
1070
   273
1070
     7
1070
   283
1070
     1
1070
   170
1070
     1
1002
}
  0
ENDSEC
  0
SECTION
  2
OBJECTS
  0
DICTIONARY
  5
C
330
0
100
AcDbDictionary
281
     1
  3
ACAD_GROUP
350
D
  3
ACAD_IMAGE_VARS
350
14E
  3
ACAD_LAYOUT
350
1A
  3
ACAD_MLINESTYLE
350
17
  3
ACAD_PLOTSETTINGS
350
19
  3
ACAD_PLOTSTYLENAME
350
E
  3
ACAD_SCALELIST
350
47
  3
APPDATA
350
14C
  3
DWGPROPS
350
166
  0
DICTIONARY
  5
151
330
150
100
AcDbDictionary
280
     1
281
     1
  0
DICTIONARY
  5
D
102
{ACAD_REACTORS
330
C
102
}
330
C
100
AcDbDictionary
281
     1
  0
RASTERVARIABLES
  5
14E
102
{ACAD_REACTORS
330
C
102
}
330
C
100
AcDbRasterVariables
 90
        0
 70
     1
 71
     1
 72
     1
  0
DICTIONARY
  5
1A
102
{ACAD_REACTORS
330
C
102
}
330
C
100
AcDbDictionary
281
     1
  3
Layout1
350
1E
  3
Layout2
350
26
  3
Model
350
22
  0
DICTIONARY
  5
17
102
{ACAD_REACTORS
330
C
102
}
330
C
100
AcDbDictionary
281
     1
  3
Standard
350
18
  0
DICTIONARY
  5
19
102
{ACAD_REACTORS
330
C
102
}
330
C
100
AcDbDictionary
281
     1
  0
ACDBDICTIONARYWDFLT
  5
E
102
{ACAD_REACTORS
330
C
102
}
330
C
100
AcDbDictionary
281
     1
  3
Normal
350
F
100
AcDbDictionaryWithDefault
340
F
  0
DICTIONARY
  5
47
102
{ACAD_REACTORS
330
C
102
}
330
C
100
AcDbDictionary
281
     1
  3
A0
350
48
  3
A1
350
49
  3
A2
350
4A
  3
A3
350
4B
  3
A4
350
4C
  3
A5
350
4D
  3
A6
350
4E
  3
A7
350
4F
  3
A8
350
50
  3
A9
350
51
  3
B0
350
52
  3
B1
350
53
  3
B2
350
54
  3
B3
350
55
  3
B4
350
56
  3
B5
350
57
  3
B6
350
58
  3
B7
350
59
  3
B8
350
5A
  3
B9
350
5B
  3
C0
350
5C
  3
C1
350
5D
  3
C2
350
5E
  3
C3
350
5F
  3
C4
350
60
  3
C5
350
61
  3
C6
350
62
  3
C7
350
63
  3
C8
350
64
  3
C9
350
65
  3
D0
350
66
  3
D1
350
67
  3
D2
350
68
  0
DICTIONARY
  5
14C
102
{ACAD_REACTORS
330
C
102
}
330
C
100
AcDbDictionary
281
     1
  0
XRECORD
  5
166
102
{ACAD_REACTORS
330
C
102
}
330
C
100
AcDbXrecord
280
     1
  1
DWGPROPS COOKIE
  2

  3

  4

  6

  7

  8
12016016
  9

300
=
301
=
302
=
303
=
304
=
305
=
306
=
307
=
308
=
309
=
 40
0.0
 41
2458269.325617153
 42
2458274.999011354
  1

 90
        0
  0
LAYOUT
  5
1E
102
{ACAD_REACTORS
330
1A
102
}
330
1A
100
AcDbPlotSettings
  1

  2
none_device
  4

  6

 40
0.0
 41
0.0
 42
0.0
 43
0.0
 44
0.0
 45
0.0
 46
0.0
 47
0.0
 48
0.0
 49
0.0
140
0.0
141
0.0
142
1.0
143
1.0
 70
   688
 72
     1
 73
     0
 74
     5
  7

 75
    16
147
1.0
148
0.0
149
0.0
100
AcDbLayout
  1
Layout1
 70
     1
 71
     1
 10
0.0
 20
0.0
 11
420.0
 21
297.0
 12
0.0
 22
0.0
 32
0.0
 14
1.000000000000000E+20
 24
1.000000000000000E+20
 34
1.000000000000000E+20
 15
-1.000000000000000E+20
 25
-1.000000000000000E+20
 35
-1.000000000000000E+20
146
0.0
 13
0.0
 23
0.0
 33
0.0
 16
1.0
 26
0.0
 36
0.0
 17
0.0
 27
1.0
 37
0.0
 76
     0
330
1B
  0
LAYOUT
  5
26
102
{ACAD_REACTORS
330
1A
102
}
330
1A
100
AcDbPlotSettings
  1

  2
none_device
  4

  6

 40
0.0
 41
0.0
 42
0.0
 43
0.0
 44
0.0
 45
0.0
 46
0.0
 47
0.0
 48
0.0
 49
0.0
140
0.0
141
0.0
142
1.0
143
1.0
 70
   688
 72
     1
 73
     0
 74
     5
  7

 75
    16
147
1.0
148
0.0
149
0.0
100
AcDbLayout
  1
Layout2
 70
     1
 71
     2
 10
0.0
 20
0.0
 11
0.0
 21
0.0
 12
0.0
 22
0.0
 32
0.0
 14
0.0
 24
0.0
 34
0.0
 15
0.0
 25
0.0
 35
0.0
146
0.0
 13
0.0
 23
0.0
 33
0.0
 16
1.0
 26
0.0
 36
0.0
 17
0.0
 27
1.0
 37
0.0
 76
     0
330
23
  0
LAYOUT
  5
22
102
{ACAD_REACTORS
330
1A
102
}
330
1A
100
AcDbPlotSettings
  1

  2
none_device
  4
ANSI_A_(11.00_x_8.50_Inches)
  6

 40
6.35
 41
19.05
 42
6.35000508
 43
19.05000254
 44
279.4
 45
215.9
 46
160.4213797429913
 47
83.36647368322403
 48
0.0
 49
0.0
140
0.0
141
0.0
142
0.0596572153218228
143
1.0
 70
  1696
 72
     0
 73
     0
 74
     0
  7

 75
     0
147
0.0235690232323232
148
0.0
149
0.0
100
AcDbLayout
  1
Model
 70
     1
 71
     0
 10
0.0
 20
0.0
 11
420.0
 21
297.0
 12
0.0
 22
0.0
 32
0.0
 14
-84.71700000000007
 24
-49.90171307273279
 34
0.0
 15
105.8983015103936
 25
49.73812537290537
 35
0.0
146
0.0
 13
0.0
 23
0.0
 33
0.0
 16
1.0
 26
0.0
 36
0.0
 17
0.0
 27
1.0
 37
0.0
 76
     0
330
1F
331
29
  0
MLINESTYLE
  5
18
102
{ACAD_REACTORS
330
17
102
}
330
17
100
AcDbMlineStyle
  2
Standard
 70
     0
  3

 62
   256
 51
90.0
 52
90.0
 71
     2
 49
0.5
 62
   256
  6
BYLAYER
 49
-0.5
 62
   256
  6
BYLAYER
  0
ACDBPLACEHOLDER
  5
F
102
{ACAD_REACTORS
330
E
102
}
330
E
  0
SCALE
  5
48
102
{ACAD_REACTORS
330
47
102
}
330
47
100
AcDbScale
 70
     0
300
1:1
140
1.0
141
1.0
290
     1
  0
SCALE
  5
49
102
{ACAD_REACTORS
330
47
102
}
330
47
100
AcDbScale
 70
     0
300
1:2
140
1.0
141
2.0
290
     0
  0
SCALE
  5
4A
102
{ACAD_REACTORS
330
47
102
}
330
47
100
AcDbScale
 70
     0
300
1:4
140
1.0
141
4.0
290
     0
  0
SCALE
  5
4B
102
{ACAD_REACTORS
330
47
102
}
330
47
100
AcDbScale
 70
     0
300
1:5
140
1.0
141
5.0
290
     0
  0
SCALE
  5
4C
102
{ACAD_REACTORS
330
47
102
}
330
47
100
AcDbScale
 70
     0
300
1:8
140
1.0
141
8.0
290
     0
  0
SCALE
  5
4D
102
{ACAD_REACTORS
330
47
102
}
330
47
100
AcDbScale
 70
     0
300
1:10
140
1.0
141
10.0
290
     0
  0
SCALE
  5
4E
102
{ACAD_REACTORS
330
47
102
}
330
47
100
AcDbScale
 70
     0
300
1:16
140
1.0
141
16.0
290
     0
  0
SCALE
  5
4F
102
{ACAD_REACTORS
330
47
102
}
330
47
100
AcDbScale
 70
     0
300
1:20
140
1.0
141
20.0
290
     0
  0
SCALE
  5
50
102
{ACAD_REACTORS
330
47
102
}
330
47
100
AcDbScale
 70
     0
300
1:30
140
1.0
141
30.0
290
     0
  0
SCALE
  5
51
102
{ACAD_REACTORS
330
47
102
}
330
47
100
AcDbScale
 70
     0
300
1:40
140
1.0
141
40.0
290
     0
  0
SCALE
  5
52
102
{ACAD_REACTORS
330
47
102
}
330
47
100
AcDbScale
 70
     0
300
1:50
140
1.0
141
50.0
290
     0
  0
SCALE
  5
53
102
{ACAD_REACTORS
330
47
102
}
330
47
100
AcDbScale
 70
     0
300
1:100
140
1.0
141
100.0
290
     0
  0
SCALE
  5
54
102
{ACAD_REACTORS
330
47
102
}
330
47
100
AcDbScale
 70
     0
300
2:1
140
2.0
141
1.0
290
     0
  0
SCALE
  5
55
102
{ACAD_REACTORS
330
47
102
}
330
47
100
AcDbScale
 70
     0
300
4:1
140
4.0
141
1.0
290
     0
  0
SCALE
  5
56
102
{ACAD_REACTORS
330
47
102
}
330
47
100
AcDbScale
 70
     0
300
8:1
140
8.0
141
1.0
290
     0
  0
SCALE
  5
57
102
{ACAD_REACTORS
330
47
102
}
330
47
100
AcDbScale
 70
     0
300
10:1
140
10.0
141
1.0
290
     0
  0
SCALE
  5
58
102
{ACAD_REACTORS
330
47
102
}
330
47
100
AcDbScale
 70
     0
300
100:1
140
100.0
141
1.0
290
     0
  0
SCALE
  5
59
102
{ACAD_REACTORS
330
47
102
}
330
47
100
AcDbScale
 70
     0
300
1/128" = 1'-0"
140
0.0078125
141
12.0
290
     0
  0
SCALE
  5
5A
102
{ACAD_REACTORS
330
47
102
}
330
47
100
AcDbScale
 70
     0
300
1/64" = 1'-0"
140
0.015625
141
12.0
290
     0
  0
SCALE
  5
5B
102
{ACAD_REACTORS
330
47
102
}
330
47
100
AcDbScale
 70
     0
300
1/32" = 1'-0"
140
0.03125
141
12.0
290
     0
  0
SCALE
  5
5C
102
{ACAD_REACTORS
330
47
102
}
330
47
100
AcDbScale
 70
     0
300
1/16" = 1'-0"
140
0.0625
141
12.0
290
     0
  0
SCALE
  5
5D
102
{ACAD_REACTORS
330
47
102
}
330
47
100
AcDbScale
 70
     0
300
3/32" = 1'-0"
140
0.09375
141
12.0
290
     0
  0
SCALE
  5
5E
102
{ACAD_REACTORS
330
47
102
}
330
47
100
AcDbScale
 70
     0
300
1/8" = 1'-0"
140
0.125
141
12.0
290
     0
  0
SCALE
  5
5F
102
{ACAD_REACTORS
330
47
102
}
330
47
100
AcDbScale
 70
     0
300
3/16" = 1'-0"
140
0.1875
141
12.0
290
     0
  0
SCALE
  5
60
102
{ACAD_REACTORS
330
47
102
}
330
47
100
AcDbScale
 70
     0
300
1/4" = 1'-0"
140
0.25
141
12.0
290
     0
  0
SCALE
  5
61
102
{ACAD_REACTORS
330
47
102
}
330
47
100
AcDbScale
 70
     0
300
3/8" = 1'-0"
140
0.375
141
12.0
290
     0
  0
SCALE
  5
62
102
{ACAD_REACTORS
330
47
102
}
330
47
100
AcDbScale
 70
     0
300
1/2" = 1'-0"
140
0.5
141
12.0
290
     0
  0
SCALE
  5
63
102
{ACAD_REACTORS
330
47
102
}
330
47
100
AcDbScale
 70
     0
300
3/4" = 1'-0"
140
0.75
141
12.0
290
     0
  0
SCALE
  5
64
102
{ACAD_REACTORS
330
47
102
}
330
47
100
AcDbScale
 70
     0
300
1" = 1'-0"
140
1.0
141
12.0
290
     0
  0
SCALE
  5
65
102
{ACAD_REACTORS
330
47
102
}
330
47
100
AcDbScale
 70
     0
300
1-1/2" = 1'-0"
140
1.5
141
12.0
290
     0
  0
SCALE
  5
66
102
{ACAD_REACTORS
330
47
102
}
330
47
100
AcDbScale
 70
     0
300
3" = 1'-0"
140
3.0
141
12.0
290
     0
  0
SCALE
  5
67
102
{ACAD_REACTORS
330
47
102
}
330
47
100
AcDbScale
 70
     0
300
6" = 1'-0"
140
6.0
141
12.0
290
     0
  0
SCALE
  5
68
102
{ACAD_REACTORS
330
47
102
}
330
47
100
AcDbScale
 70
     0
300
1'-0" = 1'-0"
140
12.0
141
12.0
290
     0
  0
ENDSEC
  0
EOF
