  0
SECTION
  2
HEADER
  9
$ACADVER
  1
AC1015
  9
$ACADMAINTVER
 70
     6
  9
$DWGCODEPAGE
  3
ANSI_949
  9
$INSBASE
 10
0.0
 20
0.0
 30
0.0
  9
$EXTMIN
 10
-84.71700000000006
 20
-49.90171307273278
 30
0.0
  9
$EXTMAX
 10
107.0583268539347
 20
51.32562537290536
 30
0.0
  9
$LIMMIN
 10
0.0
 20
0.0
  9
$LIMMAX
 10
420.0
 20
297.0
  9
$ORTHOMODE
 70
     0
  9
$REGENMODE
 70
     1
  9
$FILLMODE
 70
     1
  9
$QTEXTMODE
 70
     0
  9
$MIRRTEXT
 70
     1
  9
$LTSCALE
 40
1.0
  9
$ATTMODE
 70
     1
  9
$TEXTSIZE
 40
3.5
  9
$TRACEWID
 40
1.0
  9
$TEXTSTYLE
  7
Standard
  9
$CLAYER
  8
0
  9
$CELTYPE
  6
ByLayer
  9
$CECOLOR
 62
   256
  9
$CELTSCALE
 40
1.0
  9
$DISPSILH
 70
     0
  9
$DIMSCALE
 40
1.0
  9
$DIMASZ
 40
3.302
  9
$DIMEXO
 40
1.0
  9
$DIMDLI
 40
3.75
  9
$DIMRND
 40
0.0
  9
$DIMDLE
 40
0.0
  9
$DIMEXE
 40
1.0
  9
$DIMTP
 40
0.0
  9
$DIMTM
 40
0.0
  9
$DIMTXT
 40
3.5
  9
$DIMCEN
 40
2.5
  9
$DIMTSZ
 40
0.0
  9
$DIMTOL
 70
     0
  9
$DIMLIM
 70
     0
  9
$DIMTIH
 70
     1
  9
$DIMTOH
 70
     1
  9
$DIMSE1
 70
     0
  9
$DIMSE2
 70
     0
  9
$DIMTAD
 70
     1
  9
$DIMZIN
 70
     0
  9
$DIMBLK
  1

  9
$DIMASO
 70
     1
  9
$DIMSHO
 70
     1
  9
$DIMPOST
  1

  9
$DIMAPOST
  1

  9
$DIMALT
 70
     0
  9
$DIMALTD
 70
     3
  9
$DIMALTF
 40
0.0393700787401575
  9
$DIMLFAC
 40
1.0
  9
$DIMTOFL
 70
     1
  9
$DIMTVP
 40
0.0
  9
$DIMTIX
 70
     0
  9
$DIMSOXD
 70
     0
  9
$DIMSAH
 70
     0
  9
$DIMBLK1
  1

  9
$DIMBLK2
  1

  9
$DIMSTYLE
  2
ISO-25
  9
$DIMCLRD
 70
     0
  9
$DIMCLRE
 70
     0
  9
$DIMCLRT
 70
     0
  9
$DIMTFAC
 40
1.0
  9
$DIMGAP
 40
1.524
  9
$DIMJUST
 70
     0
  9
$DIMSD1
 70
     0
  9
$DIMSD2
 70
     0
  9
$DIMTOLJ
 70
     0
  9
$DIMTZIN
 70
     0
  9
$DIMALTZ
 70
     0
  9
$DIMALTTZ
 70
     0
  9
$DIMUPT
 70
     0
  9
$DIMDEC
 70
     2
  9
$DIMTDEC
 70
     2
  9
$DIMALTU
 70
     2
  9
$DIMALTTD
 70
     3
  9
$DIMTXSTY
  7
Standard
  9
$DIMAUNIT
 70
     0
  9
$DIMADEC
 70
     2
  9
$DIMALTRND
 40
0.0
  9
$DIMAZIN
 70
     0
  9
$DIMDSEP
 70
    44
  9
$DIMATFIT
 70
     3
  9
$DIMFRAC
 70
     0
  9
$DIMLDRBLK
  1

  9
$DIMLUNIT
 70
     2
  9
$DIMLWD
 70
    -2
  9
$DIMLWE
 70
    -2
  9
$DIMTMOVE
 70
     0
  9
$LUNITS
 70
     2
  9
$LUPREC
 70
     2
  9
$SKETCHINC
 40
1.0
  9
$FILLETRAD
 40
10.0
  9
$AUNITS
 70
     0
  9
$AUPREC
 70
     2
  9
$MENU
  1
.
  9
$ELEVATION
 40
0.0
  9
$PELEVATION
 40
0.0
  9
$THICKNESS
 40
0.0
  9
$LIMCHECK
 70
     0
  9
$CHAMFERA
 40
0.0
  9
$CHAMFERB
 40
0.0
  9
$CHAMFERC
 40
0.0
  9
$CHAMFERD
 40
0.0
  9
$SKPOLY
 70
     0
  9
$TDCREATE
 40
2458269.700910266
  9
$TDUCREATE
 40
2458269.325910266
  9
$TDUPDATE
 40
2458275.372457477
  9
$TDUUPDATE
 40
2458274.997457477
  9
$TDINDWG
 40
0.000632662
  9
$TDUSRTIMER
 40
2458274.996825
  9
$USRTIMER
 70
     1
  9
$ANGBASE
 50
0.0
  9
$ANGDIR
 70
     0
  9
$PDMODE
 70
     0
  9
$PDSIZE
 40
-1.0
  9
$PLINEWID
 40
0.0
  9
$SPLFRAME
 70
     0
  9
$SPLINETYPE
 70
     6
  9
$SPLINESEGS
 70
     8
  9
$HANDSEED
  5
16D
  9
$SURFTAB1
 70
     6
  9
$SURFTAB2
 70
     6
  9
$SURFTYPE
 70
     6
  9
$SURFU
 70
     6
  9
$SURFV
 70
     6
  9
$UCSBASE
  2

  9
$UCSNAME
  2

  9
$UCSORG
 10
0.0
 20
0.0
 30
0.0
  9
$UCSXDIR
 10
1.0
 20
0.0
 30
0.0
  9
$UCSYDIR
 10
0.0
 20
1.0
 30
0.0
  9
$UCSORTHOREF
  2

  9
$UCSORTHOVIEW
 70
     0
  9
$UCSORGTOP
 10
0.0
 20
0.0
 30
0.0
  9
$UCSORGBOTTOM
 10
0.0
 20
0.0
 30
0.0
  9
$UCSORGLEFT
 10
0.0
 20
0.0
 30
0.0
  9
$UCSORGRIGHT
 10
0.0
 20
0.0
 30
0.0
  9
$UCSORGFRONT
 10
0.0
 20
0.0
 30
0.0
  9
$UCSORGBACK
 10
0.0
 20
0.0
 30
0.0
  9
$PUCSBASE
  2

  9
$PUCSNAME
  2

  9
$PUCSORG
 10
0.0
 20
0.0
 30
0.0
  9
$PUCSXDIR
 10
1.0
 20
0.0
 30
0.0
  9
$PUCSYDIR
 10
0.0
 20
1.0
 30
0.0
  9
$PUCSORTHOREF
  2

  9
$PUCSORTHOVIEW
 70
     0
  9
$PUCSORGTOP
 10
0.0
 20
0.0
 30
0.0
  9
$PUCSORGBOTTOM
 10
0.0
 20
0.0
 30
0.0
  9
$PUCSORGLEFT
 10
0.0
 20
0.0
 30
0.0
  9
$PUCSORGRIGHT
 10
0.0
 20
0.0
 30
0.0
  9
$PUCSORGFRONT
 10
0.0
 20
0.0
 30
0.0
  9
$PUCSORGBACK
 10
0.0
 20
0.0
 30
0.0
  9
$USERI1
 70
     0
  9
$USERI2
 70
     0
  9
$USERI3
 70
     0
  9
$USERI4
 70
     0
  9
$USERI5
 70
     0
  9
$USERR1
 40
0.0
  9
$USERR2
 40
0.0
  9
$USERR3
 40
0.0
  9
$USERR4
 40
0.0
  9
$USERR5
 40
0.0
  9
$WORLDVIEW
 70
     1
  9
$SHADEDGE
 70
     3
  9
$SHADEDIF
 70
    70
  9
$TILEMODE
 70
     1
  9
$MAXACTVP
 70
    64
  9
$PINSBASE
 10
0.0
 20
0.0
 30
0.0
  9
$PLIMCHECK
 70
     0
  9
$PEXTMIN
 10
1.000000000000000E+20
 20
1.000000000000000E+20
 30
1.000000000000000E+20
  9
$PEXTMAX
 10
-1.000000000000000E+20
 20
-1.000000000000000E+20
 30
-1.000000000000000E+20
  9
$PLIMMIN
 10
0.0
 20
0.0
  9
$PLIMMAX
 10
0.0
 20
0.0
  9
$UNITMODE
 70
     0
  9
$VISRETAIN
 70
     1
  9
$PLINEGEN
 70
     0
  9
$PSLTSCALE
 70
     1
  9
$TREEDEPTH
 70
  3020
  9
$CMLSTYLE
  2
Standard
  9
$CMLJUST
 70
     0
  9
$CMLSCALE
 40
20.0
  9
$PROXYGRAPHICS
 70
     1
  9
$MEASUREMENT
 70
     1
  9
$CELWEIGHT
370
    -1
  9
$ENDCAPS
280
     0
  9
$JOINSTYLE
280
     0
  9
$LWDISPLAY
290
     1
  9
$INSUNITS
 70
     4
  9
$HYPERLINKBASE
  1

  9
$STYLESHEET
  1

  9
$XEDIT
290
     1
  9
$CEPSNTYPE
380
     0
  9
$PSTYLEMODE
290
     1
  9
$FINGERPRINTGUID
  2
{DA0733B4-5CAB-4677-9CBE-1F55E5311D6A}
  9
$VERSIONGUID
  2
{FAEB1C32-E019-11D5-929B-00C0DF256EC4}
  9
$EXTNAMES
290
     1
  9
$PSVPSCALE
 40
0.0
  9
$OLESTARTUP
290
     0
  0
ENDSEC
  0
SECTION
  2
CLASSES
  0
CLASS
  1
ACDBDICTIONARYWDFLT
  2
AcDbDictionaryWithDefault
  3
ObjectDBX Classes
 90
        0
280
     0
281
     0
  0
CLASS
  1
VISUALSTYLE
  2
AcDbVisualStyle
  3
ObjectDBX Classes
 90
     4095
280
     0
281
     0
  0
CLASS
  1
MATERIAL
  2
AcDbMaterial
  3
ObjectDBX Classes
 90
     1153
280
     0
281
     0
  0
CLASS
  1
SCALE
  2
AcDbScale
  3
ObjectDBX Classes
 90
     1153
280
     0
281
     0
  0
CLASS
  1
SUN
  2
AcDbSun
  3
SCENEOE
 90
     1153
280
     0
281
     0
  0
CLASS
  1
ACDBPLACEHOLDER
  2
AcDbPlaceHolder
  3
ObjectDBX Classes
 90
        0
280
     0
281
     0
  0
CLASS
  1
LAYOUT
  2
AcDbLayout
  3
ObjectDBX Classes
 90
        0
280
     0
281
     0
  0
CLASS
  1
TABLESTYLE
  2
AcDbTableStyle
  3
ObjectDBX Classes
 90
     4095
280
     0
281
     0
  0
CLASS
  1
MLEADERSTYLE
  2
AcDbMLeaderStyle
  3
ACDB_MLEADERSTYLE_CLASS
 90
     4095
280
     0
281
     0
  0
CLASS
  1
RASTERVARIABLES
  2
AcDbRasterVariables
  3
ISM
 90
        0
280
     0
281
     0
  0
CLASS
  1
DIMASSOC
  2
AcDbDimAssoc
  3
"AcDbDimAssoc|Product Desc:     AcDim ARX App For Dimension|Company:          Autodesk, Inc.|WEB Address:      www.autodesk.com"
 90
        0
280
     0
281
     0
  0
ENDSEC
  0
SECTION
  2
TABLES
  0
TABLE
  2
VPORT
  5
8
330
0
100
AcDbSymbolTable
 70
     1
  0
VPORT
  5
29
330
8
100
AcDbSymbolTableRecord
100
AcDbViewportTableRecord
  2
*Active
 70
     0
 10
0.0
 20
0.0
 11
1.0
 21
1.0
 12
-14.84965592788079
 22
0.6704589594953543
 13
0.0
 23
0.0
 14
10.0
 24
10.0
 15
10.0
 25
10.0
 16
0.0
 26
0.0
 36
1.0
 17
0.0
 27
0.0
 37
0.0
 40
49.6609013456151
 41
1.228571428571429
 42
50.0
 43
0.0
 44
0.0
 50
0.0
 51
0.0
 71
    16
 72
  2000
 73
     1
 74
     3
 75
     0
 76
     0
 77
     0
 78
     0
281
     0
 65
     1
110
0.0
120
0.0
130
0.0
111
1.0
121
0.0
131
0.0
112
0.0
122
1.0
132
0.0
 79
     0
146
0.0
  0
ENDTAB
  0
TABLE
  2
LTYPE
  5
5
330
0
100
AcDbSymbolTable
 70
     6
  0
LTYPE
  5
14
330
5
100
AcDbSymbolTableRecord
100
AcDbLinetypeTableRecord
  2
ByBlock
 70
     0
  3

 72
    65
 73
     0
 40
0.0
  0
LTYPE
  5
15
330
5
100
AcDbSymbolTableRecord
100
AcDbLinetypeTableRecord
  2
ByLayer
 70
     0
  3

 72
    65
 73
     0
 40
0.0
  0
LTYPE
  5
16
330
5
100
AcDbSymbolTableRecord
100
AcDbLinetypeTableRecord
  2
Continuous
 70
     0
  3
Solid line
 72
    65
 73
     0
 40
0.0
  0
LTYPE
  5
6A
330
5
100
AcDbSymbolTableRecord
100
AcDbLinetypeTableRecord
  2
HIDDEN
 70
     0
  3
Hidden __ __ __ __ __ __ __ __ __ __ __ __ __ __
 72
    65
 73
     2
 40
1.905
 49
1.27
 74
     0
 49
-0.635
 74
     0
  0
LTYPE
  5
6B
330
5
100
AcDbSymbolTableRecord
100
AcDbLinetypeTableRecord
  2
PHANTOM
 70
     0
  3
Phantom ______  __  __  ______  __  __  ______
 72
    65
 73
     6
 40
12.7
 49
6.35
 74
     0
 49
-1.27
 74
     0
 49
1.27
 74
     0
 49
-1.27
 74
     0
 49
1.27
 74
     0
 49
-1.27
 74
     0
  0
LTYPE
  5
6C
330
5
100
AcDbSymbolTableRecord
100
AcDbLinetypeTableRecord
  2
CENTER
 70
     0
  3
Center ____ _ ____ _ ____ _ ____ _ ____ _ ____
 72
    65
 73
     4
 40
10.16
 49
6.35
 74
     0
 49
-1.27
 74
     0
 49
1.27
 74
     0
 49
-1.27
 74
     0
  0
LTYPE
  5
6D
330
5
100
AcDbSymbolTableRecord
100
AcDbLinetypeTableRecord
  2
CENTERX2
 70
     0
  3
Center (2x) ________  __  ________  __  _____
 72
    65
 73
     4
 40
20.32
 49
12.7
 74
     0
 49
-2.54
 74
     0
 49
2.54
 74
     0
 49
-2.54
 74
     0
  0
LTYPE
  5
6E
330
5
100
AcDbSymbolTableRecord
100
AcDbLinetypeTableRecord
  2
DOT2
 70
     0
  3
Dot (.5x) ........................................
 72
    65
 73
     2
 40
0.635
 49
0.0
 74
     0
 49
-0.635
 74
     0
  0
ENDTAB
  0
TABLE
  2
LAYER
  5
2
330
0
100
AcDbSymbolTable
 70
    17
  0
LAYER
  5
10
330
2
100
AcDbSymbolTableRecord
100
AcDbLayerTableRecord
  2
0
 70
     0
 62
     7
  6
Continuous
370
    -3
390
F
  0
LAYER
  5
6F
330
2
100
AcDbSymbolTableRecord
100
AcDbLayerTableRecord
  2
FORMAT
 70
     0
 62
     2
  6
Continuous
370
    -3
390
F
  0
LAYER
  5
70
330
2
100
AcDbSymbolTableRecord
100
AcDbLayerTableRecord
  2
외형선
 70
     0
 62
   100
  6
Continuous
370
    30
390
F
  0
LAYER
  5
71
330
2
100
AcDbSymbolTableRecord
100
AcDbLayerTableRecord
  2
숨은선
 70
     0
 62
     2
  6
HIDDEN
370
    15
390
F
  0
LAYER
  5
72
330
2
100
AcDbSymbolTableRecord
100
AcDbLayerTableRecord
  2
중심선
 70
     0
 62
     1
  6
CENTERX2
370
    -3
390
F
  0
LAYER
  5
73
330
2
100
AcDbSymbolTableRecord
100
AcDbLayerTableRecord
  2
파단선
 70
     0
 62
     4
  6
Continuous
370
    -3
390
F
  0
LAYER
  5
74
330
2
100
AcDbSymbolTableRecord
100
AcDbLayerTableRecord
  2
해칭선
 70
     0
 62
     4
  6
Continuous
370
    -3
390
F
  0
LAYER
  5
75
330
2
100
AcDbSymbolTableRecord
100
AcDbLayerTableRecord
  2
가는실선
 70
     0
 62
     4
  6
Continuous
370
    -3
390
F
  0
LAYER
  5
76
330
2
100
AcDbSymbolTableRecord
100
AcDbLayerTableRecord
  2
치수_보조선
 70
     0
 62
     4
  6
Continuous
370
    -3
390
F
  0
LAYER
  5
77
330
2
100
AcDbSymbolTableRecord
100
AcDbLayerTableRecord
  2
치수문자_일반주서
 70
     0
 62
     7
  6
Continuous
370
    15
390
F
  0
LAYER
  5
78
330
2
100
AcDbSymbolTableRecord
100
AcDbLayerTableRecord
  2
개별주서
 70
     0
 62
   100
  6
Continuous
370
    30
390
F
  0
LAYER
  5
79
330
2
100
AcDbSymbolTableRecord
100
AcDbLayerTableRecord
  2
중간선
 70
     0
 62
     2
  6
Continuous
370
    15
390
F
  0
LAYER
  5
7A
330
2
100
AcDbSymbolTableRecord
100
AcDbLayerTableRecord
  2
윤곽선
 70
     0
 62
     3
  6
Continuous
370
    40
390
F
  0
LAYER
  5
7B
330
2
100
AcDbSymbolTableRecord
100
AcDbLayerTableRecord
  2
중심마크
 70
     0
 62
   100
  6
Continuous
370
    30
390
F
  0
LAYER
  5
7C
330
2
100
AcDbSymbolTableRecord
100
AcDbLayerTableRecord
  2
가상선
 70
     0
 62
     4
  6
PHANTOM
370
    -3
390
F
  0
LAYER
  5
7D
330
2
100
AcDbSymbolTableRecord
100
AcDbLayerTableRecord
  2
특수지정선
 70
     0
 62
     5
  6
CENTERX2
370
    60
390
F
  0
LAYER
  5
155
330
2
100
AcDbSymbolTableRecord
100
AcDbLayerTableRecord
  2
Defpoints
 70
     0
 62
     7
  6
Continuous
290
     0
370
    -3
390
F
  0
ENDTAB
  0
TABLE
  2
STYLE
  5
3
330
0
100
AcDbSymbolTable
 70
     2
  0
STYLE
  5
11
330
3
100
AcDbSymbolTableRecord
100
AcDbTextStyleTableRecord
  2
Standard
 70
     0
 40
0.0
 41
1.0
 50
0.0
 71
     0
 42
3.5
  3
txt
  4

  0
STYLE
  5
93
330
3
100
AcDbSymbolTableRecord
100
AcDbTextStyleTableRecord
  2
SLDTEXTSTYLE0
 70
     0
 40
0.0
 41
0.75
 50
0.0
 71
     0
 42
3.5
  3
TXT
  4

  0
ENDTAB
  0
TABLE
  2
VIEW
  5
6
330
0
100
AcDbSymbolTable
 70
     0
  0
ENDTAB
  0
TABLE
  2
UCS
  5
7
330
0
100
AcDbSymbolTable
 70
     0
  0
ENDTAB
  0
TABLE
  2
APPID
  5
9
330
0
100
AcDbSymbolTable
 70
     2
  0
APPID
  5
12
330
9
100
AcDbSymbolTableRecord
100
AcDbRegAppTableRecord
  2
ACAD
 70
     0
  0
APPID
  5
167
330
9
100
AcDbSymbolTableRecord
100
AcDbRegAppTableRecord
  2
PE_DIMMEASUREMENT
 70
     0
  0
ENDTAB
  0
TABLE
  2
DIMSTYLE
  5
A
330
0
100
AcDbSymbolTable
 70
     5
100
AcDbDimStyleTable
  0
DIMSTYLE
105
27
330
A
100
AcDbSymbolTableRecord
100
AcDbDimStyleTableRecord
  2
ISO-25
 70
     0
 41
2.5
 42
0.625
 43
3.75
 44
1.25
 73
     0
 74
     0
 77
     1
 78
     8
140
2.5
141
2.5
143
0.03937007874016
147
0.625
171
     3
172
     1
178
     0
271
     2
272
     2
274
     3
278
    44
283
     0
284
     8
340
11
  0
DIMSTYLE
105
D8
102
{ACAD_REACTORS
330
D7
102
}
330
A
100
AcDbSymbolTableRecord
100
AcDbDimStyleTableRecord
  2
SLDDIMSTYLE0
 70
     0
 41
3.302
 44
0.0
 45
0.000000001
 73
     0
 74
     0
 77
     1
 78
    12
 79
     3
140
3.5
143
0.0393700787401575
147
0.875
148
0.000000001
170
     1
172
     1
173
     1
178
     0
271
     2
272
     2
276
     2
284
    12
289
     0
340
93
  0
DIMSTYLE
105
ED
102
{ACAD_REACTORS
330
EC
102
}
330
A
100
AcDbSymbolTableRecord
100
AcDbDimStyleTableRecord
  2
SLDDIMSTYLE1
 70
     0
 41
3.302
 44
0.0
 45
0.000000001
 73
     0
 74
     0
 77
     1
 78
     4
 79
     1
140
3.5
143
0.0393700787401575
147
0.875
148
0.000000001
170
     1
173
     1
178
     0
271
     2
272
     2
276
     2
284
    12
340
93
  0
DIMSTYLE
105
101
102
{ACAD_REACTORS
330
100
102
}
330
A
100
AcDbSymbolTableRecord
100
AcDbDimStyleTableRecord
  2
SLDDIMSTYLE2
 70
     0
 41
3.302
 44
0.0
 45
0.000000001
 73
     0
 74
     0
 77
     1
 78
    12
 79
     3
140
3.5
143
0.0393700787401575
147
0.875
148
0.000000001
170
     1
173
     1
178
     0
271
     2
272
     2
276
     2
284
    12
340
93
  0
DIMSTYLE
105
115
102
{ACAD_REACTORS
330
114
330
156
102
}
330
A
100
AcDbSymbolTableRecord
100
AcDbDimStyleTableRecord
  2
SLDDIMSTYLE3
 70
     0
 41
3.302
 44
0.0
 45
0.000000001
 73
     0
 74
     0
 77
     1
 78
     4
 79
     1
140
3.5
143
0.0393700787401575
147
0.875
148
0.000000001
170
     1
172
     1
173
     1
178
     0
271
     2
272
     2
276
     2
284
    12
289
     0
340
93
  0
ENDTAB
  0
TABLE
  2
BLOCK_RECORD
  5
1
330
0
100
AcDbSymbolTable
 70
     8
  0
BLOCK_RECORD
  5
1F
330
1
100
AcDbSymbolTableRecord
100
AcDbBlockTableRecord
  2
*Model_Space
340
22
  0
BLOCK_RECORD
  5
1B
330
1
100
AcDbSymbolTableRecord
100
AcDbBlockTableRecord
  2
*Paper_Space
340
1E
  0
BLOCK_RECORD
  5
23
330
1
100
AcDbSymbolTableRecord
100
AcDbBlockTableRecord
  2
*Paper_Space0
340
26
  0
BLOCK_RECORD
  5
7E
330
1
100
AcDbSymbolTableRecord
100
AcDbBlockTableRecord
  2
블럭10
340
0
102
{BLKREFS
331
CF
102
}
  0
BLOCK_RECORD
  5
D9
330
1
100
AcDbSymbolTableRecord
100
AcDbBlockTableRecord
  2
_D
340
0
  0
BLOCK_RECORD
  5
EE
330
1
100
AcDbSymbolTableRecord
100
AcDbBlockTableRecord
  2
_D_1
340
0
  0
BLOCK_RECORD
  5
102
330
1
100
AcDbSymbolTableRecord
100
AcDbBlockTableRecord
  2
_D_2
340
0
  0
BLOCK_RECORD
  5
116
330
1
100
AcDbSymbolTableRecord
100
AcDbBlockTableRecord
  2
_D_3
340
0
  0
BLOCK_RECORD
  5
12A
330
1
100
AcDbSymbolTableRecord
100
AcDbBlockTableRecord
  2
SW_DOWELSYMBOL_0
340
0
102
{BLKREFS
331
130
102
}
  0
BLOCK_RECORD
  5
159
330
1
100
AcDbSymbolTableRecord
100
AcDbBlockTableRecord
  2
*D7
340
0
  0
ENDTAB
  0
ENDSEC
  0
SECTION
  2
BLOCKS
  0
BLOCK
  5
20
330
1F
100
AcDbEntity
  8
0
100
AcDbBlockBegin
  2
*Model_Space
 70
     0
 10
0.0
 20
0.0
 30
0.0
  3
*Model_Space
  1
*Model_Space
  0
ENDBLK
  5
21
330
1F
100
AcDbEntity
  8
0
100
AcDbBlockEnd
  0
BLOCK
  5
1C
330
1B
100
AcDbEntity
 67
     1
  8
0
100
AcDbBlockBegin
  2
*Paper_Space
 70
     0
 10
0.0
 20
0.0
 30
0.0
  3
*Paper_Space
  1
*Paper_Space
  0
ENDBLK
  5
1D
330
1B
100
AcDbEntity
 67
     1
  8
0
100
AcDbBlockEnd
  0
BLOCK
  5
24
330
23
100
AcDbEntity
  8
0
100
AcDbBlockBegin
  2
*Paper_Space0
 70
     0
 10
0.0
 20
0.0
 30
0.0
  3
*Paper_Space0
  1
*Paper_Space0
  0
ENDBLK
  5
25
330
23
100
AcDbEntity
  8
0
100
AcDbBlockEnd
  0
BLOCK
  5
7F
330
7E
100
AcDbEntity
  8
0
100
AcDbBlockBegin
  2
블럭10
 70
     2
 10
0.0
 20
0.0
 30
0.0
  3
블럭10
  1
블럭10
  0
ELLIPSE
  5
81
330
7E
100
AcDbEntity
  8
중심선
100
AcDbEllipse
 10
20.54032771741204
 20
12.0471743016438
 30
0.0
 11
6.600054785286829
 21
-1.261213355974178E-13
 31
0.0
210
0.0
220
0.0
230
1.0
 40
0.636358354079598
 41
0.9219305317359503
 42
6.513795318482858
  0
ELLIPSE
  5
82
330
7E
100
AcDbEntity
  8
중심선
100
AcDbEllipse
 10
20.54032771746488
 20
12.04717430159265
 30
0.0
 11
3.960054785062283
 21
1.540847449632565E-10
 31
0.0
210
0.0
220
0.0
230
1.0
 40
0.3939339440162632
 41
1.131841032648279
 42
5.62031148352944
  0
LINE
  5
83
330
7E
100
AcDbEntity
  8
중심선
100
AcDbLine
 10
2.268634060543552
 20
16.24717430164393
 30
0.0
 11
5.714909304380834
 21
16.24717430164393
 31
0.0
  0
LINE
  5
84
330
7E
100
AcDbEntity
  8
중심선
100
AcDbLine
 10
5.245725140726316
 20
7.84717430164391
 30
0.0
 11
8.692000384563599
 21
7.84717430164391
 31
0.0
  0
LINE
  5
85
330
7E
100
AcDbEntity
  8
중심선
100
AcDbLine
 10
15.74043728645272
 20
16.24717430164393
 30
0.0
 11
8.692000384563599
 21
7.84717430164391
 31
0.0
  0
LINE
  5
86
330
7E
100
AcDbEntity
  8
중심선
100
AcDbLine
 10
0.1404042013395286
 20
13.71084872107135
 30
0.0
 11
3.58671253028996
 21
13.71088815037384
 31
0.0
  0
LINE
  5
87
330
7E
100
AcDbEntity
  8
중심선
100
AcDbLine
 10
2.750260043222114
 20
10.84717430164391
 30
0.0
 11
6.196535287059397
 21
10.84717430164391
 31
0.0
  0
LINE
  5
88
330
7E
100
AcDbEntity
  8
중심선
100
AcDbLine
 10
12.29416204261559
 20
16.24717430164393
 30
0.0
 11
5.245725140726316
 21
7.84717430164391
 31
0.0
  0
LINE
  5
89
330
7E
100
AcDbEntity
  8
중심선
100
AcDbLine
 10
10.72767329541681
 20
16.24717430164393
 30
0.0
 11
6.196535287059397
 21
10.84717430164391
 31
0.0
  0
LINE
  5
8A
330
7E
100
AcDbEntity
  8
중심선
100
AcDbLine
 10
7.28139805157953
 20
16.24717430164393
 30
0.0
 11
2.750260043222114
 21
10.84717430164391
 31
0.0
  0
LINE
  5
8B
330
7E
100
AcDbEntity
  8
중심선
100
AcDbLine
 10
5.714909304380834
 20
16.24717430164393
 30
0.0
 11
3.58671253028996
 21
13.71088815037384
 31
0.0
  0
LINE
  5
8C
330
7E
100
AcDbEntity
  8
중심선
100
AcDbLine
 10
2.268634060543552
 20
16.24717430164393
 30
0.0
 11
0.1404042013395286
 21
13.71084872107135
 31
0.0
  0
LINE
  5
8D
330
7E
100
AcDbEntity
  8
중심선
100
AcDbLine
 10
7.28139805157953
 20
16.24717430164393
 30
0.0
 11
10.72767329541681
 21
16.24717430164393
 31
0.0
  0
LINE
  5
8E
330
7E
100
AcDbEntity
  8
중심선
100
AcDbLine
 10
12.29416204261559
 20
16.24717430164393
 30
0.0
 11
15.74043728645272
 21
16.24717430164393
 31
0.0
  0
LINE
  5
8F
330
7E
100
AcDbEntity
  8
중심선
100
AcDbLine
 10
19.22036997980202
 20
11.08717430171403
 30
0.0
 11
23.66174974927406
 21
11.08717430171406
 31
0.0
  0
LINE
  5
90
330
7E
100
AcDbEntity
  8
중심선
100
AcDbLine
 10
19.22039502424796
 20
13.00717430171391
 30
0.0
 11
19.22036997980202
 21
11.08717430171403
 31
0.0
  0
LINE
  5
91
330
7E
100
AcDbEntity
  8
중심선
100
AcDbLine
 10
19.22039502424796
 20
13.00717430171391
 30
0.0
 11
26.96566020931264
 21
13.00717430171391
 31
0.0
  0
LINE
  5
92
330
7E
100
AcDbEntity
  8
중심선
100
AcDbLine
 10
22.22332737316547
 20
13.45928029700563
 30
0.0
 11
24.52862924686651
 21
15.39360700705356
 31
0.0
  0
ATTDEF
  5
94
330
7E
100
AcDbEntity
  8
FORMAT
 62
     2
100
AcDbText
 10
-9.18129528874128
 20
2.075366912832191
 30
0.0
 40
4.233333333333333
  1
E5977905 [ 3 FLUTE ]
 41
0.75
  7
SLDTEXTSTYLE0
 11
-9.18129528874128
 21
-0.0412997538344756
 31
0.0
100
AcDbAttributeDefinition
  3

  2
AUTOATTR0
 70
     0
 74
     1
  0
ENDBLK
  5
80
330
7E
100
AcDbEntity
  8
0
100
AcDbBlockEnd
  0
BLOCK
  5
DA
330
D9
100
AcDbEntity
  8
0
100
AcDbBlockBegin
  2
_D
 70
     0
 10
0.0
 20
0.0
 30
0.0
  3
_D
  1
_D
  0
LINE
  5
DC
330
D9
100
AcDbEntity
  8
치수문자_일반주서
 62
     0
370
    -2
100
AcDbLine
 10
-66.9045
 20
9.524999999999975
 30
0.0
 11
-80.34200000000003
 21
9.524999999999926
 31
0.0
  0
LINE
  5
DD
330
D9
100
AcDbEntity
  8
치수문자_일반주서
 62
     0
370
    -2
100
AcDbLine
 10
-66.9045
 20
-9.525000000000011
 30
0.0
 11
-80.34199999999996
 21
-9.52500000000006
 31
0.0
  0
LINE
  5
DE
330
D9
100
AcDbEntity
  8
치수문자_일반주서
 62
     0
370
    -2
100
AcDbLine
 10
-80.34200000000001
 20
6.222999999999926
 30
0.0
 11
-80.34199999999997
 21
-6.223000000000061
 31
0.0
  0
SOLID
  5
DF
330
D9
100
AcDbEntity
  8
치수문자_일반주서
 62
     0
100
AcDbTrace
 10
-79.79166666666669
 20
6.222999999999928
 30
0.0
 11
-80.89233333333334
 21
6.222999999999924
 31
0.0
 12
-80.34200000000003
 22
9.524999999999926
 32
0.0
 13
-80.34200000000003
 23
9.524999999999926
 33
0.0
  0
SOLID
  5
E0
330
D9
100
AcDbEntity
  8
치수문자_일반주서
 62
     0
100
AcDbTrace
 10
-80.8923333333333
 20
-6.223000000000063
 30
0.0
 11
-79.79166666666664
 21
-6.223000000000059
 31
0.0
 12
-80.34199999999996
 22
-9.52500000000006
 32
0.0
 13
-80.34199999999996
 23
-9.52500000000006
 33
0.0
  0
MTEXT
  5
E1
330
D9
100
AcDbEntity
  8
치수문자_일반주서
 62
     0
100
AcDbMText
 10
-84.717
 20
0.2102829482368843
 30
0.0
 40
3.5
 41
0.0
 71
     2
 72
     1
  1
\A1;%%c19.05 [3/4]
  7
SLDTEXTSTYLE0
 11
-3.729883127349610E-15
 21
1.0
 31
0.0
 73
     1
 44
1.0
  0
POINT
  5
E2
330
D9
100
AcDbEntity
  8
Defpoints
 62
     0
100
AcDbPoint
 10
-66.842
 20
9.524999999999975
 30
0.0
  0
POINT
  5
E3
330
D9
100
AcDbEntity
  8
Defpoints
 62
     0
100
AcDbPoint
 10
-66.842
 20
-9.525000000000011
 30
0.0
  0
POINT
  5
E4
330
D9
100
AcDbEntity
  8
Defpoints
 62
     0
100
AcDbPoint
 10
-80.34199999999996
 20
-9.52500000000006
 30
0.0
  0
ENDBLK
  5
DB
330
D9
100
AcDbEntity
  8
0
100
AcDbBlockEnd
  0
BLOCK
  5
EF
330
EE
100
AcDbEntity
  8
0
100
AcDbBlockBegin
  2
_D_1
 70
     0
 10
0.0
 20
0.0
 30
0.0
  3
_D_1
  1
_D_1
  0
LINE
  5
F1
330
EE
100
AcDbEntity
  8
치수문자_일반주서
 62
     0
370
    -2
100
AcDbLine
 10
-67.342
 20
9.087499999999979
 30
0.0
 11
-67.34200000000001
 21
46.95062537290536
 31
0.0
  0
LINE
  5
F2
330
EE
100
AcDbEntity
  8
치수문자_일반주서
 62
     0
370
    -2
100
AcDbLine
 10
85.05800000000002
 20
6.229975262783499
 30
0.0
 11
85.058
 21
46.95062537290536
 31
0.0
  0
LINE
  5
F3
330
EE
100
AcDbEntity
  8
치수문자_일반주서
 62
     0
370
    -2
100
AcDbLine
 10
-64.04000000000002
 20
46.95062537290536
 30
0.0
 11
81.756
 21
46.95062537290536
 31
0.0
  0
SOLID
  5
F4
330
EE
100
AcDbEntity
  8
치수문자_일반주서
 62
     0
100
AcDbTrace
 10
-64.04000000000002
 20
47.5009587062387
 30
0.0
 11
-64.04000000000002
 21
46.40029203957203
 31
0.0
 12
-67.34200000000001
 22
46.95062537290536
 32
0.0
 13
-67.34200000000001
 23
46.95062537290536
 33
0.0
  0
SOLID
  5
F5
330
EE
100
AcDbEntity
  8
치수문자_일반주서
 62
     0
100
AcDbTrace
 10
81.756
 20
46.40029203957203
 30
0.0
 11
81.756
 21
47.5009587062387
 31
0.0
 12
85.058
 22
46.95062537290536
 32
0.0
 13
85.058
 23
46.95062537290536
 33
0.0
  0
MTEXT
  5
F6
330
EE
100
AcDbEntity
  8
치수문자_일반주서
 62
     0
100
AcDbMText
 10
3.261305818163944
 20
51.32562537290536
 30
0.0
 40
3.5
 41
0.0
 71
     2
 72
     1
  1
\A1;152.40 [6]
  7
SLDTEXTSTYLE0
 73
     1
 44
1.0
  0
POINT
  5
F7
330
EE
100
AcDbEntity
  8
Defpoints
 62
     0
100
AcDbPoint
 10
-67.342
 20
9.024999999999979
 30
0.0
  0
POINT
  5
F8
330
EE
100
AcDbEntity
  8
Defpoints
 62
     0
100
AcDbPoint
 10
85.05800000000002
 20
6.167475262783499
 30
0.0
  0
POINT
  5
F9
330
EE
100
AcDbEntity
  8
Defpoints
 62
     0
100
AcDbPoint
 10
85.05800000000002
 20
46.95062537290536
 30
0.0
  0
ENDBLK
  5
F0
330
EE
100
AcDbEntity
  8
0
100
AcDbBlockEnd
  0
BLOCK
  5
103
330
102
100
AcDbEntity
  8
0
100
AcDbBlockBegin
  2
_D_2
 70
     0
 10
0.0
 20
0.0
 30
0.0
  3
_D_2
  1
_D_2
  0
LINE
  5
105
330
102
100
AcDbEntity
  8
치수문자_일반주서
 62
     0
370
    -2
100
AcDbLine
 10
2.50800000000001
 20
9.07949999999998
 30
0.0
 11
2.50800000000001
 21
34.42376142194365
 31
0.0
  0
LINE
  5
106
330
102
100
AcDbEntity
  8
치수문자_일반주서
 62
     0
370
    -2
100
AcDbLine
 10
85.05800000000002
 20
6.229975262783499
 30
0.0
 11
85.05800000000002
 21
34.42376142194365
 31
0.0
  0
LINE
  5
107
330
102
100
AcDbEntity
  8
치수문자_일반주서
 62
     0
370
    -2
100
AcDbLine
 10
5.810000000000009
 20
34.42376142194365
 30
0.0
 11
81.75600000000003
 21
34.42376142194365
 31
0.0
  0
SOLID
  5
108
330
102
100
AcDbEntity
  8
치수문자_일반주서
 62
     0
100
AcDbTrace
 10
5.810000000000009
 20
34.97409475527699
 30
0.0
 11
5.810000000000009
 21
33.87342808861032
 31
0.0
 12
2.50800000000001
 22
34.42376142194365
 32
0.0
 13
2.50800000000001
 23
34.42376142194365
 33
0.0
  0
SOLID
  5
109
330
102
100
AcDbEntity
  8
치수문자_일반주서
 62
     0
100
AcDbTrace
 10
81.75600000000003
 20
33.87342808861032
 30
0.0
 11
81.75600000000003
 21
34.97409475527699
 31
0.0
 12
85.05800000000002
 22
34.42376142194365
 32
0.0
 13
85.05800000000002
 23
34.42376142194365
 33
0.0
  0
MTEXT
  5
10A
330
102
100
AcDbEntity
  8
치수문자_일반주서
 62
     0
100
AcDbMText
 10
42.77696863004562
 20
38.79876142194365
 30
0.0
 40
3.5
 41
0.0
 71
     2
 72
     1
  1
\A1;82.55 [3 1/4]
  7
SLDTEXTSTYLE0
 73
     1
 44
1.0
  0
POINT
  5
10B
330
102
100
AcDbEntity
  8
Defpoints
 62
     0
100
AcDbPoint
 10
2.50800000000001
 20
9.01699999999998
 30
0.0
  0
POINT
  5
10C
330
102
100
AcDbEntity
  8
Defpoints
 62
     0
100
AcDbPoint
 10
85.05800000000002
 20
6.167475262783499
 30
0.0
  0
POINT
  5
10D
330
102
100
AcDbEntity
  8
Defpoints
 62
     0
100
AcDbPoint
 10
85.05800000000002
 20
34.42376142194365
 30
0.0
  0
ENDBLK
  5
104
330
102
100
AcDbEntity
  8
0
100
AcDbBlockEnd
  0
BLOCK
  5
117
330
116
100
AcDbEntity
  8
0
100
AcDbBlockBegin
  2
_D_3
 70
     0
 10
0.0
 20
0.0
 30
0.0
  3
_D_3
  1
_D_3
  0
LINE
  5
119
330
116
100
AcDbEntity
  8
치수문자_일반주서
 62
     0
370
    -2
100
AcDbLine
 10
59.65800000000001
 20
9.48404367327754
 30
0.0
 11
59.65800000000001
 21
19.61135534719196
 31
0.0
  0
LINE
  5
11A
330
116
100
AcDbEntity
  8
치수문자_일반주서
 62
     0
370
    -2
100
AcDbLine
 10
85.05800000000002
 20
6.229975262783499
 30
0.0
 11
85.05800000000002
 21
19.61135534719196
 31
0.0
  0
LINE
  5
11B
330
116
100
AcDbEntity
  8
치수문자_일반주서
 62
     0
370
    -2
100
AcDbLine
 10
62.96000000000001
 20
19.61135534719196
 30
0.0
 11
81.75600000000003
 21
19.61135534719196
 31
0.0
  0
SOLID
  5
11C
330
116
100
AcDbEntity
  8
치수문자_일반주서
 62
     0
100
AcDbTrace
 10
62.96000000000001
 20
20.16168868052529
 30
0.0
 11
62.96000000000001
 21
19.06102201385863
 31
0.0
 12
59.65800000000001
 22
19.61135534719196
 32
0.0
 13
59.65800000000001
 23
19.61135534719196
 33
0.0
  0
SOLID
  5
11D
330
116
100
AcDbEntity
  8
치수문자_일반주서
 62
     0
100
AcDbTrace
 10
81.75600000000003
 20
19.06102201385863
 30
0.0
 11
81.75600000000003
 21
20.16168868052529
 31
0.0
 12
85.05800000000002
 22
19.61135534719196
 32
0.0
 13
85.05800000000002
 23
19.61135534719196
 33
0.0
  0
MTEXT
  5
11E
330
116
100
AcDbEntity
  8
치수문자_일반주서
 62
     0
100
AcDbMText
 10
73.51910958090451
 20
23.98635534719196
 30
0.0
 40
3.5
 41
0.0
 71
     2
 72
     1
  1
\A1;25.40 [1]
  7
SLDTEXTSTYLE0
 73
     1
 44
1.0
  0
POINT
  5
11F
330
116
100
AcDbEntity
  8
Defpoints
 62
     0
100
AcDbPoint
 10
59.65800000000001
 20
9.42154367327754
 30
0.0
  0
POINT
  5
120
330
116
100
AcDbEntity
  8
Defpoints
 62
     0
100
AcDbPoint
 10
85.05800000000002
 20
6.167475262783499
 30
0.0
  0
POINT
  5
121
330
116
100
AcDbEntity
  8
Defpoints
 62
     0
100
AcDbPoint
 10
85.05800000000002
 20
19.61135534719196
 30
0.0
  0
ENDBLK
  5
118
330
116
100
AcDbEntity
  8
0
100
AcDbBlockEnd
  0
BLOCK
  5
12B
330
12A
100
AcDbEntity
  8
0
100
AcDbBlockBegin
  2
SW_DOWELSYMBOL_0
 70
     0
 10
0.0
 20
0.0
 30
0.0
  3
SW_DOWELSYMBOL_0
  1
SW_DOWELSYMBOL_0
  0
CIRCLE
  5
12D
330
12A
100
AcDbEntity
  8
외형선
 62
     0
100
AcDbCircle
 10
0.0
 20
0.0
 30
0.0
 40
2.999999999999994
  0
HATCH
  5
12E
330
12A
100
AcDbEntity
  8
0
  6
Continuous
 62
     0
370
    30
100
AcDbHatch
 10
0.0
 20
0.0
 30
0.0
210
0.0
220
0.0
230
1.0
  2
SOLID
 70
     1
 71
     0
 91
        1
 92
        0
 93
        3
 72
     2
 10
0.0
 20
0.0
 40
2.999999999999994
 50
0.0
 51
90.0
 73
     1
 72
     1
 10
0.0
 20
2.999999999999994
 11
0.0
 21
0.0
 72
     1
 10
0.0
 20
0.0
 11
2.999999999999996
 21
0.0
 97
        0
 75
     0
 76
     1
 98
        1
 10
0.0
 20
0.0
  0
HATCH
  5
12F
330
12A
100
AcDbEntity
  8
0
  6
Continuous
 62
     0
370
    30
100
AcDbHatch
 10
0.0
 20
0.0
 30
0.0
210
0.0
220
0.0
230
1.0
  2
SOLID
 70
     1
 71
     0
 91
        1
 92
        0
 93
        3
 72
     2
 10
0.0
 20
0.0
 40
2.999999999999994
 50
180.0
 51
270.0000000000008
 73
     1
 72
     1
 10
0.0
 20
-2.999999999999994
 11
0.0
 21
0.0
 72
     1
 10
0.0
 20
0.0
 11
-2.999999999999996
 21
0.0
 97
        0
 75
     0
 76
     1
 98
        1
 10
0.0
 20
0.0
  0
ENDBLK
  5
12C
330
12A
100
AcDbEntity
  8
0
100
AcDbBlockEnd
  0
BLOCK
  5
15A
330
159
100
AcDbEntity
  8
0
100
AcDbBlockBegin
  2
*D7
 70
     1
 10
0.0
 20
0.0
 30
0.0
  3
*D7
  1
*D7
  0
LINE
  5
15C
330
159
100
AcDbEntity
  8
치수문자_일반주서
 62
     0
370
    -2
100
AcDbLine
 10
85.12050000000002
 20
9.524999999999999
 30
0.0
 11
106.5079935206013
 21
9.524999999999999
 31
0.0
  0
LINE
  5
15D
330
159
100
AcDbEntity
  8
치수문자_일반주서
 62
     0
370
    -2
100
AcDbLine
 10
72.5165077659033
 20
-9.525000000000006
 30
0.0
 11
106.5079935206013
 21
-9.525000000000006
 31
0.0
  0
LINE
  5
15E
330
159
100
AcDbEntity
  8
치수문자_일반주서
 62
     0
370
    -2
100
AcDbLine
 10
106.5079935206013
 20
9.524999999999999
 30
0.0
 11
106.5079935206013
 21
43.91025
 31
0.0
  0
LINE
  5
15F
330
159
100
AcDbEntity
  8
치수문자_일반주서
 62
     0
370
    -2
100
AcDbLine
 10
106.5079935206013
 20
9.524999999999999
 30
0.0
 11
106.5079935206013
 21
-9.525000000000006
 31
0.0
  0
LINE
  5
160
330
159
100
AcDbEntity
  8
치수문자_일반주서
 62
     0
370
    -2
100
AcDbLine
 10
106.5079935206013
 20
12.827
 30
0.0
 11
106.5079935206013
 21
16.129
 31
0.0
  0
LINE
  5
161
330
159
100
AcDbEntity
  8
치수문자_일반주서
 62
     0
370
    -2
100
AcDbLine
 10
106.5079935206013
 20
-12.82700000000001
 30
0.0
 11
106.5079935206013
 21
-16.129
 31
0.0
  0
SOLID
  5
162
330
159
100
AcDbEntity
  8
치수문자_일반주서
 62
     0
100
AcDbTrace
 10
105.957660187268
 20
12.827
 30
0.0
 11
107.0583268539347
 21
12.827
 31
0.0
 12
106.5079935206013
 22
9.524999999999999
 32
0.0
 13
106.5079935206013
 23
9.524999999999999
 33
0.0
  0
SOLID
  5
163
330
159
100
AcDbEntity
  8
치수문자_일반주서
 62
     0
100
AcDbTrace
 10
107.0583268539347
 20
-12.82700000000001
 30
0.0
 11
105.957660187268
 21
-12.82700000000001
 31
0.0
 12
106.5079935206013
 22
-9.525000000000006
 32
0.0
 13
106.5079935206013
 23
-9.525000000000006
 33
0.0
  0
MTEXT
  5
164
330
159
100
AcDbEntity
  8
치수문자_일반주서
 62
     0
100
AcDbMText
 10
103.8829935206013
 20
30.129
 30
0.0
 40
3.5
 41
0.0
 71
     5
 72
     1
  1
\A1;{%%c19.05 [3/4]}
  7
SLDTEXTSTYLE0
 11
0.0
 21
1.0
 31
0.0
 73
     1
 44
1.0
  0
POINT
  5
165
330
159
100
AcDbEntity
  8
Defpoints
 62
     0
100
AcDbPoint
 10
85.05800000000002
 20
9.524999999999999
 30
0.0
  0
POINT
  5
166
330
159
100
AcDbEntity
  8
Defpoints
 62
     0
100
AcDbPoint
 10
72.4540077659033
 20
-9.525000000000006
 30
0.0
  0
POINT
  5
168
330
159
100
AcDbEntity
  8
Defpoints
 62
     0
100
AcDbPoint
 10
106.5079935206013
 20
-9.525000000000007
 30
0.0
  0
ENDBLK
  5
15B
330
159
100
AcDbEntity
  8
0
100
AcDbBlockEnd
  0
ENDSEC
  0
SECTION
  2
ENTITIES
  0
LINE
  5
95
330
1F
100
AcDbEntity
  8
0
  6
Continuous
 62
     4
370
    15
100
AcDbLine
 10
2.0
 20
9.524999999999997
 30
0.0
 11
-66.842
 21
9.524999999999975
 31
0.0
  0
LINE
  5
96
330
1F
100
AcDbEntity
  8
0
  6
Continuous
 62
     4
370
    15
100
AcDbLine
 10
-66.842
 20
-9.525000000000011
 30
0.0
 11
2.0
 21
-9.524999999999991
 31
0.0
  0
LINE
  5
97
330
1F
100
AcDbEntity
  8
0
  6
Continuous
 62
     4
370
    15
100
AcDbLine
 10
-66.842
 20
9.524999999999977
 30
0.0
 11
-67.342
 21
9.024999999999979
 31
0.0
  0
LINE
  5
98
330
1F
100
AcDbEntity
  8
0
  6
Continuous
 62
     4
370
    15
100
AcDbLine
 10
-67.342
 20
-9.025000000000022
 30
0.0
 11
-66.842
 21
-9.52500000000002
 31
0.0
  0
LINE
  5
99
330
1F
100
AcDbEntity
  8
0
  6
Continuous
 62
     4
370
    15
100
AcDbLine
 10
2.0
 20
-9.524999999999983
 30
0.0
 11
2.50800000000001
 21
-9.016999999999971
 31
0.0
  0
LINE
  5
9A
330
1F
100
AcDbEntity
  8
0
  6
Continuous
 62
     4
370
    15
100
AcDbLine
 10
2.50800000000001
 20
9.016999999999982
 30
0.0
 11
2.0
 21
9.524999999999995
 31
0.0
  0
LINE
  5
9B
330
1F
100
AcDbEntity
  8
0
  6
Continuous
 62
     4
370
    15
100
AcDbLine
 10
56.6080571126683
 20
9.016999999999996
 30
0.0
 11
2.50800000000001
 21
9.01699999999998
 31
0.0
  0
LINE
  5
9C
330
1F
100
AcDbEntity
  8
0
  6
Continuous
 62
     4
370
    15
100
AcDbLine
 10
59.65800000000001
 20
9.016999999999996
 30
0.0
 11
57.68288661581269
 21
9.016999999999996
 31
0.0
  0
LINE
  5
9D
330
1F
100
AcDbEntity
  8
0
  6
Continuous
 62
     4
370
    15
100
AcDbLine
 10
2.50800000000001
 20
-9.016999999999975
 30
0.0
 11
56.60805711266831
 21
-9.016999999999957
 31
0.0
  0
LINE
  5
9E
102
{ACAD_REACTORS
102
}
330
1F
100
AcDbEntity
  8
0
  6
Continuous
 62
     1
370
    15
100
AcDbLine
 10
71.03010553679024
 20
-9.525000000000006
 30
0.0
 11
72.4540077659033
 21
-9.525000000000006
 31
0.0
  0
LINE
  5
9F
102
{ACAD_REACTORS
102
}
330
1F
100
AcDbEntity
  8
0
  6
Continuous
 62
     1
370
    15
100
AcDbLine
 10
85.05800000000002
 20
9.524999999999999
 30
0.0
 11
84.2661080681238
 21
9.524999999999999
 31
0.0
  0
LINE
  5
A0
330
1F
100
AcDbEntity
  8
0
  6
Continuous
 62
     4
370
    15
100
AcDbLine
 10
2.0
 20
9.524999999999991
 30
0.0
 11
2.0
 21
-9.524999999999991
 31
0.0
  0
LINE
  5
A1
330
1F
100
AcDbEntity
  8
0
  6
Continuous
 62
     4
370
    15
100
AcDbLine
 10
-66.842
 20
9.52499999999998
 30
0.0
 11
-66.842
 21
-9.525000000000011
 31
0.0
  0
LINE
  5
A2
330
1F
100
AcDbEntity
  8
0
  6
Continuous
 62
     4
370
    15
100
AcDbLine
 10
-67.342
 20
9.024999999999979
 30
0.0
 11
-67.342
 21
-9.025000000000022
 31
0.0
  0
LINE
  5
A3
330
1F
100
AcDbEntity
  8
0
  6
Continuous
 62
     4
370
    15
100
AcDbLine
 10
2.50800000000001
 20
9.01699999999998
 30
0.0
 11
2.50800000000001
 21
-9.016999999999971
 31
0.0
  0
SPLINE
  5
A4
330
1F
100
AcDbEntity
  8
0
  6
Continuous
 62
     4
370
    15
100
AcDbSpline
210
0.0
220
0.0
230
1.0
 70
     8
 71
     3
 72
    10
 73
     6
 74
     0
 42
0.000000001
 43
0.00000001
 40
0.0
 40
0.0
 40
0.0
 40
0.0
 40
0.5
 40
0.5
 40
1.0
 40
1.0
 40
1.0
 40
1.0
 10
59.658
 20
8.907256650009462
 30
0.0
 10
59.1496409534858
 20
8.963649264193077
 30
0.0
 10
58.63888160960966
 20
8.99845115951929
 30
0.0
 10
57.62367303111671
 20
9.02418077921747
 30
0.0
 10
57.11743375865177
 20
9.015219533158621
 30
0.0
 10
56.6080571126683
 20
8.984394913532858
 30
0.0
  0
SPLINE
  5
A5
330
1F
100
AcDbEntity
  8
0
  6
Continuous
 62
     1
370
    15
100
AcDbSpline
210
0.0
220
0.0
230
1.0
 70
     8
 71
     3
 72
     8
 73
     4
 74
     0
 42
0.000000001
 43
0.00000001
 40
0.0
 40
0.0
 40
0.0
 40
0.0
 40
1.0
 40
1.0
 40
1.0
 40
1.0
 10
59.55825945517093
 20
-0.0350666569321922
 30
0.0
 10
59.59151552849323
 20
-0.0585666794686487
 30
0.0
 10
59.62476289233541
 20
-0.0820642874863272
 30
0.0
 10
59.65800000000001
 20
-0.1055583857226783
 30
0.0
  0
SPLINE
  5
A6
330
1F
100
AcDbEntity
  8
0
  6
Continuous
 62
     4
370
    15
100
AcDbSpline
210
0.0
220
0.0
230
1.0
 70
     8
 71
     3
 72
    10
 73
     6
 74
     0
 42
0.000000001
 43
0.00000001
 40
0.0
 40
0.0
 40
0.0
 40
0.0
 40
0.5
 40
0.5
 40
1.0
 40
1.0
 40
1.0
 40
1.0
 10
59.55816942010393
 20
-0.0508951000710435
 30
0.0
 10
59.06616310525438
 20
0.2998587797544863
 30
0.0
 10
58.57225144805933
 20
0.6511778369297863
 30
0.0
 10
57.59067067613296
 20
1.347799341346833
 30
0.0
 10
57.10076691159529
 20
1.693638256575536
 30
0.0
 10
56.60805711266831
 20
2.035506450307535
 30
0.0
  0
SPLINE
  5
A7
330
1F
100
AcDbEntity
  8
0
  6
Continuous
 62
     4
370
    15
100
AcDbSpline
210
0.0
220
0.0
230
1.0
 70
    24
 71
     3
 72
    20
 73
    16
 74
     0
 42
0.000000001
 43
0.00000001
 40
0.0
 40
0.0
 40
0.0
 40
0.0
 40
0.2500000000000002
 40
0.2500000000000002
 40
0.3750000000000001
 40
0.3750000000000001
 40
0.5000000000000001
 40
0.5000000000000001
 40
0.6250000000000001
 40
0.6250000000000001
 40
0.75
 40
0.75
 40
0.875
 40
0.875
 40
1.0
 40
1.0
 40
1.0
 40
1.0
 10
59.65800000000001
 20
8.907256650009415
 30
0.0
 10
59.65800000000001
 20
8.174796572154563
 30
0.0
 10
59.65800000000001
 20
7.366694302584095
 30
0.0
 10
59.65800000000001
 20
6.078891756375067
 30
0.0
 10
59.65800000000001
 20
5.637611545298979
 30
0.0
 10
59.65800000000001
 20
4.746557675365526
 30
0.0
 10
59.65800000000001
 20
4.296773943577289
 30
0.0
 10
59.65800000000001
 20
3.411782426400357
 30
0.0
 10
59.65800000000001
 20
2.976637769699315
 30
0.0
 10
59.65800000000001
 20
2.150969618608159
 30
0.0
 10
59.65800000000001
 20
1.760606271080406
 30
0.0
 10
59.65800000000001
 20
1.058236111975659
 30
0.0
 10
59.65800000000001
 20
0.7464673319140707
 30
0.0
 10
59.65800000000001
 20
0.2326058810895966
 30
0.0
 10
59.65800000000001
 20
0.0307503145040452
 30
0.0
 10
59.65800000000001
 20
-0.105558385722558
 30
0.0
  0
SPLINE
  5
A8
330
1F
100
AcDbEntity
  8
0
  6
Continuous
 62
     1
370
    15
100
AcDbSpline
210
0.0
220
0.0
230
1.0
 70
     8
 71
     3
 72
     8
 73
     4
 74
     0
 42
0.000000001
 43
0.00000001
 40
0.0
 40
0.0
 40
0.0
 40
0.0
 40
1.0
 40
1.0
 40
1.0
 40
1.0
 10
59.55816942010372
 20
-0.0508951000714819
 30
0.0
 10
59.55816790494357
 20
-0.0457058207926726
 30
0.0
 10
59.55816638810658
 20
-0.0404079559759906
 30
0.0
 10
59.55816486959981
 20
-0.0350019635211045
 30
0.0
  0
SPLINE
  5
A9
330
1F
100
AcDbEntity
  8
0
  6
Continuous
 62
     4
370
    15
100
AcDbSpline
210
0.0
220
0.0
230
1.0
 70
     8
 71
     3
 72
    10
 73
     6
 74
     0
 42
0.000000001
 43
0.00000001
 40
0.0
 40
0.0
 40
0.0
 40
0.0
 40
0.5
 40
0.5
 40
1.0
 40
1.0
 40
1.0
 40
1.0
 10
59.65800000000001
 20
-5.66824800957554
 30
0.0
 10
59.1496409534858
 20
-5.386283349774284
 30
0.0
 10
58.63888160960966
 20
-5.090082309565558
 30
0.0
 10
57.62367303111671
 20
-4.47568879831249
 30
0.0
 10
57.11743375865177
 20
-4.157187544737582
 30
0.0
 10
56.60805711266831
 20
-3.828719666434548
 30
0.0
  0
LINE
  5
AA
330
1F
100
AcDbEntity
  8
0
  6
Continuous
 62
     4
370
    15
100
AcDbLine
 10
56.60805711266831
 20
-3.828714724614957
 30
0.0
 11
56.60805711266831
 21
-9.016999999999957
 31
0.0
  0
SPLINE
  5
AB
330
1F
100
AcDbEntity
  8
0
  6
Continuous
 62
     4
370
    15
100
AcDbSpline
210
0.0
220
0.0
230
1.0
 70
     8
 71
     3
 72
    10
 73
     6
 74
     0
 42
0.000000001
 43
0.00000001
 40
0.0
 40
0.0
 40
0.0
 40
0.0
 40
0.5
 40
0.5
 40
1.0
 40
1.0
 40
1.0
 40
1.0
 10
59.55816942010394
 20
-7.783379123451288
 30
0.0
 10
59.06616310525439
 20
-7.960470628294273
 30
0.0
 10
58.57225144805933
 20
-8.120062247121536
 30
0.0
 10
57.59067067613296
 20
-8.401086519987983
 30
0.0
 10
57.10076691159529
 20
-8.522805769526567
 30
0.0
 10
56.60805711266831
 20
-8.625134631921469
 30
0.0
  0
ELLIPSE
  5
AC
330
1F
100
AcDbEntity
  8
0
  6
Continuous
 62
     1
370
    15
100
AcDbEllipse
 10
59.55771246779961
 20
0.0000000000000198
 30
0.0
 11
-0.0002383106934260582
 21
9.016999999999976
 31
0.0
210
0.0
220
0.0
230
1.0
 40
0.0000551883089432
 41
3.670835807461455
 42
3.685305124233639
  0
SPLINE
  5
AD
330
1F
100
AcDbEntity
  8
0
  6
Continuous
 62
     1
370
    15
100
AcDbSpline
210
0.0
220
0.0
230
1.0
 70
     8
 71
     3
 72
     8
 73
     4
 74
     0
 42
0.000000001
 43
0.00000001
 40
0.0
 40
0.0
 40
0.0
 40
0.0
 40
1.0
 40
1.0
 40
1.0
 40
1.0
 10
59.65800000000001
 20
-3.343784216986127
 30
0.0
 10
59.6247628923354
 20
-3.321770018633343
 30
0.0
 10
59.59151552849323
 20
-3.299718893873382
 30
0.0
 10
59.55825945517093
 20
-3.277631851362209
 30
0.0
  0
LINE
  5
AE
330
1F
100
AcDbEntity
  8
0
  6
Continuous
 62
     4
370
    15
100
AcDbLine
 10
56.6080571126683
 20
9.016999999999996
 30
0.0
 11
56.60805711266831
 21
2.035507294810384
 31
0.0
  0
LINE
  5
AF
330
1F
100
AcDbEntity
  8
0
  6
Continuous
 62
     1
370
    15
100
AcDbLine
 10
59.65800000000002
 20
-3.343784217017331
 30
0.0
 11
59.65800000000001
 21
-5.046915573204201
 31
0.0
  0
ELLIPSE
  5
B0
330
1F
100
AcDbEntity
  8
0
  6
Continuous
 62
     4
370
    15
100
AcDbEllipse
 10
59.55771246779961
 20
-0.0000000000000159
 30
0.0
 11
-0.0003118074587007414
 21
9.016999999999976
 31
0.0
210
0.0
220
0.0
230
1.0
 40
0.0000504823782161
 41
4.340372498146023
 42
4.706744599098491
  0
LINE
  5
B1
330
1F
100
AcDbEntity
  8
0
  6
Continuous
 62
     4
370
    15
100
AcDbLine
 10
59.65800000000002
 20
-0.1055583857225592
 30
0.0
 11
59.65800000000002
 21
-3.343784217017332
 31
0.0
  0
SPLINE
  5
B2
330
1F
100
AcDbEntity
  8
0
  6
Continuous
 62
     1
370
    15
100
AcDbSpline
210
0.0
220
0.0
230
1.0
 70
     8
 71
     3
 72
     8
 73
     4
 74
     0
 42
0.000000001
 43
0.00000001
 40
0.0
 40
0.0
 40
0.0
 40
0.0
 40
1.0
 40
1.0
 40
1.0
 40
1.0
 10
59.55825945517093
 20
-7.722648257215334
 30
0.0
 10
59.59151552849323
 20
-7.710818396344832
 30
0.0
 10
59.62476289233542
 20
-7.698909481290259
 30
0.0
 10
59.65800000000002
 20
-7.686922112909182
 30
0.0
  0
SPLINE
  5
B3
330
1F
100
AcDbEntity
  8
0
  6
Continuous
 62
     1
370
    15
100
AcDbSpline
210
0.0
220
0.0
230
1.0
 70
     8
 71
     3
 72
     8
 73
     4
 74
     0
 42
0.000000001
 43
0.00000001
 40
0.0
 40
0.0
 40
0.0
 40
0.0
 40
1.0
 40
1.0
 40
1.0
 40
1.0
 10
59.55816942010372
 20
-7.783379123453196
 30
0.0
 10
59.55816790494357
 20
-7.763059565093573
 30
0.0
 10
59.55816638810658
 20
-7.742829948269916
 30
0.0
 10
59.55816486959981
 20
-7.722689893703365
 30
0.0
  0
SPLINE
  5
B4
330
1F
100
AcDbEntity
  8
0
  6
Continuous
 62
     1
370
    15
100
AcDbSpline
210
0.0
220
0.0
230
1.0
 70
    24
 71
     3
 72
    10
 73
     6
 74
     0
 42
0.000000001
 43
0.00000001
 40
0.0
 40
0.0
 40
0.0
 40
0.0
 40
0.1388423766625915
 40
0.7625562250807222
 40
1.0
 40
1.0
 40
1.0
 40
1.0
 10
59.65800000000002
 20
-6.029202595069683
 30
0.0
 10
59.65800000000002
 20
-6.087608201333148
 30
0.0
 10
59.65800000000002
 20
-6.408386048172023
 30
0.0
 10
59.65800000000002
 20
-6.993625789720109
 30
0.0
 10
59.65800000000002
 20
-7.537078050834535
 30
0.0
 10
59.65800000000002
 20
-7.686922112909182
 30
0.0
  0
SPLINE
  5
B5
330
1F
100
AcDbEntity
  8
0
  6
Continuous
 62
     1
370
    15
100
AcDbSpline
210
0.0
220
0.0
230
1.0
 70
     8
 71
     3
 72
    19
 73
    15
 74
     0
 42
0.000000001
 43
0.00000001
 40
0.0
 40
0.0
 40
0.0
 40
0.0
 40
0.0258760535300525
 40
0.1064383610030945
 40
0.1851610000276346
 40
0.2638834955856029
 40
0.3444437915784856
 40
0.4250039955694571
 40
0.5123248849137834
 40
0.5996460661852863
 40
0.6894959372693144
 40
0.7793454859190242
 40
0.8890595390594029
 40
0.9999999999999999
 40
0.9999999999999999
 40
0.9999999999999999
 40
0.9999999999999999
 10
64.10227888187106
 20
8.806223878728991
 30
0.0
 10
64.28296126373542
 20
8.831364849332875
 30
0.0
 10
65.02617879362032
 20
8.9347795258405
 30
0.0
 10
66.32021138855902
 20
8.955961078280833
 30
0.0
 10
67.98293895249701
 20
8.868072370220748
 30
0.0
 10
69.645139519888
 20
8.618406553580312
 30
0.0
 10
71.32034741601277
 20
8.21798373923518
 30
0.0
 10
73.05509822255442
 20
7.652751962503832
 30
0.0
 10
74.83745683532696
 20
6.920851822261644
 30
0.0
 10
76.68567216201923
 20
6.018331954173987
 30
0.0
 10
78.55115008777413
 20
4.975403156873851
 30
0.0
 10
80.5716202881881
 20
3.725811147805572
 30
0.0
 10
82.74136722407715
 20
2.279417230123034
 30
0.0
 10
84.28293304377048
 20
1.196668911706348
 30
0.0
 10
85.05800000000002
 20
0.6522857703593219
 30
0.0
  0
LINE
  5
B6
330
1F
100
AcDbEntity
  8
0
  6
Continuous
 62
     1
370
    15
100
AcDbLine
 10
85.05800000000002
 20
-4.344098551086413
 30
0.0
 11
85.05800000000002
 21
0.6522857703593088
 31
0.0
  0
SPLINE
  5
B7
330
1F
100
AcDbEntity
  8
0
  6
Continuous
 62
     1
370
    15
100
AcDbSpline
210
0.0
220
0.0
230
1.0
 70
     8
 71
     3
 72
    37
 73
    33
 74
     0
 42
0.000000001
 43
0.00000001
 40
0.0
 40
0.0
 40
0.0
 40
0.0
 40
0.0126065158695221
 40
0.0334502021738502
 40
0.0625305498068945
 40
0.0795485171271299
 40
0.0937746404774793
 40
0.1249831048887227
 40
0.1875319603795866
 40
0.203115011913509
 40
0.2187301145973173
 40
0.2356693564185495
 40
0.2500287863160829
 40
0.3124789636839388
 40
0.3437694825773941
 40
0.3750520198775012
 40
0.4062397081846225
 40
0.4375212097487783
 40
0.499991692069497
 40
0.5312548644671808
 40
0.5625597894779434
 40
0.5937575356691167
 40
0.6250142603207808
 40
0.6875151722252659
 40
0.750049136583808
 40
0.7812760225603824
 40
0.8124990468503919
 40
0.8750362160583423
 40
0.9020700390170825
 40
0.93754447627511
 40
0.9687935874302572
 40
1.0
 40
1.0
 40
1.0
 40
1.0
 10
85.05800000000002
 20
-4.344098551086415
 30
0.0
 10
84.95133597211625
 20
-4.272177038609968
 30
0.0
 10
84.66831302316533
 20
-4.081340081128118
 30
0.0
 10
84.13878942166275
 20
-3.718064514166141
 30
0.0
 10
83.57180640225783
 20
-3.321229402583452
 30
0.0
 10
83.06092734738523
 20
-2.957425957626878
 30
0.0
 10
82.53252470161925
 20
-2.576316801357375
 30
0.0
 10
81.61903828110125
 20
-1.908299902925402
 30
0.0
 10
80.69153357687593
 20
-1.219809205870412
 30
0.0
 10
79.89893278756128
 20
-0.6223277467030693
 30
0.0
 10
79.49146133702394
 20
-0.3155004377239468
 30
0.0
 10
79.09414309729729
 20
-0.0164059745320445
 30
0.0
 10
78.29992520008565
 20
0.5808580627955553
 30
0.0
 10
77.38532183223967
 20
1.270578970303108
 30
0.0
 10
76.32634251267872
 20
2.054037973488789
 30
0.0
 10
75.53201030509376
 20
2.633457325282134
 30
0.0
 10
74.73935344203824
 20
3.204445311172449
 30
0.0
 10
73.68082709505788
 20
3.945677339844461
 30
0.0
 10
72.62243845335661
 20
4.659542059460372
 30
0.0
 10
71.56428057716411
 20
5.334991507204144
 30
0.0
 10
70.76926670843044
 20
5.818982407778453
 30
0.0
 10
69.97650963398709
 20
6.282299526749908
 30
0.0
 10
68.9182357514245
 20
6.864905524806959
 30
0.0
 10
67.59501786899156
 20
7.528326967978364
 30
0.0
 10
66.27108170370374
 20
8.09193429406605
 30
0.0
 10
65.21331840505673
 20
8.478683136419686
 30
0.0
 10
64.15571603752662
 20
8.820922727486167
 30
0.0
 10
63.13173551367476
 20
9.084461199744942
 30
0.0
 10
62.07390929723778
 20
9.289118223125
 30
0.0
 10
61.27961151992339
 20
9.404913822058553
 30
0.0
 10
60.45031084975319
 20
9.48751696303212
 30
0.0
 10
59.92198321707875
 20
9.508657720097048
 30
0.0
 10
59.65800000000001
 20
9.51922087204356
 30
0.0
  0
SPLINE
  5
B8
330
1F
100
AcDbEntity
  8
0
  6
Continuous
 62
     1
370
    15
100
AcDbSpline
210
0.0
220
0.0
230
1.0
 70
     8
 71
     3
 72
    38
 73
    34
 74
     0
 42
0.000000001
 43
0.00000001
 40
0.0
 40
0.0
 40
0.0
 40
0.0
 40
0.0625
 40
0.0625
 40
0.125
 40
0.125
 40
0.1875
 40
0.1875
 40
0.25
 40
0.25
 40
0.3124999999999999
 40
0.3124999999999999
 40
0.3749999999999999
 40
0.3749999999999999
 40
0.4375
 40
0.4375
 40
0.5
 40
0.5
 40
0.5625
 40
0.5625
 40
0.625
 40
0.625
 40
0.6875
 40
0.6875
 40
0.75
 40
0.75
 40
0.8125000000000001
 40
0.8125000000000001
 40
0.8750000000000001
 40
0.8750000000000001
 40
0.9375000000000001
 40
0.9375000000000001
 40
1.0
 40
1.0
 40
1.0
 40
1.0
 10
85.05800000000002
 20
-5.269722087595482
 30
0.0
 10
84.53135775914075
 20
-4.938071389685499
 30
0.0
 10
83.99982555553336
 20
-4.591532385755124
 30
0.0
 10
82.9394895019974
 20
-3.876676783955603
 30
0.0
 10
82.41364129388673
 20
-3.509097942112337
 30
0.0
 10
81.35420111026424
 20
-2.755659649303911
 30
0.0
 10
80.82231811252898
 20
-2.370159639818192
 30
0.0
 10
79.76676189415174
 20
-1.59073612520007
 30
0.0
 10
79.23778297275737
 20
-1.19552447106588
 30
0.0
 10
78.17695347794279
 20
-0.4001675915929858
 30
0.0
 10
77.65036313352688
 20
-0.001348863280226
 30
0.0
 10
76.59222011509452
 20
0.7954457192698976
 30
0.0
 10
76.06018970258943
 20
1.193533042598838
 30
0.0
 10
75.00275814279675
 20
1.979702889888647
 30
0.0
 10
74.4755943191559
 20
2.368239047645575
 30
0.0
 10
73.41467443644636
 20
3.132424849821996
 30
0.0
 10
72.8866007569037
 20
3.506696877545321
 30
0.0
 10
71.83015455997932
 20
4.234972918200603
 30
0.0
 10
71.29818030073147
 20
4.589764320551156
 30
0.0
 10
70.2392721579607
 20
5.27223377740617
 30
0.0
 10
69.71318295738712
 20
5.59980251544811
 30
0.0
 10
68.65257585464539
 20
6.225523270160318
 30
0.0
 10
68.12227951363826
 20
6.522770205641054
 30
0.0
 10
67.06792765432364
 20
7.080398228154843
 30
0.0
 10
66.53621304448464
 20
7.342102196481209
 30
0.0
 10
65.47622894148574
 20
7.82492093509472
 30
0.0
 10
64.95047253214904
 20
8.045773430767175
 30
0.0
 10
63.89058098114288
 20
8.445228363918696
 30
0.0
 10
63.35883013087
 20
8.623395037826597
 30
0.0
 10
62.30424357935019
 20
8.93263096242814
 30
0.0
 10
61.77421101693871
 20
9.064438704162644
 30
0.0
 10
60.71355293695701
 20
9.279686251231013
 30
0.0
 10
60.18738706655939
 20
9.36292191513312
 30
0.0
 10
59.65800000000001
 20
9.421543673277545
 30
0.0
  0
LINE
  5
B9
330
1F
100
AcDbEntity
  8
0
  6
Continuous
 62
     1
370
    15
100
AcDbLine
 10
85.05800000000002
 20
-5.269722087595489
 30
0.0
 11
85.05800000000002
 21
-4.344098551086417
 31
0.0
  0
SPLINE
  5
BA
330
1F
100
AcDbEntity
  8
0
  6
Continuous
 62
     1
370
    15
100
AcDbSpline
210
0.0
220
0.0
230
1.0
 70
     8
 71
     3
 72
    11
 73
     7
 74
     0
 42
0.000000001
 43
0.00000001
 40
0.0
 40
0.0
 40
0.0
 40
0.0
 40
0.2156048011005502
 40
0.5742646981149316
 40
0.9417278011685248
 40
1.0
 40
1.0
 40
1.0
 40
1.0
 10
83.50004233223648
 20
-4.239824087326721
 30
0.0
 10
83.39454187089284
 20
-4.265029507765908
 30
0.0
 10
83.11354075090274
 20
-4.332164298296936
 30
0.0
 10
82.59849423563792
 20
-4.542538882405619
 30
0.0
 10
82.15911329563592
 20
-4.75584118033788
 30
0.0
 10
81.91760189117463
 20
-4.887648908501985
 30
0.0
 10
81.88454519956714
 20
-4.905689992032281
 30
0.0
  0
SPLINE
  5
BB
330
1F
100
AcDbEntity
  8
0
  6
Continuous
 62
     1
370
    15
100
AcDbSpline
210
0.0
220
0.0
230
1.0
 70
     8
 71
     3
 72
     8
 73
     4
 74
     0
 42
0.000000001
 43
0.00000001
 40
0.0
 40
0.0
 40
0.0
 40
0.0
 40
1.0
 40
1.0
 40
1.0
 40
1.0
 10
85.05800000000002
 20
-5.568392862373736
 30
0.0
 10
83.9668823196077
 20
-5.493565819759739
 30
0.0
 10
82.90828603980415
 20
-5.27607775800885
 30
0.0
 10
81.88454519956716
 20
-4.905689992032246
 30
0.0
  0
LINE
  5
BC
330
1F
100
AcDbEntity
  8
0
  6
Continuous
 62
     1
370
    15
100
AcDbLine
 10
85.05800000000002
 20
-8.045742984115044
 30
0.0
 11
85.05800000000002
 21
-5.568392862373726
 31
0.0
  0
SPLINE
  5
BD
330
1F
100
AcDbEntity
  8
0
  6
Continuous
 62
     1
370
    15
100
AcDbSpline
210
0.0
220
0.0
230
1.0
 70
     8
 71
     3
 72
    38
 73
    34
 74
     0
 42
0.000000001
 43
0.00000001
 40
0.0
 40
0.0
 40
0.0
 40
0.0
 40
0.0624999999999998
 40
0.0624999999999998
 40
0.1249999999999996
 40
0.1249999999999996
 40
0.1874999999999993
 40
0.1874999999999993
 40
0.2499999999999991
 40
0.2499999999999991
 40
0.3124999999999991
 40
0.3124999999999991
 40
0.3749999999999991
 40
0.3749999999999991
 40
0.4374999999999991
 40
0.4374999999999991
 40
0.4999999999999991
 40
0.4999999999999991
 40
0.5624999999999991
 40
0.5624999999999991
 40
0.6249999999999992
 40
0.6249999999999992
 40
0.6874999999999993
 40
0.6874999999999993
 40
0.7499999999999996
 40
0.7499999999999996
 40
0.8124999999999997
 40
0.8124999999999997
 40
0.8749999999999998
 40
0.8749999999999998
 40
0.9374999999999999
 40
0.9374999999999999
 40
1.0
 40
1.0
 40
1.0
 40
1.0
 10
59.65800000000001
 20
-0.1055583857226783
 30
0.0
 10
60.1873870665594
 20
-0.4797627801696004
 30
0.0
 10
60.71355293695702
 20
-0.8529326310271361
 30
0.0
 10
61.77421101693871
 20
-1.594782761812538
 30
0.0
 10
62.30424357935019
 20
-1.962403893166053
 30
0.0
 10
63.35883013087002
 20
-2.684182281484173
 30
0.0
 10
63.8905809811429
 20
-3.0399671387805
 30
0.0
 10
64.95047253214904
 20
-3.732866752881886
 30
0.0
 10
65.47622894148577
 20
-4.069511998746652
 30
0.0
 10
66.53621304448464
 20
-4.721453962296242
 30
0.0
 10
67.06792765432365
 20
-5.036159626724806
 30
0.0
 10
68.12227951363826
 20
-5.63575858593927
 30
0.0
 10
68.65257585464539
 20
-5.922118244603507
 30
0.0
 10
69.71318295738715
 20
-6.462156800119429
 30
0.0
 10
70.2392721579607
 20
-6.715187641743523
 30
0.0
 10
71.29818030073146
 20
-7.185752802032341
 30
0.0
 10
71.83015455997933
 20
-7.403053725021519
 30
0.0
 10
72.8866007569037
 20
-7.796656807760535
 30
0.0
 10
73.41467443644636
 20
-7.973478625266429
 30
0.0
 10
74.4755943191559
 20
-8.284767945101438
 30
0.0
 10
75.00275814279678
 20
-8.418697843190841
 30
0.0
 10
76.06018970258944
 20
-8.641979131003245
 30
0.0
 10
76.59222011509452
 20
-8.731349246997294
 30
0.0
 10
77.65036313352688
 20
-8.863410198112344
 30
0.0
 10
78.17695347794279
 20
-8.90624240877764
 30
0.0
 10
79.23778297275737
 20
-8.945057014761304
 30
0.0
 10
79.76676189415177
 20
-8.940915234802569
 30
0.0
 10
80.82231811252898
 20
-8.885830723718943
 30
0.0
 10
81.35420111026426
 20
-8.834732041591288
 30
0.0
 10
82.41364129388673
 20
-8.68645647638866
 30
0.0
 10
82.93948950199741
 20
-8.589499781151122
 30
0.0
 10
83.99982555553336
 20
-8.350439150687652
 30
0.0
 10
84.53135775914075
 20
-8.208424529842294
 30
0.0
 10
85.05800000000002
 20
-8.045742984114977
 30
0.0
  0
SPLINE
  5
BE
330
1F
100
AcDbEntity
  8
0
  6
Continuous
 62
     4
370
    15
100
AcDbSpline
210
0.0
220
0.0
230
1.0
 70
    24
 71
     3
 72
    20
 73
    16
 74
     0
 42
0.000000001
 43
0.00000001
 40
0.0
 40
0.0
 40
0.0
 40
0.0
 40
0.2500000000000001
 40
0.2500000000000001
 40
0.3750000000000002
 40
0.3750000000000002
 40
0.5000000000000002
 40
0.5000000000000002
 40
0.6250000000000002
 40
0.6250000000000002
 40
0.7500000000000001
 40
0.7500000000000001
 40
0.875
 40
0.875
 40
1.0
 40
1.0
 40
1.0
 40
1.0
 10
59.65800000000001
 20
9.421543673277414
 30
0.0
 10
59.65800000000001
 20
8.68238276399627
 30
0.0
 10
59.65800000000001
 20
7.857123243236956
 30
0.0
 10
59.65800000000001
 20
6.521225149340074
 30
0.0
 10
59.65800000000001
 20
6.06022159800126
 30
0.0
 10
59.65800000000001
 20
5.12252167678189
 30
0.0
 10
59.65800000000001
 20
4.645792270407753
 30
0.0
 10
59.65800000000001
 20
3.701622041235976
 30
0.0
 10
59.65800000000001
 20
3.23423829616408
 30
0.0
 10
59.65800000000001
 20
2.342998782625747
 30
0.0
 10
59.65800000000001
 20
1.919333555425398
 30
0.0
 10
59.65800000000001
 20
1.155448449737646
 30
0.0
 10
59.65800000000001
 20
0.8155380138091197
 30
0.0
 10
59.65800000000001
 20
0.2571141539830866
 30
0.0
 10
59.65800000000001
 20
0.0389212082524959
 30
0.0
 10
59.65800000000001
 20
-0.1055583857225534
 30
0.0
  0
SPLINE
  5
BF
330
1F
100
AcDbEntity
  8
0
  6
Continuous
 62
     1
370
    15
100
AcDbSpline
210
0.0
220
0.0
230
1.0
 70
     8
 71
     3
 72
    35
 73
    31
 74
     0
 42
0.000000001
 43
0.00000001
 40
0.0
 40
0.0
 40
0.0
 40
0.0
 40
0.0343268298900784
 40
0.1549687760378926
 40
0.281289296959463
 40
0.3262233104561268
 40
0.3712173342556627
 40
0.416057311804005
 40
0.4609820580669854
 40
0.5134019638215594
 40
0.5508291303447989
 40
0.5791022905422955
 40
0.6407219470907026
 40
0.6572750476354334
 40
0.6722364590775642
 40
0.6856061811928013
 40
0.6993395068692364
 40
0.7142990681256095
 40
0.7304848673591274
 40
0.7662398554555464
 40
0.7931422224375494
 40
0.8111915966742794
 40
0.8152406901361354
 40
0.8183060746662231
 40
0.8203877500559962
 40
0.8505018290294976
 40
0.8883806873147448
 40
0.9282051114461272
 40
0.964122190625649
 40
1.0
 40
1.0
 40
1.0
 40
1.0
 10
77.33090976138095
 20
-8.80187976640837
 30
0.0
 10
77.12867427656913
 20
-8.865702606658047
 30
0.0
 10
76.21568039822155
 20
-9.153831381392726
 30
0.0
 10
74.55841689128437
 20
-9.428514070881405
 30
0.0
 10
72.83742820594875
 20
-9.546161235525169
 30
0.0
 10
71.56429645881602
 20
-9.507442002215596
 30
0.0
 10
70.76926812757196
 20
-9.446981933623887
 30
0.0
 10
69.9764882042411
 20
-9.34867579681023
 30
0.0
 10
69.13877450028046
 20
-9.206348212714843
 30
0.0
 10
68.34438040431738
 20
-9.032281511011028
 30
0.0
 10
67.64906673836933
 20
-8.848191381652942
 30
0.0
 10
66.89913196427734
 20
-8.625921656066417
 30
0.0
 10
66.27171716482809
 20
-8.413154118781375
 30
0.0
 10
65.72302476008406
 20
-8.207261591145578
 30
0.0
 10
65.45870544796352
 20
-8.104174593169066
 30
0.0
 10
65.21116826128375
 20
-8.004291905265239
 30
0.0
 10
64.96364995354875
 20
-7.901423640472177
 30
0.0
 10
64.69937645727344
 20
-7.788480509919331
 30
0.0
 10
64.30524606289552
 20
-7.614971323920155
 30
0.0
 10
63.84064163570428
 20
-7.400330433083589
 30
0.0
 10
63.36514241319485
 20
-7.168438030228794
 30
0.0
 10
63.07646176085532
 20
-7.022511286806649
 30
0.0
 10
62.92824852801747
 20
-6.9462788986952
 30
0.0
 10
62.87408886671403
 20
-6.91826703464105
 30
0.0
 10
62.66652432323539
 20
-6.810358792863278
 30
0.0
 10
62.25398247454639
 20
-6.590840737680647
 30
0.0
 10
61.61876563445917
 20
-6.237806283180359
 30
0.0
 10
60.94910751961163
 20
-5.847818907950057
 30
0.0
 10
60.29168583454749
 20
-5.449162415987254
 30
0.0
 10
59.86915157335687
 20
-5.180948952466283
 30
0.0
 10
59.65800000000002
 20
-5.046915573354354
 30
0.0
  0
LINE
  5
C0
330
1F
100
AcDbEntity
  8
0
  6
Continuous
 62
     4
370
    15
100
AcDbLine
 10
59.65800000000001
 20
-0.1055583857226821
 30
0.0
 11
59.65800000000001
 21
-5.04691557335435
 31
0.0
  0
SPLINE
  5
C1
330
1F
100
AcDbEntity
  8
0
  6
Continuous
 62
     1
370
    15
100
AcDbSpline
210
0.0
220
0.0
230
1.0
 70
     8
 71
     3
 72
    12
 73
     8
 74
     0
 42
0.000000001
 43
0.00000001
 40
0.0
 40
0.0
 40
0.0
 40
0.0
 40
0.1318046605212894
 40
0.3488114777448653
 40
0.5658394188801082
 40
0.7828988294985995
 40
0.9999999999999999
 40
0.9999999999999999
 40
0.9999999999999999
 40
0.9999999999999999
 10
74.75882120614261
 20
6.929304269273709
 30
0.0
 10
75.21128315932134
 20
7.164786733182174
 30
0.0
 10
76.40869091324603
 20
7.7879740005675
 30
0.0
 10
78.35114771773574
 20
8.540777536363693
 30
0.0
 10
80.58634354966908
 20
9.170131938571675
 30
0.0
 10
82.82195497209753
 20
9.525347865101267
 30
0.0
 10
84.31260386450924
 20
9.512652958207815
 30
0.0
 10
85.05800000000002
 20
9.506304894229125
 30
0.0
  0
SPLINE
  5
C2
330
1F
100
AcDbEntity
  8
0
  6
Continuous
 62
     1
370
    15
100
AcDbSpline
210
0.0
220
0.0
230
1.0
 70
     8
 71
     3
 72
    18
 73
    14
 74
     0
 42
0.000000001
 43
0.00000001
 40
0.0
 40
0.0
 40
0.0
 40
0.0
 40
0.2500000000000004
 40
0.2500000000000004
 40
0.3750000000000006
 40
0.3750000000000006
 40
0.5000000000000008
 40
0.5000000000000008
 40
0.625000000000001
 40
0.625000000000001
 40
0.7500000000000011
 40
0.7500000000000011
 40
1.0
 40
1.0
 40
1.0
 40
1.0
 10
85.05800000000002
 20
6.167475262783496
 30
0.0
 10
84.90937962124053
 20
5.794600386384974
 30
0.0
 10
84.72986809478635
 20
5.448209991890956
 30
0.0
 10
84.40688471461787
 20
4.974677814563429
 30
0.0
 10
84.28915234346576
 20
4.823443571571217
 30
0.0
 10
84.04009111837331
 20
4.544823148091164
 30
0.0
 10
83.90893987808985
 20
4.417230060198685
 30
0.0
 10
83.63363926191285
 20
4.185047860890323
 30
0.0
 10
83.48949164311026
 20
4.080455639791799
 30
0.0
 10
83.18810603171711
 20
3.894438416319168
 30
0.0
 10
83.03068105620716
 20
3.813209580290865
 30
0.0
 10
82.55335535194844
 20
3.610426227940116
 30
0.0
 10
82.22194241105554
 20
3.526080230646881
 30
0.0
 10
81.88454519956713
 20
3.487962176439304
 30
0.0
  0
SPLINE
  5
C3
330
1F
100
AcDbEntity
  8
0
  6
Continuous
 62
     1
370
    15
100
AcDbSpline
210
0.0
220
0.0
230
1.0
 70
     8
 71
     3
 72
     8
 73
     4
 74
     0
 42
0.000000001
 43
0.00000001
 40
0.0
 40
0.0
 40
0.0
 40
0.0
 40
1.0
 40
1.0
 40
1.0
 40
1.0
 10
85.05800000000002
 20
1.837376426293259
 30
0.0
 10
83.96688231960769
 20
2.46981080643168
 30
0.0
 10
82.90828603980414
 20
3.021927505083453
 30
0.0
 10
81.88454519956713
 20
3.487962176439321
 30
0.0
  0
LINE
  5
C4
330
1F
100
AcDbEntity
  8
0
  6
Continuous
 62
     1
370
    15
100
AcDbLine
 10
85.05800000000002
 20
0.6522857703594394
 30
0.0
 11
85.05800000000002
 21
1.837376426293258
 31
0.0
  0
LINE
  5
C5
330
1F
100
AcDbEntity
  8
0
  6
Continuous
 62
     1
370
    15
100
AcDbLine
 10
85.05800000000002
 20
6.167475262783499
 30
0.0
 11
85.05800000000002
 21
9.506304894229126
 31
0.0
  0
SPLINE
  5
C6
330
1F
100
AcDbEntity
  8
0
  6
Continuous
 62
     1
370
    15
100
AcDbSpline
210
0.0
220
0.0
230
1.0
 70
     8
 71
     3
 72
    12
 73
     8
 74
     0
 42
0.000000001
 43
0.00000001
 40
0.0
 40
0.0
 40
0.0
 40
0.0
 40
0.2084637763386661
 40
0.4169233104576706
 40
0.6253794614790424
 40
0.8338330897420906
 40
0.9999999999999999
 40
0.9999999999999999
 40
0.9999999999999999
 40
0.9999999999999999
 10
59.65800000000001
 20
-5.923250644450682
 30
0.0
 10
60.44823305620634
 20
-6.369344943427012
 30
0.0
 10
62.02868308744524
 20
-7.261524463399606
 30
0.0
 10
64.39931699112722
 20
-8.291951842126256
 30
0.0
 10
66.7699013856406
 20
-9.036411010886603
 30
0.0
 10
68.98015888714363
 20
-9.466409196283635
 30
0.0
 10
70.4002216485186
 20
-9.488259346098184
 30
0.0
 10
71.03010553679023
 20
-9.497951211626145
 30
0.0
  0
LINE
  5
C7
330
1F
100
AcDbEntity
  8
0
  6
Continuous
 62
     4
370
    15
100
AcDbLine
 10
59.65800000000001
 20
-5.923250644450685
 30
0.0
 11
59.65800000000001
 21
-5.046915573204201
 31
0.0
  0
SPLINE
  5
C8
330
1F
100
AcDbEntity
  8
0
  6
Continuous
 62
     1
370
    15
100
AcDbSpline
210
0.0
220
0.0
230
1.0
 70
     8
 71
     3
 72
     9
 73
     5
 74
     0
 42
0.000000001
 43
0.00000001
 40
0.0
 40
0.0
 40
0.0
 40
0.0
 40
0.8863936391476243
 40
1.0
 40
1.0
 40
1.0
 40
1.0
 10
59.65800000000002
 20
-7.686922112909182
 30
0.0
 10
60.20613465059519
 20
-7.485503965959014
 30
0.0
 10
60.8245220423665
 20
-7.258270671343027
 30
0.0
 10
61.44305551163059
 20
-6.963891638183592
 30
0.0
 10
61.51332484813907
 20
-6.93044830751511
 30
0.0
  0
SPLINE
  5
C9
330
1F
100
AcDbEntity
  8
0
  6
Continuous
 62
     4
370
    15
100
AcDbSpline
210
0.0
220
0.0
230
1.0
 70
    24
 71
     3
 72
    11
 73
     7
 74
     0
 42
0.000000001
 43
0.00000001
 40
0.0
 40
0.0
 40
0.0
 40
0.0
 40
0.2242688139693347
 40
0.5405200582523206
 40
0.7698129398224753
 40
1.0
 40
1.0
 40
1.0
 40
1.0
 10
59.65800000000002
 20
-6.029202595069683
 30
0.0
 10
59.65800000000002
 20
-6.133317671059801
 30
0.0
 10
59.65800000000002
 20
-6.384249960498936
 30
0.0
 10
59.65800000000002
 20
-6.802225402146479
 30
0.0
 10
59.65800000000002
 20
-7.252390262158566
 30
0.0
 10
59.65800000000002
 20
-7.541890367155698
 30
0.0
 10
59.65800000000002
 20
-7.68692211290918
 30
0.0
  0
LINE
  5
CA
330
1F
100
AcDbEntity
  8
0
  6
Continuous
 62
     1
370
    15
100
AcDbLine
 10
85.05800000000002
 20
1.837376426293259
 30
0.0
 11
85.05800000000002
 21
6.167475262783499
 31
0.0
  0
LINE
  5
CB
330
1F
100
AcDbEntity
  8
0
  6
Continuous
 62
     1
370
    15
100
AcDbLine
 10
85.05800000000002
 20
-5.269722087595479
 30
0.0
 11
85.05800000000002
 21
-5.568392862373738
 31
0.0
  0
LINE
  5
CC
330
1F
100
AcDbEntity
  8
0
  6
Continuous
 62
     1
370
    15
100
AcDbLine
 10
85.05800000000002
 20
9.506304894229126
 30
0.0
 11
85.05800000000002
 21
9.524999999999999
 31
0.0
  0
LINE
  5
CD
330
1F
100
AcDbEntity
  8
중심선
100
AcDbLine
 10
-70.342
 20
-0.0000000000000234
 30
0.0
 11
88.05800000000002
 21
-0.0000000000000234
 31
0.0
  0
CIRCLE
  5
CE
330
1F
100
AcDbEntity
  8
외형선
100
AcDbCircle
 10
0.0
 20
0.0
 30
0.0
 40
2.999999999999997
  0
INSERT
  5
CF
330
1F
100
AcDbEntity
  8
0
  6
Continuous
 62
     7
100
AcDbBlockReference
 66
     1
  2
블럭10
 10
-11.94027293212521
 20
-51.97707998556497
 30
0.0
  0
ATTRIB
  5
D0
330
CF
100
AcDbEntity
  8
FORMAT
 62
     2
100
AcDbText
 10
-21.12156822086649
 20
-49.90171307273278
 30
0.0
 40
4.233333333333333
  1
E5977905 [ 3 FLUTE ]
 41
0.75
  7
SLDTEXTSTYLE0
 11
-21.12156822086649
 21
-52.01837973939945
 31
0.0
100
AcDbAttribute
  2
AUTOATTR0
 70
     0
 74
     1
  0
SEQEND
  5
D1
330
CF
100
AcDbEntity
  8
0
  6
Continuous
 62
     7
  0
HATCH
  5
D2
330
1F
100
AcDbEntity
  8
중심선
100
AcDbHatch
 10
0.0
 20
0.0
 30
0.0
210
0.0
220
0.0
230
1.0
  2
SOLID
 70
     1
 71
     0
 91
        1
 92
        0
 93
        4
 72
     1
 10
-6.225363627744375
 20
-35.72990568392105
 11
-9.67163887158166
 21
-35.72990568392105
 72
     1
 10
-9.67163887158166
 20
-35.72990568392105
 11
-11.79986873078568
 21
-38.26623126449364
 72
     1
 10
-11.79986873078568
 20
-38.26623126449364
 11
-8.35356040183525
 21
-38.26619183519115
 72
     1
 10
-8.35356040183525
 20
-38.26619183519115
 11
-6.225363627744375
 21
-35.72990568392105
 97
        0
 75
     0
 76
     1
 98
        1
 10
11.65200000000002
 20
-0.896620739271583
  0
HATCH
  5
D3
330
1F
100
AcDbEntity
  8
중심선
100
AcDbHatch
 10
0.0
 20
0.0
 30
0.0
210
0.0
220
0.0
230
1.0
  2
SOLID
 70
     1
 71
     0
 91
        1
 92
        0
 93
        4
 72
     1
 10
-1.212599636708397
 20
-35.72990568392105
 11
-4.658874880545678
 21
-35.72990568392105
 72
     1
 10
-4.658874880545678
 20
-35.72990568392105
 11
-9.190012888903095
 21
-41.12990568392106
 72
     1
 10
-9.190012888903095
 20
-41.12990568392106
 11
-5.743737645065814
 21
-41.12990568392106
 72
     1
 10
-5.743737645065814
 20
-41.12990568392106
 11
-1.212599636708397
 21
-35.72990568392105
 97
        0
 75
     0
 76
     1
 98
        1
 10
11.65200000000002
 20
-0.896620739271583
  0
HATCH
  5
D4
330
1F
100
AcDbEntity
  8
중심선
100
AcDbHatch
 10
0.0
 20
0.0
 30
0.0
210
0.0
220
0.0
230
1.0
  2
SOLID
 70
     1
 71
     0
 91
        1
 92
        0
 93
        4
 72
     1
 10
3.800164354327471
 20
-35.72990568392105
 11
0.3538891104903552
 21
-35.72990568392105
 72
     1
 10
0.3538891104903552
 20
-35.72990568392105
 11
-6.694547791398893
 21
-44.12990568392107
 72
     1
 10
-6.694547791398893
 20
-44.12990568392107
 11
-3.248272547561612
 21
-44.12990568392107
 72
     1
 10
-3.248272547561612
 20
-44.12990568392107
 11
3.800164354327471
 21
-35.72990568392105
 97
        0
 75
     0
 76
     1
 98
        1
 10
11.65200000000002
 20
-0.896620739271583
  0
HATCH
  5
D5
330
1F
100
AcDbEntity
  8
중심선
100
AcDbHatch
 10
0.0
 20
0.0
 30
0.0
210
0.0
220
0.0
230
1.0
  2
SOLID
 70
     1
 71
     0
 91
        1
 92
        0
 93
        6
 72
     3
 10
8.600054785339669
 20
-39.92990568397232
 11
3.960054785062285
 21
1.540882976769353E-10
 40
0.3939339440162626
 50
17.09539180608436
 51
320.0019657685086
 73
     0
 72
     1
 10
10.28305444104027
 20
-38.51779968855938
 11
12.5883563147413
 21
-36.58347297851142
 72
     3
 10
8.600054785286822
 20
-39.92990568392119
 11
6.600054785286829
 21
-1.278976924368180E-13
 40
0.636358354079598
 50
39.9987384933741
 51
368.4976242363725
 73
     1
 72
     1
 10
15.02538727718743
 20
-38.96990568385107
 11
7.280122092122745
 21
-38.96990568385107
 72
     1
 10
7.280122092122745
 20
-38.96990568385107
 11
7.280097047676811
 21
-40.88990568385096
 72
     1
 10
7.280097047676811
 20
-40.88990568385096
 11
11.72147681714885
 21
-40.88990568385093
 97
        0
 75
     0
 76
     1
 98
        1
 10
11.65200000000002
 20
-0.896620739271583
  0
POINT
  5
D6
330
1F
100
AcDbEntity
  8
치수문자_일반주서
100
AcDbPoint
 10
-67.342
 20
-0.0000000000000234
 30
0.0
  0
DIMENSION
  5
D7
330
1F
100
AcDbEntity
  8
치수문자_일반주서
100
AcDbDimension
  2
_D
 10
-80.34199999999996
 20
-9.52500000000006
 30
0.0
 11
-80.342
 21
0.2102829482369006
 31
0.0
 70
   160
  1
%%c<>
 71
     2
 42
19.04999999999999
 52
-270.0
  3
SLDDIMSTYLE0
100
AcDbAlignedDimension
 13
-66.842
 23
9.524999999999975
 33
0.0
 14
-66.842
 24
-9.525000000000011
 34
0.0
 50
90.0000000000002
100
AcDbRotatedDimension
1001
ACAD
1000
DSTYLE
1002
{
1070
   171
1070
     6
1070
   273
1070
     7
1002
}
  0
DIMENSION
  5
EC
330
1F
100
AcDbEntity
  8
치수문자_일반주서
100
AcDbDimension
  2
_D_1
 10
85.058
 20
46.95062537290536
 30
0.0
 11
3.261305818163944
 21
46.95062537290536
 31
0.0
 70
   160
  1
<>
 71
     2
 42
152.4
  3
SLDDIMSTYLE1
100
AcDbAlignedDimension
 13
-67.342
 23
9.024999999999979
 33
0.0
 14
85.05800000000002
 24
6.167475262783499
 34
0.0
 50
-0.0000000000000053
100
AcDbRotatedDimension
1001
ACAD
1000
DSTYLE
1002
{
1070
   171
1070
     6
1070
   273
1070
     7
1002
}
  0
DIMENSION
  5
100
330
1F
100
AcDbEntity
  8
치수문자_일반주서
100
AcDbDimension
  2
_D_2
 10
85.05800000000002
 20
34.42376142194365
 30
0.0
 11
42.77696863004562
 21
34.42376142194365
 31
0.0
 70
   160
  1
<>
 71
     2
 42
82.55000000000001
  3
SLDDIMSTYLE2
100
AcDbAlignedDimension
 13
2.50800000000001
 23
9.01699999999998
 33
0.0
 14
85.05800000000002
 24
6.167475262783499
 34
0.0
100
AcDbRotatedDimension
1001
ACAD
1000
DSTYLE
1002
{
1070
   171
1070
     6
1070
   273
1070
     7
1002
}
  0
DIMENSION
  5
114
330
1F
100
AcDbEntity
  8
치수문자_일반주서
100
AcDbDimension
  2
_D_3
 10
85.05800000000002
 20
19.61135534719196
 30
0.0
 11
73.51910958090451
 21
19.61135534719196
 31
0.0
 70
   160
  1
<>
 71
     2
 42
25.40000000000001
  3
SLDDIMSTYLE3
100
AcDbAlignedDimension
 13
59.65800000000001
 23
9.42154367327754
 33
0.0
 14
85.05800000000002
 24
6.167475262783499
 34
0.0
 50
0.0000000000000321
100
AcDbRotatedDimension
1001
ACAD
1000
DSTYLE
1002
{
1070
   171
1070
     6
1070
   273
1070
     7
1002
}
  0
INSERT
  5
130
330
1F
100
AcDbEntity
  8
외형선
100
AcDbBlockReference
  2
SW_DOWELSYMBOL_0
 10
0.0
 20
0.0
 30
0.0
  0
DIMENSION
  5
156
102
{ACAD_REACTORS
102
}
102
{ACAD_XDICTIONARY
360
157
102
}
330
1F
100
AcDbEntity
  8
치수문자_일반주서
100
AcDbDimension
  2
*D7
 10
106.5079935206013
 20
-9.525000000000006
 30
0.0
 11
106.5079935206013
 21
30.129
 31
0.0
 70
   160
  1
{%%c<>[]}
 71
     5
 42
19.05
  3
SLDDIMSTYLE3
100
AcDbAlignedDimension
 13
85.05800000000002
 23
9.524999999999999
 33
0.0
 14
72.4540077659033
 24
-9.525000000000006
 34
0.0
 50
90.0
100
AcDbRotatedDimension
1001
ACAD
1000
DSTYLE
1002
{
1070
   171
1070
     6
1070
   273
1070
     7
1070
   283
1070
     1
1070
   170
1070
     1
1002
}
  0
ENDSEC
  0
SECTION
  2
OBJECTS
  0
DICTIONARY
  5
C
330
0
100
AcDbDictionary
281
     1
  3
ACAD_GROUP
350
D
  3
ACAD_IMAGE_VARS
350
154
  3
ACAD_LAYOUT
350
1A
  3
ACAD_MLINESTYLE
350
17
  3
ACAD_PLOTSETTINGS
350
19
  3
ACAD_PLOTSTYLENAME
350
E
  3
ACAD_SCALELIST
350
47
  3
APPDATA
350
152
  3
DWGPROPS
350
16C
  0
DICTIONARY
  5
157
330
156
100
AcDbDictionary
280
     1
281
     1
  0
DICTIONARY
  5
D
102
{ACAD_REACTORS
330
C
102
}
330
C
100
AcDbDictionary
281
     1
  0
RASTERVARIABLES
  5
154
102
{ACAD_REACTORS
330
C
102
}
330
C
100
AcDbRasterVariables
 90
        0
 70
     1
 71
     1
 72
     1
  0
DICTIONARY
  5
1A
102
{ACAD_REACTORS
330
C
102
}
330
C
100
AcDbDictionary
281
     1
  3
Layout1
350
1E
  3
Layout2
350
26
  3
Model
350
22
  0
DICTIONARY
  5
17
102
{ACAD_REACTORS
330
C
102
}
330
C
100
AcDbDictionary
281
     1
  3
Standard
350
18
  0
DICTIONARY
  5
19
102
{ACAD_REACTORS
330
C
102
}
330
C
100
AcDbDictionary
281
     1
  0
ACDBDICTIONARYWDFLT
  5
E
102
{ACAD_REACTORS
330
C
102
}
330
C
100
AcDbDictionary
281
     1
  3
Normal
350
F
100
AcDbDictionaryWithDefault
340
F
  0
DICTIONARY
  5
47
102
{ACAD_REACTORS
330
C
102
}
330
C
100
AcDbDictionary
281
     1
  3
A0
350
48
  3
A1
350
49
  3
A2
350
4A
  3
A3
350
4B
  3
A4
350
4C
  3
A5
350
4D
  3
A6
350
4E
  3
A7
350
4F
  3
A8
350
50
  3
A9
350
51
  3
B0
350
52
  3
B1
350
53
  3
B2
350
54
  3
B3
350
55
  3
B4
350
56
  3
B5
350
57
  3
B6
350
58
  3
B7
350
59
  3
B8
350
5A
  3
B9
350
5B
  3
C0
350
5C
  3
C1
350
5D
  3
C2
350
5E
  3
C3
350
5F
  3
C4
350
60
  3
C5
350
61
  3
C6
350
62
  3
C7
350
63
  3
C8
350
64
  3
C9
350
65
  3
D0
350
66
  3
D1
350
67
  3
D2
350
68
  0
DICTIONARY
  5
152
102
{ACAD_REACTORS
330
C
102
}
330
C
100
AcDbDictionary
281
     1
  0
XRECORD
  5
16C
102
{ACAD_REACTORS
330
C
102
}
330
C
100
AcDbXrecord
280
     1
  1
DWGPROPS COOKIE
  2

  3

  4

  6

  7

  8
12016016
  9

300
=
301
=
302
=
303
=
304
=
305
=
306
=
307
=
308
=
309
=
 40
0.0
 41
2458269.325910266
 42
2458274.997457477
  1

 90
        0
  0
LAYOUT
  5
1E
102
{ACAD_REACTORS
330
1A
102
}
330
1A
100
AcDbPlotSettings
  1

  2
none_device
  4

  6

 40
0.0
 41
0.0
 42
0.0
 43
0.0
 44
0.0
 45
0.0
 46
0.0
 47
0.0
 48
0.0
 49
0.0
140
0.0
141
0.0
142
1.0
143
1.0
 70
   688
 72
     1
 73
     0
 74
     5
  7

 75
    16
147
1.0
148
0.0
149
0.0
100
AcDbLayout
  1
Layout1
 70
     1
 71
     1
 10
0.0
 20
0.0
 11
420.0
 21
297.0
 12
0.0
 22
0.0
 32
0.0
 14
1.000000000000000E+20
 24
1.000000000000000E+20
 34
1.000000000000000E+20
 15
-1.000000000000000E+20
 25
-1.000000000000000E+20
 35
-1.000000000000000E+20
146
0.0
 13
0.0
 23
0.0
 33
0.0
 16
1.0
 26
0.0
 36
0.0
 17
0.0
 27
1.0
 37
0.0
 76
     0
330
1B
  0
LAYOUT
  5
26
102
{ACAD_REACTORS
330
1A
102
}
330
1A
100
AcDbPlotSettings
  1

  2
none_device
  4

  6

 40
0.0
 41
0.0
 42
0.0
 43
0.0
 44
0.0
 45
0.0
 46
0.0
 47
0.0
 48
0.0
 49
0.0
140
0.0
141
0.0
142
1.0
143
1.0
 70
   688
 72
     1
 73
     0
 74
     5
  7

 75
    16
147
1.0
148
0.0
149
0.0
100
AcDbLayout
  1
Layout2
 70
     1
 71
     2
 10
0.0
 20
0.0
 11
0.0
 21
0.0
 12
0.0
 22
0.0
 32
0.0
 14
0.0
 24
0.0
 34
0.0
 15
0.0
 25
0.0
 35
0.0
146
0.0
 13
0.0
 23
0.0
 33
0.0
 16
1.0
 26
0.0
 36
0.0
 17
0.0
 27
1.0
 37
0.0
 76
     0
330
23
  0
LAYOUT
  5
22
102
{ACAD_REACTORS
330
1A
102
}
330
1A
100
AcDbPlotSettings
  1

  2
none_device
  4
ANSI_A_(11.00_x_8.50_Inches)
  6

 40
6.35
 41
19.05
 42
6.35000508
 43
19.05000254
 44
279.4
 45
215.9
 46
150.7992674837346
 47
82.16370965081694
 48
0.0
 49
0.0
140
0.0
141
0.0
142
0.0596572153218228
143
1.0
 70
  1696
 72
     0
 73
     0
 74
     0
  7

 75
     0
147
0.0235690232323232
148
0.0
149
0.0
100
AcDbLayout
  1
Model
 70
     1
 71
     0
 10
0.0
 20
0.0
 11
420.0
 21
297.0
 12
0.0
 22
0.0
 32
0.0
 14
-84.71700000000006
 24
-49.90171307273278
 34
0.0
 15
107.0583268539347
 25
51.32562537290536
 35
0.0
146
0.0
 13
0.0
 23
0.0
 33
0.0
 16
1.0
 26
0.0
 36
0.0
 17
0.0
 27
1.0
 37
0.0
 76
     0
330
1F
331
29
  0
MLINESTYLE
  5
18
102
{ACAD_REACTORS
330
17
102
}
330
17
100
AcDbMlineStyle
  2
Standard
 70
     0
  3

 62
   256
 51
90.0
 52
90.0
 71
     2
 49
0.5
 62
   256
  6
BYLAYER
 49
-0.5
 62
   256
  6
BYLAYER
  0
ACDBPLACEHOLDER
  5
F
102
{ACAD_REACTORS
330
E
102
}
330
E
  0
SCALE
  5
48
102
{ACAD_REACTORS
330
47
102
}
330
47
100
AcDbScale
 70
     0
300
1:1
140
1.0
141
1.0
290
     1
  0
SCALE
  5
49
102
{ACAD_REACTORS
330
47
102
}
330
47
100
AcDbScale
 70
     0
300
1:2
140
1.0
141
2.0
290
     0
  0
SCALE
  5
4A
102
{ACAD_REACTORS
330
47
102
}
330
47
100
AcDbScale
 70
     0
300
1:4
140
1.0
141
4.0
290
     0
  0
SCALE
  5
4B
102
{ACAD_REACTORS
330
47
102
}
330
47
100
AcDbScale
 70
     0
300
1:5
140
1.0
141
5.0
290
     0
  0
SCALE
  5
4C
102
{ACAD_REACTORS
330
47
102
}
330
47
100
AcDbScale
 70
     0
300
1:8
140
1.0
141
8.0
290
     0
  0
SCALE
  5
4D
102
{ACAD_REACTORS
330
47
102
}
330
47
100
AcDbScale
 70
     0
300
1:10
140
1.0
141
10.0
290
     0
  0
SCALE
  5
4E
102
{ACAD_REACTORS
330
47
102
}
330
47
100
AcDbScale
 70
     0
300
1:16
140
1.0
141
16.0
290
     0
  0
SCALE
  5
4F
102
{ACAD_REACTORS
330
47
102
}
330
47
100
AcDbScale
 70
     0
300
1:20
140
1.0
141
20.0
290
     0
  0
SCALE
  5
50
102
{ACAD_REACTORS
330
47
102
}
330
47
100
AcDbScale
 70
     0
300
1:30
140
1.0
141
30.0
290
     0
  0
SCALE
  5
51
102
{ACAD_REACTORS
330
47
102
}
330
47
100
AcDbScale
 70
     0
300
1:40
140
1.0
141
40.0
290
     0
  0
SCALE
  5
52
102
{ACAD_REACTORS
330
47
102
}
330
47
100
AcDbScale
 70
     0
300
1:50
140
1.0
141
50.0
290
     0
  0
SCALE
  5
53
102
{ACAD_REACTORS
330
47
102
}
330
47
100
AcDbScale
 70
     0
300
1:100
140
1.0
141
100.0
290
     0
  0
SCALE
  5
54
102
{ACAD_REACTORS
330
47
102
}
330
47
100
AcDbScale
 70
     0
300
2:1
140
2.0
141
1.0
290
     0
  0
SCALE
  5
55
102
{ACAD_REACTORS
330
47
102
}
330
47
100
AcDbScale
 70
     0
300
4:1
140
4.0
141
1.0
290
     0
  0
SCALE
  5
56
102
{ACAD_REACTORS
330
47
102
}
330
47
100
AcDbScale
 70
     0
300
8:1
140
8.0
141
1.0
290
     0
  0
SCALE
  5
57
102
{ACAD_REACTORS
330
47
102
}
330
47
100
AcDbScale
 70
     0
300
10:1
140
10.0
141
1.0
290
     0
  0
SCALE
  5
58
102
{ACAD_REACTORS
330
47
102
}
330
47
100
AcDbScale
 70
     0
300
100:1
140
100.0
141
1.0
290
     0
  0
SCALE
  5
59
102
{ACAD_REACTORS
330
47
102
}
330
47
100
AcDbScale
 70
     0
300
1/128" = 1'-0"
140
0.0078125
141
12.0
290
     0
  0
SCALE
  5
5A
102
{ACAD_REACTORS
330
47
102
}
330
47
100
AcDbScale
 70
     0
300
1/64" = 1'-0"
140
0.015625
141
12.0
290
     0
  0
SCALE
  5
5B
102
{ACAD_REACTORS
330
47
102
}
330
47
100
AcDbScale
 70
     0
300
1/32" = 1'-0"
140
0.03125
141
12.0
290
     0
  0
SCALE
  5
5C
102
{ACAD_REACTORS
330
47
102
}
330
47
100
AcDbScale
 70
     0
300
1/16" = 1'-0"
140
0.0625
141
12.0
290
     0
  0
SCALE
  5
5D
102
{ACAD_REACTORS
330
47
102
}
330
47
100
AcDbScale
 70
     0
300
3/32" = 1'-0"
140
0.09375
141
12.0
290
     0
  0
SCALE
  5
5E
102
{ACAD_REACTORS
330
47
102
}
330
47
100
AcDbScale
 70
     0
300
1/8" = 1'-0"
140
0.125
141
12.0
290
     0
  0
SCALE
  5
5F
102
{ACAD_REACTORS
330
47
102
}
330
47
100
AcDbScale
 70
     0
300
3/16" = 1'-0"
140
0.1875
141
12.0
290
     0
  0
SCALE
  5
60
102
{ACAD_REACTORS
330
47
102
}
330
47
100
AcDbScale
 70
     0
300
1/4" = 1'-0"
140
0.25
141
12.0
290
     0
  0
SCALE
  5
61
102
{ACAD_REACTORS
330
47
102
}
330
47
100
AcDbScale
 70
     0
300
3/8" = 1'-0"
140
0.375
141
12.0
290
     0
  0
SCALE
  5
62
102
{ACAD_REACTORS
330
47
102
}
330
47
100
AcDbScale
 70
     0
300
1/2" = 1'-0"
140
0.5
141
12.0
290
     0
  0
SCALE
  5
63
102
{ACAD_REACTORS
330
47
102
}
330
47
100
AcDbScale
 70
     0
300
3/4" = 1'-0"
140
0.75
141
12.0
290
     0
  0
SCALE
  5
64
102
{ACAD_REACTORS
330
47
102
}
330
47
100
AcDbScale
 70
     0
300
1" = 1'-0"
140
1.0
141
12.0
290
     0
  0
SCALE
  5
65
102
{ACAD_REACTORS
330
47
102
}
330
47
100
AcDbScale
 70
     0
300
1-1/2" = 1'-0"
140
1.5
141
12.0
290
     0
  0
SCALE
  5
66
102
{ACAD_REACTORS
330
47
102
}
330
47
100
AcDbScale
 70
     0
300
3" = 1'-0"
140
3.0
141
12.0
290
     0
  0
SCALE
  5
67
102
{ACAD_REACTORS
330
47
102
}
330
47
100
AcDbScale
 70
     0
300
6" = 1'-0"
140
6.0
141
12.0
290
     0
  0
SCALE
  5
68
102
{ACAD_REACTORS
330
47
102
}
330
47
100
AcDbScale
 70
     0
300
1'-0" = 1'-0"
140
12.0
141
12.0
290
     0
  0
ENDSEC
  0
EOF
