  0
SECTION
  2
HEADER
  9
$ACADVER
  1
AC1015
  9
$ACADMAINTVER
 70
     6
  9
$DWGCODEPAGE
  3
ANSI_949
  9
$INSBASE
 10
0.0
 20
0.0
 30
0.0
  9
$EXTMIN
 10
-102.74555
 20
-49.97180738881174
 30
0.0
  9
$EXTMAX
 10
73.5384838153456
 20
53.55000000000004
 30
0.0
  9
$LIMMIN
 10
0.0
 20
0.0
  9
$LIMMAX
 10
420.0
 20
297.0
  9
$ORTHOMODE
 70
     1
  9
$REGENMODE
 70
     1
  9
$FILLMODE
 70
     1
  9
$QTEXTMODE
 70
     0
  9
$MIRRTEXT
 70
     1
  9
$LTSCALE
 40
1.0
  9
$ATTMODE
 70
     1
  9
$TEXTSIZE
 40
3.5
  9
$TRACEWID
 40
1.0
  9
$TEXTSTYLE
  7
Standard
  9
$CLAYER
  8
0
  9
$CELTYPE
  6
ByLayer
  9
$CECOLOR
 62
   256
  9
$CELTSCALE
 40
1.0
  9
$DISPSILH
 70
     0
  9
$DIMSCALE
 40
1.0
  9
$DIMASZ
 40
3.302
  9
$DIMEXO
 40
1.0
  9
$DIMDLI
 40
3.75
  9
$DIMRND
 40
0.0
  9
$DIMDLE
 40
0.0
  9
$DIMEXE
 40
1.0
  9
$DIMTP
 40
0.0
  9
$DIMTM
 40
0.0
  9
$DIMTXT
 40
3.5
  9
$DIMCEN
 40
2.5
  9
$DIMTSZ
 40
0.0
  9
$DIMTOL
 70
     0
  9
$DIMLIM
 70
     0
  9
$DIMTIH
 70
     1
  9
$DIMTOH
 70
     1
  9
$DIMSE1
 70
     0
  9
$DIMSE2
 70
     0
  9
$DIMTAD
 70
     1
  9
$DIMZIN
 70
     0
  9
$DIMBLK
  1

  9
$DIMASO
 70
     1
  9
$DIMSHO
 70
     1
  9
$DIMPOST
  1

  9
$DIMAPOST
  1

  9
$DIMALT
 70
     0
  9
$DIMALTD
 70
     3
  9
$DIMALTF
 40
0.0393700787401575
  9
$DIMLFAC
 40
1.0
  9
$DIMTOFL
 70
     1
  9
$DIMTVP
 40
0.0
  9
$DIMTIX
 70
     0
  9
$DIMSOXD
 70
     0
  9
$DIMSAH
 70
     0
  9
$DIMBLK1
  1

  9
$DIMBLK2
  1

  9
$DIMSTYLE
  2
ISO-25
  9
$DIMCLRD
 70
     0
  9
$DIMCLRE
 70
     0
  9
$DIMCLRT
 70
     0
  9
$DIMTFAC
 40
1.0
  9
$DIMGAP
 40
1.524
  9
$DIMJUST
 70
     0
  9
$DIMSD1
 70
     0
  9
$DIMSD2
 70
     0
  9
$DIMTOLJ
 70
     0
  9
$DIMTZIN
 70
     0
  9
$DIMALTZ
 70
     0
  9
$DIMALTTZ
 70
     0
  9
$DIMUPT
 70
     0
  9
$DIMDEC
 70
     2
  9
$DIMTDEC
 70
     2
  9
$DIMALTU
 70
     2
  9
$DIMALTTD
 70
     3
  9
$DIMTXSTY
  7
Standard
  9
$DIMAUNIT
 70
     0
  9
$DIMADEC
 70
     2
  9
$DIMALTRND
 40
0.0
  9
$DIMAZIN
 70
     0
  9
$DIMDSEP
 70
    44
  9
$DIMATFIT
 70
     3
  9
$DIMFRAC
 70
     0
  9
$DIMLDRBLK
  1

  9
$DIMLUNIT
 70
     2
  9
$DIMLWD
 70
    -2
  9
$DIMLWE
 70
    -2
  9
$DIMTMOVE
 70
     0
  9
$LUNITS
 70
     2
  9
$LUPREC
 70
     2
  9
$SKETCHINC
 40
1.0
  9
$FILLETRAD
 40
10.0
  9
$AUNITS
 70
     0
  9
$AUPREC
 70
     2
  9
$MENU
  1
.
  9
$ELEVATION
 40
0.0
  9
$PELEVATION
 40
0.0
  9
$THICKNESS
 40
0.0
  9
$LIMCHECK
 70
     0
  9
$CHAMFERA
 40
0.0
  9
$CHAMFERB
 40
0.0
  9
$CHAMFERC
 40
0.0
  9
$CHAMFERD
 40
0.0
  9
$SKPOLY
 70
     0
  9
$TDCREATE
 40
2458288.520138843
  9
$TDUCREATE
 40
2458288.145138843
  9
$TDUPDATE
 40
2458295.500133229
  9
$TDUUPDATE
 40
2458295.125133229
  9
$TDINDWG
 40
0.0011307292
  9
$TDUSRTIMER
 40
2458295.125062581
  9
$USRTIMER
 70
     1
  9
$ANGBASE
 50
0.0
  9
$ANGDIR
 70
     0
  9
$PDMODE
 70
     0
  9
$PDSIZE
 40
-1.0
  9
$PLINEWID
 40
0.0
  9
$SPLFRAME
 70
     0
  9
$SPLINETYPE
 70
     6
  9
$SPLINESEGS
 70
     8
  9
$HANDSEED
  5
1B9
  9
$SURFTAB1
 70
     6
  9
$SURFTAB2
 70
     6
  9
$SURFTYPE
 70
     6
  9
$SURFU
 70
     6
  9
$SURFV
 70
     6
  9
$UCSBASE
  2

  9
$UCSNAME
  2

  9
$UCSORG
 10
0.0
 20
0.0
 30
0.0
  9
$UCSXDIR
 10
1.0
 20
0.0
 30
0.0
  9
$UCSYDIR
 10
0.0
 20
1.0
 30
0.0
  9
$UCSORTHOREF
  2

  9
$UCSORTHOVIEW
 70
     0
  9
$UCSORGTOP
 10
0.0
 20
0.0
 30
0.0
  9
$UCSORGBOTTOM
 10
0.0
 20
0.0
 30
0.0
  9
$UCSORGLEFT
 10
0.0
 20
0.0
 30
0.0
  9
$UCSORGRIGHT
 10
0.0
 20
0.0
 30
0.0
  9
$UCSORGFRONT
 10
0.0
 20
0.0
 30
0.0
  9
$UCSORGBACK
 10
0.0
 20
0.0
 30
0.0
  9
$PUCSBASE
  2

  9
$PUCSNAME
  2

  9
$PUCSORG
 10
0.0
 20
0.0
 30
0.0
  9
$PUCSXDIR
 10
1.0
 20
0.0
 30
0.0
  9
$PUCSYDIR
 10
0.0
 20
1.0
 30
0.0
  9
$PUCSORTHOREF
  2

  9
$PUCSORTHOVIEW
 70
     0
  9
$PUCSORGTOP
 10
0.0
 20
0.0
 30
0.0
  9
$PUCSORGBOTTOM
 10
0.0
 20
0.0
 30
0.0
  9
$PUCSORGLEFT
 10
0.0
 20
0.0
 30
0.0
  9
$PUCSORGRIGHT
 10
0.0
 20
0.0
 30
0.0
  9
$PUCSORGFRONT
 10
0.0
 20
0.0
 30
0.0
  9
$PUCSORGBACK
 10
0.0
 20
0.0
 30
0.0
  9
$USERI1
 70
     0
  9
$USERI2
 70
     0
  9
$USERI3
 70
     0
  9
$USERI4
 70
     0
  9
$USERI5
 70
     0
  9
$USERR1
 40
0.0
  9
$USERR2
 40
0.0
  9
$USERR3
 40
0.0
  9
$USERR4
 40
0.0
  9
$USERR5
 40
0.0
  9
$WORLDVIEW
 70
     1
  9
$SHADEDGE
 70
     3
  9
$SHADEDIF
 70
    70
  9
$TILEMODE
 70
     1
  9
$MAXACTVP
 70
    64
  9
$PINSBASE
 10
0.0
 20
0.0
 30
0.0
  9
$PLIMCHECK
 70
     0
  9
$PEXTMIN
 10
1.000000000000000E+20
 20
1.000000000000000E+20
 30
1.000000000000000E+20
  9
$PEXTMAX
 10
-1.000000000000000E+20
 20
-1.000000000000000E+20
 30
-1.000000000000000E+20
  9
$PLIMMIN
 10
0.0
 20
0.0
  9
$PLIMMAX
 10
0.0
 20
0.0
  9
$UNITMODE
 70
     0
  9
$VISRETAIN
 70
     1
  9
$PLINEGEN
 70
     0
  9
$PSLTSCALE
 70
     1
  9
$TREEDEPTH
 70
  3020
  9
$CMLSTYLE
  2
Standard
  9
$CMLJUST
 70
     0
  9
$CMLSCALE
 40
20.0
  9
$PROXYGRAPHICS
 70
     1
  9
$MEASUREMENT
 70
     1
  9
$CELWEIGHT
370
    -1
  9
$ENDCAPS
280
     0
  9
$JOINSTYLE
280
     0
  9
$LWDISPLAY
290
     1
  9
$INSUNITS
 70
     4
  9
$HYPERLINKBASE
  1

  9
$STYLESHEET
  1

  9
$XEDIT
290
     1
  9
$CEPSNTYPE
380
     0
  9
$PSTYLEMODE
290
     1
  9
$FINGERPRINTGUID
  2
{8A9A7F3F-1D7D-4809-BE88-7A75E35457CC}
  9
$VERSIONGUID
  2
{FAEB1C32-E019-11D5-929B-00C0DF256EC4}
  9
$EXTNAMES
290
     1
  9
$PSVPSCALE
 40
0.0
  9
$OLESTARTUP
290
     0
  0
ENDSEC
  0
SECTION
  2
CLASSES
  0
CLASS
  1
ACDBDICTIONARYWDFLT
  2
AcDbDictionaryWithDefault
  3
ObjectDBX Classes
 90
        0
280
     0
281
     0
  0
CLASS
  1
VISUALSTYLE
  2
AcDbVisualStyle
  3
ObjectDBX Classes
 90
     4095
280
     0
281
     0
  0
CLASS
  1
MATERIAL
  2
AcDbMaterial
  3
ObjectDBX Classes
 90
     1153
280
     0
281
     0
  0
CLASS
  1
SCALE
  2
AcDbScale
  3
ObjectDBX Classes
 90
     1153
280
     0
281
     0
  0
CLASS
  1
SUN
  2
AcDbSun
  3
SCENEOE
 90
     1153
280
     0
281
     0
  0
CLASS
  1
ACDBPLACEHOLDER
  2
AcDbPlaceHolder
  3
ObjectDBX Classes
 90
        0
280
     0
281
     0
  0
CLASS
  1
LAYOUT
  2
AcDbLayout
  3
ObjectDBX Classes
 90
        0
280
     0
281
     0
  0
CLASS
  1
TABLESTYLE
  2
AcDbTableStyle
  3
ObjectDBX Classes
 90
     4095
280
     0
281
     0
  0
CLASS
  1
MLEADERSTYLE
  2
AcDbMLeaderStyle
  3
ACDB_MLEADERSTYLE_CLASS
 90
     4095
280
     0
281
     0
  0
CLASS
  1
RASTERVARIABLES
  2
AcDbRasterVariables
  3
ISM
 90
        0
280
     0
281
     0
  0
ENDSEC
  0
SECTION
  2
TABLES
  0
TABLE
  2
VPORT
  5
8
330
0
100
AcDbSymbolTable
 70
     1
  0
VPORT
  5
29
330
8
100
AcDbSymbolTableRecord
100
AcDbViewportTableRecord
  2
*Active
 70
     0
 10
0.0
 20
0.0
 11
1.0
 21
1.0
 12
-61.41547024363091
 22
11.01662296152426
 13
0.0
 23
0.0
 14
10.0
 24
10.0
 15
10.0
 25
10.0
 16
0.0
 26
0.0
 36
1.0
 17
0.0
 27
0.0
 37
0.0
 40
142.8718536086895
 41
1.859099804305284
 42
50.0
 43
0.0
 44
0.0
 50
0.0
 51
0.0
 71
    16
 72
  2000
 73
     1
 74
     3
 75
     0
 76
     0
 77
     0
 78
     0
281
     0
 65
     1
110
0.0
120
0.0
130
0.0
111
1.0
121
0.0
131
0.0
112
0.0
122
1.0
132
0.0
 79
     0
146
0.0
  0
ENDTAB
  0
TABLE
  2
LTYPE
  5
5
330
0
100
AcDbSymbolTable
 70
     6
  0
LTYPE
  5
14
330
5
100
AcDbSymbolTableRecord
100
AcDbLinetypeTableRecord
  2
ByBlock
 70
     0
  3

 72
    65
 73
     0
 40
0.0
  0
LTYPE
  5
15
330
5
100
AcDbSymbolTableRecord
100
AcDbLinetypeTableRecord
  2
ByLayer
 70
     0
  3

 72
    65
 73
     0
 40
0.0
  0
LTYPE
  5
16
330
5
100
AcDbSymbolTableRecord
100
AcDbLinetypeTableRecord
  2
Continuous
 70
     0
  3
Solid line
 72
    65
 73
     0
 40
0.0
  0
LTYPE
  5
6A
330
5
100
AcDbSymbolTableRecord
100
AcDbLinetypeTableRecord
  2
HIDDEN
 70
     0
  3
Hidden __ __ __ __ __ __ __ __ __ __ __ __ __ __
 72
    65
 73
     2
 40
1.905
 49
1.27
 74
     0
 49
-0.635
 74
     0
  0
LTYPE
  5
6B
330
5
100
AcDbSymbolTableRecord
100
AcDbLinetypeTableRecord
  2
PHANTOM
 70
     0
  3
Phantom ______  __  __  ______  __  __  ______
 72
    65
 73
     6
 40
12.7
 49
6.35
 74
     0
 49
-1.27
 74
     0
 49
1.27
 74
     0
 49
-1.27
 74
     0
 49
1.27
 74
     0
 49
-1.27
 74
     0
  0
LTYPE
  5
6C
330
5
100
AcDbSymbolTableRecord
100
AcDbLinetypeTableRecord
  2
CENTER
 70
     0
  3
Center ____ _ ____ _ ____ _ ____ _ ____ _ ____
 72
    65
 73
     4
 40
10.16
 49
6.35
 74
     0
 49
-1.27
 74
     0
 49
1.27
 74
     0
 49
-1.27
 74
     0
  0
LTYPE
  5
6D
330
5
100
AcDbSymbolTableRecord
100
AcDbLinetypeTableRecord
  2
CENTERX2
 70
     0
  3
Center (2x) ________  __  ________  __  _____
 72
    65
 73
     4
 40
20.32
 49
12.7
 74
     0
 49
-2.54
 74
     0
 49
2.54
 74
     0
 49
-2.54
 74
     0
  0
LTYPE
  5
6E
330
5
100
AcDbSymbolTableRecord
100
AcDbLinetypeTableRecord
  2
DOT2
 70
     0
  3
Dot (.5x) ........................................
 72
    65
 73
     2
 40
0.635
 49
0.0
 74
     0
 49
-0.635
 74
     0
  0
ENDTAB
  0
TABLE
  2
LAYER
  5
2
102
{ACAD_XDICTIONARY
360
185
102
}
330
0
100
AcDbSymbolTable
 70
    18
  0
LAYER
  5
10
330
2
100
AcDbSymbolTableRecord
100
AcDbLayerTableRecord
  2
0
 70
     0
 62
     7
  6
Continuous
370
    -3
390
F
  0
LAYER
  5
6F
330
2
100
AcDbSymbolTableRecord
100
AcDbLayerTableRecord
  2
FORMAT
 70
     0
 62
     2
  6
Continuous
370
    -3
390
F
  0
LAYER
  5
70
330
2
100
AcDbSymbolTableRecord
100
AcDbLayerTableRecord
  2
외형선
 70
     0
 62
     4
  6
Continuous
370
    30
390
F
  0
LAYER
  5
71
330
2
100
AcDbSymbolTableRecord
100
AcDbLayerTableRecord
  2
숨은선
 70
     0
 62
     2
  6
HIDDEN
370
    15
390
F
  0
LAYER
  5
72
330
2
100
AcDbSymbolTableRecord
100
AcDbLayerTableRecord
  2
중심선
 70
     0
 62
     1
  6
CENTERX2
370
    -3
390
F
  0
LAYER
  5
73
330
2
100
AcDbSymbolTableRecord
100
AcDbLayerTableRecord
  2
파단선
 70
     0
 62
     4
  6
Continuous
370
    -3
390
F
  0
LAYER
  5
74
330
2
100
AcDbSymbolTableRecord
100
AcDbLayerTableRecord
  2
해칭선
 70
     0
 62
   100
  6
Continuous
370
    -3
390
F
  0
LAYER
  5
75
330
2
100
AcDbSymbolTableRecord
100
AcDbLayerTableRecord
  2
가는실선
 70
     0
 62
     4
  6
Continuous
370
    -3
390
F
  0
LAYER
  5
76
330
2
100
AcDbSymbolTableRecord
100
AcDbLayerTableRecord
  2
치수_보조선
 70
     0
 62
     4
  6
Continuous
370
    -3
390
F
  0
LAYER
  5
77
330
2
100
AcDbSymbolTableRecord
100
AcDbLayerTableRecord
  2
치수문자_일반주서
 70
     0
 62
     7
  6
Continuous
370
    15
390
F
  0
LAYER
  5
78
330
2
100
AcDbSymbolTableRecord
100
AcDbLayerTableRecord
  2
개별주서
 70
     0
 62
   100
  6
Continuous
370
    30
390
F
  0
LAYER
  5
79
330
2
100
AcDbSymbolTableRecord
100
AcDbLayerTableRecord
  2
중간선
 70
     0
 62
     2
  6
Continuous
370
    15
390
F
  0
LAYER
  5
7A
330
2
100
AcDbSymbolTableRecord
100
AcDbLayerTableRecord
  2
윤곽선
 70
     0
 62
     3
  6
Continuous
370
    40
390
F
  0
LAYER
  5
7B
330
2
100
AcDbSymbolTableRecord
100
AcDbLayerTableRecord
  2
중심마크
 70
     0
 62
   100
  6
Continuous
370
    30
390
F
  0
LAYER
  5
7C
330
2
100
AcDbSymbolTableRecord
100
AcDbLayerTableRecord
  2
가상선
 70
     0
 62
     4
  6
PHANTOM
370
    -3
390
F
  0
LAYER
  5
7D
330
2
100
AcDbSymbolTableRecord
100
AcDbLayerTableRecord
  2
특수지정선
 70
     0
 62
     5
  6
CENTERX2
370
    60
390
F
  0
LAYER
  5
7E
330
2
100
AcDbSymbolTableRecord
100
AcDbLayerTableRecord
  2
참조1
 70
     0
 62
    -4
  6
Continuous
370
    -3
390
F
  0
LAYER
  5
18C
330
2
100
AcDbSymbolTableRecord
100
AcDbLayerTableRecord
  2
Defpoints
 70
     0
 62
     7
  6
Continuous
290
     0
370
    -3
390
F
  0
ENDTAB
  0
TABLE
  2
STYLE
  5
3
330
0
100
AcDbSymbolTable
 70
     2
  0
STYLE
  5
11
330
3
100
AcDbSymbolTableRecord
100
AcDbTextStyleTableRecord
  2
Standard
 70
     0
 40
0.0
 41
1.0
 50
0.0
 71
     0
 42
3.5
  3
txt
  4

  0
STYLE
  5
94
330
3
100
AcDbSymbolTableRecord
100
AcDbTextStyleTableRecord
  2
SLDTEXTSTYLE0
 70
     0
 40
0.0
 41
0.75
 50
0.0
 71
     0
 42
3.5
  3
TXT
  4

  0
ENDTAB
  0
TABLE
  2
VIEW
  5
6
330
0
100
AcDbSymbolTable
 70
     0
  0
ENDTAB
  0
TABLE
  2
UCS
  5
7
330
0
100
AcDbSymbolTable
 70
     0
  0
ENDTAB
  0
TABLE
  2
APPID
  5
9
330
0
100
AcDbSymbolTable
 70
     1
  0
APPID
  5
12
330
9
100
AcDbSymbolTableRecord
100
AcDbRegAppTableRecord
  2
ACAD
 70
     0
  0
ENDTAB
  0
TABLE
  2
DIMSTYLE
  5
A
330
0
100
AcDbSymbolTable
 70
     4
100
AcDbDimStyleTable
  0
DIMSTYLE
105
27
330
A
100
AcDbSymbolTableRecord
100
AcDbDimStyleTableRecord
  2
ISO-25
 70
     0
 41
2.5
 42
0.625
 43
3.75
 44
1.25
 73
     0
 74
     0
 77
     1
 78
     8
140
2.5
141
2.5
143
0.03937007874016
147
0.625
171
     3
172
     1
178
     0
271
     2
272
     2
274
     3
278
    44
283
     0
284
     8
340
11
  0
DIMSTYLE
105
C9
330
A
100
AcDbSymbolTableRecord
100
AcDbDimStyleTableRecord
  2
SLDDIMSTYLE0
 70
     0
 41
3.302
 44
0.0
 45
0.000000001
 73
     0
 74
     0
 77
     1
 78
    12
 79
     3
140
3.5
143
0.0393700787401575
147
0.875
148
0.000000001
170
     1
173
     1
178
     0
271
     2
272
     2
276
     2
284
    12
340
94
  0
DIMSTYLE
105
F2
330
A
100
AcDbSymbolTableRecord
100
AcDbDimStyleTableRecord
  2
SLDDIMSTYLE1
 70
     0
 41
3.302
 44
0.0
 45
0.000000001
 73
     0
 74
     0
 77
     1
 78
     4
 79
     1
140
3.5
143
0.0393700787401575
147
0.875
148
0.000000001
170
     1
173
     1
178
     0
271
     2
272
     2
276
     2
284
    12
340
94
  0
DIMSTYLE
105
106
102
{ACAD_REACTORS
330
105
330
C8
330
DD
330
F1
330
11A
102
}
330
A
100
AcDbSymbolTableRecord
100
AcDbDimStyleTableRecord
  2
SLDDIMSTYLE2
 70
     0
 41
3.302
 44
0.0
 45
0.000000001
 73
     0
 74
     0
 77
     1
 78
    12
 79
     3
140
3.5
143
0.0393700787401575
147
0.875
148
0.000000001
170
     1
172
     1
173
     1
178
     0
271
     2
272
     2
276
     2
284
    12
289
     0
340
94
  0
ENDTAB
  0
TABLE
  2
BLOCK_RECORD
  5
1
330
0
100
AcDbSymbolTable
 70
     8
  0
BLOCK_RECORD
  5
1F
330
1
100
AcDbSymbolTableRecord
100
AcDbBlockTableRecord
  2
*Model_Space
340
22
  0
BLOCK_RECORD
  5
1B
330
1
100
AcDbSymbolTableRecord
100
AcDbBlockTableRecord
  2
*Paper_Space
340
1E
  0
BLOCK_RECORD
  5
23
330
1
100
AcDbSymbolTableRecord
100
AcDbBlockTableRecord
  2
*Paper_Space0
340
26
  0
BLOCK_RECORD
  5
7F
330
1
100
AcDbSymbolTableRecord
100
AcDbBlockTableRecord
  2
블럭10
340
0
102
{BLKREFS
331
C1
102
}
  0
BLOCK_RECORD
  5
CA
330
1
100
AcDbSymbolTableRecord
100
AcDbBlockTableRecord
  2
_D
340
0
  0
BLOCK_RECORD
  5
DE
330
1
100
AcDbSymbolTableRecord
100
AcDbBlockTableRecord
  2
_D_1
340
0
  0
BLOCK_RECORD
  5
F3
330
1
100
AcDbSymbolTableRecord
100
AcDbBlockTableRecord
  2
_D_2
340
0
  0
BLOCK_RECORD
  5
107
330
1
100
AcDbSymbolTableRecord
100
AcDbBlockTableRecord
  2
_D_3
340
0
  0
BLOCK_RECORD
  5
11B
330
1
100
AcDbSymbolTableRecord
100
AcDbBlockTableRecord
  2
_D_4
340
0
  0
BLOCK_RECORD
  5
134
330
1
100
AcDbSymbolTableRecord
100
AcDbBlockTableRecord
  2
SW_DOWELSYMBOL_0
340
0
102
{BLKREFS
331
13A
102
}
  0
ENDTAB
  0
ENDSEC
  0
SECTION
  2
BLOCKS
  0
BLOCK
  5
20
330
1F
100
AcDbEntity
  8
0
100
AcDbBlockBegin
  2
*Model_Space
 70
     0
 10
0.0
 20
0.0
 30
0.0
  3
*Model_Space
  1
*Model_Space
  0
ENDBLK
  5
21
330
1F
100
AcDbEntity
  8
0
100
AcDbBlockEnd
  0
BLOCK
  5
1C
330
1B
100
AcDbEntity
 67
     1
  8
0
100
AcDbBlockBegin
  2
*Paper_Space
 70
     0
 10
0.0
 20
0.0
 30
0.0
  3
*Paper_Space
  1
*Paper_Space
  0
ENDBLK
  5
1D
330
1B
100
AcDbEntity
 67
     1
  8
0
100
AcDbBlockEnd
  0
BLOCK
  5
24
330
23
100
AcDbEntity
  8
0
100
AcDbBlockBegin
  2
*Paper_Space0
 70
     0
 10
0.0
 20
0.0
 30
0.0
  3
*Paper_Space0
  1
*Paper_Space0
  0
ENDBLK
  5
25
330
23
100
AcDbEntity
  8
0
100
AcDbBlockEnd
  0
BLOCK
  5
80
330
7F
100
AcDbEntity
  8
0
100
AcDbBlockBegin
  2
블럭10
 70
     2
 10
0.0
 20
0.0
 30
0.0
  3
블럭10
  1
블럭10
  0
ELLIPSE
  5
82
330
7F
100
AcDbEntity
  8
중심선
100
AcDbEllipse
 10
20.54032771741204
 20
12.0471743016438
 30
0.0
 11
6.600054785286829
 21
-1.261213355974178E-13
 31
0.0
210
0.0
220
0.0
230
1.0
 40
0.636358354079598
 41
0.9219305317359503
 42
6.513795318482858
  0
ELLIPSE
  5
83
330
7F
100
AcDbEntity
  8
중심선
100
AcDbEllipse
 10
20.54032771746488
 20
12.04717430159265
 30
0.0
 11
3.960054785062283
 21
1.540847449632565E-10
 31
0.0
210
0.0
220
0.0
230
1.0
 40
0.3939339440162632
 41
1.131841032648279
 42
5.62031148352944
  0
LINE
  5
84
330
7F
100
AcDbEntity
  8
중심선
100
AcDbLine
 10
2.268634060543552
 20
16.24717430164393
 30
0.0
 11
5.714909304380834
 21
16.24717430164393
 31
0.0
  0
LINE
  5
85
330
7F
100
AcDbEntity
  8
중심선
100
AcDbLine
 10
5.245725140726316
 20
7.84717430164391
 30
0.0
 11
8.692000384563599
 21
7.84717430164391
 31
0.0
  0
LINE
  5
86
330
7F
100
AcDbEntity
  8
중심선
100
AcDbLine
 10
15.74043728645272
 20
16.24717430164393
 30
0.0
 11
8.692000384563599
 21
7.84717430164391
 31
0.0
  0
LINE
  5
87
330
7F
100
AcDbEntity
  8
중심선
100
AcDbLine
 10
0.1404042013395286
 20
13.71084872107135
 30
0.0
 11
3.58671253028996
 21
13.71088815037384
 31
0.0
  0
LINE
  5
88
330
7F
100
AcDbEntity
  8
중심선
100
AcDbLine
 10
2.750260043222114
 20
10.84717430164391
 30
0.0
 11
6.196535287059397
 21
10.84717430164391
 31
0.0
  0
LINE
  5
89
330
7F
100
AcDbEntity
  8
중심선
100
AcDbLine
 10
12.29416204261559
 20
16.24717430164393
 30
0.0
 11
5.245725140726316
 21
7.84717430164391
 31
0.0
  0
LINE
  5
8A
330
7F
100
AcDbEntity
  8
중심선
100
AcDbLine
 10
10.72767329541681
 20
16.24717430164393
 30
0.0
 11
6.196535287059397
 21
10.84717430164391
 31
0.0
  0
LINE
  5
8B
330
7F
100
AcDbEntity
  8
중심선
100
AcDbLine
 10
7.28139805157953
 20
16.24717430164393
 30
0.0
 11
2.750260043222114
 21
10.84717430164391
 31
0.0
  0
LINE
  5
8C
330
7F
100
AcDbEntity
  8
중심선
100
AcDbLine
 10
5.714909304380834
 20
16.24717430164393
 30
0.0
 11
3.58671253028996
 21
13.71088815037384
 31
0.0
  0
LINE
  5
8D
330
7F
100
AcDbEntity
  8
중심선
100
AcDbLine
 10
2.268634060543552
 20
16.24717430164393
 30
0.0
 11
0.1404042013395286
 21
13.71084872107135
 31
0.0
  0
LINE
  5
8E
330
7F
100
AcDbEntity
  8
중심선
100
AcDbLine
 10
7.28139805157953
 20
16.24717430164393
 30
0.0
 11
10.72767329541681
 21
16.24717430164393
 31
0.0
  0
LINE
  5
8F
330
7F
100
AcDbEntity
  8
중심선
100
AcDbLine
 10
12.29416204261559
 20
16.24717430164393
 30
0.0
 11
15.74043728645272
 21
16.24717430164393
 31
0.0
  0
LINE
  5
90
330
7F
100
AcDbEntity
  8
중심선
100
AcDbLine
 10
19.22036997980202
 20
11.08717430171403
 30
0.0
 11
23.66174974927406
 21
11.08717430171406
 31
0.0
  0
LINE
  5
91
330
7F
100
AcDbEntity
  8
중심선
100
AcDbLine
 10
19.22039502424796
 20
13.00717430171391
 30
0.0
 11
19.22036997980202
 21
11.08717430171403
 31
0.0
  0
LINE
  5
92
330
7F
100
AcDbEntity
  8
중심선
100
AcDbLine
 10
19.22039502424796
 20
13.00717430171391
 30
0.0
 11
26.96566020931264
 21
13.00717430171391
 31
0.0
  0
LINE
  5
93
330
7F
100
AcDbEntity
  8
중심선
100
AcDbLine
 10
22.22332737316547
 20
13.45928029700563
 30
0.0
 11
24.52862924686651
 21
15.39360700705356
 31
0.0
  0
ATTDEF
  5
95
330
7F
100
AcDbEntity
  8
FORMAT
 62
     2
100
AcDbText
 10
2.993456320822548
 20
2.075366912832191
 30
0.0
 40
4.233333333333333
  1
G8A43020
 41
0.75
  7
SLDTEXTSTYLE0
 11
2.993456320822548
 21
-0.0412997538344756
 31
0.0
100
AcDbAttributeDefinition
  3

  2
AUTOATTR0
 70
     0
 74
     1
  0
ENDBLK
  5
81
330
7F
100
AcDbEntity
  8
0
100
AcDbBlockEnd
  0
BLOCK
  5
CB
330
CA
100
AcDbEntity
  8
0
100
AcDbBlockBegin
  2
_D
 70
     0
 10
0.0
 20
0.0
 30
0.0
  3
_D
  1
_D
  0
LINE
  5
CD
330
CA
100
AcDbEntity
  8
치수문자_일반주서
 62
     0
370
    -2
100
AcDbLine
 10
15.91945
 20
4.031250000000003
 30
0.0
 11
15.91945
 21
19.17500000000002
 31
0.0
  0
LINE
  5
CE
330
CA
100
AcDbEntity
  8
치수문자_일반주서
 62
     0
370
    -2
100
AcDbLine
 10
7.981949999999975
 20
2.534445192180216
 30
0.0
 11
7.981949999999976
 21
19.17500000000002
 31
0.0
  0
LINE
  5
CF
330
CA
100
AcDbEntity
  8
치수문자_일반주서
 62
     0
370
    -2
100
AcDbLine
 10
7.981949999999976
 20
19.17500000000002
 30
0.0
 11
-43.2846893271122
 21
19.17500000000002
 31
0.0
  0
LINE
  5
D0
330
CA
100
AcDbEntity
  8
치수문자_일반주서
 62
     0
370
    -2
100
AcDbLine
 10
15.91945
 20
19.17500000000002
 30
0.0
 11
7.981949999999976
 21
19.17500000000002
 31
0.0
  0
LINE
  5
D1
330
CA
100
AcDbEntity
  8
치수문자_일반주서
 62
     0
370
    -2
100
AcDbLine
 10
19.22145
 20
19.17500000000002
 30
0.0
 11
22.52345
 21
19.17500000000002
 31
0.0
  0
LINE
  5
D2
330
CA
100
AcDbEntity
  8
치수문자_일반주서
 62
     0
370
    -2
100
AcDbLine
 10
4.679949999999977
 20
19.17500000000002
 30
0.0
 11
1.377949999999977
 21
19.17500000000002
 31
0.0
  0
SOLID
  5
D3
330
CA
100
AcDbEntity
  8
치수문자_일반주서
 62
     0
100
AcDbTrace
 10
19.22145
 20
19.72533333333336
 30
0.0
 11
19.22145
 21
18.62466666666669
 31
0.0
 12
15.91945
 22
19.17500000000002
 32
0.0
 13
15.91945
 23
19.17500000000002
 33
0.0
  0
SOLID
  5
D4
330
CA
100
AcDbEntity
  8
치수문자_일반주서
 62
     0
100
AcDbTrace
 10
4.679949999999977
 20
18.62466666666669
 30
0.0
 11
4.679949999999977
 21
19.72533333333336
 31
0.0
 12
7.981949999999976
 22
19.17500000000002
 32
0.0
 13
7.981949999999976
 23
19.17500000000002
 33
0.0
  0
MTEXT
  5
D5
330
CA
100
AcDbEntity
  8
치수문자_일반주서
 62
     0
100
AcDbMText
 10
-30.5971893271122
 20
23.55000000000002
 30
0.0
 40
3.5
 41
0.0
 71
     2
 72
     1
  1
\A1;7.94 [5/16]
  7
SLDTEXTSTYLE0
 73
     1
 44
1.0
  0
POINT
  5
D6
330
CA
100
AcDbEntity
  8
Defpoints
 62
     0
100
AcDbPoint
 10
15.91945
 20
3.968750000000003
 30
0.0
  0
POINT
  5
D7
330
CA
100
AcDbEntity
  8
Defpoints
 62
     0
100
AcDbPoint
 10
7.981949999999975
 20
2.471945192180216
 30
0.0
  0
POINT
  5
18D
330
CA
100
AcDbEntity
  8
Defpoints
 62
     0
100
AcDbPoint
 10
7.981949999999975
 20
19.17500000000002
 30
0.0
  0
ENDBLK
  5
CC
330
CA
100
AcDbEntity
  8
0
100
AcDbBlockEnd
  0
BLOCK
  5
DF
330
DE
100
AcDbEntity
  8
0
100
AcDbBlockBegin
  2
_D_1
 70
     0
 10
0.0
 20
0.0
 30
0.0
  3
_D_1
  1
_D_1
  0
LINE
  5
E1
330
DE
100
AcDbEntity
  8
치수문자_일반주서
 62
     0
370
    -2
100
AcDbLine
 10
15.91945
 20
4.031250000000003
 30
0.0
 11
15.91945
 21
37.17500000000003
 31
0.0
  0
LINE
  5
E2
330
DE
100
AcDbEntity
  8
치수문자_일반주서
 62
     0
370
    -2
100
AcDbLine
 10
0.0444499999999893
 20
3.986799999999988
 30
0.0
 11
0.0444499999999906
 21
37.17500000000003
 31
0.0
  0
LINE
  5
E3
330
DE
100
AcDbEntity
  8
치수문자_일반주서
 62
     0
370
    -2
100
AcDbLine
 10
0.0444499999999906
 20
37.17500000000003
 30
0.0
 11
-31.93455000000001
 21
37.17500000000003
 31
0.0
  0
LINE
  5
E4
330
DE
100
AcDbEntity
  8
치수문자_일반주서
 62
     0
370
    -2
100
AcDbLine
 10
15.91945
 20
37.17500000000003
 30
0.0
 11
0.0444499999999906
 21
37.17500000000003
 31
0.0
  0
LINE
  5
E5
330
DE
100
AcDbEntity
  8
치수문자_일반주서
 62
     0
370
    -2
100
AcDbLine
 10
19.22145
 20
37.17500000000003
 30
0.0
 11
22.52345
 21
37.17500000000003
 31
0.0
  0
LINE
  5
E6
330
DE
100
AcDbEntity
  8
치수문자_일반주서
 62
     0
370
    -2
100
AcDbLine
 10
-3.257550000000009
 20
37.17500000000003
 30
0.0
 11
-6.559550000000009
 21
37.17500000000003
 31
0.0
  0
SOLID
  5
E7
330
DE
100
AcDbEntity
  8
치수문자_일반주서
 62
     0
100
AcDbTrace
 10
19.22145
 20
37.72533333333336
 30
0.0
 11
19.22145
 21
36.62466666666669
 31
0.0
 12
15.91945
 22
37.17500000000003
 32
0.0
 13
15.91945
 23
37.17500000000003
 33
0.0
  0
SOLID
  5
E8
330
DE
100
AcDbEntity
  8
치수문자_일반주서
 62
     0
100
AcDbTrace
 10
-3.257550000000009
 20
36.62466666666669
 30
0.0
 11
-3.257550000000009
 21
37.72533333333336
 31
0.0
 12
0.0444499999999906
 22
37.17500000000003
 32
0.0
 13
0.0444499999999906
 23
37.17500000000003
 33
0.0
  0
MTEXT
  5
E9
330
DE
100
AcDbEntity
  8
치수문자_일반주서
 62
     0
100
AcDbMText
 10
-19.24705000000001
 20
41.55000000000003
 30
0.0
 40
3.5
 41
0.0
 71
     2
 72
     1
  1
\A1;15.88 [5/8]
  7
SLDTEXTSTYLE0
 73
     1
 44
1.0
  0
POINT
  5
EA
330
DE
100
AcDbEntity
  8
Defpoints
 62
     0
100
AcDbPoint
 10
15.91945
 20
3.968750000000003
 30
0.0
  0
POINT
  5
18E
330
DE
100
AcDbEntity
  8
Defpoints
 62
     0
100
AcDbPoint
 10
0.0444499999999893
 20
3.924299999999988
 30
0.0
  0
POINT
  5
18F
330
DE
100
AcDbEntity
  8
Defpoints
 62
     0
100
AcDbPoint
 10
0.0444499999999893
 20
37.17500000000003
 30
0.0
  0
ENDBLK
  5
E0
330
DE
100
AcDbEntity
  8
0
100
AcDbBlockEnd
  0
BLOCK
  5
F4
330
F3
100
AcDbEntity
  8
0
100
AcDbBlockBegin
  2
_D_2
 70
     0
 10
0.0
 20
0.0
 30
0.0
  3
_D_2
  1
_D_2
  0
LINE
  5
F6
330
F3
100
AcDbEntity
  8
치수문자_일반주서
 62
     0
370
    -2
100
AcDbLine
 10
15.91945
 20
4.031250000000003
 30
0.0
 11
15.91945
 21
49.17500000000004
 31
0.0
  0
LINE
  5
F7
330
F3
100
AcDbEntity
  8
치수문자_일반주서
 62
     0
370
    -2
100
AcDbLine
 10
-85.68055000000001
 20
3.221249999999984
 30
0.0
 11
-85.68055000000001
 21
49.17500000000004
 31
0.0
  0
LINE
  5
F8
330
F3
100
AcDbEntity
  8
치수문자_일반주서
 62
     0
370
    -2
100
AcDbLine
 10
12.61745
 20
49.17500000000004
 30
0.0
 11
-82.37855000000002
 21
49.17500000000004
 31
0.0
  0
SOLID
  5
F9
330
F3
100
AcDbEntity
  8
치수문자_일반주서
 62
     0
100
AcDbTrace
 10
12.61745
 20
48.62466666666671
 30
0.0
 11
12.61745
 21
49.72533333333337
 31
0.0
 12
15.91945
 22
49.17500000000004
 32
0.0
 13
15.91945
 23
49.17500000000004
 33
0.0
  0
SOLID
  5
FA
330
F3
100
AcDbEntity
  8
치수문자_일반주서
 62
     0
100
AcDbTrace
 10
-82.37855000000002
 20
49.72533333333337
 30
0.0
 11
-82.37855000000002
 21
48.62466666666671
 31
0.0
 12
-85.68055000000001
 22
49.17500000000004
 32
0.0
 13
-85.68055000000001
 23
49.17500000000004
 33
0.0
  0
MTEXT
  5
FB
330
F3
100
AcDbEntity
  8
치수문자_일반주서
 62
     0
100
AcDbMText
 10
-34.88055000000001
 20
53.55000000000004
 30
0.0
 40
3.5
 41
0.0
 71
     2
 72
     1
  1
\A1;101.6 [4]
  7
SLDTEXTSTYLE0
 73
     1
 44
1.0
  0
POINT
  5
FC
330
F3
100
AcDbEntity
  8
Defpoints
 62
     0
100
AcDbPoint
 10
15.91945
 20
3.968750000000003
 30
0.0
  0
POINT
  5
FD
330
F3
100
AcDbEntity
  8
Defpoints
 62
     0
100
AcDbPoint
 10
-85.68055000000001
 20
3.158749999999984
 30
0.0
  0
POINT
  5
FE
330
F3
100
AcDbEntity
  8
Defpoints
 62
     0
100
AcDbPoint
 10
-85.68055000000001
 20
49.17500000000004
 30
0.0
  0
ENDBLK
  5
F5
330
F3
100
AcDbEntity
  8
0
100
AcDbBlockEnd
  0
BLOCK
  5
108
330
107
100
AcDbEntity
  8
0
100
AcDbBlockBegin
  2
_D_3
 70
     0
 10
0.0
 20
0.0
 30
0.0
  3
_D_3
  1
_D_3
  0
LINE
  5
10A
330
107
100
AcDbEntity
  8
치수문자_일반주서
 62
     0
370
    -2
100
AcDbLine
 10
-84.93305
 20
3.968749999999993
 30
0.0
 11
-98.37055000000002
 21
3.968749999999943
 31
0.0
  0
LINE
  5
10B
330
107
100
AcDbEntity
  8
치수문자_일반주서
 62
     0
370
    -2
100
AcDbLine
 10
-84.93305
 20
-3.96875000000002
 30
0.0
 11
-98.37055
 21
-3.968750000000071
 31
0.0
  0
LINE
  5
10C
330
107
100
AcDbEntity
  8
치수문자_일반주서
 62
     0
370
    -2
100
AcDbLine
 10
-98.37055000000001
 20
0.6667499999999431
 30
0.0
 11
-98.37055000000001
 21
-0.6667500000000715
 31
0.0
  0
SOLID
  5
10D
330
107
100
AcDbEntity
  8
치수문자_일반주서
 62
     0
100
AcDbTrace
 10
-97.82021666666668
 20
0.6667499999999451
 30
0.0
 11
-98.92088333333334
 21
0.6667499999999411
 31
0.0
 12
-98.37055000000002
 22
3.968749999999943
 32
0.0
 13
-98.37055000000002
 23
3.968749999999943
 33
0.0
  0
SOLID
  5
10E
330
107
100
AcDbEntity
  8
치수문자_일반주서
 62
     0
100
AcDbTrace
 10
-98.92088333333334
 20
-0.6667500000000735
 30
0.0
 11
-97.82021666666668
 21
-0.6667500000000695
 31
0.0
 12
-98.37055
 22
-3.968750000000071
 32
0.0
 13
-98.37055
 23
-3.968750000000071
 33
0.0
  0
MTEXT
  5
10F
330
107
100
AcDbEntity
  8
치수문자_일반주서
 62
     0
100
AcDbMText
 10
-102.74555
 20
-0.000000000000019
 30
0.0
 40
3.5
 41
0.0
 71
     2
 72
     1
  1
\A1;%%c7.94 [5/16]
  7
SLDTEXTSTYLE0
 11
-3.580687802255617E-15
 21
1.0
 31
0.0
 73
     1
 44
1.0
  0
POINT
  5
110
330
107
100
AcDbEntity
  8
Defpoints
 62
     0
100
AcDbPoint
 10
-84.87055
 20
3.968749999999994
 30
0.0
  0
POINT
  5
111
330
107
100
AcDbEntity
  8
Defpoints
 62
     0
100
AcDbPoint
 10
-84.87055
 20
-3.96875000000002
 30
0.0
  0
POINT
  5
112
330
107
100
AcDbEntity
  8
Defpoints
 62
     0
100
AcDbPoint
 10
-98.37055
 20
-3.968750000000071
 30
0.0
  0
ENDBLK
  5
109
330
107
100
AcDbEntity
  8
0
100
AcDbBlockEnd
  0
BLOCK
  5
11C
330
11B
100
AcDbEntity
  8
0
100
AcDbBlockBegin
  2
_D_4
 70
     0
 10
0.0
 20
0.0
 30
0.0
  3
_D_4
  1
_D_4
  0
LINE
  5
11E
330
11B
100
AcDbEntity
  8
치수문자_일반주서
 62
     0
370
    -2
100
AcDbLine
 10
15.98195
 20
3.968750000000003
 30
0.0
 11
31.74445000000003
 21
3.968750000000064
 31
0.0
  0
LINE
  5
11F
330
11B
100
AcDbEntity
  8
치수문자_일반주서
 62
     0
370
    -2
100
AcDbLine
 10
15.98195
 20
-3.968749999999997
 30
0.0
 11
31.74445000000006
 21
-3.968749999999936
 31
0.0
  0
LINE
  5
120
330
11B
100
AcDbEntity
  8
치수문자_일반주서
 62
     0
370
    -2
100
AcDbLine
 10
31.74445000000003
 20
3.968750000000064
 30
0.0
 11
31.74444999999991
 21
38.57275000000006
 31
0.0
  0
LINE
  5
121
330
11B
100
AcDbEntity
  8
치수문자_일반주서
 62
     0
370
    -2
100
AcDbLine
 10
31.74445000000003
 20
3.968750000000064
 30
0.0
 11
31.74445000000006
 21
-3.968749999999936
 31
0.0
  0
LINE
  5
122
330
11B
100
AcDbEntity
  8
치수문자_일반주서
 62
     0
370
    -2
100
AcDbLine
 10
31.74445000000002
 20
7.270750000000064
 30
0.0
 11
31.74445000000001
 21
10.57275000000006
 31
0.0
  0
LINE
  5
123
330
11B
100
AcDbEntity
  8
치수문자_일반주서
 62
     0
370
    -2
100
AcDbLine
 10
31.74445000000007
 20
-7.270749999999936
 30
0.0
 11
31.74445000000008
 21
-10.57274999999994
 31
0.0
  0
SOLID
  5
124
330
11B
100
AcDbEntity
  8
치수문자_일반주서
 62
     0
100
AcDbTrace
 10
31.19411666666669
 20
7.270750000000062
 30
0.0
 11
32.29478333333336
 21
7.270750000000065
 31
0.0
 12
31.74445000000003
 22
3.968750000000064
 32
0.0
 13
31.74445000000003
 23
3.968750000000064
 33
0.0
  0
SOLID
  5
125
330
11B
100
AcDbEntity
  8
치수문자_일반주서
 62
     0
100
AcDbTrace
 10
32.29478333333341
 20
-7.270749999999934
 30
0.0
 11
31.19411666666674
 21
-7.270749999999937
 31
0.0
 12
31.74445000000006
 22
-3.968749999999936
 32
0.0
 13
31.74445000000006
 23
-3.968749999999936
 33
0.0
  0
MTEXT
  5
126
330
11B
100
AcDbEntity
  8
치수문자_일반주서
 62
     0
100
AcDbMText
 10
27.36944999999996
 20
24.57275000000005
 30
0.0
 40
3.5
 41
0.0
 71
     2
 72
     1
  1
\A1;%%c7.94 [5/16]
  7
SLDTEXTSTYLE0
 11
-3.580687802255623E-15
 21
1.0
 31
0.0
 73
     1
 44
1.0
  0
POINT
  5
127
330
11B
100
AcDbEntity
  8
Defpoints
 62
     0
100
AcDbPoint
 10
15.91945
 20
3.968750000000003
 30
0.0
  0
POINT
  5
128
330
11B
100
AcDbEntity
  8
Defpoints
 62
     0
100
AcDbPoint
 10
15.91945
 20
-3.968749999999997
 30
0.0
  0
POINT
  5
190
330
11B
100
AcDbEntity
  8
Defpoints
 62
     0
100
AcDbPoint
 10
31.74445000000006
 20
-3.968749999999938
 30
0.0
  0
ENDBLK
  5
11D
330
11B
100
AcDbEntity
  8
0
100
AcDbBlockEnd
  0
BLOCK
  5
135
330
134
100
AcDbEntity
  8
0
100
AcDbBlockBegin
  2
SW_DOWELSYMBOL_0
 70
     0
 10
0.0
 20
0.0
 30
0.0
  3
SW_DOWELSYMBOL_0
  1
SW_DOWELSYMBOL_0
  0
CIRCLE
  5
137
330
134
100
AcDbEntity
  8
해칭선
 62
     0
100
AcDbCircle
 10
0.0
 20
0.0
 30
0.0
 40
3.000000000000005
  0
HATCH
  5
138
330
134
100
AcDbEntity
  8
0
  6
Continuous
 62
     0
370
     0
100
AcDbHatch
 10
0.0
 20
0.0
 30
0.0
210
0.0
220
0.0
230
1.0
  2
SOLID
 70
     1
 71
     0
 91
        1
 92
        0
 93
        3
 72
     2
 10
0.0
 20
0.0
 40
3.000000000000005
 50
0.0
 51
90.0
 73
     1
 72
     1
 10
0.0
 20
3.000000000000005
 11
0.0
 21
0.0
 72
     1
 10
0.0
 20
0.0
 11
3.000000000000005
 21
0.0
 97
        0
 75
     0
 76
     1
 98
        1
 10
0.0
 20
0.0
  0
HATCH
  5
139
330
134
100
AcDbEntity
  8
0
  6
Continuous
 62
     0
370
     0
100
AcDbHatch
 10
0.0
 20
0.0
 30
0.0
210
0.0
220
0.0
230
1.0
  2
SOLID
 70
     1
 71
     0
 91
        1
 92
        0
 93
        3
 72
     2
 10
0.0
 20
0.0
 40
3.000000000000005
 50
180.0
 51
270.0000000000007
 73
     1
 72
     1
 10
0.0
 20
-3.000000000000005
 11
0.0
 21
0.0
 72
     1
 10
0.0
 20
0.0
 11
-3.000000000000005
 21
0.0
 97
        0
 75
     0
 76
     1
 98
        1
 10
0.0
 20
0.0
  0
ENDBLK
  5
136
330
134
100
AcDbEntity
  8
0
100
AcDbBlockEnd
  0
ENDSEC
  0
SECTION
  2
ENTITIES
  0
LINE
  5
96
330
1F
100
AcDbEntity
  8
외형선
  6
Continuous
370
    15
100
AcDbLine
 10
0.0000000000000017
 20
-3.96875
 30
0.0
 11
0.0444499999999997
 21
-3.924300000000001
 31
0.0
  0
LINE
  5
97
330
1F
100
AcDbEntity
  8
외형선
  6
Continuous
370
    15
100
AcDbLine
 10
0.0444499999999997
 20
3.924300000000001
 30
0.0
 11
-0.0000000000000017
 21
3.96875
 31
0.0
  0
LINE
  5
98
330
1F
100
AcDbEntity
  8
외형선
  6
Continuous
370
    15
100
AcDbLine
 10
0.0000000000000017
 20
3.968749999999999
 30
0.0
 11
-84.87055
 21
3.968749999999989
 31
0.0
  0
LINE
  5
99
330
1F
100
AcDbEntity
  8
외형선
  6
Continuous
370
    15
100
AcDbLine
 10
-84.87055
 20
-3.968750000000009
 30
0.0
 11
0.0000000000000017
 21
-3.968749999999999
 31
0.0
  0
LINE
  5
9A
330
1F
100
AcDbEntity
  8
외형선
  6
Continuous
370
    15
100
AcDbLine
 10
-84.87055
 20
3.968749999999988
 30
0.0
 11
-85.68055
 21
3.158749999999989
 31
0.0
  0
LINE
  5
9B
330
1F
100
AcDbEntity
  8
외형선
  6
Continuous
370
    15
100
AcDbLine
 10
-85.68055
 20
-3.15875000000001
 30
0.0
 11
-84.87055
 21
-3.968750000000009
 31
0.0
  0
LINE
  5
9C
330
1F
100
AcDbEntity
  8
외형선
  6
Continuous
370
    15
100
AcDbLine
 10
6.461657250959202
 20
3.924300000000001
 30
0.0
 11
0.0444499999999997
 21
3.9243
 31
0.0
  0
LINE
  5
9D
330
1F
100
AcDbEntity
  8
외형선
  6
Continuous
370
    15
100
AcDbLine
 10
0.0444499999999997
 20
-3.924300000000001
 30
0.0
 11
6.461657250959202
 21
-3.9243
 31
0.0
  0
LINE
  5
9E
330
1F
100
AcDbEntity
  8
0
  6
Continuous
 62
     1
370
    15
100
AcDbLine
 10
11.15666893001852
 20
-3.968749999999999
 30
0.0
 11
11.9507
 21
-3.968749999999999
 31
0.0
  0
ARC
  5
9F
330
1F
100
AcDbEntity
  8
0
  6
Continuous
 62
     1
370
    15
100
AcDbCircle
 10
11.9507
 20
0.0000000000000008
 30
0.0
 40
3.968750000000007
100
AcDbArc
 50
270.0000000000007
 51
0.0
  0
ARC
  5
A0
330
1F
100
AcDbEntity
  8
0
  6
Continuous
 62
     1
370
    15
100
AcDbCircle
 10
11.9507
 20
0.0000000000000008
 30
0.0
 40
3.968750000000007
100
AcDbArc
 50
0.0
 51
90.0
  0
LINE
  5
A1
330
1F
100
AcDbEntity
  8
0
  6
Continuous
 62
     1
370
    15
100
AcDbLine
 10
11.9507
 20
3.968750000000001
 30
0.0
 11
11.15666893001851
 21
3.968750000000001
 31
0.0
  0
LINE
  5
A2
330
1F
100
AcDbEntity
  8
외형선
  6
Continuous
370
    15
100
AcDbLine
 10
0.0444499999999997
 20
3.924300000000001
 30
0.0
 11
0.0444499999999997
 21
-3.924300000000001
 31
0.0
  0
LINE
  5
A3
330
1F
100
AcDbEntity
  8
외형선
  6
Continuous
370
    15
100
AcDbLine
 10
-0.0000000000000017
 20
3.96875
 30
0.0
 11
0.0000000000000017
 21
-3.96875
 31
0.0
  0
LINE
  5
A4
330
1F
100
AcDbEntity
  8
외형선
  6
Continuous
370
    15
100
AcDbLine
 10
-84.87055
 20
3.968749999999989
 30
0.0
 11
-84.87055
 21
-3.968750000000009
 31
0.0
  0
LINE
  5
A5
330
1F
100
AcDbEntity
  8
외형선
  6
Continuous
370
    15
100
AcDbLine
 10
-85.68055
 20
3.158749999999989
 30
0.0
 11
-85.68055
 21
-3.158750000000011
 31
0.0
  0
SPLINE
  5
A6
330
1F
100
AcDbEntity
  8
외형선
  6
Continuous
370
    15
100
AcDbSpline
210
0.0
220
0.0
230
1.0
 70
     8
 71
     3
 72
    10
 73
     6
 74
     0
 42
0.000000001
 43
0.00000001
 40
0.0
 40
0.0
 40
0.0
 40
0.0
 40
0.5
 40
0.5
 40
1.0
 40
1.0
 40
1.0
 40
1.0
 10
6.461861120613427
 20
3.046157404382177
 30
0.0
 10
6.715750571166254
 20
3.137412664680106
 30
0.0
 10
6.970622727561862
 20
3.222549624562416
 30
0.0
 10
7.477664793929849
 20
3.379046411084574
 30
0.0
 10
7.728504663043618
 20
3.45031404277038
 30
0.0
 10
7.98195000000001
 20
3.51466378796178
 30
0.0
  0
LINE
  5
A7
330
1F
100
AcDbEntity
  8
외형선
  6
Continuous
370
    15
100
AcDbLine
 10
6.461657250959202
 20
1.40905531509101
 30
0.0
 11
6.461657250959202
 21
3.924300000000001
 31
0.0
  0
SPLINE
  5
A8
330
1F
100
AcDbEntity
  8
외형선
  6
Continuous
370
    15
100
AcDbSpline
210
0.0
220
0.0
230
1.0
 70
     8
 71
     3
 72
    10
 73
     6
 74
     0
 42
0.000000001
 43
0.00000001
 40
0.0
 40
0.0
 40
0.0
 40
0.0
 40
0.5000000000000001
 40
0.5000000000000001
 40
1.0
 40
1.0
 40
1.0
 40
1.0
 10
7.981950000001703
 20
0.571477748164031
 30
0.0
 10
7.728470744170339
 20
0.7146165041681473
 30
0.0
 10
7.477597296929297
 20
0.8561043619976232
 30
0.0
 10
6.970486650387993
 20
1.136018406923046
 30
0.0
 10
6.715580153653902
 20
1.274185652388907
 30
0.0
 10
6.461657250959205
 20
1.409293961002394
 30
0.0
  0
SPLINE
  5
A9
330
1F
100
AcDbEntity
  8
외형선
  6
Continuous
370
    15
100
AcDbSpline
210
0.0
220
0.0
230
1.0
 70
     8
 71
     3
 72
    10
 73
     6
 74
     0
 42
0.000000001
 43
0.00000001
 40
0.0
 40
0.0
 40
0.0
 40
0.0
 40
0.5
 40
0.5
 40
1.0
 40
1.0
 40
1.0
 40
1.0
 10
6.461861120613427
 20
-3.046157404382174
 30
0.0
 10
6.715750571166254
 20
-3.137412664680103
 30
0.0
 10
6.970622727561858
 20
-3.222549624562413
 30
0.0
 10
7.477664793929849
 20
-3.379046411084569
 30
0.0
 10
7.728504663043612
 20
-3.450314042770377
 30
0.0
 10
7.981950000000007
 20
-3.514663787961776
 30
0.0
  0
LINE
  5
AA
330
1F
100
AcDbEntity
  8
외형선
  6
Continuous
370
    15
100
AcDbLine
 10
6.461657250959202
 20
-3.9243
 30
0.0
 11
6.461657250959202
 21
-3.046016821841173
 31
0.0
  0
SPLINE
  5
AB
330
1F
100
AcDbEntity
  8
외형선
  6
Continuous
370
    15
100
AcDbSpline
210
0.0
220
0.0
230
1.0
 70
     8
 71
     3
 72
    10
 73
     6
 74
     0
 42
0.000000001
 43
0.00000001
 40
0.0
 40
0.0
 40
0.0
 40
0.0
 40
0.5
 40
0.5
 40
1.0
 40
1.0
 40
1.0
 40
1.0
 10
7.981950000001762
 20
2.471945192179928
 30
0.0
 10
7.728470744170387
 20
2.51223016988405
 30
0.0
 10
7.477597296929339
 20
2.54735549125483
 30
0.0
 10
6.970486650388014
 20
2.607343584610123
 30
0.0
 10
6.715580153653909
 20
2.63211866555927
 30
0.0
 10
6.461657250959202
 20
2.651440129575664
 30
0.0
  0
SPLINE
  5
AC
330
1F
100
AcDbEntity
  8
외형선
  6
Continuous
370
    15
100
AcDbSpline
210
0.0
220
0.0
230
1.0
 70
    24
 71
     3
 72
    14
 73
    10
 74
     0
 42
0.000000001
 43
0.00000001
 40
0.0
 40
0.0
 40
0.0
 40
0.0
 40
0.1606756561591123
 40
0.3213513123182248
 40
0.4815973375701229
 40
0.6418433628220209
 40
0.802089388073919
 40
0.9623354133258172
 40
1.0
 40
1.0
 40
1.0
 40
1.0
 10
7.981950000000003
 20
2.471945192180208
 30
0.0
 10
7.981950000000003
 20
2.333276238364885
 30
0.0
 10
7.981950000000003
 20
2.055938330734238
 30
0.0
 10
7.98195000000001
 20
1.675467144172641
 30
0.0
 10
7.981950000000003
 20
1.336740536217338
 30
0.0
 10
7.981950000000003
 20
1.047078820283066
 30
0.0
 10
7.981950000000003
 20
0.8236630253045937
 30
0.0
 10
7.981950000000003
 20
0.6887350177792684
 30
0.0
 10
7.981950000000003
 20
0.6533494642294305
 30
0.0
 10
7.981950000000003
 20
0.6466152005347199
 30
0.0
  0
SPLINE
  5
AD
330
1F
100
AcDbEntity
  8
외형선
  6
Continuous
370
    15
100
AcDbSpline
210
0.0
220
0.0
230
1.0
 70
    24
 71
     3
 72
    11
 73
     7
 74
     0
 42
0.000000001
 43
0.00000001
 40
0.0
 40
0.0
 40
0.0
 40
0.0
 40
0.210946796403732
 40
0.4804688797582323
 40
0.7499909631127323
 40
1.0
 40
1.0
 40
1.0
 40
1.0
 10
7.981949999999999
 20
3.514663787981384
 30
0.0
 10
7.981950000000003
 20
3.425876798826406
 30
0.0
 10
7.981950000000003
 20
3.223648625923734
 30
0.0
 10
7.981949999999999
 20
2.95164770411459
 30
0.0
 10
7.981950000000007
 20
2.707167176839981
 30
0.0
 10
7.981950000000003
 20
2.595465322846797
 30
0.0
 10
7.981950000000003
 20
2.541712098357835
 30
0.0
  0
SPLINE
  5
AE
330
1F
100
AcDbEntity
  8
0
  6
Continuous
 62
     1
370
    15
100
AcDbSpline
210
0.0
220
0.0
230
1.0
 70
     8
 71
     3
 72
    14
 73
    10
 74
     0
 42
0.000000001
 43
0.00000001
 40
0.0
 40
0.0
 40
0.0
 40
0.0
 40
0.25
 40
0.25
 40
0.5
 40
0.5
 40
0.75
 40
0.75
 40
1.0
 40
1.0
 40
1.0
 40
1.0
 10
11.95069999999999
 20
-1.659073067473792
 30
0.0
 10
11.61908956569449
 20
-1.485509870183709
 30
0.0
 10
11.28652811965543
 20
-1.305988645685517
 30
0.0
 10
10.62980707750333
 20
-0.9406983561942585
 30
0.0
 10
10.29778211717503
 20
-0.7534791122032536
 30
0.0
 10
9.634408455265344
 20
-0.3752167598329417
 30
0.0
 10
9.306304206326875
 20
-0.1848106103396574
 30
0.0
 10
8.645694672647462
 20
0.1968033480268422
 30
0.0
 10
8.31261877301434
 20
0.3881192844758314
 30
0.0
 10
7.981950000001703
 20
0.5769686444442641
 30
0.0
  0
SPLINE
  5
AF
330
1F
100
AcDbEntity
  8
외형선
  6
Continuous
370
    15
100
AcDbSpline
210
0.0
220
0.0
230
1.0
 70
    24
 71
     3
 72
    15
 73
    11
 74
     0
 42
0.000000001
 43
0.00000001
 40
0.0
 40
0.0
 40
0.0
 40
0.0
 40
0.1401864011691338
 40
0.2844605210401272
 40
0.424282966780119
 40
0.5681602729188157
 40
0.707982718658807
 40
0.8518600247975041
 40
0.991682470537496
 40
0.9999999999999999
 40
0.9999999999999999
 40
0.9999999999999999
 40
0.9999999999999999
 10
7.981949999999999
 20
2.471945192180208
 30
0.0
 10
7.981949999999999
 20
2.335180575560732
 30
0.0
 10
7.981949999999996
 20
2.057663400007506
 30
0.0
 10
7.981950000000007
 20
1.679130875445246
 30
0.0
 10
7.981949999999989
 20
1.337557197545694
 30
0.0
 10
7.981950000000003
 20
1.051099200743236
 30
0.0
 10
7.981949999999996
 20
0.8191097709680466
 30
0.0
 10
7.981949999999999
 20
0.6629806093860111
 30
0.0
 10
7.981949999999999
 20
0.5823477628057285
 30
0.0
 10
7.981949999999996
 20
0.5759774498862831
 30
0.0
 10
7.981949999999996
 20
0.5756197796131483
 30
0.0
  0
SPLINE
  5
B0
330
1F
100
AcDbEntity
  8
0
  6
Continuous
 62
     1
370
    15
100
AcDbSpline
210
0.0
220
0.0
230
1.0
 70
     8
 71
     3
 72
    22
 73
    18
 74
     0
 42
0.000000001
 43
0.00000001
 40
0.0
 40
0.0
 40
0.0
 40
0.0
 40
0.125
 40
0.125
 40
0.25
 40
0.25
 40
0.375
 40
0.375
 40
0.5
 40
0.5
 40
0.625
 40
0.625
 40
0.75
 40
0.75
 40
0.875
 40
0.875
 40
1.0
 40
1.0
 40
1.0
 40
1.0
 10
14.8569881438216
 20
0.4158643780716327
 30
0.0
 10
14.56974038017593
 20
0.5272481991364864
 30
0.0
 10
14.28554273139676
 20
0.6371544070746364
 30
0.0
 10
13.71353081466178
 20
0.8535513792111549
 30
0.0
 10
13.4252883333257
 20
0.96008385645414
 30
0.0
 10
12.85106566492036
 20
1.167308278841863
 30
0.0
 10
12.56722209554374
 20
1.267760849054204
 30
0.0
 10
11.99464319500347
 20
1.462132209690956
 30
0.0
 10
11.70634106986884
 20
1.555976832460666
 30
0.0
 10
11.13245141664108
 20
1.734771844377591
 30
0.0
 10
10.84881778052206
 20
1.819550013647955
 30
0.0
 10
10.27573147863455
 20
1.979784404486744
 30
0.0
 10
9.987400203984553
 20
2.055098962628142
 30
0.0
 10
9.413903605808995
 20
2.194354174030555
 30
0.0
 10
9.130335683700276
 20
2.258206772578147
 30
0.0
 10
8.556801739840902
 20
2.374312351004849
 30
0.0
 10
8.268471820275938
 20
2.426408822335258
 30
0.0
 10
7.981950000001751
 20
2.47194519217993
 30
0.0
  0
SPLINE
  5
B1
330
1F
100
AcDbEntity
  8
0
  6
Continuous
 62
     1
370
    15
100
AcDbSpline
210
0.0
220
0.0
230
1.0
 70
     8
 71
     3
 72
    26
 73
    22
 74
     0
 42
0.000000001
 43
0.00000001
 40
0.0
 40
0.0
 40
0.0
 40
0.0
 40
0.125
 40
0.125
 40
0.2499999999999999
 40
0.2499999999999999
 40
0.3749999999999999
 40
0.3749999999999999
 40
0.4374999999999999
 40
0.4374999999999999
 40
0.4999999999999999
 40
0.4999999999999999
 40
0.6249999999999999
 40
0.6249999999999999
 40
0.6874999999999999
 40
0.6874999999999999
 40
0.7499999999999998
 40
0.7499999999999998
 40
0.8749999999999999
 40
0.8749999999999999
 40
1.0
 40
1.0
 40
1.0
 40
1.0
 10
11.9507
 20
-1.659073067473795
 30
0.0
 10
12.17121527821242
 20
-1.774489630942364
 30
0.0
 10
12.38813797822975
 20
-1.877993095611201
 30
0.0
 10
12.820327328947
 20
-2.053441121230985
 30
0.0
 10
13.03847204919813
 20
-2.125106972347508
 30
0.0
 10
13.46949685574719
 20
-2.216996836835122
 30
0.0
 10
13.68076563132914
 20
-2.237829772358947
 30
0.0
 10
13.99824680050427
 20
-2.214278041574587
 30
0.0
 10
14.10222716035161
 20
-2.197201925418169
 30
0.0
 10
14.30628982385871
 20
-2.141271258171137
 30
0.0
 10
14.40766373532446
 20
-2.101792844797414
 30
0.0
 10
14.69964476768873
 20
-1.944209469399716
 30
0.0
 10
14.88063585293186
 20
-1.784692620232762
 30
0.0
 10
15.08699453018325
 20
-1.467034839754728
 30
0.0
 10
15.14228602889815
 20
-1.352586625849942
 30
0.0
 10
15.22406933364608
 20
-1.110712972056145
 30
0.0
 10
15.24911489465377
 20
-0.9872511332561529
 30
0.0
 10
15.2804596154944
 20
-0.6191333655831901
 30
0.0
 10
15.24275401554023
 20
-0.3877857524727694
 30
0.0
 10
15.09693834399353
 20
0.0359138427052446
 30
0.0
 10
14.98896703684376
 20
0.2304254986060122
 30
0.0
 10
14.85698814381738
 20
0.4158643780732709
 30
0.0
  0
SPLINE
  5
B2
330
1F
100
AcDbEntity
  8
0
  6
Continuous
 62
     1
370
    15
100
AcDbSpline
210
0.0
220
0.0
230
1.0
 70
     8
 71
     3
 72
    10
 73
     6
 74
     0
 42
0.000000001
 43
0.00000001
 40
0.0
 40
0.0
 40
0.0
 40
0.0
 40
0.4406631683223644
 40
0.8859268248897437
 40
1.0
 40
1.0
 40
1.0
 40
1.0
 10
7.981950000000003
 20
-3.553097029873221
 30
0.0
 10
8.448235287197106
 20
-3.658168663954798
 30
0.0
 10
9.385673842708817
 20
-3.869408871576987
 30
0.0
 10
10.44477682098758
 20
-3.965464365288623
 30
0.0
 10
11.03607702851048
 20
-3.965464862521364
 30
0.0
 10
11.15666893001852
 20
-3.965464963928806
 30
0.0
  0
LINE
  5
B3
330
1F
100
AcDbEntity
  8
외형선
  6
Continuous
370
    15
100
AcDbLine
 10
7.981949999999996
 20
-3.553097029871875
 30
0.0
 11
7.981950000000003
 21
0.5769686444452662
 31
0.0
  0
SPLINE
  5
B4
330
1F
100
AcDbEntity
  8
0
  6
Continuous
 62
     1
370
    15
100
AcDbSpline
210
0.0
220
0.0
230
1.0
 70
     8
 71
     3
 72
    12
 73
     8
 74
     0
 42
0.000000001
 43
0.00000001
 40
0.0
 40
0.0
 40
0.0
 40
0.0
 40
0.25
 40
0.25
 40
0.5
 40
0.5
 40
1.0
 40
1.0
 40
1.0
 40
1.0
 10
14.85698814381736
 20
0.4158643780733078
 30
0.0
 10
14.90262916904445
 20
0.4433889472209216
 30
0.0
 10
14.94328789542396
 20
0.4775010744369568
 30
0.0
 10
15.01460500627897
 20
0.5592884231993374
 30
0.0
 10
15.04549723441679
 20
0.6077395960246332
 30
0.0
 10
15.11858169550043
 20
0.766969410814344
 30
0.0
 10
15.14270743073001
 20
0.8948635884428158
 30
0.0
 10
15.14493481941956
 20
1.027868668048629
 30
0.0
  0
ARC
  5
B5
330
1F
100
AcDbEntity
  8
0
  6
Continuous
 62
     1
370
    15
100
AcDbCircle
 10
14.02066241816984
 20
-0.6899008203443043
 30
0.0
 40
2.052978433268519
100
AcDbArc
 50
23.84126280044552
 51
56.79543343399431
  0
ARC
  5
B6
330
1F
100
AcDbEntity
  8
0
  6
Continuous
 62
     1
370
    15
100
AcDbCircle
 10
12.35011843392591
 20
0.0736491787681578
 30
0.0
 40
3.548958152441529
100
AcDbArc
 50
1.069988996802486
 51
71.15670380559713
  0
SPLINE
  5
B7
330
1F
100
AcDbEntity
  8
0
  6
Continuous
 62
     1
370
    15
100
AcDbSpline
210
0.0
220
0.0
230
1.0
 70
     8
 71
     3
 72
    10
 73
     6
 74
     0
 42
0.000000001
 43
0.00000001
 40
0.0
 40
0.0
 40
0.0
 40
0.0
 40
0.5
 40
0.5
 40
1.0
 40
1.0
 40
1.0
 40
1.0
 10
13.49636430673084
 20
3.432402573535152
 30
0.0
 10
13.25063204059948
 20
3.582108636503203
 30
0.0
 10
12.99759571585447
 20
3.6997446248925
 30
0.0
 10
12.48223685606022
 20
3.870976530496422
 30
0.0
 10
12.21693566166661
 20
3.924683274564476
 30
0.0
 10
11.95069999999987
 20
3.942347382307406
 30
0.0
  0
SPLINE
  5
B8
330
1F
100
AcDbEntity
  8
0
  6
Continuous
 62
     1
370
    15
100
AcDbSpline
210
0.0
220
0.0
230
1.0
 70
     8
 71
     3
 72
     8
 73
     4
 74
     0
 42
0.000000001
 43
0.00000001
 40
0.0
 40
0.0
 40
0.0
 40
0.0
 40
1.0
 40
1.0
 40
1.0
 40
1.0
 10
12.69093851023997
 20
1.776614183794965
 30
0.0
 10
13.49771838228035
 20
1.55240729554814
 30
0.0
 10
14.32027217851957
 20
1.299753199172541
 30
0.0
 10
15.14493481941957
 20
1.027868668048659
 30
0.0
  0
SPLINE
  5
B9
330
1F
100
AcDbEntity
  8
0
  6
Continuous
 62
     1
370
    15
100
AcDbSpline
210
0.0
220
0.0
230
1.0
 70
     8
 71
     3
 72
    14
 73
    10
 74
     0
 42
0.000000001
 43
0.00000001
 40
0.0
 40
0.0
 40
0.0
 40
0.0
 40
0.25
 40
0.25
 40
0.5
 40
0.5
 40
0.75
 40
0.75
 40
1.0
 40
1.0
 40
1.0
 40
1.0
 10
7.981949999999483
 20
3.553097029873697
 30
0.0
 10
8.312618773012302
 20
3.63813796159899
 30
0.0
 10
8.645694672645616
 20
3.710991079121771
 30
0.0
 10
9.306304206325418
 20
3.830084245241783
 30
0.0
 10
9.634408455264074
 20
3.87645429047992
 30
0.0
 10
10.29778211717412
 20
3.94230631634599
 30
0.0
 10
10.62980707750263
 20
3.961590599323999
 30
0.0
 10
11.2865281196551
 20
3.972595337458792
 30
0.0
 10
11.61908956569435
 20
3.964348951910008
 30
0.0
 10
11.95070000000003
 20
3.942347382309641
 30
0.0
  0
SPLINE
  5
BA
330
1F
100
AcDbEntity
  8
0
  6
Continuous
 62
     1
370
    15
100
AcDbSpline
210
0.0
220
0.0
230
1.0
 70
     8
 71
     3
 72
    18
 73
    14
 74
     0
 42
0.000000001
 43
0.00000001
 40
0.0
 40
0.0
 40
0.0
 40
0.0
 40
0.2500000000000007
 40
0.2500000000000007
 40
0.3750000000000009
 40
0.3750000000000009
 40
0.5000000000000011
 40
0.5000000000000011
 40
0.6250000000000013
 40
0.6250000000000013
 40
0.7500000000000016
 40
0.7500000000000016
 40
1.0
 40
1.0
 40
1.0
 40
1.0
 10
13.49636430673085
 20
3.432402573535154
 30
0.0
 10
13.52457066322036
 20
3.265806603795716
 30
0.0
 10
13.53724750812274
 20
3.096216777402116
 30
0.0
 10
13.51875763983181
 20
2.838614665300032
 30
0.0
 10
13.50634918552989
 20
2.754174599916455
 30
0.0
 10
13.46686624258906
 20
2.588646327622315
 30
0.0
 10
13.43929233168596
 20
2.506615082647686
 30
0.0
 10
13.36926374385534
 20
2.352677057147563
 30
0.0
 10
13.32699645032184
 20
2.280552182020211
 30
0.0
 10
13.22771533166059
 20
2.146151353902911
 30
0.0
 10
13.17034874689369
 20
2.083880909817733
 30
0.0
 10
12.98528159638045
 20
1.919601941672637
 30
0.0
 10
12.84074906577243
 20
1.836209140050758
 30
0.0
 10
12.69093851023997
 20
1.776614183794962
 30
0.0
  0
SPLINE
  5
BB
330
1F
100
AcDbEntity
  8
외형선
  6
Continuous
370
    15
100
AcDbSpline
210
0.0
220
0.0
230
1.0
 70
    24
 71
     3
 72
    12
 73
     8
 74
     0
 42
0.000000001
 43
0.00000001
 40
0.0
 40
0.0
 40
0.0
 40
0.0
 40
0.2033451602541865
 40
0.4654929556203826
 40
0.7276407509865793
 40
0.9897885463527232
 40
0.9999999999999999
 40
0.9999999999999999
 40
0.9999999999999999
 40
0.9999999999999999
 10
7.981949999999999
 20
3.553097029871867
 30
0.0
 10
7.981949999999999
 20
3.464159121876276
 30
0.0
 10
7.981949999999999
 20
3.260564555829998
 30
0.0
 10
7.981949999999999
 20
2.981629105905498
 30
0.0
 10
7.981950000000003
 20
2.734764883896784
 30
0.0
 10
7.981950000000007
 20
2.588415182940687
 30
0.0
 10
7.981949999999996
 20
2.543399840147455
 30
0.0
 10
7.981949999999996
 20
2.541712098357836
 30
0.0
  0
LINE
  5
BC
330
1F
100
AcDbEntity
  8
중심선
 48
0.8
100
AcDbLine
 10
-88.68055000000001
 20
-0.0000000000000075
 30
0.0
 11
18.91944999999999
 21
0.0000000000000033
 31
0.0
  0
LINE
  5
BD
330
1F
100
AcDbEntity
  8
참조1
100
AcDbLine
 10
-41.64375
 20
-0.0000000000000039
 30
0.0
 11
-41.64374999999999
 21
-40.00000000000001
 31
0.0
  0
LINE
  5
BE
330
1F
100
AcDbEntity
  8
참조1
100
AcDbLine
 10
16.125
 20
-0.0000000000000039
 30
0.0
 11
16.125
 21
2.057859303995577
 31
0.0
  0
LINE
  5
BF
330
1F
100
AcDbEntity
  8
참조1
100
AcDbLine
 10
-41.64374999999999
 20
-40.00000000000001
 30
0.0
 11
-37.13385681430867
 21
-40.0
 31
0.0
  0
CIRCLE
  5
C0
330
1F
100
AcDbEntity
  8
해칭선
100
AcDbCircle
 10
-0.0000000000000122
 20
-0.0010749287238967
 30
0.0
 40
3.000000000000004
  0
INSERT
  5
C1
330
1F
100
AcDbEntity
  8
0
  6
Continuous
 62
     7
100
AcDbBlockReference
 66
     1
  2
블럭10
 10
-55.78957293212522
 20
-52.04717430164393
 30
0.0
  0
ATTRIB
  5
C2
330
C1
100
AcDbEntity
  8
FORMAT
 62
     2
100
AcDbText
 10
-66.38590111428576
 20
-49.97180738881174
 30
0.0
 40
4.233333333333333
  1
EM109020 [ 2 FLUTE ]
 41
0.75
  7
SLDTEXTSTYLE0
 11
-66.38590111428576
 21
-52.08847405547841
 31
0.0
100
AcDbAttribute
  2
AUTOATTR0
 70
     0
 74
     1
  0
SEQEND
  5
C3
330
C1
100
AcDbEntity
  8
0
  6
Continuous
 62
     7
  0
HATCH
  5
C4
330
1F
100
AcDbEntity
  8
중심선
100
AcDbHatch
 10
0.0
 20
0.0
 30
0.0
210
0.0
220
0.0
230
1.0
  2
SOLID
 70
     1
 71
     0
 91
        1
 92
        0
 93
        4
 72
     1
 10
-50.07466362774436
 20
-35.8
 11
-53.52093887158164
 21
-35.8
 72
     1
 10
-53.52093887158164
 20
-35.8
 11
-55.64916873078566
 21
-38.33632558057257
 72
     1
 10
-55.64916873078566
 20
-38.33632558057258
 11
-52.20286040183523
 21
-38.33628615127009
 72
     1
 10
-52.20286040183523
 20
-38.33628615127009
 11
-50.07466362774436
 21
-35.8
 97
        0
 75
     0
 76
     1
 98
        1
 10
-0.2055500000000109
 20
-0.0000000000000036
  0
HATCH
  5
C5
330
1F
100
AcDbEntity
  8
중심선
100
AcDbHatch
 10
0.0
 20
0.0
 30
0.0
210
0.0
220
0.0
230
1.0
  2
SOLID
 70
     1
 71
     0
 91
        1
 92
        0
 93
        4
 72
     1
 10
-45.06189963670841
 20
-35.8
 11
-48.50817488054566
 21
-35.8
 72
     1
 10
-48.50817488054566
 20
-35.8
 11
-53.03931288890308
 21
-41.20000000000002
 72
     1
 10
-53.03931288890308
 20
-41.20000000000002
 11
-49.5930376450658
 21
-41.20000000000002
 72
     1
 10
-49.5930376450658
 20
-41.20000000000002
 11
-45.06189963670841
 21
-35.8
 97
        0
 75
     0
 76
     1
 98
        1
 10
-0.2055500000000109
 20
-0.0000000000000036
  0
HATCH
  5
C6
330
1F
100
AcDbEntity
  8
중심선
100
AcDbHatch
 10
0.0
 20
0.0
 30
0.0
210
0.0
220
0.0
230
1.0
  2
SOLID
 70
     1
 71
     0
 91
        1
 92
        0
 93
        4
 72
     1
 10
-40.04913564567249
 20
-35.8
 11
-43.49541088950963
 21
-35.8
 72
     1
 10
-43.49541088950963
 20
-35.8
 11
-50.54384779139887
 21
-44.20000000000002
 72
     1
 10
-50.54384779139887
 20
-44.20000000000002
 11
-47.0975725475616
 21
-44.20000000000002
 72
     1
 10
-47.0975725475616
 20
-44.20000000000002
 11
-40.04913564567249
 21
-35.8
 97
        0
 75
     0
 76
     1
 98
        1
 10
-0.2055500000000109
 20
-0.0000000000000036
  0
HATCH
  5
C7
330
1F
100
AcDbEntity
  8
중심선
100
AcDbHatch
 10
0.0
 20
0.0
 30
0.0
210
0.0
220
0.0
230
1.0
  2
SOLID
 70
     1
 71
     0
 91
        1
 92
        0
 93
        6
 72
     3
 10
-35.24924521466031
 20
-40.00000000005127
 11
3.960054785062283
 21
1.540882976769353E-10
 40
0.3939339440162628
 50
17.09539180608439
 51
320.0019657685087
 73
     0
 72
     1
 10
-33.56624555895971
 20
-38.58789400463833
 11
-31.26094368525865
 21
-36.65356729459038
 72
     3
 10
-35.24924521471316
 20
-40.00000000000016
 11
6.600054785286829
 21
-1.278976924368180E-13
 40
0.636358354079598
 50
39.99873849337392
 51
368.4976242363724
 73
     1
 72
     1
 10
-28.82391272281255
 20
-39.03999999993002
 11
-36.56917790787724
 21
-39.03999999993002
 72
     1
 10
-36.56917790787724
 20
-39.03999999993002
 11
-36.56920295232317
 21
-40.95999999992991
 72
     1
 10
-36.56920295232317
 20
-40.95999999992992
 11
-32.12782318285113
 21
-40.95999999992989
 97
        0
 75
     0
 76
     1
 98
        1
 10
-0.2055500000000109
 20
-0.0000000000000036
  0
DIMENSION
  5
C8
330
1F
100
AcDbEntity
  8
치수문자_일반주서
100
AcDbDimension
  2
_D
 10
7.981949999999976
 20
19.17500000000002
 30
0.0
 11
-30.5971893271122
 21
19.17500000000002
 31
0.0
 70
   160
  1
<>
 71
     2
 42
7.937500000000028
  3
SLDDIMSTYLE2
100
AcDbAlignedDimension
 13
15.91945
 23
3.968750000000003
 33
0.0
 14
7.981949999999975
 24
2.471945192180216
 34
0.0
100
AcDbRotatedDimension
1001
ACAD
1000
DSTYLE
1002
{
1070
   171
1070
     6
1070
   273
1070
     7
1002
}
  0
DIMENSION
  5
DD
330
1F
100
AcDbEntity
  8
치수문자_일반주서
100
AcDbDimension
  2
_D_1
 10
0.0444499999999906
 20
37.17500000000003
 30
0.0
 11
-19.24705000000001
 21
37.17500000000003
 31
0.0
 70
   160
  1
<>
 71
     2
 42
15.87500000000001
  3
SLDDIMSTYLE2
100
AcDbAlignedDimension
 13
15.91945
 23
3.968750000000003
 33
0.0
 14
0.0444499999999893
 24
3.924299999999988
 34
0.0
100
AcDbRotatedDimension
1001
ACAD
1000
DSTYLE
1002
{
1070
   171
1070
     6
1070
   273
1070
     7
1002
}
  0
DIMENSION
  5
F1
330
1F
100
AcDbEntity
  8
치수문자_일반주서
100
AcDbDimension
  2
_D_2
 10
-85.68055000000001
 20
49.17500000000004
 30
0.0
 11
-34.88055000000001
 21
49.17500000000004
 31
0.0
 70
   160
  1
<>
 71
     2
 42
101.6
  3
SLDDIMSTYLE2
100
AcDbAlignedDimension
 13
15.91945
 23
3.968750000000003
 33
0.0
 14
-85.68055000000001
 24
3.158749999999984
 34
0.0
 50
-0.000000000000004
100
AcDbRotatedDimension
1001
ACAD
1000
DSTYLE
1002
{
1070
   171
1070
     6
1070
   273
1070
     7
1002
}
  0
DIMENSION
  5
105
330
1F
100
AcDbEntity
  8
치수문자_일반주서
100
AcDbDimension
  2
_D_3
 10
-98.37055
 20
-3.968750000000071
 30
0.0
 11
-98.37055000000001
 21
-0.0000000000000035
 31
0.0
 70
   160
  1
%%c<>
 71
     2
 42
7.937500000000014
 52
-270.0
  3
SLDDIMSTYLE2
100
AcDbAlignedDimension
 13
-84.87055
 23
3.968749999999994
 33
0.0
 14
-84.87055
 24
-3.96875000000002
 34
0.0
 50
90.0000000000002
100
AcDbRotatedDimension
1001
ACAD
1000
DSTYLE
1002
{
1070
   171
1070
     6
1070
   273
1070
     7
1002
}
  0
DIMENSION
  5
11A
330
1F
100
AcDbEntity
  8
치수문자_일반주서
100
AcDbDimension
  2
_D_4
 10
31.74445000000006
 20
-3.968749999999936
 30
0.0
 11
31.74444999999996
 21
24.57275000000006
 31
0.0
 70
   160
  1
%%c<>
 71
     2
 42
7.9375
 52
-270.0
  3
SLDDIMSTYLE2
100
AcDbAlignedDimension
 13
15.91945
 23
3.968750000000003
 33
0.0
 14
15.91945
 24
-3.968749999999997
 34
0.0
 50
90.0000000000002
100
AcDbRotatedDimension
1001
ACAD
1000
DSTYLE
1002
{
1070
   171
1070
     6
1070
   273
1070
     7
1002
}
  0
LINE
  5
12D
330
1F
100
AcDbEntity
  8
참조1
100
AcDbLine
 10
60.8384838153456
 20
7.440000000000002
 30
0.0
 11
60.8384838153456
 21
-7.440000000000002
 31
0.0
  0
LINE
  5
12E
330
1F
100
AcDbEntity
  8
참조1
100
AcDbLine
 10
73.5384838153456
 20
5.440000000000002
 30
0.0
 11
60.8384838153456
 21
5.440000000000002
 31
0.0
  0
SOLID
  5
12F
330
1F
100
AcDbEntity
  8
참조1
100
AcDbTrace
 10
60.8384838153456
 20
5.440000000000002
 30
0.0
 11
67.18848381534559
 21
4.424000000000002
 31
0.0
 12
67.18848381534559
 22
6.456000000000002
 32
0.0
 13
67.18848381534559
 23
6.456000000000002
 33
0.0
  0
LINE
  5
130
330
1F
100
AcDbEntity
  8
참조1
100
AcDbLine
 10
73.5384838153456
 20
-5.440000000000002
 30
0.0
 11
60.8384838153456
 21
-5.440000000000002
 31
0.0
  0
SOLID
  5
131
330
1F
100
AcDbEntity
  8
참조1
100
AcDbTrace
 10
60.8384838153456
 20
-5.440000000000002
 30
0.0
 11
67.18848381534559
 21
-6.456000000000002
 31
0.0
 12
67.18848381534559
 22
-4.424000000000002
 32
0.0
 13
67.18848381534559
 23
-4.424000000000002
 33
0.0
  0
MTEXT
  5
132
330
1F
100
AcDbEntity
  8
참조1
100
AcDbMText
 10
70.23597390781588
 20
10.98821664464993
 30
0.0
 40
3.5
 41
0.0
 71
     1
 72
     1
  1
A
  7
SLDTEXTSTYLE0
 73
     1
 44
1.0
  0
MTEXT
  5
133
330
1F
100
AcDbEntity
  8
참조1
100
AcDbMText
 10
70.23597390781588
 20
0.1082166446499302
 30
0.0
 40
3.5
 41
0.0
 71
     1
 72
     1
  1
A
  7
SLDTEXTSTYLE0
 73
     1
 44
1.0
  0
INSERT
  5
13A
330
1F
100
AcDbEntity
  8
해칭선
100
AcDbBlockReference
  2
SW_DOWELSYMBOL_0
 10
-0.0000000000000122
 20
-0.0010749287238967
 30
0.0
  0
ENDSEC
  0
SECTION
  2
OBJECTS
  0
DICTIONARY
  5
C
330
0
100
AcDbDictionary
281
     1
  3
ACAD_GROUP
350
D
  3
ACAD_IMAGE_VARS
350
15E
  3
ACAD_LAYOUT
350
1A
  3
ACAD_MLINESTYLE
350
17
  3
ACAD_PLOTSETTINGS
350
19
  3
ACAD_PLOTSTYLENAME
350
E
  3
ACAD_SCALELIST
350
47
  3
APPDATA
350
15C
  3
DWGPROPS
350
1B8
  0
DICTIONARY
  5
185
330
2
100
AcDbDictionary
280
     1
281
     1
  3
ACAD_LAYERSTATES
360
186
  0
DICTIONARY
  5
D
102
{ACAD_REACTORS
330
C
102
}
330
C
100
AcDbDictionary
281
     1
  0
RASTERVARIABLES
  5
15E
102
{ACAD_REACTORS
330
C
102
}
330
C
100
AcDbRasterVariables
 90
        0
 70
     1
 71
     1
 72
     1
  0
DICTIONARY
  5
1A
102
{ACAD_REACTORS
330
C
102
}
330
C
100
AcDbDictionary
281
     1
  3
Layout1
350
1E
  3
Layout2
350
26
  3
Model
350
22
  0
DICTIONARY
  5
17
102
{ACAD_REACTORS
330
C
102
}
330
C
100
AcDbDictionary
281
     1
  3
Standard
350
18
  0
DICTIONARY
  5
19
102
{ACAD_REACTORS
330
C
102
}
330
C
100
AcDbDictionary
281
     1
  0
ACDBDICTIONARYWDFLT
  5
E
102
{ACAD_REACTORS
330
C
102
}
330
C
100
AcDbDictionary
281
     1
  3
Normal
350
F
100
AcDbDictionaryWithDefault
340
F
  0
DICTIONARY
  5
47
102
{ACAD_REACTORS
330
C
102
}
330
C
100
AcDbDictionary
281
     1
  3
A0
350
48
  3
A1
350
49
  3
A2
350
4A
  3
A3
350
4B
  3
A4
350
4C
  3
A5
350
4D
  3
A6
350
4E
  3
A7
350
4F
  3
A8
350
50
  3
A9
350
51
  3
B0
350
52
  3
B1
350
53
  3
B2
350
54
  3
B3
350
55
  3
B4
350
56
  3
B5
350
57
  3
B6
350
58
  3
B7
350
59
  3
B8
350
5A
  3
B9
350
5B
  3
C0
350
5C
  3
C1
350
5D
  3
C2
350
5E
  3
C3
350
5F
  3
C4
350
60
  3
C5
350
61
  3
C6
350
62
  3
C7
350
63
  3
C8
350
64
  3
C9
350
65
  3
D0
350
66
  3
D1
350
67
  3
D2
350
68
  0
DICTIONARY
  5
15C
102
{ACAD_REACTORS
330
C
102
}
330
C
100
AcDbDictionary
281
     1
  0
XRECORD
  5
1B8
102
{ACAD_REACTORS
330
C
102
}
330
C
100
AcDbXrecord
280
     1
  1
DWGPROPS COOKIE
  2

  3

  4

  6

  7

  8
12016016
  9

300
=
301
=
302
=
303
=
304
=
305
=
306
=
307
=
308
=
309
=
 40
0.0
 41
2458288.145138843
 42
2458295.125133229
  1

 90
        0
  0
DICTIONARY
  5
186
102
{ACAD_REACTORS
330
185
102
}
330
185
100
AcDbDictionary
281
     1
  0
LAYOUT
  5
1E
102
{ACAD_REACTORS
330
1A
102
}
330
1A
100
AcDbPlotSettings
  1

  2
none_device
  4

  6

 40
0.0
 41
0.0
 42
0.0
 43
0.0
 44
0.0
 45
0.0
 46
0.0
 47
0.0
 48
0.0
 49
0.0
140
0.0
141
0.0
142
1.0
143
1.0
 70
   688
 72
     1
 73
     0
 74
     5
  7

 75
    16
147
1.0
148
0.0
149
0.0
100
AcDbLayout
  1
Layout1
 70
     1
 71
     1
 10
0.0
 20
0.0
 11
420.0
 21
297.0
 12
0.0
 22
0.0
 32
0.0
 14
1.000000000000000E+20
 24
1.000000000000000E+20
 34
1.000000000000000E+20
 15
-1.000000000000000E+20
 25
-1.000000000000000E+20
 35
-1.000000000000000E+20
146
0.0
 13
0.0
 23
0.0
 33
0.0
 16
1.0
 26
0.0
 36
0.0
 17
0.0
 27
1.0
 37
0.0
 76
     0
330
1B
  0
LAYOUT
  5
26
102
{ACAD_REACTORS
330
1A
102
}
330
1A
100
AcDbPlotSettings
  1

  2
none_device
  4

  6

 40
0.0
 41
0.0
 42
0.0
 43
0.0
 44
0.0
 45
0.0
 46
0.0
 47
0.0
 48
0.0
 49
0.0
140
0.0
141
0.0
142
1.0
143
1.0
 70
   688
 72
     1
 73
     0
 74
     5
  7

 75
    16
147
1.0
148
0.0
149
0.0
100
AcDbLayout
  1
Layout2
 70
     1
 71
     2
 10
0.0
 20
0.0
 11
0.0
 21
0.0
 12
0.0
 22
0.0
 32
0.0
 14
0.0
 24
0.0
 34
0.0
 15
0.0
 25
0.0
 35
0.0
146
0.0
 13
0.0
 23
0.0
 33
0.0
 16
1.0
 26
0.0
 36
0.0
 17
0.0
 27
1.0
 37
0.0
 76
     0
330
23
  0
LAYOUT
  5
22
102
{ACAD_REACTORS
330
1A
102
}
330
1A
100
AcDbPlotSettings
  1

  2
none_device
  4
ANSI_A_(11.00_x_8.50_Inches)
  6

 40
6.35
 41
19.05
 42
6.35000508
 43
19.05000254
 44
279.4
 45
215.9
 46
160.1922251043505
 47
81.88838307120074
 48
0.0
 49
0.0
140
0.0
141
0.0
142
0.0596724212468055
143
1.0
 70
  1696
 72
     0
 73
     0
 74
     0
  7

 75
     0
147
0.0235690232323232
148
0.0
149
0.0
100
AcDbLayout
  1
Model
 70
     1
 71
     0
 10
0.0
 20
0.0
 11
420.0
 21
297.0
 12
0.0
 22
0.0
 32
0.0
 14
-102.74555
 24
-49.97180738881174
 34
0.0
 15
73.5384838153456
 25
53.55000000000004
 35
0.0
146
0.0
 13
0.0
 23
0.0
 33
0.0
 16
1.0
 26
0.0
 36
0.0
 17
0.0
 27
1.0
 37
0.0
 76
     0
330
1F
331
29
  0
MLINESTYLE
  5
18
102
{ACAD_REACTORS
330
17
102
}
330
17
100
AcDbMlineStyle
  2
Standard
 70
     0
  3

 62
   256
 51
90.0
 52
90.0
 71
     2
 49
0.5
 62
   256
  6
BYLAYER
 49
-0.5
 62
   256
  6
BYLAYER
  0
ACDBPLACEHOLDER
  5
F
102
{ACAD_REACTORS
330
E
102
}
330
E
  0
SCALE
  5
48
102
{ACAD_REACTORS
330
47
102
}
330
47
100
AcDbScale
 70
     0
300
1:1
140
1.0
141
1.0
290
     1
  0
SCALE
  5
49
102
{ACAD_REACTORS
330
47
102
}
330
47
100
AcDbScale
 70
     0
300
1:2
140
1.0
141
2.0
290
     0
  0
SCALE
  5
4A
102
{ACAD_REACTORS
330
47
102
}
330
47
100
AcDbScale
 70
     0
300
1:4
140
1.0
141
4.0
290
     0
  0
SCALE
  5
4B
102
{ACAD_REACTORS
330
47
102
}
330
47
100
AcDbScale
 70
     0
300
1:5
140
1.0
141
5.0
290
     0
  0
SCALE
  5
4C
102
{ACAD_REACTORS
330
47
102
}
330
47
100
AcDbScale
 70
     0
300
1:8
140
1.0
141
8.0
290
     0
  0
SCALE
  5
4D
102
{ACAD_REACTORS
330
47
102
}
330
47
100
AcDbScale
 70
     0
300
1:10
140
1.0
141
10.0
290
     0
  0
SCALE
  5
4E
102
{ACAD_REACTORS
330
47
102
}
330
47
100
AcDbScale
 70
     0
300
1:16
140
1.0
141
16.0
290
     0
  0
SCALE
  5
4F
102
{ACAD_REACTORS
330
47
102
}
330
47
100
AcDbScale
 70
     0
300
1:20
140
1.0
141
20.0
290
     0
  0
SCALE
  5
50
102
{ACAD_REACTORS
330
47
102
}
330
47
100
AcDbScale
 70
     0
300
1:30
140
1.0
141
30.0
290
     0
  0
SCALE
  5
51
102
{ACAD_REACTORS
330
47
102
}
330
47
100
AcDbScale
 70
     0
300
1:40
140
1.0
141
40.0
290
     0
  0
SCALE
  5
52
102
{ACAD_REACTORS
330
47
102
}
330
47
100
AcDbScale
 70
     0
300
1:50
140
1.0
141
50.0
290
     0
  0
SCALE
  5
53
102
{ACAD_REACTORS
330
47
102
}
330
47
100
AcDbScale
 70
     0
300
1:100
140
1.0
141
100.0
290
     0
  0
SCALE
  5
54
102
{ACAD_REACTORS
330
47
102
}
330
47
100
AcDbScale
 70
     0
300
2:1
140
2.0
141
1.0
290
     0
  0
SCALE
  5
55
102
{ACAD_REACTORS
330
47
102
}
330
47
100
AcDbScale
 70
     0
300
4:1
140
4.0
141
1.0
290
     0
  0
SCALE
  5
56
102
{ACAD_REACTORS
330
47
102
}
330
47
100
AcDbScale
 70
     0
300
8:1
140
8.0
141
1.0
290
     0
  0
SCALE
  5
57
102
{ACAD_REACTORS
330
47
102
}
330
47
100
AcDbScale
 70
     0
300
10:1
140
10.0
141
1.0
290
     0
  0
SCALE
  5
58
102
{ACAD_REACTORS
330
47
102
}
330
47
100
AcDbScale
 70
     0
300
100:1
140
100.0
141
1.0
290
     0
  0
SCALE
  5
59
102
{ACAD_REACTORS
330
47
102
}
330
47
100
AcDbScale
 70
     0
300
1/128" = 1'-0"
140
0.0078125
141
12.0
290
     0
  0
SCALE
  5
5A
102
{ACAD_REACTORS
330
47
102
}
330
47
100
AcDbScale
 70
     0
300
1/64" = 1'-0"
140
0.015625
141
12.0
290
     0
  0
SCALE
  5
5B
102
{ACAD_REACTORS
330
47
102
}
330
47
100
AcDbScale
 70
     0
300
1/32" = 1'-0"
140
0.03125
141
12.0
290
     0
  0
SCALE
  5
5C
102
{ACAD_REACTORS
330
47
102
}
330
47
100
AcDbScale
 70
     0
300
1/16" = 1'-0"
140
0.0625
141
12.0
290
     0
  0
SCALE
  5
5D
102
{ACAD_REACTORS
330
47
102
}
330
47
100
AcDbScale
 70
     0
300
3/32" = 1'-0"
140
0.09375
141
12.0
290
     0
  0
SCALE
  5
5E
102
{ACAD_REACTORS
330
47
102
}
330
47
100
AcDbScale
 70
     0
300
1/8" = 1'-0"
140
0.125
141
12.0
290
     0
  0
SCALE
  5
5F
102
{ACAD_REACTORS
330
47
102
}
330
47
100
AcDbScale
 70
     0
300
3/16" = 1'-0"
140
0.1875
141
12.0
290
     0
  0
SCALE
  5
60
102
{ACAD_REACTORS
330
47
102
}
330
47
100
AcDbScale
 70
     0
300
1/4" = 1'-0"
140
0.25
141
12.0
290
     0
  0
SCALE
  5
61
102
{ACAD_REACTORS
330
47
102
}
330
47
100
AcDbScale
 70
     0
300
3/8" = 1'-0"
140
0.375
141
12.0
290
     0
  0
SCALE
  5
62
102
{ACAD_REACTORS
330
47
102
}
330
47
100
AcDbScale
 70
     0
300
1/2" = 1'-0"
140
0.5
141
12.0
290
     0
  0
SCALE
  5
63
102
{ACAD_REACTORS
330
47
102
}
330
47
100
AcDbScale
 70
     0
300
3/4" = 1'-0"
140
0.75
141
12.0
290
     0
  0
SCALE
  5
64
102
{ACAD_REACTORS
330
47
102
}
330
47
100
AcDbScale
 70
     0
300
1" = 1'-0"
140
1.0
141
12.0
290
     0
  0
SCALE
  5
65
102
{ACAD_REACTORS
330
47
102
}
330
47
100
AcDbScale
 70
     0
300
1-1/2" = 1'-0"
140
1.5
141
12.0
290
     0
  0
SCALE
  5
66
102
{ACAD_REACTORS
330
47
102
}
330
47
100
AcDbScale
 70
     0
300
3" = 1'-0"
140
3.0
141
12.0
290
     0
  0
SCALE
  5
67
102
{ACAD_REACTORS
330
47
102
}
330
47
100
AcDbScale
 70
     0
300
6" = 1'-0"
140
6.0
141
12.0
290
     0
  0
SCALE
  5
68
102
{ACAD_REACTORS
330
47
102
}
330
47
100
AcDbScale
 70
     0
300
1'-0" = 1'-0"
140
12.0
141
12.0
290
     0
  0
ENDSEC
  0
EOF
