  0
SECTION
  2
HEADER
  9
$ACADVER
  1
AC1015
  9
$ACADMAINTVER
 70
     6
  9
$DWGCODEPAGE
  3
ANSI_949
  9
$INSBASE
 10
0.0
 20
0.0
 30
0.0
  9
$EXTMIN
 10
1.000000000000000E+20
 20
1.000000000000000E+20
 30
1.000000000000000E+20
  9
$EXTMAX
 10
-1.000000000000000E+20
 20
-1.000000000000000E+20
 30
-1.000000000000000E+20
  9
$LIMMIN
 10
0.0
 20
0.0
  9
$LIMMAX
 10
420.0
 20
297.0
  9
$ORTHOMODE
 70
     1
  9
$REGENMODE
 70
     1
  9
$FILLMODE
 70
     1
  9
$QTEXTMODE
 70
     0
  9
$MIRRTEXT
 70
     1
  9
$LTSCALE
 40
1.0
  9
$ATTMODE
 70
     1
  9
$TEXTSIZE
 40
3.5
  9
$TRACEWID
 40
1.0
  9
$TEXTSTYLE
  7
Standard
  9
$CLAYER
  8
0
  9
$CELTYPE
  6
ByLayer
  9
$CECOLOR
 62
   256
  9
$CELTSCALE
 40
1.0
  9
$DISPSILH
 70
     0
  9
$DIMSCALE
 40
1.0
  9
$DIMASZ
 40
3.302
  9
$DIMEXO
 40
1.0
  9
$DIMDLI
 40
3.75
  9
$DIMRND
 40
0.0
  9
$DIMDLE
 40
0.0
  9
$DIMEXE
 40
1.0
  9
$DIMTP
 40
0.0
  9
$DIMTM
 40
0.0
  9
$DIMTXT
 40
3.5
  9
$DIMCEN
 40
2.5
  9
$DIMTSZ
 40
0.0
  9
$DIMTOL
 70
     0
  9
$DIMLIM
 70
     0
  9
$DIMTIH
 70
     1
  9
$DIMTOH
 70
     1
  9
$DIMSE1
 70
     0
  9
$DIMSE2
 70
     0
  9
$DIMTAD
 70
     1
  9
$DIMZIN
 70
     0
  9
$DIMBLK
  1

  9
$DIMASO
 70
     1
  9
$DIMSHO
 70
     1
  9
$DIMPOST
  1

  9
$DIMAPOST
  1

  9
$DIMALT
 70
     0
  9
$DIMALTD
 70
     3
  9
$DIMALTF
 40
0.0393700787401575
  9
$DIMLFAC
 40
1.0
  9
$DIMTOFL
 70
     1
  9
$DIMTVP
 40
0.0
  9
$DIMTIX
 70
     0
  9
$DIMSOXD
 70
     0
  9
$DIMSAH
 70
     0
  9
$DIMBLK1
  1

  9
$DIMBLK2
  1

  9
$DIMSTYLE
  2
ISO-25
  9
$DIMCLRD
 70
     0
  9
$DIMCLRE
 70
     0
  9
$DIMCLRT
 70
     0
  9
$DIMTFAC
 40
1.0
  9
$DIMGAP
 40
1.524
  9
$DIMJUST
 70
     0
  9
$DIMSD1
 70
     0
  9
$DIMSD2
 70
     0
  9
$DIMTOLJ
 70
     0
  9
$DIMTZIN
 70
     0
  9
$DIMALTZ
 70
     0
  9
$DIMALTTZ
 70
     0
  9
$DIMUPT
 70
     0
  9
$DIMDEC
 70
     2
  9
$DIMTDEC
 70
     2
  9
$DIMALTU
 70
     2
  9
$DIMALTTD
 70
     3
  9
$DIMTXSTY
  7
Standard
  9
$DIMAUNIT
 70
     0
  9
$DIMADEC
 70
     2
  9
$DIMALTRND
 40
0.0
  9
$DIMAZIN
 70
     0
  9
$DIMDSEP
 70
    44
  9
$DIMATFIT
 70
     3
  9
$DIMFRAC
 70
     0
  9
$DIMLDRBLK
  1

  9
$DIMLUNIT
 70
     2
  9
$DIMLWD
 70
    -2
  9
$DIMLWE
 70
    -2
  9
$DIMTMOVE
 70
     0
  9
$LUNITS
 70
     2
  9
$LUPREC
 70
     2
  9
$SKETCHINC
 40
1.0
  9
$FILLETRAD
 40
10.0
  9
$AUNITS
 70
     0
  9
$AUPREC
 70
     2
  9
$MENU
  1
.
  9
$ELEVATION
 40
0.0
  9
$PELEVATION
 40
0.0
  9
$THICKNESS
 40
0.0
  9
$LIMCHECK
 70
     0
  9
$CHAMFERA
 40
0.0
  9
$CHAMFERB
 40
0.0
  9
$CHAMFERC
 40
0.0
  9
$CHAMFERD
 40
0.0
  9
$SKPOLY
 70
     0
  9
$TDCREATE
 40
2458288.744186007
  9
$TDUCREATE
 40
2458288.369186007
  9
$TDUPDATE
 40
2458294.696280717
  9
$TDUUPDATE
 40
2458294.321280717
  9
$TDINDWG
 40
0.0009593287
  9
$TDUSRTIMER
 40
2458294.320321945
  9
$USRTIMER
 70
     1
  9
$ANGBASE
 50
0.0
  9
$ANGDIR
 70
     0
  9
$PDMODE
 70
     0
  9
$PDSIZE
 40
-1.0
  9
$PLINEWID
 40
0.0
  9
$SPLFRAME
 70
     0
  9
$SPLINETYPE
 70
     6
  9
$SPLINESEGS
 70
     8
  9
$HANDSEED
  5
194
  9
$SURFTAB1
 70
     6
  9
$SURFTAB2
 70
     6
  9
$SURFTYPE
 70
     6
  9
$SURFU
 70
     6
  9
$SURFV
 70
     6
  9
$UCSBASE
  2

  9
$UCSNAME
  2

  9
$UCSORG
 10
0.0
 20
0.0
 30
0.0
  9
$UCSXDIR
 10
1.0
 20
0.0
 30
0.0
  9
$UCSYDIR
 10
0.0
 20
1.0
 30
0.0
  9
$UCSORTHOREF
  2

  9
$UCSORTHOVIEW
 70
     0
  9
$UCSORGTOP
 10
0.0
 20
0.0
 30
0.0
  9
$UCSORGBOTTOM
 10
0.0
 20
0.0
 30
0.0
  9
$UCSORGLEFT
 10
0.0
 20
0.0
 30
0.0
  9
$UCSORGRIGHT
 10
0.0
 20
0.0
 30
0.0
  9
$UCSORGFRONT
 10
0.0
 20
0.0
 30
0.0
  9
$UCSORGBACK
 10
0.0
 20
0.0
 30
0.0
  9
$PUCSBASE
  2

  9
$PUCSNAME
  2

  9
$PUCSORG
 10
0.0
 20
0.0
 30
0.0
  9
$PUCSXDIR
 10
1.0
 20
0.0
 30
0.0
  9
$PUCSYDIR
 10
0.0
 20
1.0
 30
0.0
  9
$PUCSORTHOREF
  2

  9
$PUCSORTHOVIEW
 70
     0
  9
$PUCSORGTOP
 10
0.0
 20
0.0
 30
0.0
  9
$PUCSORGBOTTOM
 10
0.0
 20
0.0
 30
0.0
  9
$PUCSORGLEFT
 10
0.0
 20
0.0
 30
0.0
  9
$PUCSORGRIGHT
 10
0.0
 20
0.0
 30
0.0
  9
$PUCSORGFRONT
 10
0.0
 20
0.0
 30
0.0
  9
$PUCSORGBACK
 10
0.0
 20
0.0
 30
0.0
  9
$USERI1
 70
     0
  9
$USERI2
 70
     0
  9
$USERI3
 70
     0
  9
$USERI4
 70
     0
  9
$USERI5
 70
     0
  9
$USERR1
 40
0.0
  9
$USERR2
 40
0.0
  9
$USERR3
 40
0.0
  9
$USERR4
 40
0.0
  9
$USERR5
 40
0.0
  9
$WORLDVIEW
 70
     1
  9
$SHADEDGE
 70
     3
  9
$SHADEDIF
 70
    70
  9
$TILEMODE
 70
     1
  9
$MAXACTVP
 70
    64
  9
$PINSBASE
 10
0.0
 20
0.0
 30
0.0
  9
$PLIMCHECK
 70
     0
  9
$PEXTMIN
 10
1.000000000000000E+20
 20
1.000000000000000E+20
 30
1.000000000000000E+20
  9
$PEXTMAX
 10
-1.000000000000000E+20
 20
-1.000000000000000E+20
 30
-1.000000000000000E+20
  9
$PLIMMIN
 10
0.0
 20
0.0
  9
$PLIMMAX
 10
0.0
 20
0.0
  9
$UNITMODE
 70
     0
  9
$VISRETAIN
 70
     1
  9
$PLINEGEN
 70
     0
  9
$PSLTSCALE
 70
     1
  9
$TREEDEPTH
 70
  3020
  9
$CMLSTYLE
  2
Standard
  9
$CMLJUST
 70
     0
  9
$CMLSCALE
 40
20.0
  9
$PROXYGRAPHICS
 70
     1
  9
$MEASUREMENT
 70
     1
  9
$CELWEIGHT
370
    -1
  9
$ENDCAPS
280
     0
  9
$JOINSTYLE
280
     0
  9
$LWDISPLAY
290
     1
  9
$INSUNITS
 70
     4
  9
$HYPERLINKBASE
  1

  9
$STYLESHEET
  1

  9
$XEDIT
290
     1
  9
$CEPSNTYPE
380
     0
  9
$PSTYLEMODE
290
     1
  9
$FINGERPRINTGUID
  2
{71597826-D6CC-4801-9962-48CA6F10DE32}
  9
$VERSIONGUID
  2
{FAEB1C32-E019-11D5-929B-00C0DF256EC4}
  9
$EXTNAMES
290
     1
  9
$PSVPSCALE
 40
0.0
  9
$OLESTARTUP
290
     0
  0
ENDSEC
  0
SECTION
  2
CLASSES
  0
CLASS
  1
ACDBDICTIONARYWDFLT
  2
AcDbDictionaryWithDefault
  3
ObjectDBX Classes
 90
        0
280
     0
281
     0
  0
CLASS
  1
VISUALSTYLE
  2
AcDbVisualStyle
  3
ObjectDBX Classes
 90
     4095
280
     0
281
     0
  0
CLASS
  1
MATERIAL
  2
AcDbMaterial
  3
ObjectDBX Classes
 90
     1153
280
     0
281
     0
  0
CLASS
  1
SCALE
  2
AcDbScale
  3
ObjectDBX Classes
 90
     1153
280
     0
281
     0
  0
CLASS
  1
SUN
  2
AcDbSun
  3
SCENEOE
 90
     1153
280
     0
281
     0
  0
CLASS
  1
ACDBPLACEHOLDER
  2
AcDbPlaceHolder
  3
ObjectDBX Classes
 90
        0
280
     0
281
     0
  0
CLASS
  1
LAYOUT
  2
AcDbLayout
  3
ObjectDBX Classes
 90
        0
280
     0
281
     0
  0
CLASS
  1
TABLESTYLE
  2
AcDbTableStyle
  3
ObjectDBX Classes
 90
     4095
280
     0
281
     0
  0
CLASS
  1
MLEADERSTYLE
  2
AcDbMLeaderStyle
  3
ACDB_MLEADERSTYLE_CLASS
 90
     4095
280
     0
281
     0
  0
CLASS
  1
RASTERVARIABLES
  2
AcDbRasterVariables
  3
ISM
 90
        0
280
     0
281
     0
  0
ENDSEC
  0
SECTION
  2
TABLES
  0
TABLE
  2
VPORT
  5
8
330
0
100
AcDbSymbolTable
 70
     1
  0
VPORT
  5
29
330
8
100
AcDbSymbolTableRecord
100
AcDbViewportTableRecord
  2
*Active
 70
     0
 10
0.0
 20
0.0
 11
1.0
 21
1.0
 12
-9.207590673257556
 22
3.521332359486644
 13
0.0
 23
0.0
 14
10.0
 24
10.0
 15
10.0
 25
10.0
 16
0.0
 26
0.0
 36
1.0
 17
0.0
 27
0.0
 37
0.0
 40
103.8855048958882
 41
1.859099804305284
 42
50.0
 43
0.0
 44
0.0
 50
0.0
 51
0.0
 71
    16
 72
  2000
 73
     1
 74
     3
 75
     0
 76
     0
 77
     0
 78
     0
281
     0
 65
     1
110
0.0
120
0.0
130
0.0
111
1.0
121
0.0
131
0.0
112
0.0
122
1.0
132
0.0
 79
     0
146
0.0
  0
ENDTAB
  0
TABLE
  2
LTYPE
  5
5
330
0
100
AcDbSymbolTable
 70
     6
  0
LTYPE
  5
14
330
5
100
AcDbSymbolTableRecord
100
AcDbLinetypeTableRecord
  2
ByBlock
 70
     0
  3

 72
    65
 73
     0
 40
0.0
  0
LTYPE
  5
15
330
5
100
AcDbSymbolTableRecord
100
AcDbLinetypeTableRecord
  2
ByLayer
 70
     0
  3

 72
    65
 73
     0
 40
0.0
  0
LTYPE
  5
16
330
5
100
AcDbSymbolTableRecord
100
AcDbLinetypeTableRecord
  2
Continuous
 70
     0
  3
Solid line
 72
    65
 73
     0
 40
0.0
  0
LTYPE
  5
6A
330
5
100
AcDbSymbolTableRecord
100
AcDbLinetypeTableRecord
  2
HIDDEN
 70
     0
  3
Hidden __ __ __ __ __ __ __ __ __ __ __ __ __ __
 72
    65
 73
     2
 40
1.905
 49
1.27
 74
     0
 49
-0.635
 74
     0
  0
LTYPE
  5
6B
330
5
100
AcDbSymbolTableRecord
100
AcDbLinetypeTableRecord
  2
PHANTOM
 70
     0
  3
Phantom ______  __  __  ______  __  __  ______
 72
    65
 73
     6
 40
12.7
 49
6.35
 74
     0
 49
-1.27
 74
     0
 49
1.27
 74
     0
 49
-1.27
 74
     0
 49
1.27
 74
     0
 49
-1.27
 74
     0
  0
LTYPE
  5
6C
330
5
100
AcDbSymbolTableRecord
100
AcDbLinetypeTableRecord
  2
CENTER
 70
     0
  3
Center ____ _ ____ _ ____ _ ____ _ ____ _ ____
 72
    65
 73
     4
 40
10.16
 49
6.35
 74
     0
 49
-1.27
 74
     0
 49
1.27
 74
     0
 49
-1.27
 74
     0
  0
LTYPE
  5
6D
330
5
100
AcDbSymbolTableRecord
100
AcDbLinetypeTableRecord
  2
CENTERX2
 70
     0
  3
Center (2x) ________  __  ________  __  _____
 72
    65
 73
     4
 40
20.32
 49
12.7
 74
     0
 49
-2.54
 74
     0
 49
2.54
 74
     0
 49
-2.54
 74
     0
  0
LTYPE
  5
6E
330
5
100
AcDbSymbolTableRecord
100
AcDbLinetypeTableRecord
  2
DOT2
 70
     0
  3
Dot (.5x) ........................................
 72
    65
 73
     2
 40
0.635
 49
0.0
 74
     0
 49
-0.635
 74
     0
  0
ENDTAB
  0
TABLE
  2
LAYER
  5
2
102
{ACAD_XDICTIONARY
360
185
102
}
330
0
100
AcDbSymbolTable
 70
    18
  0
LAYER
  5
10
330
2
100
AcDbSymbolTableRecord
100
AcDbLayerTableRecord
  2
0
 70
     0
 62
     7
  6
Continuous
370
    -3
390
F
  0
LAYER
  5
6F
330
2
100
AcDbSymbolTableRecord
100
AcDbLayerTableRecord
  2
FORMAT
 70
     0
 62
     2
  6
Continuous
370
    -3
390
F
  0
LAYER
  5
70
330
2
100
AcDbSymbolTableRecord
100
AcDbLayerTableRecord
  2
외형선
 70
     0
 62
     4
  6
Continuous
370
    30
390
F
  0
LAYER
  5
71
330
2
100
AcDbSymbolTableRecord
100
AcDbLayerTableRecord
  2
숨은선
 70
     0
 62
     2
  6
HIDDEN
370
    15
390
F
  0
LAYER
  5
72
330
2
100
AcDbSymbolTableRecord
100
AcDbLayerTableRecord
  2
중심선
 70
     0
 62
     1
  6
CENTERX2
370
    -3
390
F
  0
LAYER
  5
73
330
2
100
AcDbSymbolTableRecord
100
AcDbLayerTableRecord
  2
파단선
 70
     0
 62
     4
  6
Continuous
370
    -3
390
F
  0
LAYER
  5
74
330
2
100
AcDbSymbolTableRecord
100
AcDbLayerTableRecord
  2
해칭선
 70
     0
 62
   100
  6
Continuous
370
    -3
390
F
  0
LAYER
  5
75
330
2
100
AcDbSymbolTableRecord
100
AcDbLayerTableRecord
  2
가는실선
 70
     0
 62
     4
  6
Continuous
370
    -3
390
F
  0
LAYER
  5
76
330
2
100
AcDbSymbolTableRecord
100
AcDbLayerTableRecord
  2
치수_보조선
 70
     0
 62
     4
  6
Continuous
370
    -3
390
F
  0
LAYER
  5
77
330
2
100
AcDbSymbolTableRecord
100
AcDbLayerTableRecord
  2
치수문자_일반주서
 70
     0
 62
     7
  6
Continuous
370
    15
390
F
  0
LAYER
  5
78
330
2
100
AcDbSymbolTableRecord
100
AcDbLayerTableRecord
  2
개별주서
 70
     0
 62
   100
  6
Continuous
370
    30
390
F
  0
LAYER
  5
79
330
2
100
AcDbSymbolTableRecord
100
AcDbLayerTableRecord
  2
중간선
 70
     0
 62
     2
  6
Continuous
370
    15
390
F
  0
LAYER
  5
7A
330
2
100
AcDbSymbolTableRecord
100
AcDbLayerTableRecord
  2
윤곽선
 70
     0
 62
     3
  6
Continuous
370
    40
390
F
  0
LAYER
  5
7B
330
2
100
AcDbSymbolTableRecord
100
AcDbLayerTableRecord
  2
중심마크
 70
     0
 62
   100
  6
Continuous
370
    30
390
F
  0
LAYER
  5
7C
330
2
100
AcDbSymbolTableRecord
100
AcDbLayerTableRecord
  2
가상선
 70
     0
 62
     4
  6
PHANTOM
370
    -3
390
F
  0
LAYER
  5
7D
330
2
100
AcDbSymbolTableRecord
100
AcDbLayerTableRecord
  2
특수지정선
 70
     0
 62
     5
  6
CENTERX2
370
    60
390
F
  0
LAYER
  5
7E
330
2
100
AcDbSymbolTableRecord
100
AcDbLayerTableRecord
  2
참조1
 70
     0
 62
    -4
  6
Continuous
370
    -3
390
F
  0
LAYER
  5
18C
330
2
100
AcDbSymbolTableRecord
100
AcDbLayerTableRecord
  2
Defpoints
 70
     0
 62
     7
  6
Continuous
290
     0
370
    -3
390
F
  0
ENDTAB
  0
TABLE
  2
STYLE
  5
3
330
0
100
AcDbSymbolTable
 70
     2
  0
STYLE
  5
11
330
3
100
AcDbSymbolTableRecord
100
AcDbTextStyleTableRecord
  2
Standard
 70
     0
 40
0.0
 41
1.0
 50
0.0
 71
     0
 42
3.5
  3
txt
  4

  0
STYLE
  5
94
330
3
100
AcDbSymbolTableRecord
100
AcDbTextStyleTableRecord
  2
SLDTEXTSTYLE0
 70
     0
 40
0.0
 41
0.75
 50
0.0
 71
     0
 42
3.5
  3
TXT
  4

  0
ENDTAB
  0
TABLE
  2
VIEW
  5
6
330
0
100
AcDbSymbolTable
 70
     0
  0
ENDTAB
  0
TABLE
  2
UCS
  5
7
330
0
100
AcDbSymbolTable
 70
     0
  0
ENDTAB
  0
TABLE
  2
APPID
  5
9
330
0
100
AcDbSymbolTable
 70
     1
  0
APPID
  5
12
330
9
100
AcDbSymbolTableRecord
100
AcDbRegAppTableRecord
  2
ACAD
 70
     0
  0
ENDTAB
  0
TABLE
  2
DIMSTYLE
  5
A
330
0
100
AcDbSymbolTable
 70
     3
100
AcDbDimStyleTable
  0
DIMSTYLE
105
27
330
A
100
AcDbSymbolTableRecord
100
AcDbDimStyleTableRecord
  2
ISO-25
 70
     0
 41
2.5
 42
0.625
 43
3.75
 44
1.25
 73
     0
 74
     0
 77
     1
 78
     8
140
2.5
141
2.5
143
0.03937007874016
147
0.625
171
     3
172
     1
178
     0
271
     2
272
     2
274
     3
278
    44
283
     0
284
     8
340
11
  0
DIMSTYLE
105
DD
102
{ACAD_REACTORS
330
DC
330
F1
330
105
330
11A
102
}
330
A
100
AcDbSymbolTableRecord
100
AcDbDimStyleTableRecord
  2
SLDDIMSTYLE0
 70
     0
 41
3.302
 44
0.0
 45
0.000000001
 73
     0
 74
     0
 77
     1
 78
    12
 79
     3
140
3.5
143
0.0393700787401575
147
0.875
148
0.000000001
170
     1
172
     1
173
     1
178
     0
271
     2
272
     2
276
     2
284
    12
289
     0
340
94
  0
DIMSTYLE
105
106
330
A
100
AcDbSymbolTableRecord
100
AcDbDimStyleTableRecord
  2
SLDDIMSTYLE1
 70
     0
 41
3.302
 44
0.0
 45
0.000000001
 73
     0
 74
     0
 77
     1
 78
     4
 79
     1
140
3.5
143
0.0393700787401575
147
0.875
148
0.000000001
170
     1
173
     1
178
     0
271
     2
272
     2
276
     2
284
    12
340
94
  0
ENDTAB
  0
TABLE
  2
BLOCK_RECORD
  5
1
330
0
100
AcDbSymbolTable
 70
     8
  0
BLOCK_RECORD
  5
1F
330
1
100
AcDbSymbolTableRecord
100
AcDbBlockTableRecord
  2
*Model_Space
340
22
  0
BLOCK_RECORD
  5
1B
330
1
100
AcDbSymbolTableRecord
100
AcDbBlockTableRecord
  2
*Paper_Space
340
1E
  0
BLOCK_RECORD
  5
23
330
1
100
AcDbSymbolTableRecord
100
AcDbBlockTableRecord
  2
*Paper_Space0
340
26
  0
BLOCK_RECORD
  5
7F
330
1
100
AcDbSymbolTableRecord
100
AcDbBlockTableRecord
  2
블럭10
340
0
102
{BLKREFS
331
D5
102
}
  0
BLOCK_RECORD
  5
DE
330
1
100
AcDbSymbolTableRecord
100
AcDbBlockTableRecord
  2
_D
340
0
  0
BLOCK_RECORD
  5
F2
330
1
100
AcDbSymbolTableRecord
100
AcDbBlockTableRecord
  2
_D_1
340
0
  0
BLOCK_RECORD
  5
107
330
1
100
AcDbSymbolTableRecord
100
AcDbBlockTableRecord
  2
_D_2
340
0
  0
BLOCK_RECORD
  5
11B
330
1
100
AcDbSymbolTableRecord
100
AcDbBlockTableRecord
  2
_D_3
340
0
  0
BLOCK_RECORD
  5
134
330
1
100
AcDbSymbolTableRecord
100
AcDbBlockTableRecord
  2
SW_DOWELSYMBOL_0
340
0
102
{BLKREFS
331
13A
102
}
  0
ENDTAB
  0
ENDSEC
  0
SECTION
  2
BLOCKS
  0
BLOCK
  5
20
330
1F
100
AcDbEntity
  8
0
100
AcDbBlockBegin
  2
*Model_Space
 70
     0
 10
0.0
 20
0.0
 30
0.0
  3
*Model_Space
  1
*Model_Space
  0
ENDBLK
  5
21
330
1F
100
AcDbEntity
  8
0
100
AcDbBlockEnd
  0
BLOCK
  5
1C
330
1B
100
AcDbEntity
 67
     1
  8
0
100
AcDbBlockBegin
  2
*Paper_Space
 70
     0
 10
0.0
 20
0.0
 30
0.0
  3
*Paper_Space
  1
*Paper_Space
  0
ENDBLK
  5
1D
330
1B
100
AcDbEntity
 67
     1
  8
0
100
AcDbBlockEnd
  0
BLOCK
  5
24
330
23
100
AcDbEntity
  8
0
100
AcDbBlockBegin
  2
*Paper_Space0
 70
     0
 10
0.0
 20
0.0
 30
0.0
  3
*Paper_Space0
  1
*Paper_Space0
  0
ENDBLK
  5
25
330
23
100
AcDbEntity
  8
0
100
AcDbBlockEnd
  0
BLOCK
  5
80
330
7F
100
AcDbEntity
  8
0
100
AcDbBlockBegin
  2
블럭10
 70
     2
 10
0.0
 20
0.0
 30
0.0
  3
블럭10
  1
블럭10
  0
ELLIPSE
  5
82
330
7F
100
AcDbEntity
  8
중심선
100
AcDbEllipse
 10
20.54032771741204
 20
12.0471743016438
 30
0.0
 11
6.600054785286829
 21
-1.261213355974178E-13
 31
0.0
210
0.0
220
0.0
230
1.0
 40
0.636358354079598
 41
0.9219305317359503
 42
6.513795318482858
  0
ELLIPSE
  5
83
330
7F
100
AcDbEntity
  8
중심선
100
AcDbEllipse
 10
20.54032771746488
 20
12.04717430159265
 30
0.0
 11
3.960054785062283
 21
1.540847449632565E-10
 31
0.0
210
0.0
220
0.0
230
1.0
 40
0.3939339440162632
 41
1.131841032648279
 42
5.62031148352944
  0
LINE
  5
84
330
7F
100
AcDbEntity
  8
중심선
100
AcDbLine
 10
2.268634060543552
 20
16.24717430164393
 30
0.0
 11
5.714909304380834
 21
16.24717430164393
 31
0.0
  0
LINE
  5
85
330
7F
100
AcDbEntity
  8
중심선
100
AcDbLine
 10
5.245725140726316
 20
7.84717430164391
 30
0.0
 11
8.692000384563599
 21
7.84717430164391
 31
0.0
  0
LINE
  5
86
330
7F
100
AcDbEntity
  8
중심선
100
AcDbLine
 10
15.74043728645272
 20
16.24717430164393
 30
0.0
 11
8.692000384563599
 21
7.84717430164391
 31
0.0
  0
LINE
  5
87
330
7F
100
AcDbEntity
  8
중심선
100
AcDbLine
 10
0.1404042013395286
 20
13.71084872107135
 30
0.0
 11
3.58671253028996
 21
13.71088815037384
 31
0.0
  0
LINE
  5
88
330
7F
100
AcDbEntity
  8
중심선
100
AcDbLine
 10
2.750260043222114
 20
10.84717430164391
 30
0.0
 11
6.196535287059397
 21
10.84717430164391
 31
0.0
  0
LINE
  5
89
330
7F
100
AcDbEntity
  8
중심선
100
AcDbLine
 10
12.29416204261559
 20
16.24717430164393
 30
0.0
 11
5.245725140726316
 21
7.84717430164391
 31
0.0
  0
LINE
  5
8A
330
7F
100
AcDbEntity
  8
중심선
100
AcDbLine
 10
10.72767329541681
 20
16.24717430164393
 30
0.0
 11
6.196535287059397
 21
10.84717430164391
 31
0.0
  0
LINE
  5
8B
330
7F
100
AcDbEntity
  8
중심선
100
AcDbLine
 10
7.28139805157953
 20
16.24717430164393
 30
0.0
 11
2.750260043222114
 21
10.84717430164391
 31
0.0
  0
LINE
  5
8C
330
7F
100
AcDbEntity
  8
중심선
100
AcDbLine
 10
5.714909304380834
 20
16.24717430164393
 30
0.0
 11
3.58671253028996
 21
13.71088815037384
 31
0.0
  0
LINE
  5
8D
330
7F
100
AcDbEntity
  8
중심선
100
AcDbLine
 10
2.268634060543552
 20
16.24717430164393
 30
0.0
 11
0.1404042013395286
 21
13.71084872107135
 31
0.0
  0
LINE
  5
8E
330
7F
100
AcDbEntity
  8
중심선
100
AcDbLine
 10
7.28139805157953
 20
16.24717430164393
 30
0.0
 11
10.72767329541681
 21
16.24717430164393
 31
0.0
  0
LINE
  5
8F
330
7F
100
AcDbEntity
  8
중심선
100
AcDbLine
 10
12.29416204261559
 20
16.24717430164393
 30
0.0
 11
15.74043728645272
 21
16.24717430164393
 31
0.0
  0
LINE
  5
90
330
7F
100
AcDbEntity
  8
중심선
100
AcDbLine
 10
19.22036997980202
 20
11.08717430171403
 30
0.0
 11
23.66174974927406
 21
11.08717430171406
 31
0.0
  0
LINE
  5
91
330
7F
100
AcDbEntity
  8
중심선
100
AcDbLine
 10
19.22039502424796
 20
13.00717430171391
 30
0.0
 11
19.22036997980202
 21
11.08717430171403
 31
0.0
  0
LINE
  5
92
330
7F
100
AcDbEntity
  8
중심선
100
AcDbLine
 10
19.22039502424796
 20
13.00717430171391
 30
0.0
 11
26.96566020931264
 21
13.00717430171391
 31
0.0
  0
LINE
  5
93
330
7F
100
AcDbEntity
  8
중심선
100
AcDbLine
 10
22.22332737316547
 20
13.45928029700563
 30
0.0
 11
24.52862924686651
 21
15.39360700705356
 31
0.0
  0
ATTDEF
  5
95
330
7F
100
AcDbEntity
  8
FORMAT
 62
     2
100
AcDbText
 10
3.448148490846466
 20
2.075366912832191
 30
0.0
 40
4.233333333333333
  1
EM154008
 41
0.75
  7
SLDTEXTSTYLE0
 11
3.448148490846466
 21
-0.0412997538344756
 31
0.0
100
AcDbAttributeDefinition
  3

  2
AUTOATTR0
 70
     0
 74
     1
  0
ENDBLK
  5
81
330
7F
100
AcDbEntity
  8
0
100
AcDbBlockEnd
  0
BLOCK
  5
DF
330
DE
100
AcDbEntity
  8
0
100
AcDbBlockBegin
  2
_D
 70
     0
 10
0.0
 20
0.0
 30
0.0
  3
_D
  1
_D
  0
LINE
  5
E1
330
DE
100
AcDbEntity
  8
치수문자_일반주서
 62
     0
370
    -2
100
AcDbLine
 10
-15.03249999999993
 20
1.587499999999993
 30
0.0
 11
-28.39999999999992
 21
1.587499999999943
 31
0.0
  0
LINE
  5
E2
330
DE
100
AcDbEntity
  8
치수문자_일반주서
 62
     0
370
    -2
100
AcDbLine
 10
-15.03249999999993
 20
-1.58749999999999
 30
0.0
 11
-28.39999999999991
 21
-1.58750000000004
 31
0.0
  0
LINE
  5
E3
330
DE
100
AcDbEntity
  8
치수문자_일반주서
 62
     0
370
    -2
100
AcDbLine
 10
-28.39999999999991
 20
-1.714500000000057
 30
0.0
 11
-28.39999999999992
 21
1.714499999999959
 31
0.0
  0
SOLID
  5
E4
330
DE
100
AcDbEntity
  8
치수문자_일반주서
 62
     0
100
AcDbTrace
 10
-27.84966666666658
 20
-1.714500000000055
 30
0.0
 11
-28.95033333333325
 21
-1.714500000000058
 31
0.0
 12
-28.39999999999992
 22
1.587499999999943
 32
0.0
 13
-28.39999999999992
 23
1.587499999999943
 33
0.0
  0
SOLID
  5
E5
330
DE
100
AcDbEntity
  8
치수문자_일반주서
 62
     0
100
AcDbTrace
 10
-28.95033333333326
 20
1.714499999999958
 30
0.0
 11
-27.84966666666659
 21
1.714499999999961
 31
0.0
 12
-28.39999999999991
 22
-1.58750000000004
 32
0.0
 13
-28.39999999999991
 23
-1.58750000000004
 33
0.0
  0
MTEXT
  5
E6
330
DE
100
AcDbEntity
  8
치수문자_일반주서
 62
     0
100
AcDbMText
 10
-32.77499999999992
 20
-0.0000000000000214
 30
0.0
 40
3.5
 41
0.0
 71
     2
 72
     1
  1
\A1;%%c3.18 [1/8]
  7
SLDTEXTSTYLE0
 11
-3.356894814614664E-15
 21
1.0
 31
0.0
 73
     1
 44
1.0
  0
POINT
  5
E7
330
DE
100
AcDbEntity
  8
Defpoints
 62
     0
100
AcDbPoint
 10
-14.96999999999993
 20
1.587499999999993
 30
0.0
  0
POINT
  5
E8
330
DE
100
AcDbEntity
  8
Defpoints
 62
     0
100
AcDbPoint
 10
-14.96999999999993
 20
-1.58749999999999
 30
0.0
  0
POINT
  5
E9
330
DE
100
AcDbEntity
  8
Defpoints
 62
     0
100
AcDbPoint
 10
-28.39999999999991
 20
-1.58750000000004
 30
0.0
  0
ENDBLK
  5
E0
330
DE
100
AcDbEntity
  8
0
100
AcDbBlockEnd
  0
BLOCK
  5
F3
330
F2
100
AcDbEntity
  8
0
100
AcDbBlockBegin
  2
_D_1
 70
     0
 10
0.0
 20
0.0
 30
0.0
  3
_D_1
  1
_D_1
  0
LINE
  5
F5
330
F2
100
AcDbEntity
  8
치수문자_일반주서
 62
     0
370
    -2
100
AcDbLine
 10
22.76250000000007
 20
1.587500000000003
 30
0.0
 11
37.82131303156534
 21
1.587500000000059
 31
0.0
  0
LINE
  5
F6
330
F2
100
AcDbEntity
  8
치수문자_일반주서
 62
     0
370
    -2
100
AcDbLine
 10
22.76249999999993
 20
-1.587499999999997
 30
0.0
 11
37.82131303156535
 21
-1.587499999999942
 31
0.0
  0
LINE
  5
F7
330
F2
100
AcDbEntity
  8
치수문자_일반주서
 62
     0
370
    -2
100
AcDbLine
 10
37.82131303156534
 20
1.587500000000059
 30
0.0
 11
37.82131303156518
 21
35.425
 31
0.0
  0
LINE
  5
F8
330
F2
100
AcDbEntity
  8
치수문자_일반주서
 62
     0
370
    -2
100
AcDbLine
 10
37.82131303156534
 20
1.587500000000059
 30
0.0
 11
37.82131303156535
 21
-1.587499999999942
 31
0.0
  0
LINE
  5
F9
330
F2
100
AcDbEntity
  8
치수문자_일반주서
 62
     0
370
    -2
100
AcDbLine
 10
37.82131303156532
 20
4.889500000000059
 30
0.0
 11
37.82131303156531
 21
8.191500000000058
 31
0.0
  0
LINE
  5
FA
330
F2
100
AcDbEntity
  8
치수문자_일반주서
 62
     0
370
    -2
100
AcDbLine
 10
37.82131303156537
 20
-4.889499999999941
 30
0.0
 11
37.82131303156538
 21
-8.191499999999941
 31
0.0
  0
SOLID
  5
FB
330
F2
100
AcDbEntity
  8
치수문자_일반주서
 62
     0
100
AcDbTrace
 10
37.27097969823199
 20
4.889500000000056
 30
0.0
 11
38.37164636489866
 21
4.889500000000061
 31
0.0
 12
37.82131303156534
 22
1.587500000000059
 32
0.0
 13
37.82131303156534
 23
1.587500000000059
 33
0.0
  0
SOLID
  5
FC
330
F2
100
AcDbEntity
  8
치수문자_일반주서
 62
     0
100
AcDbTrace
 10
38.3716463648987
 20
-4.889499999999939
 30
0.0
 11
37.27097969823203
 21
-4.889499999999944
 31
0.0
 12
37.82131303156535
 22
-1.587499999999942
 32
0.0
 13
37.82131303156535
 23
-1.587499999999942
 33
0.0
  0
MTEXT
  5
FD
330
F2
100
AcDbEntity
  8
치수문자_일반주서
 62
     0
100
AcDbMText
 10
33.44631303156524
 20
23.17499999999999
 30
0.0
 40
3.5
 41
0.0
 71
     2
 72
     1
  1
\A1;%%c3.18 [1/8]
  7
SLDTEXTSTYLE0
 11
-4.475859752819529E-15
 21
1.0
 31
0.0
 73
     1
 44
1.0
  0
POINT
  5
FE
330
F2
100
AcDbEntity
  8
Defpoints
 62
     0
100
AcDbPoint
 10
22.70000000000007
 20
1.587500000000003
 30
0.0
  0
POINT
  5
FF
330
F2
100
AcDbEntity
  8
Defpoints
 62
     0
100
AcDbPoint
 10
22.69999999999993
 20
-1.587499999999997
 30
0.0
  0
POINT
  5
100
330
F2
100
AcDbEntity
  8
Defpoints
 62
     0
100
AcDbPoint
 10
37.82131303156535
 20
-1.587499999999941
 30
0.0
  0
ENDBLK
  5
F4
330
F2
100
AcDbEntity
  8
0
100
AcDbBlockEnd
  0
BLOCK
  5
108
330
107
100
AcDbEntity
  8
0
100
AcDbBlockBegin
  2
_D_2
 70
     0
 10
0.0
 20
0.0
 30
0.0
  3
_D_2
  1
_D_2
  0
LINE
  5
10A
330
107
100
AcDbEntity
  8
치수문자_일반주서
 62
     0
370
    -2
100
AcDbLine
 10
22.70000000000007
 20
1.650000000000003
 30
0.0
 11
22.70000000000007
 21
24.14312499999998
 31
0.0
  0
LINE
  5
10B
330
107
100
AcDbEntity
  8
치수문자_일반주서
 62
     0
370
    -2
100
AcDbLine
 10
10.00000000000007
 20
1.326916443934117
 30
0.0
 11
10.00000000000007
 21
24.14312499999998
 31
0.0
  0
LINE
  5
10C
330
107
100
AcDbEntity
  8
치수문자_일반주서
 62
     0
370
    -2
100
AcDbLine
 10
10.00000000000007
 20
24.14312499999998
 30
0.0
 11
-18.47899999999993
 21
24.14312499999998
 31
0.0
  0
LINE
  5
10D
330
107
100
AcDbEntity
  8
치수문자_일반주서
 62
     0
370
    -2
100
AcDbLine
 10
22.70000000000007
 20
24.14312499999998
 30
0.0
 11
10.00000000000007
 21
24.14312499999998
 31
0.0
  0
LINE
  5
10E
330
107
100
AcDbEntity
  8
치수문자_일반주서
 62
     0
370
    -2
100
AcDbLine
 10
26.00200000000007
 20
24.14312499999998
 30
0.0
 11
29.30400000000007
 21
24.14312499999998
 31
0.0
  0
LINE
  5
10F
330
107
100
AcDbEntity
  8
치수문자_일반주서
 62
     0
370
    -2
100
AcDbLine
 10
6.698000000000071
 20
24.14312499999998
 30
0.0
 11
3.396000000000072
 21
24.14312499999998
 31
0.0
  0
SOLID
  5
110
330
107
100
AcDbEntity
  8
치수문자_일반주서
 62
     0
100
AcDbTrace
 10
26.00200000000007
 20
24.69345833333331
 30
0.0
 11
26.00200000000007
 21
23.59279166666665
 31
0.0
 12
22.70000000000007
 22
24.14312499999998
 32
0.0
 13
22.70000000000007
 23
24.14312499999998
 33
0.0
  0
SOLID
  5
111
330
107
100
AcDbEntity
  8
치수문자_일반주서
 62
     0
100
AcDbTrace
 10
6.698000000000071
 20
23.59279166666665
 30
0.0
 11
6.698000000000071
 21
24.69345833333331
 31
0.0
 12
10.00000000000007
 22
24.14312499999998
 32
0.0
 13
10.00000000000007
 23
24.14312499999998
 33
0.0
  0
MTEXT
  5
112
330
107
100
AcDbEntity
  8
치수문자_일반주서
 62
     0
100
AcDbMText
 10
-7.541499999999927
 20
28.51812499999998
 30
0.0
 40
3.5
 41
0.0
 71
     2
 72
     1
  1
\A1;12.7 [1/2]
  7
SLDTEXTSTYLE0
 73
     1
 44
1.0
  0
POINT
  5
113
330
107
100
AcDbEntity
  8
Defpoints
 62
     0
100
AcDbPoint
 10
22.70000000000007
 20
1.587500000000003
 30
0.0
  0
POINT
  5
18D
330
107
100
AcDbEntity
  8
Defpoints
 62
     0
100
AcDbPoint
 10
10.00000000000007
 20
1.264416443934117
 30
0.0
  0
POINT
  5
18E
330
107
100
AcDbEntity
  8
Defpoints
 62
     0
100
AcDbPoint
 10
10.00000000000007
 20
24.14312499999998
 30
0.0
  0
ENDBLK
  5
109
330
107
100
AcDbEntity
  8
0
100
AcDbBlockEnd
  0
BLOCK
  5
11C
330
11B
100
AcDbEntity
  8
0
100
AcDbBlockBegin
  2
_D_3
 70
     0
 10
0.0
 20
0.0
 30
0.0
  3
_D_3
  1
_D_3
  0
LINE
  5
11E
330
11B
100
AcDbEntity
  8
치수문자_일반주서
 62
     0
370
    -2
100
AcDbLine
 10
22.70000000000007
 20
1.650000000000003
 30
0.0
 11
22.70000000000007
 21
38.96717844013394
 31
0.0
  0
LINE
  5
11F
330
11B
100
AcDbEntity
  8
치수문자_일반주서
 62
     0
370
    -2
100
AcDbLine
 10
-15.39999999999994
 20
1.219999999999998
 30
0.0
 11
-15.39999999999994
 21
38.96717844013394
 31
0.0
  0
LINE
  5
120
330
11B
100
AcDbEntity
  8
치수문자_일반주서
 62
     0
370
    -2
100
AcDbLine
 10
19.39800000000007
 20
38.96717844013394
 30
0.0
 11
-12.09799999999994
 21
38.96717844013394
 31
0.0
  0
SOLID
  5
121
330
11B
100
AcDbEntity
  8
치수문자_일반주서
 62
     0
100
AcDbTrace
 10
19.39800000000007
 20
38.4168451068006
 30
0.0
 11
19.39800000000007
 21
39.51751177346727
 31
0.0
 12
22.70000000000007
 22
38.96717844013394
 32
0.0
 13
22.70000000000007
 23
38.96717844013394
 33
0.0
  0
SOLID
  5
122
330
11B
100
AcDbEntity
  8
치수문자_일반주서
 62
     0
100
AcDbTrace
 10
-12.09799999999994
 20
39.51751177346727
 30
0.0
 11
-12.09799999999994
 21
38.4168451068006
 31
0.0
 12
-15.39999999999994
 22
38.96717844013394
 32
0.0
 13
-15.39999999999994
 23
38.96717844013394
 33
0.0
  0
MTEXT
  5
123
330
11B
100
AcDbEntity
  8
치수문자_일반주서
 62
     0
100
AcDbMText
 10
3.650000000000085
 20
43.34217844013394
 30
0.0
 40
3.5
 41
0.0
 71
     2
 72
     1
  1
\A1;38.1 [1 1/2]
  7
SLDTEXTSTYLE0
 73
     1
 44
1.0
  0
POINT
  5
124
330
11B
100
AcDbEntity
  8
Defpoints
 62
     0
100
AcDbPoint
 10
22.70000000000007
 20
1.587500000000003
 30
0.0
  0
POINT
  5
125
330
11B
100
AcDbEntity
  8
Defpoints
 62
     0
100
AcDbPoint
 10
-15.39999999999994
 20
1.157499999999998
 30
0.0
  0
POINT
  5
126
330
11B
100
AcDbEntity
  8
Defpoints
 62
     0
100
AcDbPoint
 10
-15.39999999999994
 20
38.96717844013394
 30
0.0
  0
ENDBLK
  5
11D
330
11B
100
AcDbEntity
  8
0
100
AcDbBlockEnd
  0
BLOCK
  5
135
330
134
100
AcDbEntity
  8
0
100
AcDbBlockBegin
  2
SW_DOWELSYMBOL_0
 70
     0
 10
0.0
 20
0.0
 30
0.0
  3
SW_DOWELSYMBOL_0
  1
SW_DOWELSYMBOL_0
  0
CIRCLE
  5
137
330
134
100
AcDbEntity
  8
해칭선
 62
     0
100
AcDbCircle
 10
0.0
 20
0.0
 30
0.0
 40
3.000000000000001
  0
HATCH
  5
138
330
134
100
AcDbEntity
  8
0
  6
Continuous
 62
     0
370
     0
100
AcDbHatch
 10
0.0
 20
0.0
 30
0.0
210
0.0
220
0.0
230
1.0
  2
SOLID
 70
     1
 71
     0
 91
        1
 92
        0
 93
        3
 72
     2
 10
0.0
 20
0.0
 40
3.000000000000001
 50
0.0
 51
90.0
 73
     1
 72
     1
 10
0.0
 20
3.000000000000001
 11
0.0
 21
0.0
 72
     1
 10
0.0
 20
0.0
 11
3.000000000000001
 21
0.0
 97
        0
 75
     0
 76
     1
 98
        1
 10
0.0
 20
0.0
  0
HATCH
  5
139
330
134
100
AcDbEntity
  8
0
  6
Continuous
 62
     0
370
     0
100
AcDbHatch
 10
0.0
 20
0.0
 30
0.0
210
0.0
220
0.0
230
1.0
  2
SOLID
 70
     1
 71
     0
 91
        1
 92
        0
 93
        3
 72
     2
 10
0.0
 20
0.0
 40
3.000000000000001
 50
180.0
 51
270.0000000000008
 73
     1
 72
     1
 10
0.0
 20
-3.000000000000001
 11
0.0
 21
0.0
 72
     1
 10
0.0
 20
0.0
 11
-3.000000000000001
 21
0.0
 97
        0
 75
     0
 76
     1
 98
        1
 10
0.0
 20
0.0
  0
ENDBLK
  5
136
330
134
100
AcDbEntity
  8
0
100
AcDbBlockEnd
  0
ENDSEC
  0
SECTION
  2
ENTITIES
  0
LINE
  5
96
330
1F
100
AcDbEntity
  8
외형선
  6
Continuous
370
    15
100
AcDbLine
 10
9.10990912015733
 20
1.587500000000001
 30
0.0
 11
-14.96999999999994
 21
1.5875
 31
0.0
  0
LINE
  5
97
330
1F
100
AcDbEntity
  8
외형선
  6
Continuous
370
    15
100
AcDbLine
 10
-14.96999999999994
 20
-1.5875
 30
0.0
 11
9.10990912015733
 21
-1.587499999999998
 31
0.0
  0
LINE
  5
98
330
1F
100
AcDbEntity
  8
외형선
  6
Continuous
370
    15
100
AcDbLine
 10
-14.96999999999994
 20
1.587499999999999
 30
0.0
 11
-15.39999999999994
 21
1.157499999999998
 31
0.0
  0
LINE
  5
99
330
1F
100
AcDbEntity
  8
외형선
  6
Continuous
370
    15
100
AcDbLine
 10
-15.39999999999994
 20
-1.157499999999998
 30
0.0
 11
-14.96999999999994
 21
-1.587499999999999
 31
0.0
  0
SPLINE
  5
9A
330
1F
100
AcDbEntity
  8
외형선
  6
Continuous
370
    15
100
AcDbSpline
210
0.0
220
0.0
230
1.0
 70
     8
 71
     3
 72
     9
 73
     5
 74
     0
 42
0.000000001
 43
0.00000001
 40
0.0
 40
0.0
 40
0.0
 40
0.0
 40
0.4980319532486959
 40
0.9999999999999999
 40
0.9999999999999999
 40
0.9999999999999999
 40
0.9999999999999999
 10
9.867150143307102
 20
0.4445814142988724
 30
0.0
 10
9.811600429691108
 20
0.4720491538581364
 30
0.0
 10
9.700061976678928
 20
0.5272017186285092
 30
0.0
 10
9.57299384146203
 20
0.5936960519239876
 30
0.0
 10
9.509209697822872
 20
0.6270740825283487
 30
0.0
  0
SPLINE
  5
9B
330
1F
100
AcDbEntity
  8
외형선
  6
Continuous
370
    15
100
AcDbSpline
210
0.0
220
0.0
230
1.0
 70
     8
 71
     3
 72
     9
 73
     5
 74
     0
 42
0.000000001
 43
0.00000001
 40
0.0
 40
0.0
 40
0.0
 40
0.0
 40
0.5000272020041101
 40
1.0
 40
1.0
 40
1.0
 40
1.0
 10
9.413263777571593
 20
1.260875321420175
 30
0.0
 10
9.36264440527876
 20
1.258343914391102
 30
0.0
 10
9.261411168186958
 20
1.253281375755348
 30
0.0
 10
9.16038478948683
 20
1.24971226718094
 30
0.0
 10
9.109874348256735
 20
1.247927809980641
 30
0.0
  0
LINE
  5
9C
330
1F
100
AcDbEntity
  8
외형선
  6
Continuous
370
    15
100
AcDbLine
 10
9.104461456475956
 20
-1.247448850268359
 30
0.0
 11
9.226713663237273
 21
-1.240014889378584
 31
0.0
  0
LINE
  5
9D
330
1F
100
AcDbEntity
  8
0
  6
Continuous
 62
     1
370
    15
100
AcDbLine
 10
18.16386069420733
 20
0.6186010626653584
 30
0.0
 11
18.14746621972835
 21
0.627054461280291
 31
0.0
  0
SPLINE
  5
9E
330
1F
100
AcDbEntity
  8
0
  6
Continuous
 62
     1
370
    15
100
AcDbSpline
210
0.0
220
0.0
230
1.0
 70
     8
 71
     3
 72
     9
 73
     5
 74
     0
 42
0.000000001
 43
0.00000001
 40
0.0
 40
0.0
 40
0.0
 40
0.0
 40
0.4576444466030238
 40
1.0
 40
1.0
 40
1.0
 40
1.0
 10
18.58645099431283
 20
0.406801403057098
 30
0.0
 10
18.52184589830917
 20
0.4376154448441173
 30
0.0
 10
18.38067714496103
 20
0.5049472829462595
 30
0.0
 10
18.24010226242103
 20
0.5786357262295097
 30
0.0
 10
18.16386069420733
 20
0.6186010626653584
 30
0.0
  0
LINE
  5
9F
330
1F
100
AcDbEntity
  8
0
  6
Continuous
 62
     1
370
    15
100
AcDbLine
 10
14.94417719388448
 20
1.587500000000003
 30
0.0
 11
14.17434003607431
 21
1.587500000000003
 31
0.0
  0
LINE
  5
A0
330
1F
100
AcDbEntity
  8
0
  6
Continuous
 62
     1
370
    15
100
AcDbLine
 10
14.17434003607432
 20
-1.5875
 30
0.0
 11
14.94417719388449
 21
-1.5875
 31
0.0
  0
SPLINE
  5
A1
330
1F
100
AcDbEntity
  8
0
  6
Continuous
 62
     1
370
    15
100
AcDbSpline
210
0.0
220
0.0
230
1.0
 70
     8
 71
     3
 72
    24
 73
    20
 74
     0
 42
0.000000001
 43
0.00000001
 40
0.0
 40
0.0
 40
0.0
 40
0.0
 40
0.071857990329735
 40
0.1298292276585652
 40
0.1973555893786891
 40
0.237943000367267
 40
0.2779868165780762
 40
0.319842151808283
 40
0.3658842877760524
 40
0.4155744684007863
 40
0.4682404367126843
 40
0.5232022659622817
 40
0.6048199819935569
 40
0.6746295593640098
 40
0.7406458594547911
 40
0.7752511280378253
 40
0.8239071284874826
 40
0.898833007907025
 40
1.0
 40
1.0
 40
1.0
 40
1.0
 10
15.67541845940397
 20
-1.321012143532036
 30
0.0
 10
15.73286691160575
 20
-1.315384669505052
 30
0.0
 10
15.83666174562924
 20
-1.30521724618526
 30
0.0
 10
15.99411908988461
 20
-1.291699815247979
 30
0.0
 10
16.126401124551
 20
-1.281530434690018
 30
0.0
 10
16.24299080507127
 20
-1.273519095373865
 30
0.0
 10
16.34036749843417
 20
-1.267382827448688
 30
0.0
 10
16.44227185405711
 20
-1.26158383715723
 30
0.0
 10
16.55178197286183
 20
-1.256070363068462
 30
0.0
 10
16.66983530011856
 20
-1.250967625812211
 30
0.0
 10
16.7949809959474
 20
-1.246587660013438
 30
0.0
 10
16.94560134148633
 20
-1.242626522181977
 30
0.0
 10
17.10991523435607
 20
-1.240088880626976
 30
0.0
 10
17.28295607426646
 20
-1.23948681882223
 30
0.0
 10
17.41879186430839
 20
-1.24049265413192
 30
0.0
 10
17.53667936717929
 20
-1.242315960181597
 30
0.0
 10
17.66219279194108
 20
-1.245111343981531
 30
0.0
 10
17.84127962610843
 20
-1.250671176888525
 30
0.0
 10
17.98198494948156
 20
-1.257541911578871
 30
0.0
 10
18.06282146611544
 20
-1.261489212546371
 30
0.0
  0
SPLINE
  5
A2
330
1F
100
AcDbEntity
  8
0
  6
Continuous
 62
     1
370
    15
100
AcDbSpline
210
0.0
220
0.0
230
1.0
 70
     8
 71
     3
 72
    15
 73
    11
 74
     0
 42
0.000000001
 43
0.00000001
 40
0.0
 40
0.0
 40
0.0
 40
0.0
 40
0.1550777086474339
 40
0.2655320431795304
 40
0.3689455383741598
 40
0.4963680405893024
 40
0.6254317632805928
 40
0.7465506782638326
 40
0.8530537294014411
 40
1.0
 40
1.0
 40
1.0
 40
1.0
 10
18.06282146611544
 20
1.261489212546374
 30
0.0
 10
17.99614313949732
 20
1.258167005959988
 30
0.0
 10
17.8819730730376
 20
1.252478552664916
 30
0.0
 10
17.72046471565731
 20
1.246834565248053
 30
0.0
 10
17.57033946985096
 20
1.24285544030092
 30
0.0
 10
17.41388258931097
 20
1.240288198740227
 30
0.0
 10
17.24879501401588
 20
1.239447890212455
 30
0.0
 10
17.09184039323232
 20
1.240373204217426
 30
0.0
 10
16.92982558759634
 20
1.242837286939833
 30
0.0
 10
16.82011914602972
 20
1.24622267917993
 30
0.0
 10
16.75651292945583
 20
1.24818548089819
 30
0.0
  0
SPLINE
  5
A3
330
1F
100
AcDbEntity
  8
0
  6
Continuous
 62
     1
370
    15
100
AcDbSpline
210
0.0
220
0.0
230
1.0
 70
     8
 71
     3
 72
    16
 73
    12
 74
     0
 42
0.000000001
 43
0.00000001
 40
0.0
 40
0.0
 40
0.0
 40
0.0
 40
0.1691892376261196
 40
0.2942451573843129
 40
0.3810582382993907
 40
0.4808367488675935
 40
0.6029082766374041
 40
0.7182315833106068
 40
0.8608305704473697
 40
0.9845668976666466
 40
1.0
 40
1.0
 40
1.0
 40
1.0
 10
19.33632570480942
 20
-1.194013977057274
 30
0.0
 10
19.40265428340585
 20
-1.183836603407505
 30
0.0
 10
19.51800951120888
 20
-1.166136642385439
 30
0.0
 10
19.66782552649551
 20
-1.145832894899988
 30
0.0
 10
19.79202879704927
 20
-1.130148167692162
 30
0.0
 10
19.91445672158519
 20
-1.115769698886538
 30
0.0
 10
20.04754593968185
 20
-1.101542014467211
 30
0.0
 10
20.19716008760857
 20
-1.087195237710787
 30
0.0
 10
20.34781948581677
 20
-1.075116386428525
 30
0.0
 10
20.45846300533657
 20
-1.067238595010547
 30
0.0
 10
20.51326037085117
 20
-1.064322873048025
 30
0.0
 10
20.51933708864978
 20
-1.063999535979189
 30
0.0
  0
SPLINE
  5
A4
330
1F
100
AcDbEntity
  8
0
  6
Continuous
 62
     1
370
    15
100
AcDbSpline
210
0.0
220
0.0
230
1.0
 70
     8
 71
     3
 72
    26
 73
    22
 74
     0
 42
0.000000001
 43
0.00000001
 40
0.0
 40
0.0
 40
0.0
 40
0.0
 40
0.0708760190579198
 40
0.1250137622016992
 40
0.1715619737425928
 40
0.1998245292722004
 40
0.2301449706927395
 40
0.2631893201213867
 40
0.2990440248635609
 40
0.3377194829159181
 40
0.401596835182467
 40
0.4550722501105069
 40
0.4998078247999698
 40
0.5589367573941704
 40
0.6361238661856048
 40
0.7154112912096867
 40
0.812910287653267
 40
0.836403341484325
 40
0.8747333676116321
 40
0.9293973273392795
 40
1.0
 40
1.0
 40
1.0
 40
1.0
 10
13.47126792193832
 20
1.08577031076788
 30
0.0
 10
13.40527145812855
 20
1.080419277285759
 30
0.0
 10
13.28886443721327
 20
1.070980925129995
 30
0.0
 10
13.12996991264714
 20
1.06120293742039
 30
0.0
 10
13.01077462064175
 20
1.055339259814371
 30
0.0
 10
12.91480952083345
 20
1.051561461839196
 30
0.0
 10
12.83042580270676
 20
1.048848231058656
 30
0.0
 10
12.7387706269723
 20
1.046641463936317
 30
0.0
 10
12.63905245386884
 20
1.04511324119754
 30
0.0
 10
12.5104982056492
 20
1.044367390849643
 30
0.0
 10
12.36503909837356
 20
1.045436299667248
 30
0.0
 10
12.21551321876768
 20
1.048883094292051
 30
0.0
 10
12.07219704735202
 20
1.053940148742731
 30
0.0
 10
11.90450582937085
 20
1.061994524240181
 30
0.0
 10
11.70525420635387
 20
1.074951979220355
 30
0.0
 10
11.47049560697134
 20
1.094855291275516
 30
0.0
 10
11.28542524509862
 20
1.114575633067553
 30
0.0
 10
11.13955965392641
 20
1.131942315341157
 30
0.0
 10
11.03173566933789
 20
1.145547200697389
 30
0.0
 10
10.88008100706794
 20
1.166086431940452
 30
0.0
 10
10.76363019548031
 20
1.183958371659625
 30
0.0
 10
10.69799628823112
 20
1.194031339103125
 30
0.0
  0
SPLINE
  5
A5
330
1F
100
AcDbEntity
  8
0
  6
Continuous
 62
     1
370
    15
100
AcDbSpline
210
0.0
220
0.0
230
1.0
 70
     8
 71
     3
 72
    17
 73
    13
 74
     0
 42
0.000000001
 43
0.00000001
 40
0.0
 40
0.0
 40
0.0
 40
0.0
 40
0.1658157269141007
 40
0.2941981786918246
 40
0.4041027452744005
 40
0.4706911091858288
 40
0.5420543859914906
 40
0.6196551197564315
 40
0.7033316183201518
 40
0.7938136238529697
 40
0.9442438663724052
 40
1.0
 40
1.0
 40
1.0
 40
1.0
 10
10.69799628823112
 20
-1.194031339103122
 30
0.0
 10
10.76362734411881
 20
-1.183959149115552
 30
0.0
 10
10.88007309668473
 20
-1.166088588795805
 30
0.0
 10
11.03960602670274
 20
-1.144478248395846
 30
0.0
 10
11.15966766922822
 20
-1.129442529084228
 30
0.0
 10
11.2561534110882
 20
-1.118181717349548
 30
0.0
 10
11.34069169662907
 20
-1.108841365950156
 30
0.0
 10
11.43220886381922
 20
-1.099381649860915
 30
0.0
 10
11.53125959081165
 20
-1.089892918744013
 30
0.0
 10
11.65899582852297
 20
-1.078968058320507
 30
0.0
 10
11.77578061922663
 20
-1.070122305058757
 30
0.0
 10
11.85695586308259
 20
-1.065513520775639
 30
0.0
 10
11.87890696299648
 20
-1.064267230903572
 30
0.0
  0
SPLINE
  5
A6
330
1F
100
AcDbEntity
  8
0
  6
Continuous
 62
     1
370
    15
100
AcDbSpline
210
0.0
220
0.0
230
1.0
 70
     8
 71
     3
 72
    25
 73
    21
 74
     0
 42
0.000000001
 43
0.00000001
 40
0.0
 40
0.0
 40
0.0
 40
0.0
 40
0.0756145655778323
 40
0.1288653171967444
 40
0.1639583840859415
 40
0.2054111969921485
 40
0.2575653851134077
 40
0.3079106095588087
 40
0.3718322435291272
 40
0.4254503528983269
 40
0.4789506606457372
 40
0.551992032161221
 40
0.6362062203409897
 40
0.7103892191203746
 40
0.73999129919514
 40
0.7674020132709553
 40
0.7952913532818864
 40
0.8417131367824868
 40
0.9101455307830595
 40
1.0
 40
1.0
 40
1.0
 40
1.0
 10
22.10954144439251
 20
1.08577495002314
 30
0.0
 10
22.03987419500494
 20
1.08014370203554
 30
0.0
 10
21.92114452801622
 20
1.070546707692055
 30
0.0
 10
21.77029704779612
 20
1.061390222074674
 30
0.0
 10
21.64928408960595
 20
1.055353721692478
 30
0.0
 10
21.52980554335895
 20
1.050594456779097
 30
0.0
 10
21.39663987964375
 20
1.04687553267893
 30
0.0
 10
21.24282079629357
 20
1.044585712769033
 30
0.0
 10
21.08764671266367
 20
1.044533327222658
 30
0.0
 10
20.9296912069751
 20
1.04690017613607
 30
0.0
 10
20.76310940838355
 20
1.051695637627529
 30
0.0
 10
20.56837392745032
 20
1.060390426860914
 30
0.0
 10
20.35248597677319
 20
1.074237777332115
 30
0.0
 10
20.17804031323944
 20
1.08894250298187
 30
0.0
 10
20.05884784167755
 20
1.10058101074002
 30
0.0
 10
19.98135602881927
 20
1.108608110349759
 30
0.0
 10
19.88832027624924
 20
1.118801354551526
 30
0.0
 10
19.75642167642705
 20
1.13437220957567
 30
0.0
 10
19.56684552555962
 20
1.158916752567615
 30
0.0
 10
19.41979924762585
 20
1.181304919494933
 30
0.0
 10
19.33632570480942
 20
1.194013977057277
 30
0.0
  0
SPLINE
  5
A7
330
1F
100
AcDbEntity
  8
외형선
  6
Continuous
370
    15
100
AcDbSpline
210
0.0
220
0.0
230
1.0
 70
     8
 71
     3
 72
    12
 73
     8
 74
     0
 42
0.000000001
 43
0.00000001
 40
0.0
 40
0.0
 40
0.0
 40
0.0
 40
0.25
 40
0.25
 40
0.5
 40
0.5
 40
1.0
 40
1.0
 40
1.0
 40
1.0
 10
9.405686777824037
 20
-1.260453259042389
 30
0.0
 10
9.344343146728084
 20
-1.256997915332667
 30
0.0
 10
9.300956828775721
 20
-1.252739237651805
 30
0.0
 10
9.230324431455635
 20
-1.240650817712594
 30
0.0
 10
9.20302639397038
 20
-1.233090641430369
 30
0.0
 10
9.13647967121235
 20
-1.208035421913382
 30
0.0
 10
9.10990912015732
 20
-1.186844352158756
 30
0.0
 10
9.109909120157319
 20
-1.171695051288551
 30
0.0
  0
LINE
  5
A8
330
1F
100
AcDbEntity
  8
외형선
  6
Continuous
370
    15
100
AcDbLine
 10
9.109909120160106
 20
0.4249195227667518
 30
0.0
 11
9.11508928360564
 21
0.418158250851192
 31
0.0
  0
SPLINE
  5
A9
330
1F
100
AcDbEntity
  8
외형선
  6
Continuous
370
    15
100
AcDbSpline
210
0.0
220
0.0
230
1.0
 70
     8
 71
     3
 72
    14
 73
    10
 74
     0
 42
0.000000001
 43
0.00000001
 40
0.0
 40
0.0
 40
0.0
 40
0.0
 40
0.2499999999999999
 40
0.2499999999999999
 40
0.4999999999999998
 40
0.4999999999999998
 40
0.7499999999999999
 40
0.7499999999999999
 40
1.0
 40
1.0
 40
1.0
 40
1.0
 10
9.123219198157136
 20
0.4075468939874753
 30
0.0
 10
9.135621048403468
 20
0.3925044115278706
 30
0.0
 10
9.154920756923314
 20
0.3699018900826811
 30
0.0
 10
9.201527842511542
 20
0.3183877005103233
 30
0.0
 10
9.22839666189894
 20
0.2898941423485122
 30
0.0
 10
9.290002275920127
 20
0.2309399740916704
 30
0.0
 10
9.323813618359726
 20
0.2013188550811061
 30
0.0
 10
9.400163240103732
 20
0.1463137239955992
 30
0.0
 10
9.443292820970825
 20
0.1209764086137064
 30
0.0
 10
9.48985273808709
 20
0.1022768871165238
 30
0.0
  0
SPLINE
  5
AA
330
1F
100
AcDbEntity
  8
외형선
  6
Continuous
370
    15
100
AcDbSpline
210
0.0
220
0.0
230
1.0
 70
     8
 71
     3
 72
    10
 73
     6
 74
     0
 42
0.000000001
 43
0.00000001
 40
0.0
 40
0.0
 40
0.0
 40
0.0
 40
0.5
 40
0.5
 40
1.0
 40
1.0
 40
1.0
 40
1.0
 10
9.10990912015733
 20
0.4249771815671144
 30
0.0
 10
9.258571947627026
 20
0.3424001969148791
 30
0.0
 10
9.408552942059908
 20
0.2577118062117907
 30
0.0
 10
9.705283118951442
 20
0.0874311590184237
 30
0.0
 10
9.851192235458985
 20
0.0020097880603281
 30
0.0
 10
10.00000000000997
 20
-0.0836041339793131
 30
0.0
  0
SPLINE
  5
AB
330
1F
100
AcDbEntity
  8
외형선
  6
Continuous
370
    15
100
AcDbSpline
210
0.0
220
0.0
230
1.0
 70
     8
 71
     3
 72
     8
 73
     4
 74
     0
 42
0.000000001
 43
0.00000001
 40
0.0
 40
0.0
 40
0.0
 40
0.0
 40
1.0
 40
1.0
 40
1.0
 40
1.0
 10
10.0000000000001
 20
-0.1040884358926762
 30
0.0
 10
9.828803719697458
 20
-0.0353498373726397
 30
0.0
 10
9.661022045578324
 20
0.033531400798382
 30
0.0
 10
9.489852738085677
 20
0.1022768871170924
 30
0.0
  0
LINE
  5
AC
330
1F
100
AcDbEntity
  8
외형선
  6
Continuous
370
    15
100
AcDbLine
 10
9.10990912015733
 20
0.8309875311806565
 30
0.0
 11
9.10990912015733
 21
1.587500000000001
 31
0.0
  0
SPLINE
  5
AD
330
1F
100
AcDbEntity
  8
외형선
  6
Continuous
370
    15
100
AcDbSpline
210
0.0
220
0.0
230
1.0
 70
     8
 71
     3
 72
    10
 73
     6
 74
     0
 42
0.000000001
 43
0.00000001
 40
0.0
 40
0.0
 40
0.0
 40
0.0
 40
0.5000000000000001
 40
0.5000000000000001
 40
1.0
 40
1.0
 40
1.0
 40
1.0
 10
10.00000000000922
 20
0.3574761456881392
 30
0.0
 10
9.851176346989103
 20
0.4410160604576648
 30
0.0
 10
9.705251780524843
 20
0.522458142138468
 30
0.0
 10
9.4084892331519
 20
0.6809890196254947
 30
0.0
 10
9.258492020347079
 20
0.7578947306296049
 30
0.0
 10
9.109813882373064
 20
0.8309295603734524
 30
0.0
  0
LINE
  5
AE
330
1F
100
AcDbEntity
  8
외형선
  6
Continuous
370
    15
100
AcDbLine
 10
10.00000000000007
 20
0.3574761456932748
 30
0.0
 11
10.00000000000007
 21
-0.0836041339736717
 31
0.0
  0
LINE
  5
AF
330
1F
100
AcDbEntity
  8
외형선
  6
Continuous
370
    15
100
AcDbLine
 10
-14.96999999999994
 20
1.587499999999999
 30
0.0
 11
-14.96999999999994
 21
-1.5875
 31
0.0
  0
LINE
  5
B0
330
1F
100
AcDbEntity
  8
외형선
  6
Continuous
370
    15
100
AcDbLine
 10
9.10990912015733
 20
-1.587499999999998
 30
0.0
 11
9.10990912015733
 21
0.4254997147976559
 31
0.0
  0
LINE
  5
B1
330
1F
100
AcDbEntity
  8
외형선
  6
Continuous
370
    15
100
AcDbLine
 10
-15.39999999999994
 20
1.157499999999998
 30
0.0
 11
-15.39999999999994
 21
-1.157499999999998
 31
0.0
  0
LINE
  5
B2
330
1F
100
AcDbEntity
  8
외형선
  6
Continuous
370
    15
100
AcDbLine
 10
10.00000000000009
 20
0.3825429610750816
 30
0.0
 11
9.85505568549431
 21
0.449025470292538
 31
0.0
  0
SPLINE
  5
B3
330
1F
100
AcDbEntity
  8
외형선
  6
Continuous
370
    15
100
AcDbSpline
210
0.0
220
0.0
230
1.0
 70
     8
 71
     3
 72
     9
 73
     5
 74
     0
 42
0.000000001
 43
0.00000001
 40
0.0
 40
0.0
 40
0.0
 40
0.0
 40
0.7545443983716228
 40
1.0
 40
1.0
 40
1.0
 40
1.0
 10
10.00000000000007
 20
1.264416443934117
 30
0.0
 10
9.85235787116811
 20
1.269445234927553
 30
0.0
 10
9.656687306055456
 20
1.276109907018803
 30
0.0
 10
9.46071299451993
 20
1.260956862279524
 30
0.0
 10
9.412610001978269
 20
1.257237462566543
 30
0.0
  0
SPLINE
  5
B4
330
1F
100
AcDbEntity
  8
외형선
  6
Continuous
370
    15
100
AcDbSpline
210
0.0
220
0.0
230
1.0
 70
    24
 71
     3
 72
    13
 73
     9
 74
     0
 42
0.000000001
 43
0.00000001
 40
0.0
 40
0.0
 40
0.0
 40
0.0
 40
0.1337839645169944
 40
0.2693371325610665
 40
0.464781576700809
 40
0.665893922960951
 40
0.84139256160397
 40
1.0
 40
1.0
 40
1.0
 40
1.0
 10
10.00000000000006
 20
1.264416443934118
 30
0.0
 10
10.00000000000006
 20
1.248503566978487
 30
0.0
 10
10.00000000000007
 20
1.216467375903566
 30
0.0
 10
10.00000000000007
 20
1.129402318594998
 30
0.0
 10
10.00000000000007
 20
0.9982560549462367
 30
0.0
 10
10.00000000000007
 20
0.816529222401285
 30
0.0
 10
10.00000000000007
 20
0.6183055772990041
 30
0.0
 10
10.00000000000007
 20
0.4761962296799462
 30
0.0
 10
10.00000000000007
 20
0.4087338243332893
 30
0.0
  0
SPLINE
  5
B5
330
1F
100
AcDbEntity
  8
외형선
  6
Continuous
370
    15
100
AcDbSpline
210
0.0
220
0.0
230
1.0
 70
     8
 71
     3
 72
     8
 73
     4
 74
     0
 42
0.000000001
 43
0.00000001
 40
0.0
 40
0.0
 40
0.0
 40
0.0
 40
1.0
 40
1.0
 40
1.0
 40
1.0
 10
10.00000000000011
 20
-1.264416443934112
 30
0.0
 10
9.800779146778186
 20
-1.273017214964433
 30
0.0
 10
9.605329861778845
 20
-1.271698688470161
 30
0.0
 10
9.405686777824037
 20
-1.260453259042389
 30
0.0
  0
SPLINE
  5
B6
330
1F
100
AcDbEntity
  8
외형선
  6
Continuous
370
    15
100
AcDbSpline
210
0.0
220
0.0
230
1.0
 70
    24
 71
     3
 72
    10
 73
     6
 74
     0
 42
0.000000001
 43
0.00000001
 40
0.0
 40
0.0
 40
0.0
 40
0.0
 40
0.5
 40
0.5
 40
1.0
 40
1.0
 40
1.0
 40
1.0
 10
10.0
 20
-0.1040884358926381
 30
0.0
 10
10.0
 20
-0.3720797519980482
 30
0.0
 10
10.0
 20
-0.6358683564110034
 30
0.0
 10
10.0
 20
-1.048315837558016
 30
0.0
 10
10.0
 20
-1.193779035633427
 30
0.0
 10
10.0
 20
-1.264416443934117
 30
0.0
  0
SPLINE
  5
B7
330
1F
100
AcDbEntity
  8
0
  6
Continuous
 62
     1
370
    15
100
AcDbSpline
210
0.0
220
0.0
230
1.0
 70
     8
 71
     3
 72
    32
 73
    28
 74
     0
 42
0.000000001
 43
0.00000001
 40
0.0
 40
0.0
 40
0.0
 40
0.0
 40
0.003948385371941
 40
0.0462344283896157
 40
0.0888138009172561
 40
0.1310890789532889
 40
0.1736573646963649
 40
0.2159135843564482
 40
0.25846251775942
 40
0.3006904153626107
 40
0.3432107343728935
 40
0.3854000616948886
 40
0.4278814780907743
 40
0.4700209012855396
 40
0.5124519836198588
 40
0.5545291210940508
 40
0.5968973215986131
 40
0.6389114325732811
 40
0.6812160317121397
 40
0.7232302989028732
 40
0.7655355260212672
 40
0.8075495284051476
 40
0.8498539134621576
 40
0.8868860337148216
 40
0.9241161238158443
 40
0.9619522864505375
 40
0.9999999999999999
 40
0.9999999999999999
 40
0.9999999999999999
 40
0.9999999999999999
 10
11.87906440264799
 20
1.064338534212178
 30
0.0
 10
11.89330670576591
 20
1.070822956155691
 30
0.0
 10
12.06007987544886
 20
1.146753624961713
 30
0.0
 10
12.38019225897519
 20
1.265488135322791
 30
0.0
 10
12.83926679805314
 20
1.410663414549008
 30
0.0
 10
13.29825381444354
 20
1.514643927800329
 30
0.0
 10
13.75746845203631
 20
1.576464988212354
 30
0.0
 10
14.21604969857887
 20
1.594669933331362
 30
0.0
 10
14.67519938451973
 20
1.568748609713216
 30
0.0
 10
15.13339669441082
 20
1.498549974255919
 30
0.0
 10
15.59225190083871
 20
1.388169462356195
 30
0.0
 10
16.05007717527199
 20
1.237456875241183
 30
0.0
 10
16.50840071903179
 20
1.054928239026096
 30
0.0
 10
16.9658492767777
 20
0.8406872416774964
 30
0.0
 10
17.42339857235093
 20
0.6061100992948064
 30
0.0
 10
17.88044685899911
 20
0.3523624927845968
 30
0.0
 10
18.33702225776994
 20
0.0914028413890628
 30
0.0
 10
18.7937174564957
 20
-0.1736893095207381
 30
0.0
 10
19.24945022935255
 20
-0.4327579746123084
 30
0.0
 10
19.7063165778074
 20
-0.6804022707790248
 30
0.0
 10
20.16166811670904
 20
-0.9094864218030166
 30
0.0
 10
20.61888914134269
 20
-1.112993607928026
 30
0.0
 10
21.05601346331873
 20
-1.279913283097496
 30
0.0
 10
21.47700492071217
 20
-1.408603126889985
 30
0.0
 10
21.88089589961629
 20
-1.502345558785296
 30
0.0
 10
22.28914870691966
 20
-1.566103426486919
 30
0.0
 10
22.56279527612051
 20
-1.579460908842245
 30
0.0
 10
22.69999999999993
 20
-1.587499999999997
 30
0.0
  0
SPLINE
  5
B8
330
1F
100
AcDbEntity
  8
0
  6
Continuous
 62
     1
370
    15
100
AcDbSpline
210
0.0
220
0.0
230
1.0
 70
     8
 71
     3
 72
    18
 73
    14
 74
     0
 42
0.000000001
 43
0.00000001
 40
0.0
 40
0.0
 40
0.0
 40
0.0
 40
0.0038528234341815
 40
0.1107134062528066
 40
0.2181308293234815
 40
0.3251603768575406
 40
0.4320466802039356
 40
0.5394905646256613
 40
0.6464665683508164
 40
0.7533871445497281
 40
0.8608412682055518
 40
0.9677722330245625
 40
0.9999999999999999
 40
0.9999999999999999
 40
0.9999999999999999
 40
0.9999999999999999
 10
18.75640876279125
 20
-0.1512536597726733
 30
0.0
 10
18.74961993450155
 20
-0.1485896580969553
 30
0.0
 10
18.5545385046727
 20
-0.072037824144413
 30
0.0
 10
18.17043975489356
 20
0.0868818922536846
 30
0.0
 10
17.60390661568855
 20
0.3114443792454327
 30
0.0
 10
17.03779413186102
 20
0.5251081487073372
 30
0.0
 10
16.47179240606192
 20
0.7164953127421343
 30
0.0
 10
15.90525965568846
 20
0.8766061553441779
 30
0.0
 10
15.3391876056191
 20
1.00037370871383
 30
0.0
 10
14.77316695879374
 20
1.082570693555246
 30
0.0
 10
14.20660868040956
 20
1.115433320269519
 30
0.0
 10
13.77225865928137
 20
1.11421446706903
 30
0.0
 10
13.52708133161872
 20
1.087094627364194
 30
0.0
 10
13.47030072086089
 20
1.080813944412083
 30
0.0
  0
SPLINE
  5
B9
330
1F
100
AcDbEntity
  8
0
  6
Continuous
 62
     1
370
    15
100
AcDbSpline
210
0.0
220
0.0
230
1.0
 70
     8
 71
     3
 72
    19
 73
    15
 74
     0
 42
0.000000001
 43
0.00000001
 40
0.0
 40
0.0
 40
0.0
 40
0.0
 40
0.0877175174905441
 40
0.1752553343944321
 40
0.2627470094759163
 40
0.3503270702020598
 40
0.4380975289760228
 40
0.5257443037522438
 40
0.613253109120179
 40
0.7007581126243501
 40
0.7883935616603746
 40
0.8761683827355038
 40
0.9637574210492708
 40
1.0
 40
1.0
 40
1.0
 40
1.0
 10
22.70000000000007
 20
-1.50644362990564
 30
0.0
 10
22.47314771487203
 20
-1.456295373391598
 30
0.0
 10
22.01990788062181
 20
-1.356101595499816
 30
0.0
 10
21.3408104494547
 20
-1.098674137648193
 30
0.0
 10
20.6620948020373
 20
-0.781127474843797
 30
0.0
 10
19.98269221666729
 20
-0.4141747031068868
 30
0.0
 10
19.30237948662379
 20
-0.0231433945968056
 30
0.0
 10
18.62260690421646
 20
0.3698819911181706
 30
0.0
 10
17.9437521926247
 20
0.7405072732157013
 30
0.0
 10
17.26492914356667
 20
1.065717767996446
 30
0.0
 10
16.58521276666632
 20
1.32771914548549
 30
0.0
 10
15.90488410065191
 20
1.502990173434178
 30
0.0
 10
15.35789647899772
 20
1.588330951037642
 30
0.0
 10
15.03784784292523
 20
1.57861219057291
 30
0.0
 10
14.94417719388448
 20
1.575767739767637
 30
0.0
  0
SPLINE
  5
BA
330
1F
100
AcDbEntity
  8
0
  6
Continuous
 62
     1
370
    15
100
AcDbSpline
210
0.0
220
0.0
230
1.0
 70
     8
 71
     3
 72
    15
 73
    11
 74
     0
 42
0.000000001
 43
0.00000001
 40
0.0
 40
0.0
 40
0.0
 40
0.0
 40
0.1375042219243555
 40
0.2745083464284012
 40
0.4121049201800441
 40
0.5495120270373621
 40
0.6865267105828715
 40
0.8241957580497162
 40
0.961516100454288
 40
1.0
 40
1.0
 40
1.0
 40
1.0
 10
22.70000000000006
 20
-1.252493469684542
 30
0.0
 10
22.51097428066092
 20
-1.212934150551311
 30
0.0
 10
22.13361032105268
 20
-1.133959387964964
 30
0.0
 10
21.56774523708161
 20
-0.9525061051748339
 30
0.0
 10
21.00124710950839
 20
-0.7356273083850018
 30
0.0
 10
20.43497116647162
 20
-0.4865042558671305
 30
0.0
 10
19.86910967008732
 20
-0.2156161314197363
 30
0.0
 10
19.30251894749951
 20
0.0612889832351268
 30
0.0
 10
18.87179032348635
 20
0.2747710881007402
 30
0.0
 10
18.63028739575727
 20
0.3852261929530464
 30
0.0
 10
18.57742192273103
 20
0.4094050359223151
 30
0.0
  0
LINE
  5
BB
330
1F
100
AcDbEntity
  8
0
  6
Continuous
 62
     1
370
    15
100
AcDbLine
 10
22.69999999999999
 20
-1.506443629905641
 30
0.0
 11
22.70000000000006
 21
-1.252493469684542
 31
0.0
  0
SPLINE
  5
BC
330
1F
100
AcDbEntity
  8
0
  6
Continuous
 62
     1
370
    15
100
AcDbSpline
210
0.0
220
0.0
230
1.0
 70
     8
 71
     3
 72
    18
 73
    14
 74
     0
 42
0.000000001
 43
0.00000001
 40
0.0
 40
0.0
 40
0.0
 40
0.0
 40
0.0253389166648753
 40
0.1260925829606627
 40
0.2266329956819907
 40
0.3270632686914829
 40
0.4275377873370053
 40
0.5282100079494662
 40
0.628912907881025
 40
0.7215779621414308
 40
0.8142140363755848
 40
0.9071431472155254
 40
1.0
 40
1.0
 40
1.0
 40
1.0
 10
16.756725707888
 20
-1.248104674569382
 30
0.0
 10
16.69965557252067
 20
-1.270357012311791
 30
0.0
 10
16.41566076431499
 20
-1.381090031405024
 30
0.0
 10
15.90486645482423
 20
-1.502947026845787
 30
0.0
 10
15.22542806939056
 20
-1.596326274547229
 30
0.0
 10
14.54669704523809
 20
-1.586717393918864
 30
0.0
 10
13.86764976488493
 20
-1.482245060972087
 30
0.0
 10
13.18762728760746
 20
-1.287367426578646
 30
0.0
 10
12.52506502385995
 20
-1.021669037971721
 30
0.0
 10
11.88121267781022
 20
-0.7063640474198795
 30
0.0
 10
11.25495310972691
 20
-0.3631769389403749
 30
0.0
 10
10.62756506563193
 20
-0.0008025240543038
 30
0.0
 10
10.20913410818895
 20
0.2380808922221487
 30
0.0
 10
10.00000000000467
 20
0.3574761456906937
 30
0.0
  0
SPLINE
  5
BD
330
1F
100
AcDbEntity
  8
0
  6
Continuous
 62
     1
370
    15
100
AcDbSpline
210
0.0
220
0.0
230
1.0
 70
     8
 71
     3
 72
    18
 73
    14
 74
     0
 42
0.000000001
 43
0.00000001
 40
0.0
 40
0.0
 40
0.0
 40
0.0
 40
0.0594964161923017
 40
0.1590665016524683
 40
0.2591138562967714
 40
0.3586933395986657
 40
0.4583016858698756
 40
0.5583437093528424
 40
0.6578905367771437
 40
0.7575447523848925
 40
0.8575669409688521
 40
0.9284799571339778
 40
1.0
 40
1.0
 40
1.0
 40
1.0
 10
15.67675316389472
 20
-1.314036583320338
 30
0.0
 10
15.56418237948856
 20
-1.326076233443138
 30
0.0
 10
15.26321902724419
 20
-1.358264811322579
 30
0.0
 10
14.77320925200752
 20
-1.347115395969147
 30
0.0
 10
14.20649791482094
 20
-1.286836839860826
 30
0.0
 10
13.64054488914236
 20
-1.16935002086233
 30
0.0
 10
13.0745434837974
 20
-1.0028683534579
 30
0.0
 10
12.50786064496372
 20
-0.7950118820635653
 30
0.0
 10
11.94193211091723
 20
-0.5522887225655898
 30
0.0
 10
11.37592256919833
 20
-0.2862677955654948
 30
0.0
 10
10.86325161187314
 20
-0.0365627289379667
 30
0.0
 10
10.40520871706441
 20
0.1904680017633431
 30
0.0
 10
10.13545279108912
 20
0.3183363232574754
 30
0.0
 10
10.00000000000009
 20
0.3825429610750816
 30
0.0
  0
LINE
  5
BE
330
1F
100
AcDbEntity
  8
0
  6
Continuous
 62
     1
370
    15
100
AcDbLine
 10
22.70000000000006
 20
-1.586158269177059
 30
0.0
 11
22.70000000000026
 21
-1.506443629905636
 31
0.0
  0
SPLINE
  5
BF
330
1F
100
AcDbEntity
  8
0
  6
Continuous
 62
     1
370
    15
100
AcDbSpline
210
0.0
220
0.0
230
1.0
 70
     8
 71
     3
 72
    17
 73
    13
 74
     0
 42
0.000000001
 43
0.00000001
 40
0.0
 40
0.0
 40
0.0
 40
0.0
 40
0.1195885611756683
 40
0.179831152365918
 40
0.2402004851912637
 40
0.3498947787433729
 40
0.4603518431811626
 40
0.5699674565047402
 40
0.6803434506028293
 40
0.7899311584999146
 40
0.90027841298079
 40
1.0
 40
1.0
 40
1.0
 40
1.0
 10
10.00000000000007
 20
-0.0836041339736145
 30
0.0
 10
10.1666585318588
 20
-0.1789117786441407
 30
0.0
 10
10.4172710949763
 20
-0.3222305325607935
 30
0.0
 10
10.7506763959878
 20
-0.5090093479225505
 30
0.0
 10
11.0714754634345
 20
-0.6808935286613115
 30
0.0
 10
11.46172218117933
 20
-0.8795155008360949
 30
0.0
 10
11.92068480906128
 20
-1.088189162174791
 30
0.0
 10
12.38020544920042
 20
-1.267296137286143
 30
0.0
 10
12.83925856214143
 20
-1.410344452705923
 30
0.0
 10
13.29827352797758
 20
-1.514125851947704
 30
0.0
 10
13.74371780114938
 20
-1.576942396987231
 30
0.0
 10
14.03572267182028
 20
-1.582884601538026
 30
0.0
 10
14.17434003607431
 20
-1.585705420008612
 30
0.0
  0
SPLINE
  5
C0
330
1F
100
AcDbEntity
  8
0
  6
Continuous
 62
     1
370
    15
100
AcDbSpline
210
0.0
220
0.0
230
1.0
 70
     8
 71
     3
 72
    13
 73
     9
 74
     0
 42
0.000000001
 43
0.00000001
 40
0.0
 40
0.0
 40
0.0
 40
0.0
 40
0.0447629491641622
 40
0.2547427724630874
 40
0.4385534591462734
 40
0.623346778568852
 40
0.811148367780839
 40
1.0
 40
1.0
 40
1.0
 40
1.0
 10
20.5200346861497
 20
1.064309431647196
 30
0.0
 10
20.55257978946453
 20
1.078924774303812
 30
0.0
 10
20.7377916667721
 20
1.162099653938979
 30
0.0
 10
21.05599717621624
 20
1.278617597749281
 30
0.0
 10
21.47700905811303
 20
1.408932268901009
 30
0.0
 10
21.88089477391814
 20
1.502256006294444
 30
0.0
 10
22.2891489920829
 20
1.566126112033874
 30
0.0
 10
22.56279537135142
 20
1.579468484732254
 30
0.0
 10
22.70000000000007
 20
1.587500000000003
 30
0.0
  0
SPLINE
  5
C1
330
1F
100
AcDbEntity
  8
0
  6
Continuous
 62
     1
370
    15
100
AcDbSpline
210
0.0
220
0.0
230
1.0
 70
    24
 71
     3
 72
    10
 73
     6
 74
     0
 42
0.000000001
 43
0.00000001
 40
0.0
 40
0.0
 40
0.0
 40
0.0
 40
0.5
 40
0.5
 40
1.0
 40
1.0
 40
1.0
 40
1.0
 10
22.70000000000006
 20
1.111250000000001
 30
0.0
 10
22.70000000000006
 20
1.178611207681612
 30
0.0
 10
22.70000000000006
 20
1.256891169326551
 30
0.0
 10
22.70000000000006
 20
1.421122318025361
 30
0.0
 10
22.70000000000006
 20
1.50665407933484
 30
0.0
 10
22.70000000000007
 20
1.587500000000003
 30
0.0
  0
SPLINE
  5
C2
330
1F
100
AcDbEntity
  8
0
  6
Continuous
 62
     1
370
    15
100
AcDbSpline
210
0.0
220
0.0
230
1.0
 70
     8
 71
     3
 72
     9
 73
     5
 74
     0
 42
0.000000001
 43
0.00000001
 40
0.0
 40
0.0
 40
0.0
 40
0.0
 40
0.9598783809523908
 40
1.0
 40
1.0
 40
1.0
 40
1.0
 10
22.70000000000007
 20
1.111250000000002
 30
0.0
 10
22.51097603895519
 20
1.110798523269174
 30
0.0
 10
22.31405113180464
 20
1.110328175421169
 30
0.0
 10
22.11724196713248
 20
1.085823806813179
 30
0.0
 10
22.10934566480243
 20
1.084840651870886
 30
0.0
  0
LINE
  5
C3
330
1F
100
AcDbEntity
  8
외형선
  6
Continuous
370
    15
100
AcDbLine
 10
10.11880471812091
 20
-0.1512393695473306
 30
0.0
 11
10.00000000000007
 21
-0.1040884358926669
 31
0.0
  0
SPLINE
  5
C4
330
1F
100
AcDbEntity
  8
0
  6
Continuous
 62
     1
370
    15
100
AcDbSpline
210
0.0
220
0.0
230
1.0
 70
     8
 71
     3
 72
     8
 73
     4
 74
     0
 42
0.000000001
 43
0.00000001
 40
0.0
 40
0.0
 40
0.0
 40
0.0
 40
1.0
 40
1.0
 40
1.0
 40
1.0
 10
21.71720542367687
 20
0.4445952940610198
 30
0.0
 10
21.66098835895963
 20
0.5111941627035049
 30
0.0
 10
21.61080531521145
 20
0.5753123870125278
 30
0.0
 10
21.56808004190782
 20
0.6363646498196556
 30
0.0
  0
LINE
  5
C5
330
1F
100
AcDbEntity
  8
0
  6
Continuous
 62
     1
370
    15
100
AcDbLine
 10
21.5881887809384
 20
0.6532378853236539
 30
0.0
 11
22.70000000000006
 21
0.0000000000000032
 31
0.0
  0
LINE
  5
C6
330
1F
100
AcDbEntity
  8
0
  6
Continuous
 62
     1
370
    15
100
AcDbLine
 10
22.70000000000006
 20
0.0000000000000032
 30
0.0
 11
22.70000000000006
 21
-0.424248176822058
 31
0.0
  0
SPLINE
  5
C7
330
1F
100
AcDbEntity
  8
0
  6
Continuous
 62
     1
370
    15
100
AcDbSpline
210
0.0
220
0.0
230
1.0
 70
     8
 71
     3
 72
    10
 73
     6
 74
     0
 42
0.000000001
 43
0.00000001
 40
0.0
 40
0.0
 40
0.0
 40
0.0
 40
0.5
 40
0.5
 40
1.0
 40
1.0
 40
1.0
 40
1.0
 10
22.70000000000006
 20
-0.4242481768220578
 30
0.0
 10
22.52986692683494
 20
-0.2904929793873745
 30
0.0
 10
22.36257873071873
 20
-0.1512488725093656
 30
0.0
 10
22.03382815368859
 20
0.1384796766033819
 30
0.0
 10
21.87083634149653
 20
0.2904950568622519
 30
0.0
 10
21.7172054236767
 20
0.4445952940610842
 30
0.0
  0
SPLINE
  5
C8
330
1F
100
AcDbEntity
  8
0
  6
Continuous
 62
     1
370
    15
100
AcDbSpline
210
0.0
220
0.0
230
1.0
 70
     8
 71
     3
 72
    25
 73
    21
 74
     0
 42
0.000000001
 43
0.00000001
 40
0.0
 40
0.0
 40
0.0
 40
0.0
 40
0.0037507295846957
 40
0.0643798651016642
 40
0.1248816358789213
 40
0.1856904446759819
 40
0.2462853840608524
 40
0.3068013346336398
 40
0.3676247355877616
 40
0.4281901527253845
 40
0.4887249981671999
 40
0.5495540469580441
 40
0.6100946311139563
 40
0.6706530766349645
 40
0.7314788256969194
 40
0.7919992790869342
 40
0.852586017587171
 40
0.9133995212507102
 40
0.9565126520445033
 40
1.0
 40
1.0
 40
1.0
 40
1.0
 10
19.33716647610563
 20
-1.192483015293249
 30
0.0
 10
19.32548888394044
 20
-1.194790616660706
 30
0.0
 10
19.12504739880275
 20
-1.234399727739103
 30
0.0
 10
18.73637891344105
 20
-1.264918264968658
 30
0.0
 10
18.17046733492095
 20
-1.276127058027327
 30
0.0
 10
17.60387171564334
 20
-1.228134734576112
 30
0.0
 10
17.03777413126837
 20
-1.129614801064873
 30
0.0
 10
16.47183944948514
 20
-0.9824733049499125
 30
0.0
 10
15.90520997780675
 20
-0.7951074574472307
 30
0.0
 10
15.33917677917697
 20
-0.5731251039685191
 30
0.0
 10
14.77320668860163
 20
-0.3266221066974085
 30
0.0
 10
14.20656397930378
 20
-0.06794174772574
 30
0.0
 10
13.64058271048794
 20
0.195205407575648
 30
0.0
 10
13.07456329346315
 20
0.4499439687839875
 30
0.0
 10
12.50793215921966
 20
0.6843699836802799
 30
0.0
 10
11.94197525412359
 20
0.8913166890401197
 30
0.0
 10
11.37594875706012
 20
1.060355583677579
 30
0.0
 10
10.86333617505023
 20
1.171373048422289
 30
0.0
 10
10.40520319306935
 20
1.239144048106788
 30
0.0
 10
10.1354562736272
 20
1.255968078711549
 30
0.0
 10
10.00000000000007
 20
1.264416443934117
 30
0.0
  0
SPLINE
  5
C9
330
1F
100
AcDbEntity
  8
외형선
  6
Continuous
370
    15
100
AcDbSpline
210
0.0
220
0.0
230
1.0
 70
    24
 71
     3
 72
    13
 73
     9
 74
     0
 42
0.000000001
 43
0.00000001
 40
0.0
 40
0.0
 40
0.0
 40
0.0
 40
0.1337839645169944
 40
0.2693371325610667
 40
0.4647815767008092
 40
0.6658939229609508
 40
0.8413925616039701
 40
1.0
 40
1.0
 40
1.0
 40
1.0
 10
10.00000000000006
 20
1.264416443934118
 30
0.0
 10
10.00000000000006
 20
1.248503566978487
 30
0.0
 10
10.00000000000007
 20
1.216467375903566
 30
0.0
 10
10.00000000000007
 20
1.129402318594997
 30
0.0
 10
10.00000000000007
 20
0.9982560549462367
 30
0.0
 10
10.00000000000007
 20
0.8165292224012847
 30
0.0
 10
10.00000000000007
 20
0.6183055772990045
 30
0.0
 10
10.00000000000007
 20
0.4761962296799464
 30
0.0
 10
10.00000000000007
 20
0.4087338243332894
 30
0.0
  0
SPLINE
  5
CA
330
1F
100
AcDbEntity
  8
0
  6
Continuous
 62
     1
370
    15
100
AcDbSpline
210
0.0
220
0.0
230
1.0
 70
     8
 71
     3
 72
    14
 73
    10
 74
     0
 42
0.000000001
 43
0.00000001
 40
0.0
 40
0.0
 40
0.0
 40
0.0
 40
0.1958786539245937
 40
0.3508731408995597
 40
0.5054188154867646
 40
0.6607129623557606
 40
0.8156081897312873
 40
0.9701780258547532
 40
1.0
 40
1.0
 40
1.0
 40
1.0
 10
21.71720542333949
 20
0.4445952942073853
 30
0.0
 10
21.47846917088216
 20
0.5448855279052854
 30
0.0
 10
21.05082615277902
 20
0.7245332260800935
 30
0.0
 10
20.43499416517385
 20
0.9379399672982243
 30
0.0
 10
19.86909456144063
 20
1.096390323351424
 30
0.0
 10
19.30255805383962
 20
1.208446766523277
 30
0.0
 10
18.73636388561276
 20
1.265404214303182
 30
0.0
 10
18.32333941778547
 20
1.280546889152297
 30
0.0
 10
18.09860496881089
 20
1.260561856015853
 30
0.0
 10
18.0622583169878
 20
1.25732964553634
 30
0.0
  0
SPLINE
  5
CB
330
1F
100
AcDbEntity
  8
0
  6
Continuous
 62
     1
370
    15
100
AcDbSpline
210
0.0
220
0.0
230
1.0
 70
     8
 71
     3
 72
     9
 73
     5
 74
     0
 42
0.000000001
 43
0.00000001
 40
0.0
 40
0.0
 40
0.0
 40
0.0
 40
0.4195566637035176
 40
0.9999999999999999
 40
0.9999999999999999
 40
0.9999999999999999
 40
0.9999999999999999
 10
10.69949891889945
 20
-1.191270595345755
 30
0.0
 10
10.60176115880614
 20
-1.206634942111573
 30
0.0
 10
10.3688063077723
 20
-1.24325537528547
 30
0.0
 10
10.13545007202362
 20
-1.256644699763392
 30
0.0
 10
10.00000000000007
 20
-1.264416443934114
 30
0.0
  0
SPLINE
  5
CC
330
1F
100
AcDbEntity
  8
0
  6
Continuous
 62
     1
370
    15
100
AcDbSpline
210
0.0
220
0.0
230
1.0
 70
    24
 71
     3
 72
    10
 73
     6
 74
     0
 42
0.000000001
 43
0.00000001
 40
0.0
 40
0.0
 40
0.0
 40
0.0
 40
0.5000000000000001
 40
0.5000000000000001
 40
1.0
 40
1.0
 40
1.0
 40
1.0
 10
22.70000000000006
 20
-1.252493469684541
 30
0.0
 10
22.70000000000006
 20
-1.156480080043538
 30
0.0
 10
22.70000000000007
 20
-1.035163480701517
 30
0.0
 10
22.70000000000006
 20
-0.7531140626517022
 30
0.0
 10
22.70000000000006
 20
-0.5926255658439518
 30
0.0
 10
22.70000000000007
 20
-0.4242481768221091
 30
0.0
  0
SPLINE
  5
CD
330
1F
100
AcDbEntity
  8
0
  6
Continuous
 62
     1
370
    15
100
AcDbSpline
210
0.0
220
0.0
230
1.0
 70
    24
 71
     3
 72
     8
 73
     4
 74
     0
 42
0.000000001
 43
0.00000001
 40
0.0
 40
0.0
 40
0.0
 40
0.0
 40
1.0
 40
1.0
 40
1.0
 40
1.0
 10
21.73390102197999
 20
0.77550497303967
 30
0.0
 10
21.68157355845538
 20
0.7315970176957282
 30
0.0
 10
21.6259311636317
 20
0.6849075047213331
 30
0.0
 10
21.56808004190783
 20
0.6363646498196421
 30
0.0
  0
SPLINE
  5
CE
330
1F
100
AcDbEntity
  8
0
  6
Continuous
 62
     1
370
    15
100
AcDbSpline
210
0.0
220
0.0
230
1.0
 70
     8
 71
     3
 72
     8
 73
     4
 74
     0
 42
0.000000001
 43
0.00000001
 40
0.0
 40
0.0
 40
0.0
 40
0.0
 40
1.0
 40
1.0
 40
1.0
 40
1.0
 10
22.70000000000006
 20
1.111250000000003
 30
0.0
 10
22.37348911934138
 20
1.02256229647252
 30
0.0
 10
22.05010172563291
 20
0.9136763805407536
 30
0.0
 10
21.73390102198999
 20
0.7755049730440541
 30
0.0
  0
SPLINE
  5
CF
330
1F
100
AcDbEntity
  8
외형선
  6
Continuous
370
    15
100
AcDbSpline
210
0.0
220
0.0
230
1.0
 70
    24
 71
     3
 72
    10
 73
     6
 74
     0
 42
0.000000001
 43
0.00000001
 40
0.0
 40
0.0
 40
0.0
 40
0.0
 40
0.4999999999999999
 40
0.4999999999999999
 40
1.0
 40
1.0
 40
1.0
 40
1.0
 10
9.999999999999998
 20
-0.1040884358926375
 30
0.0
 10
9.999999999999998
 20
-0.3720797519980474
 30
0.0
 10
9.999999999999998
 20
-0.635868356411003
 30
0.0
 10
9.999999999999998
 20
-1.048315837558016
 30
0.0
 10
9.999999999999998
 20
-1.193779035633427
 30
0.0
 10
9.999999999999998
 20
-1.264416443934117
 30
0.0
  0
LINE
  5
D0
330
1F
100
AcDbEntity
  8
0
  6
Continuous
 62
     1
370
    15
100
AcDbLine
 10
22.70000000000006
 20
0.0000000000000032
 30
0.0
 11
22.70000000000006
 21
1.111250000000003
 31
0.0
  0
LINE
  5
D1
330
1F
100
AcDbEntity
  8
중심선
 48
0.8
100
AcDbLine
 10
-18.39999999999993
 20
-0.0000000000000023
 30
0.0
 11
25.70000000000007
 21
0.0000000000000031
 31
0.0
  0
LINE
  5
D2
330
1F
100
AcDbEntity
  8
참조1
100
AcDbLine
 10
-0.3876846714922326
 20
0.0010749287238892
 30
0.0
 11
-0.3876846714922279
 21
-39.99892507127611
 31
0.0
  0
LINE
  5
D3
330
1F
100
AcDbEntity
  8
참조1
100
AcDbLine
 10
-0.3876846714922279
 20
-39.99892507127611
 30
0.0
 11
-15.54395731641845
 21
-39.9989250712761
 31
0.0
  0
CIRCLE
  5
D4
330
1F
100
AcDbEntity
  8
해칭선
100
AcDbCircle
 10
0.0
 20
0.0
 30
0.0
 40
3.000000000000001
  0
INSERT
  5
D5
330
1F
100
AcDbEntity
  8
0
  6
Continuous
 62
     7
100
AcDbBlockReference
 66
     1
  2
블럭10
 10
-10.29027293212514
 20
-52.04717430164393
 30
0.0
  0
ATTRIB
  5
D6
330
D5
100
AcDbEntity
  8
FORMAT
 62
     2
100
AcDbText
 10
-20.43190894426176
 20
-49.97180738881175
 30
0.0
 40
4.233333333333333
  1
EM154008 [ 2 FLUTE ]
 41
0.75
  7
SLDTEXTSTYLE0
 11
-20.43190894426176
 21
-52.08847405547841
 31
0.0
100
AcDbAttribute
  2
AUTOATTR0
 70
     0
 74
     1
  0
SEQEND
  5
D7
330
D5
100
AcDbEntity
  8
0
  6
Continuous
 62
     7
  0
HATCH
  5
D8
330
1F
100
AcDbEntity
  8
중심선
100
AcDbHatch
 10
0.0
 20
0.0
 30
0.0
210
0.0
220
0.0
230
1.0
  2
SOLID
 70
     1
 71
     0
 91
        1
 92
        0
 93
        4
 72
     1
 10
-4.575363627744291
 20
-35.8
 11
-8.021638871581573
 21
-35.8
 72
     1
 10
-8.021638871581573
 20
-35.8
 11
-10.14986873078562
 21
-38.3363255805726
 72
     1
 10
-10.14986873078562
 20
-38.33632558057259
 11
-6.703560401835166
 21
-38.3362861512701
 72
     1
 10
-6.703560401835165
 20
-38.3362861512701
 11
-4.575363627744291
 21
-35.79999999999999
 97
        0
 75
     0
 76
     1
 98
        1
 10
4.037684671492301
 20
-0.0010749287238916
  0
HATCH
  5
D9
330
1F
100
AcDbEntity
  8
중심선
100
AcDbHatch
 10
0.0
 20
0.0
 30
0.0
210
0.0
220
0.0
230
1.0
  2
SOLID
 70
     1
 71
     0
 91
        1
 92
        0
 93
        4
 72
     1
 10
0.4374003632916885
 20
-35.8
 11
-3.008874880545622
 21
-35.8
 72
     1
 10
-3.008874880545622
 20
-35.8
 11
-7.54001288890301
 21
-41.20000000000002
 72
     1
 10
-7.54001288890301
 20
-41.20000000000002
 11
-4.093737645065727
 21
-41.20000000000002
 72
     1
 10
-4.093737645065727
 20
-41.20000000000002
 11
0.4374003632916885
 21
-35.8
 97
        0
 75
     0
 76
     1
 98
        1
 10
4.037684671492301
 20
-0.0010749287238916
  0
HATCH
  5
DA
330
1F
100
AcDbEntity
  8
중심선
100
AcDbHatch
 10
0.0
 20
0.0
 30
0.0
210
0.0
220
0.0
230
1.0
  2
SOLID
 70
     1
 71
     0
 91
        1
 92
        0
 93
        4
 72
     1
 10
5.450164354327557
 20
-35.8
 11
2.003889110490441
 21
-35.8
 72
     1
 10
2.00388911049044
 20
-35.8
 11
-5.044547791398807
 21
-44.20000000000002
 72
     1
 10
-5.044547791398808
 20
-44.20000000000002
 11
-1.598272547561526
 21
-44.20000000000002
 72
     1
 10
-1.598272547561526
 20
-44.20000000000002
 11
5.450164354327557
 21
-35.8
 97
        0
 75
     0
 76
     1
 98
        1
 10
4.037684671492301
 20
-0.0010749287238916
  0
HATCH
  5
DB
330
1F
100
AcDbEntity
  8
중심선
100
AcDbHatch
 10
0.0
 20
0.0
 30
0.0
210
0.0
220
0.0
230
1.0
  2
SOLID
 70
     1
 71
     0
 91
        1
 92
        0
 93
        6
 72
     3
 10
10.25005478533976
 20
-40.00000000005127
 11
3.960054785062283
 21
1.540882976769353E-10
 40
0.3939339440162628
 50
17.09539180608437
 51
320.0019657685078
 73
     0
 72
     1
 10
11.93305444104035
 20
-38.5878940046383
 11
14.23835631474142
 21
-36.65356729459035
 72
     3
 10
10.25005478528691
 20
-40.00000000000014
 11
6.600054785286829
 21
-1.278976924368180E-13
 40
0.636358354079598
 50
39.99873849337407
 51
368.4976242363725
 73
     1
 72
     1
 10
16.67538727718752
 20
-39.03999999993002
 11
8.93012209212283
 21
-39.03999999992999
 72
     1
 10
8.930122092122831
 20
-39.03999999992999
 11
8.930097047676899
 21
-40.95999999992991
 72
     1
 10
8.930097047676899
 20
-40.95999999992991
 11
13.37147681714893
 21
-40.95999999992988
 97
        0
 75
     0
 76
     1
 98
        1
 10
4.037684671492301
 20
-0.0010749287238916
  0
DIMENSION
  5
DC
330
1F
100
AcDbEntity
  8
치수문자_일반주서
100
AcDbDimension
  2
_D
 10
-28.39999999999991
 20
-1.58750000000004
 30
0.0
 11
-28.39999999999992
 21
-0.0000000000000069
 31
0.0
 70
   160
  1
%%c<>
 71
     2
 42
3.174999999999983
 52
-270.0
  3
SLDDIMSTYLE0
100
AcDbAlignedDimension
 13
-14.96999999999993
 23
1.587499999999993
 33
0.0
 14
-14.96999999999993
 24
-1.58749999999999
 34
0.0
 50
90.0000000000002
100
AcDbRotatedDimension
1001
ACAD
1000
DSTYLE
1002
{
1070
   171
1070
     6
1070
   273
1070
     7
1002
}
  0
DIMENSION
  5
F1
330
1F
100
AcDbEntity
  8
치수문자_일반주서
100
AcDbDimension
  2
_D_1
 10
37.82131303156535
 20
-1.587499999999942
 30
0.0
 11
37.82131303156524
 21
23.175
 31
0.0
 70
   160
  1
%%c<>
 71
     2
 42
3.175
 52
-270.0
  3
SLDDIMSTYLE0
100
AcDbAlignedDimension
 13
22.70000000000007
 23
1.587500000000003
 33
0.0
 14
22.69999999999993
 24
-1.587499999999997
 34
0.0
 50
90.0000000000002
100
AcDbRotatedDimension
1001
ACAD
1000
DSTYLE
1002
{
1070
   171
1070
     6
1070
   273
1070
     7
1002
}
  0
DIMENSION
  5
105
330
1F
100
AcDbEntity
  8
치수문자_일반주서
100
AcDbDimension
  2
_D_2
 10
10.00000000000007
 20
24.14312499999998
 30
0.0
 11
-7.541499999999927
 21
24.14312499999998
 31
0.0
 70
   160
  1
<>
 71
     2
 42
12.7
  3
SLDDIMSTYLE0
100
AcDbAlignedDimension
 13
22.70000000000007
 23
1.587500000000003
 33
0.0
 14
10.00000000000007
 24
1.264416443934117
 34
0.0
 50
-0.0000000000000321
100
AcDbRotatedDimension
1001
ACAD
1000
DSTYLE
1002
{
1070
   171
1070
     6
1070
   273
1070
     7
1002
}
  0
DIMENSION
  5
11A
330
1F
100
AcDbEntity
  8
치수문자_일반주서
100
AcDbDimension
  2
_D_3
 10
-15.39999999999994
 20
38.96717844013394
 30
0.0
 11
3.650000000000085
 21
38.96717844013394
 31
0.0
 70
   160
  1
<>
 71
     2
 42
38.10000000000001
  3
SLDDIMSTYLE0
100
AcDbAlignedDimension
 13
22.70000000000007
 23
1.587500000000003
 33
0.0
 14
-15.39999999999994
 24
1.157499999999998
 34
0.0
 50
-0.0000000000000427
100
AcDbRotatedDimension
1001
ACAD
1000
DSTYLE
1002
{
1070
   171
1070
     6
1070
   273
1070
     7
1002
}
  0
LINE
  5
12D
330
1F
100
AcDbEntity
  8
참조1
100
AcDbLine
 10
82.42838331323583
 20
7.441074928723896
 30
0.0
 11
82.42838331323583
 21
-7.438925071276109
 31
0.0
  0
LINE
  5
12E
330
1F
100
AcDbEntity
  8
참조1
100
AcDbLine
 10
95.12838331323583
 20
5.441074928723896
 30
0.0
 11
82.42838331323583
 21
5.441074928723896
 31
0.0
  0
SOLID
  5
12F
330
1F
100
AcDbEntity
  8
참조1
100
AcDbTrace
 10
82.42838331323583
 20
5.441074928723896
 30
0.0
 11
88.77838331323582
 21
4.425074928723896
 31
0.0
 12
88.77838331323582
 22
6.457074928723896
 32
0.0
 13
88.77838331323582
 23
6.457074928723896
 33
0.0
  0
LINE
  5
130
330
1F
100
AcDbEntity
  8
참조1
100
AcDbLine
 10
95.12838331323583
 20
-5.438925071276109
 30
0.0
 11
82.42838331323583
 21
-5.438925071276109
 31
0.0
  0
SOLID
  5
131
330
1F
100
AcDbEntity
  8
참조1
100
AcDbTrace
 10
82.42838331323583
 20
-5.438925071276109
 30
0.0
 11
88.77838331323582
 21
-6.454925071276109
 31
0.0
 12
88.77838331323582
 22
-4.422925071276109
 32
0.0
 13
88.77838331323582
 23
-4.422925071276109
 33
0.0
  0
MTEXT
  5
132
330
1F
100
AcDbEntity
  8
참조1
100
AcDbMText
 10
91.82587340570609
 20
10.98929157337383
 30
0.0
 40
3.5
 41
0.0
 71
     1
 72
     1
  1
A
  7
SLDTEXTSTYLE0
 73
     1
 44
1.0
  0
MTEXT
  5
133
330
1F
100
AcDbEntity
  8
참조1
100
AcDbMText
 10
91.82587340570609
 20
0.1092915733738259
 30
0.0
 40
3.5
 41
0.0
 71
     1
 72
     1
  1
A
  7
SLDTEXTSTYLE0
 73
     1
 44
1.0
  0
INSERT
  5
13A
330
1F
100
AcDbEntity
  8
해칭선
100
AcDbBlockReference
  2
SW_DOWELSYMBOL_0
 10
0.0
 20
0.0
 30
0.0
  0
ENDSEC
  0
SECTION
  2
OBJECTS
  0
DICTIONARY
  5
C
330
0
100
AcDbDictionary
281
     1
  3
ACAD_GROUP
350
D
  3
ACAD_IMAGE_VARS
350
15E
  3
ACAD_LAYOUT
350
1A
  3
ACAD_MLINESTYLE
350
17
  3
ACAD_PLOTSETTINGS
350
19
  3
ACAD_PLOTSTYLENAME
350
E
  3
ACAD_SCALELIST
350
47
  3
APPDATA
350
15C
  3
DWGPROPS
350
193
  0
DICTIONARY
  5
185
330
2
100
AcDbDictionary
280
     1
281
     1
  3
ACAD_LAYERSTATES
360
186
  0
DICTIONARY
  5
D
102
{ACAD_REACTORS
330
C
102
}
330
C
100
AcDbDictionary
281
     1
  0
RASTERVARIABLES
  5
15E
102
{ACAD_REACTORS
330
C
102
}
330
C
100
AcDbRasterVariables
 90
        0
 70
     1
 71
     1
 72
     1
  0
DICTIONARY
  5
1A
102
{ACAD_REACTORS
330
C
102
}
330
C
100
AcDbDictionary
281
     1
  3
Layout1
350
1E
  3
Layout2
350
26
  3
Model
350
22
  0
DICTIONARY
  5
17
102
{ACAD_REACTORS
330
C
102
}
330
C
100
AcDbDictionary
281
     1
  3
Standard
350
18
  0
DICTIONARY
  5
19
102
{ACAD_REACTORS
330
C
102
}
330
C
100
AcDbDictionary
281
     1
  0
ACDBDICTIONARYWDFLT
  5
E
102
{ACAD_REACTORS
330
C
102
}
330
C
100
AcDbDictionary
281
     1
  3
Normal
350
F
100
AcDbDictionaryWithDefault
340
F
  0
DICTIONARY
  5
47
102
{ACAD_REACTORS
330
C
102
}
330
C
100
AcDbDictionary
281
     1
  3
A0
350
48
  3
A1
350
49
  3
A2
350
4A
  3
A3
350
4B
  3
A4
350
4C
  3
A5
350
4D
  3
A6
350
4E
  3
A7
350
4F
  3
A8
350
50
  3
A9
350
51
  3
B0
350
52
  3
B1
350
53
  3
B2
350
54
  3
B3
350
55
  3
B4
350
56
  3
B5
350
57
  3
B6
350
58
  3
B7
350
59
  3
B8
350
5A
  3
B9
350
5B
  3
C0
350
5C
  3
C1
350
5D
  3
C2
350
5E
  3
C3
350
5F
  3
C4
350
60
  3
C5
350
61
  3
C6
350
62
  3
C7
350
63
  3
C8
350
64
  3
C9
350
65
  3
D0
350
66
  3
D1
350
67
  3
D2
350
68
  0
DICTIONARY
  5
15C
102
{ACAD_REACTORS
330
C
102
}
330
C
100
AcDbDictionary
281
     1
  0
XRECORD
  5
193
102
{ACAD_REACTORS
330
C
102
}
330
C
100
AcDbXrecord
280
     1
  1
DWGPROPS COOKIE
  2

  3

  4

  6

  7

  8
12017012
  9

300
=
301
=
302
=
303
=
304
=
305
=
306
=
307
=
308
=
309
=
 40
0.0
 41
2458288.369186007
 42
2458294.321280717
  1

 90
        0
  0
DICTIONARY
  5
186
102
{ACAD_REACTORS
330
185
102
}
330
185
100
AcDbDictionary
281
     1
  0
LAYOUT
  5
1E
102
{ACAD_REACTORS
330
1A
102
}
330
1A
100
AcDbPlotSettings
  1

  2
none_device
  4

  6

 40
0.0
 41
0.0
 42
0.0
 43
0.0
 44
0.0
 45
0.0
 46
0.0
 47
0.0
 48
0.0
 49
0.0
140
0.0
141
0.0
142
1.0
143
1.0
 70
   688
 72
     1
 73
     0
 74
     5
  7

 75
    16
147
1.0
148
0.0
149
0.0
100
AcDbLayout
  1
Layout1
 70
     1
 71
     1
 10
0.0
 20
0.0
 11
420.0
 21
297.0
 12
0.0
 22
0.0
 32
0.0
 14
1.000000000000000E+20
 24
1.000000000000000E+20
 34
1.000000000000000E+20
 15
-1.000000000000000E+20
 25
-1.000000000000000E+20
 35
-1.000000000000000E+20
146
0.0
 13
0.0
 23
0.0
 33
0.0
 16
1.0
 26
0.0
 36
0.0
 17
0.0
 27
1.0
 37
0.0
 76
     0
330
1B
  0
LAYOUT
  5
26
102
{ACAD_REACTORS
330
1A
102
}
330
1A
100
AcDbPlotSettings
  1

  2
none_device
  4

  6

 40
0.0
 41
0.0
 42
0.0
 43
0.0
 44
0.0
 45
0.0
 46
0.0
 47
0.0
 48
0.0
 49
0.0
140
0.0
141
0.0
142
1.0
143
1.0
 70
   688
 72
     1
 73
     0
 74
     5
  7

 75
    16
147
1.0
148
0.0
149
0.0
100
AcDbLayout
  1
Layout2
 70
     1
 71
     2
 10
0.0
 20
0.0
 11
0.0
 21
0.0
 12
0.0
 22
0.0
 32
0.0
 14
0.0
 24
0.0
 34
0.0
 15
0.0
 25
0.0
 35
0.0
146
0.0
 13
0.0
 23
0.0
 33
0.0
 16
1.0
 26
0.0
 36
0.0
 17
0.0
 27
1.0
 37
0.0
 76
     0
330
23
  0
LAYOUT
  5
22
102
{ACAD_REACTORS
330
1A
102
}
330
1A
100
AcDbPlotSettings
  1

  2
none_device
  4
ANSI_A_(11.00_x_8.50_Inches)
  6

 40
6.35
 41
19.05
 42
6.35000508
 43
19.05000254
 44
279.4
 45
215.9
 46
81.47316701427704
 47
89.8531762404606
 48
0.0
 49
0.0
140
0.0
141
0.0
142
0.0787083164735771
143
1.0
 70
  1696
 72
     0
 73
     0
 74
     0
  7

 75
     0
147
0.0235690232323232
148
0.0
149
0.0
100
AcDbLayout
  1
Model
 70
     1
 71
     0
 10
0.0
 20
0.0
 11
420.0
 21
297.0
 12
0.0
 22
0.0
 32
0.0
 14
1.000000000000000E+20
 24
1.000000000000000E+20
 34
1.000000000000000E+20
 15
-1.000000000000000E+20
 25
-1.000000000000000E+20
 35
-1.000000000000000E+20
146
0.0
 13
0.0
 23
0.0
 33
0.0
 16
1.0
 26
0.0
 36
0.0
 17
0.0
 27
1.0
 37
0.0
 76
     0
330
1F
331
29
  0
MLINESTYLE
  5
18
102
{ACAD_REACTORS
330
17
102
}
330
17
100
AcDbMlineStyle
  2
Standard
 70
     0
  3

 62
   256
 51
90.0
 52
90.0
 71
     2
 49
0.5
 62
   256
  6
BYLAYER
 49
-0.5
 62
   256
  6
BYLAYER
  0
ACDBPLACEHOLDER
  5
F
102
{ACAD_REACTORS
330
E
102
}
330
E
  0
SCALE
  5
48
102
{ACAD_REACTORS
330
47
102
}
330
47
100
AcDbScale
 70
     0
300
1:1
140
1.0
141
1.0
290
     1
  0
SCALE
  5
49
102
{ACAD_REACTORS
330
47
102
}
330
47
100
AcDbScale
 70
     0
300
1:2
140
1.0
141
2.0
290
     0
  0
SCALE
  5
4A
102
{ACAD_REACTORS
330
47
102
}
330
47
100
AcDbScale
 70
     0
300
1:4
140
1.0
141
4.0
290
     0
  0
SCALE
  5
4B
102
{ACAD_REACTORS
330
47
102
}
330
47
100
AcDbScale
 70
     0
300
1:5
140
1.0
141
5.0
290
     0
  0
SCALE
  5
4C
102
{ACAD_REACTORS
330
47
102
}
330
47
100
AcDbScale
 70
     0
300
1:8
140
1.0
141
8.0
290
     0
  0
SCALE
  5
4D
102
{ACAD_REACTORS
330
47
102
}
330
47
100
AcDbScale
 70
     0
300
1:10
140
1.0
141
10.0
290
     0
  0
SCALE
  5
4E
102
{ACAD_REACTORS
330
47
102
}
330
47
100
AcDbScale
 70
     0
300
1:16
140
1.0
141
16.0
290
     0
  0
SCALE
  5
4F
102
{ACAD_REACTORS
330
47
102
}
330
47
100
AcDbScale
 70
     0
300
1:20
140
1.0
141
20.0
290
     0
  0
SCALE
  5
50
102
{ACAD_REACTORS
330
47
102
}
330
47
100
AcDbScale
 70
     0
300
1:30
140
1.0
141
30.0
290
     0
  0
SCALE
  5
51
102
{ACAD_REACTORS
330
47
102
}
330
47
100
AcDbScale
 70
     0
300
1:40
140
1.0
141
40.0
290
     0
  0
SCALE
  5
52
102
{ACAD_REACTORS
330
47
102
}
330
47
100
AcDbScale
 70
     0
300
1:50
140
1.0
141
50.0
290
     0
  0
SCALE
  5
53
102
{ACAD_REACTORS
330
47
102
}
330
47
100
AcDbScale
 70
     0
300
1:100
140
1.0
141
100.0
290
     0
  0
SCALE
  5
54
102
{ACAD_REACTORS
330
47
102
}
330
47
100
AcDbScale
 70
     0
300
2:1
140
2.0
141
1.0
290
     0
  0
SCALE
  5
55
102
{ACAD_REACTORS
330
47
102
}
330
47
100
AcDbScale
 70
     0
300
4:1
140
4.0
141
1.0
290
     0
  0
SCALE
  5
56
102
{ACAD_REACTORS
330
47
102
}
330
47
100
AcDbScale
 70
     0
300
8:1
140
8.0
141
1.0
290
     0
  0
SCALE
  5
57
102
{ACAD_REACTORS
330
47
102
}
330
47
100
AcDbScale
 70
     0
300
10:1
140
10.0
141
1.0
290
     0
  0
SCALE
  5
58
102
{ACAD_REACTORS
330
47
102
}
330
47
100
AcDbScale
 70
     0
300
100:1
140
100.0
141
1.0
290
     0
  0
SCALE
  5
59
102
{ACAD_REACTORS
330
47
102
}
330
47
100
AcDbScale
 70
     0
300
1/128" = 1'-0"
140
0.0078125
141
12.0
290
     0
  0
SCALE
  5
5A
102
{ACAD_REACTORS
330
47
102
}
330
47
100
AcDbScale
 70
     0
300
1/64" = 1'-0"
140
0.015625
141
12.0
290
     0
  0
SCALE
  5
5B
102
{ACAD_REACTORS
330
47
102
}
330
47
100
AcDbScale
 70
     0
300
1/32" = 1'-0"
140
0.03125
141
12.0
290
     0
  0
SCALE
  5
5C
102
{ACAD_REACTORS
330
47
102
}
330
47
100
AcDbScale
 70
     0
300
1/16" = 1'-0"
140
0.0625
141
12.0
290
     0
  0
SCALE
  5
5D
102
{ACAD_REACTORS
330
47
102
}
330
47
100
AcDbScale
 70
     0
300
3/32" = 1'-0"
140
0.09375
141
12.0
290
     0
  0
SCALE
  5
5E
102
{ACAD_REACTORS
330
47
102
}
330
47
100
AcDbScale
 70
     0
300
1/8" = 1'-0"
140
0.125
141
12.0
290
     0
  0
SCALE
  5
5F
102
{ACAD_REACTORS
330
47
102
}
330
47
100
AcDbScale
 70
     0
300
3/16" = 1'-0"
140
0.1875
141
12.0
290
     0
  0
SCALE
  5
60
102
{ACAD_REACTORS
330
47
102
}
330
47
100
AcDbScale
 70
     0
300
1/4" = 1'-0"
140
0.25
141
12.0
290
     0
  0
SCALE
  5
61
102
{ACAD_REACTORS
330
47
102
}
330
47
100
AcDbScale
 70
     0
300
3/8" = 1'-0"
140
0.375
141
12.0
290
     0
  0
SCALE
  5
62
102
{ACAD_REACTORS
330
47
102
}
330
47
100
AcDbScale
 70
     0
300
1/2" = 1'-0"
140
0.5
141
12.0
290
     0
  0
SCALE
  5
63
102
{ACAD_REACTORS
330
47
102
}
330
47
100
AcDbScale
 70
     0
300
3/4" = 1'-0"
140
0.75
141
12.0
290
     0
  0
SCALE
  5
64
102
{ACAD_REACTORS
330
47
102
}
330
47
100
AcDbScale
 70
     0
300
1" = 1'-0"
140
1.0
141
12.0
290
     0
  0
SCALE
  5
65
102
{ACAD_REACTORS
330
47
102
}
330
47
100
AcDbScale
 70
     0
300
1-1/2" = 1'-0"
140
1.5
141
12.0
290
     0
  0
SCALE
  5
66
102
{ACAD_REACTORS
330
47
102
}
330
47
100
AcDbScale
 70
     0
300
3" = 1'-0"
140
3.0
141
12.0
290
     0
  0
SCALE
  5
67
102
{ACAD_REACTORS
330
47
102
}
330
47
100
AcDbScale
 70
     0
300
6" = 1'-0"
140
6.0
141
12.0
290
     0
  0
SCALE
  5
68
102
{ACAD_REACTORS
330
47
102
}
330
47
100
AcDbScale
 70
     0
300
1'-0" = 1'-0"
140
12.0
141
12.0
290
     0
  0
ENDSEC
  0
EOF
