  0
SECTION
  2
HEADER
  9
$ACADVER
  1
AC1015
  9
$ACADMAINTVER
 70
     6
  9
$DWGCODEPAGE
  3
ANSI_949
  9
$INSBASE
 10
0.0
 20
0.0
 30
0.0
  9
$EXTMIN
 10
1.000000000000000E+20
 20
1.000000000000000E+20
 30
1.000000000000000E+20
  9
$EXTMAX
 10
-1.000000000000000E+20
 20
-1.000000000000000E+20
 30
-1.000000000000000E+20
  9
$LIMMIN
 10
0.0
 20
0.0
  9
$LIMMAX
 10
420.0
 20
297.0
  9
$ORTHOMODE
 70
     1
  9
$REGENMODE
 70
     1
  9
$FILLMODE
 70
     1
  9
$QTEXTMODE
 70
     0
  9
$MIRRTEXT
 70
     1
  9
$LTSCALE
 40
1.0
  9
$ATTMODE
 70
     1
  9
$TEXTSIZE
 40
3.5
  9
$TRACEWID
 40
1.0
  9
$TEXTSTYLE
  7
Standard
  9
$CLAYER
  8
0
  9
$CELTYPE
  6
ByLayer
  9
$CECOLOR
 62
   256
  9
$CELTSCALE
 40
1.0
  9
$DISPSILH
 70
     0
  9
$DIMSCALE
 40
1.0
  9
$DIMASZ
 40
3.302
  9
$DIMEXO
 40
1.0
  9
$DIMDLI
 40
3.75
  9
$DIMRND
 40
0.0
  9
$DIMDLE
 40
0.0
  9
$DIMEXE
 40
1.0
  9
$DIMTP
 40
0.0
  9
$DIMTM
 40
0.0
  9
$DIMTXT
 40
3.5
  9
$DIMCEN
 40
2.5
  9
$DIMTSZ
 40
0.0
  9
$DIMTOL
 70
     0
  9
$DIMLIM
 70
     0
  9
$DIMTIH
 70
     1
  9
$DIMTOH
 70
     1
  9
$DIMSE1
 70
     0
  9
$DIMSE2
 70
     0
  9
$DIMTAD
 70
     1
  9
$DIMZIN
 70
     0
  9
$DIMBLK
  1

  9
$DIMASO
 70
     1
  9
$DIMSHO
 70
     1
  9
$DIMPOST
  1

  9
$DIMAPOST
  1

  9
$DIMALT
 70
     0
  9
$DIMALTD
 70
     3
  9
$DIMALTF
 40
0.0393700787401575
  9
$DIMLFAC
 40
1.0
  9
$DIMTOFL
 70
     1
  9
$DIMTVP
 40
0.0
  9
$DIMTIX
 70
     0
  9
$DIMSOXD
 70
     0
  9
$DIMSAH
 70
     0
  9
$DIMBLK1
  1

  9
$DIMBLK2
  1

  9
$DIMSTYLE
  2
ISO-25
  9
$DIMCLRD
 70
     0
  9
$DIMCLRE
 70
     0
  9
$DIMCLRT
 70
     0
  9
$DIMTFAC
 40
1.0
  9
$DIMGAP
 40
1.524
  9
$DIMJUST
 70
     0
  9
$DIMSD1
 70
     0
  9
$DIMSD2
 70
     0
  9
$DIMTOLJ
 70
     0
  9
$DIMTZIN
 70
     0
  9
$DIMALTZ
 70
     0
  9
$DIMALTTZ
 70
     0
  9
$DIMUPT
 70
     0
  9
$DIMDEC
 70
     2
  9
$DIMTDEC
 70
     2
  9
$DIMALTU
 70
     2
  9
$DIMALTTD
 70
     3
  9
$DIMTXSTY
  7
Standard
  9
$DIMAUNIT
 70
     0
  9
$DIMADEC
 70
     2
  9
$DIMALTRND
 40
0.0
  9
$DIMAZIN
 70
     0
  9
$DIMDSEP
 70
    44
  9
$DIMATFIT
 70
     3
  9
$DIMFRAC
 70
     0
  9
$DIMLDRBLK
  1

  9
$DIMLUNIT
 70
     2
  9
$DIMLWD
 70
    -2
  9
$DIMLWE
 70
    -2
  9
$DIMTMOVE
 70
     0
  9
$LUNITS
 70
     2
  9
$LUPREC
 70
     2
  9
$SKETCHINC
 40
1.0
  9
$FILLETRAD
 40
10.0
  9
$AUNITS
 70
     0
  9
$AUPREC
 70
     2
  9
$MENU
  1
.
  9
$ELEVATION
 40
0.0
  9
$PELEVATION
 40
0.0
  9
$THICKNESS
 40
0.0
  9
$LIMCHECK
 70
     0
  9
$CHAMFERA
 40
0.0
  9
$CHAMFERB
 40
0.0
  9
$CHAMFERC
 40
0.0
  9
$CHAMFERD
 40
0.0
  9
$SKPOLY
 70
     0
  9
$TDCREATE
 40
2458288.744564271
  9
$TDUCREATE
 40
2458288.369564271
  9
$TDUPDATE
 40
2458294.693560833
  9
$TDUUPDATE
 40
2458294.318560833
  9
$TDINDWG
 40
0.0015981597
  9
$TDUSRTIMER
 40
2458294.316963391
  9
$USRTIMER
 70
     1
  9
$ANGBASE
 50
0.0
  9
$ANGDIR
 70
     0
  9
$PDMODE
 70
     0
  9
$PDSIZE
 40
-1.0
  9
$PLINEWID
 40
0.0
  9
$SPLFRAME
 70
     0
  9
$SPLINETYPE
 70
     6
  9
$SPLINESEGS
 70
     8
  9
$HANDSEED
  5
194
  9
$SURFTAB1
 70
     6
  9
$SURFTAB2
 70
     6
  9
$SURFTYPE
 70
     6
  9
$SURFU
 70
     6
  9
$SURFV
 70
     6
  9
$UCSBASE
  2

  9
$UCSNAME
  2

  9
$UCSORG
 10
0.0
 20
0.0
 30
0.0
  9
$UCSXDIR
 10
1.0
 20
0.0
 30
0.0
  9
$UCSYDIR
 10
0.0
 20
1.0
 30
0.0
  9
$UCSORTHOREF
  2

  9
$UCSORTHOVIEW
 70
     0
  9
$UCSORGTOP
 10
0.0
 20
0.0
 30
0.0
  9
$UCSORGBOTTOM
 10
0.0
 20
0.0
 30
0.0
  9
$UCSORGLEFT
 10
0.0
 20
0.0
 30
0.0
  9
$UCSORGRIGHT
 10
0.0
 20
0.0
 30
0.0
  9
$UCSORGFRONT
 10
0.0
 20
0.0
 30
0.0
  9
$UCSORGBACK
 10
0.0
 20
0.0
 30
0.0
  9
$PUCSBASE
  2

  9
$PUCSNAME
  2

  9
$PUCSORG
 10
0.0
 20
0.0
 30
0.0
  9
$PUCSXDIR
 10
1.0
 20
0.0
 30
0.0
  9
$PUCSYDIR
 10
0.0
 20
1.0
 30
0.0
  9
$PUCSORTHOREF
  2

  9
$PUCSORTHOVIEW
 70
     0
  9
$PUCSORGTOP
 10
0.0
 20
0.0
 30
0.0
  9
$PUCSORGBOTTOM
 10
0.0
 20
0.0
 30
0.0
  9
$PUCSORGLEFT
 10
0.0
 20
0.0
 30
0.0
  9
$PUCSORGRIGHT
 10
0.0
 20
0.0
 30
0.0
  9
$PUCSORGFRONT
 10
0.0
 20
0.0
 30
0.0
  9
$PUCSORGBACK
 10
0.0
 20
0.0
 30
0.0
  9
$USERI1
 70
     0
  9
$USERI2
 70
     0
  9
$USERI3
 70
     0
  9
$USERI4
 70
     0
  9
$USERI5
 70
     0
  9
$USERR1
 40
0.0
  9
$USERR2
 40
0.0
  9
$USERR3
 40
0.0
  9
$USERR4
 40
0.0
  9
$USERR5
 40
0.0
  9
$WORLDVIEW
 70
     1
  9
$SHADEDGE
 70
     3
  9
$SHADEDIF
 70
    70
  9
$TILEMODE
 70
     1
  9
$MAXACTVP
 70
    64
  9
$PINSBASE
 10
0.0
 20
0.0
 30
0.0
  9
$PLIMCHECK
 70
     0
  9
$PEXTMIN
 10
1.000000000000000E+20
 20
1.000000000000000E+20
 30
1.000000000000000E+20
  9
$PEXTMAX
 10
-1.000000000000000E+20
 20
-1.000000000000000E+20
 30
-1.000000000000000E+20
  9
$PLIMMIN
 10
0.0
 20
0.0
  9
$PLIMMAX
 10
0.0
 20
0.0
  9
$UNITMODE
 70
     0
  9
$VISRETAIN
 70
     1
  9
$PLINEGEN
 70
     0
  9
$PSLTSCALE
 70
     1
  9
$TREEDEPTH
 70
  3020
  9
$CMLSTYLE
  2
Standard
  9
$CMLJUST
 70
     0
  9
$CMLSCALE
 40
20.0
  9
$PROXYGRAPHICS
 70
     1
  9
$MEASUREMENT
 70
     1
  9
$CELWEIGHT
370
    -1
  9
$ENDCAPS
280
     0
  9
$JOINSTYLE
280
     0
  9
$LWDISPLAY
290
     1
  9
$INSUNITS
 70
     4
  9
$HYPERLINKBASE
  1

  9
$STYLESHEET
  1

  9
$XEDIT
290
     1
  9
$CEPSNTYPE
380
     0
  9
$PSTYLEMODE
290
     1
  9
$FINGERPRINTGUID
  2
{333AEB02-58AE-42A7-B3F4-F14249AF0E19}
  9
$VERSIONGUID
  2
{FAEB1C32-E019-11D5-929B-00C0DF256EC4}
  9
$EXTNAMES
290
     1
  9
$PSVPSCALE
 40
0.0
  9
$OLESTARTUP
290
     0
  0
ENDSEC
  0
SECTION
  2
CLASSES
  0
CLASS
  1
ACDBDICTIONARYWDFLT
  2
AcDbDictionaryWithDefault
  3
ObjectDBX Classes
 90
        0
280
     0
281
     0
  0
CLASS
  1
VISUALSTYLE
  2
AcDbVisualStyle
  3
ObjectDBX Classes
 90
     4095
280
     0
281
     0
  0
CLASS
  1
MATERIAL
  2
AcDbMaterial
  3
ObjectDBX Classes
 90
     1153
280
     0
281
     0
  0
CLASS
  1
SCALE
  2
AcDbScale
  3
ObjectDBX Classes
 90
     1153
280
     0
281
     0
  0
CLASS
  1
SUN
  2
AcDbSun
  3
SCENEOE
 90
     1153
280
     0
281
     0
  0
CLASS
  1
ACDBPLACEHOLDER
  2
AcDbPlaceHolder
  3
ObjectDBX Classes
 90
        0
280
     0
281
     0
  0
CLASS
  1
LAYOUT
  2
AcDbLayout
  3
ObjectDBX Classes
 90
        0
280
     0
281
     0
  0
CLASS
  1
TABLESTYLE
  2
AcDbTableStyle
  3
ObjectDBX Classes
 90
     4095
280
     0
281
     0
  0
CLASS
  1
MLEADERSTYLE
  2
AcDbMLeaderStyle
  3
ACDB_MLEADERSTYLE_CLASS
 90
     4095
280
     0
281
     0
  0
CLASS
  1
RASTERVARIABLES
  2
AcDbRasterVariables
  3
ISM
 90
        0
280
     0
281
     0
  0
ENDSEC
  0
SECTION
  2
TABLES
  0
TABLE
  2
VPORT
  5
8
330
0
100
AcDbSymbolTable
 70
     1
  0
VPORT
  5
29
330
8
100
AcDbSymbolTableRecord
100
AcDbViewportTableRecord
  2
*Active
 70
     0
 10
0.0
 20
0.0
 11
1.0
 21
1.0
 12
6.667767715842153
 22
-10.68147711233961
 13
0.0
 23
0.0
 14
10.0
 24
10.0
 15
10.0
 25
10.0
 16
0.0
 26
0.0
 36
1.0
 17
0.0
 27
0.0
 37
0.0
 40
130.5653029948602
 41
1.859099804305284
 42
50.0
 43
0.0
 44
0.0
 50
0.0
 51
0.0
 71
    16
 72
  2000
 73
     1
 74
     3
 75
     0
 76
     0
 77
     0
 78
     0
281
     0
 65
     1
110
0.0
120
0.0
130
0.0
111
1.0
121
0.0
131
0.0
112
0.0
122
1.0
132
0.0
 79
     0
146
0.0
  0
ENDTAB
  0
TABLE
  2
LTYPE
  5
5
330
0
100
AcDbSymbolTable
 70
     6
  0
LTYPE
  5
14
330
5
100
AcDbSymbolTableRecord
100
AcDbLinetypeTableRecord
  2
ByBlock
 70
     0
  3

 72
    65
 73
     0
 40
0.0
  0
LTYPE
  5
15
330
5
100
AcDbSymbolTableRecord
100
AcDbLinetypeTableRecord
  2
ByLayer
 70
     0
  3

 72
    65
 73
     0
 40
0.0
  0
LTYPE
  5
16
330
5
100
AcDbSymbolTableRecord
100
AcDbLinetypeTableRecord
  2
Continuous
 70
     0
  3
Solid line
 72
    65
 73
     0
 40
0.0
  0
LTYPE
  5
6A
330
5
100
AcDbSymbolTableRecord
100
AcDbLinetypeTableRecord
  2
HIDDEN
 70
     0
  3
Hidden __ __ __ __ __ __ __ __ __ __ __ __ __ __
 72
    65
 73
     2
 40
1.905
 49
1.27
 74
     0
 49
-0.635
 74
     0
  0
LTYPE
  5
6B
330
5
100
AcDbSymbolTableRecord
100
AcDbLinetypeTableRecord
  2
PHANTOM
 70
     0
  3
Phantom ______  __  __  ______  __  __  ______
 72
    65
 73
     6
 40
12.7
 49
6.35
 74
     0
 49
-1.27
 74
     0
 49
1.27
 74
     0
 49
-1.27
 74
     0
 49
1.27
 74
     0
 49
-1.27
 74
     0
  0
LTYPE
  5
6C
330
5
100
AcDbSymbolTableRecord
100
AcDbLinetypeTableRecord
  2
CENTER
 70
     0
  3
Center ____ _ ____ _ ____ _ ____ _ ____ _ ____
 72
    65
 73
     4
 40
10.16
 49
6.35
 74
     0
 49
-1.27
 74
     0
 49
1.27
 74
     0
 49
-1.27
 74
     0
  0
LTYPE
  5
6D
330
5
100
AcDbSymbolTableRecord
100
AcDbLinetypeTableRecord
  2
CENTERX2
 70
     0
  3
Center (2x) ________  __  ________  __  _____
 72
    65
 73
     4
 40
20.32
 49
12.7
 74
     0
 49
-2.54
 74
     0
 49
2.54
 74
     0
 49
-2.54
 74
     0
  0
LTYPE
  5
6E
330
5
100
AcDbSymbolTableRecord
100
AcDbLinetypeTableRecord
  2
DOT2
 70
     0
  3
Dot (.5x) ........................................
 72
    65
 73
     2
 40
0.635
 49
0.0
 74
     0
 49
-0.635
 74
     0
  0
ENDTAB
  0
TABLE
  2
LAYER
  5
2
102
{ACAD_XDICTIONARY
360
183
102
}
330
0
100
AcDbSymbolTable
 70
    18
  0
LAYER
  5
10
330
2
100
AcDbSymbolTableRecord
100
AcDbLayerTableRecord
  2
0
 70
     0
 62
     7
  6
Continuous
370
    -3
390
F
  0
LAYER
  5
6F
330
2
100
AcDbSymbolTableRecord
100
AcDbLayerTableRecord
  2
FORMAT
 70
     0
 62
     2
  6
Continuous
370
    -3
390
F
  0
LAYER
  5
70
330
2
100
AcDbSymbolTableRecord
100
AcDbLayerTableRecord
  2
외형선
 70
     0
 62
     4
  6
Continuous
370
    30
390
F
  0
LAYER
  5
71
330
2
100
AcDbSymbolTableRecord
100
AcDbLayerTableRecord
  2
숨은선
 70
     0
 62
     2
  6
HIDDEN
370
    15
390
F
  0
LAYER
  5
72
330
2
100
AcDbSymbolTableRecord
100
AcDbLayerTableRecord
  2
중심선
 70
     0
 62
     1
  6
CENTERX2
370
    -3
390
F
  0
LAYER
  5
73
330
2
100
AcDbSymbolTableRecord
100
AcDbLayerTableRecord
  2
파단선
 70
     0
 62
     4
  6
Continuous
370
    -3
390
F
  0
LAYER
  5
74
330
2
100
AcDbSymbolTableRecord
100
AcDbLayerTableRecord
  2
해칭선
 70
     0
 62
   100
  6
Continuous
370
    -3
390
F
  0
LAYER
  5
75
330
2
100
AcDbSymbolTableRecord
100
AcDbLayerTableRecord
  2
가는실선
 70
     0
 62
     4
  6
Continuous
370
    -3
390
F
  0
LAYER
  5
76
330
2
100
AcDbSymbolTableRecord
100
AcDbLayerTableRecord
  2
치수_보조선
 70
     0
 62
     4
  6
Continuous
370
    -3
390
F
  0
LAYER
  5
77
330
2
100
AcDbSymbolTableRecord
100
AcDbLayerTableRecord
  2
치수문자_일반주서
 70
     0
 62
     7
  6
Continuous
370
    15
390
F
  0
LAYER
  5
78
330
2
100
AcDbSymbolTableRecord
100
AcDbLayerTableRecord
  2
개별주서
 70
     0
 62
   100
  6
Continuous
370
    30
390
F
  0
LAYER
  5
79
330
2
100
AcDbSymbolTableRecord
100
AcDbLayerTableRecord
  2
중간선
 70
     0
 62
     2
  6
Continuous
370
    15
390
F
  0
LAYER
  5
7A
330
2
100
AcDbSymbolTableRecord
100
AcDbLayerTableRecord
  2
윤곽선
 70
     0
 62
     3
  6
Continuous
370
    40
390
F
  0
LAYER
  5
7B
330
2
100
AcDbSymbolTableRecord
100
AcDbLayerTableRecord
  2
중심마크
 70
     0
 62
   100
  6
Continuous
370
    30
390
F
  0
LAYER
  5
7C
330
2
100
AcDbSymbolTableRecord
100
AcDbLayerTableRecord
  2
가상선
 70
     0
 62
     4
  6
PHANTOM
370
    -3
390
F
  0
LAYER
  5
7D
330
2
100
AcDbSymbolTableRecord
100
AcDbLayerTableRecord
  2
특수지정선
 70
     0
 62
     5
  6
CENTERX2
370
    60
390
F
  0
LAYER
  5
7E
330
2
100
AcDbSymbolTableRecord
100
AcDbLayerTableRecord
  2
참조1
 70
     0
 62
    -4
  6
Continuous
370
    -3
390
F
  0
LAYER
  5
18A
330
2
100
AcDbSymbolTableRecord
100
AcDbLayerTableRecord
  2
Defpoints
 70
     0
 62
     7
  6
Continuous
290
     0
370
    -3
390
F
  0
ENDTAB
  0
TABLE
  2
STYLE
  5
3
330
0
100
AcDbSymbolTable
 70
     2
  0
STYLE
  5
11
330
3
100
AcDbSymbolTableRecord
100
AcDbTextStyleTableRecord
  2
Standard
 70
     0
 40
0.0
 41
1.0
 50
0.0
 71
     0
 42
3.5
  3
txt
  4

  0
STYLE
  5
94
330
3
100
AcDbSymbolTableRecord
100
AcDbTextStyleTableRecord
  2
SLDTEXTSTYLE0
 70
     0
 40
0.0
 41
0.75
 50
0.0
 71
     0
 42
3.5
  3
TXT
  4

  0
ENDTAB
  0
TABLE
  2
VIEW
  5
6
330
0
100
AcDbSymbolTable
 70
     0
  0
ENDTAB
  0
TABLE
  2
UCS
  5
7
330
0
100
AcDbSymbolTable
 70
     0
  0
ENDTAB
  0
TABLE
  2
APPID
  5
9
330
0
100
AcDbSymbolTable
 70
     1
  0
APPID
  5
12
330
9
100
AcDbSymbolTableRecord
100
AcDbRegAppTableRecord
  2
ACAD
 70
     0
  0
ENDTAB
  0
TABLE
  2
DIMSTYLE
  5
A
330
0
100
AcDbSymbolTable
 70
     4
100
AcDbDimStyleTable
  0
DIMSTYLE
105
27
330
A
100
AcDbSymbolTableRecord
100
AcDbDimStyleTableRecord
  2
ISO-25
 70
     0
 41
2.5
 42
0.625
 43
3.75
 44
1.25
 73
     0
 74
     0
 77
     1
 78
     8
140
2.5
141
2.5
143
0.03937007874016
147
0.625
171
     3
172
     1
178
     0
271
     2
272
     2
274
     3
278
    44
283
     0
284
     8
340
11
  0
DIMSTYLE
105
DA
102
{ACAD_REACTORS
330
D9
330
EE
330
102
330
117
102
}
330
A
100
AcDbSymbolTableRecord
100
AcDbDimStyleTableRecord
  2
SLDDIMSTYLE0
 70
     0
 41
3.302
 44
0.0
 45
0.000000001
 73
     0
 74
     0
 77
     1
 78
    12
 79
     3
140
3.5
143
0.0393700787401575
147
0.875
148
0.000000001
170
     1
172
     1
173
     1
178
     0
271
     2
272
     2
276
     2
284
    12
289
     0
340
94
  0
DIMSTYLE
105
103
330
A
100
AcDbSymbolTableRecord
100
AcDbDimStyleTableRecord
  2
SLDDIMSTYLE1
 70
     0
 41
3.302
 44
0.0
 45
0.000000001
 73
     0
 74
     0
 77
     1
 78
    12
 79
     3
140
3.5
143
0.0393700787401575
147
0.875
148
0.000000001
170
     1
173
     1
178
     0
271
     2
272
     2
276
     2
284
    12
340
94
  0
DIMSTYLE
105
118
330
A
100
AcDbSymbolTableRecord
100
AcDbDimStyleTableRecord
  2
SLDDIMSTYLE2
 70
     0
 41
3.302
 44
0.0
 45
0.000000001
 73
     0
 74
     0
 77
     1
 78
     4
 79
     1
140
3.5
143
0.0393700787401575
147
0.875
148
0.000000001
170
     1
173
     1
178
     0
271
     2
272
     2
276
     2
284
    12
340
94
  0
ENDTAB
  0
TABLE
  2
BLOCK_RECORD
  5
1
330
0
100
AcDbSymbolTable
 70
     8
  0
BLOCK_RECORD
  5
1F
330
1
100
AcDbSymbolTableRecord
100
AcDbBlockTableRecord
  2
*Model_Space
340
22
  0
BLOCK_RECORD
  5
1B
330
1
100
AcDbSymbolTableRecord
100
AcDbBlockTableRecord
  2
*Paper_Space
340
1E
  0
BLOCK_RECORD
  5
23
330
1
100
AcDbSymbolTableRecord
100
AcDbBlockTableRecord
  2
*Paper_Space0
340
26
  0
BLOCK_RECORD
  5
7F
330
1
100
AcDbSymbolTableRecord
100
AcDbBlockTableRecord
  2
블럭10
340
0
102
{BLKREFS
331
D2
102
}
  0
BLOCK_RECORD
  5
DB
330
1
100
AcDbSymbolTableRecord
100
AcDbBlockTableRecord
  2
_D
340
0
  0
BLOCK_RECORD
  5
EF
330
1
100
AcDbSymbolTableRecord
100
AcDbBlockTableRecord
  2
_D_1
340
0
  0
BLOCK_RECORD
  5
104
330
1
100
AcDbSymbolTableRecord
100
AcDbBlockTableRecord
  2
_D_2
340
0
  0
BLOCK_RECORD
  5
119
330
1
100
AcDbSymbolTableRecord
100
AcDbBlockTableRecord
  2
_D_3
340
0
  0
BLOCK_RECORD
  5
132
330
1
100
AcDbSymbolTableRecord
100
AcDbBlockTableRecord
  2
SW_DOWELSYMBOL_0
340
0
102
{BLKREFS
331
138
102
}
  0
ENDTAB
  0
ENDSEC
  0
SECTION
  2
BLOCKS
  0
BLOCK
  5
20
330
1F
100
AcDbEntity
  8
0
100
AcDbBlockBegin
  2
*Model_Space
 70
     0
 10
0.0
 20
0.0
 30
0.0
  3
*Model_Space
  1
*Model_Space
  0
ENDBLK
  5
21
330
1F
100
AcDbEntity
  8
0
100
AcDbBlockEnd
  0
BLOCK
  5
1C
330
1B
100
AcDbEntity
 67
     1
  8
0
100
AcDbBlockBegin
  2
*Paper_Space
 70
     0
 10
0.0
 20
0.0
 30
0.0
  3
*Paper_Space
  1
*Paper_Space
  0
ENDBLK
  5
1D
330
1B
100
AcDbEntity
 67
     1
  8
0
100
AcDbBlockEnd
  0
BLOCK
  5
24
330
23
100
AcDbEntity
  8
0
100
AcDbBlockBegin
  2
*Paper_Space0
 70
     0
 10
0.0
 20
0.0
 30
0.0
  3
*Paper_Space0
  1
*Paper_Space0
  0
ENDBLK
  5
25
330
23
100
AcDbEntity
  8
0
100
AcDbBlockEnd
  0
BLOCK
  5
80
330
7F
100
AcDbEntity
  8
0
100
AcDbBlockBegin
  2
블럭10
 70
     2
 10
0.0
 20
0.0
 30
0.0
  3
블럭10
  1
블럭10
  0
ELLIPSE
  5
82
330
7F
100
AcDbEntity
  8
중심선
100
AcDbEllipse
 10
20.54032771741204
 20
12.0471743016438
 30
0.0
 11
6.600054785286829
 21
-1.261213355974178E-13
 31
0.0
210
0.0
220
0.0
230
1.0
 40
0.636358354079598
 41
0.9219305317359503
 42
6.513795318482858
  0
ELLIPSE
  5
83
330
7F
100
AcDbEntity
  8
중심선
100
AcDbEllipse
 10
20.54032771746488
 20
12.04717430159265
 30
0.0
 11
3.960054785062283
 21
1.540847449632565E-10
 31
0.0
210
0.0
220
0.0
230
1.0
 40
0.3939339440162632
 41
1.131841032648279
 42
5.62031148352944
  0
LINE
  5
84
330
7F
100
AcDbEntity
  8
중심선
100
AcDbLine
 10
2.268634060543552
 20
16.24717430164393
 30
0.0
 11
5.714909304380834
 21
16.24717430164393
 31
0.0
  0
LINE
  5
85
330
7F
100
AcDbEntity
  8
중심선
100
AcDbLine
 10
5.245725140726316
 20
7.84717430164391
 30
0.0
 11
8.692000384563599
 21
7.84717430164391
 31
0.0
  0
LINE
  5
86
330
7F
100
AcDbEntity
  8
중심선
100
AcDbLine
 10
15.74043728645272
 20
16.24717430164393
 30
0.0
 11
8.692000384563599
 21
7.84717430164391
 31
0.0
  0
LINE
  5
87
330
7F
100
AcDbEntity
  8
중심선
100
AcDbLine
 10
0.1404042013395286
 20
13.71084872107135
 30
0.0
 11
3.58671253028996
 21
13.71088815037384
 31
0.0
  0
LINE
  5
88
330
7F
100
AcDbEntity
  8
중심선
100
AcDbLine
 10
2.750260043222114
 20
10.84717430164391
 30
0.0
 11
6.196535287059397
 21
10.84717430164391
 31
0.0
  0
LINE
  5
89
330
7F
100
AcDbEntity
  8
중심선
100
AcDbLine
 10
12.29416204261559
 20
16.24717430164393
 30
0.0
 11
5.245725140726316
 21
7.84717430164391
 31
0.0
  0
LINE
  5
8A
330
7F
100
AcDbEntity
  8
중심선
100
AcDbLine
 10
10.72767329541681
 20
16.24717430164393
 30
0.0
 11
6.196535287059397
 21
10.84717430164391
 31
0.0
  0
LINE
  5
8B
330
7F
100
AcDbEntity
  8
중심선
100
AcDbLine
 10
7.28139805157953
 20
16.24717430164393
 30
0.0
 11
2.750260043222114
 21
10.84717430164391
 31
0.0
  0
LINE
  5
8C
330
7F
100
AcDbEntity
  8
중심선
100
AcDbLine
 10
5.714909304380834
 20
16.24717430164393
 30
0.0
 11
3.58671253028996
 21
13.71088815037384
 31
0.0
  0
LINE
  5
8D
330
7F
100
AcDbEntity
  8
중심선
100
AcDbLine
 10
2.268634060543552
 20
16.24717430164393
 30
0.0
 11
0.1404042013395286
 21
13.71084872107135
 31
0.0
  0
LINE
  5
8E
330
7F
100
AcDbEntity
  8
중심선
100
AcDbLine
 10
7.28139805157953
 20
16.24717430164393
 30
0.0
 11
10.72767329541681
 21
16.24717430164393
 31
0.0
  0
LINE
  5
8F
330
7F
100
AcDbEntity
  8
중심선
100
AcDbLine
 10
12.29416204261559
 20
16.24717430164393
 30
0.0
 11
15.74043728645272
 21
16.24717430164393
 31
0.0
  0
LINE
  5
90
330
7F
100
AcDbEntity
  8
중심선
100
AcDbLine
 10
19.22036997980202
 20
11.08717430171403
 30
0.0
 11
23.66174974927406
 21
11.08717430171406
 31
0.0
  0
LINE
  5
91
330
7F
100
AcDbEntity
  8
중심선
100
AcDbLine
 10
19.22039502424796
 20
13.00717430171391
 30
0.0
 11
19.22036997980202
 21
11.08717430171403
 31
0.0
  0
LINE
  5
92
330
7F
100
AcDbEntity
  8
중심선
100
AcDbLine
 10
19.22039502424796
 20
13.00717430171391
 30
0.0
 11
26.96566020931264
 21
13.00717430171391
 31
0.0
  0
LINE
  5
93
330
7F
100
AcDbEntity
  8
중심선
100
AcDbLine
 10
22.22332737316547
 20
13.45928029700563
 30
0.0
 11
24.52862924686651
 21
15.39360700705356
 31
0.0
  0
ATTDEF
  5
95
330
7F
100
AcDbEntity
  8
FORMAT
 62
     2
100
AcDbText
 10
3.448148490846466
 20
2.075366912832191
 30
0.0
 40
4.233333333333333
  1
EM154012
 41
0.75
  7
SLDTEXTSTYLE0
 11
3.448148490846466
 21
-0.0412997538344756
 31
0.0
100
AcDbAttributeDefinition
  3

  2
AUTOATTR0
 70
     0
 74
     1
  0
ENDBLK
  5
81
330
7F
100
AcDbEntity
  8
0
100
AcDbBlockEnd
  0
BLOCK
  5
DC
330
DB
100
AcDbEntity
  8
0
100
AcDbBlockBegin
  2
_D
 70
     0
 10
0.0
 20
0.0
 30
0.0
  3
_D
  1
_D
  0
LINE
  5
DE
330
DB
100
AcDbEntity
  8
치수문자_일반주서
 62
     0
370
    -2
100
AcDbLine
 10
-24.5575
 20
2.381250000000002
 30
0.0
 11
-37.925
 21
2.381249999999952
 31
0.0
  0
LINE
  5
DF
330
DB
100
AcDbEntity
  8
치수문자_일반주서
 62
     0
370
    -2
100
AcDbLine
 10
-24.5575
 20
-2.381250000000001
 30
0.0
 11
-37.92499999999998
 21
-2.381250000000051
 31
0.0
  0
LINE
  5
E0
330
DB
100
AcDbEntity
  8
치수문자_일반주서
 62
     0
370
    -2
100
AcDbLine
 10
-37.92499999999999
 20
-0.9207500000000475
 30
0.0
 11
-37.92499999999999
 21
0.9207499999999489
 31
0.0
  0
SOLID
  5
E1
330
DB
100
AcDbEntity
  8
치수문자_일반주서
 62
     0
100
AcDbTrace
 10
-37.37466666666666
 20
-0.9207500000000458
 30
0.0
 11
-38.47533333333332
 21
-0.9207500000000491
 31
0.0
 12
-37.925
 22
2.381249999999952
 32
0.0
 13
-37.925
 23
2.381249999999952
 33
0.0
  0
SOLID
  5
E2
330
DB
100
AcDbEntity
  8
치수문자_일반주서
 62
     0
100
AcDbTrace
 10
-38.47533333333332
 20
0.9207499999999472
 30
0.0
 11
-37.37466666666666
 21
0.9207499999999506
 31
0.0
 12
-37.92499999999998
 22
-2.381250000000051
 32
0.0
 13
-37.92499999999998
 23
-2.381250000000051
 33
0.0
  0
MTEXT
  5
E3
330
DB
100
AcDbEntity
  8
치수문자_일반주서
 62
     0
100
AcDbMText
 10
-42.29999999999999
 20
-0.0000000000000113
 30
0.0
 40
3.5
 41
0.0
 71
     2
 72
     1
  1
\A1;%%c4.76 [3/16]
  7
SLDTEXTSTYLE0
 11
-2.983906501879684E-15
 21
1.0
 31
0.0
 73
     1
 44
1.0
  0
POINT
  5
E4
330
DB
100
AcDbEntity
  8
Defpoints
 62
     0
100
AcDbPoint
 10
-24.495
 20
2.381250000000002
 30
0.0
  0
POINT
  5
E5
330
DB
100
AcDbEntity
  8
Defpoints
 62
     0
100
AcDbPoint
 10
-24.495
 20
-2.381250000000001
 30
0.0
  0
POINT
  5
E6
330
DB
100
AcDbEntity
  8
Defpoints
 62
     0
100
AcDbPoint
 10
-37.92499999999998
 20
-2.381250000000051
 30
0.0
  0
ENDBLK
  5
DD
330
DB
100
AcDbEntity
  8
0
100
AcDbBlockEnd
  0
BLOCK
  5
F0
330
EF
100
AcDbEntity
  8
0
100
AcDbBlockBegin
  2
_D_1
 70
     0
 10
0.0
 20
0.0
 30
0.0
  3
_D_1
  1
_D_1
  0
LINE
  5
F2
330
EF
100
AcDbEntity
  8
치수문자_일반주서
 62
     0
370
    -2
100
AcDbLine
 10
25.93750000000001
 20
2.38125
 30
0.0
 11
43.46112120167359
 21
2.381250000000065
 31
0.0
  0
LINE
  5
F3
330
EF
100
AcDbEntity
  8
치수문자_일반주서
 62
     0
370
    -2
100
AcDbLine
 10
25.93750000000001
 20
-2.381249999999996
 30
0.0
 11
43.46112120167361
 21
-2.381249999999927
 31
0.0
  0
LINE
  5
F4
330
EF
100
AcDbEntity
  8
치수문자_일반주서
 62
     0
370
    -2
100
AcDbLine
 10
43.46112120167359
 20
2.381250000000065
 30
0.0
 11
43.46112120167349
 21
36.98525000000006
 31
0.0
  0
LINE
  5
F5
330
EF
100
AcDbEntity
  8
치수문자_일반주서
 62
     0
370
    -2
100
AcDbLine
 10
43.46112120167359
 20
2.381250000000065
 30
0.0
 11
43.46112120167361
 21
-2.381249999999927
 31
0.0
  0
LINE
  5
F6
330
EF
100
AcDbEntity
  8
치수문자_일반주서
 62
     0
370
    -2
100
AcDbLine
 10
43.46112120167358
 20
5.683250000000065
 30
0.0
 11
43.46112120167358
 21
8.985250000000065
 31
0.0
  0
LINE
  5
F7
330
EF
100
AcDbEntity
  8
치수문자_일반주서
 62
     0
370
    -2
100
AcDbLine
 10
43.46112120167361
 20
-5.683249999999926
 30
0.0
 11
43.46112120167362
 21
-8.985249999999926
 31
0.0
  0
SOLID
  5
F8
330
EF
100
AcDbEntity
  8
치수문자_일반주서
 62
     0
100
AcDbTrace
 10
42.91078786834025
 20
5.683250000000063
 30
0.0
 11
44.01145453500692
 21
5.683250000000067
 31
0.0
 12
43.46112120167359
 22
2.381250000000065
 32
0.0
 13
43.46112120167359
 23
2.381250000000065
 33
0.0
  0
SOLID
  5
F9
330
EF
100
AcDbEntity
  8
치수문자_일반주서
 62
     0
100
AcDbTrace
 10
44.01145453500695
 20
-5.683249999999925
 30
0.0
 11
42.91078786834028
 21
-5.683249999999928
 31
0.0
 12
43.46112120167361
 22
-2.381249999999927
 32
0.0
 13
43.46112120167361
 23
-2.381249999999927
 33
0.0
  0
MTEXT
  5
FA
330
EF
100
AcDbEntity
  8
치수문자_일반주서
 62
     0
100
AcDbMText
 10
39.08612120167353
 20
22.98525000000005
 30
0.0
 40
3.5
 41
0.0
 71
     2
 72
     1
  1
\A1;%%c4.76 [3/16]
  7
SLDTEXTSTYLE0
 11
-2.983906501879689E-15
 21
1.0
 31
0.0
 73
     1
 44
1.0
  0
POINT
  5
FB
330
EF
100
AcDbEntity
  8
Defpoints
 62
     0
100
AcDbPoint
 10
25.87500000000001
 20
2.381249999999999
 30
0.0
  0
POINT
  5
191
330
EF
100
AcDbEntity
  8
Defpoints
 62
     0
100
AcDbPoint
 10
25.87500000000001
 20
-2.381249999999996
 30
0.0
  0
POINT
  5
192
330
EF
100
AcDbEntity
  8
Defpoints
 62
     0
100
AcDbPoint
 10
43.46112120167361
 20
-2.38124999999993
 30
0.0
  0
ENDBLK
  5
F1
330
EF
100
AcDbEntity
  8
0
100
AcDbBlockEnd
  0
BLOCK
  5
105
330
104
100
AcDbEntity
  8
0
100
AcDbBlockBegin
  2
_D_2
 70
     0
 10
0.0
 20
0.0
 30
0.0
  3
_D_2
  1
_D_2
  0
LINE
  5
107
330
104
100
AcDbEntity
  8
치수문자_일반주서
 62
     0
370
    -2
100
AcDbLine
 10
25.87500000000001
 20
2.443750000000002
 30
0.0
 11
25.87500000000001
 21
24.69874999999996
 31
0.0
  0
LINE
  5
108
330
104
100
AcDbEntity
  8
치수문자_일반주서
 62
     0
370
    -2
100
AcDbLine
 10
10.0
 20
1.641173065219678
 30
0.0
 11
10.0
 21
24.69874999999996
 31
0.0
  0
LINE
  5
109
330
104
100
AcDbEntity
  8
치수문자_일반주서
 62
     0
370
    -2
100
AcDbLine
 10
10.0
 20
24.69874999999996
 30
0.0
 11
-21.979
 21
24.69874999999996
 31
0.0
  0
LINE
  5
10A
330
104
100
AcDbEntity
  8
치수문자_일반주서
 62
     0
370
    -2
100
AcDbLine
 10
25.87500000000001
 20
24.69874999999996
 30
0.0
 11
10.0
 21
24.69874999999996
 31
0.0
  0
LINE
  5
10B
330
104
100
AcDbEntity
  8
치수문자_일반주서
 62
     0
370
    -2
100
AcDbLine
 10
29.17700000000001
 20
24.69874999999996
 30
0.0
 11
32.47900000000001
 21
24.69874999999996
 31
0.0
  0
LINE
  5
10C
330
104
100
AcDbEntity
  8
치수문자_일반주서
 62
     0
370
    -2
100
AcDbLine
 10
6.698
 20
24.69874999999996
 30
0.0
 11
3.396000000000001
 21
24.69874999999996
 31
0.0
  0
SOLID
  5
10D
330
104
100
AcDbEntity
  8
치수문자_일반주서
 62
     0
100
AcDbTrace
 10
29.17700000000001
 20
25.2490833333333
 30
0.0
 11
29.17700000000001
 21
24.14841666666663
 31
0.0
 12
25.87500000000001
 22
24.69874999999996
 32
0.0
 13
25.87500000000001
 23
24.69874999999996
 33
0.0
  0
SOLID
  5
10E
330
104
100
AcDbEntity
  8
치수문자_일반주서
 62
     0
100
AcDbTrace
 10
6.698
 20
24.14841666666663
 30
0.0
 11
6.698
 21
25.2490833333333
 31
0.0
 12
10.0
 22
24.69874999999996
 32
0.0
 13
10.0
 23
24.69874999999996
 33
0.0
  0
MTEXT
  5
10F
330
104
100
AcDbEntity
  8
치수문자_일반주서
 62
     0
100
AcDbMText
 10
-9.2915
 20
29.07374999999996
 30
0.0
 40
3.5
 41
0.0
 71
     2
 72
     1
  1
\A1;15.88 [5/8]
  7
SLDTEXTSTYLE0
 73
     1
 44
1.0
  0
POINT
  5
110
330
104
100
AcDbEntity
  8
Defpoints
 62
     0
100
AcDbPoint
 10
25.87500000000001
 20
2.381250000000002
 30
0.0
  0
POINT
  5
18B
330
104
100
AcDbEntity
  8
Defpoints
 62
     0
100
AcDbPoint
 10
10.0
 20
1.578673065219678
 30
0.0
  0
POINT
  5
18C
330
104
100
AcDbEntity
  8
Defpoints
 62
     0
100
AcDbPoint
 10
10.0
 20
24.69874999999996
 30
0.0
  0
ENDBLK
  5
106
330
104
100
AcDbEntity
  8
0
100
AcDbBlockEnd
  0
BLOCK
  5
11A
330
119
100
AcDbEntity
  8
0
100
AcDbBlockBegin
  2
_D_3
 70
     0
 10
0.0
 20
0.0
 30
0.0
  3
_D_3
  1
_D_3
  0
LINE
  5
11C
330
119
100
AcDbEntity
  8
치수문자_일반주서
 62
     0
370
    -2
100
AcDbLine
 10
25.87500000000001
 20
2.443750000000002
 30
0.0
 11
25.87500000000001
 21
39.52280344013394
 31
0.0
  0
LINE
  5
11D
330
119
100
AcDbEntity
  8
치수문자_일반주서
 62
     0
370
    -2
100
AcDbLine
 10
-24.925
 20
2.013749999999996
 30
0.0
 11
-24.925
 21
39.52280344013394
 31
0.0
  0
LINE
  5
11E
330
119
100
AcDbEntity
  8
치수문자_일반주서
 62
     0
370
    -2
100
AcDbLine
 10
22.57300000000001
 20
39.52280344013394
 30
0.0
 11
-21.623
 21
39.52280344013394
 31
0.0
  0
SOLID
  5
11F
330
119
100
AcDbEntity
  8
치수문자_일반주서
 62
     0
100
AcDbTrace
 10
22.57300000000001
 20
38.97247010680061
 30
0.0
 11
22.57300000000001
 21
40.07313677346728
 31
0.0
 12
25.87500000000001
 22
39.52280344013394
 32
0.0
 13
25.87500000000001
 23
39.52280344013394
 33
0.0
  0
SOLID
  5
120
330
119
100
AcDbEntity
  8
치수문자_일반주서
 62
     0
100
AcDbTrace
 10
-21.623
 20
40.07313677346728
 30
0.0
 11
-21.623
 21
38.97247010680061
 31
0.0
 12
-24.925
 22
39.52280344013394
 32
0.0
 13
-24.925
 23
39.52280344013394
 33
0.0
  0
MTEXT
  5
121
330
119
100
AcDbEntity
  8
치수문자_일반주서
 62
     0
100
AcDbMText
 10
0.4750000000000343
 20
43.89780344013394
 30
0.0
 40
3.5
 41
0.0
 71
     2
 72
     1
  1
\A1;50.8 [2]
  7
SLDTEXTSTYLE0
 73
     1
 44
1.0
  0
POINT
  5
122
330
119
100
AcDbEntity
  8
Defpoints
 62
     0
100
AcDbPoint
 10
25.87500000000001
 20
2.381250000000002
 30
0.0
  0
POINT
  5
123
330
119
100
AcDbEntity
  8
Defpoints
 62
     0
100
AcDbPoint
 10
-24.925
 20
1.951249999999996
 30
0.0
  0
POINT
  5
124
330
119
100
AcDbEntity
  8
Defpoints
 62
     0
100
AcDbPoint
 10
-24.925
 20
39.52280344013394
 30
0.0
  0
ENDBLK
  5
11B
330
119
100
AcDbEntity
  8
0
100
AcDbBlockEnd
  0
BLOCK
  5
133
330
132
100
AcDbEntity
  8
0
100
AcDbBlockBegin
  2
SW_DOWELSYMBOL_0
 70
     0
 10
0.0
 20
0.0
 30
0.0
  3
SW_DOWELSYMBOL_0
  1
SW_DOWELSYMBOL_0
  0
CIRCLE
  5
135
330
132
100
AcDbEntity
  8
해칭선
 62
     0
100
AcDbCircle
 10
0.0
 20
0.0
 30
0.0
 40
3.000000000000001
  0
HATCH
  5
136
330
132
100
AcDbEntity
  8
0
  6
Continuous
 62
     0
370
     0
100
AcDbHatch
 10
0.0
 20
0.0
 30
0.0
210
0.0
220
0.0
230
1.0
  2
SOLID
 70
     1
 71
     0
 91
        1
 92
        0
 93
        3
 72
     2
 10
0.0
 20
0.0
 40
3.000000000000001
 50
0.0
 51
90.0
 73
     1
 72
     1
 10
0.0
 20
3.000000000000001
 11
0.0
 21
0.0
 72
     1
 10
0.0
 20
0.0
 11
3.000000000000001
 21
0.0
 97
        0
 75
     0
 76
     1
 98
        1
 10
0.0
 20
0.0
  0
HATCH
  5
137
330
132
100
AcDbEntity
  8
0
  6
Continuous
 62
     0
370
     0
100
AcDbHatch
 10
0.0
 20
0.0
 30
0.0
210
0.0
220
0.0
230
1.0
  2
SOLID
 70
     1
 71
     0
 91
        1
 92
        0
 93
        3
 72
     2
 10
0.0
 20
0.0
 40
3.000000000000001
 50
180.0
 51
270.0000000000008
 73
     1
 72
     1
 10
0.0
 20
-3.000000000000001
 11
0.0
 21
0.0
 72
     1
 10
0.0
 20
0.0
 11
-3.000000000000001
 21
0.0
 97
        0
 75
     0
 76
     1
 98
        1
 10
0.0
 20
0.0
  0
ENDBLK
  5
134
330
132
100
AcDbEntity
  8
0
100
AcDbBlockEnd
  0
ENDSEC
  0
SECTION
  2
ENTITIES
  0
LINE
  5
96
330
1F
100
AcDbEntity
  8
외형선
  6
Continuous
370
    15
100
AcDbLine
 10
9.110107455560776
 20
2.381250000000001
 30
0.0
 11
-24.495
 21
2.381249999999999
 31
0.0
  0
LINE
  5
97
330
1F
100
AcDbEntity
  8
외형선
  6
Continuous
370
    15
100
AcDbLine
 10
-24.495
 20
-2.381250000000001
 30
0.0
 11
9.110107455560776
 21
-2.38125
 31
0.0
  0
LINE
  5
98
330
1F
100
AcDbEntity
  8
외형선
  6
Continuous
370
    15
100
AcDbLine
 10
-24.495
 20
2.381249999999997
 30
0.0
 11
-24.925
 21
1.951249999999996
 31
0.0
  0
LINE
  5
99
330
1F
100
AcDbEntity
  8
외형선
  6
Continuous
370
    15
100
AcDbLine
 10
-24.925
 20
-1.95125
 30
0.0
 11
-24.495
 21
-2.38125
 31
0.0
  0
ARC
  5
9A
330
1F
100
AcDbEntity
  8
외형선
  6
Continuous
370
    15
100
AcDbCircle
 10
9.460107455560776
 20
-1.958816775601703
 30
0.0
 40
0.3500000000000005
100
AcDbArc
 50
94.08044332137732
 51
179.9999999108958
  0
SPLINE
  5
9B
330
1F
100
AcDbEntity
  8
외형선
  6
Continuous
370
    15
100
AcDbSpline
210
0.0
220
0.0
230
1.0
 70
     8
 71
     3
 72
     9
 73
     5
 74
     0
 42
0.000000001
 43
0.00000001
 40
0.0
 40
0.0
 40
0.0
 40
0.0
 40
0.4394289042056692
 40
1.0
 40
1.0
 40
1.0
 40
1.0
 10
10.0
 20
1.578673064322126
 30
0.0
 10
9.869649804361023
 20
1.584368305454118
 30
0.0
 10
9.573014343217185
 20
1.597328857382962
 30
0.0
 10
9.276405125428813
 20
1.622296715200503
 30
0.0
 10
9.110134571190487
 20
1.63629297461692
 30
0.0
  0
LINE
  5
9C
330
1F
100
AcDbEntity
  8
외형선
  6
Continuous
370
    15
100
AcDbLine
 10
9.434876607483345
 20
-1.610244802757282
 30
0.0
 11
9.64004288322251
 21
-1.596548835215084
 31
0.0
  0
SPLINE
  5
9D
330
1F
100
AcDbEntity
  8
0
  6
Continuous
 62
     1
370
    15
100
AcDbSpline
210
0.0
220
0.0
230
1.0
 70
     8
 71
     3
 72
     9
 73
     5
 74
     0
 42
0.000000001
 43
0.00000001
 40
0.0
 40
0.0
 40
0.0
 40
0.0
 40
0.4991394354925528
 40
0.9999999999999999
 40
0.9999999999999999
 40
0.9999999999999999
 40
0.9999999999999999
 10
19.70650175972839
 20
0.6101797778129332
 30
0.0
 10
19.59633635901308
 20
0.6625645396227712
 30
0.0
 10
19.37562568603931
 20
0.7675146960017085
 30
0.0
 10
19.15486964820682
 20
0.88288311095622
 30
0.0
 10
19.04430165447961
 20
0.9406666003966659
 30
0.0
  0
LINE
  5
9E
330
1F
100
AcDbEntity
  8
0
  6
Continuous
 62
     1
370
    15
100
AcDbLine
 10
18.42902013503146
 20
0.6487059580786241
 30
0.0
 11
18.36360287531772
 21
0.6846247609596366
 31
0.0
  0
LINE
  5
9F
330
1F
100
AcDbEntity
  8
0
  6
Continuous
 62
     1
370
    15
100
AcDbLine
 10
14.24096820261787
 20
2.381250000000002
 30
0.0
 11
13.08723032573446
 21
2.381250000000002
 31
0.0
  0
LINE
  5
A0
330
1F
100
AcDbEntity
  8
0
  6
Continuous
 62
     1
370
    15
100
AcDbLine
 10
13.08723032573446
 20
-2.381250000000001
 30
0.0
 11
14.24096820261787
 21
-2.381250000000001
 31
0.0
  0
SPLINE
  5
A1
330
1F
100
AcDbEntity
  8
0
  6
Continuous
 62
     1
370
    15
100
AcDbSpline
210
0.0
220
0.0
230
1.0
 70
     8
 71
     3
 72
    15
 73
    11
 74
     0
 42
0.000000001
 43
0.00000001
 40
0.0
 40
0.0
 40
0.0
 40
0.0
 40
0.1391564783010571
 40
0.2521897766211686
 40
0.3902069574653749
 40
0.5258384192712767
 40
0.6648582716627803
 40
0.8102428714568009
 40
0.9535435314031904
 40
1.0
 40
1.0
 40
1.0
 40
1.0
 10
18.91801464321541
 20
1.892233382105005
 30
0.0
 10
18.83752228683465
 20
1.887778216553283
 30
0.0
 10
18.69164801908076
 20
1.879704232366442
 30
0.0
 10
18.44171882103143
 20
1.868583669867889
 30
0.0
 10
18.18437102333412
 20
1.864307986031623
 30
0.0
 10
17.91173405022933
 20
1.860021848057219
 30
0.0
 10
17.6374690436577
 20
1.85911594741185
 30
0.0
 10
17.36005924921127
 20
1.861855515218075
 30
0.0
 10
17.14348598360043
 20
1.866084163520176
 30
0.0
 10
17.02031140271899
 20
1.870310199482065
 30
0.0
 10
16.9901557184895
 20
1.871344820465528
 30
0.0
  0
SPLINE
  5
A2
330
1F
100
AcDbEntity
  8
0
  6
Continuous
 62
     1
370
    15
100
AcDbSpline
210
0.0
220
0.0
230
1.0
 70
     8
 71
     3
 72
    20
 73
    16
 74
     0
 42
0.000000001
 43
0.00000001
 40
0.0
 40
0.0
 40
0.0
 40
0.0
 40
0.123992541774543
 40
0.221452764853953
 40
0.2913496306719313
 40
0.3441765735748006
 40
0.3910482763026515
 40
0.4713814732563169
 40
0.5617447891081317
 40
0.6657336596514655
 40
0.7645755221474899
 40
0.8131323211122121
 40
0.8635814770065648
 40
0.9247252545716209
 40
0.9999999999999999
 40
0.9999999999999999
 40
0.9999999999999999
 40
0.9999999999999999
 10
15.33665129084224
 20
-1.981539104698189
 30
0.0
 10
15.48468120987888
 20
-1.967405759688646
 30
0.0
 10
15.74906513477155
 20
-1.942163367814068
 30
0.0
 10
16.09754038440341
 20
-1.916051440551813
 30
0.0
 10
16.36278861677244
 20
-1.899187816418851
 30
0.0
 10
16.56817826436976
 20
-1.888080519197298
 30
0.0
 10
16.78544914837556
 20
-1.878048811117848
 30
0.0
 10
17.04661095514911
 20
-1.868631221002121
 30
0.0
 10
17.3751371956117
 20
-1.861195818223806
 30
0.0
 10
17.72608915836831
 20
-1.858556473844623
 30
0.0
 10
18.03284523355747
 20
-1.861630170794725
 30
0.0
 10
18.27370422006284
 20
-1.865886807549459
 30
0.0
 10
18.47070596952763
 20
-1.86978509928804
 30
0.0
 10
18.69153770831525
 20
-1.879729616956492
 30
0.0
 10
18.83748306208814
 20
-1.887787242908103
 30
0.0
 10
18.91801464321541
 20
-1.892233382105005
 30
0.0
  0
SPLINE
  5
A3
330
1F
100
AcDbEntity
  8
0
  6
Continuous
 62
     1
370
    15
100
AcDbSpline
210
0.0
220
0.0
230
1.0
 70
     8
 71
     3
 72
    17
 73
    13
 74
     0
 42
0.000000001
 43
0.00000001
 40
0.0
 40
0.0
 40
0.0
 40
0.0
 40
0.1767816641296245
 40
0.3003266697636565
 40
0.3789244160187068
 40
0.4621807272476717
 40
0.5590932322954515
 40
0.6514429843288302
 40
0.7249343239166354
 40
0.8433163229230645
 40
0.985765118064051
 40
1.0
 40
1.0
 40
1.0
 40
1.0
 10
20.8310093361883
 20
-1.791018929242444
 30
0.0
 10
20.93565186274995
 20
-1.774986509109412
 30
0.0
 10
21.11342449359742
 20
-1.747749728810328
 30
0.0
 10
21.33753097616786
 20
-1.717247346082552
 30
0.0
 10
21.50821295138657
 20
-1.695699418634292
 30
0.0
 10
21.66314737658013
 20
-1.677400302833312
 30
0.0
 10
21.82639514052403
 20
-1.659559213938755
 30
0.0
 10
21.98348298260357
 20
-1.643886019367556
 30
0.0
 10
22.15134339302137
 20
-1.628530224776317
 30
0.0
 10
22.34615406532184
 20
-1.612868677999865
 30
0.0
 10
22.50980246625371
 20
-1.600688795450948
 30
0.0
 10
22.60285874450679
 20
-1.596009671742977
 30
0.0
 10
22.61131300827595
 20
-1.595584568281089
 30
0.0
  0
SPLINE
  5
A4
330
1F
100
AcDbEntity
  8
0
  6
Continuous
 62
     1
370
    15
100
AcDbSpline
210
0.0
220
0.0
230
1.0
 70
     8
 71
     3
 72
    17
 73
    13
 74
     0
 42
0.000000001
 43
0.00000001
 40
0.0
 40
0.0
 40
0.0
 40
0.0
 40
0.1386669145150649
 40
0.2433624122452704
 40
0.3168946042656959
 40
0.390283167780819
 40
0.4736365161966392
 40
0.5590404390617899
 40
0.6667390018831449
 40
0.7535729291683904
 40
0.8609613867698145
 40
1.0
 40
1.0
 40
1.0
 40
1.0
 10
12.03207906614703
 20
1.628662688757408
 30
0.0
 10
11.93897274487366
 20
1.621063310307199
 30
0.0
 10
11.77556982342256
 20
1.607726292766461
 30
0.0
 10
11.56223246037797
 20
1.594293740168818
 30
0.0
 10
11.38984987631033
 20
1.585305039982133
 30
0.0
 10
11.23243369313128
 20
1.578554618322886
 30
0.0
 10
11.06792883362684
 20
1.573091620642209
 30
0.0
 10
10.88071706602481
 20
1.568839371973676
 30
0.0
 10
10.69117631924995
 20
1.566793205117456
 30
0.0
 10
10.48692266823539
 20
1.567152023868956
 30
0.0
 10
10.26121537483149
 20
1.570084680353071
 30
0.0
 10
10.09422115885097
 20
1.575575208804727
 30
0.0
 10
9.9999999999132
 20
1.578673064325401
 30
0.0
  0
SPLINE
  5
A5
330
1F
100
AcDbEntity
  8
0
  6
Continuous
 62
     1
370
    15
100
AcDbSpline
210
0.0
220
0.0
230
1.0
 70
     8
 71
     3
 72
    28
 73
    24
 74
     0
 42
0.000000001
 43
0.00000001
 40
0.0
 40
0.0
 40
0.0
 40
0.0
 40
0.0701024937903514
 40
0.1209226409888738
 40
0.1527932308945386
 40
0.1806293769406983
 40
0.2143304273491227
 40
0.2530492011413924
 40
0.2877564363749215
 40
0.3161671055853322
 40
0.368706873753647
 40
0.4298094082047348
 40
0.5046059070412087
 40
0.5618420921462907
 40
0.6117021757544612
 40
0.65470651758754
 40
0.6924982236701319
 40
0.7399162769540704
 40
0.786272339777289
 40
0.8277382200161235
 40
0.8635616447798399
 40
0.9180486163179404
 40
1.0
 40
1.0
 40
1.0
 40
1.0
 10
24.98935785815457
 20
1.628658354413374
 30
0.0
 10
24.89222725239829
 20
1.620750889273962
 30
0.0
 10
24.72468272247008
 20
1.607110981240951
 30
0.0
 10
24.51325588390251
 20
1.59400062098215
 30
0.0
 10
24.35983697992357
 20
1.58598902126657
 30
0.0
 10
24.22876327153017
 20
1.58017043860168
 30
0.0
 10
24.08748733144125
 20
1.574983566949791
 30
0.0
 10
23.93589584608169
 20
1.570733207392003
 30
0.0
 10
23.79284260611585
 20
1.568106261037913
 30
0.0
 10
23.63515488179061
 20
1.566770266461366
 30
0.0
 10
23.44776290138054
 20
1.566980924600951
 30
0.0
 10
23.18359254058066
 20
1.570840623455668
 30
0.0
 10
22.91627453437171
 20
1.579513130769947
 30
0.0
 10
22.66362517494225
 20
1.591869619529555
 30
0.0
 10
22.45552029350925
 20
1.60487921313795
 30
0.0
 10
22.27479616438489
 20
1.618383269101927
 30
0.0
 10
22.10059061926369
 20
1.632984495855068
 30
0.0
 10
21.91785075617233
 20
1.650127806483367
 30
0.0
 10
21.72852323437878
 20
1.670022357531916
 30
0.0
 10
21.55563079408483
 20
1.689922999465248
 30
0.0
 10
21.37117804766672
 20
1.71282405416592
 30
0.0
 10
21.13296324977188
 20
1.744826397799075
 30
0.0
 10
20.94431841907275
 20
1.773685047684685
 30
0.0
 10
20.8310093361883
 20
1.791018929242445
 30
0.0
  0
LINE
  5
A6
330
1F
100
AcDbEntity
  8
외형선
  6
Continuous
370
    15
100
AcDbLine
 10
9.640012265144
 20
1.596536234416511
 30
0.0
 11
10.0
 21
1.74468834441963
 31
0.0
  0
LINE
  5
A7
330
1F
100
AcDbEntity
  8
외형선
  6
Continuous
370
    15
100
AcDbLine
 10
9.110107455560776
 20
-0.7637164534736497
 30
0.0
 11
9.110107455560776
 21
2.381250000000001
 31
0.0
  0
SPLINE
  5
A8
330
1F
100
AcDbEntity
  8
외형선
  6
Continuous
370
    15
100
AcDbSpline
210
0.0
220
0.0
230
1.0
 70
     8
 71
     3
 72
    10
 73
     6
 74
     0
 42
0.000000001
 43
0.00000001
 40
0.0
 40
0.0
 40
0.0
 40
0.0
 40
0.5
 40
0.5
 40
1.0
 40
1.0
 40
1.0
 40
1.0
 10
10.0
 20
-1.229245414035235
 30
0.0
 10
9.850780361135332
 20
-1.155708868752454
 30
0.0
 10
9.701483378556382
 20
-1.079756180507177
 30
0.0
 10
9.405335387031801
 20
-0.9243779258385911
 30
0.0
 10
9.25879437692817
 20
-0.8450202195212753
 30
0.0
 10
9.110220001364624
 20
-0.7638131153376992
 30
0.0
  0
LINE
  5
A9
330
1F
100
AcDbEntity
  8
외형선
  6
Continuous
370
    15
100
AcDbLine
 10
10.0
 20
-1.229245414035234
 30
0.0
 11
10.0
 21
-1.744688344419631
 31
0.0
  0
SPLINE
  5
AA
330
1F
100
AcDbEntity
  8
외형선
  6
Continuous
370
    15
100
AcDbSpline
210
0.0
220
0.0
230
1.0
 70
     8
 71
     3
 72
    10
 73
     6
 74
     0
 42
0.000000001
 43
0.00000001
 40
0.0
 40
0.0
 40
0.0
 40
0.0
 40
0.5000000000000001
 40
0.5000000000000001
 40
1.0
 40
1.0
 40
1.0
 40
1.0
 10
10.0
 20
-1.744688344419629
 30
0.0
 10
9.850761522065778
 20
-1.686245795250559
 30
0.0
 10
9.701445681749263
 20
-1.624380554989826
 30
0.0
 10
9.405260917367052
 20
-1.494934498420688
 30
0.0
 10
9.25870105297441
 20
-1.427420337298457
 30
0.0
 10
9.110107455560776
 20
-1.35695674783274
 30
0.0
  0
LINE
  5
AB
330
1F
100
AcDbEntity
  8
외형선
  6
Continuous
370
    15
100
AcDbLine
 10
9.110107455560776
 20
-2.38125
 30
0.0
 11
9.110107455560776
 21
-1.356433411745574
 31
0.0
  0
LINE
  5
AC
330
1F
100
AcDbEntity
  8
외형선
  6
Continuous
370
    15
100
AcDbLine
 10
-24.495
 20
2.381249999999997
 30
0.0
 11
-24.495
 21
-2.381250000000001
 31
0.0
  0
LINE
  5
AD
330
1F
100
AcDbEntity
  8
외형선
  6
Continuous
370
    15
100
AcDbLine
 10
-24.925
 20
1.951249999999996
 30
0.0
 11
-24.925
 21
-1.951250000000002
 31
0.0
  0
SPLINE
  5
AE
330
1F
100
AcDbEntity
  8
외형선
  6
Continuous
370
    15
100
AcDbSpline
210
0.0
220
0.0
230
1.0
 70
    24
 71
     3
 72
     8
 73
     4
 74
     0
 42
0.000000001
 43
0.00000001
 40
0.0
 40
0.0
 40
0.0
 40
0.0
 40
1.0
 40
1.0
 40
1.0
 40
1.0
 10
10.00000000000001
 20
-0.9384762892963876
 30
0.0
 10
10.00000000000001
 20
-1.028328423828134
 30
0.0
 10
10.00000000000001
 20
-1.12584301689248
 30
0.0
 10
10.00000000000001
 20
-1.229245414027778
 30
0.0
  0
SPLINE
  5
AF
330
1F
100
AcDbEntity
  8
외형선
  6
Continuous
370
    15
100
AcDbSpline
210
0.0
220
0.0
230
1.0
 70
     8
 71
     3
 72
    10
 73
     6
 74
     0
 42
0.000000001
 43
0.00000001
 40
0.0
 40
0.0
 40
0.0
 40
0.0
 40
0.5
 40
0.5
 40
1.0
 40
1.0
 40
1.0
 40
1.0
 10
10.0
 20
-0.9384762892963862
 30
0.0
 10
9.850780361135334
 20
-0.8738131325971472
 30
0.0
 10
9.701483378556386
 20
-0.8073039727389084
 30
0.0
 10
9.405335387031805
 20
-0.6717799071831024
 30
0.0
 10
9.258794376928172
 20
-0.6028222870446135
 30
0.0
 10
9.110220001364624
 20
-0.5325128164481677
 30
0.0
  0
SPLINE
  5
B0
330
1F
100
AcDbEntity
  8
외형선
  6
Continuous
370
    15
100
AcDbSpline
210
0.0
220
0.0
230
1.0
 70
     8
 71
     3
 72
    10
 73
     6
 74
     0
 42
0.000000001
 43
0.00000001
 40
0.0
 40
0.0
 40
0.0
 40
0.0
 40
0.5
 40
0.5
 40
1.0
 40
1.0
 40
1.0
 40
1.0
 10
10.0
 20
1.238028532461982
 30
0.0
 10
9.85076840154631
 20
1.290238727553217
 30
0.0
 10
9.701459447527544
 20
1.340035597225114
 30
0.0
 10
9.405288111496453
 20
1.433972435884632
 30
0.0
 10
9.258735132215543
 20
1.478099652857523
 30
0.0
 10
9.110148554057268
 20
1.519473398167045
 30
0.0
  0
SPLINE
  5
B1
330
1F
100
AcDbEntity
  8
외형선
  6
Continuous
370
    15
100
AcDbSpline
210
0.0
220
0.0
230
1.0
 70
    24
 71
     3
 72
    10
 73
     6
 74
     0
 42
0.000000001
 43
0.00000001
 40
0.0
 40
0.0
 40
0.0
 40
0.0
 40
0.5
 40
0.5
 40
1.0
 40
1.0
 40
1.0
 40
1.0
 10
10.0
 20
1.238028532461984
 30
0.0
 10
10.0
 20
0.9331570256875947
 30
0.0
 10
10.0
 20
0.5682748163401959
 30
0.0
 10
10.0
 20
-0.1925214702029197
 30
0.0
 10
10.0
 20
-0.58516078276521
 30
0.0
 10
10.0
 20
-0.9384762892963849
 30
0.0
  0
SPLINE
  5
B2
330
1F
100
AcDbEntity
  8
외형선
  6
Continuous
370
    15
100
AcDbSpline
210
0.0
220
0.0
230
1.0
 70
    24
 71
     3
 72
    11
 73
     7
 74
     0
 42
0.000000001
 43
0.00000001
 40
0.0
 40
0.0
 40
0.0
 40
0.0
 40
0.0187738326879388
 40
0.3512586069409943
 40
0.675629303470497
 40
1.0
 40
1.0
 40
1.0
 40
1.0
 10
10.0
 20
1.576693785787421
 30
0.0
 10
10.0
 20
1.577337757520936
 30
0.0
 10
10.0
 20
1.589386475424401
 30
0.0
 10
10.0
 20
1.542686606065455
 30
0.0
 10
10.0
 20
1.436143587849882
 30
0.0
 10
10.0
 20
1.304066884257949
 30
0.0
 10
10.0
 20
1.238028532461983
 30
0.0
  0
SPLINE
  5
B3
330
1F
100
AcDbEntity
  8
외형선
  6
Continuous
370
    15
100
AcDbSpline
210
0.0
220
0.0
230
1.0
 70
    24
 71
     3
 72
     9
 73
     5
 74
     0
 42
0.000000001
 43
0.00000001
 40
0.0
 40
0.0
 40
0.0
 40
0.0
 40
0.3796427640529758
 40
1.0
 40
1.0
 40
1.0
 40
1.0
 10
10.0
 20
1.744688344419631
 30
0.0
 10
10.0
 20
1.726246543754006
 30
0.0
 10
10.0
 20
1.677669822657718
 30
0.0
 10
10.0
 20
1.63807726472957
 30
0.0
 10
10.0
 20
1.613515734929191
 30
0.0
  0
SPLINE
  5
B4
330
1F
100
AcDbEntity
  8
0
  6
Continuous
 62
     1
370
    15
100
AcDbSpline
210
0.0
220
0.0
230
1.0
 70
     8
 71
     3
 72
    21
 73
    17
 74
     0
 42
0.000000001
 43
0.00000001
 40
0.0
 40
0.0
 40
0.0
 40
0.0
 40
0.0713992483246149
 40
0.1426136029822765
 40
0.2139106268807539
 40
0.2853849276702221
 40
0.3566386130257385
 40
0.4278723451674293
 40
0.5119630610329422
 40
0.5961194458530398
 40
0.6801773546023517
 40
0.7641704007821358
 40
0.8391278045674335
 40
0.9142319578111884
 40
0.9893901735140632
 40
1.0
 40
1.0
 40
1.0
 40
1.0
 10
25.87500000000001
 20
-2.259665444858462
 30
0.0
 10
25.5980384892188
 20
-2.200477535116438
 30
0.0
 10
25.04483268009959
 20
-2.082254987129336
 30
0.0
 10
24.2157744201613
 20
-1.795967535162261
 30
0.0
 10
23.38615609905233
 20
-1.443767161945792
 30
0.0
 10
22.55559165454442
 20
-1.032727587073111
 30
0.0
 10
21.7262477125606
 20
-0.5791403251881216
 30
0.0
 10
20.84796642277344
 20
-0.0740586173582763
 30
0.0
 10
19.91898264996733
 20
0.4641984710524549
 30
0.0
 10
18.94012628546205
 20
1.004897615747897
 30
0.0
 10
17.962022309467
 20
1.489986669329635
 30
0.0
 10
17.01959543941233
 20
1.876270878177947
 30
0.0
 10
16.11235392125114
 20
2.158433428695443
 30
0.0
 10
15.23883526462388
 20
2.322910324814286
 30
0.0
 10
14.61461968217561
 20
2.393630418445179
 30
0.0
 10
14.28210189252857
 20
2.376862588144809
 30
0.0
 10
14.24096820261787
 20
2.374788345041055
 30
0.0
  0
SPLINE
  5
B5
330
1F
100
AcDbEntity
  8
0
  6
Continuous
 62
     1
370
    15
100
AcDbSpline
210
0.0
220
0.0
230
1.0
 70
     8
 71
     3
 72
    14
 73
    10
 74
     0
 42
0.000000001
 43
0.00000001
 40
0.0
 40
0.0
 40
0.0
 40
0.0
 40
0.113038428573777
 40
0.2257634896928242
 40
0.3390495191535702
 40
0.5084078938607335
 40
0.677724279113995
 40
0.8470261283882276
 40
1.0
 40
1.0
 40
1.0
 40
1.0
 10
25.87500000000001
 20
-1.878740204526814
 30
0.0
 10
25.64192100008958
 20
-1.831063199199736
 30
0.0
 10
25.17640914666223
 20
-1.735841359719551
 30
0.0
 10
24.4779995556884
 20
-1.527853878832995
 30
0.0
 10
23.66236581130054
 20
-1.240551687712565
 30
0.0
 10
22.73060254769374
 20
-0.8475779078158173
 30
0.0
 10
21.68318945555606
 20
-0.3533700320688821
 30
0.0
 10
20.66962911558424
 20
0.1504222996402394
 30
0.0
 10
20.00514114489155
 20
0.4665189468625802
 30
0.0
 10
19.68973017556115
 20
0.6165598118590655
 30
0.0
  0
LINE
  5
B6
330
1F
100
AcDbEntity
  8
0
  6
Continuous
 62
     1
370
    15
100
AcDbLine
 10
25.87500000000001
 20
-2.259665444858464
 30
0.0
 11
25.87500000000001
 21
-1.878740204526813
 31
0.0
  0
SPLINE
  5
B7
330
1F
100
AcDbEntity
  8
0
  6
Continuous
 62
     1
370
    15
100
AcDbSpline
210
0.0
220
0.0
230
1.0
 70
     8
 71
     3
 72
    54
 73
    50
 74
     0
 42
0.000000001
 43
0.00000001
 40
0.0
 40
0.0
 40
0.0
 40
0.0
 40
0.0625000000000002
 40
0.0625000000000002
 40
0.0937500000000003
 40
0.0937500000000003
 40
0.1250000000000004
 40
0.1250000000000004
 40
0.1562500000000004
 40
0.1562500000000004
 40
0.1875000000000006
 40
0.1875000000000006
 40
0.2500000000000008
 40
0.2500000000000008
 40
0.2812500000000008
 40
0.2812500000000008
 40
0.3125000000000007
 40
0.3125000000000007
 40
0.3750000000000009
 40
0.3750000000000009
 40
0.4375000000000012
 40
0.4375000000000012
 40
0.4687500000000012
 40
0.4687500000000012
 40
0.5000000000000012
 40
0.5000000000000012
 40
0.5312500000000012
 40
0.5312500000000012
 40
0.5625000000000012
 40
0.5625000000000012
 40
0.625000000000001
 40
0.625000000000001
 40
0.656250000000001
 40
0.656250000000001
 40
0.687500000000001
 40
0.687500000000001
 40
0.718750000000001
 40
0.718750000000001
 40
0.7500000000000009
 40
0.7500000000000009
 40
0.8125000000000007
 40
0.8125000000000007
 40
0.8750000000000004
 40
0.8750000000000004
 40
0.9062500000000003
 40
0.9062500000000003
 40
0.9375000000000001
 40
0.9375000000000001
 40
1.0
 40
1.0
 40
1.0
 40
1.0
 10
25.87500000000001
 20
-2.381249999999996
 30
0.0
 10
25.54763433325791
 20
-2.371415045879404
 30
0.0
 10
25.21175291879938
 20
-2.340402432189116
 30
0.0
 10
24.71668952948409
 20
-2.260816099852931
 30
0.0
 10
24.55345303049467
 20
-2.228899094838044
 30
0.0
 10
24.22216859765767
 20
-2.154169110894893
 30
0.0
 10
24.05551214231018
 20
-2.111418651828932
 30
0.0
 10
23.72378308496344
 20
-2.016059729789066
 30
0.0
 10
23.56004039046964
 20
-1.963612071125163
 30
0.0
 10
23.23077087939243
 20
-1.849371229740874
 30
0.0
 10
23.06445424317844
 20
-1.787456522625534
 30
0.0
 10
22.56584070730231
 20
-1.589214436112274
 30
0.0
 10
22.23902440922096
 20
-1.441178643170737
 30
0.0
 10
21.74091151654421
 20
-1.19932392913281
 30
0.0
 10
21.57431373970203
 20
-1.115510147672298
 30
0.0
 10
21.24360602137163
 20
-0.9433306084553192
 30
0.0
 10
21.08054258978827
 20
-0.855167962878189
 30
0.0
 10
20.58444585169392
 20
-0.5839182306186954
 30
0.0
 10
20.25075956312344
 20
-0.3951186373866704
 30
0.0
 10
19.59397893157443
 20
-0.0155423555139076
 30
0.0
 10
19.25797933641563
 20
0.1776824014427429
 30
0.0
 10
18.7641228461162
 20
0.4602741104318282
 30
0.0
 10
18.60035403762529
 20
0.5534331834474362
 30
0.0
 10
18.26861005695061
 20
0.7374209654418443
 30
0.0
 10
18.10195470889772
 20
0.8279935476763367
 30
0.0
 10
17.77068954921986
 20
1.004338244747645
 30
0.0
 10
17.60746586823321
 20
1.089881183251905
 30
0.0
 10
17.2773960267181
 20
1.255948460495446
 30
0.0
 10
17.1109058292893
 20
1.336390742658739
 30
0.0
 10
16.61247004367637
 20
1.567267920626691
 30
0.0
 10
16.28579414856264
 20
1.706679496555089
 30
0.0
 10
15.78733910497999
 20
1.890360602842534
 30
0.0
 10
15.62085972205255
 20
1.947186486674327
 30
0.0
 10
15.29084520318969
 20
2.050869144097082
 30
0.0
 10
15.12759539341443
 20
2.097734957275366
 30
0.0
 10
14.79629184813929
 20
2.181586812942376
 30
0.0
 10
14.62963436750732
 20
2.218413126058495
 30
0.0
 10
14.29792039493189
 20
2.281055159631062
 30
0.0
 10
14.13420332246833
 20
2.306821458203498
 30
0.0
 10
13.64025151572944
 20
2.367497861113425
 30
0.0
 10
13.30425646659453
 20
2.38551277150872
 30
0.0
 10
12.64761985257143
 20
2.37526335191135
 30
0.0
 10
12.31378105683936
 20
2.34701892517272
 30
0.0
 10
11.81775487962115
 20
2.271308430561832
 30
0.0
 10
11.65469095497554
 20
2.240677646040547
 30
0.0
 10
11.32393651567054
 20
2.168500303479308
 30
0.0
 10
11.15733234346393
 20
2.126987185454277
 30
0.0
 10
10.65925184721588
 20
1.987463168931674
 30
0.0
 10
10.33241308834232
 20
1.874863005330144
 30
0.0
 10
10.0
 20
1.744688344419633
 30
0.0
  0
SPLINE
  5
B8
330
1F
100
AcDbEntity
  8
0
  6
Continuous
 62
     1
370
    15
100
AcDbSpline
210
0.0
220
0.0
230
1.0
 70
     8
 71
     3
 72
    16
 73
    12
 74
     0
 42
0.000000001
 43
0.00000001
 40
0.0
 40
0.0
 40
0.0
 40
0.0
 40
0.0464009080988393
 40
0.1785762527661882
 40
0.310806607977728
 40
0.4431138604454087
 40
0.5754308735967342
 40
0.7076688503329797
 40
0.8398493206786019
 40
0.9786195822635887
 40
1.0
 40
1.0
 40
1.0
 40
1.0
 10
19.95637608579999
 20
-0.2235020497020168
 30
0.0
 10
19.83379109960365
 20
-0.1749592191112402
 30
0.0
 10
19.36201655084468
 20
0.0118603312109143
 30
0.0
 10
18.54088238376522
 20
0.3480070555491483
 30
0.0
 10
17.4927531139057
 20
0.7503763111361105
 30
0.0
 10
16.44416721393567
 20
1.105829262195148
 30
0.0
 10
15.3955493320355
 20
1.389251627260907
 30
0.0
 10
14.3473484254736
 20
1.58625319368038
 30
0.0
 10
13.2821693132412
 20
1.672835608097838
 30
0.0
 10
12.50980135476497
 20
1.682530137866459
 30
0.0
 10
12.08667976255177
 20
1.628287799298326
 30
0.0
 10
12.03019223197653
 20
1.621046344797474
 30
0.0
  0
SPLINE
  5
B9
330
1F
100
AcDbEntity
  8
외형선
  6
Continuous
370
    15
100
AcDbSpline
210
0.0
220
0.0
230
1.0
 70
    24
 71
     3
 72
     9
 73
     5
 74
     0
 42
0.000000001
 43
0.00000001
 40
0.0
 40
0.0
 40
0.0
 40
0.0
 40
0.3796427640529677
 40
1.0
 40
1.0
 40
1.0
 40
1.0
 10
10.00000000000001
 20
1.744688344419632
 30
0.0
 10
10.00000000000001
 20
1.726246543754007
 30
0.0
 10
10.00000000000001
 20
1.677669822657718
 30
0.0
 10
10.00000000000001
 20
1.638077264729571
 30
0.0
 10
10.00000000000001
 20
1.613515734929192
 30
0.0
  0
LINE
  5
BA
330
1F
100
AcDbEntity
  8
0
  6
Continuous
 62
     1
370
    15
100
AcDbLine
 10
25.875
 20
-2.381249999999998
 30
0.0
 11
25.87500000000001
 21
-2.259665444858463
 31
0.0
  0
SPLINE
  5
BB
330
1F
100
AcDbEntity
  8
0
  6
Continuous
 62
     1
370
    15
100
AcDbSpline
210
0.0
220
0.0
230
1.0
 70
     8
 71
     3
 72
     8
 73
     4
 74
     0
 42
0.000000001
 43
0.00000001
 40
0.0
 40
0.0
 40
0.0
 40
0.0
 40
1.0
 40
1.0
 40
1.0
 40
1.0
 10
24.40093131851543
 20
0.6667656290396496
 30
0.0
 10
24.31657539430415
 20
0.7667237491414546
 30
0.0
 10
24.24126846147552
 20
0.8629558787205897
 30
0.0
 10
24.17715717569903
 20
0.9545781160976498
 30
0.0
  0
LINE
  5
BC
330
1F
100
AcDbEntity
  8
0
  6
Continuous
 62
     1
370
    15
100
AcDbLine
 10
24.20728317140751
 20
0.979856827985478
 30
0.0
 11
25.87500000000001
 21
0.0000000000000025
 31
0.0
  0
LINE
  5
BD
330
1F
100
AcDbEntity
  8
0
  6
Continuous
 62
     1
370
    15
100
AcDbLine
 10
25.87500000000001
 20
0.0000000000000025
 30
0.0
 11
25.87500000000001
 21
-0.6363722652330894
 31
0.0
  0
SPLINE
  5
BE
330
1F
100
AcDbEntity
  8
0
  6
Continuous
 62
     1
370
    15
100
AcDbSpline
210
0.0
220
0.0
230
1.0
 70
     8
 71
     3
 72
    10
 73
     6
 74
     0
 42
0.000000001
 43
0.00000001
 40
0.0
 40
0.0
 40
0.0
 40
0.0
 40
0.5
 40
0.5
 40
1.0
 40
1.0
 40
1.0
 40
1.0
 10
25.87500000000001
 20
-0.6363722652330893
 30
0.0
 10
25.61982507708536
 20
-0.4357598858607698
 30
0.0
 10
25.36891634127838
 20
-0.2269170311293188
 30
0.0
 10
24.87584008684127
 20
0.207632536098664
 30
0.0
 10
24.63138005573236
 20
0.4356364190385527
 30
0.0
 10
24.40093131851544
 20
0.6667656290396476
 30
0.0
  0
SPLINE
  5
BF
330
1F
100
AcDbEntity
  8
0
  6
Continuous
 62
     1
370
    15
100
AcDbSpline
210
0.0
220
0.0
230
1.0
 70
     8
 71
     3
 72
    16
 73
    12
 74
     0
 42
0.000000001
 43
0.00000001
 40
0.0
 40
0.0
 40
0.0
 40
0.0
 40
0.0008154423035041
 40
0.1255615280340472
 40
0.2505518380786828
 40
0.3756321202917713
 40
0.5004078504110383
 40
0.6251695816658519
 40
0.7502154481043374
 40
0.8752437026956211
 40
1.0
 40
1.0
 40
1.0
 40
1.0
 10
16.99034136744018
 20
-1.871269295762966
 30
0.0
 10
16.98844129964645
 20
-1.872042825334453
 30
0.0
 10
16.69586950821132
 20
-1.991150645174145
 30
0.0
 10
16.11238541838267
 20
-2.150021605126673
 30
0.0
 10
15.23880223507387
 20
-2.331117810327234
 30
0.0
 10
14.3649699084983
 20
-2.397531493839962
 30
0.0
 10
13.49235006265043
 20
-2.359757425126662
 30
0.0
 10
12.61982269955257
 20
-2.215951247578183
 30
0.0
 10
11.74609579848287
 20
-1.972636690807193
 30
0.0
 10
10.87243174506363
 20
-1.64523745636254
 30
0.0
 10
10.29059942165628
 20
-1.367808743026759
 30
0.0
 10
9.999999999996987
 20
-1.229245414033751
 30
0.0
  0
SPLINE
  5
C0
330
1F
100
AcDbEntity
  8
외형선
  6
Continuous
370
    15
100
AcDbSpline
210
0.0
220
0.0
230
1.0
 70
    24
 71
     3
 72
     8
 73
     4
 74
     0
 42
0.000000001
 43
0.00000001
 40
0.0
 40
0.0
 40
0.0
 40
0.0
 40
1.0
 40
1.0
 40
1.0
 40
1.0
 10
10.00000000000001
 20
-0.9384762892963898
 30
0.0
 10
10.00000000000001
 20
-1.028328423828132
 30
0.0
 10
10.00000000000001
 20
-1.125843016892476
 30
0.0
 10
10.00000000000001
 20
-1.229245414027768
 30
0.0
  0
SPLINE
  5
C1
330
1F
100
AcDbEntity
  8
0
  6
Continuous
 62
     1
370
    15
100
AcDbSpline
210
0.0
220
0.0
230
1.0
 70
     8
 71
     3
 72
    13
 73
     9
 74
     0
 42
0.000000001
 43
0.00000001
 40
0.0
 40
0.0
 40
0.0
 40
0.0
 40
0.1854843419479684
 40
0.3817516476588742
 40
0.5779685076610823
 40
0.7741667277693873
 40
0.8871775732688097
 40
1.0
 40
1.0
 40
1.0
 40
1.0
 10
15.33740852208286
 20
-1.978058950000119
 30
0.0
 10
15.00735692483076
 20
-2.00146322379862
 30
0.0
 10
14.32806648047197
 20
-2.049632357597222
 30
0.0
 10
13.29971170618742
 20
-1.959604642488459
 30
0.0
 10
12.2523385715978
 20
-1.752884331524803
 30
0.0
 10
11.35307134420161
 20
-1.475285659967028
 30
0.0
 10
10.60226599938745
 20
-1.194784446383214
 30
0.0
 10
10.20064363835272
 20
-1.023864807375914
 30
0.0
 10
10.0
 20
-0.9384762892963863
 30
0.0
  0
SPLINE
  5
C2
330
1F
100
AcDbEntity
  8
0
  6
Continuous
 62
     1
370
    15
100
AcDbSpline
210
0.0
220
0.0
230
1.0
 70
     8
 71
     3
 72
    11
 73
     7
 74
     0
 42
0.000000001
 43
0.00000001
 40
0.0
 40
0.0
 40
0.0
 40
0.0
 40
0.2684089957509789
 40
0.5376555145004628
 40
0.8064398712425552
 40
1.0
 40
1.0
 40
1.0
 40
1.0
 10
10.0
 20
-1.744688344419633
 30
0.0
 10
10.27609912912691
 20
-1.846707333661772
 30
0.0
 10
10.82915890608601
 20
-2.051063644434191
 30
0.0
 10
11.65962200796896
 20
-2.252037799367233
 30
0.0
 10
12.41248709962715
 20
-2.368400104403297
 30
0.0
 10
12.88811084572975
 20
-2.370648910025803
 30
0.0
 10
13.08723032573446
 20
-2.371590370602266
 30
0.0
  0
SPLINE
  5
C3
330
1F
100
AcDbEntity
  8
0
  6
Continuous
 62
     1
370
    15
100
AcDbSpline
210
0.0
220
0.0
230
1.0
 70
     8
 71
     3
 72
    11
 73
     7
 74
     0
 42
0.000000001
 43
0.00000001
 40
0.0
 40
0.0
 40
0.0
 40
0.0
 40
0.1977090250100163
 40
0.4649697076637835
 40
0.7321869484279648
 40
1.0
 40
1.0
 40
1.0
 40
1.0
 10
22.61130607986888
 20
1.595581757881402
 30
0.0
 10
22.82647881764088
 20
1.686482878690879
 30
0.0
 10
23.33251947498566
 20
1.900263041568885
 30
0.0
 10
24.12879363046023
 20
2.142087369544485
 30
0.0
 10
25.00130436894436
 20
2.328073727980097
 30
0.0
 10
25.58355199227397
 20
2.362170188541444
 30
0.0
 10
25.87500000000001
 20
2.381250000000002
 30
0.0
  0
SPLINE
  5
C4
330
1F
100
AcDbEntity
  8
0
  6
Continuous
 62
     1
370
    15
100
AcDbSpline
210
0.0
220
0.0
230
1.0
 70
     8
 71
     3
 72
    13
 73
     9
 74
     0
 42
0.000000001
 43
0.00000001
 40
0.0
 40
0.0
 40
0.0
 40
0.0
 40
0.1135642977835761
 40
0.3046096363965262
 40
0.4956069458479265
 40
0.686587625170922
 40
0.877583153389556
 40
1.0
 40
1.0
 40
1.0
 40
1.0
 10
24.40093131851543
 20
0.6667656290396483
 30
0.0
 10
24.19331289547867
 20
0.7548327607170072
 30
0.0
 10
23.6364250919634
 20
0.9910522194931158
 30
0.0
 10
22.73056765143514
 20
1.329189185076755
 30
0.0
 10
21.68317913741537
 20
1.637964656178507
 30
0.0
 10
20.63590983167729
 20
1.836188020834346
 30
0.0
 10
19.71398299063085
 20
1.923272439063601
 30
0.0
 10
19.14110311560113
 20
1.89075961007253
 30
0.0
 10
18.91733994152106
 20
1.878060309345677
 30
0.0
  0
SPLINE
  5
C5
330
1F
100
AcDbEntity
  8
0
  6
Continuous
 62
     1
370
    15
100
AcDbSpline
210
0.0
220
0.0
230
1.0
 70
    24
 71
     3
 72
    10
 73
     6
 74
     0
 42
0.000000001
 43
0.00000001
 40
0.0
 40
0.0
 40
0.0
 40
0.0
 40
0.5
 40
0.5
 40
1.0
 40
1.0
 40
1.0
 40
1.0
 10
25.87500000000001
 20
-1.878740204526813
 30
0.0
 10
25.87500000000001
 20
-1.734720120065309
 30
0.0
 10
25.87500000000002
 20
-1.552745221052278
 30
0.0
 10
25.87500000000001
 20
-1.129671093977555
 30
0.0
 10
25.87500000000001
 20
-0.8889383487659298
 30
0.0
 10
25.87500000000001
 20
-0.6363722652331655
 30
0.0
  0
SPLINE
  5
C6
330
1F
100
AcDbEntity
  8
0
  6
Continuous
 62
     1
370
    15
100
AcDbSpline
210
0.0
220
0.0
230
1.0
 70
     8
 71
     3
 72
    19
 73
    15
 74
     0
 42
0.000000001
 43
0.00000001
 40
0.0
 40
0.0
 40
0.0
 40
0.0
 40
0.0183656168219563
 40
0.1150290168553875
 40
0.2117158274362802
 40
0.3084418316265345
 40
0.4052226249431709
 40
0.5020103655586186
 40
0.5987417940376117
 40
0.6954322524660267
 40
0.7920975064156163
 40
0.8887534424508606
 40
0.9444237470896106
 40
1.0
 40
1.0
 40
1.0
 40
1.0
 10
20.83491776921965
 20
-1.781616797893508
 30
0.0
 10
20.76859038868534
 20
-1.794807561386275
 30
0.0
 10
20.35316337376833
 20
-1.877425018281643
 30
0.0
 10
19.58854665826612
 20
-1.917256136961867
 30
0.0
 10
18.54089485720008
 20
-1.885938652848676
 30
0.0
 10
17.49276840023723
 20
-1.72353478906646
 30
0.0
 10
16.44417675128618
 20
-1.453140467590494
 30
0.0
 10
15.39554730838362
 20
-1.088756665566193
 30
0.0
 10
14.34735789635035
 20
-0.6545596433696447
 30
0.0
 10
13.29965848512745
 20
-0.1784223566386761
 30
0.0
 10
12.25228077289231
 20
0.3093169526989707
 30
0.0
 10
11.3530249277946
 20
0.7103863970127365
 30
0.0
 10
10.6022428240641
 20
1.018735928848619
 30
0.0
 10
10.20063443009656
 20
1.164972209011835
 30
0.0
 10
10.0
 20
1.238028532461983
 30
0.0
  0
SPLINE
  5
C7
330
1F
100
AcDbEntity
  8
외형선
  6
Continuous
370
    15
100
AcDbSpline
210
0.0
220
0.0
230
1.0
 70
    24
 71
     3
 72
    10
 73
     6
 74
     0
 42
0.000000001
 43
0.00000001
 40
0.0
 40
0.0
 40
0.0
 40
0.0
 40
0.5
 40
0.5
 40
1.0
 40
1.0
 40
1.0
 40
1.0
 10
10.0
 20
1.238028532461984
 30
0.0
 10
10.0
 20
0.9331570256875947
 30
0.0
 10
10.0
 20
0.5682748163401959
 30
0.0
 10
10.0
 20
-0.1925214702029197
 30
0.0
 10
10.0
 20
-0.58516078276521
 30
0.0
 10
10.0
 20
-0.9384762892963849
 30
0.0
  0
SPLINE
  5
C8
330
1F
100
AcDbEntity
  8
외형선
  6
Continuous
370
    15
100
AcDbSpline
210
0.0
220
0.0
230
1.0
 70
    24
 71
     3
 72
    11
 73
     7
 74
     0
 42
0.000000001
 43
0.00000001
 40
0.0
 40
0.0
 40
0.0
 40
0.0
 40
0.0208482598157301
 40
0.3526301222852798
 40
0.67631506114264
 40
1.0
 40
1.0
 40
1.0
 40
1.0
 10
10.00000000000001
 20
1.576487483157831
 30
0.0
 10
10.00000000000001
 20
1.57720817600606
 30
0.0
 10
10.00000000000001
 20
1.589398066646702
 30
0.0
 10
10.00000000000001
 20
1.542744583556495
 30
0.0
 10
10.0
 20
1.436129242991367
 30
0.0
 10
10.0
 20
1.304062102638444
 30
0.0
 10
10.0
 20
1.238028532461983
 30
0.0
  0
SPLINE
  5
C9
330
1F
100
AcDbEntity
  8
0
  6
Continuous
 62
     1
370
    15
100
AcDbSpline
210
0.0
220
0.0
230
1.0
 70
    24
 71
     3
 72
     8
 73
     4
 74
     0
 42
0.000000001
 43
0.00000001
 40
0.0
 40
0.0
 40
0.0
 40
0.0
 40
1.0
 40
1.0
 40
1.0
 40
1.0
 10
24.42582768727898
 20
1.163237450645817
 30
0.0
 10
24.34721706249053
 20
1.097275304379216
 30
0.0
 10
24.26406690501246
 20
1.02750403791026
 30
0.0
 10
24.17715717569909
 20
0.9545781160976864
 30
0.0
  0
LINE
  5
CA
330
1F
100
AcDbEntity
  8
0
  6
Continuous
 62
     1
370
    15
100
AcDbLine
 10
25.87500000000001
 20
1.666875
 30
0.0
 11
24.98755122002796
 21
1.621571758984049
 31
0.0
  0
SPLINE
  5
CB
330
1F
100
AcDbEntity
  8
0
  6
Continuous
 62
     1
370
    15
100
AcDbSpline
210
0.0
220
0.0
230
1.0
 70
     8
 71
     3
 72
     8
 73
     4
 74
     0
 42
0.000000001
 43
0.00000001
 40
0.0
 40
0.0
 40
0.0
 40
0.0
 40
1.0
 40
1.0
 40
1.0
 40
1.0
 10
25.87500000000001
 20
1.666875000000002
 30
0.0
 10
25.38521348789111
 20
1.533900650658285
 30
0.0
 10
24.90009348855371
 20
1.370671989946321
 30
0.0
 10
24.42582768729189
 20
1.163237450653766
 30
0.0
  0
SPLINE
  5
CC
330
1F
100
AcDbEntity
  8
0
  6
Continuous
 62
     1
370
    15
100
AcDbSpline
210
0.0
220
0.0
230
1.0
 70
    24
 71
     3
 72
    10
 73
     6
 74
     0
 42
0.000000001
 43
0.00000001
 40
0.0
 40
0.0
 40
0.0
 40
0.0
 40
0.5
 40
0.5
 40
1.0
 40
1.0
 40
1.0
 40
1.0
 10
25.87500000000001
 20
1.666875
 30
0.0
 10
25.87500000000001
 20
1.767916811522416
 30
0.0
 10
25.87500000000001
 20
1.885336753989823
 30
0.0
 10
25.875
 20
2.131683477038037
 30
0.0
 10
25.875
 20
2.259981119002257
 30
0.0
 10
25.87500000000001
 20
2.381250000000003
 30
0.0
  0
LINE
  5
CD
330
1F
100
AcDbEntity
  8
0
  6
Continuous
 62
     1
370
    15
100
AcDbLine
 10
25.87500000000001
 20
0.0000000000000025
 30
0.0
 11
25.87500000000001
 21
1.666875000000003
 31
0.0
  0
LINE
  5
CE
330
1F
100
AcDbEntity
  8
중심선
 48
0.8
100
AcDbLine
 10
-27.92499999999999
 20
-0.0000000000000034
 30
0.0
 11
28.87500000000001
 21
0.0000000000000035
 31
0.0
  0
LINE
  5
CF
330
1F
100
AcDbEntity
  8
참조1
100
AcDbLine
 10
-3.562684671492226
 20
0.0010749287238892
 30
0.0
 11
-3.562684671492221
 21
-39.99892507127611
 31
0.0
  0
LINE
  5
D0
330
1F
100
AcDbEntity
  8
참조1
100
AcDbLine
 10
-3.562684671492221
 20
-39.99892507127611
 30
0.0
 11
-15.54395731641845
 21
-39.9989250712761
 31
0.0
  0
CIRCLE
  5
D1
330
1F
100
AcDbEntity
  8
해칭선
100
AcDbCircle
 10
0.0
 20
0.0
 30
0.0
 40
3.000000000000001
  0
INSERT
  5
D2
330
1F
100
AcDbEntity
  8
0
  6
Continuous
 62
     7
100
AcDbBlockReference
 66
     1
  2
블럭10
 10
-13.4652729321252
 20
-52.04717430164393
 30
0.0
  0
ATTRIB
  5
D3
330
D2
100
AcDbEntity
  8
FORMAT
 62
     2
100
AcDbText
 10
-23.60690894426182
 20
-49.97180738881175
 30
0.0
 40
4.233333333333333
  1
EM154012 [ 2 FLUTE ]
 41
0.75
  7
SLDTEXTSTYLE0
 11
-23.60690894426182
 21
-52.08847405547841
 31
0.0
100
AcDbAttribute
  2
AUTOATTR0
 70
     0
 74
     1
  0
SEQEND
  5
D4
330
D2
100
AcDbEntity
  8
0
  6
Continuous
 62
     7
  0
HATCH
  5
D5
330
1F
100
AcDbEntity
  8
중심선
100
AcDbHatch
 10
0.0
 20
0.0
 30
0.0
210
0.0
220
0.0
230
1.0
  2
SOLID
 70
     1
 71
     0
 91
        1
 92
        0
 93
        4
 72
     1
 10
-7.750363627744338
 20
-35.8
 11
-11.19663887158162
 21
-35.8
 72
     1
 10
-11.19663887158162
 20
-35.8
 11
-13.32486873078565
 21
-38.3363255805726
 72
     1
 10
-13.32486873078565
 20
-38.3363255805726
 11
-9.878560401835212
 21
-38.33628615127011
 72
     1
 10
-9.878560401835212
 20
-38.33628615127011
 11
-7.750363627744338
 21
-35.8
 97
        0
 75
     0
 76
     1
 98
        1
 10
4.037684671492237
 20
-0.0010749287238927
  0
HATCH
  5
D6
330
1F
100
AcDbEntity
  8
중심선
100
AcDbHatch
 10
0.0
 20
0.0
 30
0.0
210
0.0
220
0.0
230
1.0
  2
SOLID
 70
     1
 71
     0
 91
        1
 92
        0
 93
        4
 72
     1
 10
-2.73759963670836
 20
-35.8
 11
-6.183874880545643
 21
-35.8
 72
     1
 10
-6.183874880545643
 20
-35.8
 11
-10.71501288890306
 21
-41.20000000000002
 72
     1
 10
-10.71501288890306
 20
-41.20000000000002
 11
-7.268737645065777
 21
-41.20000000000002
 72
     1
 10
-7.268737645065777
 20
-41.20000000000002
 11
-2.73759963670836
 21
-35.8
 97
        0
 75
     0
 76
     1
 98
        1
 10
4.037684671492237
 20
-0.0010749287238927
  0
HATCH
  5
D7
330
1F
100
AcDbEntity
  8
중심선
100
AcDbHatch
 10
0.0
 20
0.0
 30
0.0
210
0.0
220
0.0
230
1.0
  2
SOLID
 70
     1
 71
     0
 91
        1
 92
        0
 93
        4
 72
     1
 10
2.275164354327508
 20
-35.8
 11
-1.171110889509608
 21
-35.8
 72
     1
 10
-1.171110889509608
 20
-35.8
 11
-8.219547791398856
 21
-44.20000000000002
 72
     1
 10
-8.219547791398856
 20
-44.20000000000002
 11
-4.773272547561575
 21
-44.20000000000002
 72
     1
 10
-4.773272547561575
 20
-44.20000000000002
 11
2.275164354327508
 21
-35.8
 97
        0
 75
     0
 76
     1
 98
        1
 10
4.037684671492237
 20
-0.0010749287238927
  0
HATCH
  5
D8
330
1F
100
AcDbEntity
  8
중심선
100
AcDbHatch
 10
0.0
 20
0.0
 30
0.0
210
0.0
220
0.0
230
1.0
  2
SOLID
 70
     1
 71
     0
 91
        1
 92
        0
 93
        6
 72
     3
 10
7.075054785339708
 20
-40.00000000005127
 11
3.960054785062283
 21
1.540882976769353E-10
 40
0.3939339440162628
 50
17.09539180608437
 51
320.0019657685086
 73
     0
 72
     1
 10
8.758054441040303
 20
-38.58789400463833
 11
11.06335631474137
 21
-36.65356729459038
 72
     3
 10
7.075054785286861
 20
-40.00000000000015
 11
6.600054785286829
 21
-1.278976924368180E-13
 40
0.636358354079598
 50
39.99873849337386
 51
368.4976242363725
 73
     1
 72
     1
 10
13.50038727718747
 20
-39.03999999993002
 11
5.755122092122783
 21
-39.03999999993002
 72
     1
 10
5.755122092122783
 20
-39.03999999993002
 11
5.755097047676849
 21
-40.95999999992991
 72
     1
 10
5.755097047676849
 20
-40.95999999992991
 11
10.19647681714889
 21
-40.95999999992988
 97
        0
 75
     0
 76
     1
 98
        1
 10
4.037684671492237
 20
-0.0010749287238927
  0
DIMENSION
  5
D9
330
1F
100
AcDbEntity
  8
치수문자_일반주서
100
AcDbDimension
  2
_D
 10
-37.92499999999998
 20
-2.381250000000051
 30
0.0
 11
-37.92499999999999
 21
0.0000000000000018
 31
0.0
 70
   160
  1
%%c<>
 71
     2
 42
4.762500000000003
 52
-270.0
  3
SLDDIMSTYLE0
100
AcDbAlignedDimension
 13
-24.495
 23
2.381250000000002
 33
0.0
 14
-24.495
 24
-2.381250000000001
 34
0.0
 50
90.0000000000002
100
AcDbRotatedDimension
1001
ACAD
1000
DSTYLE
1002
{
1070
   171
1070
     6
1070
   273
1070
     7
1002
}
  0
DIMENSION
  5
EE
330
1F
100
AcDbEntity
  8
치수문자_일반주서
100
AcDbDimension
  2
_D_1
 10
43.46112120167361
 20
-2.381249999999927
 30
0.0
 11
43.46112120167353
 21
22.98525000000006
 31
0.0
 70
   160
  1
%%c<>
 71
     2
 42
4.762499999999996
 52
-270.0
  3
SLDDIMSTYLE0
100
AcDbAlignedDimension
 13
25.87500000000001
 23
2.381249999999999
 33
0.0
 14
25.87500000000001
 24
-2.381249999999996
 34
0.0
 50
90.0000000000002
100
AcDbRotatedDimension
1001
ACAD
1000
DSTYLE
1002
{
1070
   171
1070
     6
1070
   273
1070
     7
1002
}
  0
DIMENSION
  5
102
330
1F
100
AcDbEntity
  8
치수문자_일반주서
100
AcDbDimension
  2
_D_2
 10
10.0
 20
24.69874999999996
 30
0.0
 11
-9.2915
 21
24.69874999999996
 31
0.0
 70
   160
  1
<>
 71
     2
 42
15.87500000000001
  3
SLDDIMSTYLE0
100
AcDbAlignedDimension
 13
25.87500000000001
 23
2.381250000000002
 33
0.0
 14
10.0
 24
1.578673065219678
 34
0.0
 50
-0.0000000000000513
100
AcDbRotatedDimension
1001
ACAD
1000
DSTYLE
1002
{
1070
   171
1070
     6
1070
   273
1070
     7
1002
}
  0
DIMENSION
  5
117
330
1F
100
AcDbEntity
  8
치수문자_일반주서
100
AcDbDimension
  2
_D_3
 10
-24.925
 20
39.52280344013394
 30
0.0
 11
0.4750000000000343
 21
39.52280344013394
 31
0.0
 70
   160
  1
<>
 71
     2
 42
50.80000000000001
  3
SLDDIMSTYLE0
100
AcDbAlignedDimension
 13
25.87500000000001
 23
2.381250000000002
 33
0.0
 14
-24.925
 24
1.951249999999996
 34
0.0
 50
-0.0000000000000481
100
AcDbRotatedDimension
1001
ACAD
1000
DSTYLE
1002
{
1070
   171
1070
     6
1070
   273
1070
     7
1002
}
  0
LINE
  5
12B
330
1F
100
AcDbEntity
  8
참조1
100
AcDbLine
 10
82.42838331323583
 20
7.441074928723896
 30
0.0
 11
82.42838331323583
 21
-7.438925071276109
 31
0.0
  0
LINE
  5
12C
330
1F
100
AcDbEntity
  8
참조1
100
AcDbLine
 10
95.12838331323583
 20
5.441074928723896
 30
0.0
 11
82.42838331323583
 21
5.441074928723896
 31
0.0
  0
SOLID
  5
12D
330
1F
100
AcDbEntity
  8
참조1
100
AcDbTrace
 10
82.42838331323583
 20
5.441074928723896
 30
0.0
 11
88.77838331323582
 21
4.425074928723896
 31
0.0
 12
88.77838331323582
 22
6.457074928723896
 32
0.0
 13
88.77838331323582
 23
6.457074928723896
 33
0.0
  0
LINE
  5
12E
330
1F
100
AcDbEntity
  8
참조1
100
AcDbLine
 10
95.12838331323583
 20
-5.438925071276109
 30
0.0
 11
82.42838331323583
 21
-5.438925071276109
 31
0.0
  0
SOLID
  5
12F
330
1F
100
AcDbEntity
  8
참조1
100
AcDbTrace
 10
82.42838331323583
 20
-5.438925071276109
 30
0.0
 11
88.77838331323582
 21
-6.454925071276109
 31
0.0
 12
88.77838331323582
 22
-4.422925071276109
 32
0.0
 13
88.77838331323582
 23
-4.422925071276109
 33
0.0
  0
MTEXT
  5
130
330
1F
100
AcDbEntity
  8
참조1
100
AcDbMText
 10
91.82587340570609
 20
10.98929157337383
 30
0.0
 40
3.5
 41
0.0
 71
     1
 72
     1
  1
A
  7
SLDTEXTSTYLE0
 73
     1
 44
1.0
  0
MTEXT
  5
131
330
1F
100
AcDbEntity
  8
참조1
100
AcDbMText
 10
91.82587340570609
 20
0.1092915733738259
 30
0.0
 40
3.5
 41
0.0
 71
     1
 72
     1
  1
A
  7
SLDTEXTSTYLE0
 73
     1
 44
1.0
  0
INSERT
  5
138
330
1F
100
AcDbEntity
  8
해칭선
100
AcDbBlockReference
  2
SW_DOWELSYMBOL_0
 10
0.0
 20
0.0
 30
0.0
  0
ENDSEC
  0
SECTION
  2
OBJECTS
  0
DICTIONARY
  5
C
330
0
100
AcDbDictionary
281
     1
  3
ACAD_GROUP
350
D
  3
ACAD_IMAGE_VARS
350
15C
  3
ACAD_LAYOUT
350
1A
  3
ACAD_MLINESTYLE
350
17
  3
ACAD_PLOTSETTINGS
350
19
  3
ACAD_PLOTSTYLENAME
350
E
  3
ACAD_SCALELIST
350
47
  3
APPDATA
350
15A
  3
DWGPROPS
350
193
  0
DICTIONARY
  5
183
330
2
100
AcDbDictionary
280
     1
281
     1
  3
ACAD_LAYERSTATES
360
184
  0
DICTIONARY
  5
D
102
{ACAD_REACTORS
330
C
102
}
330
C
100
AcDbDictionary
281
     1
  0
RASTERVARIABLES
  5
15C
102
{ACAD_REACTORS
330
C
102
}
330
C
100
AcDbRasterVariables
 90
        0
 70
     1
 71
     1
 72
     1
  0
DICTIONARY
  5
1A
102
{ACAD_REACTORS
330
C
102
}
330
C
100
AcDbDictionary
281
     1
  3
Layout1
350
1E
  3
Layout2
350
26
  3
Model
350
22
  0
DICTIONARY
  5
17
102
{ACAD_REACTORS
330
C
102
}
330
C
100
AcDbDictionary
281
     1
  3
Standard
350
18
  0
DICTIONARY
  5
19
102
{ACAD_REACTORS
330
C
102
}
330
C
100
AcDbDictionary
281
     1
  0
ACDBDICTIONARYWDFLT
  5
E
102
{ACAD_REACTORS
330
C
102
}
330
C
100
AcDbDictionary
281
     1
  3
Normal
350
F
100
AcDbDictionaryWithDefault
340
F
  0
DICTIONARY
  5
47
102
{ACAD_REACTORS
330
C
102
}
330
C
100
AcDbDictionary
281
     1
  3
A0
350
48
  3
A1
350
49
  3
A2
350
4A
  3
A3
350
4B
  3
A4
350
4C
  3
A5
350
4D
  3
A6
350
4E
  3
A7
350
4F
  3
A8
350
50
  3
A9
350
51
  3
B0
350
52
  3
B1
350
53
  3
B2
350
54
  3
B3
350
55
  3
B4
350
56
  3
B5
350
57
  3
B6
350
58
  3
B7
350
59
  3
B8
350
5A
  3
B9
350
5B
  3
C0
350
5C
  3
C1
350
5D
  3
C2
350
5E
  3
C3
350
5F
  3
C4
350
60
  3
C5
350
61
  3
C6
350
62
  3
C7
350
63
  3
C8
350
64
  3
C9
350
65
  3
D0
350
66
  3
D1
350
67
  3
D2
350
68
  0
DICTIONARY
  5
15A
102
{ACAD_REACTORS
330
C
102
}
330
C
100
AcDbDictionary
281
     1
  0
XRECORD
  5
193
102
{ACAD_REACTORS
330
C
102
}
330
C
100
AcDbXrecord
280
     1
  1
DWGPROPS COOKIE
  2

  3

  4

  6

  7

  8
12017012
  9

300
=
301
=
302
=
303
=
304
=
305
=
306
=
307
=
308
=
309
=
 40
0.0
 41
2458288.369564271
 42
2458294.318560833
  1

 90
        0
  0
DICTIONARY
  5
184
102
{ACAD_REACTORS
330
183
102
}
330
183
100
AcDbDictionary
281
     1
  0
LAYOUT
  5
1E
102
{ACAD_REACTORS
330
1A
102
}
330
1A
100
AcDbPlotSettings
  1

  2
none_device
  4

  6

 40
0.0
 41
0.0
 42
0.0
 43
0.0
 44
0.0
 45
0.0
 46
0.0
 47
0.0
 48
0.0
 49
0.0
140
0.0
141
0.0
142
1.0
143
1.0
 70
   688
 72
     1
 73
     0
 74
     5
  7

 75
    16
147
1.0
148
0.0
149
0.0
100
AcDbLayout
  1
Layout1
 70
     1
 71
     1
 10
0.0
 20
0.0
 11
420.0
 21
297.0
 12
0.0
 22
0.0
 32
0.0
 14
1.000000000000000E+20
 24
1.000000000000000E+20
 34
1.000000000000000E+20
 15
-1.000000000000000E+20
 25
-1.000000000000000E+20
 35
-1.000000000000000E+20
146
0.0
 13
0.0
 23
0.0
 33
0.0
 16
1.0
 26
0.0
 36
0.0
 17
0.0
 27
1.0
 37
0.0
 76
     0
330
1B
  0
LAYOUT
  5
26
102
{ACAD_REACTORS
330
1A
102
}
330
1A
100
AcDbPlotSettings
  1

  2
none_device
  4

  6

 40
0.0
 41
0.0
 42
0.0
 43
0.0
 44
0.0
 45
0.0
 46
0.0
 47
0.0
 48
0.0
 49
0.0
140
0.0
141
0.0
142
1.0
143
1.0
 70
   688
 72
     1
 73
     0
 74
     5
  7

 75
    16
147
1.0
148
0.0
149
0.0
100
AcDbLayout
  1
Layout2
 70
     1
 71
     2
 10
0.0
 20
0.0
 11
0.0
 21
0.0
 12
0.0
 22
0.0
 32
0.0
 14
0.0
 24
0.0
 34
0.0
 15
0.0
 25
0.0
 35
0.0
146
0.0
 13
0.0
 23
0.0
 33
0.0
 16
1.0
 26
0.0
 36
0.0
 17
0.0
 27
1.0
 37
0.0
 76
     0
330
23
  0
LAYOUT
  5
22
102
{ACAD_REACTORS
330
1A
102
}
330
1A
100
AcDbPlotSettings
  1

  2
none_device
  4
ANSI_A_(11.00_x_8.50_Inches)
  6

 40
6.35
 41
19.05
 42
6.35000508
 43
19.05000254
 44
279.4
 45
215.9
 46
93.72238600430829
 47
89.27215564738071
 48
0.0
 49
0.0
140
0.0
141
0.0
142
0.0736388230232888
143
1.0
 70
  1696
 72
     0
 73
     0
 74
     0
  7

 75
     0
147
0.0235690232323232
148
0.0
149
0.0
100
AcDbLayout
  1
Model
 70
     1
 71
     0
 10
0.0
 20
0.0
 11
420.0
 21
297.0
 12
0.0
 22
0.0
 32
0.0
 14
1.000000000000000E+20
 24
1.000000000000000E+20
 34
1.000000000000000E+20
 15
-1.000000000000000E+20
 25
-1.000000000000000E+20
 35
-1.000000000000000E+20
146
0.0
 13
0.0
 23
0.0
 33
0.0
 16
1.0
 26
0.0
 36
0.0
 17
0.0
 27
1.0
 37
0.0
 76
     0
330
1F
331
29
  0
MLINESTYLE
  5
18
102
{ACAD_REACTORS
330
17
102
}
330
17
100
AcDbMlineStyle
  2
Standard
 70
     0
  3

 62
   256
 51
90.0
 52
90.0
 71
     2
 49
0.5
 62
   256
  6
BYLAYER
 49
-0.5
 62
   256
  6
BYLAYER
  0
ACDBPLACEHOLDER
  5
F
102
{ACAD_REACTORS
330
E
102
}
330
E
  0
SCALE
  5
48
102
{ACAD_REACTORS
330
47
102
}
330
47
100
AcDbScale
 70
     0
300
1:1
140
1.0
141
1.0
290
     1
  0
SCALE
  5
49
102
{ACAD_REACTORS
330
47
102
}
330
47
100
AcDbScale
 70
     0
300
1:2
140
1.0
141
2.0
290
     0
  0
SCALE
  5
4A
102
{ACAD_REACTORS
330
47
102
}
330
47
100
AcDbScale
 70
     0
300
1:4
140
1.0
141
4.0
290
     0
  0
SCALE
  5
4B
102
{ACAD_REACTORS
330
47
102
}
330
47
100
AcDbScale
 70
     0
300
1:5
140
1.0
141
5.0
290
     0
  0
SCALE
  5
4C
102
{ACAD_REACTORS
330
47
102
}
330
47
100
AcDbScale
 70
     0
300
1:8
140
1.0
141
8.0
290
     0
  0
SCALE
  5
4D
102
{ACAD_REACTORS
330
47
102
}
330
47
100
AcDbScale
 70
     0
300
1:10
140
1.0
141
10.0
290
     0
  0
SCALE
  5
4E
102
{ACAD_REACTORS
330
47
102
}
330
47
100
AcDbScale
 70
     0
300
1:16
140
1.0
141
16.0
290
     0
  0
SCALE
  5
4F
102
{ACAD_REACTORS
330
47
102
}
330
47
100
AcDbScale
 70
     0
300
1:20
140
1.0
141
20.0
290
     0
  0
SCALE
  5
50
102
{ACAD_REACTORS
330
47
102
}
330
47
100
AcDbScale
 70
     0
300
1:30
140
1.0
141
30.0
290
     0
  0
SCALE
  5
51
102
{ACAD_REACTORS
330
47
102
}
330
47
100
AcDbScale
 70
     0
300
1:40
140
1.0
141
40.0
290
     0
  0
SCALE
  5
52
102
{ACAD_REACTORS
330
47
102
}
330
47
100
AcDbScale
 70
     0
300
1:50
140
1.0
141
50.0
290
     0
  0
SCALE
  5
53
102
{ACAD_REACTORS
330
47
102
}
330
47
100
AcDbScale
 70
     0
300
1:100
140
1.0
141
100.0
290
     0
  0
SCALE
  5
54
102
{ACAD_REACTORS
330
47
102
}
330
47
100
AcDbScale
 70
     0
300
2:1
140
2.0
141
1.0
290
     0
  0
SCALE
  5
55
102
{ACAD_REACTORS
330
47
102
}
330
47
100
AcDbScale
 70
     0
300
4:1
140
4.0
141
1.0
290
     0
  0
SCALE
  5
56
102
{ACAD_REACTORS
330
47
102
}
330
47
100
AcDbScale
 70
     0
300
8:1
140
8.0
141
1.0
290
     0
  0
SCALE
  5
57
102
{ACAD_REACTORS
330
47
102
}
330
47
100
AcDbScale
 70
     0
300
10:1
140
10.0
141
1.0
290
     0
  0
SCALE
  5
58
102
{ACAD_REACTORS
330
47
102
}
330
47
100
AcDbScale
 70
     0
300
100:1
140
100.0
141
1.0
290
     0
  0
SCALE
  5
59
102
{ACAD_REACTORS
330
47
102
}
330
47
100
AcDbScale
 70
     0
300
1/128" = 1'-0"
140
0.0078125
141
12.0
290
     0
  0
SCALE
  5
5A
102
{ACAD_REACTORS
330
47
102
}
330
47
100
AcDbScale
 70
     0
300
1/64" = 1'-0"
140
0.015625
141
12.0
290
     0
  0
SCALE
  5
5B
102
{ACAD_REACTORS
330
47
102
}
330
47
100
AcDbScale
 70
     0
300
1/32" = 1'-0"
140
0.03125
141
12.0
290
     0
  0
SCALE
  5
5C
102
{ACAD_REACTORS
330
47
102
}
330
47
100
AcDbScale
 70
     0
300
1/16" = 1'-0"
140
0.0625
141
12.0
290
     0
  0
SCALE
  5
5D
102
{ACAD_REACTORS
330
47
102
}
330
47
100
AcDbScale
 70
     0
300
3/32" = 1'-0"
140
0.09375
141
12.0
290
     0
  0
SCALE
  5
5E
102
{ACAD_REACTORS
330
47
102
}
330
47
100
AcDbScale
 70
     0
300
1/8" = 1'-0"
140
0.125
141
12.0
290
     0
  0
SCALE
  5
5F
102
{ACAD_REACTORS
330
47
102
}
330
47
100
AcDbScale
 70
     0
300
3/16" = 1'-0"
140
0.1875
141
12.0
290
     0
  0
SCALE
  5
60
102
{ACAD_REACTORS
330
47
102
}
330
47
100
AcDbScale
 70
     0
300
1/4" = 1'-0"
140
0.25
141
12.0
290
     0
  0
SCALE
  5
61
102
{ACAD_REACTORS
330
47
102
}
330
47
100
AcDbScale
 70
     0
300
3/8" = 1'-0"
140
0.375
141
12.0
290
     0
  0
SCALE
  5
62
102
{ACAD_REACTORS
330
47
102
}
330
47
100
AcDbScale
 70
     0
300
1/2" = 1'-0"
140
0.5
141
12.0
290
     0
  0
SCALE
  5
63
102
{ACAD_REACTORS
330
47
102
}
330
47
100
AcDbScale
 70
     0
300
3/4" = 1'-0"
140
0.75
141
12.0
290
     0
  0
SCALE
  5
64
102
{ACAD_REACTORS
330
47
102
}
330
47
100
AcDbScale
 70
     0
300
1" = 1'-0"
140
1.0
141
12.0
290
     0
  0
SCALE
  5
65
102
{ACAD_REACTORS
330
47
102
}
330
47
100
AcDbScale
 70
     0
300
1-1/2" = 1'-0"
140
1.5
141
12.0
290
     0
  0
SCALE
  5
66
102
{ACAD_REACTORS
330
47
102
}
330
47
100
AcDbScale
 70
     0
300
3" = 1'-0"
140
3.0
141
12.0
290
     0
  0
SCALE
  5
67
102
{ACAD_REACTORS
330
47
102
}
330
47
100
AcDbScale
 70
     0
300
6" = 1'-0"
140
6.0
141
12.0
290
     0
  0
SCALE
  5
68
102
{ACAD_REACTORS
330
47
102
}
330
47
100
AcDbScale
 70
     0
300
1'-0" = 1'-0"
140
12.0
141
12.0
290
     0
  0
ENDSEC
  0
EOF
