  0
SECTION
  2
HEADER
  9
$ACADVER
  1
AC1015
  9
$ACADMAINTVER
 70
     6
  9
$DWGCODEPAGE
  3
ANSI_949
  9
$INSBASE
 10
0.0
 20
0.0
 30
0.0
  9
$EXTMIN
 10
1.000000000000000E+20
 20
1.000000000000000E+20
 30
1.000000000000000E+20
  9
$EXTMAX
 10
-1.000000000000000E+20
 20
-1.000000000000000E+20
 30
-1.000000000000000E+20
  9
$LIMMIN
 10
0.0
 20
0.0
  9
$LIMMAX
 10
420.0
 20
297.0
  9
$ORTHOMODE
 70
     1
  9
$REGENMODE
 70
     1
  9
$FILLMODE
 70
     1
  9
$QTEXTMODE
 70
     0
  9
$MIRRTEXT
 70
     1
  9
$LTSCALE
 40
1.0
  9
$ATTMODE
 70
     1
  9
$TEXTSIZE
 40
3.5
  9
$TRACEWID
 40
1.0
  9
$TEXTSTYLE
  7
Standard
  9
$CLAYER
  8
0
  9
$CELTYPE
  6
ByLayer
  9
$CECOLOR
 62
   256
  9
$CELTSCALE
 40
1.0
  9
$DISPSILH
 70
     0
  9
$DIMSCALE
 40
1.0
  9
$DIMASZ
 40
3.302
  9
$DIMEXO
 40
1.0
  9
$DIMDLI
 40
3.75
  9
$DIMRND
 40
0.0
  9
$DIMDLE
 40
0.0
  9
$DIMEXE
 40
1.0
  9
$DIMTP
 40
0.0
  9
$DIMTM
 40
0.0
  9
$DIMTXT
 40
3.5
  9
$DIMCEN
 40
2.5
  9
$DIMTSZ
 40
0.0
  9
$DIMTOL
 70
     0
  9
$DIMLIM
 70
     0
  9
$DIMTIH
 70
     1
  9
$DIMTOH
 70
     1
  9
$DIMSE1
 70
     0
  9
$DIMSE2
 70
     0
  9
$DIMTAD
 70
     1
  9
$DIMZIN
 70
     0
  9
$DIMBLK
  1

  9
$DIMASO
 70
     1
  9
$DIMSHO
 70
     1
  9
$DIMPOST
  1

  9
$DIMAPOST
  1

  9
$DIMALT
 70
     0
  9
$DIMALTD
 70
     3
  9
$DIMALTF
 40
0.0393700787401575
  9
$DIMLFAC
 40
1.0
  9
$DIMTOFL
 70
     1
  9
$DIMTVP
 40
0.0
  9
$DIMTIX
 70
     0
  9
$DIMSOXD
 70
     0
  9
$DIMSAH
 70
     0
  9
$DIMBLK1
  1

  9
$DIMBLK2
  1

  9
$DIMSTYLE
  2
ISO-25
  9
$DIMCLRD
 70
     0
  9
$DIMCLRE
 70
     0
  9
$DIMCLRT
 70
     0
  9
$DIMTFAC
 40
1.0
  9
$DIMGAP
 40
1.524
  9
$DIMJUST
 70
     0
  9
$DIMSD1
 70
     0
  9
$DIMSD2
 70
     0
  9
$DIMTOLJ
 70
     0
  9
$DIMTZIN
 70
     0
  9
$DIMALTZ
 70
     0
  9
$DIMALTTZ
 70
     0
  9
$DIMUPT
 70
     0
  9
$DIMDEC
 70
     2
  9
$DIMTDEC
 70
     2
  9
$DIMALTU
 70
     2
  9
$DIMALTTD
 70
     3
  9
$DIMTXSTY
  7
Standard
  9
$DIMAUNIT
 70
     0
  9
$DIMADEC
 70
     2
  9
$DIMALTRND
 40
0.0
  9
$DIMAZIN
 70
     0
  9
$DIMDSEP
 70
    44
  9
$DIMATFIT
 70
     3
  9
$DIMFRAC
 70
     0
  9
$DIMLDRBLK
  1

  9
$DIMLUNIT
 70
     2
  9
$DIMLWD
 70
    -2
  9
$DIMLWE
 70
    -2
  9
$DIMTMOVE
 70
     0
  9
$LUNITS
 70
     2
  9
$LUPREC
 70
     2
  9
$SKETCHINC
 40
1.0
  9
$FILLETRAD
 40
10.0
  9
$AUNITS
 70
     0
  9
$AUPREC
 70
     2
  9
$MENU
  1
.
  9
$ELEVATION
 40
0.0
  9
$PELEVATION
 40
0.0
  9
$THICKNESS
 40
0.0
  9
$LIMCHECK
 70
     0
  9
$CHAMFERA
 40
0.0
  9
$CHAMFERB
 40
0.0
  9
$CHAMFERC
 40
0.0
  9
$CHAMFERD
 40
0.0
  9
$SKPOLY
 70
     0
  9
$TDCREATE
 40
2458288.74532044
  9
$TDUCREATE
 40
2458288.37032044
  9
$TDUPDATE
 40
2458294.688354317
  9
$TDUUPDATE
 40
2458294.313354317
  9
$TDINDWG
 40
0.0011247685
  9
$TDUSRTIMER
 40
2458294.312230243
  9
$USRTIMER
 70
     1
  9
$ANGBASE
 50
0.0
  9
$ANGDIR
 70
     0
  9
$PDMODE
 70
     0
  9
$PDSIZE
 40
-1.0
  9
$PLINEWID
 40
0.0
  9
$SPLFRAME
 70
     0
  9
$SPLINETYPE
 70
     6
  9
$SPLINESEGS
 70
     8
  9
$HANDSEED
  5
190
  9
$SURFTAB1
 70
     6
  9
$SURFTAB2
 70
     6
  9
$SURFTYPE
 70
     6
  9
$SURFU
 70
     6
  9
$SURFV
 70
     6
  9
$UCSBASE
  2

  9
$UCSNAME
  2

  9
$UCSORG
 10
0.0
 20
0.0
 30
0.0
  9
$UCSXDIR
 10
1.0
 20
0.0
 30
0.0
  9
$UCSYDIR
 10
0.0
 20
1.0
 30
0.0
  9
$UCSORTHOREF
  2

  9
$UCSORTHOVIEW
 70
     0
  9
$UCSORGTOP
 10
0.0
 20
0.0
 30
0.0
  9
$UCSORGBOTTOM
 10
0.0
 20
0.0
 30
0.0
  9
$UCSORGLEFT
 10
0.0
 20
0.0
 30
0.0
  9
$UCSORGRIGHT
 10
0.0
 20
0.0
 30
0.0
  9
$UCSORGFRONT
 10
0.0
 20
0.0
 30
0.0
  9
$UCSORGBACK
 10
0.0
 20
0.0
 30
0.0
  9
$PUCSBASE
  2

  9
$PUCSNAME
  2

  9
$PUCSORG
 10
0.0
 20
0.0
 30
0.0
  9
$PUCSXDIR
 10
1.0
 20
0.0
 30
0.0
  9
$PUCSYDIR
 10
0.0
 20
1.0
 30
0.0
  9
$PUCSORTHOREF
  2

  9
$PUCSORTHOVIEW
 70
     0
  9
$PUCSORGTOP
 10
0.0
 20
0.0
 30
0.0
  9
$PUCSORGBOTTOM
 10
0.0
 20
0.0
 30
0.0
  9
$PUCSORGLEFT
 10
0.0
 20
0.0
 30
0.0
  9
$PUCSORGRIGHT
 10
0.0
 20
0.0
 30
0.0
  9
$PUCSORGFRONT
 10
0.0
 20
0.0
 30
0.0
  9
$PUCSORGBACK
 10
0.0
 20
0.0
 30
0.0
  9
$USERI1
 70
     0
  9
$USERI2
 70
     0
  9
$USERI3
 70
     0
  9
$USERI4
 70
     0
  9
$USERI5
 70
     0
  9
$USERR1
 40
0.0
  9
$USERR2
 40
0.0
  9
$USERR3
 40
0.0
  9
$USERR4
 40
0.0
  9
$USERR5
 40
0.0
  9
$WORLDVIEW
 70
     1
  9
$SHADEDGE
 70
     3
  9
$SHADEDIF
 70
    70
  9
$TILEMODE
 70
     1
  9
$MAXACTVP
 70
    64
  9
$PINSBASE
 10
0.0
 20
0.0
 30
0.0
  9
$PLIMCHECK
 70
     0
  9
$PEXTMIN
 10
1.000000000000000E+20
 20
1.000000000000000E+20
 30
1.000000000000000E+20
  9
$PEXTMAX
 10
-1.000000000000000E+20
 20
-1.000000000000000E+20
 30
-1.000000000000000E+20
  9
$PLIMMIN
 10
0.0
 20
0.0
  9
$PLIMMAX
 10
0.0
 20
0.0
  9
$UNITMODE
 70
     0
  9
$VISRETAIN
 70
     1
  9
$PLINEGEN
 70
     0
  9
$PSLTSCALE
 70
     1
  9
$TREEDEPTH
 70
  3020
  9
$CMLSTYLE
  2
Standard
  9
$CMLJUST
 70
     0
  9
$CMLSCALE
 40
20.0
  9
$PROXYGRAPHICS
 70
     1
  9
$MEASUREMENT
 70
     1
  9
$CELWEIGHT
370
    -1
  9
$ENDCAPS
280
     0
  9
$JOINSTYLE
280
     0
  9
$LWDISPLAY
290
     1
  9
$INSUNITS
 70
     4
  9
$HYPERLINKBASE
  1

  9
$STYLESHEET
  1

  9
$XEDIT
290
     1
  9
$CEPSNTYPE
380
     0
  9
$PSTYLEMODE
290
     1
  9
$FINGERPRINTGUID
  2
{0542DF1B-96C9-4194-967C-0ECC47C02802}
  9
$VERSIONGUID
  2
{FAEB1C32-E019-11D5-929B-00C0DF256EC4}
  9
$EXTNAMES
290
     1
  9
$PSVPSCALE
 40
0.0
  9
$OLESTARTUP
290
     0
  0
ENDSEC
  0
SECTION
  2
CLASSES
  0
CLASS
  1
ACDBDICTIONARYWDFLT
  2
AcDbDictionaryWithDefault
  3
ObjectDBX Classes
 90
        0
280
     0
281
     0
  0
CLASS
  1
VISUALSTYLE
  2
AcDbVisualStyle
  3
ObjectDBX Classes
 90
     4095
280
     0
281
     0
  0
CLASS
  1
MATERIAL
  2
AcDbMaterial
  3
ObjectDBX Classes
 90
     1153
280
     0
281
     0
  0
CLASS
  1
SCALE
  2
AcDbScale
  3
ObjectDBX Classes
 90
     1153
280
     0
281
     0
  0
CLASS
  1
SUN
  2
AcDbSun
  3
SCENEOE
 90
     1153
280
     0
281
     0
  0
CLASS
  1
ACDBPLACEHOLDER
  2
AcDbPlaceHolder
  3
ObjectDBX Classes
 90
        0
280
     0
281
     0
  0
CLASS
  1
LAYOUT
  2
AcDbLayout
  3
ObjectDBX Classes
 90
        0
280
     0
281
     0
  0
CLASS
  1
TABLESTYLE
  2
AcDbTableStyle
  3
ObjectDBX Classes
 90
     4095
280
     0
281
     0
  0
CLASS
  1
MLEADERSTYLE
  2
AcDbMLeaderStyle
  3
ACDB_MLEADERSTYLE_CLASS
 90
     4095
280
     0
281
     0
  0
CLASS
  1
RASTERVARIABLES
  2
AcDbRasterVariables
  3
ISM
 90
        0
280
     0
281
     0
  0
ENDSEC
  0
SECTION
  2
TABLES
  0
TABLE
  2
VPORT
  5
8
330
0
100
AcDbSymbolTable
 70
     1
  0
VPORT
  5
29
330
8
100
AcDbSymbolTableRecord
100
AcDbViewportTableRecord
  2
*Active
 70
     0
 10
0.0
 20
0.0
 11
1.0
 21
1.0
 12
16.2635607731097
 22
5.07930899929729
 13
0.0
 23
0.0
 14
10.0
 24
10.0
 15
10.0
 25
10.0
 16
0.0
 26
0.0
 36
1.0
 17
0.0
 27
0.0
 37
0.0
 40
107.7154555057995
 41
1.859099804305284
 42
50.0
 43
0.0
 44
0.0
 50
0.0
 51
0.0
 71
    16
 72
  2000
 73
     1
 74
     3
 75
     0
 76
     0
 77
     0
 78
     0
281
     0
 65
     1
110
0.0
120
0.0
130
0.0
111
1.0
121
0.0
131
0.0
112
0.0
122
1.0
132
0.0
 79
     0
146
0.0
  0
ENDTAB
  0
TABLE
  2
LTYPE
  5
5
330
0
100
AcDbSymbolTable
 70
     6
  0
LTYPE
  5
14
330
5
100
AcDbSymbolTableRecord
100
AcDbLinetypeTableRecord
  2
ByBlock
 70
     0
  3

 72
    65
 73
     0
 40
0.0
  0
LTYPE
  5
15
330
5
100
AcDbSymbolTableRecord
100
AcDbLinetypeTableRecord
  2
ByLayer
 70
     0
  3

 72
    65
 73
     0
 40
0.0
  0
LTYPE
  5
16
330
5
100
AcDbSymbolTableRecord
100
AcDbLinetypeTableRecord
  2
Continuous
 70
     0
  3
Solid line
 72
    65
 73
     0
 40
0.0
  0
LTYPE
  5
6A
330
5
100
AcDbSymbolTableRecord
100
AcDbLinetypeTableRecord
  2
HIDDEN
 70
     0
  3
Hidden __ __ __ __ __ __ __ __ __ __ __ __ __ __
 72
    65
 73
     2
 40
1.905
 49
1.27
 74
     0
 49
-0.635
 74
     0
  0
LTYPE
  5
6B
330
5
100
AcDbSymbolTableRecord
100
AcDbLinetypeTableRecord
  2
PHANTOM
 70
     0
  3
Phantom ______  __  __  ______  __  __  ______
 72
    65
 73
     6
 40
12.7
 49
6.35
 74
     0
 49
-1.27
 74
     0
 49
1.27
 74
     0
 49
-1.27
 74
     0
 49
1.27
 74
     0
 49
-1.27
 74
     0
  0
LTYPE
  5
6C
330
5
100
AcDbSymbolTableRecord
100
AcDbLinetypeTableRecord
  2
CENTER
 70
     0
  3
Center ____ _ ____ _ ____ _ ____ _ ____ _ ____
 72
    65
 73
     4
 40
10.16
 49
6.35
 74
     0
 49
-1.27
 74
     0
 49
1.27
 74
     0
 49
-1.27
 74
     0
  0
LTYPE
  5
6D
330
5
100
AcDbSymbolTableRecord
100
AcDbLinetypeTableRecord
  2
CENTERX2
 70
     0
  3
Center (2x) ________  __  ________  __  _____
 72
    65
 73
     4
 40
20.32
 49
12.7
 74
     0
 49
-2.54
 74
     0
 49
2.54
 74
     0
 49
-2.54
 74
     0
  0
LTYPE
  5
6E
330
5
100
AcDbSymbolTableRecord
100
AcDbLinetypeTableRecord
  2
DOT2
 70
     0
  3
Dot (.5x) ........................................
 72
    65
 73
     2
 40
0.635
 49
0.0
 74
     0
 49
-0.635
 74
     0
  0
ENDTAB
  0
TABLE
  2
LAYER
  5
2
102
{ACAD_XDICTIONARY
360
181
102
}
330
0
100
AcDbSymbolTable
 70
    18
  0
LAYER
  5
10
330
2
100
AcDbSymbolTableRecord
100
AcDbLayerTableRecord
  2
0
 70
     0
 62
     7
  6
Continuous
370
    -3
390
F
  0
LAYER
  5
6F
330
2
100
AcDbSymbolTableRecord
100
AcDbLayerTableRecord
  2
FORMAT
 70
     0
 62
     2
  6
Continuous
370
    -3
390
F
  0
LAYER
  5
70
330
2
100
AcDbSymbolTableRecord
100
AcDbLayerTableRecord
  2
외형선
 70
     0
 62
     4
  6
Continuous
370
    30
390
F
  0
LAYER
  5
71
330
2
100
AcDbSymbolTableRecord
100
AcDbLayerTableRecord
  2
숨은선
 70
     0
 62
     2
  6
HIDDEN
370
    15
390
F
  0
LAYER
  5
72
330
2
100
AcDbSymbolTableRecord
100
AcDbLayerTableRecord
  2
중심선
 70
     0
 62
     1
  6
CENTERX2
370
    -3
390
F
  0
LAYER
  5
73
330
2
100
AcDbSymbolTableRecord
100
AcDbLayerTableRecord
  2
파단선
 70
     0
 62
     4
  6
Continuous
370
    -3
390
F
  0
LAYER
  5
74
330
2
100
AcDbSymbolTableRecord
100
AcDbLayerTableRecord
  2
해칭선
 70
     0
 62
   100
  6
Continuous
370
    -3
390
F
  0
LAYER
  5
75
330
2
100
AcDbSymbolTableRecord
100
AcDbLayerTableRecord
  2
가는실선
 70
     0
 62
     4
  6
Continuous
370
    -3
390
F
  0
LAYER
  5
76
330
2
100
AcDbSymbolTableRecord
100
AcDbLayerTableRecord
  2
치수_보조선
 70
     0
 62
     4
  6
Continuous
370
    -3
390
F
  0
LAYER
  5
77
330
2
100
AcDbSymbolTableRecord
100
AcDbLayerTableRecord
  2
치수문자_일반주서
 70
     0
 62
     7
  6
Continuous
370
    15
390
F
  0
LAYER
  5
78
330
2
100
AcDbSymbolTableRecord
100
AcDbLayerTableRecord
  2
개별주서
 70
     0
 62
   100
  6
Continuous
370
    30
390
F
  0
LAYER
  5
79
330
2
100
AcDbSymbolTableRecord
100
AcDbLayerTableRecord
  2
중간선
 70
     0
 62
     2
  6
Continuous
370
    15
390
F
  0
LAYER
  5
7A
330
2
100
AcDbSymbolTableRecord
100
AcDbLayerTableRecord
  2
윤곽선
 70
     0
 62
     3
  6
Continuous
370
    40
390
F
  0
LAYER
  5
7B
330
2
100
AcDbSymbolTableRecord
100
AcDbLayerTableRecord
  2
중심마크
 70
     0
 62
   100
  6
Continuous
370
    30
390
F
  0
LAYER
  5
7C
330
2
100
AcDbSymbolTableRecord
100
AcDbLayerTableRecord
  2
가상선
 70
     0
 62
     4
  6
PHANTOM
370
    -3
390
F
  0
LAYER
  5
7D
330
2
100
AcDbSymbolTableRecord
100
AcDbLayerTableRecord
  2
특수지정선
 70
     0
 62
     5
  6
CENTERX2
370
    60
390
F
  0
LAYER
  5
7E
330
2
100
AcDbSymbolTableRecord
100
AcDbLayerTableRecord
  2
참조1
 70
     0
 62
    -4
  6
Continuous
370
    -3
390
F
  0
LAYER
  5
188
330
2
100
AcDbSymbolTableRecord
100
AcDbLayerTableRecord
  2
Defpoints
 70
     0
 62
     7
  6
Continuous
290
     0
370
    -3
390
F
  0
ENDTAB
  0
TABLE
  2
STYLE
  5
3
330
0
100
AcDbSymbolTable
 70
     2
  0
STYLE
  5
11
330
3
100
AcDbSymbolTableRecord
100
AcDbTextStyleTableRecord
  2
Standard
 70
     0
 40
0.0
 41
1.0
 50
0.0
 71
     0
 42
3.5
  3
txt
  4

  0
STYLE
  5
94
330
3
100
AcDbSymbolTableRecord
100
AcDbTextStyleTableRecord
  2
SLDTEXTSTYLE0
 70
     0
 40
0.0
 41
0.75
 50
0.0
 71
     0
 42
3.5
  3
TXT
  4

  0
ENDTAB
  0
TABLE
  2
VIEW
  5
6
330
0
100
AcDbSymbolTable
 70
     0
  0
ENDTAB
  0
TABLE
  2
UCS
  5
7
330
0
100
AcDbSymbolTable
 70
     0
  0
ENDTAB
  0
TABLE
  2
APPID
  5
9
330
0
100
AcDbSymbolTable
 70
     1
  0
APPID
  5
12
330
9
100
AcDbSymbolTableRecord
100
AcDbRegAppTableRecord
  2
ACAD
 70
     0
  0
ENDTAB
  0
TABLE
  2
DIMSTYLE
  5
A
330
0
100
AcDbSymbolTable
 70
     4
100
AcDbDimStyleTable
  0
DIMSTYLE
105
27
330
A
100
AcDbSymbolTableRecord
100
AcDbDimStyleTableRecord
  2
ISO-25
 70
     0
 41
2.5
 42
0.625
 43
3.75
 44
1.25
 73
     0
 74
     0
 77
     1
 78
     8
140
2.5
141
2.5
143
0.03937007874016
147
0.625
171
     3
172
     1
178
     0
271
     2
272
     2
274
     3
278
    44
283
     0
284
     8
340
11
  0
DIMSTYLE
105
D8
102
{ACAD_REACTORS
330
D7
330
EC
330
100
330
115
102
}
330
A
100
AcDbSymbolTableRecord
100
AcDbDimStyleTableRecord
  2
SLDDIMSTYLE0
 70
     0
 41
3.302
 44
0.0
 45
0.000000001
 73
     0
 74
     0
 77
     1
 78
    12
 79
     3
140
3.5
143
0.0393700787401575
147
0.875
148
0.000000001
170
     1
172
     1
173
     1
178
     0
271
     2
272
     2
276
     2
284
    12
289
     0
340
94
  0
DIMSTYLE
105
101
330
A
100
AcDbSymbolTableRecord
100
AcDbDimStyleTableRecord
  2
SLDDIMSTYLE1
 70
     0
 41
3.302
 44
0.0
 45
0.000000001
 73
     0
 74
     0
 77
     1
 78
    12
 79
     3
140
3.5
143
0.0393700787401575
147
0.875
148
0.000000001
170
     1
173
     1
178
     0
271
     2
272
     2
276
     2
284
    12
340
94
  0
DIMSTYLE
105
116
330
A
100
AcDbSymbolTableRecord
100
AcDbDimStyleTableRecord
  2
SLDDIMSTYLE2
 70
     0
 41
3.302
 44
0.0
 45
0.000000001
 73
     0
 74
     0
 77
     1
 78
     4
 79
     1
140
3.5
143
0.0393700787401575
147
0.875
148
0.000000001
170
     1
173
     1
178
     0
271
     2
272
     2
276
     2
284
    12
340
94
  0
ENDTAB
  0
TABLE
  2
BLOCK_RECORD
  5
1
330
0
100
AcDbSymbolTable
 70
     8
  0
BLOCK_RECORD
  5
1F
330
1
100
AcDbSymbolTableRecord
100
AcDbBlockTableRecord
  2
*Model_Space
340
22
  0
BLOCK_RECORD
  5
1B
330
1
100
AcDbSymbolTableRecord
100
AcDbBlockTableRecord
  2
*Paper_Space
340
1E
  0
BLOCK_RECORD
  5
23
330
1
100
AcDbSymbolTableRecord
100
AcDbBlockTableRecord
  2
*Paper_Space0
340
26
  0
BLOCK_RECORD
  5
7F
330
1
100
AcDbSymbolTableRecord
100
AcDbBlockTableRecord
  2
블럭10
340
0
102
{BLKREFS
331
D0
102
}
  0
BLOCK_RECORD
  5
D9
330
1
100
AcDbSymbolTableRecord
100
AcDbBlockTableRecord
  2
_D
340
0
  0
BLOCK_RECORD
  5
ED
330
1
100
AcDbSymbolTableRecord
100
AcDbBlockTableRecord
  2
_D_1
340
0
  0
BLOCK_RECORD
  5
102
330
1
100
AcDbSymbolTableRecord
100
AcDbBlockTableRecord
  2
_D_2
340
0
  0
BLOCK_RECORD
  5
117
330
1
100
AcDbSymbolTableRecord
100
AcDbBlockTableRecord
  2
_D_3
340
0
  0
BLOCK_RECORD
  5
130
330
1
100
AcDbSymbolTableRecord
100
AcDbBlockTableRecord
  2
SW_DOWELSYMBOL_0
340
0
102
{BLKREFS
331
136
102
}
  0
ENDTAB
  0
ENDSEC
  0
SECTION
  2
BLOCKS
  0
BLOCK
  5
20
330
1F
100
AcDbEntity
  8
0
100
AcDbBlockBegin
  2
*Model_Space
 70
     0
 10
0.0
 20
0.0
 30
0.0
  3
*Model_Space
  1
*Model_Space
  0
ENDBLK
  5
21
330
1F
100
AcDbEntity
  8
0
100
AcDbBlockEnd
  0
BLOCK
  5
1C
330
1B
100
AcDbEntity
 67
     1
  8
0
100
AcDbBlockBegin
  2
*Paper_Space
 70
     0
 10
0.0
 20
0.0
 30
0.0
  3
*Paper_Space
  1
*Paper_Space
  0
ENDBLK
  5
1D
330
1B
100
AcDbEntity
 67
     1
  8
0
100
AcDbBlockEnd
  0
BLOCK
  5
24
330
23
100
AcDbEntity
  8
0
100
AcDbBlockBegin
  2
*Paper_Space0
 70
     0
 10
0.0
 20
0.0
 30
0.0
  3
*Paper_Space0
  1
*Paper_Space0
  0
ENDBLK
  5
25
330
23
100
AcDbEntity
  8
0
100
AcDbBlockEnd
  0
BLOCK
  5
80
330
7F
100
AcDbEntity
  8
0
100
AcDbBlockBegin
  2
블럭10
 70
     2
 10
0.0
 20
0.0
 30
0.0
  3
블럭10
  1
블럭10
  0
ELLIPSE
  5
82
330
7F
100
AcDbEntity
  8
중심선
100
AcDbEllipse
 10
20.54032771741204
 20
12.0471743016438
 30
0.0
 11
6.600054785286829
 21
-1.261213355974178E-13
 31
0.0
210
0.0
220
0.0
230
1.0
 40
0.636358354079598
 41
0.9219305317359503
 42
6.513795318482858
  0
ELLIPSE
  5
83
330
7F
100
AcDbEntity
  8
중심선
100
AcDbEllipse
 10
20.54032771746488
 20
12.04717430159265
 30
0.0
 11
3.960054785062283
 21
1.540847449632565E-10
 31
0.0
210
0.0
220
0.0
230
1.0
 40
0.3939339440162632
 41
1.131841032648279
 42
5.62031148352944
  0
LINE
  5
84
330
7F
100
AcDbEntity
  8
중심선
100
AcDbLine
 10
2.268634060543552
 20
16.24717430164393
 30
0.0
 11
5.714909304380834
 21
16.24717430164393
 31
0.0
  0
LINE
  5
85
330
7F
100
AcDbEntity
  8
중심선
100
AcDbLine
 10
5.245725140726316
 20
7.84717430164391
 30
0.0
 11
8.692000384563599
 21
7.84717430164391
 31
0.0
  0
LINE
  5
86
330
7F
100
AcDbEntity
  8
중심선
100
AcDbLine
 10
15.74043728645272
 20
16.24717430164393
 30
0.0
 11
8.692000384563599
 21
7.84717430164391
 31
0.0
  0
LINE
  5
87
330
7F
100
AcDbEntity
  8
중심선
100
AcDbLine
 10
0.1404042013395286
 20
13.71084872107135
 30
0.0
 11
3.58671253028996
 21
13.71088815037384
 31
0.0
  0
LINE
  5
88
330
7F
100
AcDbEntity
  8
중심선
100
AcDbLine
 10
2.750260043222114
 20
10.84717430164391
 30
0.0
 11
6.196535287059397
 21
10.84717430164391
 31
0.0
  0
LINE
  5
89
330
7F
100
AcDbEntity
  8
중심선
100
AcDbLine
 10
12.29416204261559
 20
16.24717430164393
 30
0.0
 11
5.245725140726316
 21
7.84717430164391
 31
0.0
  0
LINE
  5
8A
330
7F
100
AcDbEntity
  8
중심선
100
AcDbLine
 10
10.72767329541681
 20
16.24717430164393
 30
0.0
 11
6.196535287059397
 21
10.84717430164391
 31
0.0
  0
LINE
  5
8B
330
7F
100
AcDbEntity
  8
중심선
100
AcDbLine
 10
7.28139805157953
 20
16.24717430164393
 30
0.0
 11
2.750260043222114
 21
10.84717430164391
 31
0.0
  0
LINE
  5
8C
330
7F
100
AcDbEntity
  8
중심선
100
AcDbLine
 10
5.714909304380834
 20
16.24717430164393
 30
0.0
 11
3.58671253028996
 21
13.71088815037384
 31
0.0
  0
LINE
  5
8D
330
7F
100
AcDbEntity
  8
중심선
100
AcDbLine
 10
2.268634060543552
 20
16.24717430164393
 30
0.0
 11
0.1404042013395286
 21
13.71084872107135
 31
0.0
  0
LINE
  5
8E
330
7F
100
AcDbEntity
  8
중심선
100
AcDbLine
 10
7.28139805157953
 20
16.24717430164393
 30
0.0
 11
10.72767329541681
 21
16.24717430164393
 31
0.0
  0
LINE
  5
8F
330
7F
100
AcDbEntity
  8
중심선
100
AcDbLine
 10
12.29416204261559
 20
16.24717430164393
 30
0.0
 11
15.74043728645272
 21
16.24717430164393
 31
0.0
  0
LINE
  5
90
330
7F
100
AcDbEntity
  8
중심선
100
AcDbLine
 10
19.22036997980202
 20
11.08717430171403
 30
0.0
 11
23.66174974927406
 21
11.08717430171406
 31
0.0
  0
LINE
  5
91
330
7F
100
AcDbEntity
  8
중심선
100
AcDbLine
 10
19.22039502424796
 20
13.00717430171391
 30
0.0
 11
19.22036997980202
 21
11.08717430171403
 31
0.0
  0
LINE
  5
92
330
7F
100
AcDbEntity
  8
중심선
100
AcDbLine
 10
19.22039502424796
 20
13.00717430171391
 30
0.0
 11
26.96566020931264
 21
13.00717430171391
 31
0.0
  0
LINE
  5
93
330
7F
100
AcDbEntity
  8
중심선
100
AcDbLine
 10
22.22332737316547
 20
13.45928029700563
 30
0.0
 11
24.52862924686651
 21
15.39360700705356
 31
0.0
  0
ATTDEF
  5
95
330
7F
100
AcDbEntity
  8
FORMAT
 62
     2
100
AcDbText
 10
3.448148490846466
 20
2.075366912832191
 30
0.0
 40
4.233333333333333
  1
EM154020
 41
0.75
  7
SLDTEXTSTYLE0
 11
3.448148490846466
 21
-0.0412997538344756
 31
0.0
100
AcDbAttributeDefinition
  3

  2
AUTOATTR0
 70
     0
 74
     1
  0
ENDBLK
  5
81
330
7F
100
AcDbEntity
  8
0
100
AcDbBlockEnd
  0
BLOCK
  5
DA
330
D9
100
AcDbEntity
  8
0
100
AcDbBlockBegin
  2
_D
 70
     0
 10
0.0
 20
0.0
 30
0.0
  3
_D
  1
_D
  0
LINE
  5
DC
330
D9
100
AcDbEntity
  8
치수문자_일반주서
 62
     0
370
    -2
100
AcDbLine
 10
-32.11499999999999
 20
3.968749999999991
 30
0.0
 11
-45.48249999999999
 21
3.968749999999941
 31
0.0
  0
LINE
  5
DD
330
D9
100
AcDbEntity
  8
치수문자_일반주서
 62
     0
370
    -2
100
AcDbLine
 10
-32.11499999999999
 20
-3.968749999999996
 30
0.0
 11
-45.48249999999997
 21
-3.968750000000045
 31
0.0
  0
LINE
  5
DE
330
D9
100
AcDbEntity
  8
치수문자_일반주서
 62
     0
370
    -2
100
AcDbLine
 10
-45.48249999999998
 20
0.6667499999999418
 30
0.0
 11
-45.48249999999998
 21
-0.6667500000000453
 31
0.0
  0
SOLID
  5
DF
330
D9
100
AcDbEntity
  8
치수문자_일반주서
 62
     0
100
AcDbTrace
 10
-44.93216666666665
 20
0.6667499999999438
 30
0.0
 11
-46.03283333333331
 21
0.6667499999999398
 31
0.0
 12
-45.48249999999999
 22
3.968749999999941
 32
0.0
 13
-45.48249999999999
 23
3.968749999999941
 33
0.0
  0
SOLID
  5
E0
330
D9
100
AcDbEntity
  8
치수문자_일반주서
 62
     0
100
AcDbTrace
 10
-46.03283333333331
 20
-0.6667500000000472
 30
0.0
 11
-44.93216666666665
 21
-0.6667500000000433
 31
0.0
 12
-45.48249999999997
 22
-3.968750000000045
 32
0.0
 13
-45.48249999999997
 23
-3.968750000000045
 33
0.0
  0
MTEXT
  5
E1
330
D9
100
AcDbEntity
  8
치수문자_일반주서
 62
     0
100
AcDbMText
 10
-49.85749999999998
 20
-0.0000000000000261
 30
0.0
 40
3.5
 41
0.0
 71
     2
 72
     1
  1
\A1;%%c7.94 [5/16]
  7
SLDTEXTSTYLE0
 11
-3.580687802255629E-15
 21
1.0
 31
0.0
 73
     1
 44
1.0
  0
POINT
  5
E2
330
D9
100
AcDbEntity
  8
Defpoints
 62
     0
100
AcDbPoint
 10
-32.05249999999999
 20
3.968749999999991
 30
0.0
  0
POINT
  5
E3
330
D9
100
AcDbEntity
  8
Defpoints
 62
     0
100
AcDbPoint
 10
-32.05249999999999
 20
-3.968749999999995
 30
0.0
  0
POINT
  5
E4
330
D9
100
AcDbEntity
  8
Defpoints
 62
     0
100
AcDbPoint
 10
-45.48249999999997
 20
-3.968750000000045
 30
0.0
  0
ENDBLK
  5
DB
330
D9
100
AcDbEntity
  8
0
100
AcDbBlockEnd
  0
BLOCK
  5
EE
330
ED
100
AcDbEntity
  8
0
100
AcDbBlockBegin
  2
_D_1
 70
     0
 10
0.0
 20
0.0
 30
0.0
  3
_D_1
  1
_D_1
  0
LINE
  5
F0
330
ED
100
AcDbEntity
  8
치수문자_일반주서
 62
     0
370
    -2
100
AcDbLine
 10
30.70000000000001
 20
3.96875
 30
0.0
 11
45.80368923541921
 21
3.968750000000057
 31
0.0
  0
LINE
  5
F1
330
ED
100
AcDbEntity
  8
치수문자_일반주서
 62
     0
370
    -2
100
AcDbLine
 10
30.70000000000001
 20
-3.968749999999997
 30
0.0
 11
45.80368923541923
 21
-3.96874999999994
 31
0.0
  0
LINE
  5
F2
330
ED
100
AcDbEntity
  8
치수문자_일반주서
 62
     0
370
    -2
100
AcDbLine
 10
45.80368923541921
 20
3.968750000000057
 30
0.0
 11
45.80368923541909
 21
38.57275000000006
 31
0.0
  0
LINE
  5
F3
330
ED
100
AcDbEntity
  8
치수문자_일반주서
 62
     0
370
    -2
100
AcDbLine
 10
45.80368923541921
 20
3.968750000000057
 30
0.0
 11
45.80368923541923
 21
-3.96874999999994
 31
0.0
  0
LINE
  5
F4
330
ED
100
AcDbEntity
  8
치수문자_일반주서
 62
     0
370
    -2
100
AcDbLine
 10
45.80368923541919
 20
7.270750000000056
 30
0.0
 11
45.80368923541918
 21
10.57275000000006
 31
0.0
  0
LINE
  5
F5
330
ED
100
AcDbEntity
  8
치수문자_일반주서
 62
     0
370
    -2
100
AcDbLine
 10
45.80368923541925
 20
-7.270749999999939
 30
0.0
 11
45.80368923541926
 21
-10.57274999999994
 31
0.0
  0
SOLID
  5
F6
330
ED
100
AcDbEntity
  8
치수문자_일반주서
 62
     0
100
AcDbTrace
 10
45.25335590208586
 20
7.270750000000055
 30
0.0
 11
46.35402256875253
 21
7.270750000000058
 31
0.0
 12
45.80368923541921
 22
3.968750000000057
 32
0.0
 13
45.80368923541921
 23
3.968750000000057
 33
0.0
  0
SOLID
  5
F7
330
ED
100
AcDbEntity
  8
치수문자_일반주서
 62
     0
100
AcDbTrace
 10
46.35402256875258
 20
-7.270749999999937
 30
0.0
 11
45.25335590208591
 21
-7.270749999999941
 31
0.0
 12
45.80368923541923
 22
-3.96874999999994
 32
0.0
 13
45.80368923541923
 23
-3.96874999999994
 33
0.0
  0
MTEXT
  5
F8
330
ED
100
AcDbEntity
  8
치수문자_일반주서
 62
     0
100
AcDbMText
 10
41.42868923541914
 20
24.57275000000004
 30
0.0
 40
3.5
 41
0.0
 71
     2
 72
     1
  1
\A1;%%c7.94 [5/16]
  7
SLDTEXTSTYLE0
 11
-3.580687802255624E-15
 21
1.0
 31
0.0
 73
     1
 44
1.0
  0
POINT
  5
F9
330
ED
100
AcDbEntity
  8
Defpoints
 62
     0
100
AcDbPoint
 10
30.63750000000001
 20
3.96875
 30
0.0
  0
POINT
  5
FA
330
ED
100
AcDbEntity
  8
Defpoints
 62
     0
100
AcDbPoint
 10
30.63750000000001
 20
-3.968749999999998
 30
0.0
  0
POINT
  5
FB
330
ED
100
AcDbEntity
  8
Defpoints
 62
     0
100
AcDbPoint
 10
45.80368923541924
 20
-3.968749999999941
 30
0.0
  0
ENDBLK
  5
EF
330
ED
100
AcDbEntity
  8
0
100
AcDbBlockEnd
  0
BLOCK
  5
103
330
102
100
AcDbEntity
  8
0
100
AcDbBlockBegin
  2
_D_2
 70
     0
 10
0.0
 20
0.0
 30
0.0
  3
_D_2
  1
_D_2
  0
LINE
  5
105
330
102
100
AcDbEntity
  8
치수문자_일반주서
 62
     0
370
    -2
100
AcDbLine
 10
30.63750000000001
 20
4.031250000000002
 30
0.0
 11
30.63750000000001
 21
25.80999999999999
 31
0.0
  0
LINE
  5
106
330
102
100
AcDbEntity
  8
치수문자_일반주서
 62
     0
370
    -2
100
AcDbLine
 10
10.0
 20
4.012125589348362
 30
0.0
 11
10.0
 21
25.80999999999999
 31
0.0
  0
LINE
  5
107
330
102
100
AcDbEntity
  8
치수문자_일반주서
 62
     0
370
    -2
100
AcDbLine
 10
10.0
 20
25.80999999999999
 30
0.0
 11
-25.9165
 21
25.80999999999999
 31
0.0
  0
LINE
  5
108
330
102
100
AcDbEntity
  8
치수문자_일반주서
 62
     0
370
    -2
100
AcDbLine
 10
30.63750000000001
 20
25.80999999999999
 30
0.0
 11
10.0
 21
25.80999999999999
 31
0.0
  0
LINE
  5
109
330
102
100
AcDbEntity
  8
치수문자_일반주서
 62
     0
370
    -2
100
AcDbLine
 10
33.93950000000001
 20
25.80999999999999
 30
0.0
 11
37.24150000000001
 21
25.80999999999999
 31
0.0
  0
LINE
  5
10A
330
102
100
AcDbEntity
  8
치수문자_일반주서
 62
     0
370
    -2
100
AcDbLine
 10
6.698000000000002
 20
25.80999999999999
 30
0.0
 11
3.396000000000003
 21
25.80999999999999
 31
0.0
  0
SOLID
  5
10B
330
102
100
AcDbEntity
  8
치수문자_일반주서
 62
     0
100
AcDbTrace
 10
33.93950000000001
 20
26.36033333333332
 30
0.0
 11
33.93950000000001
 21
25.25966666666665
 31
0.0
 12
30.63750000000001
 22
25.80999999999999
 32
0.0
 13
30.63750000000001
 23
25.80999999999999
 33
0.0
  0
SOLID
  5
10C
330
102
100
AcDbEntity
  8
치수문자_일반주서
 62
     0
100
AcDbTrace
 10
6.698000000000002
 20
25.25966666666665
 30
0.0
 11
6.698000000000002
 21
26.36033333333332
 31
0.0
 12
10.0
 22
25.80999999999999
 32
0.0
 13
10.0
 23
25.80999999999999
 33
0.0
  0
MTEXT
  5
10D
330
102
100
AcDbEntity
  8
치수문자_일반주서
 62
     0
100
AcDbMText
 10
-11.26025
 20
30.18499999999999
 30
0.0
 40
3.5
 41
0.0
 71
     2
 72
     1
  1
\A1;20.64 [13/16]
  7
SLDTEXTSTYLE0
 73
     1
 44
1.0
  0
POINT
  5
10E
330
102
100
AcDbEntity
  8
Defpoints
 62
     0
100
AcDbPoint
 10
30.63750000000001
 20
3.968750000000002
 30
0.0
  0
POINT
  5
189
330
102
100
AcDbEntity
  8
Defpoints
 62
     0
100
AcDbPoint
 10
10.0
 20
3.949625589348362
 30
0.0
  0
POINT
  5
18A
330
102
100
AcDbEntity
  8
Defpoints
 62
     0
100
AcDbPoint
 10
10.0
 20
25.80999999999999
 30
0.0
  0
ENDBLK
  5
104
330
102
100
AcDbEntity
  8
0
100
AcDbBlockEnd
  0
BLOCK
  5
118
330
117
100
AcDbEntity
  8
0
100
AcDbBlockBegin
  2
_D_3
 70
     0
 10
0.0
 20
0.0
 30
0.0
  3
_D_3
  1
_D_3
  0
LINE
  5
11A
330
117
100
AcDbEntity
  8
치수문자_일반주서
 62
     0
370
    -2
100
AcDbLine
 10
30.63750000000001
 20
4.031250000000002
 30
0.0
 11
30.63750000000001
 21
40.63405344013389
 31
0.0
  0
LINE
  5
11B
330
117
100
AcDbEntity
  8
치수문자_일반주서
 62
     0
370
    -2
100
AcDbLine
 10
-32.8625
 20
3.221249999999995
 30
0.0
 11
-32.8625
 21
40.63405344013389
 31
0.0
  0
LINE
  5
11C
330
117
100
AcDbEntity
  8
치수문자_일반주서
 62
     0
370
    -2
100
AcDbLine
 10
27.33550000000001
 20
40.63405344013389
 30
0.0
 11
-29.5605
 21
40.63405344013389
 31
0.0
  0
SOLID
  5
11D
330
117
100
AcDbEntity
  8
치수문자_일반주서
 62
     0
100
AcDbTrace
 10
27.33550000000001
 20
40.08372010680056
 30
0.0
 11
27.33550000000001
 21
41.18438677346722
 31
0.0
 12
30.63750000000001
 22
40.63405344013389
 32
0.0
 13
30.63750000000001
 23
40.63405344013389
 33
0.0
  0
SOLID
  5
11E
330
117
100
AcDbEntity
  8
치수문자_일반주서
 62
     0
100
AcDbTrace
 10
-29.5605
 20
41.18438677346722
 30
0.0
 11
-29.5605
 21
40.08372010680056
 31
0.0
 12
-32.8625
 22
40.63405344013389
 32
0.0
 13
-32.8625
 23
40.63405344013389
 33
0.0
  0
MTEXT
  5
11F
330
117
100
AcDbEntity
  8
치수문자_일반주서
 62
     0
100
AcDbMText
 10
-1.112500000000028
 20
45.00905344013389
 30
0.0
 40
3.5
 41
0.0
 71
     2
 72
     1
  1
\A1;63.5 [2 1/2]
  7
SLDTEXTSTYLE0
 73
     1
 44
1.0
  0
POINT
  5
120
330
117
100
AcDbEntity
  8
Defpoints
 62
     0
100
AcDbPoint
 10
30.63750000000001
 20
3.968750000000002
 30
0.0
  0
POINT
  5
121
330
117
100
AcDbEntity
  8
Defpoints
 62
     0
100
AcDbPoint
 10
-32.8625
 20
3.158749999999995
 30
0.0
  0
POINT
  5
122
330
117
100
AcDbEntity
  8
Defpoints
 62
     0
100
AcDbPoint
 10
-32.8625
 20
40.63405344013389
 30
0.0
  0
ENDBLK
  5
119
330
117
100
AcDbEntity
  8
0
100
AcDbBlockEnd
  0
BLOCK
  5
131
330
130
100
AcDbEntity
  8
0
100
AcDbBlockBegin
  2
SW_DOWELSYMBOL_0
 70
     0
 10
0.0
 20
0.0
 30
0.0
  3
SW_DOWELSYMBOL_0
  1
SW_DOWELSYMBOL_0
  0
CIRCLE
  5
133
330
130
100
AcDbEntity
  8
해칭선
 62
     0
100
AcDbCircle
 10
0.0
 20
0.0
 30
0.0
 40
3.000000000000001
  0
HATCH
  5
134
330
130
100
AcDbEntity
  8
0
  6
Continuous
 62
     0
370
     0
100
AcDbHatch
 10
0.0
 20
0.0
 30
0.0
210
0.0
220
0.0
230
1.0
  2
SOLID
 70
     1
 71
     0
 91
        1
 92
        0
 93
        3
 72
     2
 10
0.0
 20
0.0
 40
3.000000000000001
 50
0.0
 51
90.0
 73
     1
 72
     1
 10
0.0
 20
3.000000000000001
 11
0.0
 21
0.0
 72
     1
 10
0.0
 20
0.0
 11
3.000000000000001
 21
0.0
 97
        0
 75
     0
 76
     1
 98
        1
 10
0.0
 20
0.0
  0
HATCH
  5
135
330
130
100
AcDbEntity
  8
0
  6
Continuous
 62
     0
370
     0
100
AcDbHatch
 10
0.0
 20
0.0
 30
0.0
210
0.0
220
0.0
230
1.0
  2
SOLID
 70
     1
 71
     0
 91
        1
 92
        0
 93
        3
 72
     2
 10
0.0
 20
0.0
 40
3.000000000000001
 50
180.0
 51
270.0000000000008
 73
     1
 72
     1
 10
0.0
 20
-3.000000000000001
 11
0.0
 21
0.0
 72
     1
 10
0.0
 20
0.0
 11
-3.000000000000001
 21
0.0
 97
        0
 75
     0
 76
     1
 98
        1
 10
0.0
 20
0.0
  0
ENDBLK
  5
132
330
130
100
AcDbEntity
  8
0
100
AcDbBlockEnd
  0
ENDSEC
  0
SECTION
  2
ENTITIES
  0
LINE
  5
96
330
1F
100
AcDbEntity
  8
외형선
  6
Continuous
370
    15
100
AcDbLine
 10
8.480082077303162
 20
3.968749999999998
 30
0.0
 11
-32.05249999999999
 21
3.968749999999996
 31
0.0
  0
LINE
  5
97
330
1F
100
AcDbEntity
  8
외형선
  6
Continuous
370
    15
100
AcDbLine
 10
10.0
 20
3.968749999999998
 30
0.0
 11
9.323850530407803
 21
3.968749999999998
 31
0.0
  0
LINE
  5
98
330
1F
100
AcDbEntity
  8
외형선
  6
Continuous
370
    15
100
AcDbLine
 10
9.323850530407825
 20
-3.968750000000002
 30
0.0
 11
10.0
 21
-3.968750000000002
 31
0.0
  0
LINE
  5
99
330
1F
100
AcDbEntity
  8
외형선
  6
Continuous
370
    15
100
AcDbLine
 10
-32.05249999999999
 20
-3.968750000000004
 30
0.0
 11
8.480082077303162
 21
-3.968750000000002
 31
0.0
  0
LINE
  5
9A
330
1F
100
AcDbEntity
  8
외형선
  6
Continuous
370
    15
100
AcDbLine
 10
-32.05249999999999
 20
3.968749999999995
 30
0.0
 11
-32.8625
 21
3.158749999999995
 31
0.0
  0
LINE
  5
9B
330
1F
100
AcDbEntity
  8
외형선
  6
Continuous
370
    15
100
AcDbLine
 10
-32.8625
 20
-3.158750000000004
 30
0.0
 11
-32.05249999999999
 21
-3.968750000000004
 31
0.0
  0
LINE
  5
9C
330
1F
100
AcDbEntity
  8
0
  6
Continuous
 62
     1
370
    15
100
AcDbLine
 10
18.16015645758519
 20
1.117607736311609
 30
0.0
 11
18.11765949086151
 21
1.141000309904612
 31
0.0
  0
SPLINE
  5
9D
330
1F
100
AcDbEntity
  8
0
  6
Continuous
 62
     1
370
    15
100
AcDbSpline
210
0.0
220
0.0
230
1.0
 70
     8
 71
     3
 72
     9
 73
     5
 74
     0
 42
0.000000001
 43
0.00000001
 40
0.0
 40
0.0
 40
0.0
 40
0.0
 40
0.4991388217031935
 40
1.0
 40
1.0
 40
1.0
 40
1.0
 10
20.35613925648837
 20
1.016980807650364
 30
0.0
 10
20.17273083577064
 20
1.104277916554724
 30
0.0
 10
19.80528111488558
 20
1.279173366695186
 30
0.0
 10
19.43777697132001
 20
1.471416686307455
 30
0.0
 10
19.2537084129448
 20
1.567703901888146
 30
0.0
  0
LINE
  5
9E
330
1F
100
AcDbEntity
  8
0
  6
Continuous
 62
     1
370
    15
100
AcDbLine
 10
11.24771150248994
 20
3.96875
 30
0.0
 11
10.0
 21
3.96875
 31
0.0
  0
SPLINE
  5
9F
330
1F
100
AcDbEntity
  8
0
  6
Continuous
 62
     1
370
    15
100
AcDbSpline
210
0.0
220
0.0
230
1.0
 70
     8
 71
     3
 72
    20
 73
    16
 74
     0
 42
0.000000001
 43
0.00000001
 40
0.0
 40
0.0
 40
0.0
 40
0.0
 40
0.1548396141225616
 40
0.2592470959588887
 40
0.3142398259864441
 40
0.3638293257086568
 40
0.4315961000988788
 40
0.5072795329111898
 40
0.5693404478884398
 40
0.6361081002736163
 40
0.7238762986073201
 40
0.824458311716147
 40
0.9191929737915407
 40
0.9858556459496075
 40
1.0
 40
1.0
 40
1.0
 40
1.0
 10
19.04329265265874
 20
3.153722206480936
 30
0.0
 10
18.87498749146192
 20
3.145316376371508
 30
0.0
 10
18.59319510569278
 20
3.131242542247457
 30
0.0
 10
18.25083224217654
 20
3.119303085168765
 30
0.0
 10
18.03180553786563
 20
3.112855486207511
 30
0.0
 10
17.84793950980964
 20
3.108180136690786
 30
0.0
 10
17.63651410366624
 20
3.104109031228281
 30
0.0
 10
17.41104813825184
 20
3.101177046282671
 30
0.0
 10
17.18725825658916
 20
3.099548410121423
 30
0.0
 10
16.95219160001472
 20
3.09916847828901
 30
0.0
 10
16.675319345342
 20
3.100592606579359
 30
0.0
 10
16.36816970984991
 20
3.104630436018994
 30
0.0
 10
16.08365612678064
 20
3.110937302629016
 30
0.0
 10
15.89366382199173
 20
3.116149939579213
 30
0.0
 10
15.80556401623656
 20
3.119223130908817
 30
0.0
 10
15.79014314378474
 20
3.119761058218732
 30
0.0
  0
SPLINE
  5
A0
330
1F
100
AcDbEntity
  8
0
  6
Continuous
 62
     1
370
    15
100
AcDbSpline
210
0.0
220
0.0
230
1.0
 70
     8
 71
     3
 72
    33
 73
    29
 74
     0
 42
0.000000001
 43
0.00000001
 40
0.0
 40
0.0
 40
0.0
 40
0.0
 40
0.0761961197968097
 40
0.1318933453035235
 40
0.1640320905944726
 40
0.1896936682779223
 40
0.2147049654551675
 40
0.2425745449212086
 40
0.2752885416669221
 40
0.3101261740565966
 40
0.351175982890336
 40
0.3951948733661634
 40
0.428969352611372
 40
0.4548137272183331
 40
0.4893762375420195
 40
0.5470586687229715
 40
0.5975406042795257
 40
0.6388026024844592
 40
0.6701671522327581
 40
0.7017927996175898
 40
0.739798785997665
 40
0.7781329875861863
 40
0.8048142104623279
 40
0.8130647782742408
 40
0.825614341472143
 40
0.8649674899531254
 40
0.9232519502653089
 40
1.0
 40
1.0
 40
1.0
 40
1.0
 10
29.16205243942083
 20
2.714429929688408
 30
0.0
 10
28.98864077647113
 20
2.70026537599392
 30
0.0
 10
28.68847005384018
 20
2.675746931006442
 30
0.0
 10
28.29851532361161
 20
2.652953954511269
 30
0.0
 10
28.02790902607435
 20
2.63874383041993
 30
0.0
 10
27.82955484211377
 20
2.630292723172458
 30
0.0
 10
27.66889210852498
 20
2.625597847341175
 30
0.0
 10
27.47920263464854
 20
2.620038044278175
 30
0.0
 10
27.2590662048863
 20
2.615296953592547
 30
0.0
 10
27.00734351241922
 20
2.612075404800819
 30
0.0
 10
26.72974797236026
 20
2.611256387863591
 30
0.0
 10
26.45455340070842
 20
2.613445807522882
 30
0.0
 10
26.21460356369425
 20
2.617746739218476
 30
0.0
 10
25.99640444977453
 20
2.623329475607452
 30
0.0
 10
25.72300590901558
 20
2.632456508259177
 30
0.0
 10
25.39275823043391
 20
2.647445663397698
 30
0.0
 10
25.04669301968295
 20
2.667770738205614
 30
0.0
 10
24.76145091617866
 20
2.687755927520034
 30
0.0
 10
24.52076117101587
 20
2.706766203978884
 30
0.0
 10
24.28761603995202
 20
2.726976337221887
 30
0.0
 10
24.0370519638617
 20
2.750882381957882
 30
0.0
 10
23.79826581843084
 20
2.775906233861356
 30
0.0
 10
23.62969200648316
 20
2.794770236742086
 30
0.0
 10
23.52221127344507
 20
2.807177141596951
 30
0.0
 10
23.38364732499128
 20
2.823507043214619
 30
0.0
 10
23.12864116706745
 20
2.855112570111115
 30
0.0
 10
22.72338605247133
 20
2.909327411725843
 30
0.0
 10
22.40885787975478
 20
2.957595643536421
 30
0.0
 10
22.23009038269624
 20
2.985029723331855
 30
0.0
  0
SPLINE
  5
A1
330
1F
100
AcDbEntity
  8
0
  6
Continuous
 62
     1
370
    15
100
AcDbSpline
210
0.0
220
0.0
230
1.0
 70
     8
 71
     3
 72
    31
 73
    27
 74
     0
 42
0.000000001
 43
0.00000001
 40
0.0
 40
0.0
 40
0.0
 40
0.0
 40
0.0656073030357404
 40
0.1148285907193863
 40
0.1477507951597936
 40
0.1764189692448948
 40
0.2092512989002744
 40
0.2462867151447377
 40
0.2836801944555016
 40
0.31587536962471
 40
0.3562843000230264
 40
0.3930549584221733
 40
0.4325647351313595
 40
0.486501938315904
 40
0.5361137754610602
 40
0.5715712334855031
 40
0.6113774293392895
 40
0.6625221278730332
 40
0.7072366256079645
 40
0.7370661197877477
 40
0.7630931510504755
 40
0.7874907142499329
 40
0.8183993192406183
 40
0.8642511147662518
 40
0.9249237839527096
 40
1.0
 40
1.0
 40
1.0
 40
1.0
 10
13.0740237945367
 20
-3.302553343848825
 30
0.0
 10
13.20400260878215
 20
-3.28989665255419
 30
0.0
 10
13.43149685671751
 20
-3.267744392709864
 30
0.0
 10
13.72448597131338
 20
-3.24215581659434
 30
0.0
 10
13.94573854048331
 20
-3.223989180879308
 30
0.0
 10
14.13475691562091
 20
-3.209294433116609
 30
0.0
 10
14.3313434974101
 20
-3.194940656242378
 30
0.0
 10
14.54499002483897
 20
-3.180480477582522
 30
0.0
 10
14.75709221555141
 20
-3.167323756157976
 30
0.0
 10
14.97593757263427
 20
-3.15490068229745
 30
0.0
 10
15.19350150082394
 20
-3.143745078153284
 30
0.0
 10
15.42567837376203
 20
-3.133202453071463
 30
0.0
 10
15.68479030143277
 20
-3.122938749077369
 30
0.0
 10
15.96932621002798
 20
-3.11376308981749
 30
0.0
 10
16.24592194718009
 20
-3.107154337150551
 30
0.0
 10
16.49446444925896
 20
-3.102893179804722
 30
0.0
 10
16.74598938350791
 20
-3.100084528249182
 30
0.0
 10
17.01589476528677
 20
-3.099020466895815
 30
0.0
 10
17.26596366534871
 20
-3.099951773720931
 30
0.0
 10
17.46607797832995
 20
-3.101904470943632
 30
0.0
 10
17.62576925485674
 20
-3.10417256890225
 30
0.0
 10
17.78752627459458
 20
-3.107117672015674
 30
0.0
 10
17.988604131691
 20
-3.111646876257281
 30
0.0
 10
18.26193667662037
 20
-3.119498897076269
 30
0.0
 10
18.6233244200484
 20
-3.132619160601468
 30
0.0
 10
18.89373918121313
 20
-3.146207271959025
 30
0.0
 10
19.04329265265874
 20
-3.15372220648094
 30
0.0
  0
SPLINE
  5
A2
330
1F
100
AcDbEntity
  8
0
  6
Continuous
 62
     1
370
    15
100
AcDbSpline
210
0.0
220
0.0
230
1.0
 70
     8
 71
     3
 72
    15
 73
    11
 74
     0
 42
0.000000001
 43
0.00000001
 40
0.0
 40
0.0
 40
0.0
 40
0.0
 40
0.148528189864009
 40
0.2638332267319483
 40
0.3450788271949719
 40
0.4002173243594216
 40
0.554705329910987
 40
0.6812630448755065
 40
0.8443747183761425
 40
1.0
 40
1.0
 40
1.0
 40
1.0
 10
22.23009038269624
 20
-2.985029723331859
 30
0.0
 10
22.37663403341861
 20
-2.962420036185825
 30
0.0
 10
22.63694208849261
 20
-2.922258052655294
 30
0.0
 10
22.97720097665401
 20
-2.875305395524575
 30
0.0
 10
23.22534704027681
 20
-2.843142632995298
 30
0.0
 10
23.51291041313506
 20
-2.807785076602276
 30
0.0
 10
23.84424254707538
 20
-2.770266856482148
 30
0.0
 10
24.28216208601244
 20
-2.726817294437223
 30
0.0
 10
24.72169074912966
 20
-2.689275577531128
 30
0.0
 10
25.03598284010954
 20
-2.669730966521208
 30
0.0
 10
25.18943788943632
 20
-2.66018818980911
 30
0.0
  0
LINE
  5
A3
330
1F
100
AcDbEntity
  8
0
  6
Continuous
 62
     1
370
    15
100
AcDbLine
 10
10.0
 20
-3.968750000000004
 30
0.0
 11
11.24771150248995
 21
-3.968750000000004
 31
0.0
  0
SPLINE
  5
A4
330
1F
100
AcDbEntity
  8
외형선
  6
Continuous
370
    15
100
AcDbSpline
210
0.0
220
0.0
230
1.0
 70
     8
 71
     3
 72
    10
 73
     6
 74
     0
 42
0.000000001
 43
0.00000001
 40
0.0
 40
0.0
 40
0.0
 40
0.0
 40
0.5
 40
0.5
 40
1.0
 40
1.0
 40
1.0
 40
1.0
 10
9.999999999999996
 20
3.949625589348362
 30
0.0
 10
9.745747797176039
 20
3.9639864157258
 30
0.0
 10
9.491107842197364
 20
3.97026150470334
 30
0.0
 10
8.985705931635055
 20
3.966623941177974
 30
0.0
 10
8.734109411725608
 20
3.956750832670455
 30
0.0
 10
8.480082077303162
 20
3.938795634832411
 30
0.0
  0
SPLINE
  5
A5
330
1F
100
AcDbEntity
  8
외형선
  6
Continuous
370
    15
100
AcDbSpline
210
0.0
220
0.0
230
1.0
 70
     8
 71
     3
 72
    10
 73
     6
 74
     0
 42
0.000000001
 43
0.00000001
 40
0.0
 40
0.0
 40
0.0
 40
0.0
 40
0.5000000000000001
 40
0.5000000000000001
 40
1.0
 40
1.0
 40
1.0
 40
1.0
 10
10.0
 20
-3.90348221555004
 30
0.0
 10
9.745762147047659
 20
-3.877031268632277
 30
0.0
 10
9.491136585128656
 20
-3.842569717717629
 30
0.0
 10
8.985762762660453
 20
-3.758351845142646
 30
0.0
 10
8.734180911810908
 20
-3.708588845413296
 30
0.0
 10
8.480168100352625
 20
-3.651204441876033
 30
0.0
  0
LINE
  5
A6
330
1F
100
AcDbEntity
  8
외형선
  6
Continuous
370
    15
100
AcDbLine
 10
10.0
 20
-3.903482215550039
 30
0.0
 11
10.0
 21
-3.968750000000002
 31
0.0
  0
LINE
  5
A7
330
1F
100
AcDbEntity
  8
외형선
  6
Continuous
370
    15
100
AcDbLine
 10
8.480082077303162
 20
-3.938795634832415
 30
0.0
 11
9.32385053040782
 21
-3.968550897115796
 31
0.0
  0
LINE
  5
A8
330
1F
100
AcDbEntity
  8
외형선
  6
Continuous
370
    15
100
AcDbLine
 10
8.480082077303162
 20
-3.968750000000002
 30
0.0
 11
8.480082077303162
 21
-3.938796147336316
 31
0.0
  0
LINE
  5
A9
330
1F
100
AcDbEntity
  8
외형선
  6
Continuous
370
    15
100
AcDbLine
 10
-32.05249999999999
 20
3.968749999999995
 30
0.0
 11
-32.05249999999999
 21
-3.968750000000004
 31
0.0
  0
LINE
  5
AA
330
1F
100
AcDbEntity
  8
외형선
  6
Continuous
370
    15
100
AcDbLine
 10
8.480082077303162
 20
-3.651137772757623
 30
0.0
 11
8.480082077303162
 21
3.968749999999998
 31
0.0
  0
LINE
  5
AB
330
1F
100
AcDbEntity
  8
외형선
  6
Continuous
370
    15
100
AcDbLine
 10
-32.8625
 20
3.158749999999995
 30
0.0
 11
-32.8625
 21
-3.158750000000004
 31
0.0
  0
SPLINE
  5
AC
330
1F
100
AcDbEntity
  8
외형선
  6
Continuous
370
    15
100
AcDbSpline
210
0.0
220
0.0
230
1.0
 70
    24
 71
     3
 72
    14
 73
    10
 74
     0
 42
0.000000001
 43
0.00000001
 40
0.0
 40
0.0
 40
0.0
 40
0.0
 40
0.25
 40
0.25
 40
0.5
 40
0.5
 40
0.75
 40
0.75
 40
1.0
 40
1.0
 40
1.0
 40
1.0
 10
9.999999999999993
 20
-0.4409341291693453
 30
0.0
 10
9.999999999999995
 20
-0.73710101203255
 30
0.0
 10
9.999999999999995
 20
-1.032084727657211
 30
0.0
 10
9.999999999999995
 20
-1.597632750908061
 30
0.0
 10
9.999999999999995
 20
-1.868018249797067
 30
0.0
 10
9.999999999999995
 20
-2.363377357991291
 30
0.0
 10
9.999999999999995
 20
-2.588207922623231
 30
0.0
 10
9.999999999999995
 20
-2.977950724849238
 30
0.0
 10
9.999999999999995
 20
-3.142822590082754
 30
0.0
 10
9.999999999999993
 20
-3.275205290995135
 30
0.0
  0
SPLINE
  5
AD
330
1F
100
AcDbEntity
  8
외형선
  6
Continuous
370
    15
100
AcDbSpline
210
0.0
220
0.0
230
1.0
 70
     8
 71
     3
 72
    10
 73
     6
 74
     0
 42
0.000000001
 43
0.00000001
 40
0.0
 40
0.0
 40
0.0
 40
0.0
 40
0.5
 40
0.5
 40
1.0
 40
1.0
 40
1.0
 40
1.0
 10
9.999999999999993
 20
-3.275205290995137
 30
0.0
 10
9.745762147047655
 20
-3.245383323271024
 30
0.0
 10
9.491136585128654
 20
-3.208836283504159
 30
0.0
 10
8.985762762660453
 20
-3.12304094099716
 30
0.0
 10
8.734180911810906
 20
-3.073778445585517
 30
0.0
 10
8.480168100352625
 20
-3.018189809710256
 30
0.0
  0
SPLINE
  5
AE
330
1F
100
AcDbEntity
  8
외형선
  6
Continuous
370
    15
100
AcDbSpline
210
0.0
220
0.0
230
1.0
 70
     8
 71
     3
 72
    10
 73
     6
 74
     0
 42
0.000000001
 43
0.00000001
 40
0.0
 40
0.0
 40
0.0
 40
0.0
 40
0.5000000000000001
 40
0.5000000000000001
 40
1.0
 40
1.0
 40
1.0
 40
1.0
 10
9.999999999999991
 20
-0.4409341291693442
 30
0.0
 10
9.745753036213912
 20
-0.3249033668618243
 30
0.0
 10
9.491118336041032
 20
-0.2079113808144556
 30
0.0
 10
8.98572668023656
 20
0.0258475978126971
 30
0.0
 10
8.734135515918974
 20
0.1427427204072188
 30
0.0
 10
8.480113483724834
 20
0.2594824744957922
 30
0.0
  0
SPLINE
  5
AF
330
1F
100
AcDbEntity
  8
외형선
  6
Continuous
370
    15
100
AcDbSpline
210
0.0
220
0.0
230
1.0
 70
    24
 71
     3
 72
    14
 73
    10
 74
     0
 42
0.000000001
 43
0.00000001
 40
0.0
 40
0.0
 40
0.0
 40
0.0
 40
0.25
 40
0.25
 40
0.5
 40
0.5
 40
0.75
 40
0.75
 40
1.0
 40
1.0
 40
1.0
 40
1.0
 10
10.0
 20
2.751204005161163
 30
0.0
 10
10.0
 20
2.629376123843076
 30
0.0
 10
10.0
 20
2.463212248358262
 30
0.0
 10
10.0
 20
2.045569190766982
 30
0.0
 10
10.0
 20
1.794127140825597
 30
0.0
 10
10.0
 20
1.226792161469105
 30
0.0
 10
10.0
 20
0.9112015318502658
 30
0.0
 10
10.0
 20
0.2491316588672743
 30
0.0
 10
10.0
 20
-0.0969671416809218
 30
0.0
 10
10.0
 20
-0.4409341291693487
 30
0.0
  0
SPLINE
  5
B0
330
1F
100
AcDbEntity
  8
외형선
  6
Continuous
370
    15
100
AcDbSpline
210
0.0
220
0.0
230
1.0
 70
     8
 71
     3
 72
    10
 73
     6
 74
     0
 42
0.000000001
 43
0.00000001
 40
0.0
 40
0.0
 40
0.0
 40
0.0
 40
0.5
 40
0.5
 40
1.0
 40
1.0
 40
1.0
 40
1.0
 10
9.999999999999982
 20
2.751204005161164
 30
0.0
 10
9.745751253596573
 20
2.76544181594061
 30
0.0
 10
9.491114765441258
 20
2.774049579518234
 30
0.0
 10
8.985719620386355
 20
2.779916309115023
 30
0.0
 10
8.734126633795828
 20
2.777207593023418
 30
0.0
 10
8.480102797482822
 20
2.768831188259325
 30
0.0
  0
SPLINE
  5
B1
330
1F
100
AcDbEntity
  8
외형선
  6
Continuous
370
    15
100
AcDbSpline
210
0.0
220
0.0
230
1.0
 70
    24
 71
     3
 72
     8
 73
     4
 74
     0
 42
0.000000001
 43
0.00000001
 40
0.0
 40
0.0
 40
0.0
 40
0.0
 40
1.0
 40
1.0
 40
1.0
 40
1.0
 10
10.0
 20
-3.275205290995137
 30
0.0
 10
10.0
 20
-3.48592854507224
 30
0.0
 10
10.0
 20
-3.696705929545981
 30
0.0
 10
10.0
 20
-3.903482215545064
 30
0.0
  0
SPLINE
  5
B2
330
1F
100
AcDbEntity
  8
외형선
  6
Continuous
370
    15
100
AcDbSpline
210
0.0
220
0.0
230
1.0
 70
    24
 71
     3
 72
    10
 73
     6
 74
     0
 42
0.000000001
 43
0.00000001
 40
0.0
 40
0.0
 40
0.0
 40
0.0
 40
0.5
 40
0.5
 40
1.0
 40
1.0
 40
1.0
 40
1.0
 10
9.999999999999996
 20
3.94962558934836
 30
0.0
 10
9.999999999999996
 20
3.759854098673443
 30
0.0
 10
9.999999999999996
 20
3.549772092220392
 30
0.0
 10
9.999999999999996
 20
3.135032668848855
 30
0.0
 10
9.999999999999996
 20
2.931477797579728
 30
0.0
 10
9.999999999999996
 20
2.751204005161163
 30
0.0
  0
SPLINE
  5
B3
330
1F
100
AcDbEntity
  8
0
  6
Continuous
 62
     1
370
    15
100
AcDbSpline
210
0.0
220
0.0
230
1.0
 70
     8
 71
     3
 72
    52
 73
    48
 74
     0
 42
0.000000001
 43
0.00000001
 40
0.0
 40
0.0
 40
0.0
 40
0.0
 40
0.0625
 40
0.0625
 40
0.09375
 40
0.09375
 40
0.1250000000000001
 40
0.1250000000000001
 40
0.1875000000000001
 40
0.1875000000000001
 40
0.2187499999999999
 40
0.2187499999999999
 40
0.2499999999999998
 40
0.2499999999999998
 40
0.3125000000000002
 40
0.3125000000000002
 40
0.3437500000000004
 40
0.3437500000000004
 40
0.3750000000000006
 40
0.3750000000000006
 40
0.4375000000000008
 40
0.4375000000000008
 40
0.468750000000001
 40
0.468750000000001
 40
0.5000000000000011
 40
0.5000000000000011
 40
0.5625000000000011
 40
0.5625000000000011
 40
0.6250000000000012
 40
0.6250000000000012
 40
0.6562500000000011
 40
0.6562500000000011
 40
0.687500000000001
 40
0.687500000000001
 40
0.750000000000001
 40
0.750000000000001
 40
0.7812500000000009
 40
0.7812500000000009
 40
0.8125000000000008
 40
0.8125000000000008
 40
0.8750000000000006
 40
0.8750000000000006
 40
0.9062500000000004
 40
0.9062500000000004
 40
0.9375000000000004
 40
0.9375000000000004
 40
1.0
 40
1.0
 40
1.0
 40
1.0
 10
30.63750000000001
 20
-3.968749999999998
 30
0.0
 10
30.21067750316507
 20
-3.955216640066511
 30
0.0
 10
29.77654752443376
 20
-3.921618399340553
 30
0.0
 10
29.13142005295118
 20
-3.83715079645391
 30
0.0
 10
28.9185146728185
 20
-3.803435256628773
 30
0.0
 10
28.48910835503414
 20
-3.724786807404874
 30
0.0
 10
28.27317631716734
 20
-3.679857958050335
 30
0.0
 10
27.62596016358922
 20
-3.529068100926872
 30
0.0
 10
27.19977902290434
 20
-3.407652399055609
 30
0.0
 10
26.55330963648164
 20
-3.196009928002695
 30
0.0
 10
26.33719311914096
 20
-3.12058385087931
 30
0.0
 10
25.90655911022174
 20
-2.960977507406304
 30
0.0
 10
25.69321602336102
 20
-2.876963080022946
 30
0.0
 10
25.0503179688401
 20
-2.612308264014943
 30
0.0
 10
24.61594689674163
 20
-2.418615212953508
 30
0.0
 10
23.97279138603713
 20
-2.109789318898641
 30
0.0
 10
23.75957073167897
 20
-2.00380104246749
 30
0.0
 10
23.32903602991021
 20
-1.785582179369022
 30
0.0
 10
23.11292609727968
 20
-1.67354246596105
 30
0.0
 10
22.46634682602619
 20
-1.330841521755229
 30
0.0
 10
22.04023309863518
 20
-1.094102117719245
 30
0.0
 10
21.39305623224489
 20
-0.7299955942203226
 30
0.0
 10
21.17709392806556
 20
-0.6073283614959666
 30
0.0
 10
20.74754167724399
 20
-0.3610237095036038
 30
0.0
 10
20.53467129444395
 20
-0.2375276131311818
 30
0.0
 10
19.88973170915592
 20
0.1346751723544432
 30
0.0
 10
19.45555357059717
 20
0.3842767731266322
 30
0.0
 10
18.60147365892514
 20
0.873368254234738
 30
0.0
 10
18.16782715243465
 20
1.115460712360012
 30
0.0
 10
17.52251955838319
 20
1.465713339984994
 30
0.0
 10
17.30956170526085
 20
1.580102677607732
 30
0.0
 10
16.88030646896441
 20
1.804517727777341
 30
0.0
 10
16.66440732112788
 20
1.914460973156078
 30
0.0
 10
16.01715972825419
 20
2.235280750743374
 30
0.0
 10
15.59089621526643
 20
2.436428967287626
 30
0.0
 10
14.94454453140068
 20
2.71608218664883
 30
0.0
 10
14.72842406056666
 20
2.805534116070596
 30
0.0
 10
14.29769594237113
 20
2.975728888043669
 30
0.0
 10
14.08421296490196
 20
3.056340539004638
 30
0.0
 10
13.44158004061342
 20
3.284705510441499
 30
0.0
 10
13.00721431678409
 20
3.419144110862782
 30
0.0
 10
12.36380903426985
 20
3.588780042799998
 30
0.0
 10
12.15069334939976
 20
3.64004768409047
 30
0.0
 10
11.72026314865134
 20
3.732089749603012
 30
0.0
 10
11.50416243168
 20
3.772750098645033
 30
0.0
 10
10.85748109775804
 20
3.877817692589728
 30
0.0
 10
10.43141982193116
 20
3.925257874576515
 30
0.0
 10
9.999999999998952
 20
3.949625589348426
 30
0.0
  0
SPLINE
  5
B4
330
1F
100
AcDbEntity
  8
0
  6
Continuous
 62
     1
370
    15
100
AcDbSpline
210
0.0
220
0.0
230
1.0
 70
     8
 71
     3
 72
    15
 73
    11
 74
     0
 42
0.000000001
 43
0.00000001
 40
0.0
 40
0.0
 40
0.0
 40
0.0
 40
0.1141678250240593
 40
0.2424490120108222
 40
0.3707291634043883
 40
0.4990647660695783
 40
0.6275118733373273
 40
0.7517872852881821
 40
0.8759205541892918
 40
1.0
 40
1.0
 40
1.0
 40
1.0
 10
20.78924207407
 20
-0.3823411347657609
 30
0.0
 10
20.37864059408091
 20
-0.2169807475980208
 30
0.0
 10
19.50667931135913
 20
0.1341817842807891
 30
0.0
 10
18.17345766035907
 20
0.67157471057157
 30
0.0
 10
16.7892726843574
 20
1.201061647211717
 30
0.0
 10
15.40444458730144
 20
1.682261691449715
 30
0.0
 10
14.03384850459059
 20
2.091265528751077
 30
0.0
 10
12.67835950294471
 20
2.412147354451049
 30
0.0
 10
11.3388112174389
 20
2.645765633777717
 30
0.0
 10
10.44620588752614
 20
2.716062962518526
 30
0.0
 10
9.999999999999996
 20
2.751204005161163
 30
0.0
  0
SPLINE
  5
B5
330
1F
100
AcDbEntity
  8
외형선
  6
Continuous
370
    15
100
AcDbSpline
210
0.0
220
0.0
230
1.0
 70
    24
 71
     3
 72
    10
 73
     6
 74
     0
 42
0.000000001
 43
0.00000001
 40
0.0
 40
0.0
 40
0.0
 40
0.0
 40
0.5
 40
0.5
 40
1.0
 40
1.0
 40
1.0
 40
1.0
 10
9.999999999999996
 20
3.949625589348363
 30
0.0
 10
9.999999999999996
 20
3.759854098673445
 30
0.0
 10
9.999999999999996
 20
3.549772092220393
 30
0.0
 10
9.999999999999996
 20
3.135032668848857
 30
0.0
 10
9.999999999999996
 20
2.931477797579727
 30
0.0
 10
9.999999999999996
 20
2.751204005161163
 30
0.0
  0
SPLINE
  5
B6
330
1F
100
AcDbEntity
  8
0
  6
Continuous
 62
     1
370
    15
100
AcDbSpline
210
0.0
220
0.0
230
1.0
 70
     8
 71
     3
 72
    23
 73
    19
 74
     0
 42
0.000000001
 43
0.00000001
 40
0.0
 40
0.0
 40
0.0
 40
0.0
 40
0.0668078165307663
 40
0.1335304008341702
 40
0.2002350937933644
 40
0.2669894740193733
 40
0.3338268492074229
 40
0.3993925498980748
 40
0.4649024798844386
 40
0.5304378072713455
 40
0.5960736204814969
 40
0.6630056961374008
 40
0.729866135363325
 40
0.7967208414560475
 40
0.8636357927545137
 40
0.9306167520571726
 40
0.9975095552762252
 40
1.0
 40
1.0
 40
1.0
 40
1.0
 10
30.63750000000001
 20
-3.766109074764105
 30
0.0
 10
30.20561302559777
 20
-3.67463594402084
 30
0.0
 10
29.34239007053485
 20
-3.491806382332055
 30
0.0
 10
28.04843754258227
 20
-3.058176958717906
 30
0.0
 10
26.75484826722747
 20
-2.526037528448598
 30
0.0
 10
25.46037195823965
 20
-1.901866516765876
 30
0.0
 10
24.17266524428719
 20
-1.215985288809144
 30
0.0
 10
22.89359055115716
 20
-0.4913975021093016
 30
0.0
 10
21.62311972221565
 20
0.2454913497705061
 30
0.0
 10
20.35216223772865
 20
0.974200929280342
 30
0.0
 10
19.07136300030797
 20
1.67364985132916
 30
0.0
 10
17.78229131979545
 20
2.319980980678735
 30
0.0
 10
16.48568074879972
 20
2.888651485107363
 30
0.0
 10
15.18918814326816
 20
3.353535010767111
 30
0.0
 10
13.89168126463098
 20
3.703671532428613
 30
0.0
 10
12.59345950823506
 20
3.905818705334677
 30
0.0
 10
11.71217401645564
 20
3.990401920400755
 30
0.0
 10
11.26380526606854
 20
3.967061409577951
 30
0.0
 10
11.24771150248994
 20
3.966223624467677
 30
0.0
  0
SPLINE
  5
B7
330
1F
100
AcDbEntity
  8
0
  6
Continuous
 62
     1
370
    15
100
AcDbSpline
210
0.0
220
0.0
230
1.0
 70
     8
 71
     3
 72
    15
 73
    11
 74
     0
 42
0.000000001
 43
0.00000001
 40
0.0
 40
0.0
 40
0.0
 40
0.0
 40
0.1346116273834181
 40
0.2691096377691004
 40
0.4035504465045016
 40
0.5379909102769318
 40
0.6724878884390579
 40
0.8070978042913859
 40
0.9417111265106375
 40
0.9999999999999999
 40
0.9999999999999999
 40
0.9999999999999999
 40
0.9999999999999999
 10
30.63750000000001
 20
-3.13123367421136
 30
0.0
 10
30.17548277365362
 20
-3.0346604096459
 30
0.0
 10
29.25183827992042
 20
-2.84159539178258
 30
0.0
 10
27.86700551114511
 20
-2.402975098529657
 30
0.0
 10
26.48283046267829
 20
-1.876272073486414
 30
0.0
 10
25.0986603855335
 20
-1.271431381058321
 30
0.0
 10
23.71383709801689
 20
-0.6150128940766273
 30
0.0
 10
22.3281915065245
 20
0.0638087395326953
 30
0.0
 10
21.20406961774856
 20
0.6198028986029457
 30
0.0
 10
20.5421007909116
 20
0.9253235110406721
 30
0.0
 10
20.3420749847788
 20
1.01764206792053
 30
0.0
  0
LINE
  5
B8
330
1F
100
AcDbEntity
  8
0
  6
Continuous
 62
     1
370
    15
100
AcDbLine
 10
30.63750000000001
 20
-3.766109074764106
 30
0.0
 11
30.63750000000001
 21
-3.13123367421136
 31
0.0
  0
LINE
  5
B9
330
1F
100
AcDbEntity
  8
0
  6
Continuous
 62
     1
370
    15
100
AcDbLine
 10
30.63750000000001
 20
-3.968749999999998
 30
0.0
 11
30.63750000000001
 21
-3.766109074764106
 31
0.0
  0
SPLINE
  5
BA
330
1F
100
AcDbEntity
  8
0
  6
Continuous
 62
     1
370
    15
100
AcDbSpline
210
0.0
220
0.0
230
1.0
 70
     8
 71
     3
 72
     8
 73
     4
 74
     0
 42
0.000000001
 43
0.00000001
 40
0.0
 40
0.0
 40
0.0
 40
0.0
 40
1.0
 40
1.0
 40
1.0
 40
1.0
 10
28.18155668758469
 20
1.110410216782516
 30
0.0
 10
28.04053207403784
 20
1.277501323937552
 30
0.0
 10
27.91477381134803
 20
1.438197945001418
 30
0.0
 10
27.80782467218541
 20
1.591016149021969
 30
0.0
  0
LINE
  5
BB
330
1F
100
AcDbEntity
  8
0
  6
Continuous
 62
     1
370
    15
100
AcDbLine
 10
27.85797195234584
 20
1.633094713309126
 30
0.0
 11
30.63750000000001
 21
0.0000000000000007
 31
0.0
  0
LINE
  5
BC
330
1F
100
AcDbEntity
  8
0
  6
Continuous
 62
     1
370
    15
100
AcDbLine
 10
30.63750000000001
 20
0.0000000000000007
 30
0.0
 11
30.63750000000001
 21
-1.060620442055153
 31
0.0
  0
SPLINE
  5
BD
330
1F
100
AcDbEntity
  8
0
  6
Continuous
 62
     1
370
    15
100
AcDbSpline
210
0.0
220
0.0
230
1.0
 70
     8
 71
     3
 72
    10
 73
     6
 74
     0
 42
0.000000001
 43
0.00000001
 40
0.0
 40
0.0
 40
0.0
 40
0.0
 40
0.5
 40
0.5
 40
1.0
 40
1.0
 40
1.0
 40
1.0
 10
30.63750000000001
 20
-1.060620442055153
 30
0.0
 10
30.21236456289079
 20
-0.7263914625886166
 30
0.0
 10
29.79433223809889
 20
-0.3784565810895904
 30
0.0
 10
28.97283386371221
 20
0.3455197261823837
 30
0.0
 10
28.56553440035839
 20
0.7253597255858625
 30
0.0
 10
28.18155668758467
 20
1.110410216782526
 30
0.0
  0
SPLINE
  5
BE
330
1F
100
AcDbEntity
  8
0
  6
Continuous
 62
     1
370
    15
100
AcDbSpline
210
0.0
220
0.0
230
1.0
 70
     8
 71
     3
 72
    14
 73
    10
 74
     0
 42
0.000000001
 43
0.00000001
 40
0.0
 40
0.0
 40
0.0
 40
0.0
 40
0.1686209633991658
 40
0.3372487519268644
 40
0.4887390139480008
 40
0.6403582537529835
 40
0.7919814074083111
 40
0.9434740511509366
 40
1.0
 40
1.0
 40
1.0
 40
1.0
 10
28.18155668758467
 20
1.11041021678252
 30
0.0
 10
27.66778477088664
 20
1.327362948160125
 30
0.0
 10
26.64022014197798
 20
1.76127719232808
 30
0.0
 10
25.15100383259439
 20
2.290562597673226
 30
0.0
 10
23.71382497251859
 20
2.702226883017957
 30
0.0
 10
22.32816112045319
 20
2.990729571484883
 30
0.0
 10
20.94250334938789
 20
3.15026429727837
 30
0.0
 10
19.84677689318025
 20
3.200059126844426
 30
0.0
 10
19.21303443531135
 20
3.151796000323669
 30
0.0
 10
19.04082437797628
 20
3.138681215789178
 30
0.0
  0
SPLINE
  5
BF
330
1F
100
AcDbEntity
  8
0
  6
Continuous
 62
     1
370
    15
100
AcDbSpline
210
0.0
220
0.0
230
1.0
 70
    24
 71
     3
 72
    10
 73
     6
 74
     0
 42
0.000000001
 43
0.00000001
 40
0.0
 40
0.0
 40
0.0
 40
0.0
 40
0.5
 40
0.5
 40
1.0
 40
1.0
 40
1.0
 40
1.0
 10
30.63750000000001
 20
-3.131233674211359
 30
0.0
 10
30.63750000000001
 20
-2.891200200108853
 30
0.0
 10
30.63750000000001
 20
-2.5879087017538
 30
0.0
 10
30.63750000000001
 20
-1.882785156629263
 30
0.0
 10
30.63750000000001
 20
-1.481563914609886
 30
0.0
 10
30.63750000000001
 20
-1.06062044205528
 30
0.0
  0
SPLINE
  5
C0
330
1F
100
AcDbEntity
  8
0
  6
Continuous
 62
     1
370
    15
100
AcDbSpline
210
0.0
220
0.0
230
1.0
 70
    24
 71
     3
 72
     8
 73
     4
 74
     0
 42
0.000000001
 43
0.00000001
 40
0.0
 40
0.0
 40
0.0
 40
0.0
 40
1.0
 40
1.0
 40
1.0
 40
1.0
 10
28.22191137504134
 20
1.938476148661924
 30
0.0
 10
28.0909473251521
 20
1.828584262702382
 30
0.0
 10
27.95247707856489
 20
1.712393929863891
 30
0.0
 10
27.80782467218548
 20
1.591016149022014
 30
0.0
  0
SPLINE
  5
C1
330
1F
100
AcDbEntity
  8
0
  6
Continuous
 62
     1
370
    15
100
AcDbSpline
210
0.0
220
0.0
230
1.0
 70
     8
 71
     3
 72
     9
 73
     5
 74
     0
 42
0.000000001
 43
0.00000001
 40
0.0
 40
0.0
 40
0.0
 40
0.0
 40
0.9387475375764526
 40
1.0
 40
1.0
 40
1.0
 40
1.0
 10
30.63750000000001
 20
2.778124999999998
 30
0.0
 10
30.17547526757603
 20
2.776632908410082
 30
0.0
 10
29.68330382218744
 20
2.775043459138377
 30
0.0
 10
29.19119926107957
 20
2.714737730166332
 30
0.0
 10
29.16105664494185
 20
2.711043855768548
 30
0.0
  0
SPLINE
  5
C2
330
1F
100
AcDbEntity
  8
0
  6
Continuous
 62
     1
370
    15
100
AcDbSpline
210
0.0
220
0.0
230
1.0
 70
     8
 71
     3
 72
    10
 73
     6
 74
     0
 42
0.000000001
 43
0.00000001
 40
0.0
 40
0.0
 40
0.0
 40
0.0
 40
0.5000000000000001
 40
0.5000000000000001
 40
1.0
 40
1.0
 40
1.0
 40
1.0
 10
30.63750000000001
 20
2.778125
 30
0.0
 10
30.22927549858079
 20
2.667364671135009
 30
0.0
 10
29.82353188369823
 20
2.543114387779915
 30
0.0
 10
29.01750353444128
 20
2.264930863572447
 30
0.0
 10
28.61715765575146
 20
2.111487272308512
 30
0.0
 10
28.22191137504802
 20
1.938476148666181
 30
0.0
  0
SPLINE
  5
C3
330
1F
100
AcDbEntity
  8
0
  6
Continuous
 62
     1
370
    15
100
AcDbSpline
210
0.0
220
0.0
230
1.0
 70
     8
 71
     3
 72
    10
 73
     6
 74
     0
 42
0.000000001
 43
0.00000001
 40
0.0
 40
0.0
 40
0.0
 40
0.0
 40
0.1297984073065707
 40
0.5649898041276068
 40
1.0
 40
1.0
 40
1.0
 40
1.0
 10
13.07743266360467
 20
-3.289148005180413
 30
0.0
 10
12.94425905582108
 20
-3.306175581623116
 30
0.0
 10
12.364577593329
 20
-3.380293648853386
 30
0.0
 10
11.33882557639915
 20
-3.39154866508278
 30
0.0
 10
10.44621323629655
 20
-3.313981031755134
 30
0.0
 10
10.0
 20
-3.275205290995137
 30
0.0
  0
SPLINE
  5
C4
330
1F
100
AcDbEntity
  8
0
  6
Continuous
 62
     1
370
    15
100
AcDbSpline
210
0.0
220
0.0
230
1.0
 70
     8
 71
     3
 72
    16
 73
    12
 74
     0
 42
0.000000001
 43
0.00000001
 40
0.0
 40
0.0
 40
0.0
 40
0.0
 40
0.1054223214813026
 40
0.2186268017118969
 40
0.3317818729800047
 40
0.4449360556470143
 40
0.5581378769714054
 40
0.6714354949560022
 40
0.7810538181124017
 40
0.8905500275613404
 40
1.0
 40
1.0
 40
1.0
 40
1.0
 10
22.23178231306855
 20
-2.980700059622957
 30
0.0
 10
21.80189066791937
 20
-3.039866739257903
 30
0.0
 10
20.91037325357085
 20
-3.162567717141367
 30
0.0
 10
19.55764788148796
 20
-3.192153058715119
 30
0.0
 10
18.1734610321354
 20
-3.10355462649608
 30
0.0
 10
16.78928733780137
 20
-2.886694807314708
 30
0.0
 10
15.40446936839569
 20
-2.553708612812286
 30
0.0
 10
14.03385537579597
 20
-2.122113457156202
 30
0.0
 10
12.67834177704749
 20
-1.612730916670142
 30
0.0
 10
11.33880748005037
 20
-1.048818227680471
 30
0.0
 10
10.44620632690664
 20
-0.6435336327002033
 30
0.0
 10
10.0
 20
-0.4409341291693485
 30
0.0
  0
SPLINE
  5
C5
330
1F
100
AcDbEntity
  8
외형선
  6
Continuous
370
    15
100
AcDbSpline
210
0.0
220
0.0
230
1.0
 70
    24
 71
     3
 72
    14
 73
    10
 74
     0
 42
0.000000001
 43
0.00000001
 40
0.0
 40
0.0
 40
0.0
 40
0.0
 40
0.25
 40
0.25
 40
0.5
 40
0.5
 40
0.75
 40
0.75
 40
1.0
 40
1.0
 40
1.0
 40
1.0
 10
9.999999999999993
 20
-0.4409341291693453
 30
0.0
 10
9.999999999999995
 20
-0.73710101203255
 30
0.0
 10
9.999999999999995
 20
-1.032084727657211
 30
0.0
 10
9.999999999999995
 20
-1.597632750908061
 30
0.0
 10
9.999999999999995
 20
-1.868018249797067
 30
0.0
 10
9.999999999999995
 20
-2.363377357991291
 30
0.0
 10
9.999999999999995
 20
-2.588207922623231
 30
0.0
 10
9.999999999999995
 20
-2.977950724849238
 30
0.0
 10
9.999999999999995
 20
-3.142822590082754
 30
0.0
 10
9.999999999999993
 20
-3.275205290995135
 30
0.0
  0
SPLINE
  5
C6
330
1F
100
AcDbEntity
  8
외형선
  6
Continuous
370
    15
100
AcDbSpline
210
0.0
220
0.0
230
1.0
 70
    24
 71
     3
 72
    14
 73
    10
 74
     0
 42
0.000000001
 43
0.00000001
 40
0.0
 40
0.0
 40
0.0
 40
0.0
 40
0.25
 40
0.25
 40
0.5
 40
0.5
 40
0.75
 40
0.75
 40
1.0
 40
1.0
 40
1.0
 40
1.0
 10
10.0
 20
2.751204005161163
 30
0.0
 10
10.0
 20
2.629376123843076
 30
0.0
 10
10.0
 20
2.463212248358262
 30
0.0
 10
10.0
 20
2.045569190766982
 30
0.0
 10
10.0
 20
1.794127140825597
 30
0.0
 10
10.0
 20
1.226792161469105
 30
0.0
 10
10.0
 20
0.9112015318502658
 30
0.0
 10
10.0
 20
0.2491316588672743
 30
0.0
 10
10.0
 20
-0.0969671416809218
 30
0.0
 10
10.0
 20
-0.4409341291693487
 30
0.0
  0
LINE
  5
C7
330
1F
100
AcDbEntity
  8
0
  6
Continuous
 62
     1
370
    15
100
AcDbLine
 10
30.63750000000001
 20
0.0000000000000007
 30
0.0
 11
30.63750000000001
 21
2.778125
 31
0.0
  0
SPLINE
  5
C8
330
1F
100
AcDbEntity
  8
0
  6
Continuous
 62
     1
370
    15
100
AcDbSpline
210
0.0
220
0.0
230
1.0
 70
     8
 71
     3
 72
    12
 73
     8
 74
     0
 42
0.000000001
 43
0.00000001
 40
0.0
 40
0.0
 40
0.0
 40
0.0
 40
0.103629281172762
 40
0.3277397751634827
 40
0.5520713421153262
 40
0.7761076581096196
 40
0.9999999999999999
 40
0.9999999999999999
 40
0.9999999999999999
 40
0.9999999999999999
 10
15.78940145799874
 20
-3.120025931189253
 30
0.0
 10
15.58945092468671
 20
-3.193874308393042
 30
0.0
 10
14.95708387466099
 20
-3.427428476356521
 30
0.0
 10
13.89167842542947
 20
-3.697511184857289
 30
0.0
 10
12.59345588354463
 20
-3.915389791248794
 30
0.0
 10
11.29625387597684
 20
-3.998252338793244
 30
0.0
 10
10.43199202774725
 20
-3.935065486750509
 30
0.0
 10
9.999999999997932
 20
-3.903482215549827
 30
0.0
  0
SPLINE
  5
C9
330
1F
100
AcDbEntity
  8
외형선
  6
Continuous
370
    15
100
AcDbSpline
210
0.0
220
0.0
230
1.0
 70
    24
 71
     3
 72
     8
 73
     4
 74
     0
 42
0.000000001
 43
0.00000001
 40
0.0
 40
0.0
 40
0.0
 40
0.0
 40
1.0
 40
1.0
 40
1.0
 40
1.0
 10
10.0
 20
-3.275205290995137
 30
0.0
 10
10.0
 20
-3.485928545072239
 30
0.0
 10
10.0
 20
-3.69670592954598
 30
0.0
 10
10.0
 20
-3.903482215545063
 30
0.0
  0
SPLINE
  5
CA
330
1F
100
AcDbEntity
  8
0
  6
Continuous
 62
     1
370
    15
100
AcDbSpline
210
0.0
220
0.0
230
1.0
 70
     8
 71
     3
 72
    12
 73
     8
 74
     0
 42
0.000000001
 43
0.00000001
 40
0.0
 40
0.0
 40
0.0
 40
0.0
 40
0.0477510547354251
 40
0.2858314799789688
 40
0.5237432590826329
 40
0.761721389413879
 40
1.0
 40
1.0
 40
1.0
 40
1.0
 10
25.18929439578091
 20
2.660123951344616
 30
0.0
 10
25.2760373988217
 20
2.699420699727645
 30
0.0
 10
25.79526950949118
 20
2.934645823254585
 30
0.0
 10
26.74634006918388
 20
3.274094198852551
 30
0.0
 10
28.04276371427275
 20
3.647380877143032
 30
0.0
 10
29.33955428080344
 20
3.893437330967746
 30
0.0
 10
30.20466948722607
 20
3.941399472181156
 30
0.0
 10
30.63750000000001
 20
3.968750000000002
 30
0.0
  0
SPLINE
  5
CB
330
1F
100
AcDbEntity
  8
0
  6
Continuous
 62
     1
370
    15
100
AcDbSpline
210
0.0
220
0.0
230
1.0
 70
    24
 71
     3
 72
    10
 73
     6
 74
     0
 42
0.000000001
 43
0.00000001
 40
0.0
 40
0.0
 40
0.0
 40
0.0
 40
0.5
 40
0.5
 40
1.0
 40
1.0
 40
1.0
 40
1.0
 10
30.63750000000001
 20
2.778124999999998
 30
0.0
 10
30.63750000000001
 20
2.946528019204024
 30
0.0
 10
30.63750000000001
 20
3.142227923316368
 30
0.0
 10
30.63750000000001
 20
3.552805795063393
 30
0.0
 10
30.63750000000001
 20
3.76663519833709
 30
0.0
 10
30.6375
 20
3.968750000000002
 30
0.0
  0
LINE
  5
CC
330
1F
100
AcDbEntity
  8
중심선
 48
0.8
100
AcDbLine
 10
-35.86249999999999
 20
-0.0000000000000059
 30
0.0
 11
33.63750000000002
 21
0.0000000000000026
 31
0.0
  0
LINE
  5
CD
330
1F
100
AcDbEntity
  8
참조1
100
AcDbLine
 10
-5.150184671492225
 20
0.0010749287238892
 30
0.0
 11
-5.150184671492219
 21
-39.99892507127611
 31
0.0
  0
LINE
  5
CE
330
1F
100
AcDbEntity
  8
참조1
100
AcDbLine
 10
-5.150184671492219
 20
-39.99892507127611
 30
0.0
 11
-15.54395731641845
 21
-39.9989250712761
 31
0.0
  0
CIRCLE
  5
CF
330
1F
100
AcDbEntity
  8
해칭선
100
AcDbCircle
 10
0.0
 20
0.0
 30
0.0
 40
3.000000000000001
  0
INSERT
  5
D0
330
1F
100
AcDbEntity
  8
0
  6
Continuous
 62
     7
100
AcDbBlockReference
 66
     1
  2
블럭10
 10
-15.05277293212519
 20
-52.04717430164393
 30
0.0
  0
ATTRIB
  5
D1
330
D0
100
AcDbEntity
  8
FORMAT
 62
     2
100
AcDbText
 10
-25.19440894426182
 20
-49.97180738881175
 30
0.0
 40
4.233333333333333
  1
EM154020 [ 2 FLUTE ]
 41
0.75
  7
SLDTEXTSTYLE0
 11
-25.19440894426182
 21
-52.08847405547841
 31
0.0
100
AcDbAttribute
  2
AUTOATTR0
 70
     0
 74
     1
  0
SEQEND
  5
D2
330
D0
100
AcDbEntity
  8
0
  6
Continuous
 62
     7
  0
HATCH
  5
D3
330
1F
100
AcDbEntity
  8
중심선
100
AcDbHatch
 10
0.0
 20
0.0
 30
0.0
210
0.0
220
0.0
230
1.0
  2
SOLID
 70
     1
 71
     0
 91
        1
 92
        0
 93
        4
 72
     1
 10
-9.337863627744358
 20
-35.8
 11
-12.78413887158164
 21
-35.8
 72
     1
 10
-12.78413887158164
 20
-35.8
 11
-14.91236873078566
 21
-38.3363255805726
 72
     1
 10
-14.91236873078566
 20
-38.3363255805726
 11
-11.46606040183523
 21
-38.33628615127011
 72
     1
 10
-11.46606040183523
 20
-38.33628615127011
 11
-9.337863627744358
 21
-35.8
 97
        0
 75
     0
 76
     1
 98
        1
 10
4.037684671492237
 20
-0.0010749287238951
  0
HATCH
  5
D4
330
1F
100
AcDbEntity
  8
중심선
100
AcDbHatch
 10
0.0
 20
0.0
 30
0.0
210
0.0
220
0.0
230
1.0
  2
SOLID
 70
     1
 71
     0
 91
        1
 92
        0
 93
        4
 72
     1
 10
-4.325099636708407
 20
-35.8
 11
-7.771374880545689
 21
-35.80000000000003
 72
     1
 10
-7.771374880545689
 20
-35.80000000000003
 11
-12.30251288890308
 21
-41.20000000000002
 72
     1
 10
-12.30251288890308
 20
-41.20000000000002
 11
-8.856237645065795
 21
-41.20000000000002
 72
     1
 10
-8.856237645065795
 20
-41.20000000000002
 11
-4.325099636708407
 21
-35.8
 97
        0
 75
     0
 76
     1
 98
        1
 10
4.037684671492237
 20
-0.0010749287238951
  0
HATCH
  5
D5
330
1F
100
AcDbEntity
  8
중심선
100
AcDbHatch
 10
0.0
 20
0.0
 30
0.0
210
0.0
220
0.0
230
1.0
  2
SOLID
 70
     1
 71
     0
 91
        1
 92
        0
 93
        4
 72
     1
 10
0.6876643543274885
 20
-35.8
 11
-2.758610889509628
 21
-35.8
 72
     1
 10
-2.758610889509628
 20
-35.8
 11
-9.807047791398876
 21
-44.20000000000002
 72
     1
 10
-9.807047791398876
 20
-44.20000000000002
 11
-6.360772547561593
 21
-44.20000000000002
 72
     1
 10
-6.360772547561593
 20
-44.20000000000002
 11
0.6876643543274881
 21
-35.8
 97
        0
 75
     0
 76
     1
 98
        1
 10
4.037684671492237
 20
-0.0010749287238951
  0
HATCH
  5
D6
330
1F
100
AcDbEntity
  8
중심선
100
AcDbHatch
 10
0.0
 20
0.0
 30
0.0
210
0.0
220
0.0
230
1.0
  2
SOLID
 70
     1
 71
     0
 91
        1
 92
        0
 93
        6
 72
     3
 10
5.487554785339688
 20
-40.00000000005127
 11
3.960054785062283
 21
1.540882976769353E-10
 40
0.3939339440162628
 50
17.09539180608437
 51
320.0019657685082
 73
     0
 72
     1
 10
7.170554441040256
 20
-38.58789400463833
 11
9.475856314741321
 21
-36.65356729459041
 72
     3
 10
5.487554785286841
 20
-40.00000000000015
 11
6.600054785286829
 21
-1.278976924368180E-13
 40
0.636358354079598
 50
39.99873849337382
 51
368.4976242363725
 73
     1
 72
     1
 10
11.91288727718745
 20
-39.03999999993002
 11
4.167622092122764
 21
-39.03999999993002
 72
     1
 10
4.167622092122763
 20
-39.03999999993002
 11
4.167597047676829
 21
-40.95999999992991
 72
     1
 10
4.16759704767683
 20
-40.95999999992991
 11
8.608976817148868
 21
-40.95999999992988
 97
        0
 75
     0
 76
     1
 98
        1
 10
4.037684671492237
 20
-0.0010749287238951
  0
DIMENSION
  5
D7
330
1F
100
AcDbEntity
  8
치수문자_일반주서
100
AcDbDimension
  2
_D
 10
-45.48249999999997
 20
-3.968750000000045
 30
0.0
 11
-45.48249999999998
 21
-0.0000000000000106
 31
0.0
 70
   160
  1
%%c<>
 71
     2
 42
7.937499999999986
 52
-270.0
  3
SLDDIMSTYLE0
100
AcDbAlignedDimension
 13
-32.05249999999999
 23
3.968749999999991
 33
0.0
 14
-32.05249999999999
 24
-3.968749999999995
 34
0.0
 50
90.0000000000002
100
AcDbRotatedDimension
1001
ACAD
1000
DSTYLE
1002
{
1070
   171
1070
     6
1070
   273
1070
     7
1002
}
  0
DIMENSION
  5
EC
330
1F
100
AcDbEntity
  8
치수문자_일반주서
100
AcDbDimension
  2
_D_1
 10
45.80368923541923
 20
-3.96874999999994
 30
0.0
 11
45.80368923541914
 21
24.57275000000006
 31
0.0
 70
   160
  1
%%c<>
 71
     2
 42
7.937499999999998
 52
-270.0
  3
SLDDIMSTYLE0
100
AcDbAlignedDimension
 13
30.63750000000001
 23
3.96875
 33
0.0
 14
30.63750000000001
 24
-3.968749999999998
 34
0.0
 50
90.0000000000002
100
AcDbRotatedDimension
1001
ACAD
1000
DSTYLE
1002
{
1070
   171
1070
     6
1070
   273
1070
     7
1002
}
  0
DIMENSION
  5
100
330
1F
100
AcDbEntity
  8
치수문자_일반주서
100
AcDbDimension
  2
_D_2
 10
10.0
 20
25.80999999999999
 30
0.0
 11
-11.26025
 21
25.80999999999999
 31
0.0
 70
   160
  1
<>
 71
     2
 42
20.63750000000001
  3
SLDDIMSTYLE0
100
AcDbAlignedDimension
 13
30.63750000000001
 23
3.968750000000002
 33
0.0
 14
10.0
 24
3.949625589348362
 34
0.0
100
AcDbRotatedDimension
1001
ACAD
1000
DSTYLE
1002
{
1070
   171
1070
     6
1070
   273
1070
     7
1002
}
  0
DIMENSION
  5
115
330
1F
100
AcDbEntity
  8
치수문자_일반주서
100
AcDbDimension
  2
_D_3
 10
-32.8625
 20
40.63405344013389
 30
0.0
 11
-1.112500000000028
 21
40.63405344013389
 31
0.0
 70
   160
  1
<>
 71
     2
 42
63.50000000000001
  3
SLDDIMSTYLE0
100
AcDbAlignedDimension
 13
30.63750000000001
 23
3.968750000000002
 33
0.0
 14
-32.8625
 24
3.158749999999995
 34
0.0
 50
0.0000000000000641
100
AcDbRotatedDimension
1001
ACAD
1000
DSTYLE
1002
{
1070
   171
1070
     6
1070
   273
1070
     7
1002
}
  0
LINE
  5
129
330
1F
100
AcDbEntity
  8
참조1
100
AcDbLine
 10
82.42838331323583
 20
7.441074928723896
 30
0.0
 11
82.42838331323583
 21
-7.438925071276109
 31
0.0
  0
LINE
  5
12A
330
1F
100
AcDbEntity
  8
참조1
100
AcDbLine
 10
95.12838331323583
 20
5.441074928723896
 30
0.0
 11
82.42838331323583
 21
5.441074928723896
 31
0.0
  0
SOLID
  5
12B
330
1F
100
AcDbEntity
  8
참조1
100
AcDbTrace
 10
82.42838331323583
 20
5.441074928723896
 30
0.0
 11
88.77838331323582
 21
4.425074928723896
 31
0.0
 12
88.77838331323582
 22
6.457074928723896
 32
0.0
 13
88.77838331323582
 23
6.457074928723896
 33
0.0
  0
LINE
  5
12C
330
1F
100
AcDbEntity
  8
참조1
100
AcDbLine
 10
95.12838331323583
 20
-5.438925071276109
 30
0.0
 11
82.42838331323583
 21
-5.438925071276109
 31
0.0
  0
SOLID
  5
12D
330
1F
100
AcDbEntity
  8
참조1
100
AcDbTrace
 10
82.42838331323583
 20
-5.438925071276109
 30
0.0
 11
88.77838331323582
 21
-6.454925071276109
 31
0.0
 12
88.77838331323582
 22
-4.422925071276109
 32
0.0
 13
88.77838331323582
 23
-4.422925071276109
 33
0.0
  0
MTEXT
  5
12E
330
1F
100
AcDbEntity
  8
참조1
100
AcDbMText
 10
91.82587340570609
 20
10.98929157337383
 30
0.0
 40
3.5
 41
0.0
 71
     1
 72
     1
  1
A
  7
SLDTEXTSTYLE0
 73
     1
 44
1.0
  0
MTEXT
  5
12F
330
1F
100
AcDbEntity
  8
참조1
100
AcDbMText
 10
91.82587340570609
 20
0.1092915733738259
 30
0.0
 40
3.5
 41
0.0
 71
     1
 72
     1
  1
A
  7
SLDTEXTSTYLE0
 73
     1
 44
1.0
  0
INSERT
  5
136
330
1F
100
AcDbEntity
  8
해칭선
100
AcDbBlockReference
  2
SW_DOWELSYMBOL_0
 10
0.0
 20
0.0
 30
0.0
  0
ENDSEC
  0
SECTION
  2
OBJECTS
  0
DICTIONARY
  5
C
330
0
100
AcDbDictionary
281
     1
  3
ACAD_GROUP
350
D
  3
ACAD_IMAGE_VARS
350
15A
  3
ACAD_LAYOUT
350
1A
  3
ACAD_MLINESTYLE
350
17
  3
ACAD_PLOTSETTINGS
350
19
  3
ACAD_PLOTSTYLENAME
350
E
  3
ACAD_SCALELIST
350
47
  3
APPDATA
350
158
  3
DWGPROPS
350
18F
  0
DICTIONARY
  5
181
330
2
100
AcDbDictionary
280
     1
281
     1
  3
ACAD_LAYERSTATES
360
182
  0
DICTIONARY
  5
D
102
{ACAD_REACTORS
330
C
102
}
330
C
100
AcDbDictionary
281
     1
  0
RASTERVARIABLES
  5
15A
102
{ACAD_REACTORS
330
C
102
}
330
C
100
AcDbRasterVariables
 90
        0
 70
     1
 71
     1
 72
     1
  0
DICTIONARY
  5
1A
102
{ACAD_REACTORS
330
C
102
}
330
C
100
AcDbDictionary
281
     1
  3
Layout1
350
1E
  3
Layout2
350
26
  3
Model
350
22
  0
DICTIONARY
  5
17
102
{ACAD_REACTORS
330
C
102
}
330
C
100
AcDbDictionary
281
     1
  3
Standard
350
18
  0
DICTIONARY
  5
19
102
{ACAD_REACTORS
330
C
102
}
330
C
100
AcDbDictionary
281
     1
  0
ACDBDICTIONARYWDFLT
  5
E
102
{ACAD_REACTORS
330
C
102
}
330
C
100
AcDbDictionary
281
     1
  3
Normal
350
F
100
AcDbDictionaryWithDefault
340
F
  0
DICTIONARY
  5
47
102
{ACAD_REACTORS
330
C
102
}
330
C
100
AcDbDictionary
281
     1
  3
A0
350
48
  3
A1
350
49
  3
A2
350
4A
  3
A3
350
4B
  3
A4
350
4C
  3
A5
350
4D
  3
A6
350
4E
  3
A7
350
4F
  3
A8
350
50
  3
A9
350
51
  3
B0
350
52
  3
B1
350
53
  3
B2
350
54
  3
B3
350
55
  3
B4
350
56
  3
B5
350
57
  3
B6
350
58
  3
B7
350
59
  3
B8
350
5A
  3
B9
350
5B
  3
C0
350
5C
  3
C1
350
5D
  3
C2
350
5E
  3
C3
350
5F
  3
C4
350
60
  3
C5
350
61
  3
C6
350
62
  3
C7
350
63
  3
C8
350
64
  3
C9
350
65
  3
D0
350
66
  3
D1
350
67
  3
D2
350
68
  0
DICTIONARY
  5
158
102
{ACAD_REACTORS
330
C
102
}
330
C
100
AcDbDictionary
281
     1
  0
XRECORD
  5
18F
102
{ACAD_REACTORS
330
C
102
}
330
C
100
AcDbXrecord
280
     1
  1
DWGPROPS COOKIE
  2

  3

  4

  6

  7

  8
12017012
  9

300
=
301
=
302
=
303
=
304
=
305
=
306
=
307
=
308
=
309
=
 40
0.0
 41
2458288.37032044
 42
2458294.313354317
  1

 90
        0
  0
DICTIONARY
  5
182
102
{ACAD_REACTORS
330
181
102
}
330
181
100
AcDbDictionary
281
     1
  0
LAYOUT
  5
1E
102
{ACAD_REACTORS
330
1A
102
}
330
1A
100
AcDbPlotSettings
  1

  2
none_device
  4

  6

 40
0.0
 41
0.0
 42
0.0
 43
0.0
 44
0.0
 45
0.0
 46
0.0
 47
0.0
 48
0.0
 49
0.0
140
0.0
141
0.0
142
1.0
143
1.0
 70
   688
 72
     1
 73
     0
 74
     5
  7

 75
    16
147
1.0
148
0.0
149
0.0
100
AcDbLayout
  1
Layout1
 70
     1
 71
     1
 10
0.0
 20
0.0
 11
420.0
 21
297.0
 12
0.0
 22
0.0
 32
0.0
 14
1.000000000000000E+20
 24
1.000000000000000E+20
 34
1.000000000000000E+20
 15
-1.000000000000000E+20
 25
-1.000000000000000E+20
 35
-1.000000000000000E+20
146
0.0
 13
0.0
 23
0.0
 33
0.0
 16
1.0
 26
0.0
 36
0.0
 17
0.0
 27
1.0
 37
0.0
 76
     0
330
1B
  0
LAYOUT
  5
26
102
{ACAD_REACTORS
330
1A
102
}
330
1A
100
AcDbPlotSettings
  1

  2
none_device
  4

  6

 40
0.0
 41
0.0
 42
0.0
 43
0.0
 44
0.0
 45
0.0
 46
0.0
 47
0.0
 48
0.0
 49
0.0
140
0.0
141
0.0
142
1.0
143
1.0
 70
   688
 72
     1
 73
     0
 74
     5
  7

 75
    16
147
1.0
148
0.0
149
0.0
100
AcDbLayout
  1
Layout2
 70
     1
 71
     2
 10
0.0
 20
0.0
 11
0.0
 21
0.0
 12
0.0
 22
0.0
 32
0.0
 14
0.0
 24
0.0
 34
0.0
 15
0.0
 25
0.0
 35
0.0
146
0.0
 13
0.0
 23
0.0
 33
0.0
 16
1.0
 26
0.0
 36
0.0
 17
0.0
 27
1.0
 37
0.0
 76
     0
330
23
  0
LAYOUT
  5
22
102
{ACAD_REACTORS
330
1A
102
}
330
1A
100
AcDbPlotSettings
  1

  2
none_device
  4
ANSI_A_(11.00_x_8.50_Inches)
  6

 40
6.35
 41
19.05
 42
6.35000508
 43
19.05000254
 44
279.4
 45
215.9
 46
102.3732998928818
 47
86.40756913324684
 48
0.0
 49
0.0
140
0.0
141
0.0
142
0.0700585334282687
143
1.0
 70
  1696
 72
     0
 73
     0
 74
     0
  7

 75
     0
147
0.0235690232323232
148
0.0
149
0.0
100
AcDbLayout
  1
Model
 70
     1
 71
     0
 10
0.0
 20
0.0
 11
420.0
 21
297.0
 12
0.0
 22
0.0
 32
0.0
 14
1.000000000000000E+20
 24
1.000000000000000E+20
 34
1.000000000000000E+20
 15
-1.000000000000000E+20
 25
-1.000000000000000E+20
 35
-1.000000000000000E+20
146
0.0
 13
0.0
 23
0.0
 33
0.0
 16
1.0
 26
0.0
 36
0.0
 17
0.0
 27
1.0
 37
0.0
 76
     0
330
1F
331
29
  0
MLINESTYLE
  5
18
102
{ACAD_REACTORS
330
17
102
}
330
17
100
AcDbMlineStyle
  2
Standard
 70
     0
  3

 62
   256
 51
90.0
 52
90.0
 71
     2
 49
0.5
 62
   256
  6
BYLAYER
 49
-0.5
 62
   256
  6
BYLAYER
  0
ACDBPLACEHOLDER
  5
F
102
{ACAD_REACTORS
330
E
102
}
330
E
  0
SCALE
  5
48
102
{ACAD_REACTORS
330
47
102
}
330
47
100
AcDbScale
 70
     0
300
1:1
140
1.0
141
1.0
290
     1
  0
SCALE
  5
49
102
{ACAD_REACTORS
330
47
102
}
330
47
100
AcDbScale
 70
     0
300
1:2
140
1.0
141
2.0
290
     0
  0
SCALE
  5
4A
102
{ACAD_REACTORS
330
47
102
}
330
47
100
AcDbScale
 70
     0
300
1:4
140
1.0
141
4.0
290
     0
  0
SCALE
  5
4B
102
{ACAD_REACTORS
330
47
102
}
330
47
100
AcDbScale
 70
     0
300
1:5
140
1.0
141
5.0
290
     0
  0
SCALE
  5
4C
102
{ACAD_REACTORS
330
47
102
}
330
47
100
AcDbScale
 70
     0
300
1:8
140
1.0
141
8.0
290
     0
  0
SCALE
  5
4D
102
{ACAD_REACTORS
330
47
102
}
330
47
100
AcDbScale
 70
     0
300
1:10
140
1.0
141
10.0
290
     0
  0
SCALE
  5
4E
102
{ACAD_REACTORS
330
47
102
}
330
47
100
AcDbScale
 70
     0
300
1:16
140
1.0
141
16.0
290
     0
  0
SCALE
  5
4F
102
{ACAD_REACTORS
330
47
102
}
330
47
100
AcDbScale
 70
     0
300
1:20
140
1.0
141
20.0
290
     0
  0
SCALE
  5
50
102
{ACAD_REACTORS
330
47
102
}
330
47
100
AcDbScale
 70
     0
300
1:30
140
1.0
141
30.0
290
     0
  0
SCALE
  5
51
102
{ACAD_REACTORS
330
47
102
}
330
47
100
AcDbScale
 70
     0
300
1:40
140
1.0
141
40.0
290
     0
  0
SCALE
  5
52
102
{ACAD_REACTORS
330
47
102
}
330
47
100
AcDbScale
 70
     0
300
1:50
140
1.0
141
50.0
290
     0
  0
SCALE
  5
53
102
{ACAD_REACTORS
330
47
102
}
330
47
100
AcDbScale
 70
     0
300
1:100
140
1.0
141
100.0
290
     0
  0
SCALE
  5
54
102
{ACAD_REACTORS
330
47
102
}
330
47
100
AcDbScale
 70
     0
300
2:1
140
2.0
141
1.0
290
     0
  0
SCALE
  5
55
102
{ACAD_REACTORS
330
47
102
}
330
47
100
AcDbScale
 70
     0
300
4:1
140
4.0
141
1.0
290
     0
  0
SCALE
  5
56
102
{ACAD_REACTORS
330
47
102
}
330
47
100
AcDbScale
 70
     0
300
8:1
140
8.0
141
1.0
290
     0
  0
SCALE
  5
57
102
{ACAD_REACTORS
330
47
102
}
330
47
100
AcDbScale
 70
     0
300
10:1
140
10.0
141
1.0
290
     0
  0
SCALE
  5
58
102
{ACAD_REACTORS
330
47
102
}
330
47
100
AcDbScale
 70
     0
300
100:1
140
100.0
141
1.0
290
     0
  0
SCALE
  5
59
102
{ACAD_REACTORS
330
47
102
}
330
47
100
AcDbScale
 70
     0
300
1/128" = 1'-0"
140
0.0078125
141
12.0
290
     0
  0
SCALE
  5
5A
102
{ACAD_REACTORS
330
47
102
}
330
47
100
AcDbScale
 70
     0
300
1/64" = 1'-0"
140
0.015625
141
12.0
290
     0
  0
SCALE
  5
5B
102
{ACAD_REACTORS
330
47
102
}
330
47
100
AcDbScale
 70
     0
300
1/32" = 1'-0"
140
0.03125
141
12.0
290
     0
  0
SCALE
  5
5C
102
{ACAD_REACTORS
330
47
102
}
330
47
100
AcDbScale
 70
     0
300
1/16" = 1'-0"
140
0.0625
141
12.0
290
     0
  0
SCALE
  5
5D
102
{ACAD_REACTORS
330
47
102
}
330
47
100
AcDbScale
 70
     0
300
3/32" = 1'-0"
140
0.09375
141
12.0
290
     0
  0
SCALE
  5
5E
102
{ACAD_REACTORS
330
47
102
}
330
47
100
AcDbScale
 70
     0
300
1/8" = 1'-0"
140
0.125
141
12.0
290
     0
  0
SCALE
  5
5F
102
{ACAD_REACTORS
330
47
102
}
330
47
100
AcDbScale
 70
     0
300
3/16" = 1'-0"
140
0.1875
141
12.0
290
     0
  0
SCALE
  5
60
102
{ACAD_REACTORS
330
47
102
}
330
47
100
AcDbScale
 70
     0
300
1/4" = 1'-0"
140
0.25
141
12.0
290
     0
  0
SCALE
  5
61
102
{ACAD_REACTORS
330
47
102
}
330
47
100
AcDbScale
 70
     0
300
3/8" = 1'-0"
140
0.375
141
12.0
290
     0
  0
SCALE
  5
62
102
{ACAD_REACTORS
330
47
102
}
330
47
100
AcDbScale
 70
     0
300
1/2" = 1'-0"
140
0.5
141
12.0
290
     0
  0
SCALE
  5
63
102
{ACAD_REACTORS
330
47
102
}
330
47
100
AcDbScale
 70
     0
300
3/4" = 1'-0"
140
0.75
141
12.0
290
     0
  0
SCALE
  5
64
102
{ACAD_REACTORS
330
47
102
}
330
47
100
AcDbScale
 70
     0
300
1" = 1'-0"
140
1.0
141
12.0
290
     0
  0
SCALE
  5
65
102
{ACAD_REACTORS
330
47
102
}
330
47
100
AcDbScale
 70
     0
300
1-1/2" = 1'-0"
140
1.5
141
12.0
290
     0
  0
SCALE
  5
66
102
{ACAD_REACTORS
330
47
102
}
330
47
100
AcDbScale
 70
     0
300
3" = 1'-0"
140
3.0
141
12.0
290
     0
  0
SCALE
  5
67
102
{ACAD_REACTORS
330
47
102
}
330
47
100
AcDbScale
 70
     0
300
6" = 1'-0"
140
6.0
141
12.0
290
     0
  0
SCALE
  5
68
102
{ACAD_REACTORS
330
47
102
}
330
47
100
AcDbScale
 70
     0
300
1'-0" = 1'-0"
140
12.0
141
12.0
290
     0
  0
ENDSEC
  0
EOF
