  0
SECTION
  2
HEADER
  9
$ACADVER
  1
AC1015
  9
$ACADMAINTVER
 70
     6
  9
$DWGCODEPAGE
  3
ANSI_949
  9
$INSBASE
 10
0.0
 20
0.0
 30
0.0
  9
$EXTMIN
 10
1.000000000000000E+20
 20
1.000000000000000E+20
 30
1.000000000000000E+20
  9
$EXTMAX
 10
-1.000000000000000E+20
 20
-1.000000000000000E+20
 30
-1.000000000000000E+20
  9
$LIMMIN
 10
0.0
 20
0.0
  9
$LIMMAX
 10
420.0
 20
297.0
  9
$ORTHOMODE
 70
     1
  9
$REGENMODE
 70
     1
  9
$FILLMODE
 70
     1
  9
$QTEXTMODE
 70
     0
  9
$MIRRTEXT
 70
     1
  9
$LTSCALE
 40
1.0
  9
$ATTMODE
 70
     1
  9
$TEXTSIZE
 40
3.5
  9
$TRACEWID
 40
1.0
  9
$TEXTSTYLE
  7
Standard
  9
$CLAYER
  8
0
  9
$CELTYPE
  6
ByLayer
  9
$CECOLOR
 62
   256
  9
$CELTSCALE
 40
1.0
  9
$DISPSILH
 70
     0
  9
$DIMSCALE
 40
1.0
  9
$DIMASZ
 40
3.302
  9
$DIMEXO
 40
1.0
  9
$DIMDLI
 40
3.75
  9
$DIMRND
 40
0.0
  9
$DIMDLE
 40
0.0
  9
$DIMEXE
 40
1.0
  9
$DIMTP
 40
0.0
  9
$DIMTM
 40
0.0
  9
$DIMTXT
 40
3.5
  9
$DIMCEN
 40
2.5
  9
$DIMTSZ
 40
0.0
  9
$DIMTOL
 70
     0
  9
$DIMLIM
 70
     0
  9
$DIMTIH
 70
     1
  9
$DIMTOH
 70
     1
  9
$DIMSE1
 70
     0
  9
$DIMSE2
 70
     0
  9
$DIMTAD
 70
     1
  9
$DIMZIN
 70
     0
  9
$DIMBLK
  1

  9
$DIMASO
 70
     1
  9
$DIMSHO
 70
     1
  9
$DIMPOST
  1

  9
$DIMAPOST
  1

  9
$DIMALT
 70
     0
  9
$DIMALTD
 70
     3
  9
$DIMALTF
 40
0.0393700787401575
  9
$DIMLFAC
 40
1.0
  9
$DIMTOFL
 70
     1
  9
$DIMTVP
 40
0.0
  9
$DIMTIX
 70
     0
  9
$DIMSOXD
 70
     0
  9
$DIMSAH
 70
     0
  9
$DIMBLK1
  1

  9
$DIMBLK2
  1

  9
$DIMSTYLE
  2
ISO-25
  9
$DIMCLRD
 70
     0
  9
$DIMCLRE
 70
     0
  9
$DIMCLRT
 70
     0
  9
$DIMTFAC
 40
1.0
  9
$DIMGAP
 40
1.524
  9
$DIMJUST
 70
     0
  9
$DIMSD1
 70
     0
  9
$DIMSD2
 70
     0
  9
$DIMTOLJ
 70
     0
  9
$DIMTZIN
 70
     0
  9
$DIMALTZ
 70
     0
  9
$DIMALTTZ
 70
     0
  9
$DIMUPT
 70
     0
  9
$DIMDEC
 70
     2
  9
$DIMTDEC
 70
     2
  9
$DIMALTU
 70
     2
  9
$DIMALTTD
 70
     3
  9
$DIMTXSTY
  7
Standard
  9
$DIMAUNIT
 70
     0
  9
$DIMADEC
 70
     2
  9
$DIMALTRND
 40
0.0
  9
$DIMAZIN
 70
     0
  9
$DIMDSEP
 70
    44
  9
$DIMATFIT
 70
     3
  9
$DIMFRAC
 70
     0
  9
$DIMLDRBLK
  1

  9
$DIMLUNIT
 70
     2
  9
$DIMLWD
 70
    -2
  9
$DIMLWE
 70
    -2
  9
$DIMTMOVE
 70
     0
  9
$LUNITS
 70
     2
  9
$LUPREC
 70
     2
  9
$SKETCHINC
 40
1.0
  9
$FILLETRAD
 40
10.0
  9
$AUNITS
 70
     0
  9
$AUPREC
 70
     2
  9
$MENU
  1
.
  9
$ELEVATION
 40
0.0
  9
$PELEVATION
 40
0.0
  9
$THICKNESS
 40
0.0
  9
$LIMCHECK
 70
     0
  9
$CHAMFERA
 40
0.0
  9
$CHAMFERB
 40
0.0
  9
$CHAMFERC
 40
0.0
  9
$CHAMFERD
 40
0.0
  9
$SKPOLY
 70
     0
  9
$TDCREATE
 40
2458288.745509479
  9
$TDUCREATE
 40
2458288.370509479
  9
$TDUPDATE
 40
2458294.687225509
  9
$TDUUPDATE
 40
2458294.312225509
  9
$TDINDWG
 40
0.001253669
  9
$TDUSRTIMER
 40
2458294.310972627
  9
$USRTIMER
 70
     1
  9
$ANGBASE
 50
0.0
  9
$ANGDIR
 70
     0
  9
$PDMODE
 70
     0
  9
$PDSIZE
 40
-1.0
  9
$PLINEWID
 40
0.0
  9
$SPLFRAME
 70
     0
  9
$SPLINETYPE
 70
     6
  9
$SPLINESEGS
 70
     8
  9
$HANDSEED
  5
190
  9
$SURFTAB1
 70
     6
  9
$SURFTAB2
 70
     6
  9
$SURFTYPE
 70
     6
  9
$SURFU
 70
     6
  9
$SURFV
 70
     6
  9
$UCSBASE
  2

  9
$UCSNAME
  2

  9
$UCSORG
 10
0.0
 20
0.0
 30
0.0
  9
$UCSXDIR
 10
1.0
 20
0.0
 30
0.0
  9
$UCSYDIR
 10
0.0
 20
1.0
 30
0.0
  9
$UCSORTHOREF
  2

  9
$UCSORTHOVIEW
 70
     0
  9
$UCSORGTOP
 10
0.0
 20
0.0
 30
0.0
  9
$UCSORGBOTTOM
 10
0.0
 20
0.0
 30
0.0
  9
$UCSORGLEFT
 10
0.0
 20
0.0
 30
0.0
  9
$UCSORGRIGHT
 10
0.0
 20
0.0
 30
0.0
  9
$UCSORGFRONT
 10
0.0
 20
0.0
 30
0.0
  9
$UCSORGBACK
 10
0.0
 20
0.0
 30
0.0
  9
$PUCSBASE
  2

  9
$PUCSNAME
  2

  9
$PUCSORG
 10
0.0
 20
0.0
 30
0.0
  9
$PUCSXDIR
 10
1.0
 20
0.0
 30
0.0
  9
$PUCSYDIR
 10
0.0
 20
1.0
 30
0.0
  9
$PUCSORTHOREF
  2

  9
$PUCSORTHOVIEW
 70
     0
  9
$PUCSORGTOP
 10
0.0
 20
0.0
 30
0.0
  9
$PUCSORGBOTTOM
 10
0.0
 20
0.0
 30
0.0
  9
$PUCSORGLEFT
 10
0.0
 20
0.0
 30
0.0
  9
$PUCSORGRIGHT
 10
0.0
 20
0.0
 30
0.0
  9
$PUCSORGFRONT
 10
0.0
 20
0.0
 30
0.0
  9
$PUCSORGBACK
 10
0.0
 20
0.0
 30
0.0
  9
$USERI1
 70
     0
  9
$USERI2
 70
     0
  9
$USERI3
 70
     0
  9
$USERI4
 70
     0
  9
$USERI5
 70
     0
  9
$USERR1
 40
0.0
  9
$USERR2
 40
0.0
  9
$USERR3
 40
0.0
  9
$USERR4
 40
0.0
  9
$USERR5
 40
0.0
  9
$WORLDVIEW
 70
     1
  9
$SHADEDGE
 70
     3
  9
$SHADEDIF
 70
    70
  9
$TILEMODE
 70
     1
  9
$MAXACTVP
 70
    64
  9
$PINSBASE
 10
0.0
 20
0.0
 30
0.0
  9
$PLIMCHECK
 70
     0
  9
$PEXTMIN
 10
1.000000000000000E+20
 20
1.000000000000000E+20
 30
1.000000000000000E+20
  9
$PEXTMAX
 10
-1.000000000000000E+20
 20
-1.000000000000000E+20
 30
-1.000000000000000E+20
  9
$PLIMMIN
 10
0.0
 20
0.0
  9
$PLIMMAX
 10
0.0
 20
0.0
  9
$UNITMODE
 70
     0
  9
$VISRETAIN
 70
     1
  9
$PLINEGEN
 70
     0
  9
$PSLTSCALE
 70
     1
  9
$TREEDEPTH
 70
  3020
  9
$CMLSTYLE
  2
Standard
  9
$CMLJUST
 70
     0
  9
$CMLSCALE
 40
20.0
  9
$PROXYGRAPHICS
 70
     1
  9
$MEASUREMENT
 70
     1
  9
$CELWEIGHT
370
    -1
  9
$ENDCAPS
280
     0
  9
$JOINSTYLE
280
     0
  9
$LWDISPLAY
290
     1
  9
$INSUNITS
 70
     4
  9
$HYPERLINKBASE
  1

  9
$STYLESHEET
  1

  9
$XEDIT
290
     1
  9
$CEPSNTYPE
380
     0
  9
$PSTYLEMODE
290
     1
  9
$FINGERPRINTGUID
  2
{6251F0DF-B720-44D8-BA02-C5266AD68E2C}
  9
$VERSIONGUID
  2
{FAEB1C32-E019-11D5-929B-00C0DF256EC4}
  9
$EXTNAMES
290
     1
  9
$PSVPSCALE
 40
0.0
  9
$OLESTARTUP
290
     0
  0
ENDSEC
  0
SECTION
  2
CLASSES
  0
CLASS
  1
ACDBDICTIONARYWDFLT
  2
AcDbDictionaryWithDefault
  3
ObjectDBX Classes
 90
        0
280
     0
281
     0
  0
CLASS
  1
VISUALSTYLE
  2
AcDbVisualStyle
  3
ObjectDBX Classes
 90
     4095
280
     0
281
     0
  0
CLASS
  1
MATERIAL
  2
AcDbMaterial
  3
ObjectDBX Classes
 90
     1153
280
     0
281
     0
  0
CLASS
  1
SCALE
  2
AcDbScale
  3
ObjectDBX Classes
 90
     1153
280
     0
281
     0
  0
CLASS
  1
SUN
  2
AcDbSun
  3
SCENEOE
 90
     1153
280
     0
281
     0
  0
CLASS
  1
ACDBPLACEHOLDER
  2
AcDbPlaceHolder
  3
ObjectDBX Classes
 90
        0
280
     0
281
     0
  0
CLASS
  1
LAYOUT
  2
AcDbLayout
  3
ObjectDBX Classes
 90
        0
280
     0
281
     0
  0
CLASS
  1
TABLESTYLE
  2
AcDbTableStyle
  3
ObjectDBX Classes
 90
     4095
280
     0
281
     0
  0
CLASS
  1
MLEADERSTYLE
  2
AcDbMLeaderStyle
  3
ACDB_MLEADERSTYLE_CLASS
 90
     4095
280
     0
281
     0
  0
CLASS
  1
RASTERVARIABLES
  2
AcDbRasterVariables
  3
ISM
 90
        0
280
     0
281
     0
  0
ENDSEC
  0
SECTION
  2
TABLES
  0
TABLE
  2
VPORT
  5
8
330
0
100
AcDbSymbolTable
 70
     1
  0
VPORT
  5
29
330
8
100
AcDbSymbolTableRecord
100
AcDbViewportTableRecord
  2
*Active
 70
     0
 10
0.0
 20
0.0
 11
1.0
 21
1.0
 12
29.62915114349031
 22
-20.02365448593755
 13
0.0
 23
0.0
 14
10.0
 24
10.0
 15
10.0
 25
10.0
 16
0.0
 26
0.0
 36
1.0
 17
0.0
 27
0.0
 37
0.0
 40
139.823585670735
 41
1.859099804305284
 42
50.0
 43
0.0
 44
0.0
 50
0.0
 51
0.0
 71
    16
 72
  2000
 73
     1
 74
     3
 75
     0
 76
     0
 77
     0
 78
     0
281
     0
 65
     1
110
0.0
120
0.0
130
0.0
111
1.0
121
0.0
131
0.0
112
0.0
122
1.0
132
0.0
 79
     0
146
0.0
  0
ENDTAB
  0
TABLE
  2
LTYPE
  5
5
330
0
100
AcDbSymbolTable
 70
     6
  0
LTYPE
  5
14
330
5
100
AcDbSymbolTableRecord
100
AcDbLinetypeTableRecord
  2
ByBlock
 70
     0
  3

 72
    65
 73
     0
 40
0.0
  0
LTYPE
  5
15
330
5
100
AcDbSymbolTableRecord
100
AcDbLinetypeTableRecord
  2
ByLayer
 70
     0
  3

 72
    65
 73
     0
 40
0.0
  0
LTYPE
  5
16
330
5
100
AcDbSymbolTableRecord
100
AcDbLinetypeTableRecord
  2
Continuous
 70
     0
  3
Solid line
 72
    65
 73
     0
 40
0.0
  0
LTYPE
  5
6A
330
5
100
AcDbSymbolTableRecord
100
AcDbLinetypeTableRecord
  2
HIDDEN
 70
     0
  3
Hidden __ __ __ __ __ __ __ __ __ __ __ __ __ __
 72
    65
 73
     2
 40
1.905
 49
1.27
 74
     0
 49
-0.635
 74
     0
  0
LTYPE
  5
6B
330
5
100
AcDbSymbolTableRecord
100
AcDbLinetypeTableRecord
  2
PHANTOM
 70
     0
  3
Phantom ______  __  __  ______  __  __  ______
 72
    65
 73
     6
 40
12.7
 49
6.35
 74
     0
 49
-1.27
 74
     0
 49
1.27
 74
     0
 49
-1.27
 74
     0
 49
1.27
 74
     0
 49
-1.27
 74
     0
  0
LTYPE
  5
6C
330
5
100
AcDbSymbolTableRecord
100
AcDbLinetypeTableRecord
  2
CENTER
 70
     0
  3
Center ____ _ ____ _ ____ _ ____ _ ____ _ ____
 72
    65
 73
     4
 40
10.16
 49
6.35
 74
     0
 49
-1.27
 74
     0
 49
1.27
 74
     0
 49
-1.27
 74
     0
  0
LTYPE
  5
6D
330
5
100
AcDbSymbolTableRecord
100
AcDbLinetypeTableRecord
  2
CENTERX2
 70
     0
  3
Center (2x) ________  __  ________  __  _____
 72
    65
 73
     4
 40
20.32
 49
12.7
 74
     0
 49
-2.54
 74
     0
 49
2.54
 74
     0
 49
-2.54
 74
     0
  0
LTYPE
  5
6E
330
5
100
AcDbSymbolTableRecord
100
AcDbLinetypeTableRecord
  2
DOT2
 70
     0
  3
Dot (.5x) ........................................
 72
    65
 73
     2
 40
0.635
 49
0.0
 74
     0
 49
-0.635
 74
     0
  0
ENDTAB
  0
TABLE
  2
LAYER
  5
2
102
{ACAD_XDICTIONARY
360
181
102
}
330
0
100
AcDbSymbolTable
 70
    18
  0
LAYER
  5
10
330
2
100
AcDbSymbolTableRecord
100
AcDbLayerTableRecord
  2
0
 70
     0
 62
     7
  6
Continuous
370
    -3
390
F
  0
LAYER
  5
6F
330
2
100
AcDbSymbolTableRecord
100
AcDbLayerTableRecord
  2
FORMAT
 70
     0
 62
     2
  6
Continuous
370
    -3
390
F
  0
LAYER
  5
70
330
2
100
AcDbSymbolTableRecord
100
AcDbLayerTableRecord
  2
외형선
 70
     0
 62
     4
  6
Continuous
370
    30
390
F
  0
LAYER
  5
71
330
2
100
AcDbSymbolTableRecord
100
AcDbLayerTableRecord
  2
숨은선
 70
     0
 62
     2
  6
HIDDEN
370
    15
390
F
  0
LAYER
  5
72
330
2
100
AcDbSymbolTableRecord
100
AcDbLayerTableRecord
  2
중심선
 70
     0
 62
     1
  6
CENTERX2
370
    -3
390
F
  0
LAYER
  5
73
330
2
100
AcDbSymbolTableRecord
100
AcDbLayerTableRecord
  2
파단선
 70
     0
 62
     4
  6
Continuous
370
    -3
390
F
  0
LAYER
  5
74
330
2
100
AcDbSymbolTableRecord
100
AcDbLayerTableRecord
  2
해칭선
 70
     0
 62
   100
  6
Continuous
370
    -3
390
F
  0
LAYER
  5
75
330
2
100
AcDbSymbolTableRecord
100
AcDbLayerTableRecord
  2
가는실선
 70
     0
 62
     4
  6
Continuous
370
    -3
390
F
  0
LAYER
  5
76
330
2
100
AcDbSymbolTableRecord
100
AcDbLayerTableRecord
  2
치수_보조선
 70
     0
 62
     4
  6
Continuous
370
    -3
390
F
  0
LAYER
  5
77
330
2
100
AcDbSymbolTableRecord
100
AcDbLayerTableRecord
  2
치수문자_일반주서
 70
     0
 62
     7
  6
Continuous
370
    15
390
F
  0
LAYER
  5
78
330
2
100
AcDbSymbolTableRecord
100
AcDbLayerTableRecord
  2
개별주서
 70
     0
 62
   100
  6
Continuous
370
    30
390
F
  0
LAYER
  5
79
330
2
100
AcDbSymbolTableRecord
100
AcDbLayerTableRecord
  2
중간선
 70
     0
 62
     2
  6
Continuous
370
    15
390
F
  0
LAYER
  5
7A
330
2
100
AcDbSymbolTableRecord
100
AcDbLayerTableRecord
  2
윤곽선
 70
     0
 62
     3
  6
Continuous
370
    40
390
F
  0
LAYER
  5
7B
330
2
100
AcDbSymbolTableRecord
100
AcDbLayerTableRecord
  2
중심마크
 70
     0
 62
   100
  6
Continuous
370
    30
390
F
  0
LAYER
  5
7C
330
2
100
AcDbSymbolTableRecord
100
AcDbLayerTableRecord
  2
가상선
 70
     0
 62
     4
  6
PHANTOM
370
    -3
390
F
  0
LAYER
  5
7D
330
2
100
AcDbSymbolTableRecord
100
AcDbLayerTableRecord
  2
특수지정선
 70
     0
 62
     5
  6
CENTERX2
370
    60
390
F
  0
LAYER
  5
7E
330
2
100
AcDbSymbolTableRecord
100
AcDbLayerTableRecord
  2
참조1
 70
     0
 62
    -4
  6
Continuous
370
    -3
390
F
  0
LAYER
  5
188
330
2
100
AcDbSymbolTableRecord
100
AcDbLayerTableRecord
  2
Defpoints
 70
     0
 62
     7
  6
Continuous
290
     0
370
    -3
390
F
  0
ENDTAB
  0
TABLE
  2
STYLE
  5
3
330
0
100
AcDbSymbolTable
 70
     2
  0
STYLE
  5
11
330
3
100
AcDbSymbolTableRecord
100
AcDbTextStyleTableRecord
  2
Standard
 70
     0
 40
0.0
 41
1.0
 50
0.0
 71
     0
 42
3.5
  3
txt
  4

  0
STYLE
  5
94
330
3
100
AcDbSymbolTableRecord
100
AcDbTextStyleTableRecord
  2
SLDTEXTSTYLE0
 70
     0
 40
0.0
 41
0.75
 50
0.0
 71
     0
 42
3.5
  3
TXT
  4

  0
ENDTAB
  0
TABLE
  2
VIEW
  5
6
330
0
100
AcDbSymbolTable
 70
     0
  0
ENDTAB
  0
TABLE
  2
UCS
  5
7
330
0
100
AcDbSymbolTable
 70
     0
  0
ENDTAB
  0
TABLE
  2
APPID
  5
9
330
0
100
AcDbSymbolTable
 70
     1
  0
APPID
  5
12
330
9
100
AcDbSymbolTableRecord
100
AcDbRegAppTableRecord
  2
ACAD
 70
     0
  0
ENDTAB
  0
TABLE
  2
DIMSTYLE
  5
A
330
0
100
AcDbSymbolTable
 70
     3
100
AcDbDimStyleTable
  0
DIMSTYLE
105
27
330
A
100
AcDbSymbolTableRecord
100
AcDbDimStyleTableRecord
  2
ISO-25
 70
     0
 41
2.5
 42
0.625
 43
3.75
 44
1.25
 73
     0
 74
     0
 77
     1
 78
     8
140
2.5
141
2.5
143
0.03937007874016
147
0.625
171
     3
172
     1
178
     0
271
     2
272
     2
274
     3
278
    44
283
     0
284
     8
340
11
  0
DIMSTYLE
105
D9
102
{ACAD_REACTORS
330
D8
330
ED
330
101
330
116
102
}
330
A
100
AcDbSymbolTableRecord
100
AcDbDimStyleTableRecord
  2
SLDDIMSTYLE0
 70
     0
 41
3.302
 44
0.0
 45
0.000000001
 73
     0
 74
     0
 77
     1
 78
    12
 79
     3
140
3.5
143
0.0393700787401575
147
0.875
148
0.000000001
170
     1
172
     1
173
     1
178
     0
271
     2
272
     2
276
     2
284
    12
289
     0
340
94
  0
DIMSTYLE
105
102
330
A
100
AcDbSymbolTableRecord
100
AcDbDimStyleTableRecord
  2
SLDDIMSTYLE1
 70
     0
 41
3.302
 44
0.0
 45
0.000000001
 73
     0
 74
     0
 77
     1
 78
     4
 79
     1
140
3.5
143
0.0393700787401575
147
0.875
148
0.000000001
170
     1
173
     1
178
     0
271
     2
272
     2
276
     2
284
    12
340
94
  0
ENDTAB
  0
TABLE
  2
BLOCK_RECORD
  5
1
330
0
100
AcDbSymbolTable
 70
     8
  0
BLOCK_RECORD
  5
1F
330
1
100
AcDbSymbolTableRecord
100
AcDbBlockTableRecord
  2
*Model_Space
340
22
  0
BLOCK_RECORD
  5
1B
330
1
100
AcDbSymbolTableRecord
100
AcDbBlockTableRecord
  2
*Paper_Space
340
1E
  0
BLOCK_RECORD
  5
23
330
1
100
AcDbSymbolTableRecord
100
AcDbBlockTableRecord
  2
*Paper_Space0
340
26
  0
BLOCK_RECORD
  5
7F
330
1
100
AcDbSymbolTableRecord
100
AcDbBlockTableRecord
  2
블럭10
340
0
102
{BLKREFS
331
D1
102
}
  0
BLOCK_RECORD
  5
DA
330
1
100
AcDbSymbolTableRecord
100
AcDbBlockTableRecord
  2
_D
340
0
  0
BLOCK_RECORD
  5
EE
330
1
100
AcDbSymbolTableRecord
100
AcDbBlockTableRecord
  2
_D_1
340
0
  0
BLOCK_RECORD
  5
103
330
1
100
AcDbSymbolTableRecord
100
AcDbBlockTableRecord
  2
_D_2
340
0
  0
BLOCK_RECORD
  5
117
330
1
100
AcDbSymbolTableRecord
100
AcDbBlockTableRecord
  2
_D_3
340
0
  0
BLOCK_RECORD
  5
130
330
1
100
AcDbSymbolTableRecord
100
AcDbBlockTableRecord
  2
SW_DOWELSYMBOL_0
340
0
102
{BLKREFS
331
136
102
}
  0
ENDTAB
  0
ENDSEC
  0
SECTION
  2
BLOCKS
  0
BLOCK
  5
20
330
1F
100
AcDbEntity
  8
0
100
AcDbBlockBegin
  2
*Model_Space
 70
     0
 10
0.0
 20
0.0
 30
0.0
  3
*Model_Space
  1
*Model_Space
  0
ENDBLK
  5
21
330
1F
100
AcDbEntity
  8
0
100
AcDbBlockEnd
  0
BLOCK
  5
1C
330
1B
100
AcDbEntity
 67
     1
  8
0
100
AcDbBlockBegin
  2
*Paper_Space
 70
     0
 10
0.0
 20
0.0
 30
0.0
  3
*Paper_Space
  1
*Paper_Space
  0
ENDBLK
  5
1D
330
1B
100
AcDbEntity
 67
     1
  8
0
100
AcDbBlockEnd
  0
BLOCK
  5
24
330
23
100
AcDbEntity
  8
0
100
AcDbBlockBegin
  2
*Paper_Space0
 70
     0
 10
0.0
 20
0.0
 30
0.0
  3
*Paper_Space0
  1
*Paper_Space0
  0
ENDBLK
  5
25
330
23
100
AcDbEntity
  8
0
100
AcDbBlockEnd
  0
BLOCK
  5
80
330
7F
100
AcDbEntity
  8
0
100
AcDbBlockBegin
  2
블럭10
 70
     2
 10
0.0
 20
0.0
 30
0.0
  3
블럭10
  1
블럭10
  0
ELLIPSE
  5
82
330
7F
100
AcDbEntity
  8
중심선
100
AcDbEllipse
 10
20.54032771741204
 20
12.0471743016438
 30
0.0
 11
6.600054785286829
 21
-1.261213355974178E-13
 31
0.0
210
0.0
220
0.0
230
1.0
 40
0.636358354079598
 41
0.9219305317359503
 42
6.513795318482858
  0
ELLIPSE
  5
83
330
7F
100
AcDbEntity
  8
중심선
100
AcDbEllipse
 10
20.54032771746488
 20
12.04717430159265
 30
0.0
 11
3.960054785062283
 21
1.540847449632565E-10
 31
0.0
210
0.0
220
0.0
230
1.0
 40
0.3939339440162632
 41
1.131841032648279
 42
5.62031148352944
  0
LINE
  5
84
330
7F
100
AcDbEntity
  8
중심선
100
AcDbLine
 10
2.268634060543552
 20
16.24717430164393
 30
0.0
 11
5.714909304380834
 21
16.24717430164393
 31
0.0
  0
LINE
  5
85
330
7F
100
AcDbEntity
  8
중심선
100
AcDbLine
 10
5.245725140726316
 20
7.84717430164391
 30
0.0
 11
8.692000384563599
 21
7.84717430164391
 31
0.0
  0
LINE
  5
86
330
7F
100
AcDbEntity
  8
중심선
100
AcDbLine
 10
15.74043728645272
 20
16.24717430164393
 30
0.0
 11
8.692000384563599
 21
7.84717430164391
 31
0.0
  0
LINE
  5
87
330
7F
100
AcDbEntity
  8
중심선
100
AcDbLine
 10
0.1404042013395286
 20
13.71084872107135
 30
0.0
 11
3.58671253028996
 21
13.71088815037384
 31
0.0
  0
LINE
  5
88
330
7F
100
AcDbEntity
  8
중심선
100
AcDbLine
 10
2.750260043222114
 20
10.84717430164391
 30
0.0
 11
6.196535287059397
 21
10.84717430164391
 31
0.0
  0
LINE
  5
89
330
7F
100
AcDbEntity
  8
중심선
100
AcDbLine
 10
12.29416204261559
 20
16.24717430164393
 30
0.0
 11
5.245725140726316
 21
7.84717430164391
 31
0.0
  0
LINE
  5
8A
330
7F
100
AcDbEntity
  8
중심선
100
AcDbLine
 10
10.72767329541681
 20
16.24717430164393
 30
0.0
 11
6.196535287059397
 21
10.84717430164391
 31
0.0
  0
LINE
  5
8B
330
7F
100
AcDbEntity
  8
중심선
100
AcDbLine
 10
7.28139805157953
 20
16.24717430164393
 30
0.0
 11
2.750260043222114
 21
10.84717430164391
 31
0.0
  0
LINE
  5
8C
330
7F
100
AcDbEntity
  8
중심선
100
AcDbLine
 10
5.714909304380834
 20
16.24717430164393
 30
0.0
 11
3.58671253028996
 21
13.71088815037384
 31
0.0
  0
LINE
  5
8D
330
7F
100
AcDbEntity
  8
중심선
100
AcDbLine
 10
2.268634060543552
 20
16.24717430164393
 30
0.0
 11
0.1404042013395286
 21
13.71084872107135
 31
0.0
  0
LINE
  5
8E
330
7F
100
AcDbEntity
  8
중심선
100
AcDbLine
 10
7.28139805157953
 20
16.24717430164393
 30
0.0
 11
10.72767329541681
 21
16.24717430164393
 31
0.0
  0
LINE
  5
8F
330
7F
100
AcDbEntity
  8
중심선
100
AcDbLine
 10
12.29416204261559
 20
16.24717430164393
 30
0.0
 11
15.74043728645272
 21
16.24717430164393
 31
0.0
  0
LINE
  5
90
330
7F
100
AcDbEntity
  8
중심선
100
AcDbLine
 10
19.22036997980202
 20
11.08717430171403
 30
0.0
 11
23.66174974927406
 21
11.08717430171406
 31
0.0
  0
LINE
  5
91
330
7F
100
AcDbEntity
  8
중심선
100
AcDbLine
 10
19.22039502424796
 20
13.00717430171391
 30
0.0
 11
19.22036997980202
 21
11.08717430171403
 31
0.0
  0
LINE
  5
92
330
7F
100
AcDbEntity
  8
중심선
100
AcDbLine
 10
19.22039502424796
 20
13.00717430171391
 30
0.0
 11
26.96566020931264
 21
13.00717430171391
 31
0.0
  0
LINE
  5
93
330
7F
100
AcDbEntity
  8
중심선
100
AcDbLine
 10
22.22332737316547
 20
13.45928029700563
 30
0.0
 11
24.52862924686651
 21
15.39360700705356
 31
0.0
  0
ATTDEF
  5
95
330
7F
100
AcDbEntity
  8
FORMAT
 62
     2
100
AcDbText
 10
3.448148490846466
 20
2.075366912832191
 30
0.0
 40
4.233333333333333
  1
EM154024
 41
0.75
  7
SLDTEXTSTYLE0
 11
3.448148490846466
 21
-0.0412997538344756
 31
0.0
100
AcDbAttributeDefinition
  3

  2
AUTOATTR0
 70
     0
 74
     1
  0
ENDBLK
  5
81
330
7F
100
AcDbEntity
  8
0
100
AcDbBlockEnd
  0
BLOCK
  5
DB
330
DA
100
AcDbEntity
  8
0
100
AcDbBlockBegin
  2
_D
 70
     0
 10
0.0
 20
0.0
 30
0.0
  3
_D
  1
_D
  0
LINE
  5
DD
330
DA
100
AcDbEntity
  8
치수문자_일반주서
 62
     0
370
    -2
100
AcDbLine
 10
-27.16249999999999
 20
4.762500000000003
 30
0.0
 11
-40.53
 21
4.762499999999953
 31
0.0
  0
LINE
  5
DE
330
DA
100
AcDbEntity
  8
치수문자_일반주서
 62
     0
370
    -2
100
AcDbLine
 10
-27.16249999999999
 20
-4.762500000000003
 30
0.0
 11
-40.52999999999997
 21
-4.762500000000053
 31
0.0
  0
LINE
  5
DF
330
DA
100
AcDbEntity
  8
치수문자_일반주서
 62
     0
370
    -2
100
AcDbLine
 10
-40.52999999999999
 20
1.460499999999954
 30
0.0
 11
-40.52999999999998
 21
-1.460500000000053
 31
0.0
  0
SOLID
  5
E0
330
DA
100
AcDbEntity
  8
치수문자_일반주서
 62
     0
100
AcDbTrace
 10
-39.97966666666665
 20
1.460499999999956
 30
0.0
 11
-41.08033333333332
 21
1.460499999999952
 31
0.0
 12
-40.53
 22
4.762499999999953
 32
0.0
 13
-40.53
 23
4.762499999999953
 33
0.0
  0
SOLID
  5
E1
330
DA
100
AcDbEntity
  8
치수문자_일반주서
 62
     0
100
AcDbTrace
 10
-41.08033333333331
 20
-1.460500000000055
 30
0.0
 11
-39.97966666666665
 21
-1.460500000000051
 31
0.0
 12
-40.52999999999997
 22
-4.762500000000053
 32
0.0
 13
-40.52999999999997
 23
-4.762500000000053
 33
0.0
  0
MTEXT
  5
E2
330
DA
100
AcDbEntity
  8
치수문자_일반주서
 62
     0
100
AcDbMText
 10
-44.90499999999999
 20
-0.0000000000000143
 30
0.0
 40
3.5
 41
0.0
 71
     2
 72
     1
  1
\A1;%%c9.53 [3/8]
  7
SLDTEXTSTYLE0
 11
-3.729883127349605E-15
 21
1.0
 31
0.0
 73
     1
 44
1.0
  0
POINT
  5
E3
330
DA
100
AcDbEntity
  8
Defpoints
 62
     0
100
AcDbPoint
 10
-27.09999999999999
 20
4.762500000000003
 30
0.0
  0
POINT
  5
E4
330
DA
100
AcDbEntity
  8
Defpoints
 62
     0
100
AcDbPoint
 10
-27.09999999999999
 20
-4.762500000000003
 30
0.0
  0
POINT
  5
E5
330
DA
100
AcDbEntity
  8
Defpoints
 62
     0
100
AcDbPoint
 10
-40.52999999999996
 20
-4.762500000000053
 30
0.0
  0
ENDBLK
  5
DC
330
DA
100
AcDbEntity
  8
0
100
AcDbBlockEnd
  0
BLOCK
  5
EF
330
EE
100
AcDbEntity
  8
0
100
AcDbBlockBegin
  2
_D_1
 70
     0
 10
0.0
 20
0.0
 30
0.0
  3
_D_1
  1
_D_1
  0
LINE
  5
F1
330
EE
100
AcDbEntity
  8
치수문자_일반주서
 62
     0
370
    -2
100
AcDbLine
 10
35.46249999999952
 20
4.762500000000005
 30
0.0
 11
48.94300790541647
 21
4.762500000000053
 31
0.0
  0
LINE
  5
F2
330
EE
100
AcDbEntity
  8
치수문자_일반주서
 62
     0
370
    -2
100
AcDbLine
 10
35.4625
 20
-4.762499999999992
 30
0.0
 11
48.9430079054165
 21
-4.762499999999942
 31
0.0
  0
LINE
  5
F3
330
EE
100
AcDbEntity
  8
치수문자_일반주서
 62
     0
370
    -2
100
AcDbLine
 10
48.94300790541647
 20
4.762500000000053
 30
0.0
 11
48.94300790541634
 21
37.83525000000005
 31
0.0
  0
LINE
  5
F4
330
EE
100
AcDbEntity
  8
치수문자_일반주서
 62
     0
370
    -2
100
AcDbLine
 10
48.94300790541647
 20
4.762500000000053
 30
0.0
 11
48.9430079054165
 21
-4.762499999999942
 31
0.0
  0
LINE
  5
F5
330
EE
100
AcDbEntity
  8
치수문자_일반주서
 62
     0
370
    -2
100
AcDbLine
 10
48.94300790541645
 20
8.064500000000052
 30
0.0
 11
48.94300790541644
 21
11.36650000000005
 31
0.0
  0
LINE
  5
F6
330
EE
100
AcDbEntity
  8
치수문자_일반주서
 62
     0
370
    -2
100
AcDbLine
 10
48.94300790541651
 20
-8.064499999999942
 30
0.0
 11
48.94300790541653
 21
-11.36649999999994
 31
0.0
  0
SOLID
  5
F7
330
EE
100
AcDbEntity
  8
치수문자_일반주서
 62
     0
100
AcDbTrace
 10
48.39267457208312
 20
8.06450000000005
 30
0.0
 11
49.49334123874979
 21
8.064500000000054
 31
0.0
 12
48.94300790541647
 22
4.762500000000053
 32
0.0
 13
48.94300790541647
 23
4.762500000000053
 33
0.0
  0
SOLID
  5
F8
330
EE
100
AcDbEntity
  8
치수문자_일반주서
 62
     0
100
AcDbTrace
 10
49.49334123874985
 20
-8.06449999999994
 30
0.0
 11
48.39267457208318
 21
-8.064499999999944
 31
0.0
 12
48.9430079054165
 22
-4.762499999999942
 32
0.0
 13
48.9430079054165
 23
-4.762499999999942
 33
0.0
  0
MTEXT
  5
F9
330
EE
100
AcDbEntity
  8
치수문자_일반주서
 62
     0
100
AcDbMText
 10
44.56800790541639
 20
24.71025000000003
 30
0.0
 40
3.5
 41
0.0
 71
     2
 72
     1
  1
\A1;%%c9.53 [3/8]
  7
SLDTEXTSTYLE0
 11
-3.729883127349610E-15
 21
1.0
 31
0.0
 73
     1
 44
1.0
  0
POINT
  5
FA
330
EE
100
AcDbEntity
  8
Defpoints
 62
     0
100
AcDbPoint
 10
35.39999999999952
 20
4.762500000000005
 30
0.0
  0
POINT
  5
FB
330
EE
100
AcDbEntity
  8
Defpoints
 62
     0
100
AcDbPoint
 10
35.4
 20
-4.762499999999992
 30
0.0
  0
POINT
  5
FC
330
EE
100
AcDbEntity
  8
Defpoints
 62
     0
100
AcDbPoint
 10
48.94300790541649
 20
-4.762499999999942
 30
0.0
  0
ENDBLK
  5
F0
330
EE
100
AcDbEntity
  8
0
100
AcDbBlockEnd
  0
BLOCK
  5
104
330
103
100
AcDbEntity
  8
0
100
AcDbBlockBegin
  2
_D_2
 70
     0
 10
0.0
 20
0.0
 30
0.0
  3
_D_2
  1
_D_2
  0
LINE
  5
106
330
103
100
AcDbEntity
  8
치수문자_일반주서
 62
     0
370
    -2
100
AcDbLine
 10
35.39999999999952
 20
4.825000000000005
 30
0.0
 11
35.39999999999952
 21
26.36562500000005
 31
0.0
  0
LINE
  5
107
330
103
100
AcDbEntity
  8
치수문자_일반주서
 62
     0
370
    -2
100
AcDbLine
 10
10.0
 20
3.389746058277441
 30
0.0
 11
10.0
 21
26.36562500000005
 31
0.0
  0
LINE
  5
108
330
103
100
AcDbEntity
  8
치수문자_일반주서
 62
     0
370
    -2
100
AcDbLine
 10
10.0
 20
26.36562500000005
 30
0.0
 11
-16.729
 21
26.36562500000005
 31
0.0
  0
LINE
  5
109
330
103
100
AcDbEntity
  8
치수문자_일반주서
 62
     0
370
    -2
100
AcDbLine
 10
35.39999999999952
 20
26.36562500000005
 30
0.0
 11
10.0
 21
26.36562500000005
 31
0.0
  0
LINE
  5
10A
330
103
100
AcDbEntity
  8
치수문자_일반주서
 62
     0
370
    -2
100
AcDbLine
 10
38.70199999999952
 20
26.36562500000005
 30
0.0
 11
42.00399999999952
 21
26.36562500000005
 31
0.0
  0
LINE
  5
10B
330
103
100
AcDbEntity
  8
치수문자_일반주서
 62
     0
370
    -2
100
AcDbLine
 10
6.698
 20
26.36562500000005
 30
0.0
 11
3.396000000000001
 21
26.36562500000005
 31
0.0
  0
SOLID
  5
10C
330
103
100
AcDbEntity
  8
치수문자_일반주서
 62
     0
100
AcDbTrace
 10
38.70199999999952
 20
26.91595833333338
 30
0.0
 11
38.70199999999952
 21
25.81529166666671
 31
0.0
 12
35.39999999999952
 22
26.36562500000005
 32
0.0
 13
35.39999999999952
 23
26.36562500000005
 33
0.0
  0
SOLID
  5
10D
330
103
100
AcDbEntity
  8
치수문자_일반주서
 62
     0
100
AcDbTrace
 10
6.698
 20
25.81529166666671
 30
0.0
 11
6.698
 21
26.91595833333338
 31
0.0
 12
10.0
 22
26.36562500000005
 32
0.0
 13
10.0
 23
26.36562500000005
 33
0.0
  0
MTEXT
  5
10E
330
103
100
AcDbEntity
  8
치수문자_일반주서
 62
     0
100
AcDbMText
 10
-7.978999999999999
 20
30.74062500000005
 30
0.0
 40
3.5
 41
0.0
 71
     2
 72
     1
  1
\A1;25.4 [1]
  7
SLDTEXTSTYLE0
 73
     1
 44
1.0
  0
POINT
  5
10F
330
103
100
AcDbEntity
  8
Defpoints
 62
     0
100
AcDbPoint
 10
35.39999999999952
 20
4.762500000000005
 30
0.0
  0
POINT
  5
189
330
103
100
AcDbEntity
  8
Defpoints
 62
     0
100
AcDbPoint
 10
10.0
 20
3.327246058277441
 30
0.0
  0
POINT
  5
18A
330
103
100
AcDbEntity
  8
Defpoints
 62
     0
100
AcDbPoint
 10
10.0
 20
26.36562500000005
 30
0.0
  0
ENDBLK
  5
105
330
103
100
AcDbEntity
  8
0
100
AcDbBlockEnd
  0
BLOCK
  5
118
330
117
100
AcDbEntity
  8
0
100
AcDbBlockBegin
  2
_D_3
 70
     0
 10
0.0
 20
0.0
 30
0.0
  3
_D_3
  1
_D_3
  0
LINE
  5
11A
330
117
100
AcDbEntity
  8
치수문자_일반주서
 62
     0
370
    -2
100
AcDbLine
 10
35.39999999999952
 20
4.825000000000005
 30
0.0
 11
35.39999999999952
 21
41.1896784401339
 31
0.0
  0
LINE
  5
11B
330
117
100
AcDbEntity
  8
치수문자_일반주서
 62
     0
370
    -2
100
AcDbLine
 10
-28.1
 20
3.824999999999996
 30
0.0
 11
-28.1
 21
41.1896784401339
 31
0.0
  0
LINE
  5
11C
330
117
100
AcDbEntity
  8
치수문자_일반주서
 62
     0
370
    -2
100
AcDbLine
 10
32.09799999999952
 20
41.1896784401339
 30
0.0
 11
-24.79800000000001
 21
41.1896784401339
 31
0.0
  0
SOLID
  5
11D
330
117
100
AcDbEntity
  8
치수문자_일반주서
 62
     0
100
AcDbTrace
 10
32.09799999999952
 20
40.63934510680056
 30
0.0
 11
32.09799999999952
 21
41.74001177346723
 31
0.0
 12
35.39999999999952
 22
41.1896784401339
 32
0.0
 13
35.39999999999952
 23
41.1896784401339
 33
0.0
  0
SOLID
  5
11E
330
117
100
AcDbEntity
  8
치수문자_일반주서
 62
     0
100
AcDbTrace
 10
-24.79800000000001
 20
41.74001177346723
 30
0.0
 11
-24.79800000000001
 21
40.63934510680056
 31
0.0
 12
-28.1
 22
41.1896784401339
 32
0.0
 13
-28.1
 23
41.1896784401339
 33
0.0
  0
MTEXT
  5
11F
330
117
100
AcDbEntity
  8
치수문자_일반주서
 62
     0
100
AcDbMText
 10
3.649999999999971
 20
45.5646784401339
 30
0.0
 40
3.5
 41
0.0
 71
     2
 72
     1
  1
\A1;63.5 [2 1/2]
  7
SLDTEXTSTYLE0
 73
     1
 44
1.0
  0
POINT
  5
120
330
117
100
AcDbEntity
  8
Defpoints
 62
     0
100
AcDbPoint
 10
35.39999999999952
 20
4.762500000000005
 30
0.0
  0
POINT
  5
121
330
117
100
AcDbEntity
  8
Defpoints
 62
     0
100
AcDbPoint
 10
-28.1
 20
3.762499999999996
 30
0.0
  0
POINT
  5
122
330
117
100
AcDbEntity
  8
Defpoints
 62
     0
100
AcDbPoint
 10
-28.1
 20
41.1896784401339
 30
0.0
  0
ENDBLK
  5
119
330
117
100
AcDbEntity
  8
0
100
AcDbBlockEnd
  0
BLOCK
  5
131
330
130
100
AcDbEntity
  8
0
100
AcDbBlockBegin
  2
SW_DOWELSYMBOL_0
 70
     0
 10
0.0
 20
0.0
 30
0.0
  3
SW_DOWELSYMBOL_0
  1
SW_DOWELSYMBOL_0
  0
CIRCLE
  5
133
330
130
100
AcDbEntity
  8
해칭선
 62
     0
100
AcDbCircle
 10
0.0
 20
0.0
 30
0.0
 40
3.000000000000001
  0
HATCH
  5
134
330
130
100
AcDbEntity
  8
0
  6
Continuous
 62
     0
370
     0
100
AcDbHatch
 10
0.0
 20
0.0
 30
0.0
210
0.0
220
0.0
230
1.0
  2
SOLID
 70
     1
 71
     0
 91
        1
 92
        0
 93
        3
 72
     2
 10
0.0
 20
0.0
 40
3.000000000000001
 50
0.0
 51
90.0
 73
     1
 72
     1
 10
0.0
 20
3.000000000000001
 11
0.0
 21
0.0
 72
     1
 10
0.0
 20
0.0
 11
3.000000000000001
 21
0.0
 97
        0
 75
     0
 76
     1
 98
        1
 10
0.0
 20
0.0
  0
HATCH
  5
135
330
130
100
AcDbEntity
  8
0
  6
Continuous
 62
     0
370
     0
100
AcDbHatch
 10
0.0
 20
0.0
 30
0.0
210
0.0
220
0.0
230
1.0
  2
SOLID
 70
     1
 71
     0
 91
        1
 92
        0
 93
        3
 72
     2
 10
0.0
 20
0.0
 40
3.000000000000001
 50
180.0
 51
270.0000000000008
 73
     1
 72
     1
 10
0.0
 20
-3.000000000000001
 11
0.0
 21
0.0
 72
     1
 10
0.0
 20
0.0
 11
-3.000000000000001
 21
0.0
 97
        0
 75
     0
 76
     1
 98
        1
 10
0.0
 20
0.0
  0
ENDBLK
  5
132
330
130
100
AcDbEntity
  8
0
100
AcDbBlockEnd
  0
ENDSEC
  0
SECTION
  2
ENTITIES
  0
LINE
  5
96
330
1F
100
AcDbEntity
  8
외형선
  6
Continuous
370
    15
100
AcDbLine
 10
8.479976710176377
 20
4.762499999999999
 30
0.0
 11
-27.1
 21
4.762499999999998
 31
0.0
  0
LINE
  5
97
330
1F
100
AcDbEntity
  8
외형선
  6
Continuous
370
    15
100
AcDbLine
 10
9.999999999999996
 20
4.762499999999999
 30
0.0
 11
9.823933129051344
 21
4.762499999999999
 31
0.0
  0
LINE
  5
98
330
1F
100
AcDbEntity
  8
외형선
  6
Continuous
370
    15
100
AcDbLine
 10
9.82393312905133
 20
-4.762499999999999
 30
0.0
 11
9.999999999999998
 21
-4.762499999999999
 31
0.0
  0
LINE
  5
99
330
1F
100
AcDbEntity
  8
외형선
  6
Continuous
370
    15
100
AcDbLine
 10
-27.1
 20
-4.762500000000001
 30
0.0
 11
8.479976710176377
 21
-4.762499999999999
 31
0.0
  0
LINE
  5
9A
330
1F
100
AcDbEntity
  8
외형선
  6
Continuous
370
    15
100
AcDbLine
 10
-27.1
 20
4.762499999999996
 30
0.0
 11
-28.1
 21
3.762499999999996
 31
0.0
  0
LINE
  5
9B
330
1F
100
AcDbEntity
  8
외형선
  6
Continuous
370
    15
100
AcDbLine
 10
-28.1
 20
-3.762500000000001
 30
0.0
 11
-27.1
 21
-4.762500000000001
 31
0.0
  0
SPLINE
  5
9C
330
1F
100
AcDbEntity
  8
0
  6
Continuous
 62
     1
370
    15
100
AcDbSpline
210
0.0
220
0.0
230
1.0
 70
     8
 71
     3
 72
    10
 73
     6
 74
     0
 42
0.000000001
 43
0.00000001
 40
0.0
 40
0.0
 40
0.0
 40
0.0
 40
0.4989010261485732
 40
0.686290282901225
 40
0.9999999999999999
 40
0.9999999999999999
 40
0.9999999999999999
 40
0.9999999999999999
 10
23.06081597032139
 20
1.220400670511872
 30
0.0
 10
22.84131264862333
 20
1.325248008855618
 30
0.0
 10
22.53936298556321
 20
1.469476434378924
 30
0.0
 10
22.09969741281502
 20
1.693006625881234
 30
0.0
 10
21.87902484862291
 20
1.808731715228516
 30
0.0
 10
21.74087424106511
 20
1.881180646347521
 30
0.0
  0
LINE
  5
9D
330
1F
100
AcDbEntity
  8
0
  6
Continuous
 62
     1
370
    15
100
AcDbLine
 10
20.43190665766508
 20
1.33896076534988
 30
0.0
 11
20.37698153575488
 21
1.369200244123733
 31
0.0
  0
LINE
  5
9E
330
1F
100
AcDbEntity
  8
0
  6
Continuous
 62
     1
370
    15
100
AcDbLine
 10
12.13302626524839
 20
4.762500000000003
 30
0.0
 11
9.999999999999998
 21
4.762500000000003
 31
0.0
  0
SPLINE
  5
9F
330
1F
100
AcDbEntity
  8
0
  6
Continuous
 62
     1
370
    15
100
AcDbSpline
210
0.0
220
0.0
230
1.0
 70
     8
 71
     3
 72
    19
 73
    15
 74
     0
 42
0.000000001
 43
0.00000001
 40
0.0
 40
0.0
 40
0.0
 40
0.0
 40
0.1463950919818481
 40
0.2613054599869867
 40
0.3509839529065833
 40
0.4195127746782889
 40
0.4850019822945725
 40
0.5568228767913022
 40
0.6476124665898393
 40
0.7493293326602484
 40
0.8345859764955996
 40
0.9027576324140462
 40
0.960250784855016
 40
1.0
 40
1.0
 40
1.0
 40
1.0
 10
21.4870907295887
 20
3.78446740158989
 30
0.0
 10
21.301617410609
 20
3.775083270619561
 30
0.0
 10
20.97055992585868
 20
3.758333223698012
 30
0.0
 10
20.50985084779806
 20
3.74192705820173
 30
0.0
 10
20.15010346728623
 20
3.732097373938783
 30
0.0
 10
19.859089163754
 20
3.726093834309707
 30
0.0
 10
19.59181995679828
 20
3.722135315908269
 30
0.0
 10
19.29534781630167
 20
3.719501385684248
 30
0.0
 10
18.95192261921617
 20
3.718867920605518
 30
0.0
 10
18.59126296311615
 20
3.721249506573349
 30
0.0
 10
18.25990067048758
 20
3.726111059640593
 30
0.0
 10
17.98588339744848
 20
3.731986683711445
 30
0.0
 10
17.77108194381888
 20
3.737617216546635
 30
0.0
 10
17.64503196336546
 20
3.741691877546743
 30
0.0
 10
17.59350722248916
 20
3.743357453784313
 30
0.0
  0
SPLINE
  5
A0
330
1F
100
AcDbEntity
  8
0
  6
Continuous
 62
     1
370
    15
100
AcDbSpline
210
0.0
220
0.0
230
1.0
 70
     8
 71
     3
 72
    34
 73
    30
 74
     0
 42
0.000000001
 43
0.00000001
 40
0.0
 40
0.0
 40
0.0
 40
0.0
 40
0.0465366122989025
 40
0.0888293802240876
 40
0.1279311977055788
 40
0.1594516375877115
 40
0.1864248799699542
 40
0.2271523724498346
 40
0.2792884516391549
 40
0.3199134273578949
 40
0.3520564663460609
 40
0.3796177381270127
 40
0.4049551619691408
 40
0.4302644900406371
 40
0.4656304854331875
 40
0.5115956938882996
 40
0.5463061070845984
 40
0.577407444806708
 40
0.6238171890915901
 40
0.6742571700194175
 40
0.7146812589498569
 40
0.7464821962357219
 40
0.768989193443259
 40
0.7897061708565114
 40
0.8114204195174957
 40
0.8411109920562888
 40
0.8797767762830755
 40
0.932274504276307
 40
1.0
 40
1.0
 40
1.0
 40
1.0
 10
33.63343509636447
 20
3.257619393295138
 30
0.0
 10
33.51764662559401
 20
3.247552293347495
 30
0.0
 10
33.29662885941946
 20
3.228336149222966
 30
0.0
 10
32.93275825535709
 20
3.2028070575719
 30
0.0
 10
32.60896376649806
 20
3.184546683868021
 30
0.0
 10
32.32877283581206
 20
3.170065019711732
 30
0.0
 10
32.05794027372133
 20
3.158396859965676
 30
0.0
 10
31.72527881609802
 20
3.146689710098034
 30
0.0
 10
31.35416009710172
 20
3.138122661104293
 30
0.0
 10
31.00694904434926
 20
3.134275448913884
 30
0.0
 10
30.72803428367286
 20
3.133792169635971
 30
0.0
 10
30.49157688005603
 20
3.135195677931564
 30
0.0
 10
30.27409894705156
 20
3.137967406431867
 30
0.0
 10
30.03484116783866
 20
3.142579643072636
 30
0.0
 10
29.73845548683729
 20
3.150644842832215
 30
0.0
 10
29.41582677273853
 20
3.16277109348394
 30
0.0
 10
29.10492203205794
 20
3.177606483143154
 30
0.0
 10
28.79281996512148
 20
3.195074547138383
 30
0.0
 10
28.43708700007392
 20
3.218428276308482
 30
0.0
 10
28.05548467294356
 20
3.248154637056893
 30
0.0
 10
27.71442210743903
 20
3.27857977349362
 30
0.0
 10
27.45080804465675
 20
3.304279940325822
 30
0.0
 10
27.2420670012707
 20
3.3259529432761
 30
0.0
 10
27.06166169680681
 20
3.345583108803365
 30
0.0
 10
26.86063486152753
 20
3.368445392279731
 30
0.0
 10
26.60710374344806
 20
3.398776077551906
 30
0.0
 10
26.26594292607965
 20
3.442248356149491
 30
0.0
 10
25.82618311314396
 20
3.502982014836015
 30
0.0
 10
25.49649841200969
 20
3.553552613964396
 30
0.0
 10
25.31077672591176
 20
3.582040611450457
 30
0.0
  0
SPLINE
  5
A1
330
1F
100
AcDbEntity
  8
0
  6
Continuous
 62
     1
370
    15
100
AcDbSpline
210
0.0
220
0.0
230
1.0
 70
     8
 71
     3
 72
    26
 73
    22
 74
     0
 42
0.000000001
 43
0.00000001
 40
0.0
 40
0.0
 40
0.0
 40
0.0
 40
0.0769187192955159
 40
0.1342892261903091
 40
0.1785788506851335
 40
0.2352033053238314
 40
0.2798983381869829
 40
0.3280599888577134
 40
0.3920110001284095
 40
0.4409530231155147
 40
0.477860300089427
 40
0.5184571834865268
 40
0.5703034098039991
 40
0.6374691210626016
 40
0.7010518842596164
 40
0.7465579547461002
 40
0.7798659368901271
 40
0.8166252466134918
 40
0.8642609619022537
 40
0.9244754490132003
 40
1.0
 40
1.0
 40
1.0
 40
1.0
 10
14.32460881008669
 20
-3.963062595717224
 30
0.0
 10
14.50564207232654
 20
-3.945432710382192
 30
0.0
 10
14.82170059388742
 20
-3.914653419188205
 30
0.0
 10
15.24919034904596
 20
-3.878078033211041
 30
0.0
 10
15.63208871072902
 20
-3.848238268503607
 30
0.0
 10
15.98046378732931
 20
-3.823593555790557
 30
0.0
 10
16.33739402433235
 20
-3.801046669666484
 30
0.0
 10
16.71245549528357
 20
-3.779937713162607
 30
0.0
 10
17.09766886876932
 20
-3.761491591126501
 30
0.0
 10
17.45556662979874
 20
-3.747608314143852
 30
0.0
 10
17.75678915997069
 20
-3.737955079589506
 30
0.0
 10
18.06580951013412
 20
-3.729932832997045
 30
0.0
 10
18.44711970452416
 20
-3.722815382144277
 30
0.0
 10
18.88312547993256
 20
-3.718794563096844
 30
0.0
 10
19.30423538370813
 20
-3.719350306978825
 30
0.0
 10
19.64468994039138
 20
-3.72275911161832
 30
0.0
 10
19.92046101623819
 20
-3.727241442145532
 30
0.0
 10
20.20284458782754
 20
-3.733420931673869
 30
0.0
 10
20.55344633074267
 20
-3.743339578716788
 30
0.0
 10
20.99491151333085
 20
-3.759507131086592
 30
0.0
 10
21.31114174342415
 20
-3.775544362695969
 30
0.0
 10
21.4870907295887
 20
-3.78446740158989
 30
0.0
  0
SPLINE
  5
A2
330
1F
100
AcDbEntity
  8
0
  6
Continuous
 62
     1
370
    15
100
AcDbSpline
210
0.0
220
0.0
230
1.0
 70
     8
 71
     3
 72
    18
 73
    14
 74
     0
 42
0.000000001
 43
0.00000001
 40
0.0
 40
0.0
 40
0.0
 40
0.0
 40
0.1585942180556993
 40
0.2816138316736441
 40
0.3722756884839498
 40
0.4419340052874476
 40
0.4928980656226575
 40
0.5571950960962291
 40
0.628640387742832
 40
0.7139922128905758
 40
0.8106897819694394
 40
0.9230319332191053
 40
0.9999999999999999
 40
0.9999999999999999
 40
0.9999999999999999
 40
0.9999999999999999
 10
25.31077672591176
 20
-3.582040611450457
 30
0.0
 10
25.49613918584759
 20
-3.553606588745436
 30
0.0
 10
25.82528506033747
 20
-3.503116639098951
 30
0.0
 10
26.26440938907396
 20
-3.442454326669874
 30
0.0
 10
26.60529032084079
 20
-3.399000568895767
 30
0.0
 10
26.85878398135267
 20
-3.368661648820269
 30
0.0
 10
27.0784673133162
 20
-3.343666654705054
 30
0.0
 10
27.29952354512333
 20
-3.319772140037235
 30
0.0
 10
27.56178169821849
 20
-3.293181340677995
 30
0.0
 10
27.86236055904892
 20
-3.265022708213788
 30
0.0
 10
28.21111048854138
 20
-3.23561102003409
 30
0.0
 10
28.55001809961111
 20
-3.210529240916017
 30
0.0
 10
28.77436607826654
 20
-3.196945925973001
 30
0.0
 10
28.86557948651755
 20
-3.191423342445728
 30
0.0
  0
LINE
  5
A3
330
1F
100
AcDbEntity
  8
0
  6
Continuous
 62
     1
370
    15
100
AcDbLine
 10
9.999999999999998
 20
-4.762500000000003
 30
0.0
 11
12.13302626524837
 21
-4.762500000000003
 31
0.0
  0
LINE
  5
A4
330
1F
100
AcDbEntity
  8
외형선
  6
Continuous
370
    15
100
AcDbLine
 10
9.999999999999996
 20
4.762499999999999
 30
0.0
 11
9.999999999999996
 21
4.761413783259123
 31
0.0
  0
SPLINE
  5
A5
330
1F
100
AcDbEntity
  8
외형선
  6
Continuous
370
    15
100
AcDbSpline
210
0.0
220
0.0
230
1.0
 70
     8
 71
     3
 72
    10
 73
     6
 74
     0
 42
0.000000001
 43
0.00000001
 40
0.0
 40
0.0
 40
0.0
 40
0.0
 40
0.5
 40
0.5
 40
1.0
 40
1.0
 40
1.0
 40
1.0
 10
8.479976710176375
 20
4.699391354634642
 30
0.0
 10
8.734227074134818
 20
4.72316019777911
 30
0.0
 10
8.988645705632251
 20
4.740250695762892
 30
0.0
 10
9.4945858826195
 20
4.760924973988502
 30
0.0
 10
9.746203068525654
 20
4.764540454798775
 30
0.0
 10
10.0
 20
4.761413783259121
 30
0.0
  0
SPLINE
  5
A6
330
1F
100
AcDbEntity
  8
외형선
  6
Continuous
370
    15
100
AcDbSpline
210
0.0
220
0.0
230
1.0
 70
     8
 71
     3
 72
    10
 73
     6
 74
     0
 42
0.000000001
 43
0.00000001
 40
0.0
 40
0.0
 40
0.0
 40
0.0
 40
0.5000000000000001
 40
0.5000000000000001
 40
1.0
 40
1.0
 40
1.0
 40
1.0
 10
9.999999999999996
 20
-4.604312455774888
 30
0.0
 10
9.746199006658717
 20
-4.566892325780289
 30
0.0
 10
9.494577831626355
 20
-4.523068188105849
 30
0.0
 10
8.988629464820324
 20
-4.422618269121545
 30
0.0
 10
8.734206717633597
 20
-4.365957409630667
 30
0.0
 10
8.479952295433819
 20
-4.303189882830248
 30
0.0
  0
LINE
  5
A7
330
1F
100
AcDbEntity
  8
외형선
  6
Continuous
370
    15
100
AcDbLine
 10
9.999999999999998
 20
-4.604312455774888
 30
0.0
 11
9.999999999999998
 21
-4.762499999999999
 31
0.0
  0
SPLINE
  5
A8
330
1F
100
AcDbEntity
  8
외형선
  6
Continuous
370
    15
100
AcDbSpline
210
0.0
220
0.0
230
1.0
 70
     8
 71
     3
 72
    11
 73
     7
 74
     0
 42
0.000000001
 43
0.00000001
 40
0.0
 40
0.0
 40
0.0
 40
0.0
 40
0.282379781921801
 40
0.5649086356315168
 40
0.8478874297396135
 40
1.0
 40
1.0
 40
1.0
 40
1.0
 10
8.479976710176377
 20
-4.69939135463464
 30
0.0
 10
8.606554369766503
 20
-4.710295110457297
 30
0.0
 10
8.859776510862606
 20
-4.732108378330492
 30
0.0
 10
9.239752026486734
 20
-4.751754150743981
 30
0.0
 10
9.560858412295698
 20
-4.762055059675808
 30
0.0
 10
9.755784792542801
 20
-4.761450335101539
 30
0.0
 10
9.823933129051333
 20
-4.761238916956236
 30
0.0
  0
LINE
  5
A9
330
1F
100
AcDbEntity
  8
외형선
  6
Continuous
370
    15
100
AcDbLine
 10
8.479976710176377
 20
-4.762499999999999
 30
0.0
 11
8.479976710176377
 21
-4.699391926745644
 31
0.0
  0
LINE
  5
AA
330
1F
100
AcDbEntity
  8
외형선
  6
Continuous
370
    15
100
AcDbLine
 10
-27.1
 20
4.762499999999996
 30
0.0
 11
-27.1
 21
-4.762500000000001
 31
0.0
  0
LINE
  5
AB
330
1F
100
AcDbEntity
  8
외형선
  6
Continuous
370
    15
100
AcDbLine
 10
8.479976710176375
 20
-4.303102425398409
 30
0.0
 11
8.479976710176377
 21
4.762499999999999
 31
0.0
  0
LINE
  5
AC
330
1F
100
AcDbEntity
  8
외형선
  6
Continuous
370
    15
100
AcDbLine
 10
-28.1
 20
3.762499999999996
 30
0.0
 11
-28.1
 21
-3.762500000000001
 31
0.0
  0
SPLINE
  5
AD
330
1F
100
AcDbEntity
  8
외형선
  6
Continuous
370
    15
100
AcDbSpline
210
0.0
220
0.0
230
1.0
 70
     8
 71
     3
 72
    10
 73
     6
 74
     0
 42
0.000000001
 43
0.00000001
 40
0.0
 40
0.0
 40
0.0
 40
0.0
 40
0.5
 40
0.5
 40
1.0
 40
1.0
 40
1.0
 40
1.0
 10
10.00000000000001
 20
-3.844189076122341
 30
0.0
 10
9.746199006658728
 20
-3.805188386651022
 30
0.0
 10
9.494577831626362
 20
-3.760863155967705
 30
0.0
 10
8.988629464820328
 20
-3.661562551290187
 30
0.0
 10
8.734206717633601
 20
-3.60655704175005
 30
0.0
 10
8.479952295433819
 20
-3.546520444503041
 30
0.0
  0
SPLINE
  5
AE
330
1F
100
AcDbEntity
  8
외형선
  6
Continuous
370
    15
100
AcDbSpline
210
0.0
220
0.0
230
1.0
 70
     8
 71
     3
 72
    10
 73
     6
 74
     0
 42
0.000000001
 43
0.00000001
 40
0.0
 40
0.0
 40
0.0
 40
0.0
 40
0.5
 40
0.5
 40
1.0
 40
1.0
 40
1.0
 40
1.0
 10
9.999999999999996
 20
-0.2378755776358079
 30
0.0
 10
9.746201585676463
 20
-0.1209806434999594
 30
0.0
 10
9.494582943476463
 20
-0.0040842986186166
 30
0.0
 10
8.98863977666564
 20
0.2298054293215185
 30
0.0
 10
8.734219642670276
 20
0.346813204806845
 30
0.0
 10
8.4799677971858
 20
0.463137262919658
 30
0.0
  0
SPLINE
  5
AF
330
1F
100
AcDbEntity
  8
외형선
  6
Continuous
370
    15
100
AcDbSpline
210
0.0
220
0.0
230
1.0
 70
    24
 71
     3
 72
    14
 73
    10
 74
     0
 42
0.000000001
 43
0.00000001
 40
0.0
 40
0.0
 40
0.0
 40
0.0
 40
0.2499999999999999
 40
0.2499999999999999
 40
0.4999999999999999
 40
0.4999999999999999
 40
0.7499999999999999
 40
0.7499999999999999
 40
1.0
 40
1.0
 40
1.0
 40
1.0
 10
10.0
 20
-0.2378755776358093
 30
0.0
 10
10.0
 20
-0.5993444081513415
 30
0.0
 10
10.0
 20
-0.9624682170560964
 30
0.0
 10
10.0
 20
-1.66556808604857
 30
0.0
 10
10.0
 20
-2.00532962415949
 30
0.0
 10
10.0
 20
-2.63562225901391
 30
0.0
 10
10.0
 20
-2.92597134637769
 30
0.0
 10
10.0
 20
-3.438379098991282
 30
0.0
 10
10.0
 20
-3.660373401204346
 30
0.0
 10
10.0
 20
-3.844189076122337
 30
0.0
  0
SPLINE
  5
B0
330
1F
100
AcDbEntity
  8
외형선
  6
Continuous
370
    15
100
AcDbSpline
210
0.0
220
0.0
230
1.0
 70
     8
 71
     3
 72
    10
 73
     6
 74
     0
 42
0.000000001
 43
0.00000001
 40
0.0
 40
0.0
 40
0.0
 40
0.0
 40
0.5
 40
0.5
 40
1.0
 40
1.0
 40
1.0
 40
1.0
 10
10.0
 20
3.32724605827744
 30
0.0
 10
9.746202090222495
 20
3.333644524327302
 30
0.0
 10
9.494583943532978
 20
3.335319505966939
 30
0.0
 10
8.988641794022941
 20
3.329254607679913
 30
0.0
 10
8.734222171259171
 20
3.321493036591213
 30
0.0
 10
8.479970829870462
 20
3.309028022140765
 30
0.0
  0
SPLINE
  5
B1
330
1F
100
AcDbEntity
  8
외형선
  6
Continuous
370
    15
100
AcDbSpline
210
0.0
220
0.0
230
1.0
 70
    24
 71
     3
 72
    14
 73
    10
 74
     0
 42
0.000000001
 43
0.00000001
 40
0.0
 40
0.0
 40
0.0
 40
0.0
 40
0.25
 40
0.25
 40
0.5
 40
0.5
 40
0.75
 40
0.75
 40
1.0
 40
1.0
 40
1.0
 40
1.0
 10
10.0
 20
3.327246058277441
 30
0.0
 10
10.0
 20
3.211867944676897
 30
0.0
 10
10.0
 20
3.043043544975038
 30
0.0
 10
10.0
 20
2.599361244232457
 30
0.0
 10
10.0
 20
2.324512846374897
 30
0.0
 10
10.0
 20
1.690887945258757
 30
0.0
 10
10.0
 20
1.332449063838223
 30
0.0
 10
10.0
 20
0.5702600120953172
 30
0.0
 10
10.0
 20
0.1669667048737159
 30
0.0
 10
10.0
 20
-0.2378755776358095
 30
0.0
  0
SPLINE
  5
B2
330
1F
100
AcDbEntity
  8
외형선
  6
Continuous
370
    15
100
AcDbSpline
210
0.0
220
0.0
230
1.0
 70
    24
 71
     3
 72
     8
 73
     4
 74
     0
 42
0.000000001
 43
0.00000001
 40
0.0
 40
0.0
 40
0.0
 40
0.0
 40
1.0
 40
1.0
 40
1.0
 40
1.0
 10
10.0
 20
-3.844189076122338
 30
0.0
 10
10.0
 20
-4.097561018767411
 30
0.0
 10
10.0
 20
-4.352563912922218
 30
0.0
 10
10.0
 20
-4.604312455773607
 30
0.0
  0
SPLINE
  5
B3
330
1F
100
AcDbEntity
  8
외형선
  6
Continuous
370
    15
100
AcDbSpline
210
0.0
220
0.0
230
1.0
 70
    24
 71
     3
 72
    10
 73
     6
 74
     0
 42
0.000000001
 43
0.00000001
 40
0.0
 40
0.0
 40
0.0
 40
0.0
 40
0.5
 40
0.5
 40
1.0
 40
1.0
 40
1.0
 40
1.0
 10
9.999999999999996
 20
4.761413783245118
 30
0.0
 10
9.999999999999996
 20
4.527176851370307
 30
0.0
 10
9.999999999999996
 20
4.27198597008209
 30
0.0
 10
9.999999999999996
 20
3.77586225902305
 30
0.0
 10
9.999999999999996
 20
3.536219855182755
 30
0.0
 10
9.999999999999996
 20
3.32724605827744
 30
0.0
  0
SPLINE
  5
B4
330
1F
100
AcDbEntity
  8
0
  6
Continuous
 62
     1
370
    15
100
AcDbSpline
210
0.0
220
0.0
230
1.0
 70
     8
 71
     3
 72
    24
 73
    20
 74
     0
 42
0.000000001
 43
0.00000001
 40
0.0
 40
0.0
 40
0.0
 40
0.0
 40
0.0570948394954861
 40
0.1141025427429767
 40
0.1711366331049827
 40
0.2282671884056723
 40
0.2853075081535153
 40
0.342313324979071
 40
0.4095509059295564
 40
0.4768305543336133
 40
0.5441060651731
 40
0.6113409457681835
 40
0.671335247541331
 40
0.7313481039035857
 40
0.7914466652907807
 40
0.8515038240898135
 40
0.9114997572165388
 40
0.9715085865599433
 40
0.9999999999999999
 40
0.9999999999999999
 40
0.9999999999999999
 40
0.9999999999999999
 10
35.4
 20
-4.519330889716924
 30
0.0
 10
34.95711524368117
 20
-4.42745881334338
 30
0.0
 10
34.07202164705102
 20
-4.24385487270831
 30
0.0
 10
32.74515659082638
 20
-3.827055143180856
 30
0.0
 10
31.4178786856514
 20
-3.319609051526605
 30
0.0
 10
30.08951090927942
 20
-2.725151269630819
 30
0.0
 10
28.76215652921804
 20
-2.059884873012253
 30
0.0
 10
27.3566155979609
 20
-1.298554177869939
 30
0.0
 10
25.87103778540265
 20
-0.452480788339547
 30
0.0
 10
24.30568837472483
 20
0.4548396338218302
 30
0.0
 10
22.7403792187225
 20
1.345876614393581
 30
0.0
 10
21.23172902717351
 20
2.158561874141079
 30
0.0
 10
19.77985782273554
 20
2.872214520494138
 30
0.0
 10
18.38325916889517
 20
3.476561266427006
 30
0.0
 10
16.98549711029516
 20
3.980310971077898
 30
0.0
 10
15.58824210651883
 20
4.372590850571788
 30
0.0
 10
14.19200922421048
 20
4.632345337737643
 30
0.0
 10
13.04056723382049
 20
4.760139183643229
 30
0.0
 10
12.35404309485866
 20
4.749043189264937
 30
0.0
 10
12.13302626524838
 20
4.745470989309124
 30
0.0
  0
SPLINE
  5
B5
330
1F
100
AcDbEntity
  8
0
  6
Continuous
 62
     1
370
    15
100
AcDbSpline
210
0.0
220
0.0
230
1.0
 70
     8
 71
     3
 72
    15
 73
    11
 74
     0
 42
0.000000001
 43
0.00000001
 40
0.0
 40
0.0
 40
0.0
 40
0.0
 40
0.1361771869878579
 40
0.2723210361272581
 40
0.4084389015894832
 40
0.5445381896449919
 40
0.680626343897038
 40
0.8167108303566094
 40
0.9527991224219305
 40
1.0
 40
1.0
 40
1.0
 40
1.0
 10
35.4
 20
-3.757480409053629
 30
0.0
 10
34.83890345200575
 20
-3.639967199531432
 30
0.0
 10
33.71684771934588
 20
-3.404969549164506
 30
0.0
 10
32.0340209181308
 20
-2.869525018111118
 30
0.0
 10
30.35155746665956
 20
-2.22626429917882
 30
0.0
 10
28.66935890911475
 20
-1.488013329692973
 30
0.0
 10
26.9873184408091
 20
-0.6879264357072379
 30
0.0
 10
25.30532830302022
 20
0.1372239891765615
 30
0.0
 10
23.98954378156349
 20
0.7888966012743561
 30
0.0
 10
23.23439853801993
 20
1.135320220665671
 30
0.0
 10
23.0399325023916
 20
1.224531704796757
 30
0.0
  0
LINE
  5
B6
330
1F
100
AcDbEntity
  8
0
  6
Continuous
 62
     1
370
    15
100
AcDbLine
 10
35.4
 20
-4.519330889716926
 30
0.0
 11
35.4
 21
-3.757480409053629
 31
0.0
  0
SPLINE
  5
B7
330
1F
100
AcDbEntity
  8
0
  6
Continuous
 62
     1
370
    15
100
AcDbSpline
210
0.0
220
0.0
230
1.0
 70
     8
 71
     3
 72
    56
 73
    52
 74
     0
 42
0.000000001
 43
0.00000001
 40
0.0
 40
0.0
 40
0.0
 40
0.0
 40
0.03125
 40
0.03125
 40
0.0624999999999999
 40
0.0624999999999999
 40
0.1249999999999998
 40
0.1249999999999998
 40
0.1874999999999997
 40
0.1874999999999997
 40
0.2187499999999997
 40
0.2187499999999997
 40
0.2499999999999996
 40
0.2499999999999996
 40
0.2812499999999996
 40
0.2812499999999996
 40
0.3124999999999994
 40
0.3124999999999994
 40
0.3749999999999993
 40
0.3749999999999993
 40
0.4062499999999994
 40
0.4062499999999994
 40
0.4374999999999994
 40
0.4374999999999994
 40
0.4687499999999996
 40
0.4687499999999996
 40
0.4999999999999996
 40
0.4999999999999996
 40
0.5624999999999996
 40
0.5624999999999996
 40
0.6249999999999997
 40
0.6249999999999997
 40
0.6562499999999996
 40
0.6562499999999996
 40
0.6874999999999993
 40
0.6874999999999993
 40
0.7187499999999991
 40
0.7187499999999991
 40
0.749999999999999
 40
0.749999999999999
 40
0.812499999999999
 40
0.812499999999999
 40
0.8437499999999991
 40
0.8437499999999991
 40
0.8749999999999993
 40
0.8749999999999993
 40
0.9062499999999996
 40
0.9062499999999996
 40
0.9374999999999997
 40
0.9374999999999997
 40
1.0
 40
1.0
 40
1.0
 40
1.0
 10
9.999999999999991
 20
4.761413783259126
 30
0.0
 10
10.2649150614013
 20
4.758150141031075
 30
0.0
 10
10.5307825758491
 20
4.747511946390791
 30
0.0
 10
11.06073316037424
 20
4.711630747780712
 30
0.0
 10
11.3233946813611
 20
4.686454161504512
 30
0.0
 10
12.11563802190264
 20
4.589283586489218
 30
0.0
 10
12.65003885440231
 20
4.495296809573178
 30
0.0
 10
13.70192069120321
 20
4.254314525253827
 30
0.0
 10
14.23604019256359
 20
4.106070760578143
 30
0.0
 10
15.02855050015569
 20
3.847918287313627
 30
0.0
 10
15.29110466217709
 20
3.75599371092154
 30
0.0
 10
15.8209485568404
 20
3.560290546553091
 30
0.0
 10
16.08681626717289
 20
3.456660020422363
 30
0.0
 10
16.6167538543633
 20
3.239277219021436
 30
0.0
 10
16.8794009401293
 20
3.125744631395575
 30
0.0
 10
17.40758574972451
 20
2.889001219744476
 30
0.0
 10
17.67323298966517
 20
2.765751820686543
 30
0.0
 10
18.46932038414941
 20
2.383871262511087
 30
0.0
 10
18.99451809006602
 20
2.113876752249895
 30
0.0
 10
19.79056540754198
 20
1.690454955194405
 30
0.0
 10
20.05623964918768
 20
1.54641916613694
 30
0.0
 10
20.58455794240285
 20
1.254576893637704
 30
0.0
 10
20.84712450888768
 20
1.106794776768544
 30
0.0
 10
21.37698207862474
 20
0.8073910631050611
 30
0.0
 10
21.64284993587086
 20
0.6560312971357667
 30
0.0
 10
22.17277442888241
 20
0.3520960367134828
 30
0.0
 10
22.43540736951085
 20
0.1997974940633835
 30
0.0
 10
23.22771831409004
 20
-0.2581627578014642
 30
0.0
 10
23.76211063369632
 20
-0.5649330886577912
 30
0.0
 10
24.81386980918252
 20
-1.164544314467894
 30
0.0
 10
25.34812078886027
 20
-1.460559469410108
 30
0.0
 10
26.14056521712703
 20
-1.886728432433102
 30
0.0
 10
26.40314447820752
 20
-2.025821876348342
 30
0.0
 10
26.93301562622304
 20
-2.29815533594809
 30
0.0
 10
27.19888358141163
 20
-2.431134332163115
 30
0.0
 10
27.72879488340818
 20
-2.688870995019404
 30
0.0
 10
27.99141396899095
 20
-2.813415694364088
 30
0.0
 10
28.51964365637772
 20
-3.053936359540986
 30
0.0
 10
28.78530009225857
 20
-3.169898089271554
 30
0.0
 10
29.58137471164817
 20
-3.502408156912306
 30
0.0
 10
30.10657144501759
 20
-3.703053139791506
 30
0.0
 10
30.90263270539354
 20
-3.969001071091347
 30
0.0
 10
31.16829814185012
 20
-4.051671212868634
 30
0.0
 10
31.69657232381292
 20
-4.203963553673713
 30
0.0
 10
31.95916456961357
 20
-4.273615060109409
 30
0.0
 10
32.48904919910397
 20
-4.399928887746123
 30
0.0
 10
32.75491720326382
 20
-4.456445334125096
 30
0.0
 10
33.28481521741726
 20
-4.555412685229697
 30
0.0
 10
33.5474207380547
 20
-4.597807915395816
 30
0.0
 10
34.33979871192996
 20
-4.703825461298432
 30
0.0
 10
34.87418212043109
 20
-4.745943350997896
 30
0.0
 10
35.40000000000001
 20
-4.762499999999992
 30
0.0
  0
SPLINE
  5
B8
330
1F
100
AcDbEntity
  8
0
  6
Continuous
 62
     1
370
    15
100
AcDbSpline
210
0.0
220
0.0
230
1.0
 70
     8
 71
     3
 72
    15
 73
    11
 74
     0
 42
0.000000001
 43
0.00000001
 40
0.0
 40
0.0
 40
0.0
 40
0.0
 40
0.1203155836693316
 40
0.2442610779415656
 40
0.3682313342405756
 40
0.4922333091497233
 40
0.6162339984096479
 40
0.7441676396725755
 40
0.872088905533175
 40
1.0
 40
1.0
 40
1.0
 40
1.0
 10
23.57430686012436
 20
-0.4555684793280347
 30
0.0
 10
23.02992772497059
 20
-0.2359267103421804
 30
0.0
 10
21.92474558391886
 20
0.2099834005286235
 30
0.0
 10
20.25861861281379
 20
0.8789968151148673
 30
0.0
 10
18.57578307942291
 20
1.516837349936212
 30
0.0
 10
16.89263567427211
 20
2.091925212052654
 30
0.0
 10
15.19156559491348
 20
2.586116329277876
 30
0.0
 10
13.47279031425267
 20
2.971758518621159
 30
0.0
 10
11.7363352199386
 20
3.240712808556469
 30
0.0
 10
10.57876306571202
 20
3.298402406245604
 30
0.0
 10
10.0
 20
3.327246058277441
 30
0.0
  0
SPLINE
  5
B9
330
1F
100
AcDbEntity
  8
외형선
  6
Continuous
370
    15
100
AcDbSpline
210
0.0
220
0.0
230
1.0
 70
    24
 71
     3
 72
    10
 73
     6
 74
     0
 42
0.000000001
 43
0.00000001
 40
0.0
 40
0.0
 40
0.0
 40
0.0
 40
0.4999999999999996
 40
0.4999999999999996
 40
1.0
 40
1.0
 40
1.0
 40
1.0
 10
10.0
 20
4.761413783245137
 30
0.0
 10
10.0
 20
4.527176851370324
 30
0.0
 10
10.0
 20
4.271985970082104
 30
0.0
 10
10.0
 20
3.775862259023056
 30
0.0
 10
10.0
 20
3.53621985518276
 30
0.0
 10
10.0
 20
3.327246058277441
 30
0.0
  0
LINE
  5
BA
330
1F
100
AcDbEntity
  8
0
  6
Continuous
 62
     1
370
    15
100
AcDbLine
 10
35.40000000000001
 20
-4.762499999999994
 30
0.0
 11
35.40000000000001
 21
-4.519330889716926
 31
0.0
  0
SPLINE
  5
BB
330
1F
100
AcDbEntity
  8
0
  6
Continuous
 62
     1
370
    15
100
AcDbSpline
210
0.0
220
0.0
230
1.0
 70
     8
 71
     3
 72
     8
 73
     4
 74
     0
 42
0.000000001
 43
0.00000001
 40
0.0
 40
0.0
 40
0.0
 40
0.0
 40
1.0
 40
1.0
 40
1.0
 40
1.0
 10
32.45319177087808
 20
1.332157722516856
 30
0.0
 10
32.28341672495986
 20
1.533287874483567
 30
0.0
 10
32.13247175025529
 20
1.726224115463544
 30
0.0
 10
32.00438349322256
 20
1.909214249074789
 30
0.0
  0
LINE
  5
BC
330
1F
100
AcDbEntity
  8
0
  6
Continuous
 62
     1
370
    15
100
AcDbLine
 10
32.064566342815
 20
1.959713655970955
 30
0.0
 11
35.4
 21
0.0000000000000035
 31
0.0
  0
LINE
  5
BD
330
1F
100
AcDbEntity
  8
0
  6
Continuous
 62
     1
370
    15
100
AcDbLine
 10
35.4
 20
0.0000000000000035
 30
0.0
 11
35.4
 21
-1.272744530466181
 31
0.0
  0
SPLINE
  5
BE
330
1F
100
AcDbEntity
  8
0
  6
Continuous
 62
     1
370
    15
100
AcDbSpline
210
0.0
220
0.0
230
1.0
 70
     8
 71
     3
 72
    12
 73
     8
 74
     0
 42
0.000000001
 43
0.00000001
 40
0.0
 40
0.0
 40
0.0
 40
0.0
 40
0.4999999999999991
 40
0.4999999999999991
 40
0.7499999999999996
 40
0.7499999999999996
 40
1.0
 40
1.0
 40
1.0
 40
1.0
 10
35.4
 20
-1.27274453046618
 30
0.0
 10
34.88989851532633
 20
-0.871718682889621
 30
0.0
 10
34.38831718328908
 20
-0.4542496700308852
 30
0.0
 10
33.64905392059147
 20
0.1972525864200601
 30
0.0
 10
33.40485565325275
 20
0.4187098580069618
 30
0.0
 10
32.92144649459787
 20
0.8712496099959953
 30
0.0
 10
32.68355473523947
 20
1.101157755784052
 30
0.0
 10
32.45319177087808
 20
1.33215772251686
 30
0.0
  0
SPLINE
  5
BF
330
1F
100
AcDbEntity
  8
0
  6
Continuous
 62
     1
370
    15
100
AcDbSpline
210
0.0
220
0.0
230
1.0
 70
     8
 71
     3
 72
    14
 73
    10
 74
     0
 42
0.000000001
 43
0.00000001
 40
0.0
 40
0.0
 40
0.0
 40
0.0
 40
0.1432494633781348
 40
0.2865141807200893
 40
0.4298329300367222
 40
0.5732433864919291
 40
0.7166373939036836
 40
0.8599449752840951
 40
1.0
 40
1.0
 40
1.0
 40
1.0
 10
32.45319177087808
 20
1.332157722516855
 30
0.0
 10
31.92958311556724
 20
1.554151474889588
 30
0.0
 10
30.88231004831449
 20
1.998162618709066
 30
0.0
 10
29.31115799450047
 20
2.579067067560797
 30
0.0
 10
27.73935235865278
 20
3.069968998514902
 30
0.0
 10
26.16687938983437
 20
3.44945221005004
 30
0.0
 10
24.5944914612686
 20
3.701606683416395
 30
0.0
 10
23.03453012358288
 20
3.829169313860544
 30
0.0
 10
21.99877204135677
 20
3.798238250175937
 30
0.0
 10
21.48683743641963
 20
3.782950238294213
 30
0.0
  0
SPLINE
  5
C0
330
1F
100
AcDbEntity
  8
0
  6
Continuous
 62
     1
370
    15
100
AcDbSpline
210
0.0
220
0.0
230
1.0
 70
    24
 71
     3
 72
    10
 73
     6
 74
     0
 42
0.000000001
 43
0.00000001
 40
0.0
 40
0.0
 40
0.0
 40
0.0
 40
0.5
 40
0.5
 40
1.0
 40
1.0
 40
1.0
 40
1.0
 10
35.4
 20
-3.757480409053628
 30
0.0
 10
35.4
 20
-3.469440240130619
 30
0.0
 10
35.39999999999999
 20
-3.105490442104556
 30
0.0
 10
35.4
 20
-2.259342187955112
 30
0.0
 10
35.4
 20
-1.777876697531861
 30
0.0
 10
35.4
 20
-1.272744530466333
 30
0.0
  0
SPLINE
  5
C1
330
1F
100
AcDbEntity
  8
0
  6
Continuous
 62
     1
370
    15
100
AcDbSpline
210
0.0
220
0.0
230
1.0
 70
    24
 71
     3
 72
     8
 73
     4
 74
     0
 42
0.000000001
 43
0.00000001
 40
0.0
 40
0.0
 40
0.0
 40
0.0
 40
1.0
 40
1.0
 40
1.0
 40
1.0
 10
32.50116348196437
 20
2.326062154403928
 30
0.0
 10
32.34396695349191
 20
2.194158605340331
 30
0.0
 10
32.17783853855077
 20
2.054760313635452
 30
0.0
 10
32.00438349322265
 20
1.909214249074779
 30
0.0
  0
SPLINE
  5
C2
330
1F
100
AcDbEntity
  8
0
  6
Continuous
 62
     1
370
    15
100
AcDbSpline
210
0.0
220
0.0
230
1.0
 70
     8
 71
     3
 72
     9
 73
     5
 74
     0
 42
0.000000001
 43
0.00000001
 40
0.0
 40
0.0
 40
0.0
 40
0.0
 40
0.9524427564629605
 40
0.9999999999999999
 40
0.9999999999999999
 40
0.9999999999999999
 40
0.9999999999999999
 10
35.4
 20
3.33375
 30
0.0
 10
34.83890132349971
 20
3.332203372616691
 30
0.0
 10
34.24978594339645
 20
3.33057951924302
 30
0.0
 10
33.66069376845117
 20
3.257868504009822
 30
0.0
 10
33.63267816842153
 20
3.254410568550552
 30
0.0
  0
SPLINE
  5
C3
330
1F
100
AcDbEntity
  8
0
  6
Continuous
 62
     1
370
    15
100
AcDbSpline
210
0.0
220
0.0
230
1.0
 70
     8
 71
     3
 72
    10
 73
     6
 74
     0
 42
0.000000001
 43
0.00000001
 40
0.0
 40
0.0
 40
0.0
 40
0.0
 40
0.5
 40
0.5
 40
1.0
 40
1.0
 40
1.0
 40
1.0
 10
35.4
 20
3.333750000000003
 30
0.0
 10
34.91010084443062
 20
3.200858771186559
 30
0.0
 10
34.42319019078997
 20
3.051717186240095
 30
0.0
 10
33.45590601612539
 20
2.717887533311579
 30
0.0
 10
32.97548240013393
 20
2.533688937192325
 30
0.0
 10
32.50116348197349
 20
2.326062154408178
 30
0.0
  0
SPLINE
  5
C4
330
1F
100
AcDbEntity
  8
0
  6
Continuous
 62
     1
370
    15
100
AcDbSpline
210
0.0
220
0.0
230
1.0
 70
     8
 71
     3
 72
    11
 73
     7
 74
     0
 42
0.000000001
 43
0.00000001
 40
0.0
 40
0.0
 40
0.0
 40
0.0
 40
0.0969567865882673
 40
0.3976310940965685
 40
0.6987653989760171
 40
1.0
 40
1.0
 40
1.0
 40
1.0
 10
14.32675398790151
 20
-3.952027137068302
 30
0.0
 10
14.18691833743252
 20
-3.969063637829847
 30
0.0
 10
13.61343601972938
 20
-4.038932315162947
 30
0.0
 10
12.60596826473699
 20
-4.059446985269561
 30
0.0
 10
11.3033592737206
 20
-4.017873995588145
 30
0.0
 10
10.43450131368478
 20
-3.902090475373292
 30
0.0
 10
10.00000000000001
 20
-3.844189076122341
 30
0.0
  0
SPLINE
  5
C5
330
1F
100
AcDbEntity
  8
0
  6
Continuous
 62
     1
370
    15
100
AcDbSpline
210
0.0
220
0.0
230
1.0
 70
     8
 71
     3
 72
    17
 73
    13
 74
     0
 42
0.000000001
 43
0.00000001
 40
0.0
 40
0.0
 40
0.0
 40
0.0
 40
0.0472282648368479
 40
0.1498286070162009
 40
0.252394666729866
 40
0.3549542267297688
 40
0.462422082895617
 40
0.5699122497475761
 40
0.6774355433015214
 40
0.7849893711183855
 40
0.8925110169927245
 40
1.0
 40
1.0
 40
1.0
 40
1.0
 10
25.31766536096629
 20
-3.564748143995184
 30
0.0
 10
25.07650812036013
 20
-3.606286812840663
 30
0.0
 10
24.31145241575797
 20
-3.738065545595833
 30
0.0
 10
23.02282156868527
 20
-3.819090472316308
 30
0.0
 10
21.45172068847654
 20
-3.806712258821206
 30
0.0
 10
19.85581837694369
 20
-3.646847190097623
 30
0.0
 10
18.23462143680772
 20
-3.346986264434586
 30
0.0
 10
16.58807106761437
 20
-2.908984087228554
 30
0.0
 10
14.94100832299875
 20
-2.355599758841863
 30
0.0
 10
13.29368408842616
 20
-1.708562379909216
 30
0.0
 10
11.64663982986556
 20
-0.9942356397025709
 30
0.0
 10
10.54882435254683
 20
-0.4899700635258767
 30
0.0
 10
10.0
 20
-0.2378755776358092
 30
0.0
  0
SPLINE
  5
C6
330
1F
100
AcDbEntity
  8
외형선
  6
Continuous
370
    15
100
AcDbSpline
210
0.0
220
0.0
230
1.0
 70
    24
 71
     3
 72
    14
 73
    10
 74
     0
 42
0.000000001
 43
0.00000001
 40
0.0
 40
0.0
 40
0.0
 40
0.0
 40
0.2499999999999999
 40
0.2499999999999999
 40
0.4999999999999999
 40
0.4999999999999999
 40
0.7499999999999999
 40
0.7499999999999999
 40
1.0
 40
1.0
 40
1.0
 40
1.0
 10
10.0
 20
-0.2378755776358093
 30
0.0
 10
10.0
 20
-0.5993444081513415
 30
0.0
 10
10.0
 20
-0.9624682170560964
 30
0.0
 10
10.0
 20
-1.66556808604857
 30
0.0
 10
10.0
 20
-2.00532962415949
 30
0.0
 10
10.0
 20
-2.63562225901391
 30
0.0
 10
10.0
 20
-2.92597134637769
 30
0.0
 10
10.0
 20
-3.438379098991282
 30
0.0
 10
10.0
 20
-3.660373401204346
 30
0.0
 10
10.0
 20
-3.844189076122337
 30
0.0
  0
SPLINE
  5
C7
330
1F
100
AcDbEntity
  8
외형선
  6
Continuous
370
    15
100
AcDbSpline
210
0.0
220
0.0
230
1.0
 70
    24
 71
     3
 72
    14
 73
    10
 74
     0
 42
0.000000001
 43
0.00000001
 40
0.0
 40
0.0
 40
0.0
 40
0.0
 40
0.25
 40
0.25
 40
0.5
 40
0.5
 40
0.75
 40
0.75
 40
1.0
 40
1.0
 40
1.0
 40
1.0
 10
10.0
 20
3.327246058277441
 30
0.0
 10
10.0
 20
3.211867944676897
 30
0.0
 10
10.0
 20
3.043043544975038
 30
0.0
 10
10.0
 20
2.599361244232457
 30
0.0
 10
10.0
 20
2.324512846374897
 30
0.0
 10
10.0
 20
1.690887945258757
 30
0.0
 10
10.0
 20
1.332449063838223
 30
0.0
 10
10.0
 20
0.5702600120953172
 30
0.0
 10
10.0
 20
0.1669667048737159
 30
0.0
 10
10.0
 20
-0.2378755776358095
 30
0.0
  0
LINE
  5
C8
330
1F
100
AcDbEntity
  8
0
  6
Continuous
 62
     1
370
    15
100
AcDbLine
 10
35.4
 20
0.0000000000000035
 30
0.0
 11
35.4
 21
3.333750000000003
 31
0.0
  0
SPLINE
  5
C9
330
1F
100
AcDbEntity
  8
0
  6
Continuous
 62
     1
370
    15
100
AcDbSpline
210
0.0
220
0.0
230
1.0
 70
     8
 71
     3
 72
    13
 73
     9
 74
     0
 42
0.000000001
 43
0.00000001
 40
0.0
 40
0.0
 40
0.0
 40
0.0
 40
0.080058583951029
 40
0.2640873845859383
 40
0.4479285758289256
 40
0.6318092840143672
 40
0.8159476253244786
 40
1.0
 40
1.0
 40
1.0
 40
1.0
 10
17.59324457598113
 20
-3.743451791022074
 30
0.0
 10
17.39057302001015
 20
-3.818365020443135
 30
0.0
 10
16.72202508292602
 20
-4.06547954398749
 30
0.0
 10
15.58823620949324
 20
-4.367304977240229
 30
0.0
 10
14.19201616393783
 20
-4.638479513270468
 30
0.0
 10
12.79550680658682
 20
-4.768064935717851
 30
0.0
 10
11.39778862439868
 20
-4.772351636038405
 30
0.0
 10
10.46585701109818
 20
-4.6603167964159
 30
0.0
 10
10.00000000000005
 20
-4.604312455774899
 30
0.0
  0
SPLINE
  5
CA
330
1F
100
AcDbEntity
  8
외형선
  6
Continuous
370
    15
100
AcDbSpline
210
0.0
220
0.0
230
1.0
 70
    24
 71
     3
 72
     8
 73
     4
 74
     0
 42
0.000000001
 43
0.00000001
 40
0.0
 40
0.0
 40
0.0
 40
0.0
 40
1.0
 40
1.0
 40
1.0
 40
1.0
 10
10.0
 20
-3.844189076122338
 30
0.0
 10
10.0
 20
-4.097561018767411
 30
0.0
 10
10.0
 20
-4.352563912922218
 30
0.0
 10
10.0
 20
-4.604312455773607
 30
0.0
  0
SPLINE
  5
CB
330
1F
100
AcDbEntity
  8
0
  6
Continuous
 62
     1
370
    15
100
AcDbSpline
210
0.0
220
0.0
230
1.0
 70
     8
 71
     3
 72
    12
 73
     8
 74
     0
 42
0.000000001
 43
0.00000001
 40
0.0
 40
0.0
 40
0.0
 40
0.0
 40
0.0985000795342332
 40
0.3194883547367139
 40
0.5421839576536944
 40
0.7701573018792329
 40
1.0
 40
1.0
 40
1.0
 40
1.0
 10
28.86540400867449
 20
3.191348130079991
 30
0.0
 10
29.08000455049483
 20
3.285287673663438
 30
0.0
 10
29.77606869943756
 20
3.589983775089046
 30
0.0
 10
30.9568698818703
 20
4.001967619285004
 30
0.0
 10
32.41966156767852
 20
4.404586863547754
 30
0.0
 10
33.90185968774302
 20
4.677265758065241
 30
0.0
 10
34.89926236479017
 20
4.731331537268371
 30
0.0
 10
35.39999999999952
 20
4.762500000000005
 30
0.0
  0
SPLINE
  5
CC
330
1F
100
AcDbEntity
  8
0
  6
Continuous
 62
     1
370
    15
100
AcDbSpline
210
0.0
220
0.0
230
1.0
 70
    24
 71
     3
 72
    10
 73
     6
 74
     0
 42
0.000000001
 43
0.00000001
 40
0.0
 40
0.0
 40
0.0
 40
0.0
 40
0.5
 40
0.5
 40
1.0
 40
1.0
 40
1.0
 40
1.0
 10
35.4
 20
3.33375
 30
0.0
 10
35.4
 20
3.535833623044832
 30
0.0
 10
35.39999999999999
 20
3.770673507979646
 30
0.0
 10
35.40000000000001
 20
4.263366954076075
 30
0.0
 10
35.4
 20
4.519962238004513
 30
0.0
 10
35.39999999999952
 20
4.762500000000005
 30
0.0
  0
LINE
  5
CD
330
1F
100
AcDbEntity
  8
중심선
 48
0.8
100
AcDbLine
 10
-31.1
 20
-0.0000000000000037
 30
0.0
 11
38.40000000000001
 21
0.0000000000000048
 31
0.0
  0
LINE
  5
CE
330
1F
100
AcDbEntity
  8
참조1
100
AcDbLine
 10
-0.3876846714922291
 20
0.0010749287238892
 30
0.0
 11
-0.3876846714922239
 21
-39.99892507127611
 31
0.0
  0
LINE
  5
CF
330
1F
100
AcDbEntity
  8
참조1
100
AcDbLine
 10
-0.3876846714922239
 20
-39.99892507127611
 30
0.0
 11
-15.54395731641845
 21
-39.9989250712761
 31
0.0
  0
CIRCLE
  5
D0
330
1F
100
AcDbEntity
  8
해칭선
100
AcDbCircle
 10
0.0
 20
0.0
 30
0.0
 40
3.000000000000001
  0
INSERT
  5
D1
330
1F
100
AcDbEntity
  8
0
  6
Continuous
 62
     7
100
AcDbBlockReference
 66
     1
  2
블럭10
 10
-10.2902729321252
 20
-52.04717430164393
 30
0.0
  0
ATTRIB
  5
D2
330
D1
100
AcDbEntity
  8
FORMAT
 62
     2
100
AcDbText
 10
-20.43190894426183
 20
-49.97180738881175
 30
0.0
 40
4.233333333333333
  1
EM154024 [ 2 FLUTE ]
 41
0.75
  7
SLDTEXTSTYLE0
 11
-20.43190894426183
 21
-52.08847405547841
 31
0.0
100
AcDbAttribute
  2
AUTOATTR0
 70
     0
 74
     1
  0
SEQEND
  5
D3
330
D1
100
AcDbEntity
  8
0
  6
Continuous
 62
     7
  0
HATCH
  5
D4
330
1F
100
AcDbEntity
  8
중심선
100
AcDbHatch
 10
0.0
 20
0.0
 30
0.0
210
0.0
220
0.0
230
1.0
  2
SOLID
 70
     1
 71
     0
 91
        1
 92
        0
 93
        4
 72
     1
 10
-4.575363627744359
 20
-35.8
 11
-8.021638871581642
 21
-35.8
 72
     1
 10
-8.021638871581642
 20
-35.8
 11
-10.14986873078569
 21
-38.3363255805726
 72
     1
 10
-10.14986873078569
 20
-38.3363255805726
 11
-6.703560401835233
 21
-38.33628615127011
 72
     1
 10
-6.703560401835233
 20
-38.33628615127011
 11
-4.575363627744359
 21
-35.8
 97
        0
 75
     0
 76
     1
 98
        1
 10
4.037684671492233
 20
-0.0010749287238929
  0
HATCH
  5
D5
330
1F
100
AcDbEntity
  8
중심선
100
AcDbHatch
 10
0.0
 20
0.0
 30
0.0
210
0.0
220
0.0
230
1.0
  2
SOLID
 70
     1
 71
     0
 91
        1
 92
        0
 93
        4
 72
     1
 10
0.4374003632916201
 20
-35.8
 11
-3.00887488054569
 21
-35.8
 72
     1
 10
-3.00887488054569
 20
-35.8
 11
-7.540012888903078
 21
-41.20000000000002
 72
     1
 10
-7.540012888903078
 20
-41.20000000000002
 11
-4.093737645065795
 21
-41.20000000000002
 72
     1
 10
-4.093737645065795
 20
-41.20000000000002
 11
0.4374003632916201
 21
-35.8
 97
        0
 75
     0
 76
     1
 98
        1
 10
4.037684671492233
 20
-0.0010749287238929
  0
HATCH
  5
D6
330
1F
100
AcDbEntity
  8
중심선
100
AcDbHatch
 10
0.0
 20
0.0
 30
0.0
210
0.0
220
0.0
230
1.0
  2
SOLID
 70
     1
 71
     0
 91
        1
 92
        0
 93
        4
 72
     1
 10
5.450164354327487
 20
-35.8
 11
2.003889110490372
 21
-35.8
 72
     1
 10
2.003889110490372
 20
-35.8
 11
-5.044547791398877
 21
-44.20000000000002
 72
     1
 10
-5.044547791398877
 20
-44.20000000000002
 11
-1.598272547561595
 21
-44.20000000000002
 72
     1
 10
-1.598272547561595
 20
-44.20000000000002
 11
5.450164354327488
 21
-35.8
 97
        0
 75
     0
 76
     1
 98
        1
 10
4.037684671492233
 20
-0.0010749287238929
  0
HATCH
  5
D7
330
1F
100
AcDbEntity
  8
중심선
100
AcDbHatch
 10
0.0
 20
0.0
 30
0.0
210
0.0
220
0.0
230
1.0
  2
SOLID
 70
     1
 71
     0
 91
        1
 92
        0
 93
        6
 72
     3
 10
10.25005478533969
 20
-40.00000000005127
 11
3.960054785062283
 21
1.540882976769353E-10
 40
0.3939339440162628
 50
17.09539180608437
 51
320.0019657685079
 73
     0
 72
     1
 10
11.93305444104028
 20
-38.5878940046383
 11
14.23835631474135
 21
-36.65356729459035
 72
     3
 10
10.25005478528684
 20
-40.00000000000015
 11
6.600054785286831
 21
-1.278976924368180E-13
 40
0.6363583540795978
 50
39.99873849337411
 51
368.4976242363725
 73
     1
 72
     1
 10
16.67538727718745
 20
-39.03999999993002
 11
8.930122092122762
 21
-39.03999999993
 72
     1
 10
8.930122092122762
 20
-39.03999999993
 11
8.930097047676828
 21
-40.95999999992991
 72
     1
 10
8.93009704767683
 20
-40.95999999992991
 11
13.37147681714887
 21
-40.95999999992988
 97
        0
 75
     0
 76
     1
 98
        1
 10
4.037684671492233
 20
-0.0010749287238929
  0
DIMENSION
  5
D8
330
1F
100
AcDbEntity
  8
치수문자_일반주서
100
AcDbDimension
  2
_D
 10
-40.52999999999997
 20
-4.762500000000053
 30
0.0
 11
-40.52999999999999
 21
0.000000000000002
 31
0.0
 70
   160
  1
%%c<>
 71
     2
 42
9.525000000000006
 52
-270.0
  3
SLDDIMSTYLE0
100
AcDbAlignedDimension
 13
-27.09999999999999
 23
4.762500000000003
 33
0.0
 14
-27.09999999999999
 24
-4.762500000000003
 34
0.0
 50
90.0000000000002
100
AcDbRotatedDimension
1001
ACAD
1000
DSTYLE
1002
{
1070
   171
1070
     6
1070
   273
1070
     7
1002
}
  0
DIMENSION
  5
ED
330
1F
100
AcDbEntity
  8
치수문자_일반주서
100
AcDbDimension
  2
_D_1
 10
48.9430079054165
 20
-4.762499999999942
 30
0.0
 11
48.94300790541639
 21
24.71025000000005
 31
0.0
 70
   160
  1
%%c<>
 71
     2
 42
9.524999999999997
 52
-270.0
  3
SLDDIMSTYLE0
100
AcDbAlignedDimension
 13
35.39999999999952
 23
4.762500000000005
 33
0.0
 14
35.4
 24
-4.762499999999992
 34
0.0
 50
90.0000000000002
100
AcDbRotatedDimension
1001
ACAD
1000
DSTYLE
1002
{
1070
   171
1070
     6
1070
   273
1070
     7
1002
}
  0
DIMENSION
  5
101
330
1F
100
AcDbEntity
  8
치수문자_일반주서
100
AcDbDimension
  2
_D_2
 10
10.0
 20
26.36562500000005
 30
0.0
 11
-7.978999999999999
 21
26.36562500000005
 31
0.0
 70
   160
  1
<>
 71
     2
 42
25.39999999999952
  3
SLDDIMSTYLE0
100
AcDbAlignedDimension
 13
35.39999999999952
 23
4.762500000000005
 33
0.0
 14
10.0
 24
3.327246058277441
 34
0.0
 50
0.0000000000000561
100
AcDbRotatedDimension
1001
ACAD
1000
DSTYLE
1002
{
1070
   171
1070
     6
1070
   273
1070
     7
1002
}
  0
DIMENSION
  5
116
330
1F
100
AcDbEntity
  8
치수문자_일반주서
100
AcDbDimension
  2
_D_3
 10
-28.1
 20
41.1896784401339
 30
0.0
 11
3.649999999999971
 21
41.1896784401339
 31
0.0
 70
   160
  1
<>
 71
     2
 42
63.49999999999953
  3
SLDDIMSTYLE0
100
AcDbAlignedDimension
 13
35.39999999999952
 23
4.762500000000005
 33
0.0
 14
-28.1
 24
3.762499999999996
 34
0.0
 50
0.0000000000000513
100
AcDbRotatedDimension
1001
ACAD
1000
DSTYLE
1002
{
1070
   171
1070
     6
1070
   273
1070
     7
1002
}
  0
LINE
  5
129
330
1F
100
AcDbEntity
  8
참조1
100
AcDbLine
 10
82.42838331323583
 20
7.441074928723896
 30
0.0
 11
82.42838331323583
 21
-7.438925071276109
 31
0.0
  0
LINE
  5
12A
330
1F
100
AcDbEntity
  8
참조1
100
AcDbLine
 10
95.12838331323583
 20
5.441074928723896
 30
0.0
 11
82.42838331323583
 21
5.441074928723896
 31
0.0
  0
SOLID
  5
12B
330
1F
100
AcDbEntity
  8
참조1
100
AcDbTrace
 10
82.42838331323583
 20
5.441074928723896
 30
0.0
 11
88.77838331323582
 21
4.425074928723896
 31
0.0
 12
88.77838331323582
 22
6.457074928723896
 32
0.0
 13
88.77838331323582
 23
6.457074928723896
 33
0.0
  0
LINE
  5
12C
330
1F
100
AcDbEntity
  8
참조1
100
AcDbLine
 10
95.12838331323583
 20
-5.438925071276109
 30
0.0
 11
82.42838331323583
 21
-5.438925071276109
 31
0.0
  0
SOLID
  5
12D
330
1F
100
AcDbEntity
  8
참조1
100
AcDbTrace
 10
82.42838331323583
 20
-5.438925071276109
 30
0.0
 11
88.77838331323582
 21
-6.454925071276109
 31
0.0
 12
88.77838331323582
 22
-4.422925071276109
 32
0.0
 13
88.77838331323582
 23
-4.422925071276109
 33
0.0
  0
MTEXT
  5
12E
330
1F
100
AcDbEntity
  8
참조1
100
AcDbMText
 10
91.82587340570609
 20
10.98929157337383
 30
0.0
 40
3.5
 41
0.0
 71
     1
 72
     1
  1
A
  7
SLDTEXTSTYLE0
 73
     1
 44
1.0
  0
MTEXT
  5
12F
330
1F
100
AcDbEntity
  8
참조1
100
AcDbMText
 10
91.82587340570609
 20
0.1092915733738259
 30
0.0
 40
3.5
 41
0.0
 71
     1
 72
     1
  1
A
  7
SLDTEXTSTYLE0
 73
     1
 44
1.0
  0
INSERT
  5
136
330
1F
100
AcDbEntity
  8
해칭선
100
AcDbBlockReference
  2
SW_DOWELSYMBOL_0
 10
0.0
 20
0.0
 30
0.0
  0
ENDSEC
  0
SECTION
  2
OBJECTS
  0
DICTIONARY
  5
C
330
0
100
AcDbDictionary
281
     1
  3
ACAD_GROUP
350
D
  3
ACAD_IMAGE_VARS
350
15A
  3
ACAD_LAYOUT
350
1A
  3
ACAD_MLINESTYLE
350
17
  3
ACAD_PLOTSETTINGS
350
19
  3
ACAD_PLOTSTYLENAME
350
E
  3
ACAD_SCALELIST
350
47
  3
APPDATA
350
158
  3
DWGPROPS
350
18F
  0
DICTIONARY
  5
181
330
2
100
AcDbDictionary
280
     1
281
     1
  3
ACAD_LAYERSTATES
360
182
  0
DICTIONARY
  5
D
102
{ACAD_REACTORS
330
C
102
}
330
C
100
AcDbDictionary
281
     1
  0
RASTERVARIABLES
  5
15A
102
{ACAD_REACTORS
330
C
102
}
330
C
100
AcDbRasterVariables
 90
        0
 70
     1
 71
     1
 72
     1
  0
DICTIONARY
  5
1A
102
{ACAD_REACTORS
330
C
102
}
330
C
100
AcDbDictionary
281
     1
  3
Layout1
350
1E
  3
Layout2
350
26
  3
Model
350
22
  0
DICTIONARY
  5
17
102
{ACAD_REACTORS
330
C
102
}
330
C
100
AcDbDictionary
281
     1
  3
Standard
350
18
  0
DICTIONARY
  5
19
102
{ACAD_REACTORS
330
C
102
}
330
C
100
AcDbDictionary
281
     1
  0
ACDBDICTIONARYWDFLT
  5
E
102
{ACAD_REACTORS
330
C
102
}
330
C
100
AcDbDictionary
281
     1
  3
Normal
350
F
100
AcDbDictionaryWithDefault
340
F
  0
DICTIONARY
  5
47
102
{ACAD_REACTORS
330
C
102
}
330
C
100
AcDbDictionary
281
     1
  3
A0
350
48
  3
A1
350
49
  3
A2
350
4A
  3
A3
350
4B
  3
A4
350
4C
  3
A5
350
4D
  3
A6
350
4E
  3
A7
350
4F
  3
A8
350
50
  3
A9
350
51
  3
B0
350
52
  3
B1
350
53
  3
B2
350
54
  3
B3
350
55
  3
B4
350
56
  3
B5
350
57
  3
B6
350
58
  3
B7
350
59
  3
B8
350
5A
  3
B9
350
5B
  3
C0
350
5C
  3
C1
350
5D
  3
C2
350
5E
  3
C3
350
5F
  3
C4
350
60
  3
C5
350
61
  3
C6
350
62
  3
C7
350
63
  3
C8
350
64
  3
C9
350
65
  3
D0
350
66
  3
D1
350
67
  3
D2
350
68
  0
DICTIONARY
  5
158
102
{ACAD_REACTORS
330
C
102
}
330
C
100
AcDbDictionary
281
     1
  0
XRECORD
  5
18F
102
{ACAD_REACTORS
330
C
102
}
330
C
100
AcDbXrecord
280
     1
  1
DWGPROPS COOKIE
  2

  3

  4

  6

  7

  8
12017012
  9

300
=
301
=
302
=
303
=
304
=
305
=
306
=
307
=
308
=
309
=
 40
0.0
 41
2458288.370509479
 42
2458294.312225509
  1

 90
        0
  0
DICTIONARY
  5
182
102
{ACAD_REACTORS
330
181
102
}
330
181
100
AcDbDictionary
281
     1
  0
LAYOUT
  5
1E
102
{ACAD_REACTORS
330
1A
102
}
330
1A
100
AcDbPlotSettings
  1

  2
none_device
  4

  6

 40
0.0
 41
0.0
 42
0.0
 43
0.0
 44
0.0
 45
0.0
 46
0.0
 47
0.0
 48
0.0
 49
0.0
140
0.0
141
0.0
142
1.0
143
1.0
 70
   688
 72
     1
 73
     0
 74
     5
  7

 75
    16
147
1.0
148
0.0
149
0.0
100
AcDbLayout
  1
Layout1
 70
     1
 71
     1
 10
0.0
 20
0.0
 11
420.0
 21
297.0
 12
0.0
 22
0.0
 32
0.0
 14
1.000000000000000E+20
 24
1.000000000000000E+20
 34
1.000000000000000E+20
 15
-1.000000000000000E+20
 25
-1.000000000000000E+20
 35
-1.000000000000000E+20
146
0.0
 13
0.0
 23
0.0
 33
0.0
 16
1.0
 26
0.0
 36
0.0
 17
0.0
 27
1.0
 37
0.0
 76
     0
330
1B
  0
LAYOUT
  5
26
102
{ACAD_REACTORS
330
1A
102
}
330
1A
100
AcDbPlotSettings
  1

  2
none_device
  4

  6

 40
0.0
 41
0.0
 42
0.0
 43
0.0
 44
0.0
 45
0.0
 46
0.0
 47
0.0
 48
0.0
 49
0.0
140
0.0
141
0.0
142
1.0
143
1.0
 70
   688
 72
     1
 73
     0
 74
     5
  7

 75
    16
147
1.0
148
0.0
149
0.0
100
AcDbLayout
  1
Layout2
 70
     1
 71
     2
 10
0.0
 20
0.0
 11
0.0
 21
0.0
 12
0.0
 22
0.0
 32
0.0
 14
0.0
 24
0.0
 34
0.0
 15
0.0
 25
0.0
 35
0.0
146
0.0
 13
0.0
 23
0.0
 33
0.0
 16
1.0
 26
0.0
 36
0.0
 17
0.0
 27
1.0
 37
0.0
 76
     0
330
23
  0
LAYOUT
  5
22
102
{ACAD_REACTORS
330
1A
102
}
330
1A
100
AcDbPlotSettings
  1

  2
none_device
  4
ANSI_A_(11.00_x_8.50_Inches)
  6

 40
6.35
 41
19.05
 42
6.35000508
 43
19.05000254
 44
279.4
 45
215.9
 46
95.36355073298958
 47
86.36194846609415
 48
0.0
 49
0.0
140
0.0
141
0.0
142
0.0713408633439861
143
1.0
 70
  1696
 72
     0
 73
     0
 74
     0
  7

 75
     0
147
0.0235690232323232
148
0.0
149
0.0
100
AcDbLayout
  1
Model
 70
     1
 71
     0
 10
0.0
 20
0.0
 11
420.0
 21
297.0
 12
0.0
 22
0.0
 32
0.0
 14
1.000000000000000E+20
 24
1.000000000000000E+20
 34
1.000000000000000E+20
 15
-1.000000000000000E+20
 25
-1.000000000000000E+20
 35
-1.000000000000000E+20
146
0.0
 13
0.0
 23
0.0
 33
0.0
 16
1.0
 26
0.0
 36
0.0
 17
0.0
 27
1.0
 37
0.0
 76
     0
330
1F
331
29
  0
MLINESTYLE
  5
18
102
{ACAD_REACTORS
330
17
102
}
330
17
100
AcDbMlineStyle
  2
Standard
 70
     0
  3

 62
   256
 51
90.0
 52
90.0
 71
     2
 49
0.5
 62
   256
  6
BYLAYER
 49
-0.5
 62
   256
  6
BYLAYER
  0
ACDBPLACEHOLDER
  5
F
102
{ACAD_REACTORS
330
E
102
}
330
E
  0
SCALE
  5
48
102
{ACAD_REACTORS
330
47
102
}
330
47
100
AcDbScale
 70
     0
300
1:1
140
1.0
141
1.0
290
     1
  0
SCALE
  5
49
102
{ACAD_REACTORS
330
47
102
}
330
47
100
AcDbScale
 70
     0
300
1:2
140
1.0
141
2.0
290
     0
  0
SCALE
  5
4A
102
{ACAD_REACTORS
330
47
102
}
330
47
100
AcDbScale
 70
     0
300
1:4
140
1.0
141
4.0
290
     0
  0
SCALE
  5
4B
102
{ACAD_REACTORS
330
47
102
}
330
47
100
AcDbScale
 70
     0
300
1:5
140
1.0
141
5.0
290
     0
  0
SCALE
  5
4C
102
{ACAD_REACTORS
330
47
102
}
330
47
100
AcDbScale
 70
     0
300
1:8
140
1.0
141
8.0
290
     0
  0
SCALE
  5
4D
102
{ACAD_REACTORS
330
47
102
}
330
47
100
AcDbScale
 70
     0
300
1:10
140
1.0
141
10.0
290
     0
  0
SCALE
  5
4E
102
{ACAD_REACTORS
330
47
102
}
330
47
100
AcDbScale
 70
     0
300
1:16
140
1.0
141
16.0
290
     0
  0
SCALE
  5
4F
102
{ACAD_REACTORS
330
47
102
}
330
47
100
AcDbScale
 70
     0
300
1:20
140
1.0
141
20.0
290
     0
  0
SCALE
  5
50
102
{ACAD_REACTORS
330
47
102
}
330
47
100
AcDbScale
 70
     0
300
1:30
140
1.0
141
30.0
290
     0
  0
SCALE
  5
51
102
{ACAD_REACTORS
330
47
102
}
330
47
100
AcDbScale
 70
     0
300
1:40
140
1.0
141
40.0
290
     0
  0
SCALE
  5
52
102
{ACAD_REACTORS
330
47
102
}
330
47
100
AcDbScale
 70
     0
300
1:50
140
1.0
141
50.0
290
     0
  0
SCALE
  5
53
102
{ACAD_REACTORS
330
47
102
}
330
47
100
AcDbScale
 70
     0
300
1:100
140
1.0
141
100.0
290
     0
  0
SCALE
  5
54
102
{ACAD_REACTORS
330
47
102
}
330
47
100
AcDbScale
 70
     0
300
2:1
140
2.0
141
1.0
290
     0
  0
SCALE
  5
55
102
{ACAD_REACTORS
330
47
102
}
330
47
100
AcDbScale
 70
     0
300
4:1
140
4.0
141
1.0
290
     0
  0
SCALE
  5
56
102
{ACAD_REACTORS
330
47
102
}
330
47
100
AcDbScale
 70
     0
300
8:1
140
8.0
141
1.0
290
     0
  0
SCALE
  5
57
102
{ACAD_REACTORS
330
47
102
}
330
47
100
AcDbScale
 70
     0
300
10:1
140
10.0
141
1.0
290
     0
  0
SCALE
  5
58
102
{ACAD_REACTORS
330
47
102
}
330
47
100
AcDbScale
 70
     0
300
100:1
140
100.0
141
1.0
290
     0
  0
SCALE
  5
59
102
{ACAD_REACTORS
330
47
102
}
330
47
100
AcDbScale
 70
     0
300
1/128" = 1'-0"
140
0.0078125
141
12.0
290
     0
  0
SCALE
  5
5A
102
{ACAD_REACTORS
330
47
102
}
330
47
100
AcDbScale
 70
     0
300
1/64" = 1'-0"
140
0.015625
141
12.0
290
     0
  0
SCALE
  5
5B
102
{ACAD_REACTORS
330
47
102
}
330
47
100
AcDbScale
 70
     0
300
1/32" = 1'-0"
140
0.03125
141
12.0
290
     0
  0
SCALE
  5
5C
102
{ACAD_REACTORS
330
47
102
}
330
47
100
AcDbScale
 70
     0
300
1/16" = 1'-0"
140
0.0625
141
12.0
290
     0
  0
SCALE
  5
5D
102
{ACAD_REACTORS
330
47
102
}
330
47
100
AcDbScale
 70
     0
300
3/32" = 1'-0"
140
0.09375
141
12.0
290
     0
  0
SCALE
  5
5E
102
{ACAD_REACTORS
330
47
102
}
330
47
100
AcDbScale
 70
     0
300
1/8" = 1'-0"
140
0.125
141
12.0
290
     0
  0
SCALE
  5
5F
102
{ACAD_REACTORS
330
47
102
}
330
47
100
AcDbScale
 70
     0
300
3/16" = 1'-0"
140
0.1875
141
12.0
290
     0
  0
SCALE
  5
60
102
{ACAD_REACTORS
330
47
102
}
330
47
100
AcDbScale
 70
     0
300
1/4" = 1'-0"
140
0.25
141
12.0
290
     0
  0
SCALE
  5
61
102
{ACAD_REACTORS
330
47
102
}
330
47
100
AcDbScale
 70
     0
300
3/8" = 1'-0"
140
0.375
141
12.0
290
     0
  0
SCALE
  5
62
102
{ACAD_REACTORS
330
47
102
}
330
47
100
AcDbScale
 70
     0
300
1/2" = 1'-0"
140
0.5
141
12.0
290
     0
  0
SCALE
  5
63
102
{ACAD_REACTORS
330
47
102
}
330
47
100
AcDbScale
 70
     0
300
3/4" = 1'-0"
140
0.75
141
12.0
290
     0
  0
SCALE
  5
64
102
{ACAD_REACTORS
330
47
102
}
330
47
100
AcDbScale
 70
     0
300
1" = 1'-0"
140
1.0
141
12.0
290
     0
  0
SCALE
  5
65
102
{ACAD_REACTORS
330
47
102
}
330
47
100
AcDbScale
 70
     0
300
1-1/2" = 1'-0"
140
1.5
141
12.0
290
     0
  0
SCALE
  5
66
102
{ACAD_REACTORS
330
47
102
}
330
47
100
AcDbScale
 70
     0
300
3" = 1'-0"
140
3.0
141
12.0
290
     0
  0
SCALE
  5
67
102
{ACAD_REACTORS
330
47
102
}
330
47
100
AcDbScale
 70
     0
300
6" = 1'-0"
140
6.0
141
12.0
290
     0
  0
SCALE
  5
68
102
{ACAD_REACTORS
330
47
102
}
330
47
100
AcDbScale
 70
     0
300
1'-0" = 1'-0"
140
12.0
141
12.0
290
     0
  0
ENDSEC
  0
EOF
