  0
SECTION
  2
HEADER
  9
$ACADVER
  1
AC1015
  9
$ACADMAINTVER
 70
     6
  9
$DWGCODEPAGE
  3
ANSI_949
  9
$INSBASE
 10
0.0
 20
0.0
 30
0.0
  9
$EXTMIN
 10
-55.60500000000003
 20
-49.97180738881174
 30
0.0
  9
$EXTMAX
 10
95.12838331323583
 20
46.67592844013392
 30
0.0
  9
$LIMMIN
 10
0.0
 20
0.0
  9
$LIMMAX
 10
420.0
 20
297.0
  9
$ORTHOMODE
 70
     1
  9
$REGENMODE
 70
     1
  9
$FILLMODE
 70
     1
  9
$QTEXTMODE
 70
     0
  9
$MIRRTEXT
 70
     1
  9
$LTSCALE
 40
1.0
  9
$ATTMODE
 70
     1
  9
$TEXTSIZE
 40
3.5
  9
$TRACEWID
 40
1.0
  9
$TEXTSTYLE
  7
Standard
  9
$CLAYER
  8
0
  9
$CELTYPE
  6
ByLayer
  9
$CECOLOR
 62
   256
  9
$CELTSCALE
 40
1.0
  9
$DISPSILH
 70
     0
  9
$DIMSCALE
 40
1.0
  9
$DIMASZ
 40
3.302
  9
$DIMEXO
 40
1.0
  9
$DIMDLI
 40
3.75
  9
$DIMRND
 40
0.0
  9
$DIMDLE
 40
0.0
  9
$DIMEXE
 40
1.0
  9
$DIMTP
 40
0.0
  9
$DIMTM
 40
0.0
  9
$DIMTXT
 40
3.5
  9
$DIMCEN
 40
2.5
  9
$DIMTSZ
 40
0.0
  9
$DIMTOL
 70
     0
  9
$DIMLIM
 70
     0
  9
$DIMTIH
 70
     1
  9
$DIMTOH
 70
     1
  9
$DIMSE1
 70
     0
  9
$DIMSE2
 70
     0
  9
$DIMTAD
 70
     1
  9
$DIMZIN
 70
     0
  9
$DIMBLK
  1

  9
$DIMASO
 70
     1
  9
$DIMSHO
 70
     1
  9
$DIMPOST
  1

  9
$DIMAPOST
  1

  9
$DIMALT
 70
     0
  9
$DIMALTD
 70
     3
  9
$DIMALTF
 40
0.0393700787401575
  9
$DIMLFAC
 40
1.0
  9
$DIMTOFL
 70
     1
  9
$DIMTVP
 40
0.0
  9
$DIMTIX
 70
     0
  9
$DIMSOXD
 70
     0
  9
$DIMSAH
 70
     0
  9
$DIMBLK1
  1

  9
$DIMBLK2
  1

  9
$DIMSTYLE
  2
ISO-25
  9
$DIMCLRD
 70
     0
  9
$DIMCLRE
 70
     0
  9
$DIMCLRT
 70
     0
  9
$DIMTFAC
 40
1.0
  9
$DIMGAP
 40
1.524
  9
$DIMJUST
 70
     0
  9
$DIMSD1
 70
     0
  9
$DIMSD2
 70
     0
  9
$DIMTOLJ
 70
     0
  9
$DIMTZIN
 70
     0
  9
$DIMALTZ
 70
     0
  9
$DIMALTTZ
 70
     0
  9
$DIMUPT
 70
     0
  9
$DIMDEC
 70
     2
  9
$DIMTDEC
 70
     2
  9
$DIMALTU
 70
     2
  9
$DIMALTTD
 70
     3
  9
$DIMTXSTY
  7
Standard
  9
$DIMAUNIT
 70
     0
  9
$DIMADEC
 70
     2
  9
$DIMALTRND
 40
0.0
  9
$DIMAZIN
 70
     0
  9
$DIMDSEP
 70
    44
  9
$DIMATFIT
 70
     3
  9
$DIMFRAC
 70
     0
  9
$DIMLDRBLK
  1

  9
$DIMLUNIT
 70
     2
  9
$DIMLWD
 70
    -2
  9
$DIMLWE
 70
    -2
  9
$DIMTMOVE
 70
     0
  9
$LUNITS
 70
     2
  9
$LUPREC
 70
     2
  9
$SKETCHINC
 40
1.0
  9
$FILLETRAD
 40
10.0
  9
$AUNITS
 70
     0
  9
$AUPREC
 70
     2
  9
$MENU
  1
.
  9
$ELEVATION
 40
0.0
  9
$PELEVATION
 40
0.0
  9
$THICKNESS
 40
0.0
  9
$LIMCHECK
 70
     0
  9
$CHAMFERA
 40
0.0
  9
$CHAMFERB
 40
0.0
  9
$CHAMFERC
 40
0.0
  9
$CHAMFERD
 40
0.0
  9
$SKPOLY
 70
     0
  9
$TDCREATE
 40
2458288.745887558
  9
$TDUCREATE
 40
2458288.370887558
  9
$TDUPDATE
 40
2458294.706757998
  9
$TDUUPDATE
 40
2458294.331757998
  9
$TDINDWG
 40
0.001676875
  9
$TDUSRTIMER
 40
2458294.331360995
  9
$USRTIMER
 70
     1
  9
$ANGBASE
 50
0.0
  9
$ANGDIR
 70
     0
  9
$PDMODE
 70
     0
  9
$PDSIZE
 40
-1.0
  9
$PLINEWID
 40
0.0
  9
$SPLFRAME
 70
     0
  9
$SPLINETYPE
 70
     6
  9
$SPLINESEGS
 70
     8
  9
$HANDSEED
  5
1AE
  9
$SURFTAB1
 70
     6
  9
$SURFTAB2
 70
     6
  9
$SURFTYPE
 70
     6
  9
$SURFU
 70
     6
  9
$SURFV
 70
     6
  9
$UCSBASE
  2

  9
$UCSNAME
  2

  9
$UCSORG
 10
0.0
 20
0.0
 30
0.0
  9
$UCSXDIR
 10
1.0
 20
0.0
 30
0.0
  9
$UCSYDIR
 10
0.0
 20
1.0
 30
0.0
  9
$UCSORTHOREF
  2

  9
$UCSORTHOVIEW
 70
     0
  9
$UCSORGTOP
 10
0.0
 20
0.0
 30
0.0
  9
$UCSORGBOTTOM
 10
0.0
 20
0.0
 30
0.0
  9
$UCSORGLEFT
 10
0.0
 20
0.0
 30
0.0
  9
$UCSORGRIGHT
 10
0.0
 20
0.0
 30
0.0
  9
$UCSORGFRONT
 10
0.0
 20
0.0
 30
0.0
  9
$UCSORGBACK
 10
0.0
 20
0.0
 30
0.0
  9
$PUCSBASE
  2

  9
$PUCSNAME
  2

  9
$PUCSORG
 10
0.0
 20
0.0
 30
0.0
  9
$PUCSXDIR
 10
1.0
 20
0.0
 30
0.0
  9
$PUCSYDIR
 10
0.0
 20
1.0
 30
0.0
  9
$PUCSORTHOREF
  2

  9
$PUCSORTHOVIEW
 70
     0
  9
$PUCSORGTOP
 10
0.0
 20
0.0
 30
0.0
  9
$PUCSORGBOTTOM
 10
0.0
 20
0.0
 30
0.0
  9
$PUCSORGLEFT
 10
0.0
 20
0.0
 30
0.0
  9
$PUCSORGRIGHT
 10
0.0
 20
0.0
 30
0.0
  9
$PUCSORGFRONT
 10
0.0
 20
0.0
 30
0.0
  9
$PUCSORGBACK
 10
0.0
 20
0.0
 30
0.0
  9
$USERI1
 70
     0
  9
$USERI2
 70
     0
  9
$USERI3
 70
     0
  9
$USERI4
 70
     0
  9
$USERI5
 70
     0
  9
$USERR1
 40
0.0
  9
$USERR2
 40
0.0
  9
$USERR3
 40
0.0
  9
$USERR4
 40
0.0
  9
$USERR5
 40
0.0
  9
$WORLDVIEW
 70
     1
  9
$SHADEDGE
 70
     3
  9
$SHADEDIF
 70
    70
  9
$TILEMODE
 70
     1
  9
$MAXACTVP
 70
    64
  9
$PINSBASE
 10
0.0
 20
0.0
 30
0.0
  9
$PLIMCHECK
 70
     0
  9
$PEXTMIN
 10
1.000000000000000E+20
 20
1.000000000000000E+20
 30
1.000000000000000E+20
  9
$PEXTMAX
 10
-1.000000000000000E+20
 20
-1.000000000000000E+20
 30
-1.000000000000000E+20
  9
$PLIMMIN
 10
0.0
 20
0.0
  9
$PLIMMAX
 10
0.0
 20
0.0
  9
$UNITMODE
 70
     0
  9
$VISRETAIN
 70
     1
  9
$PLINEGEN
 70
     0
  9
$PSLTSCALE
 70
     1
  9
$TREEDEPTH
 70
  3020
  9
$CMLSTYLE
  2
Standard
  9
$CMLJUST
 70
     0
  9
$CMLSCALE
 40
20.0
  9
$PROXYGRAPHICS
 70
     1
  9
$MEASUREMENT
 70
     1
  9
$CELWEIGHT
370
    -1
  9
$ENDCAPS
280
     0
  9
$JOINSTYLE
280
     0
  9
$LWDISPLAY
290
     1
  9
$INSUNITS
 70
     4
  9
$HYPERLINKBASE
  1

  9
$STYLESHEET
  1

  9
$XEDIT
290
     1
  9
$CEPSNTYPE
380
     0
  9
$PSTYLEMODE
290
     1
  9
$FINGERPRINTGUID
  2
{C2D4F06C-C4EC-472D-A14D-F47FC02F24B5}
  9
$VERSIONGUID
  2
{FAEB1C32-E019-11D5-929B-00C0DF256EC4}
  9
$EXTNAMES
290
     1
  9
$PSVPSCALE
 40
0.0
  9
$OLESTARTUP
290
     0
  0
ENDSEC
  0
SECTION
  2
CLASSES
  0
CLASS
  1
ACDBDICTIONARYWDFLT
  2
AcDbDictionaryWithDefault
  3
ObjectDBX Classes
 90
        0
280
     0
281
     0
  0
CLASS
  1
VISUALSTYLE
  2
AcDbVisualStyle
  3
ObjectDBX Classes
 90
     4095
280
     0
281
     0
  0
CLASS
  1
MATERIAL
  2
AcDbMaterial
  3
ObjectDBX Classes
 90
     1153
280
     0
281
     0
  0
CLASS
  1
SCALE
  2
AcDbScale
  3
ObjectDBX Classes
 90
     1153
280
     0
281
     0
  0
CLASS
  1
SUN
  2
AcDbSun
  3
SCENEOE
 90
     1153
280
     0
281
     0
  0
CLASS
  1
ACDBPLACEHOLDER
  2
AcDbPlaceHolder
  3
ObjectDBX Classes
 90
        0
280
     0
281
     0
  0
CLASS
  1
LAYOUT
  2
AcDbLayout
  3
ObjectDBX Classes
 90
        0
280
     0
281
     0
  0
CLASS
  1
TABLESTYLE
  2
AcDbTableStyle
  3
ObjectDBX Classes
 90
     4095
280
     0
281
     0
  0
CLASS
  1
MLEADERSTYLE
  2
AcDbMLeaderStyle
  3
ACDB_MLEADERSTYLE_CLASS
 90
     4095
280
     0
281
     0
  0
CLASS
  1
RASTERVARIABLES
  2
AcDbRasterVariables
  3
ISM
 90
        0
280
     0
281
     0
  0
ENDSEC
  0
SECTION
  2
TABLES
  0
TABLE
  2
VPORT
  5
8
330
0
100
AcDbSymbolTable
 70
     1
  0
VPORT
  5
29
330
8
100
AcDbSymbolTableRecord
100
AcDbViewportTableRecord
  2
*Active
 70
     0
 10
0.0
 20
0.0
 11
1.0
 21
1.0
 12
-11.23914889649447
 22
18.93857355977832
 13
0.0
 23
0.0
 14
10.0
 24
10.0
 15
10.0
 25
10.0
 16
0.0
 26
0.0
 36
1.0
 17
0.0
 27
0.0
 37
0.0
 40
135.921842318966
 41
1.859099804305284
 42
50.0
 43
0.0
 44
0.0
 50
0.0
 51
0.0
 71
    16
 72
  2000
 73
     1
 74
     3
 75
     0
 76
     0
 77
     0
 78
     0
281
     0
 65
     1
110
0.0
120
0.0
130
0.0
111
1.0
121
0.0
131
0.0
112
0.0
122
1.0
132
0.0
 79
     0
146
0.0
  0
ENDTAB
  0
TABLE
  2
LTYPE
  5
5
330
0
100
AcDbSymbolTable
 70
     6
  0
LTYPE
  5
14
330
5
100
AcDbSymbolTableRecord
100
AcDbLinetypeTableRecord
  2
ByBlock
 70
     0
  3

 72
    65
 73
     0
 40
0.0
  0
LTYPE
  5
15
330
5
100
AcDbSymbolTableRecord
100
AcDbLinetypeTableRecord
  2
ByLayer
 70
     0
  3

 72
    65
 73
     0
 40
0.0
  0
LTYPE
  5
16
330
5
100
AcDbSymbolTableRecord
100
AcDbLinetypeTableRecord
  2
Continuous
 70
     0
  3
Solid line
 72
    65
 73
     0
 40
0.0
  0
LTYPE
  5
6A
330
5
100
AcDbSymbolTableRecord
100
AcDbLinetypeTableRecord
  2
HIDDEN
 70
     0
  3
Hidden __ __ __ __ __ __ __ __ __ __ __ __ __ __
 72
    65
 73
     2
 40
1.905
 49
1.27
 74
     0
 49
-0.635
 74
     0
  0
LTYPE
  5
6B
330
5
100
AcDbSymbolTableRecord
100
AcDbLinetypeTableRecord
  2
PHANTOM
 70
     0
  3
Phantom ______  __  __  ______  __  __  ______
 72
    65
 73
     6
 40
12.7
 49
6.35
 74
     0
 49
-1.27
 74
     0
 49
1.27
 74
     0
 49
-1.27
 74
     0
 49
1.27
 74
     0
 49
-1.27
 74
     0
  0
LTYPE
  5
6C
330
5
100
AcDbSymbolTableRecord
100
AcDbLinetypeTableRecord
  2
CENTER
 70
     0
  3
Center ____ _ ____ _ ____ _ ____ _ ____ _ ____
 72
    65
 73
     4
 40
10.16
 49
6.35
 74
     0
 49
-1.27
 74
     0
 49
1.27
 74
     0
 49
-1.27
 74
     0
  0
LTYPE
  5
6D
330
5
100
AcDbSymbolTableRecord
100
AcDbLinetypeTableRecord
  2
CENTERX2
 70
     0
  3
Center (2x) ________  __  ________  __  _____
 72
    65
 73
     4
 40
20.32
 49
12.7
 74
     0
 49
-2.54
 74
     0
 49
2.54
 74
     0
 49
-2.54
 74
     0
  0
LTYPE
  5
6E
330
5
100
AcDbSymbolTableRecord
100
AcDbLinetypeTableRecord
  2
DOT2
 70
     0
  3
Dot (.5x) ........................................
 72
    65
 73
     2
 40
0.635
 49
0.0
 74
     0
 49
-0.635
 74
     0
  0
ENDTAB
  0
TABLE
  2
LAYER
  5
2
102
{ACAD_XDICTIONARY
360
17C
102
}
330
0
100
AcDbSymbolTable
 70
    18
  0
LAYER
  5
10
330
2
100
AcDbSymbolTableRecord
100
AcDbLayerTableRecord
  2
0
 70
     0
 62
     7
  6
Continuous
370
    -3
390
F
  0
LAYER
  5
6F
330
2
100
AcDbSymbolTableRecord
100
AcDbLayerTableRecord
  2
FORMAT
 70
     0
 62
     2
  6
Continuous
370
    -3
390
F
  0
LAYER
  5
70
330
2
100
AcDbSymbolTableRecord
100
AcDbLayerTableRecord
  2
외형선
 70
     0
 62
     4
  6
Continuous
370
    30
390
F
  0
LAYER
  5
71
330
2
100
AcDbSymbolTableRecord
100
AcDbLayerTableRecord
  2
숨은선
 70
     0
 62
     2
  6
HIDDEN
370
    15
390
F
  0
LAYER
  5
72
330
2
100
AcDbSymbolTableRecord
100
AcDbLayerTableRecord
  2
중심선
 70
     0
 62
     1
  6
CENTERX2
370
    -3
390
F
  0
LAYER
  5
73
330
2
100
AcDbSymbolTableRecord
100
AcDbLayerTableRecord
  2
파단선
 70
     0
 62
     4
  6
Continuous
370
    -3
390
F
  0
LAYER
  5
74
330
2
100
AcDbSymbolTableRecord
100
AcDbLayerTableRecord
  2
해칭선
 70
     0
 62
   100
  6
Continuous
370
    -3
390
F
  0
LAYER
  5
75
330
2
100
AcDbSymbolTableRecord
100
AcDbLayerTableRecord
  2
가는실선
 70
     0
 62
     4
  6
Continuous
370
    -3
390
F
  0
LAYER
  5
76
330
2
100
AcDbSymbolTableRecord
100
AcDbLayerTableRecord
  2
치수_보조선
 70
     0
 62
     4
  6
Continuous
370
    -3
390
F
  0
LAYER
  5
77
330
2
100
AcDbSymbolTableRecord
100
AcDbLayerTableRecord
  2
치수문자_일반주서
 70
     0
 62
     7
  6
Continuous
370
    15
390
F
  0
LAYER
  5
78
330
2
100
AcDbSymbolTableRecord
100
AcDbLayerTableRecord
  2
개별주서
 70
     0
 62
   100
  6
Continuous
370
    30
390
F
  0
LAYER
  5
79
330
2
100
AcDbSymbolTableRecord
100
AcDbLayerTableRecord
  2
중간선
 70
     0
 62
     2
  6
Continuous
370
    15
390
F
  0
LAYER
  5
7A
330
2
100
AcDbSymbolTableRecord
100
AcDbLayerTableRecord
  2
윤곽선
 70
     0
 62
     3
  6
Continuous
370
    40
390
F
  0
LAYER
  5
7B
330
2
100
AcDbSymbolTableRecord
100
AcDbLayerTableRecord
  2
중심마크
 70
     0
 62
   100
  6
Continuous
370
    30
390
F
  0
LAYER
  5
7C
330
2
100
AcDbSymbolTableRecord
100
AcDbLayerTableRecord
  2
가상선
 70
     0
 62
     4
  6
PHANTOM
370
    -3
390
F
  0
LAYER
  5
7D
330
2
100
AcDbSymbolTableRecord
100
AcDbLayerTableRecord
  2
특수지정선
 70
     0
 62
     5
  6
CENTERX2
370
    60
390
F
  0
LAYER
  5
7E
330
2
100
AcDbSymbolTableRecord
100
AcDbLayerTableRecord
  2
참조1
 70
     0
 62
    -4
  6
Continuous
370
    -3
390
F
  0
LAYER
  5
183
330
2
100
AcDbSymbolTableRecord
100
AcDbLayerTableRecord
  2
Defpoints
 70
     0
 62
     7
  6
Continuous
290
     0
370
    -3
390
F
  0
ENDTAB
  0
TABLE
  2
STYLE
  5
3
330
0
100
AcDbSymbolTable
 70
     2
  0
STYLE
  5
11
330
3
100
AcDbSymbolTableRecord
100
AcDbTextStyleTableRecord
  2
Standard
 70
     0
 40
0.0
 41
1.0
 50
0.0
 71
     0
 42
3.5
  3
txt
  4

  0
STYLE
  5
94
330
3
100
AcDbSymbolTableRecord
100
AcDbTextStyleTableRecord
  2
SLDTEXTSTYLE0
 70
     0
 40
0.0
 41
0.75
 50
0.0
 71
     0
 42
3.5
  3
TXT
  4

  0
ENDTAB
  0
TABLE
  2
VIEW
  5
6
330
0
100
AcDbSymbolTable
 70
     0
  0
ENDTAB
  0
TABLE
  2
UCS
  5
7
330
0
100
AcDbSymbolTable
 70
     0
  0
ENDTAB
  0
TABLE
  2
APPID
  5
9
330
0
100
AcDbSymbolTable
 70
     1
  0
APPID
  5
12
330
9
100
AcDbSymbolTableRecord
100
AcDbRegAppTableRecord
  2
ACAD
 70
     0
  0
ENDTAB
  0
TABLE
  2
DIMSTYLE
  5
A
330
0
100
AcDbSymbolTable
 70
     4
100
AcDbDimStyleTable
  0
DIMSTYLE
105
27
330
A
100
AcDbSymbolTableRecord
100
AcDbDimStyleTableRecord
  2
ISO-25
 70
     0
 41
2.5
 42
0.625
 43
3.75
 44
1.25
 73
     0
 74
     0
 77
     1
 78
     8
140
2.5
141
2.5
143
0.03937007874016
147
0.625
171
     3
172
     1
178
     0
271
     2
272
     2
274
     3
278
    44
283
     0
284
     8
340
11
  0
DIMSTYLE
105
D3
102
{ACAD_REACTORS
330
D2
330
E7
330
FC
330
111
102
}
330
A
100
AcDbSymbolTableRecord
100
AcDbDimStyleTableRecord
  2
SLDDIMSTYLE0
 70
     0
 41
3.302
 44
0.0
 45
0.000000001
 73
     0
 74
     0
 77
     1
 78
     4
 79
     1
140
3.5
143
0.0393700787401575
147
0.875
148
0.000000001
170
     1
172
     1
173
     1
178
     0
271
     2
272
     2
276
     2
284
    12
289
     0
340
94
  0
DIMSTYLE
105
E8
330
A
100
AcDbSymbolTableRecord
100
AcDbDimStyleTableRecord
  2
SLDDIMSTYLE1
 70
     0
 41
3.302
 44
0.0
 45
0.000000001
 73
     0
 74
     0
 77
     1
 78
    12
 79
     3
140
3.5
143
0.0393700787401575
147
0.875
148
0.000000001
170
     1
172
     1
173
     1
178
     0
271
     2
272
     2
276
     2
284
    12
289
     0
340
94
  0
DIMSTYLE
105
FD
330
A
100
AcDbSymbolTableRecord
100
AcDbDimStyleTableRecord
  2
SLDDIMSTYLE2
 70
     0
 41
3.302
 44
0.0
 45
0.000000001
 73
     0
 74
     0
 77
     1
 78
     4
 79
     1
140
3.5
143
0.0393700787401575
147
0.875
148
0.000000001
170
     1
173
     1
178
     0
271
     2
272
     2
276
     2
284
    12
340
94
  0
ENDTAB
  0
TABLE
  2
BLOCK_RECORD
  5
1
330
0
100
AcDbSymbolTable
 70
     7
  0
BLOCK_RECORD
  5
1F
330
1
100
AcDbSymbolTableRecord
100
AcDbBlockTableRecord
  2
*Model_Space
340
22
  0
BLOCK_RECORD
  5
1B
330
1
100
AcDbSymbolTableRecord
100
AcDbBlockTableRecord
  2
*Paper_Space
340
1E
  0
BLOCK_RECORD
  5
23
330
1
100
AcDbSymbolTableRecord
100
AcDbBlockTableRecord
  2
*Paper_Space0
340
26
  0
BLOCK_RECORD
  5
7F
330
1
100
AcDbSymbolTableRecord
100
AcDbBlockTableRecord
  2
블럭10
340
0
102
{BLKREFS
331
CB
102
}
  0
BLOCK_RECORD
  5
D4
330
1
100
AcDbSymbolTableRecord
100
AcDbBlockTableRecord
  2
_D
340
0
  0
BLOCK_RECORD
  5
E9
330
1
100
AcDbSymbolTableRecord
100
AcDbBlockTableRecord
  2
_D_1
340
0
  0
BLOCK_RECORD
  5
FE
330
1
100
AcDbSymbolTableRecord
100
AcDbBlockTableRecord
  2
_D_2
340
0
  0
BLOCK_RECORD
  5
112
330
1
100
AcDbSymbolTableRecord
100
AcDbBlockTableRecord
  2
_D_3
340
0
  0
BLOCK_RECORD
  5
12B
330
1
100
AcDbSymbolTableRecord
100
AcDbBlockTableRecord
  2
SW_DOWELSYMBOL_0
340
0
102
{BLKREFS
331
131
102
}
  0
ENDTAB
  0
ENDSEC
  0
SECTION
  2
BLOCKS
  0
BLOCK
  5
20
330
1F
100
AcDbEntity
  8
0
100
AcDbBlockBegin
  2
*Model_Space
 70
     0
 10
0.0
 20
0.0
 30
0.0
  3
*Model_Space
  1
*Model_Space
  0
ENDBLK
  5
21
330
1F
100
AcDbEntity
  8
0
100
AcDbBlockEnd
  0
BLOCK
  5
1C
330
1B
100
AcDbEntity
 67
     1
  8
0
100
AcDbBlockBegin
  2
*Paper_Space
 70
     0
 10
0.0
 20
0.0
 30
0.0
  3
*Paper_Space
  1
*Paper_Space
  0
ENDBLK
  5
1D
330
1B
100
AcDbEntity
 67
     1
  8
0
100
AcDbBlockEnd
  0
BLOCK
  5
24
330
23
100
AcDbEntity
  8
0
100
AcDbBlockBegin
  2
*Paper_Space0
 70
     0
 10
0.0
 20
0.0
 30
0.0
  3
*Paper_Space0
  1
*Paper_Space0
  0
ENDBLK
  5
25
330
23
100
AcDbEntity
  8
0
100
AcDbBlockEnd
  0
BLOCK
  5
80
330
7F
100
AcDbEntity
  8
0
100
AcDbBlockBegin
  2
블럭10
 70
     2
 10
0.0
 20
0.0
 30
0.0
  3
블럭10
  1
블럭10
  0
ELLIPSE
  5
82
330
7F
100
AcDbEntity
  8
중심선
100
AcDbEllipse
 10
20.54032771741204
 20
12.0471743016438
 30
0.0
 11
6.600054785286829
 21
-1.261213355974178E-13
 31
0.0
210
0.0
220
0.0
230
1.0
 40
0.636358354079598
 41
0.9219305317359503
 42
6.513795318482858
  0
ELLIPSE
  5
83
330
7F
100
AcDbEntity
  8
중심선
100
AcDbEllipse
 10
20.54032771746488
 20
12.04717430159265
 30
0.0
 11
3.960054785062283
 21
1.540847449632565E-10
 31
0.0
210
0.0
220
0.0
230
1.0
 40
0.3939339440162632
 41
1.131841032648279
 42
5.62031148352944
  0
LINE
  5
84
330
7F
100
AcDbEntity
  8
중심선
100
AcDbLine
 10
2.268634060543552
 20
16.24717430164393
 30
0.0
 11
5.714909304380834
 21
16.24717430164393
 31
0.0
  0
LINE
  5
85
330
7F
100
AcDbEntity
  8
중심선
100
AcDbLine
 10
5.245725140726316
 20
7.84717430164391
 30
0.0
 11
8.692000384563599
 21
7.84717430164391
 31
0.0
  0
LINE
  5
86
330
7F
100
AcDbEntity
  8
중심선
100
AcDbLine
 10
15.74043728645272
 20
16.24717430164393
 30
0.0
 11
8.692000384563599
 21
7.84717430164391
 31
0.0
  0
LINE
  5
87
330
7F
100
AcDbEntity
  8
중심선
100
AcDbLine
 10
0.1404042013395286
 20
13.71084872107135
 30
0.0
 11
3.58671253028996
 21
13.71088815037384
 31
0.0
  0
LINE
  5
88
330
7F
100
AcDbEntity
  8
중심선
100
AcDbLine
 10
2.750260043222114
 20
10.84717430164391
 30
0.0
 11
6.196535287059397
 21
10.84717430164391
 31
0.0
  0
LINE
  5
89
330
7F
100
AcDbEntity
  8
중심선
100
AcDbLine
 10
12.29416204261559
 20
16.24717430164393
 30
0.0
 11
5.245725140726316
 21
7.84717430164391
 31
0.0
  0
LINE
  5
8A
330
7F
100
AcDbEntity
  8
중심선
100
AcDbLine
 10
10.72767329541681
 20
16.24717430164393
 30
0.0
 11
6.196535287059397
 21
10.84717430164391
 31
0.0
  0
LINE
  5
8B
330
7F
100
AcDbEntity
  8
중심선
100
AcDbLine
 10
7.28139805157953
 20
16.24717430164393
 30
0.0
 11
2.750260043222114
 21
10.84717430164391
 31
0.0
  0
LINE
  5
8C
330
7F
100
AcDbEntity
  8
중심선
100
AcDbLine
 10
5.714909304380834
 20
16.24717430164393
 30
0.0
 11
3.58671253028996
 21
13.71088815037384
 31
0.0
  0
LINE
  5
8D
330
7F
100
AcDbEntity
  8
중심선
100
AcDbLine
 10
2.268634060543552
 20
16.24717430164393
 30
0.0
 11
0.1404042013395286
 21
13.71084872107135
 31
0.0
  0
LINE
  5
8E
330
7F
100
AcDbEntity
  8
중심선
100
AcDbLine
 10
7.28139805157953
 20
16.24717430164393
 30
0.0
 11
10.72767329541681
 21
16.24717430164393
 31
0.0
  0
LINE
  5
8F
330
7F
100
AcDbEntity
  8
중심선
100
AcDbLine
 10
12.29416204261559
 20
16.24717430164393
 30
0.0
 11
15.74043728645272
 21
16.24717430164393
 31
0.0
  0
LINE
  5
90
330
7F
100
AcDbEntity
  8
중심선
100
AcDbLine
 10
19.22036997980202
 20
11.08717430171403
 30
0.0
 11
23.66174974927406
 21
11.08717430171406
 31
0.0
  0
LINE
  5
91
330
7F
100
AcDbEntity
  8
중심선
100
AcDbLine
 10
19.22039502424796
 20
13.00717430171391
 30
0.0
 11
19.22036997980202
 21
11.08717430171403
 31
0.0
  0
LINE
  5
92
330
7F
100
AcDbEntity
  8
중심선
100
AcDbLine
 10
19.22039502424796
 20
13.00717430171391
 30
0.0
 11
26.96566020931264
 21
13.00717430171391
 31
0.0
  0
LINE
  5
93
330
7F
100
AcDbEntity
  8
중심선
100
AcDbLine
 10
22.22332737316547
 20
13.45928029700563
 30
0.0
 11
24.52862924686651
 21
15.39360700705356
 31
0.0
  0
ATTDEF
  5
95
330
7F
100
AcDbEntity
  8
FORMAT
 62
     2
100
AcDbText
 10
3.448148490846466
 20
2.075366912832191
 30
0.0
 40
4.233333333333333
  1
EM154032
 41
0.75
  7
SLDTEXTSTYLE0
 11
3.448148490846466
 21
-0.0412997538344756
 31
0.0
100
AcDbAttributeDefinition
  3

  2
AUTOATTR0
 70
     0
 74
     1
  0
ENDBLK
  5
81
330
7F
100
AcDbEntity
  8
0
100
AcDbBlockEnd
  0
BLOCK
  5
D5
330
D4
100
AcDbEntity
  8
0
100
AcDbBlockBegin
  2
_D
 70
     0
 10
0.0
 20
0.0
 30
0.0
  3
_D
  1
_D
  0
LINE
  5
D7
330
D4
100
AcDbEntity
  8
치수문자_일반주서
 62
     0
370
    -2
100
AcDbLine
 10
-37.86250000000001
 20
6.349999999999994
 30
0.0
 11
-51.23000000000001
 21
6.349999999999945
 31
0.0
  0
LINE
  5
D8
330
D4
100
AcDbEntity
  8
치수문자_일반주서
 62
     0
370
    -2
100
AcDbLine
 10
-37.86250000000001
 20
-6.349999999999994
 30
0.0
 11
-51.22999999999997
 21
-6.350000000000044
 31
0.0
  0
LINE
  5
D9
330
D4
100
AcDbEntity
  8
치수문자_일반주서
 62
     0
370
    -2
100
AcDbLine
 10
-51.23
 20
3.047999999999945
 30
0.0
 11
-51.22999999999998
 21
-3.048000000000044
 31
0.0
  0
SOLID
  5
DA
330
D4
100
AcDbEntity
  8
치수문자_일반주서
 62
     0
100
AcDbTrace
 10
-50.67966666666666
 20
3.047999999999946
 30
0.0
 11
-51.78033333333333
 21
3.047999999999943
 31
0.0
 12
-51.23000000000001
 22
6.349999999999945
 32
0.0
 13
-51.23000000000001
 23
6.349999999999945
 33
0.0
  0
SOLID
  5
DB
330
D4
100
AcDbEntity
  8
치수문자_일반주서
 62
     0
100
AcDbTrace
 10
-51.78033333333332
 20
-3.048000000000046
 30
0.0
 11
-50.67966666666665
 21
-3.048000000000042
 31
0.0
 12
-51.22999999999997
 22
-6.350000000000044
 32
0.0
 13
-51.22999999999997
 23
-6.350000000000044
 33
0.0
  0
MTEXT
  5
DC
330
D4
100
AcDbEntity
  8
치수문자_일반주서
 62
     0
100
AcDbMText
 10
-55.60499999999999
 20
-0.0000000000000195
 30
0.0
 40
3.5
 41
0.0
 71
     2
 72
     1
  1
\A1;%%c12.70 [1/2]
  7
SLDTEXTSTYLE0
 11
-3.356894814614650E-15
 21
1.0
 31
0.0
 73
     1
 44
1.0
  0
POINT
  5
DD
330
D4
100
AcDbEntity
  8
Defpoints
 62
     0
100
AcDbPoint
 10
-37.80000000000001
 20
6.349999999999994
 30
0.0
  0
POINT
  5
DE
330
D4
100
AcDbEntity
  8
Defpoints
 62
     0
100
AcDbPoint
 10
-37.80000000000001
 20
-6.349999999999994
 30
0.0
  0
POINT
  5
DF
330
D4
100
AcDbEntity
  8
Defpoints
 62
     0
100
AcDbPoint
 10
-51.22999999999997
 20
-6.350000000000044
 30
0.0
  0
ENDBLK
  5
D6
330
D4
100
AcDbEntity
  8
0
100
AcDbBlockEnd
  0
BLOCK
  5
EA
330
E9
100
AcDbEntity
  8
0
100
AcDbBlockBegin
  2
_D_1
 70
     0
 10
0.0
 20
0.0
 30
0.0
  3
_D_1
  1
_D_1
  0
LINE
  5
EC
330
E9
100
AcDbEntity
  8
치수문자_일반주서
 62
     0
370
    -2
100
AcDbLine
 10
37.46250000000001
 20
6.350000000000003
 30
0.0
 11
54.57634380757507
 21
6.350000000000065
 31
0.0
  0
LINE
  5
ED
330
E9
100
AcDbEntity
  8
치수문자_일반주서
 62
     0
370
    -2
100
AcDbLine
 10
37.46250000000001
 20
-6.349999999999996
 30
0.0
 11
54.57634380757511
 21
-6.34999999999993
 31
0.0
  0
LINE
  5
EE
330
E9
100
AcDbEntity
  8
치수문자_일반주서
 62
     0
370
    -2
100
AcDbLine
 10
54.57634380757507
 20
6.350000000000065
 30
0.0
 11
54.57634380757496
 21
40.07900000000007
 31
0.0
  0
LINE
  5
EF
330
E9
100
AcDbEntity
  8
치수문자_일반주서
 62
     0
370
    -2
100
AcDbLine
 10
54.57634380757507
 20
6.350000000000065
 30
0.0
 11
54.57634380757511
 21
-6.34999999999993
 31
0.0
  0
LINE
  5
F0
330
E9
100
AcDbEntity
  8
치수문자_일반주서
 62
     0
370
    -2
100
AcDbLine
 10
54.57634380757506
 20
9.652000000000065
 30
0.0
 11
54.57634380757504
 21
12.95400000000006
 31
0.0
  0
LINE
  5
F1
330
E9
100
AcDbEntity
  8
치수문자_일반주서
 62
     0
370
    -2
100
AcDbLine
 10
54.57634380757513
 20
-9.65199999999993
 30
0.0
 11
54.57634380757514
 21
-12.95399999999993
 31
0.0
  0
SOLID
  5
F2
330
E9
100
AcDbEntity
  8
치수문자_일반주서
 62
     0
100
AcDbTrace
 10
54.02601047424172
 20
9.652000000000063
 30
0.0
 11
55.12667714090839
 21
9.652000000000067
 31
0.0
 12
54.57634380757507
 22
6.350000000000065
 32
0.0
 13
54.57634380757507
 23
6.350000000000065
 33
0.0
  0
SOLID
  5
F3
330
E9
100
AcDbEntity
  8
치수문자_일반주서
 62
     0
100
AcDbTrace
 10
55.12667714090846
 20
-9.651999999999928
 30
0.0
 11
54.02601047424179
 21
-9.651999999999932
 31
0.0
 12
54.57634380757511
 22
-6.34999999999993
 32
0.0
 13
54.57634380757511
 23
-6.34999999999993
 33
0.0
  0
MTEXT
  5
F4
330
E9
100
AcDbEntity
  8
치수문자_일반주서
 62
     0
100
AcDbMText
 10
50.201343807575
 20
26.73525000000006
 30
0.0
 40
3.5
 41
0.0
 71
     2
 72
     1
  1
\A1;%%c12.70 [1/2]
  7
SLDTEXTSTYLE0
 11
-3.356894814614647E-15
 21
1.0
 31
0.0
 73
     1
 44
1.0
  0
POINT
  5
F5
330
E9
100
AcDbEntity
  8
Defpoints
 62
     0
100
AcDbPoint
 10
37.40000000000001
 20
6.350000000000003
 30
0.0
  0
POINT
  5
F6
330
E9
100
AcDbEntity
  8
Defpoints
 62
     0
100
AcDbPoint
 10
37.40000000000001
 20
-6.349999999999996
 30
0.0
  0
POINT
  5
F7
330
E9
100
AcDbEntity
  8
Defpoints
 62
     0
100
AcDbPoint
 10
54.57634380757511
 20
-6.349999999999932
 30
0.0
  0
ENDBLK
  5
EB
330
E9
100
AcDbEntity
  8
0
100
AcDbBlockEnd
  0
BLOCK
  5
FF
330
FE
100
AcDbEntity
  8
0
100
AcDbBlockBegin
  2
_D_2
 70
     0
 10
0.0
 20
0.0
 30
0.0
  3
_D_2
  1
_D_2
  0
LINE
  5
101
330
FE
100
AcDbEntity
  8
치수문자_일반주서
 62
     0
370
    -2
100
AcDbLine
 10
37.40000000000001
 20
4.507500000000002
 30
0.0
 11
37.40000000000001
 21
22.16809451126176
 31
0.0
  0
LINE
  5
102
330
FE
100
AcDbEntity
  8
치수문자_일반주서
 62
     0
370
    -2
100
AcDbLine
 10
12.0
 20
5.600586587305228
 30
0.0
 11
12.0
 21
22.16809451126176
 31
0.0
  0
LINE
  5
103
330
FE
100
AcDbEntity
  8
치수문자_일반주서
 62
     0
370
    -2
100
AcDbLine
 10
12.0
 20
22.16809451126176
 30
0.0
 11
-26.52086381932886
 21
22.16809451126176
 31
0.0
  0
LINE
  5
104
330
FE
100
AcDbEntity
  8
치수문자_일반주서
 62
     0
370
    -2
100
AcDbLine
 10
37.40000000000001
 20
22.16809451126176
 30
0.0
 11
12.0
 21
22.16809451126176
 31
0.0
  0
LINE
  5
105
330
FE
100
AcDbEntity
  8
치수문자_일반주서
 62
     0
370
    -2
100
AcDbLine
 10
40.70200000000001
 20
22.16809451126176
 30
0.0
 11
44.00400000000001
 21
22.16809451126176
 31
0.0
  0
LINE
  5
106
330
FE
100
AcDbEntity
  8
치수문자_일반주서
 62
     0
370
    -2
100
AcDbLine
 10
8.698
 20
22.16809451126176
 30
0.0
 11
5.396000000000001
 21
22.16809451126176
 31
0.0
  0
SOLID
  5
107
330
FE
100
AcDbEntity
  8
치수문자_일반주서
 62
     0
100
AcDbTrace
 10
40.70200000000001
 20
22.71842784459509
 30
0.0
 11
40.70200000000001
 21
21.61776117792843
 31
0.0
 12
37.40000000000001
 22
22.16809451126176
 32
0.0
 13
37.40000000000001
 23
22.16809451126176
 33
0.0
  0
SOLID
  5
108
330
FE
100
AcDbEntity
  8
치수문자_일반주서
 62
     0
100
AcDbTrace
 10
8.698
 20
21.61776117792843
 30
0.0
 11
8.698
 21
22.71842784459509
 31
0.0
 12
12.0
 22
22.16809451126176
 32
0.0
 13
12.0
 23
22.16809451126176
 33
0.0
  0
MTEXT
  5
109
330
FE
100
AcDbEntity
  8
치수문자_일반주서
 62
     0
100
AcDbMText
 10
-16.67711381932886
 20
26.54309451126176
 30
0.0
 40
3.5
 41
0.0
 71
     2
 72
     1
  1
\A1;25.40 [1]
  7
SLDTEXTSTYLE0
 73
     1
 44
1.0
  0
POINT
  5
10A
330
FE
100
AcDbEntity
  8
Defpoints
 62
     0
100
AcDbPoint
 10
37.40000000000001
 20
4.445000000000002
 30
0.0
  0
POINT
  5
184
330
FE
100
AcDbEntity
  8
Defpoints
 62
     0
100
AcDbPoint
 10
12.0
 20
5.538086587305228
 30
0.0
  0
POINT
  5
185
330
FE
100
AcDbEntity
  8
Defpoints
 62
     0
100
AcDbPoint
 10
12.0
 20
22.16809451126176
 30
0.0
  0
ENDBLK
  5
100
330
FE
100
AcDbEntity
  8
0
100
AcDbBlockEnd
  0
BLOCK
  5
113
330
112
100
AcDbEntity
  8
0
100
AcDbBlockBegin
  2
_D_3
 70
     0
 10
0.0
 20
0.0
 30
0.0
  3
_D_3
  1
_D_3
  0
LINE
  5
115
330
112
100
AcDbEntity
  8
치수문자_일반주서
 62
     0
370
    -2
100
AcDbLine
 10
37.40000000000001
 20
4.507500000000002
 30
0.0
 11
37.40000000000001
 21
42.30092844013392
 31
0.0
  0
LINE
  5
116
330
112
100
AcDbEntity
  8
치수문자_일반주서
 62
     0
370
    -2
100
AcDbLine
 10
-38.80000000000001
 20
5.412499999999991
 30
0.0
 11
-38.80000000000002
 21
42.30092844013392
 31
0.0
  0
LINE
  5
117
330
112
100
AcDbEntity
  8
치수문자_일반주서
 62
     0
370
    -2
100
AcDbLine
 10
34.09800000000001
 20
42.30092844013392
 30
0.0
 11
-35.49800000000002
 21
42.30092844013392
 31
0.0
  0
SOLID
  5
118
330
112
100
AcDbEntity
  8
치수문자_일반주서
 62
     0
100
AcDbTrace
 10
34.09800000000001
 20
41.75059510680059
 30
0.0
 11
34.09800000000001
 21
42.85126177346726
 31
0.0
 12
37.40000000000001
 22
42.30092844013392
 32
0.0
 13
37.40000000000001
 23
42.30092844013392
 33
0.0
  0
SOLID
  5
119
330
112
100
AcDbEntity
  8
치수문자_일반주서
 62
     0
100
AcDbTrace
 10
-35.49800000000002
 20
42.85126177346726
 30
0.0
 11
-35.49800000000002
 21
41.75059510680059
 31
0.0
 12
-38.80000000000002
 22
42.30092844013392
 32
0.0
 13
-38.80000000000002
 23
42.30092844013392
 33
0.0
  0
MTEXT
  5
11A
330
112
100
AcDbEntity
  8
치수문자_일반주서
 62
     0
100
AcDbMText
 10
-0.7000000000000051
 20
46.67592844013392
 30
0.0
 40
3.5
 41
0.0
 71
     2
 72
     1
  1
\A1;76.20 [3]
  7
SLDTEXTSTYLE0
 73
     1
 44
1.0
  0
POINT
  5
11B
330
112
100
AcDbEntity
  8
Defpoints
 62
     0
100
AcDbPoint
 10
37.40000000000001
 20
4.445000000000002
 30
0.0
  0
POINT
  5
11C
330
112
100
AcDbEntity
  8
Defpoints
 62
     0
100
AcDbPoint
 10
-38.80000000000001
 20
5.349999999999991
 30
0.0
  0
POINT
  5
11D
330
112
100
AcDbEntity
  8
Defpoints
 62
     0
100
AcDbPoint
 10
-38.80000000000001
 20
42.30092844013392
 30
0.0
  0
ENDBLK
  5
114
330
112
100
AcDbEntity
  8
0
100
AcDbBlockEnd
  0
BLOCK
  5
12C
330
12B
100
AcDbEntity
  8
0
100
AcDbBlockBegin
  2
SW_DOWELSYMBOL_0
 70
     0
 10
0.0
 20
0.0
 30
0.0
  3
SW_DOWELSYMBOL_0
  1
SW_DOWELSYMBOL_0
  0
CIRCLE
  5
12E
330
12B
100
AcDbEntity
  8
해칭선
 62
     0
100
AcDbCircle
 10
0.0
 20
0.0
 30
0.0
 40
3.000000000000001
  0
HATCH
  5
12F
330
12B
100
AcDbEntity
  8
0
  6
Continuous
 62
     0
370
     0
100
AcDbHatch
 10
0.0
 20
0.0
 30
0.0
210
0.0
220
0.0
230
1.0
  2
SOLID
 70
     1
 71
     0
 91
        1
 92
        0
 93
        3
 72
     2
 10
0.0
 20
0.0
 40
3.000000000000001
 50
0.0
 51
90.0
 73
     1
 72
     1
 10
0.0
 20
3.000000000000001
 11
0.0
 21
0.0
 72
     1
 10
0.0
 20
0.0
 11
3.000000000000001
 21
0.0
 97
        0
 75
     0
 76
     1
 98
        1
 10
0.0
 20
0.0
  0
HATCH
  5
130
330
12B
100
AcDbEntity
  8
0
  6
Continuous
 62
     0
370
     0
100
AcDbHatch
 10
0.0
 20
0.0
 30
0.0
210
0.0
220
0.0
230
1.0
  2
SOLID
 70
     1
 71
     0
 91
        1
 92
        0
 93
        3
 72
     2
 10
0.0
 20
0.0
 40
3.000000000000001
 50
180.0
 51
270.0000000000007
 73
     1
 72
     1
 10
0.0
 20
-3.000000000000001
 11
0.0
 21
0.0
 72
     1
 10
0.0
 20
0.0
 11
-3.000000000000001
 21
0.0
 97
        0
 75
     0
 76
     1
 98
        1
 10
0.0
 20
0.0
  0
ENDBLK
  5
12D
330
12B
100
AcDbEntity
  8
0
100
AcDbBlockEnd
  0
ENDSEC
  0
SECTION
  2
ENTITIES
  0
LINE
  5
96
330
1F
100
AcDbEntity
  8
외형선
  6
Continuous
370
    15
100
AcDbLine
 10
9.969918989554746
 20
6.35
 30
0.0
 11
-37.80000000000001
 21
6.349999999999996
 31
0.0
  0
LINE
  5
97
330
1F
100
AcDbEntity
  8
외형선
  6
Continuous
370
    15
100
AcDbLine
 10
-37.80000000000001
 20
-6.350000000000003
 30
0.0
 11
9.969918989554746
 21
-6.35
 31
0.0
  0
LINE
  5
98
330
1F
100
AcDbEntity
  8
외형선
  6
Continuous
370
    15
100
AcDbLine
 10
-37.80000000000001
 20
6.349999999999993
 30
0.0
 11
-38.80000000000001
 21
5.349999999999991
 31
0.0
  0
LINE
  5
99
330
1F
100
AcDbEntity
  8
외형선
  6
Continuous
370
    15
100
AcDbLine
 10
-38.80000000000001
 20
-5.35
 30
0.0
 11
-37.80000000000001
 21
-6.349999999999998
 31
0.0
  0
SPLINE
  5
9A
330
1F
100
AcDbEntity
  8
외형선
  6
Continuous
370
    15
100
AcDbSpline
210
0.0
220
0.0
230
1.0
 70
     8
 71
     3
 72
     9
 73
     5
 74
     0
 42
0.000000001
 43
0.00000001
 40
0.0
 40
0.0
 40
0.0
 40
0.0
 40
0.5179580090336278
 40
1.0
 40
1.0
 40
1.0
 40
1.0
 10
9.969888033363105
 20
-5.218810017529913
 30
0.0
 10
10.32203759929135
 20
-5.188837958936819
 30
0.0
 10
11.00191812973292
 20
-5.130972151148631
 30
0.0
 10
11.67536859628568
 20
-5.088164943512989
 30
0.0
 10
12.00000000000001
 20
-5.067530071916595
 30
0.0
  0
LINE
  5
9B
330
1F
100
AcDbEntity
  8
0
  6
Continuous
 62
     1
370
    15
100
AcDbLine
 10
17.42106409437477
 20
1.796313545466758
 30
0.0
 11
17.36767260804886
 21
1.825666152078035
 31
0.0
  0
SPLINE
  5
9C
330
1F
100
AcDbEntity
  8
0
  6
Continuous
 62
     1
370
    15
100
AcDbSpline
210
0.0
220
0.0
230
1.0
 70
     8
 71
     3
 72
     9
 73
     5
 74
     0
 42
0.000000001
 43
0.00000001
 40
0.0
 40
0.0
 40
0.0
 40
0.0
 40
0.4624067518755005
 40
1.0
 40
1.0
 40
1.0
 40
1.0
 10
20.94938472027376
 20
1.62713997453455
 30
0.0
 10
20.67796435613583
 20
1.756243348085254
 30
0.0
 10
20.09099117065126
 20
2.035442068750697
 30
0.0
 10
19.50280902211465
 20
2.342954197064532
 30
0.0
 10
19.18660627039401
 20
2.508270640962444
 30
0.0
  0
SPLINE
  5
9D
330
1F
100
AcDbEntity
  8
0
  6
Continuous
 62
     1
370
    15
100
AcDbSpline
210
0.0
220
0.0
230
1.0
 70
     8
 71
     3
 72
    20
 73
    16
 74
     0
 42
0.000000001
 43
0.00000001
 40
0.0
 40
0.0
 40
0.0
 40
0.0
 40
0.1281650274998659
 40
0.2331530502983623
 40
0.320345940414144
 40
0.3935372779536135
 40
0.4684182120588483
 40
0.5568835825030348
 40
0.6297490020360277
 40
0.690840587794624
 40
0.7573904304452896
 40
0.8353070934946843
 40
0.9257899417733555
 40
0.9757568223381694
 40
1.0
 40
1.0
 40
1.0
 40
1.0
 10
18.8499326448671
 20
5.045957381516748
 30
0.0
 10
18.63673855886342
 20
5.034980568945542
 30
0.0
 10
18.24890380840952
 20
5.015011959852606
 30
0.0
 10
17.69000307420454
 20
4.994136949592972
 30
0.0
 10
17.22521378428391
 20
4.980233371236741
 30
0.0
 10
16.81908047591643
 20
4.970713645591539
 30
0.0
 10
16.41603681221703
 20
4.96387987015153
 30
0.0
 10
16.00854638969749
 20
4.959815011270123
 30
0.0
 10
15.62597584462948
 20
4.958686022560816
 30
0.0
 10
15.28085733591557
 20
4.959651249517096
 30
0.0
 10
14.92703086637643
 20
4.962592931130366
 30
0.0
 10
14.52267576855015
 20
4.968463253402296
 30
0.0
 10
14.14699882190905
 20
4.976737456846777
 30
0.0
 10
13.86356308497046
 20
4.984539004285327
 30
0.0
 10
13.7358340581196
 20
4.988607744983279
 30
0.0
 10
13.69410713370376
 20
4.989936934124987
 30
0.0
  0
SPLINE
  5
9E
330
1F
100
AcDbEntity
  8
0
  6
Continuous
 62
     1
370
    15
100
AcDbSpline
210
0.0
220
0.0
230
1.0
 70
     8
 71
     3
 72
    29
 73
    25
 74
     0
 42
0.000000001
 43
0.00000001
 40
0.0
 40
0.0
 40
0.0
 40
0.0
 40
0.0609782346244788
 40
0.1098749767920015
 40
0.146759409324321
 40
0.1774224568845258
 40
0.2044095025357905
 40
0.230627425079962
 40
0.263111511713106
 40
0.2994631173101096
 40
0.3527496249845273
 40
0.4031959061388271
 40
0.4497065709700389
 40
0.4955876197392378
 40
0.553155961858811
 40
0.6051435372699349
 40
0.6536014506780639
 40
0.7064906054721484
 40
0.7661113749772596
 40
0.801109327431824
 40
0.8355366384093367
 40
0.8757843430874341
 40
0.9293989050910154
 40
1.0
 40
1.0
 40
1.0
 40
1.0
 10
35.04058755444906
 20
4.343097581521192
 30
0.0
 10
34.81877010660475
 20
4.324868567543078
 30
0.0
 10
34.41908344653591
 20
4.292022216707883
 30
0.0
 10
33.87919146075062
 20
4.257062767510336
 30
0.0
 10
33.44118130176468
 20
4.233333110035531
 30
0.0
 10
33.08550801801753
 20
4.217044403082433
 30
0.0
 10
32.77373840368622
 20
4.205007895323428
 30
0.0
 10
32.45955354206198
 20
4.19504715251658
 30
0.0
 10
32.10784230847744
 20
4.186532495953733
 30
0.0
 10
31.65575783686384
 20
4.179604808529685
 30
0.0
 10
31.1375907925992
 20
4.177612720036267
 30
0.0
 10
30.5818706877408
 20
4.182886642995854
 30
0.0
 10
30.05342227008279
 20
4.194545239454163
 30
0.0
 10
29.49855333450131
 20
4.21328959677067
 30
0.0
 10
28.92357391204659
 20
4.24022550608203
 30
0.0
 10
28.33873817104463
 20
4.275737593522033
 30
0.0
 10
27.77165166263736
 20
4.317431028349928
 30
0.0
 10
27.17681810214608
 20
4.368268555393236
 30
0.0
 10
26.62869110902963
 20
4.422563127178753
 30
0.0
 10
26.15844716090846
 20
4.474274746194856
 30
0.0
 10
25.75052798099552
 20
4.522671170200837
 30
0.0
 10
25.26452808248873
 20
4.584225892382152
 30
0.0
 10
24.65338319384774
 20
4.667426383824193
 30
0.0
 10
24.20278652136514
 20
4.736687718413684
 30
0.0
 10
23.94667856178634
 20
4.776054141120907
 30
0.0
  0
SPLINE
  5
9F
330
1F
100
AcDbEntity
  8
0
  6
Continuous
 62
     1
370
    15
100
AcDbSpline
210
0.0
220
0.0
230
1.0
 70
     8
 71
     3
 72
    19
 73
    15
 74
     0
 42
0.000000001
 43
0.00000001
 40
0.0
 40
0.0
 40
0.0
 40
0.0
 40
0.1048307825010221
 40
0.186049740487817
 40
0.2845909407631642
 40
0.376974586440383
 40
0.4836150093218488
 40
0.5818201639676629
 40
0.6624528402705316
 40
0.7297452915181745
 40
0.8140002858487058
 40
0.9069524384055073
 40
0.9850429475935247
 40
1.0
 40
1.0
 40
1.0
 40
1.0
 10
23.94667856178635
 20
-4.776054141120911
 30
0.0
 10
24.09217564302467
 20
-4.752855884812385
 30
0.0
 10
24.35039840508277
 20
-4.711684489703046
 30
0.0
 10
24.80776119522193
 20
-4.644733827708054
 30
0.0
 10
25.25055083662842
 20
-4.586801467844504
 30
0.0
 10
25.73025685376749
 20
-4.52486463182044
 30
0.0
 10
26.19913216656764
 20
-4.469398931652245
 30
0.0
 10
26.65231291797672
 20
-4.420419576339187
 30
0.0
 10
27.03987547020063
 20
-4.382105646225815
 30
0.0
 10
27.40258648416686
 20
-4.348865605852595
 30
0.0
 10
27.79151792266483
 20
-4.316238876894975
 30
0.0
 10
28.19964785946971
 20
-4.286004804629766
 30
0.0
 10
28.49602866205104
 20
-4.266113428467188
 30
0.0
 10
28.64285840914955
 20
-4.257717881479186
 30
0.0
 10
28.66646074954997
 20
-4.25636832826007
 30
0.0
  0
SPLINE
  5
A0
330
1F
100
AcDbEntity
  8
0
  6
Continuous
 62
     1
370
    15
100
AcDbSpline
210
0.0
220
0.0
230
1.0
 70
     8
 71
     3
 72
    27
 73
    23
 74
     0
 42
0.000000001
 43
0.00000001
 40
0.0
 40
0.0
 40
0.0
 40
0.0
 40
0.079699122470165
 40
0.1393755635873178
 40
0.1787455741440349
 40
0.206320540442365
 40
0.2401897449571541
 40
0.2798349820236721
 40
0.3168410738824777
 40
0.3751677963603506
 40
0.4360077082324424
 40
0.5054894976998435
 40
0.5503846546311563
 40
0.583583171020948
 40
0.6198946374352435
 40
0.6773721559309633
 40
0.735627373228903
 40
0.7728015208192587
 40
0.8065651037440452
 40
0.8547666787111825
 40
0.9193367114472021
 40
1.0
 40
1.0
 40
1.0
 40
1.0
 10
11.99999999999995
 20
-5.067530071916599
 30
0.0
 10
12.18251377533134
 20
-5.057096757515609
 30
0.0
 10
12.50168868605615
 20
-5.03885127337912
 30
0.0
 10
12.91100685743653
 20
-5.019655549818058
 30
0.0
 10
13.20096569309339
 20
-5.007505317956998
 30
0.0
 10
13.43188780915475
 20
-4.998718655616772
 30
0.0
 10
13.66340136719612
 20
-4.990709140255552
 30
0.0
 10
13.91644215269337
 20
-4.982959462071696
 30
0.0
 10
14.22311562189264
 20
-4.975071047683095
 30
0.0
 10
14.54615468112094
 20
-4.967164097982105
 30
0.0
 10
14.97865000419635
 20
-4.960076721778956
 30
0.0
 10
15.38809465946697
 20
-4.958794619743518
 30
0.0
 10
15.73159210962182
 20
-4.95891598589002
 30
0.0
 10
15.99696106874583
 20
-4.96006999240941
 30
0.0
 10
16.28677981263246
 20
-4.962483536232398
 30
0.0
 10
16.6350867546729
 20
-4.967265249776771
 30
0.0
 10
16.9852241961713
 20
-4.974417551250085
 30
0.0
 10
17.28183433774228
 20
-4.982075221948055
 30
0.0
 10
17.55579380105778
 20
-4.990236092752271
 30
0.0
 10
17.891157226232
 20
-5.001828510063946
 30
0.0
 10
18.3335423800389
 20
-5.019660754459316
 30
0.0
 10
18.6655397185328
 20
-5.036567367130141
 30
0.0
 10
18.8499326448671
 20
-5.04595738151675
 30
0.0
  0
SPLINE
  5
A1
330
1F
100
AcDbEntity
  8
외형선
  6
Continuous
370
    15
100
AcDbSpline
210
0.0
220
0.0
230
1.0
 70
     8
 71
     3
 72
     8
 73
     4
 74
     0
 42
0.000000001
 43
0.00000001
 40
0.0
 40
0.0
 40
0.0
 40
0.0
 40
1.0
 40
1.0
 40
1.0
 40
1.0
 10
12.0
 20
5.538086587305228
 30
0.0
 10
11.32679848293206
 20
5.72883681663053
 30
0.0
 10
10.64432116478425
 20
5.888871073982903
 30
0.0
 10
9.969834254731921
 20
6.014078420083225
 30
0.0
  0
LINE
  5
A2
330
1F
100
AcDbEntity
  8
외형선
  6
Continuous
370
    15
100
AcDbLine
 10
12.0
 20
5.538086587305225
 30
0.0
 11
12.0
 21
4.464653049026651
 31
0.0
  0
SPLINE
  5
A3
330
1F
100
AcDbEntity
  8
외형선
  6
Continuous
370
    15
100
AcDbSpline
210
0.0
220
0.0
230
1.0
 70
     8
 71
     3
 72
     8
 73
     4
 74
     0
 42
0.000000001
 43
0.00000001
 40
0.0
 40
0.0
 40
0.0
 40
0.0
 40
1.0
 40
1.0
 40
1.0
 40
1.0
 10
9.969918989554756
 20
5.217286373225622
 30
0.0
 10
10.64437832255111
 20
4.994910459617195
 30
0.0
 10
11.32682667403154
 20
4.741881616629078
 30
0.0
 10
11.99999999999979
 20
4.464653049026476
 30
0.0
  0
SPLINE
  5
A4
330
1F
100
AcDbEntity
  8
외형선
  6
Continuous
370
    15
100
AcDbSpline
210
0.0
220
0.0
230
1.0
 70
     8
 71
     3
 72
     8
 73
     4
 74
     0
 42
0.000000001
 43
0.00000001
 40
0.0
 40
0.0
 40
0.0
 40
0.0
 40
1.0
 40
1.0
 40
1.0
 40
1.0
 10
12.0
 20
-5.538086587305228
 30
0.0
 10
11.32679848293206
 20
-5.728836816630531
 30
0.0
 10
10.64432116478425
 20
-5.888871073982905
 30
0.0
 10
9.969834254731921
 20
-6.014078420083226
 30
0.0
  0
LINE
  5
A5
330
1F
100
AcDbEntity
  8
외형선
  6
Continuous
370
    15
100
AcDbLine
 10
9.969918989554749
 20
6.014165756631565
 30
0.0
 11
9.969918989554746
 21
6.35
 31
0.0
  0
LINE
  5
A6
330
1F
100
AcDbEntity
  8
외형선
  6
Continuous
370
    15
100
AcDbLine
 10
-37.80000000000001
 20
6.349999999999993
 30
0.0
 11
-37.80000000000001
 21
-6.349999999999991
 31
0.0
  0
LINE
  5
A7
330
1F
100
AcDbEntity
  8
외형선
  6
Continuous
370
    15
100
AcDbLine
 10
9.969918989554746
 20
-6.35
 30
0.0
 11
9.969918989554756
 21
5.217285107647402
 31
0.0
  0
LINE
  5
A8
330
1F
100
AcDbEntity
  8
외형선
  6
Continuous
370
    15
100
AcDbLine
 10
-38.80000000000001
 20
5.349999999999991
 30
0.0
 11
-38.80000000000001
 21
-5.350000000000005
 31
0.0
  0
SPLINE
  5
A9
330
1F
100
AcDbEntity
  8
외형선
  6
Continuous
370
    15
100
AcDbSpline
210
0.0
220
0.0
230
1.0
 70
    24
 71
     3
 72
    14
 73
    10
 74
     0
 42
0.000000001
 43
0.00000001
 40
0.0
 40
0.0
 40
0.0
 40
0.0
 40
0.25
 40
0.25
 40
0.5
 40
0.5
 40
0.75
 40
0.75
 40
1.0
 40
1.0
 40
1.0
 40
1.0
 10
12.0
 20
2.992688830855066
 30
0.0
 10
12.0
 20
2.505676465482913
 30
0.0
 10
12.0
 20
1.968520911501918
 30
0.0
 10
12.0
 20
0.8330753216585409
 30
0.0
 10
12.0
 20
0.2352183905006406
 30
0.0
 10
12.0
 20
-0.9642415580462712
 30
0.0
 10
12.0
 20
-1.565205453027411
 30
0.0
 10
12.0
 20
-2.712489578917418
 30
0.0
 10
12.0
 20
-3.25836007725915
 30
0.0
 10
12.0
 20
-3.756131498717476
 30
0.0
  0
SPLINE
  5
AA
330
1F
100
AcDbEntity
  8
외형선
  6
Continuous
370
    15
100
AcDbSpline
210
0.0
220
0.0
230
1.0
 70
     8
 71
     3
 72
     8
 73
     4
 74
     0
 42
0.000000001
 43
0.00000001
 40
0.0
 40
0.0
 40
0.0
 40
0.0
 40
1.0
 40
1.0
 40
1.0
 40
1.0
 10
12.00000000000001
 20
-3.756131498717477
 30
0.0
 10
11.32681637497424
 20
-3.546142666635074
 30
0.0
 10
10.64435744110174
 20
-3.313781393792402
 30
0.0
 10
9.969888033363105
 20
-3.064889614138338
 30
0.0
  0
SPLINE
  5
AB
330
1F
100
AcDbEntity
  8
외형선
  6
Continuous
370
    15
100
AcDbSpline
210
0.0
220
0.0
230
1.0
 70
     8
 71
     3
 72
     8
 73
     4
 74
     0
 42
0.000000001
 43
0.00000001
 40
0.0
 40
0.0
 40
0.0
 40
0.0
 40
1.0
 40
1.0
 40
1.0
 40
1.0
 10
12.0
 20
2.992688830855065
 30
0.0
 10
11.3268198785123
 20
3.194474012083018
 30
0.0
 10
10.64436454456322
 20
3.380110058145765
 30
0.0
 10
9.969898564053272
 20
3.544865485375184
 30
0.0
  0
SPLINE
  5
AC
330
1F
100
AcDbEntity
  8
외형선
  6
Continuous
370
    15
100
AcDbSpline
210
0.0
220
0.0
230
1.0
 70
    24
 71
     3
 72
    10
 73
     6
 74
     0
 42
0.000000001
 43
0.00000001
 40
0.0
 40
0.0
 40
0.0
 40
0.0
 40
0.4999999999999994
 40
0.4999999999999994
 40
1.0
 40
1.0
 40
1.0
 40
1.0
 10
12.0
 20
4.464653049026387
 30
0.0
 10
12.0
 20
4.310707723689765
 30
0.0
 10
12.0
 20
4.094634871367692
 30
0.0
 10
12.0
 20
3.583003836283769
 30
0.0
 10
12.0
 20
3.289121602635856
 30
0.0
 10
12.0
 20
2.992688830855064
 30
0.0
  0
SPLINE
  5
AD
330
1F
100
AcDbEntity
  8
외형선
  6
Continuous
370
    15
100
AcDbSpline
210
0.0
220
0.0
230
1.0
 70
    24
 71
     3
 72
    12
 73
     8
 74
     0
 42
0.000000001
 43
0.00000001
 40
0.0
 40
0.0
 40
0.0
 40
0.0
 40
0.1813025155515218
 40
0.364968933854944
 40
0.6316714970557015
 40
0.9061084526569964
 40
1.0
 40
1.0
 40
1.0
 40
1.0
 10
12.00000000000001
 20
-3.756131498717477
 30
0.0
 10
12.0
 20
-3.902463849745138
 30
0.0
 10
12.0
 20
-4.19703649800978
 30
0.0
 10
12.0
 20
-4.595340297291026
 30
0.0
 10
12.0
 20
-4.91308896049537
 30
0.0
 10
12.0
 20
-5.072018981179143
 30
0.0
 10
12.0
 20
-5.053543967675004
 30
0.0
 10
12.0
 20
-5.048834455402075
 30
0.0
  0
SPLINE
  5
AE
330
1F
100
AcDbEntity
  8
외형선
  6
Continuous
370
    15
100
AcDbSpline
210
0.0
220
0.0
230
1.0
 70
    24
 71
     3
 72
    10
 73
     6
 74
     0
 42
0.000000001
 43
0.00000001
 40
0.0
 40
0.0
 40
0.0
 40
0.0
 40
0.1284660669396516
 40
0.7764936588857925
 40
0.9999999999999999
 40
0.9999999999999999
 40
0.9999999999999999
 40
0.9999999999999999
 10
12.0
 20
-5.10233676767195
 30
0.0
 10
12.0
 20
-5.122580348431143
 30
0.0
 10
12.0
 20
-5.244939602256824
 30
0.0
 10
12.0
 20
-5.387870867762841
 30
0.0
 10
12.0
 20
-5.507426376299742
 30
0.0
 10
12.0
 20
-5.538086587290378
 30
0.0
  0
SPLINE
  5
AF
330
1F
100
AcDbEntity
  8
0
  6
Continuous
 62
     1
370
    15
100
AcDbSpline
210
0.0
220
0.0
230
1.0
 70
     8
 71
     3
 72
    46
 73
    42
 74
     0
 42
0.000000001
 43
0.00000001
 40
0.0
 40
0.0
 40
0.0
 40
0.0
 40
0.0624999999999999
 40
0.0624999999999999
 40
0.1249999999999999
 40
0.1249999999999999
 40
0.1874999999999999
 40
0.1874999999999999
 40
0.25
 40
0.25
 40
0.3124999999999999
 40
0.3124999999999999
 40
0.3437499999999998
 40
0.3437499999999998
 40
0.3749999999999998
 40
0.3749999999999998
 40
0.4374999999999997
 40
0.4374999999999997
 40
0.4687499999999996
 40
0.4687499999999996
 40
0.4999999999999996
 40
0.4999999999999996
 40
0.5312499999999996
 40
0.5312499999999996
 40
0.5624999999999994
 40
0.5624999999999994
 40
0.6249999999999992
 40
0.6249999999999992
 40
0.6562499999999993
 40
0.6562499999999993
 40
0.6874999999999993
 40
0.6874999999999993
 40
0.7499999999999996
 40
0.7499999999999996
 40
0.8124999999999996
 40
0.8124999999999996
 40
0.8749999999999998
 40
0.8749999999999998
 40
0.9374999999999999
 40
0.9374999999999999
 40
1.0
 40
1.0
 40
1.0
 40
1.0
 10
11.99999999999999
 20
4.464653049026392
 30
0.0
 10
12.52672504416328
 20
4.247735319400402
 30
0.0
 10
13.05796262565513
 20
4.014682337888507
 30
0.0
 10
14.11829303643568
 20
3.522585700552484
 30
0.0
 10
14.64363063229062
 20
3.264212416748123
 30
0.0
 10
15.70411402112686
 20
2.725028152128299
 30
0.0
 10
16.23484100343621
 20
2.444910978201892
 30
0.0
 10
17.28874679353714
 20
1.87104487132314
 30
0.0
 10
17.82121095990109
 20
1.575605287773509
 30
0.0
 10
18.88061608803361
 20
0.976837013699984
 30
0.0
 10
19.40627602998153
 20
0.6737876833980082
 30
0.0
 10
20.20204433537272
 20
0.215897072122814
 30
0.0
 10
20.46754366858308
 20
0.0628996160886123
 30
0.0
 10
20.99695545039288
 20
-0.2426340664202616
 30
0.0
 10
21.2598747227641
 20
-0.3949791364446401
 30
0.0
 10
22.05180097774214
 20
-0.8512014198795361
 30
0.0
 10
22.58445851055997
 20
-1.154341155133431
 30
0.0
 10
23.37808068859542
 20
-1.60045561185869
 30
0.0
 10
23.64078694418791
 20
-1.747559624107887
 30
0.0
 10
24.16917803608347
 20
-2.039038423038026
 30
0.0
 10
24.43444851950123
 20
-2.183331253706847
 30
0.0
 10
24.9650719519046
 20
-2.467882085310924
 30
0.0
 10
25.23042309971424
 20
-2.608139118210705
 30
0.0
 10
25.75913475685226
 20
-2.883537207965072
 30
0.0
 10
26.02178061545398
 20
-3.018563283269998
 30
0.0
 10
26.81496869661653
 20
-3.416336467693712
 30
0.0
 10
27.34765817508985
 20
-3.671171005327447
 30
0.0
 10
28.14011190912472
 20
-4.031973491175044
 30
0.0
 10
28.40285000554368
 20
-4.148642748727006
 30
0.0
 10
28.93200362892977
 20
-4.375123821468369
 30
0.0
 10
29.19745387042825
 20
-4.484784469971709
 30
0.0
 10
29.99331677467493
 20
-4.80171104456034
 30
0.0
 10
30.51925150982569
 20
-4.996437849627569
 30
0.0
 10
31.57820292894594
 20
-5.350798060663363
 30
0.0
 10
32.11076289984777
 20
-5.510253335499359
 30
0.0
 10
33.16549580483547
 20
-5.788904949477375
 30
0.0
 10
33.69531744171191
 20
-5.908824232293684
 30
0.0
 10
34.75605296790278
 20
-6.106844375510589
 30
0.0
 10
35.28145434411105
 20
-6.184700391918845
 30
0.0
 10
36.3414565858693
 20
-6.297449922031394
 30
0.0
 10
36.87372572742331
 20
-6.332097562426972
 30
0.0
 10
37.40000000000001
 20
-6.349999999999996
 30
0.0
  0
SPLINE
  5
B0
330
1F
100
AcDbEntity
  8
0
  6
Continuous
 62
     1
370
    15
100
AcDbSpline
210
0.0
220
0.0
230
1.0
 70
     8
 71
     3
 72
    13
 73
     9
 74
     0
 42
0.000000001
 43
0.00000001
 40
0.0
 40
0.0
 40
0.0
 40
0.0
 40
0.0228734479886264
 40
0.2604912942259739
 40
0.498108769396378
 40
0.6654434236415365
 40
0.8326100059052538
 40
1.0
 40
1.0
 40
1.0
 40
1.0
 10
21.61907455583734
 20
-0.6011042011910565
 30
0.0
 10
21.54572854350424
 20
-0.572266846267489
 30
0.0
 10
20.71043699985658
 20
-0.2438563718244123
 30
0.0
 10
19.11322197107715
 20
0.4127967438690682
 30
0.0
 10
17.05267800242068
 20
1.231708236158936
 30
0.0
 10
15.21833645353574
 20
1.923199785327803
 30
0.0
 10
13.60946104025943
 20
2.493498833607952
 30
0.0
 10
12.53672579888633
 20
2.826218103470865
 30
0.0
 10
12.0
 20
2.992688830855065
 30
0.0
  0
SPLINE
  5
B1
330
1F
100
AcDbEntity
  8
외형선
  6
Continuous
370
    15
100
AcDbSpline
210
0.0
220
0.0
230
1.0
 70
    24
 71
     3
 72
    10
 73
     6
 74
     0
 42
0.000000001
 43
0.00000001
 40
0.0
 40
0.0
 40
0.0
 40
0.0
 40
0.5000000000000002
 40
0.5000000000000002
 40
1.0
 40
1.0
 40
1.0
 40
1.0
 10
12.0
 20
4.464653049026387
 30
0.0
 10
12.0
 20
4.310707723689765
 30
0.0
 10
12.0
 20
4.094634871367692
 30
0.0
 10
12.0
 20
3.58300383628377
 30
0.0
 10
12.0
 20
3.289121602635856
 30
0.0
 10
12.0
 20
2.992688830855064
 30
0.0
  0
SPLINE
  5
B2
330
1F
100
AcDbEntity
  8
0
  6
Continuous
 62
     1
370
    15
100
AcDbSpline
210
0.0
220
0.0
230
1.0
 70
     8
 71
     3
 72
    46
 73
    42
 74
     0
 42
0.000000001
 43
0.00000001
 40
0.0
 40
0.0
 40
0.0
 40
0.0
 40
0.0625
 40
0.0625
 40
0.1250000000000001
 40
0.1250000000000001
 40
0.1875000000000001
 40
0.1875000000000001
 40
0.2500000000000002
 40
0.2500000000000002
 40
0.3125000000000002
 40
0.3125000000000002
 40
0.3437500000000002
 40
0.3437500000000002
 40
0.3750000000000002
 40
0.3750000000000002
 40
0.4375000000000003
 40
0.4375000000000003
 40
0.4687500000000003
 40
0.4687500000000003
 40
0.5000000000000003
 40
0.5000000000000003
 40
0.5312500000000003
 40
0.5312500000000003
 40
0.5625000000000003
 40
0.5625000000000003
 40
0.6250000000000004
 40
0.6250000000000004
 40
0.6562500000000004
 40
0.6562500000000004
 40
0.6875000000000004
 40
0.6875000000000004
 40
0.7500000000000003
 40
0.7500000000000003
 40
0.8125000000000003
 40
0.8125000000000003
 40
0.8750000000000002
 40
0.8750000000000002
 40
0.9375000000000002
 40
0.9375000000000002
 40
1.0
 40
1.0
 40
1.0
 40
1.0
 10
37.40000000000001
 20
-6.025774519622564
 30
0.0
 10
36.87372572742322
 20
-5.929573616110916
 30
0.0
 10
36.34145658586912
 20
-5.812053215775036
 30
0.0
 10
35.2814543441107
 20
-5.537740733374996
 30
0.0
 10
34.75605296790233
 20
-5.381300246554265
 30
0.0
 10
33.6953174417113
 20
-5.031198672749325
 30
0.0
 10
33.16549580483478
 20
-4.838060822548671
 30
0.0
 10
32.11076289984688
 20
-4.420275726186782
 30
0.0
 10
31.57820292894497
 20
-4.194580171097231
 30
0.0
 10
30.51925150982456
 20
-3.716483098540841
 30
0.0
 10
29.9933167746737
 20
-3.464249492084572
 30
0.0
 10
29.19745387042688
 20
-3.068072989997657
 30
0.0
 10
28.93200362892837
 20
-2.933200939574387
 30
0.0
 10
28.4028500055422
 20
-2.658897810447502
 30
0.0
 10
28.14011190912319
 20
-2.519642419492141
 30
0.0
 10
27.34765817508817
 20
-2.094948173753149
 30
0.0
 10
26.81496869661476
 20
-1.802749197944187
 30
0.0
 10
26.02178061545211
 20
-1.35765375028914
 30
0.0
 10
25.75913475685034
 20
-1.208312258648278
 30
0.0
 10
25.23042309971222
 20
-0.9071497011257293
 30
0.0
 10
24.96507195190253
 20
-0.7554607481160863
 30
0.0
 10
24.43444851949907
 20
-0.4510466426938217
 30
0.0
 10
24.16917803608128
 20
-0.2983225241680666
 30
0.0
 10
23.64078694418564
 20
0.0069650330481419
 30
0.0
 10
23.37808068859312
 20
0.1594484698243302
 30
0.0
 10
22.5844585105575
 20
0.617146077116969
 30
0.0
 10
22.0518009777396
 20
0.9218696343603131
 30
0.0
 10
21.25987472276144
 20
1.371242881123162
 30
0.0
 10
20.99695545039017
 20
1.519778135504632
 30
0.0
 10
20.46754366858028
 20
1.814622629434584
 30
0.0
 10
20.20204433536986
 20
1.960742436635094
 30
0.0
 10
19.40627602997855
 20
2.393472084953289
 30
0.0
 10
18.88061608803055
 20
2.673771011333719
 30
0.0
 10
17.82121095989783
 20
3.21532266036248
 30
0.0
 10
17.28874679353381
 20
3.476278009401225
 30
0.0
 10
16.23484100343275
 20
3.970554147753996
 30
0.0
 10
15.70411402112326
 20
4.205342004246701
 30
0.0
 10
14.64363063228686
 20
4.643917003861755
 30
0.0
 10
14.11829303643183
 20
4.847180261326907
 30
0.0
 10
13.05796262565109
 20
5.219919992573505
 30
0.0
 10
12.52672504415921
 20
5.388840157495808
 30
0.0
 10
11.99999999999582
 20
5.538086587306413
 30
0.0
  0
SPLINE
  5
B3
330
1F
100
AcDbEntity
  8
0
  6
Continuous
 62
     1
370
    15
100
AcDbSpline
210
0.0
220
0.0
230
1.0
 70
     8
 71
     3
 72
    17
 73
    13
 74
     0
 42
0.000000001
 43
0.00000001
 40
0.0
 40
0.0
 40
0.0
 40
0.0
 40
0.1040660877164595
 40
0.2080041093875419
 40
0.3119482046082697
 40
0.4160303008904621
 40
0.5200793329538813
 40
0.6240123779789161
 40
0.7279636429794067
 40
0.8320585690381735
 40
0.9360916300652785
 40
1.0
 40
1.0
 40
1.0
 40
1.0
 10
37.40000000000001
 20
-5.009973878738172
 30
0.0
 10
36.8281380810098
 20
-4.893897757178271
 30
0.0
 10
35.6851179890438
 20
-4.661888359918992
 30
0.0
 10
33.97137761832397
 20
-4.167935544233531
 30
0.0
 10
32.25754554354563
 20
-3.581504151170285
 30
0.0
 10
30.54255767371735
 20
-2.90653323788285
 30
0.0
 10
28.82779066718952
 20
-2.161499862899531
 30
0.0
 10
27.11413278505206
 20
-1.363594109035911
 30
0.0
 10
25.40020629586919
 20
-0.5321113868084281
 30
0.0
 10
23.68513738221611
 20
0.3096911113361161
 30
0.0
 10
22.19037168573882
 20
1.042839444435243
 30
0.0
 10
21.26774737966517
 20
1.47358890412129
 30
0.0
 10
20.91665226796088
 20
1.637506143965784
 30
0.0
  0
LINE
  5
B4
330
1F
100
AcDbEntity
  8
0
  6
Continuous
 62
     1
370
    15
100
AcDbLine
 10
37.40000000000001
 20
-6.025774519622566
 30
0.0
 11
37.40000000000001
 21
-5.009973878738172
 31
0.0
  0
LINE
  5
B5
330
1F
100
AcDbEntity
  8
0
  6
Continuous
 62
     1
370
    15
100
AcDbLine
 10
37.40000000000001
 20
-6.349999999999998
 30
0.0
 11
37.40000000000001
 21
-6.025774519622562
 31
0.0
  0
SPLINE
  5
B6
330
1F
100
AcDbEntity
  8
0
  6
Continuous
 62
     1
370
    15
100
AcDbSpline
210
0.0
220
0.0
230
1.0
 70
     8
 71
     3
 72
     8
 73
     4
 74
     0
 42
0.000000001
 43
0.00000001
 40
0.0
 40
0.0
 40
0.0
 40
0.0
 40
1.0
 40
1.0
 40
1.0
 40
1.0
 10
33.47110935627956
 20
1.776017074452404
 30
0.0
 10
33.24595661831216
 20
2.042719345426454
 30
0.0
 10
33.04437534697851
 20
2.300050926276612
 30
0.0
 10
32.87247056945012
 20
2.545584801377975
 30
0.0
  0
LINE
  5
B7
330
1F
100
AcDbEntity
  8
0
  6
Continuous
 62
     1
370
    15
100
AcDbLine
 10
32.95275512375334
 20
2.612951541294603
 30
0.0
 11
37.40000000000001
 21
0.0000000000000026
 31
0.0
  0
LINE
  5
B8
330
1F
100
AcDbEntity
  8
0
  6
Continuous
 62
     1
370
    15
100
AcDbLine
 10
37.40000000000001
 20
0.0000000000000026
 30
0.0
 11
37.40000000000001
 21
-1.696992707288242
 31
0.0
  0
SPLINE
  5
B9
330
1F
100
AcDbEntity
  8
0
  6
Continuous
 62
     1
370
    15
100
AcDbSpline
210
0.0
220
0.0
230
1.0
 70
     8
 71
     3
 72
    12
 73
     8
 74
     0
 42
0.000000001
 43
0.00000001
 40
0.0
 40
0.0
 40
0.0
 40
0.0
 40
0.5
 40
0.5
 40
0.75
 40
0.75
 40
1.0
 40
1.0
 40
1.0
 40
1.0
 10
37.40000000000001
 20
-1.696992707288242
 30
0.0
 10
36.71989727265294
 20
-1.16231820457425
 30
0.0
 10
36.0511544579366
 20
-0.6057234975937634
 30
0.0
 10
35.06552321729133
 20
0.2629039036822286
 30
0.0
 10
34.73994021316175
 20
0.5581594504446585
 30
0.0
 10
34.09542402705682
 20
1.161502109201977
 30
0.0
 10
33.77824347731784
 20
1.468032404441036
 30
0.0
 10
33.47110935627954
 20
1.776017074452412
 30
0.0
  0
SPLINE
  5
BA
330
1F
100
AcDbEntity
  8
0
  6
Continuous
 62
     1
370
    15
100
AcDbSpline
210
0.0
220
0.0
230
1.0
 70
     8
 71
     3
 72
    16
 73
    12
 74
     0
 42
0.000000001
 43
0.00000001
 40
0.0
 40
0.0
 40
0.0
 40
0.0
 40
0.1000560031633728
 40
0.200302715083051
 40
0.3175931675487542
 40
0.4347510467855488
 40
0.5519297576122584
 40
0.6692726788542974
 40
0.7865448719829816
 40
0.9036983166057168
 40
1.0
 40
1.0
 40
1.0
 40
1.0
 10
33.471109356275
 20
1.77601707445437
 30
0.0
 10
32.98355148473282
 20
1.98422826671195
 30
0.0
 10
32.00750644653003
 20
2.401047505951155
 30
0.0
 10
30.45932759325639
 20
3.006945649640995
 30
0.0
 10
28.82781793356285
 20
3.584722420066903
 30
0.0
 10
27.11415256304968
 20
4.104621326967901
 30
0.0
 10
25.40020941915312
 20
4.524913228271197
 30
0.0
 10
23.68517270233785
 20
4.835997376991832
 30
0.0
 10
21.97051570547872
 20
5.02659102040316
 30
0.0
 10
20.35873447972857
 20
5.103586479039372
 30
0.0
 10
19.31836090403094
 20
5.057625836115808
 30
0.0
 10
18.84898953015313
 20
5.036890390101743
 30
0.0
  0
SPLINE
  5
BB
330
1F
100
AcDbEntity
  8
0
  6
Continuous
 62
     1
370
    15
100
AcDbSpline
210
0.0
220
0.0
230
1.0
 70
    24
 71
     3
 72
    10
 73
     6
 74
     0
 42
0.000000001
 43
0.00000001
 40
0.0
 40
0.0
 40
0.0
 40
0.0
 40
0.5
 40
0.5
 40
1.0
 40
1.0
 40
1.0
 40
1.0
 10
37.40000000000001
 20
-5.009973878738171
 30
0.0
 10
37.40000000000001
 20
-4.625920320174162
 30
0.0
 10
37.4
 20
-4.140653922806075
 30
0.0
 10
37.40000000000001
 20
-3.012456250606816
 30
0.0
 10
37.40000000000001
 20
-2.370502263375815
 30
0.0
 10
37.40000000000001
 20
-1.696992707288445
 30
0.0
  0
SPLINE
  5
BC
330
1F
100
AcDbEntity
  8
0
  6
Continuous
 62
     1
370
    15
100
AcDbSpline
210
0.0
220
0.0
230
1.0
 70
    24
 71
     3
 72
     8
 73
     4
 74
     0
 42
0.000000001
 43
0.00000001
 40
0.0
 40
0.0
 40
0.0
 40
0.0
 40
1.0
 40
1.0
 40
1.0
 40
1.0
 10
33.5347968843033
 20
3.101342567901441
 30
0.0
 10
33.32520081076369
 20
2.925470579898144
 30
0.0
 10
33.10370784598383
 20
2.739615914843403
 30
0.0
 10
32.87247056944508
 20
2.545584801385298
 30
0.0
  0
SPLINE
  5
BD
330
1F
100
AcDbEntity
  8
0
  6
Continuous
 62
     1
370
    15
100
AcDbSpline
210
0.0
220
0.0
230
1.0
 70
     8
 71
     3
 72
     9
 73
     5
 74
     0
 42
0.000000001
 43
0.00000001
 40
0.0
 40
0.0
 40
0.0
 40
0.0
 40
0.968438207780677
 40
1.0
 40
1.0
 40
1.0
 40
1.0
 10
37.40000000000001
 20
4.444999999999999
 30
0.0
 10
36.6380449947656
 20
4.443329309275319
 30
0.0
 10
35.85125756825489
 20
4.441604170065347
 30
0.0
 10
35.06447035458346
 20
4.343236662230664
 30
0.0
 10
35.03963794002475
 20
4.340132007387254
 30
0.0
  0
SPLINE
  5
BE
330
1F
100
AcDbEntity
  8
0
  6
Continuous
 62
     1
370
    15
100
AcDbSpline
210
0.0
220
0.0
230
1.0
 70
     8
 71
     3
 72
    10
 73
     6
 74
     0
 42
0.000000001
 43
0.00000001
 40
0.0
 40
0.0
 40
0.0
 40
0.0
 40
0.5
 40
0.5
 40
1.0
 40
1.0
 40
1.0
 40
1.0
 10
37.40000000000001
 20
4.445000000000002
 30
0.0
 10
36.74677884300199
 20
4.267837056609054
 30
0.0
 10
36.09755500543648
 20
4.068937872914629
 30
0.0
 10
34.8078065945647
 20
3.623835480516958
 30
0.0
 10
34.16724863861672
 20
3.378145942251257
 30
0.0
 10
33.53479688431505
 20
3.101342567906905
 30
0.0
  0
SPLINE
  5
BF
330
1F
100
AcDbEntity
  8
0
  6
Continuous
 62
     1
370
    15
100
AcDbSpline
210
0.0
220
0.0
230
1.0
 70
     8
 71
     3
 72
    15
 73
    11
 74
     0
 42
0.000000001
 43
0.00000001
 40
0.0
 40
0.0
 40
0.0
 40
0.0
 40
0.0221184531496167
 40
0.1656250890246231
 40
0.3089864116915337
 40
0.4523902174195771
 40
0.5959969010920052
 40
0.7306940624419221
 40
0.8652594556431356
 40
1.0
 40
1.0
 40
1.0
 40
1.0
 10
23.9492033341692
 20
-4.768295925836533
 30
0.0
 10
23.86109215429934
 20
-4.784538027657518
 30
0.0
 10
23.20130722669634
 20
-4.906160436867184
 30
0.0
 10
21.97052174625448
 20
-5.02204378224655
 30
0.0
 10
20.25691647069376
 20
-5.102075464336643
 30
0.0
 10
18.54288402637213
 20
-5.047372431010857
 30
0.0
 10
16.86278334139811
 20
-4.877373091921351
 30
0.0
 10
15.21831044645467
 20
-4.598667159335712
 30
0.0
 10
13.60949273743837
 20
-4.233139024505842
 30
0.0
 10
12.53673014687088
 20
-3.915202933722759
 30
0.0
 10
12.00000000000001
 20
-3.756131498717477
 30
0.0
  0
SPLINE
  5
C0
330
1F
100
AcDbEntity
  8
외형선
  6
Continuous
370
    15
100
AcDbSpline
210
0.0
220
0.0
230
1.0
 70
    24
 71
     3
 72
    14
 73
    10
 74
     0
 42
0.000000001
 43
0.00000001
 40
0.0
 40
0.0
 40
0.0
 40
0.0
 40
0.25
 40
0.25
 40
0.5
 40
0.5
 40
0.75
 40
0.75
 40
1.0
 40
1.0
 40
1.0
 40
1.0
 10
12.0
 20
2.992688830855066
 30
0.0
 10
12.0
 20
2.505676465482913
 30
0.0
 10
12.0
 20
1.968520911501918
 30
0.0
 10
12.0
 20
0.8330753216585409
 30
0.0
 10
12.0
 20
0.2352183905006406
 30
0.0
 10
12.0
 20
-0.9642415580462712
 30
0.0
 10
12.0
 20
-1.565205453027411
 30
0.0
 10
12.0
 20
-2.712489578917418
 30
0.0
 10
12.0
 20
-3.25836007725915
 30
0.0
 10
12.0
 20
-3.756131498717476
 30
0.0
  0
LINE
  5
C1
330
1F
100
AcDbEntity
  8
0
  6
Continuous
 62
     1
370
    15
100
AcDbLine
 10
37.40000000000001
 20
0.0000000000000026
 30
0.0
 11
37.40000000000001
 21
4.445000000000002
 31
0.0
  0
SPLINE
  5
C2
330
1F
100
AcDbEntity
  8
외형선
  6
Continuous
370
    15
100
AcDbSpline
210
0.0
220
0.0
230
1.0
 70
    24
 71
     3
 72
    12
 73
     8
 74
     0
 42
0.000000001
 43
0.00000001
 40
0.0
 40
0.0
 40
0.0
 40
0.0
 40
0.1814510693155808
 40
0.3652679782930415
 40
0.6321890694581086
 40
0.9068508903494822
 40
1.0
 40
1.0
 40
1.0
 40
1.0
 10
12.0
 20
-3.756131498717476
 30
0.0
 10
12.0
 20
-3.902463371165381
 30
0.0
 10
12.0
 20
-4.197035056030572
 30
0.0
 10
12.0
 20
-4.595347257570976
 30
0.0
 10
12.0
 20
-4.913048896955504
 30
0.0
 10
12.0
 20
-5.071923756608516
 30
0.0
 10
12.0
 20
-5.053548528238183
 30
0.0
 10
12.0
 20
-5.04889495212015
 30
0.0
  0
SPLINE
  5
C3
330
1F
100
AcDbEntity
  8
0
  6
Continuous
 62
     1
370
    15
100
AcDbSpline
210
0.0
220
0.0
230
1.0
 70
    24
 71
     3
 72
    10
 73
     6
 74
     0
 42
0.000000001
 43
0.00000001
 40
0.0
 40
0.0
 40
0.0
 40
0.0
 40
0.5
 40
0.5
 40
1.0
 40
1.0
 40
1.0
 40
1.0
 10
37.40000000000001
 20
4.444999999999999
 30
0.0
 10
37.40000000000001
 20
4.714444830726441
 30
0.0
 10
37.4
 20
5.027564677306191
 30
0.0
 10
37.40000000000001
 20
5.684489272101429
 30
0.0
 10
37.40000000000001
 20
6.026616317339348
 30
0.0
 10
37.40000000000001
 20
6.350000000000003
 30
0.0
  0
SPLINE
  5
C4
330
1F
100
AcDbEntity
  8
0
  6
Continuous
 62
     1
370
    15
100
AcDbSpline
210
0.0
220
0.0
230
1.0
 70
     8
 71
     3
 72
    15
 73
    11
 74
     0
 42
0.000000001
 43
0.00000001
 40
0.0
 40
0.0
 40
0.0
 40
0.0
 40
0.1239722868823473
 40
0.2296144668845209
 40
0.3244755066289072
 40
0.5148368156121194
 40
0.610373337762823
 40
0.7074286629148673
 40
0.9022227159313809
 40
0.9999999999999999
 40
0.9999999999999999
 40
0.9999999999999999
 40
0.9999999999999999
 10
28.68848287523939
 20
4.255769584679239
 30
0.0
 10
29.04860337694095
 20
4.41187644952543
 30
0.0
 10
29.715598227902
 20
4.701008766514056
 30
0.0
 10
30.65713266803684
 20
5.043651205166869
 30
0.0
 10
31.79237298510117
 20
5.422531287201686
 30
0.0
 10
32.89784392595282
 20
5.729618632061094
 30
0.0
 10
34.01019433933851
 20
5.972325375945955
 30
0.0
 10
35.13509316401468
 20
6.170639888304626
 30
0.0
 10
36.2668222002499
 20
6.302430389695759
 30
0.0
 10
37.11615360828191
 20
6.334061849110999
 30
0.0
 10
37.40000000000001
 20
6.350000000000003
 30
0.0
  0
LINE
  5
C5
330
1F
100
AcDbEntity
  8
0
  6
Continuous
 62
     1
370
    15
100
AcDbLine
 10
13.69399895693402
 20
-4.989971936078309
 30
0.0
 11
11.99999999999582
 21
-5.538086587306415
 31
0.0
  0
SPLINE
  5
C6
330
1F
100
AcDbEntity
  8
외형선
  6
Continuous
370
    15
100
AcDbSpline
210
0.0
220
0.0
230
1.0
 70
    24
 71
     3
 72
    11
 73
     7
 74
     0
 42
0.000000001
 43
0.00000001
 40
0.0
 40
0.0
 40
0.0
 40
0.0
 40
0.1304332605399057
 40
0.4535392619830555
 40
0.7770223177559548
 40
1.0
 40
1.0
 40
1.0
 40
1.0
 10
12.0
 20
-5.10233676767195
 30
0.0
 10
12.0
 20
-5.122568908600076
 30
0.0
 10
12.0
 20
-5.192919601566706
 30
0.0
 10
12.0
 20
-5.307709317163534
 30
0.0
 10
12.0
 20
-5.432586613692143
 30
0.0
 10
12.0
 20
-5.507513458927793
 30
0.0
 10
12.0
 20
-5.538086587290376
 30
0.0
  0
LINE
  5
C7
330
1F
100
AcDbEntity
  8
중심선
 48
0.8
100
AcDbLine
 10
-41.8
 20
-0.000000000000005
 30
0.0
 11
40.40000000000002
 21
0.0000000000000039
 31
0.0
  0
LINE
  5
C8
330
1F
100
AcDbEntity
  8
참조1
100
AcDbLine
 10
-6.73768467149223
 20
0.0010749287238892
 30
0.0
 11
-6.737684671492225
 21
-39.99892507127611
 31
0.0
  0
LINE
  5
C9
330
1F
100
AcDbEntity
  8
참조1
100
AcDbLine
 10
-6.737684671492225
 20
-39.99892507127611
 30
0.0
 11
-15.54395731641845
 21
-39.9989250712761
 31
0.0
  0
CIRCLE
  5
CA
330
1F
100
AcDbEntity
  8
해칭선
100
AcDbCircle
 10
0.0
 20
0.0
 30
0.0
 40
3.000000000000001
  0
INSERT
  5
CB
330
1F
100
AcDbEntity
  8
0
  6
Continuous
 62
     7
100
AcDbBlockReference
 66
     1
  2
블럭10
 10
-14.6402729321252
 20
-52.04717430164393
 30
0.0
  0
ATTRIB
  5
CC
330
CB
100
AcDbEntity
  8
FORMAT
 62
     2
100
AcDbText
 10
-24.78190894426183
 20
-49.97180738881174
 30
0.0
 40
4.233333333333333
  1
EM154032 [ 2 FLUTE ]
 41
0.75
  7
SLDTEXTSTYLE0
 11
-24.78190894426183
 21
-52.08847405547841
 31
0.0
100
AcDbAttribute
  2
AUTOATTR0
 70
     0
 74
     1
  0
SEQEND
  5
CD
330
CB
100
AcDbEntity
  8
0
  6
Continuous
 62
     7
  0
HATCH
  5
CE
330
1F
100
AcDbEntity
  8
중심선
100
AcDbHatch
 10
0.0
 20
0.0
 30
0.0
210
0.0
220
0.0
230
1.0
  2
SOLID
 70
     1
 71
     0
 91
        1
 92
        0
 93
        4
 72
     1
 10
-8.92536362774435
 20
-35.8
 11
-12.37163887158163
 21
-35.8
 72
     1
 10
-12.37163887158163
 20
-35.8
 11
-14.49986873078565
 21
-38.33632558057257
 72
     1
 10
-14.49986873078565
 20
-38.33632558057257
 11
-11.05356040183522
 21
-38.33628615127008
 72
     1
 10
-11.05356040183522
 20
-38.33628615127008
 11
-8.92536362774435
 21
-35.8
 97
        0
 75
     0
 76
     1
 98
        1
 10
6.03768467149224
 20
-0.0010749287238938
  0
HATCH
  5
CF
330
1F
100
AcDbEntity
  8
중심선
100
AcDbHatch
 10
0.0
 20
0.0
 30
0.0
210
0.0
220
0.0
230
1.0
  2
SOLID
 70
     1
 71
     0
 91
        1
 92
        0
 93
        4
 72
     1
 10
-3.912599636708368
 20
-35.80000000000003
 11
-7.358874880545649
 21
-35.79999999999998
 72
     1
 10
-7.358874880545649
 20
-35.79999999999998
 11
-11.89001288890307
 21
-41.20000000000002
 72
     1
 10
-11.89001288890307
 20
-41.20000000000002
 11
-8.44373764506578
 21
-41.20000000000002
 72
     1
 10
-8.44373764506578
 20
-41.20000000000002
 11
-3.912599636708368
 21
-35.80000000000003
 97
        0
 75
     0
 76
     1
 98
        1
 10
6.03768467149224
 20
-0.0010749287238938
  0
HATCH
  5
D0
330
1F
100
AcDbEntity
  8
중심선
100
AcDbHatch
 10
0.0
 20
0.0
 30
0.0
210
0.0
220
0.0
230
1.0
  2
SOLID
 70
     1
 71
     0
 91
        1
 92
        0
 93
        4
 72
     1
 10
1.1001643543275
 20
-35.8
 11
-2.346110889509587
 21
-35.8
 72
     1
 10
-2.346110889509587
 20
-35.8
 11
-9.39454779139886
 21
-44.20000000000002
 72
     1
 10
-9.39454779139886
 20
-44.20000000000002
 11
-5.948272547561583
 21
-44.20000000000002
 72
     1
 10
-5.948272547561583
 20
-44.20000000000002
 11
1.1001643543275
 21
-35.8
 97
        0
 75
     0
 76
     1
 98
        1
 10
6.03768467149224
 20
-0.0010749287238938
  0
HATCH
  5
D1
330
1F
100
AcDbEntity
  8
중심선
100
AcDbHatch
 10
0.0
 20
0.0
 30
0.0
210
0.0
220
0.0
230
1.0
  2
SOLID
 70
     1
 71
     0
 91
        1
 92
        0
 93
        6
 72
     3
 10
5.9000547853397
 20
-40.00000000005127
 11
3.960054785062283
 21
1.540882976769353E-10
 40
0.3939339440162628
 50
17.09539180608439
 51
320.0019657685075
 73
     0
 72
     1
 10
7.583054441040295
 20
-38.58789400463827
 11
9.88835631474136
 21
-36.65356729459035
 72
     3
 10
5.900054785286853
 20
-40.00000000000015
 11
6.600054785286829
 21
-1.278976924368180E-13
 40
0.636358354079598
 50
39.99873849337411
 51
368.4976242363724
 73
     1
 72
     1
 10
12.32538727718746
 20
-39.03999999993002
 11
4.580122092122776
 21
-39.03999999993002
 72
     1
 10
4.580122092122775
 20
-39.03999999993002
 11
4.580097047676841
 21
-40.95999999992991
 72
     1
 10
4.580097047676841
 20
-40.95999999992991
 11
9.021476817148878
 21
-40.95999999992988
 97
        0
 75
     0
 76
     1
 98
        1
 10
6.03768467149224
 20
-0.0010749287238938
  0
DIMENSION
  5
D2
330
1F
100
AcDbEntity
  8
치수문자_일반주서
100
AcDbDimension
  2
_D
 10
-51.22999999999997
 20
-6.350000000000044
 30
0.0
 11
-51.22999999999999
 21
-0.000000000000005
 31
0.0
 70
   160
  1
%%c<>
 71
     2
 42
12.69999999999999
 52
-270.0
  3
SLDDIMSTYLE0
100
AcDbAlignedDimension
 13
-37.80000000000001
 23
6.349999999999994
 33
0.0
 14
-37.80000000000001
 24
-6.349999999999994
 34
0.0
 50
90.0000000000002
100
AcDbRotatedDimension
1001
ACAD
1000
DSTYLE
1002
{
1070
   171
1070
     6
1070
   273
1070
     7
1002
}
  0
DIMENSION
  5
E7
330
1F
100
AcDbEntity
  8
치수문자_일반주서
100
AcDbDimension
  2
_D_1
 10
54.57634380757511
 20
-6.34999999999993
 30
0.0
 11
54.576343807575
 21
26.73525000000007
 31
0.0
 70
   160
  1
%%c<>
 71
     2
 42
12.7
 52
-270.0
  3
SLDDIMSTYLE0
100
AcDbAlignedDimension
 13
37.40000000000001
 23
6.350000000000003
 33
0.0
 14
37.40000000000001
 24
-6.349999999999996
 34
0.0
 50
90.0000000000002
100
AcDbRotatedDimension
1001
ACAD
1000
DSTYLE
1002
{
1070
   171
1070
     6
1070
   273
1070
     7
1002
}
  0
DIMENSION
  5
FC
330
1F
100
AcDbEntity
  8
치수문자_일반주서
100
AcDbDimension
  2
_D_2
 10
12.0
 20
22.16809451126176
 30
0.0
 11
-16.67711381932886
 21
22.16809451126176
 31
0.0
 70
   160
  1
<>
 71
     2
 42
25.40000000000001
  3
SLDDIMSTYLE0
100
AcDbAlignedDimension
 13
37.40000000000001
 23
4.445000000000002
 33
0.0
 14
12.0
 24
5.538086587305228
 34
0.0
100
AcDbRotatedDimension
1001
ACAD
1000
DSTYLE
1002
{
1070
   171
1070
     6
1070
   273
1070
     7
1002
}
  0
DIMENSION
  5
111
330
1F
100
AcDbEntity
  8
치수문자_일반주서
100
AcDbDimension
  2
_D_3
 10
-38.80000000000002
 20
42.30092844013392
 30
0.0
 11
-0.7000000000000051
 21
42.30092844013392
 31
0.0
 70
   160
  1
<>
 71
     2
 42
76.20000000000002
  3
SLDDIMSTYLE0
100
AcDbAlignedDimension
 13
37.40000000000001
 23
4.445000000000002
 33
0.0
 14
-38.80000000000001
 24
5.349999999999991
 34
0.0
100
AcDbRotatedDimension
1001
ACAD
1000
DSTYLE
1002
{
1070
   171
1070
     6
1070
   273
1070
     7
1002
}
  0
LINE
  5
124
330
1F
100
AcDbEntity
  8
참조1
100
AcDbLine
 10
82.42838331323583
 20
7.441074928723896
 30
0.0
 11
82.42838331323583
 21
-7.438925071276109
 31
0.0
  0
LINE
  5
125
330
1F
100
AcDbEntity
  8
참조1
100
AcDbLine
 10
95.12838331323583
 20
5.441074928723896
 30
0.0
 11
82.42838331323583
 21
5.441074928723896
 31
0.0
  0
SOLID
  5
126
330
1F
100
AcDbEntity
  8
참조1
100
AcDbTrace
 10
82.42838331323583
 20
5.441074928723896
 30
0.0
 11
88.77838331323582
 21
4.425074928723896
 31
0.0
 12
88.77838331323582
 22
6.457074928723896
 32
0.0
 13
88.77838331323582
 23
6.457074928723896
 33
0.0
  0
LINE
  5
127
330
1F
100
AcDbEntity
  8
참조1
100
AcDbLine
 10
95.12838331323583
 20
-5.438925071276109
 30
0.0
 11
82.42838331323583
 21
-5.438925071276109
 31
0.0
  0
SOLID
  5
128
330
1F
100
AcDbEntity
  8
참조1
100
AcDbTrace
 10
82.42838331323583
 20
-5.438925071276109
 30
0.0
 11
88.77838331323582
 21
-6.454925071276109
 31
0.0
 12
88.77838331323582
 22
-4.422925071276109
 32
0.0
 13
88.77838331323582
 23
-4.422925071276109
 33
0.0
  0
MTEXT
  5
129
330
1F
100
AcDbEntity
  8
참조1
100
AcDbMText
 10
91.82587340570609
 20
10.98929157337383
 30
0.0
 40
3.5
 41
0.0
 71
     1
 72
     1
  1
A
  7
SLDTEXTSTYLE0
 73
     1
 44
1.0
  0
MTEXT
  5
12A
330
1F
100
AcDbEntity
  8
참조1
100
AcDbMText
 10
91.82587340570609
 20
0.1092915733738259
 30
0.0
 40
3.5
 41
0.0
 71
     1
 72
     1
  1
A
  7
SLDTEXTSTYLE0
 73
     1
 44
1.0
  0
INSERT
  5
131
330
1F
100
AcDbEntity
  8
해칭선
100
AcDbBlockReference
  2
SW_DOWELSYMBOL_0
 10
0.0
 20
0.0
 30
0.0
  0
ENDSEC
  0
SECTION
  2
OBJECTS
  0
DICTIONARY
  5
C
330
0
100
AcDbDictionary
281
     1
  3
ACAD_GROUP
350
D
  3
ACAD_IMAGE_VARS
350
155
  3
ACAD_LAYOUT
350
1A
  3
ACAD_MLINESTYLE
350
17
  3
ACAD_PLOTSETTINGS
350
19
  3
ACAD_PLOTSTYLENAME
350
E
  3
ACAD_SCALELIST
350
47
  3
APPDATA
350
153
  3
DWGPROPS
350
1AD
  0
DICTIONARY
  5
17C
330
2
100
AcDbDictionary
280
     1
281
     1
  3
ACAD_LAYERSTATES
360
17D
  0
DICTIONARY
  5
D
102
{ACAD_REACTORS
330
C
102
}
330
C
100
AcDbDictionary
281
     1
  0
RASTERVARIABLES
  5
155
102
{ACAD_REACTORS
330
C
102
}
330
C
100
AcDbRasterVariables
 90
        0
 70
     1
 71
     1
 72
     1
  0
DICTIONARY
  5
1A
102
{ACAD_REACTORS
330
C
102
}
330
C
100
AcDbDictionary
281
     1
  3
Layout1
350
1E
  3
Layout2
350
26
  3
Model
350
22
  0
DICTIONARY
  5
17
102
{ACAD_REACTORS
330
C
102
}
330
C
100
AcDbDictionary
281
     1
  3
Standard
350
18
  0
DICTIONARY
  5
19
102
{ACAD_REACTORS
330
C
102
}
330
C
100
AcDbDictionary
281
     1
  0
ACDBDICTIONARYWDFLT
  5
E
102
{ACAD_REACTORS
330
C
102
}
330
C
100
AcDbDictionary
281
     1
  3
Normal
350
F
100
AcDbDictionaryWithDefault
340
F
  0
DICTIONARY
  5
47
102
{ACAD_REACTORS
330
C
102
}
330
C
100
AcDbDictionary
281
     1
  3
A0
350
48
  3
A1
350
49
  3
A2
350
4A
  3
A3
350
4B
  3
A4
350
4C
  3
A5
350
4D
  3
A6
350
4E
  3
A7
350
4F
  3
A8
350
50
  3
A9
350
51
  3
B0
350
52
  3
B1
350
53
  3
B2
350
54
  3
B3
350
55
  3
B4
350
56
  3
B5
350
57
  3
B6
350
58
  3
B7
350
59
  3
B8
350
5A
  3
B9
350
5B
  3
C0
350
5C
  3
C1
350
5D
  3
C2
350
5E
  3
C3
350
5F
  3
C4
350
60
  3
C5
350
61
  3
C6
350
62
  3
C7
350
63
  3
C8
350
64
  3
C9
350
65
  3
D0
350
66
  3
D1
350
67
  3
D2
350
68
  0
DICTIONARY
  5
153
102
{ACAD_REACTORS
330
C
102
}
330
C
100
AcDbDictionary
281
     1
  0
XRECORD
  5
1AD
102
{ACAD_REACTORS
330
C
102
}
330
C
100
AcDbXrecord
280
     1
  1
DWGPROPS COOKIE
  2

  3

  4

  6

  7

  8
12017012
  9

300
=
301
=
302
=
303
=
304
=
305
=
306
=
307
=
308
=
309
=
 40
0.0
 41
2458288.370887558
 42
2458294.331757998
  1

 90
        0
  0
DICTIONARY
  5
17D
102
{ACAD_REACTORS
330
17C
102
}
330
17C
100
AcDbDictionary
281
     1
  0
LAYOUT
  5
1E
102
{ACAD_REACTORS
330
1A
102
}
330
1A
100
AcDbPlotSettings
  1

  2
none_device
  4

  6

 40
0.0
 41
0.0
 42
0.0
 43
0.0
 44
0.0
 45
0.0
 46
0.0
 47
0.0
 48
0.0
 49
0.0
140
0.0
141
0.0
142
1.0
143
1.0
 70
   688
 72
     1
 73
     0
 74
     5
  7

 75
    16
147
1.0
148
0.0
149
0.0
100
AcDbLayout
  1
Layout1
 70
     1
 71
     1
 10
0.0
 20
0.0
 11
420.0
 21
297.0
 12
0.0
 22
0.0
 32
0.0
 14
1.000000000000000E+20
 24
1.000000000000000E+20
 34
1.000000000000000E+20
 15
-1.000000000000000E+20
 25
-1.000000000000000E+20
 35
-1.000000000000000E+20
146
0.0
 13
0.0
 23
0.0
 33
0.0
 16
1.0
 26
0.0
 36
0.0
 17
0.0
 27
1.0
 37
0.0
 76
     0
330
1B
  0
LAYOUT
  5
26
102
{ACAD_REACTORS
330
1A
102
}
330
1A
100
AcDbPlotSettings
  1

  2
none_device
  4

  6

 40
0.0
 41
0.0
 42
0.0
 43
0.0
 44
0.0
 45
0.0
 46
0.0
 47
0.0
 48
0.0
 49
0.0
140
0.0
141
0.0
142
1.0
143
1.0
 70
   688
 72
     1
 73
     0
 74
     5
  7

 75
    16
147
1.0
148
0.0
149
0.0
100
AcDbLayout
  1
Layout2
 70
     1
 71
     2
 10
0.0
 20
0.0
 11
0.0
 21
0.0
 12
0.0
 22
0.0
 32
0.0
 14
0.0
 24
0.0
 34
0.0
 15
0.0
 25
0.0
 35
0.0
146
0.0
 13
0.0
 23
0.0
 33
0.0
 16
1.0
 26
0.0
 36
0.0
 17
0.0
 27
1.0
 37
0.0
 76
     0
330
23
  0
LAYOUT
  5
22
102
{ACAD_REACTORS
330
1A
102
}
330
1A
100
AcDbPlotSettings
  1

  2
none_device
  4
ANSI_A_(11.00_x_8.50_Inches)
  6

 40
6.35
 41
19.05
 42
6.35000508
 43
19.05000254
 44
279.4
 45
215.9
 46
108.9039841573166
 47
86.55689093862475
 48
0.0
 49
0.0
140
0.0
141
0.0
142
0.065861316902167
143
1.0
 70
  1696
 72
     0
 73
     0
 74
     0
  7

 75
     0
147
0.0235690232323232
148
0.0
149
0.0
100
AcDbLayout
  1
Model
 70
     1
 71
     0
 10
0.0
 20
0.0
 11
420.0
 21
297.0
 12
0.0
 22
0.0
 32
0.0
 14
-55.60500000000003
 24
-49.97180738881174
 34
0.0
 15
95.12838331323583
 25
46.67592844013392
 35
0.0
146
0.0
 13
0.0
 23
0.0
 33
0.0
 16
1.0
 26
0.0
 36
0.0
 17
0.0
 27
1.0
 37
0.0
 76
     0
330
1F
331
29
  0
MLINESTYLE
  5
18
102
{ACAD_REACTORS
330
17
102
}
330
17
100
AcDbMlineStyle
  2
Standard
 70
     0
  3

 62
   256
 51
90.0
 52
90.0
 71
     2
 49
0.5
 62
   256
  6
BYLAYER
 49
-0.5
 62
   256
  6
BYLAYER
  0
ACDBPLACEHOLDER
  5
F
102
{ACAD_REACTORS
330
E
102
}
330
E
  0
SCALE
  5
48
102
{ACAD_REACTORS
330
47
102
}
330
47
100
AcDbScale
 70
     0
300
1:1
140
1.0
141
1.0
290
     1
  0
SCALE
  5
49
102
{ACAD_REACTORS
330
47
102
}
330
47
100
AcDbScale
 70
     0
300
1:2
140
1.0
141
2.0
290
     0
  0
SCALE
  5
4A
102
{ACAD_REACTORS
330
47
102
}
330
47
100
AcDbScale
 70
     0
300
1:4
140
1.0
141
4.0
290
     0
  0
SCALE
  5
4B
102
{ACAD_REACTORS
330
47
102
}
330
47
100
AcDbScale
 70
     0
300
1:5
140
1.0
141
5.0
290
     0
  0
SCALE
  5
4C
102
{ACAD_REACTORS
330
47
102
}
330
47
100
AcDbScale
 70
     0
300
1:8
140
1.0
141
8.0
290
     0
  0
SCALE
  5
4D
102
{ACAD_REACTORS
330
47
102
}
330
47
100
AcDbScale
 70
     0
300
1:10
140
1.0
141
10.0
290
     0
  0
SCALE
  5
4E
102
{ACAD_REACTORS
330
47
102
}
330
47
100
AcDbScale
 70
     0
300
1:16
140
1.0
141
16.0
290
     0
  0
SCALE
  5
4F
102
{ACAD_REACTORS
330
47
102
}
330
47
100
AcDbScale
 70
     0
300
1:20
140
1.0
141
20.0
290
     0
  0
SCALE
  5
50
102
{ACAD_REACTORS
330
47
102
}
330
47
100
AcDbScale
 70
     0
300
1:30
140
1.0
141
30.0
290
     0
  0
SCALE
  5
51
102
{ACAD_REACTORS
330
47
102
}
330
47
100
AcDbScale
 70
     0
300
1:40
140
1.0
141
40.0
290
     0
  0
SCALE
  5
52
102
{ACAD_REACTORS
330
47
102
}
330
47
100
AcDbScale
 70
     0
300
1:50
140
1.0
141
50.0
290
     0
  0
SCALE
  5
53
102
{ACAD_REACTORS
330
47
102
}
330
47
100
AcDbScale
 70
     0
300
1:100
140
1.0
141
100.0
290
     0
  0
SCALE
  5
54
102
{ACAD_REACTORS
330
47
102
}
330
47
100
AcDbScale
 70
     0
300
2:1
140
2.0
141
1.0
290
     0
  0
SCALE
  5
55
102
{ACAD_REACTORS
330
47
102
}
330
47
100
AcDbScale
 70
     0
300
4:1
140
4.0
141
1.0
290
     0
  0
SCALE
  5
56
102
{ACAD_REACTORS
330
47
102
}
330
47
100
AcDbScale
 70
     0
300
8:1
140
8.0
141
1.0
290
     0
  0
SCALE
  5
57
102
{ACAD_REACTORS
330
47
102
}
330
47
100
AcDbScale
 70
     0
300
10:1
140
10.0
141
1.0
290
     0
  0
SCALE
  5
58
102
{ACAD_REACTORS
330
47
102
}
330
47
100
AcDbScale
 70
     0
300
100:1
140
100.0
141
1.0
290
     0
  0
SCALE
  5
59
102
{ACAD_REACTORS
330
47
102
}
330
47
100
AcDbScale
 70
     0
300
1/128" = 1'-0"
140
0.0078125
141
12.0
290
     0
  0
SCALE
  5
5A
102
{ACAD_REACTORS
330
47
102
}
330
47
100
AcDbScale
 70
     0
300
1/64" = 1'-0"
140
0.015625
141
12.0
290
     0
  0
SCALE
  5
5B
102
{ACAD_REACTORS
330
47
102
}
330
47
100
AcDbScale
 70
     0
300
1/32" = 1'-0"
140
0.03125
141
12.0
290
     0
  0
SCALE
  5
5C
102
{ACAD_REACTORS
330
47
102
}
330
47
100
AcDbScale
 70
     0
300
1/16" = 1'-0"
140
0.0625
141
12.0
290
     0
  0
SCALE
  5
5D
102
{ACAD_REACTORS
330
47
102
}
330
47
100
AcDbScale
 70
     0
300
3/32" = 1'-0"
140
0.09375
141
12.0
290
     0
  0
SCALE
  5
5E
102
{ACAD_REACTORS
330
47
102
}
330
47
100
AcDbScale
 70
     0
300
1/8" = 1'-0"
140
0.125
141
12.0
290
     0
  0
SCALE
  5
5F
102
{ACAD_REACTORS
330
47
102
}
330
47
100
AcDbScale
 70
     0
300
3/16" = 1'-0"
140
0.1875
141
12.0
290
     0
  0
SCALE
  5
60
102
{ACAD_REACTORS
330
47
102
}
330
47
100
AcDbScale
 70
     0
300
1/4" = 1'-0"
140
0.25
141
12.0
290
     0
  0
SCALE
  5
61
102
{ACAD_REACTORS
330
47
102
}
330
47
100
AcDbScale
 70
     0
300
3/8" = 1'-0"
140
0.375
141
12.0
290
     0
  0
SCALE
  5
62
102
{ACAD_REACTORS
330
47
102
}
330
47
100
AcDbScale
 70
     0
300
1/2" = 1'-0"
140
0.5
141
12.0
290
     0
  0
SCALE
  5
63
102
{ACAD_REACTORS
330
47
102
}
330
47
100
AcDbScale
 70
     0
300
3/4" = 1'-0"
140
0.75
141
12.0
290
     0
  0
SCALE
  5
64
102
{ACAD_REACTORS
330
47
102
}
330
47
100
AcDbScale
 70
     0
300
1" = 1'-0"
140
1.0
141
12.0
290
     0
  0
SCALE
  5
65
102
{ACAD_REACTORS
330
47
102
}
330
47
100
AcDbScale
 70
     0
300
1-1/2" = 1'-0"
140
1.5
141
12.0
290
     0
  0
SCALE
  5
66
102
{ACAD_REACTORS
330
47
102
}
330
47
100
AcDbScale
 70
     0
300
3" = 1'-0"
140
3.0
141
12.0
290
     0
  0
SCALE
  5
67
102
{ACAD_REACTORS
330
47
102
}
330
47
100
AcDbScale
 70
     0
300
6" = 1'-0"
140
6.0
141
12.0
290
     0
  0
SCALE
  5
68
102
{ACAD_REACTORS
330
47
102
}
330
47
100
AcDbScale
 70
     0
300
1'-0" = 1'-0"
140
12.0
141
12.0
290
     0
  0
ENDSEC
  0
EOF
