  0
SECTION
  2
HEADER
  9
$ACADVER
  1
AC1015
  9
$ACADMAINTVER
 70
     6
  9
$DWGCODEPAGE
  3
ANSI_949
  9
$INSBASE
 10
0.0
 20
0.0
 30
0.0
  9
$EXTMIN
 10
1.000000000000000E+20
 20
1.000000000000000E+20
 30
1.000000000000000E+20
  9
$EXTMAX
 10
-1.000000000000000E+20
 20
-1.000000000000000E+20
 30
-1.000000000000000E+20
  9
$LIMMIN
 10
0.0
 20
0.0
  9
$LIMMAX
 10
420.0
 20
297.0
  9
$ORTHOMODE
 70
     1
  9
$REGENMODE
 70
     1
  9
$FILLMODE
 70
     1
  9
$QTEXTMODE
 70
     0
  9
$MIRRTEXT
 70
     1
  9
$LTSCALE
 40
1.0
  9
$ATTMODE
 70
     1
  9
$TEXTSIZE
 40
3.5
  9
$TRACEWID
 40
1.0
  9
$TEXTSTYLE
  7
Standard
  9
$CLAYER
  8
0
  9
$CELTYPE
  6
ByLayer
  9
$CECOLOR
 62
   256
  9
$CELTSCALE
 40
1.0
  9
$DISPSILH
 70
     0
  9
$DIMSCALE
 40
1.0
  9
$DIMASZ
 40
3.302
  9
$DIMEXO
 40
1.0
  9
$DIMDLI
 40
3.75
  9
$DIMRND
 40
0.0
  9
$DIMDLE
 40
0.0
  9
$DIMEXE
 40
1.0
  9
$DIMTP
 40
0.0
  9
$DIMTM
 40
0.0
  9
$DIMTXT
 40
3.5
  9
$DIMCEN
 40
2.5
  9
$DIMTSZ
 40
0.0
  9
$DIMTOL
 70
     0
  9
$DIMLIM
 70
     0
  9
$DIMTIH
 70
     1
  9
$DIMTOH
 70
     1
  9
$DIMSE1
 70
     0
  9
$DIMSE2
 70
     0
  9
$DIMTAD
 70
     1
  9
$DIMZIN
 70
     0
  9
$DIMBLK
  1

  9
$DIMASO
 70
     1
  9
$DIMSHO
 70
     1
  9
$DIMPOST
  1

  9
$DIMAPOST
  1

  9
$DIMALT
 70
     0
  9
$DIMALTD
 70
     3
  9
$DIMALTF
 40
0.0393700787401575
  9
$DIMLFAC
 40
1.0
  9
$DIMTOFL
 70
     1
  9
$DIMTVP
 40
0.0
  9
$DIMTIX
 70
     0
  9
$DIMSOXD
 70
     0
  9
$DIMSAH
 70
     0
  9
$DIMBLK1
  1

  9
$DIMBLK2
  1

  9
$DIMSTYLE
  2
ISO-25
  9
$DIMCLRD
 70
     0
  9
$DIMCLRE
 70
     0
  9
$DIMCLRT
 70
     0
  9
$DIMTFAC
 40
1.0
  9
$DIMGAP
 40
1.524
  9
$DIMJUST
 70
     0
  9
$DIMSD1
 70
     0
  9
$DIMSD2
 70
     0
  9
$DIMTOLJ
 70
     0
  9
$DIMTZIN
 70
     0
  9
$DIMALTZ
 70
     0
  9
$DIMALTTZ
 70
     0
  9
$DIMUPT
 70
     0
  9
$DIMDEC
 70
     2
  9
$DIMTDEC
 70
     2
  9
$DIMALTU
 70
     2
  9
$DIMALTTD
 70
     3
  9
$DIMTXSTY
  7
Standard
  9
$DIMAUNIT
 70
     0
  9
$DIMADEC
 70
     2
  9
$DIMALTRND
 40
0.0
  9
$DIMAZIN
 70
     0
  9
$DIMDSEP
 70
    44
  9
$DIMATFIT
 70
     3
  9
$DIMFRAC
 70
     0
  9
$DIMLDRBLK
  1

  9
$DIMLUNIT
 70
     2
  9
$DIMLWD
 70
    -2
  9
$DIMLWE
 70
    -2
  9
$DIMTMOVE
 70
     0
  9
$LUNITS
 70
     2
  9
$LUPREC
 70
     2
  9
$SKETCHINC
 40
1.0
  9
$FILLETRAD
 40
10.0
  9
$AUNITS
 70
     0
  9
$AUPREC
 70
     2
  9
$MENU
  1
.
  9
$ELEVATION
 40
0.0
  9
$PELEVATION
 40
0.0
  9
$THICKNESS
 40
0.0
  9
$LIMCHECK
 70
     0
  9
$CHAMFERA
 40
0.0
  9
$CHAMFERB
 40
0.0
  9
$CHAMFERC
 40
0.0
  9
$CHAMFERD
 40
0.0
  9
$SKPOLY
 70
     0
  9
$TDCREATE
 40
2458288.746076238
  9
$TDUCREATE
 40
2458288.371076238
  9
$TDUPDATE
 40
2458294.706296354
  9
$TDUUPDATE
 40
2458294.331296354
  9
$TDINDWG
 40
0.0006535301
  9
$TDUSRTIMER
 40
2458294.329900313
  9
$USRTIMER
 70
     1
  9
$ANGBASE
 50
0.0
  9
$ANGDIR
 70
     0
  9
$PDMODE
 70
     0
  9
$PDSIZE
 40
-1.0
  9
$PLINEWID
 40
0.0
  9
$SPLFRAME
 70
     0
  9
$SPLINETYPE
 70
     6
  9
$SPLINESEGS
 70
     8
  9
$HANDSEED
  5
18C
  9
$SURFTAB1
 70
     6
  9
$SURFTAB2
 70
     6
  9
$SURFTYPE
 70
     6
  9
$SURFU
 70
     6
  9
$SURFV
 70
     6
  9
$UCSBASE
  2

  9
$UCSNAME
  2

  9
$UCSORG
 10
0.0
 20
0.0
 30
0.0
  9
$UCSXDIR
 10
1.0
 20
0.0
 30
0.0
  9
$UCSYDIR
 10
0.0
 20
1.0
 30
0.0
  9
$UCSORTHOREF
  2

  9
$UCSORTHOVIEW
 70
     0
  9
$UCSORGTOP
 10
0.0
 20
0.0
 30
0.0
  9
$UCSORGBOTTOM
 10
0.0
 20
0.0
 30
0.0
  9
$UCSORGLEFT
 10
0.0
 20
0.0
 30
0.0
  9
$UCSORGRIGHT
 10
0.0
 20
0.0
 30
0.0
  9
$UCSORGFRONT
 10
0.0
 20
0.0
 30
0.0
  9
$UCSORGBACK
 10
0.0
 20
0.0
 30
0.0
  9
$PUCSBASE
  2

  9
$PUCSNAME
  2

  9
$PUCSORG
 10
0.0
 20
0.0
 30
0.0
  9
$PUCSXDIR
 10
1.0
 20
0.0
 30
0.0
  9
$PUCSYDIR
 10
0.0
 20
1.0
 30
0.0
  9
$PUCSORTHOREF
  2

  9
$PUCSORTHOVIEW
 70
     0
  9
$PUCSORGTOP
 10
0.0
 20
0.0
 30
0.0
  9
$PUCSORGBOTTOM
 10
0.0
 20
0.0
 30
0.0
  9
$PUCSORGLEFT
 10
0.0
 20
0.0
 30
0.0
  9
$PUCSORGRIGHT
 10
0.0
 20
0.0
 30
0.0
  9
$PUCSORGFRONT
 10
0.0
 20
0.0
 30
0.0
  9
$PUCSORGBACK
 10
0.0
 20
0.0
 30
0.0
  9
$USERI1
 70
     0
  9
$USERI2
 70
     0
  9
$USERI3
 70
     0
  9
$USERI4
 70
     0
  9
$USERI5
 70
     0
  9
$USERR1
 40
0.0
  9
$USERR2
 40
0.0
  9
$USERR3
 40
0.0
  9
$USERR4
 40
0.0
  9
$USERR5
 40
0.0
  9
$WORLDVIEW
 70
     1
  9
$SHADEDGE
 70
     3
  9
$SHADEDIF
 70
    70
  9
$TILEMODE
 70
     1
  9
$MAXACTVP
 70
    64
  9
$PINSBASE
 10
0.0
 20
0.0
 30
0.0
  9
$PLIMCHECK
 70
     0
  9
$PEXTMIN
 10
1.000000000000000E+20
 20
1.000000000000000E+20
 30
1.000000000000000E+20
  9
$PEXTMAX
 10
-1.000000000000000E+20
 20
-1.000000000000000E+20
 30
-1.000000000000000E+20
  9
$PLIMMIN
 10
0.0
 20
0.0
  9
$PLIMMAX
 10
0.0
 20
0.0
  9
$UNITMODE
 70
     0
  9
$VISRETAIN
 70
     1
  9
$PLINEGEN
 70
     0
  9
$PSLTSCALE
 70
     1
  9
$TREEDEPTH
 70
  3020
  9
$CMLSTYLE
  2
Standard
  9
$CMLJUST
 70
     0
  9
$CMLSCALE
 40
20.0
  9
$PROXYGRAPHICS
 70
     1
  9
$MEASUREMENT
 70
     1
  9
$CELWEIGHT
370
    -1
  9
$ENDCAPS
280
     0
  9
$JOINSTYLE
280
     0
  9
$LWDISPLAY
290
     1
  9
$INSUNITS
 70
     4
  9
$HYPERLINKBASE
  1

  9
$STYLESHEET
  1

  9
$XEDIT
290
     1
  9
$CEPSNTYPE
380
     0
  9
$PSTYLEMODE
290
     1
  9
$FINGERPRINTGUID
  2
{C64A0842-3D14-44F4-BFC7-9F55674E7665}
  9
$VERSIONGUID
  2
{FAEB1C32-E019-11D5-929B-00C0DF256EC4}
  9
$EXTNAMES
290
     1
  9
$PSVPSCALE
 40
0.0
  9
$OLESTARTUP
290
     0
  0
ENDSEC
  0
SECTION
  2
CLASSES
  0
CLASS
  1
ACDBDICTIONARYWDFLT
  2
AcDbDictionaryWithDefault
  3
ObjectDBX Classes
 90
        0
280
     0
281
     0
  0
CLASS
  1
VISUALSTYLE
  2
AcDbVisualStyle
  3
ObjectDBX Classes
 90
     4095
280
     0
281
     0
  0
CLASS
  1
MATERIAL
  2
AcDbMaterial
  3
ObjectDBX Classes
 90
     1153
280
     0
281
     0
  0
CLASS
  1
SCALE
  2
AcDbScale
  3
ObjectDBX Classes
 90
     1153
280
     0
281
     0
  0
CLASS
  1
SUN
  2
AcDbSun
  3
SCENEOE
 90
     1153
280
     0
281
     0
  0
CLASS
  1
ACDBPLACEHOLDER
  2
AcDbPlaceHolder
  3
ObjectDBX Classes
 90
        0
280
     0
281
     0
  0
CLASS
  1
LAYOUT
  2
AcDbLayout
  3
ObjectDBX Classes
 90
        0
280
     0
281
     0
  0
CLASS
  1
TABLESTYLE
  2
AcDbTableStyle
  3
ObjectDBX Classes
 90
     4095
280
     0
281
     0
  0
CLASS
  1
MLEADERSTYLE
  2
AcDbMLeaderStyle
  3
ACDB_MLEADERSTYLE_CLASS
 90
     4095
280
     0
281
     0
  0
CLASS
  1
RASTERVARIABLES
  2
AcDbRasterVariables
  3
ISM
 90
        0
280
     0
281
     0
  0
ENDSEC
  0
SECTION
  2
TABLES
  0
TABLE
  2
VPORT
  5
8
330
0
100
AcDbSymbolTable
 70
     1
  0
VPORT
  5
29
330
8
100
AcDbSymbolTableRecord
100
AcDbViewportTableRecord
  2
*Active
 70
     0
 10
0.0
 20
0.0
 11
1.0
 21
1.0
 12
-51.9727248796989
 22
-16.14097676744566
 13
0.0
 23
0.0
 14
10.0
 24
10.0
 15
10.0
 25
10.0
 16
0.0
 26
0.0
 36
1.0
 17
0.0
 27
0.0
 37
0.0
 40
169.4053201498254
 41
1.859099804305284
 42
50.0
 43
0.0
 44
0.0
 50
0.0
 51
0.0
 71
    16
 72
  2000
 73
     1
 74
     3
 75
     0
 76
     0
 77
     0
 78
     0
281
     0
 65
     1
110
0.0
120
0.0
130
0.0
111
1.0
121
0.0
131
0.0
112
0.0
122
1.0
132
0.0
 79
     0
146
0.0
  0
ENDTAB
  0
TABLE
  2
LTYPE
  5
5
330
0
100
AcDbSymbolTable
 70
     6
  0
LTYPE
  5
14
330
5
100
AcDbSymbolTableRecord
100
AcDbLinetypeTableRecord
  2
ByBlock
 70
     0
  3

 72
    65
 73
     0
 40
0.0
  0
LTYPE
  5
15
330
5
100
AcDbSymbolTableRecord
100
AcDbLinetypeTableRecord
  2
ByLayer
 70
     0
  3

 72
    65
 73
     0
 40
0.0
  0
LTYPE
  5
16
330
5
100
AcDbSymbolTableRecord
100
AcDbLinetypeTableRecord
  2
Continuous
 70
     0
  3
Solid line
 72
    65
 73
     0
 40
0.0
  0
LTYPE
  5
6A
330
5
100
AcDbSymbolTableRecord
100
AcDbLinetypeTableRecord
  2
HIDDEN
 70
     0
  3
Hidden __ __ __ __ __ __ __ __ __ __ __ __ __ __
 72
    65
 73
     2
 40
1.905
 49
1.27
 74
     0
 49
-0.635
 74
     0
  0
LTYPE
  5
6B
330
5
100
AcDbSymbolTableRecord
100
AcDbLinetypeTableRecord
  2
PHANTOM
 70
     0
  3
Phantom ______  __  __  ______  __  __  ______
 72
    65
 73
     6
 40
12.7
 49
6.35
 74
     0
 49
-1.27
 74
     0
 49
1.27
 74
     0
 49
-1.27
 74
     0
 49
1.27
 74
     0
 49
-1.27
 74
     0
  0
LTYPE
  5
6C
330
5
100
AcDbSymbolTableRecord
100
AcDbLinetypeTableRecord
  2
CENTER
 70
     0
  3
Center ____ _ ____ _ ____ _ ____ _ ____ _ ____
 72
    65
 73
     4
 40
10.16
 49
6.35
 74
     0
 49
-1.27
 74
     0
 49
1.27
 74
     0
 49
-1.27
 74
     0
  0
LTYPE
  5
6D
330
5
100
AcDbSymbolTableRecord
100
AcDbLinetypeTableRecord
  2
CENTERX2
 70
     0
  3
Center (2x) ________  __  ________  __  _____
 72
    65
 73
     4
 40
20.32
 49
12.7
 74
     0
 49
-2.54
 74
     0
 49
2.54
 74
     0
 49
-2.54
 74
     0
  0
LTYPE
  5
6E
330
5
100
AcDbSymbolTableRecord
100
AcDbLinetypeTableRecord
  2
DOT2
 70
     0
  3
Dot (.5x) ........................................
 72
    65
 73
     2
 40
0.635
 49
0.0
 74
     0
 49
-0.635
 74
     0
  0
ENDTAB
  0
TABLE
  2
LAYER
  5
2
102
{ACAD_XDICTIONARY
360
17D
102
}
330
0
100
AcDbSymbolTable
 70
    18
  0
LAYER
  5
10
330
2
100
AcDbSymbolTableRecord
100
AcDbLayerTableRecord
  2
0
 70
     0
 62
     7
  6
Continuous
370
    -3
390
F
  0
LAYER
  5
6F
330
2
100
AcDbSymbolTableRecord
100
AcDbLayerTableRecord
  2
FORMAT
 70
     0
 62
     2
  6
Continuous
370
    -3
390
F
  0
LAYER
  5
70
330
2
100
AcDbSymbolTableRecord
100
AcDbLayerTableRecord
  2
외형선
 70
     0
 62
     4
  6
Continuous
370
    30
390
F
  0
LAYER
  5
71
330
2
100
AcDbSymbolTableRecord
100
AcDbLayerTableRecord
  2
숨은선
 70
     0
 62
     2
  6
HIDDEN
370
    15
390
F
  0
LAYER
  5
72
330
2
100
AcDbSymbolTableRecord
100
AcDbLayerTableRecord
  2
중심선
 70
     0
 62
     1
  6
CENTERX2
370
    -3
390
F
  0
LAYER
  5
73
330
2
100
AcDbSymbolTableRecord
100
AcDbLayerTableRecord
  2
파단선
 70
     0
 62
     4
  6
Continuous
370
    -3
390
F
  0
LAYER
  5
74
330
2
100
AcDbSymbolTableRecord
100
AcDbLayerTableRecord
  2
해칭선
 70
     0
 62
   100
  6
Continuous
370
    -3
390
F
  0
LAYER
  5
75
330
2
100
AcDbSymbolTableRecord
100
AcDbLayerTableRecord
  2
가는실선
 70
     0
 62
     4
  6
Continuous
370
    -3
390
F
  0
LAYER
  5
76
330
2
100
AcDbSymbolTableRecord
100
AcDbLayerTableRecord
  2
치수_보조선
 70
     0
 62
     4
  6
Continuous
370
    -3
390
F
  0
LAYER
  5
77
330
2
100
AcDbSymbolTableRecord
100
AcDbLayerTableRecord
  2
치수문자_일반주서
 70
     0
 62
     7
  6
Continuous
370
    15
390
F
  0
LAYER
  5
78
330
2
100
AcDbSymbolTableRecord
100
AcDbLayerTableRecord
  2
개별주서
 70
     0
 62
   100
  6
Continuous
370
    30
390
F
  0
LAYER
  5
79
330
2
100
AcDbSymbolTableRecord
100
AcDbLayerTableRecord
  2
중간선
 70
     0
 62
     2
  6
Continuous
370
    15
390
F
  0
LAYER
  5
7A
330
2
100
AcDbSymbolTableRecord
100
AcDbLayerTableRecord
  2
윤곽선
 70
     0
 62
     3
  6
Continuous
370
    40
390
F
  0
LAYER
  5
7B
330
2
100
AcDbSymbolTableRecord
100
AcDbLayerTableRecord
  2
중심마크
 70
     0
 62
   100
  6
Continuous
370
    30
390
F
  0
LAYER
  5
7C
330
2
100
AcDbSymbolTableRecord
100
AcDbLayerTableRecord
  2
가상선
 70
     0
 62
     4
  6
PHANTOM
370
    -3
390
F
  0
LAYER
  5
7D
330
2
100
AcDbSymbolTableRecord
100
AcDbLayerTableRecord
  2
특수지정선
 70
     0
 62
     5
  6
CENTERX2
370
    60
390
F
  0
LAYER
  5
7E
330
2
100
AcDbSymbolTableRecord
100
AcDbLayerTableRecord
  2
참조1
 70
     0
 62
    -4
  6
Continuous
370
    -3
390
F
  0
LAYER
  5
184
330
2
100
AcDbSymbolTableRecord
100
AcDbLayerTableRecord
  2
Defpoints
 70
     0
 62
     7
  6
Continuous
290
     0
370
    -3
390
F
  0
ENDTAB
  0
TABLE
  2
STYLE
  5
3
330
0
100
AcDbSymbolTable
 70
     2
  0
STYLE
  5
11
330
3
100
AcDbSymbolTableRecord
100
AcDbTextStyleTableRecord
  2
Standard
 70
     0
 40
0.0
 41
1.0
 50
0.0
 71
     0
 42
3.5
  3
txt
  4

  0
STYLE
  5
94
330
3
100
AcDbSymbolTableRecord
100
AcDbTextStyleTableRecord
  2
SLDTEXTSTYLE0
 70
     0
 40
0.0
 41
0.75
 50
0.0
 71
     0
 42
3.5
  3
TXT
  4

  0
ENDTAB
  0
TABLE
  2
VIEW
  5
6
330
0
100
AcDbSymbolTable
 70
     0
  0
ENDTAB
  0
TABLE
  2
UCS
  5
7
330
0
100
AcDbSymbolTable
 70
     0
  0
ENDTAB
  0
TABLE
  2
APPID
  5
9
330
0
100
AcDbSymbolTable
 70
     1
  0
APPID
  5
12
330
9
100
AcDbSymbolTableRecord
100
AcDbRegAppTableRecord
  2
ACAD
 70
     0
  0
ENDTAB
  0
TABLE
  2
DIMSTYLE
  5
A
330
0
100
AcDbSymbolTable
 70
     4
100
AcDbDimStyleTable
  0
DIMSTYLE
105
27
330
A
100
AcDbSymbolTableRecord
100
AcDbDimStyleTableRecord
  2
ISO-25
 70
     0
 41
2.5
 42
0.625
 43
3.75
 44
1.25
 73
     0
 74
     0
 77
     1
 78
     8
140
2.5
141
2.5
143
0.03937007874016
147
0.625
171
     3
172
     1
178
     0
271
     2
272
     2
274
     3
278
    44
283
     0
284
     8
340
11
  0
DIMSTYLE
105
D4
102
{ACAD_REACTORS
330
D3
330
E8
330
FC
330
111
102
}
330
A
100
AcDbSymbolTableRecord
100
AcDbDimStyleTableRecord
  2
SLDDIMSTYLE0
 70
     0
 41
3.302
 44
0.0
 45
0.000000001
 73
     0
 74
     0
 77
     1
 78
    12
 79
     3
140
3.5
143
0.0393700787401575
147
0.875
148
0.000000001
170
     1
172
     1
173
     1
178
     0
271
     2
272
     2
276
     2
284
    12
289
     0
340
94
  0
DIMSTYLE
105
FD
330
A
100
AcDbSymbolTableRecord
100
AcDbDimStyleTableRecord
  2
SLDDIMSTYLE1
 70
     0
 41
3.302
 44
0.0
 45
0.000000001
 73
     0
 74
     0
 77
     1
 78
    12
 79
     3
140
3.5
143
0.0393700787401575
147
0.875
148
0.000000001
170
     1
173
     1
178
     0
271
     2
272
     2
276
     2
284
    12
340
94
  0
DIMSTYLE
105
112
330
A
100
AcDbSymbolTableRecord
100
AcDbDimStyleTableRecord
  2
SLDDIMSTYLE2
 70
     0
 41
3.302
 44
0.0
 45
0.000000001
 73
     0
 74
     0
 77
     1
 78
     4
 79
     1
140
3.5
143
0.0393700787401575
147
0.875
148
0.000000001
170
     1
173
     1
178
     0
271
     2
272
     2
276
     2
284
    12
340
94
  0
ENDTAB
  0
TABLE
  2
BLOCK_RECORD
  5
1
330
0
100
AcDbSymbolTable
 70
     8
  0
BLOCK_RECORD
  5
1F
330
1
100
AcDbSymbolTableRecord
100
AcDbBlockTableRecord
  2
*Model_Space
340
22
  0
BLOCK_RECORD
  5
1B
330
1
100
AcDbSymbolTableRecord
100
AcDbBlockTableRecord
  2
*Paper_Space
340
1E
  0
BLOCK_RECORD
  5
23
330
1
100
AcDbSymbolTableRecord
100
AcDbBlockTableRecord
  2
*Paper_Space0
340
26
  0
BLOCK_RECORD
  5
7F
330
1
100
AcDbSymbolTableRecord
100
AcDbBlockTableRecord
  2
블럭10
340
0
102
{BLKREFS
331
CC
102
}
  0
BLOCK_RECORD
  5
D5
330
1
100
AcDbSymbolTableRecord
100
AcDbBlockTableRecord
  2
_D
340
0
  0
BLOCK_RECORD
  5
E9
330
1
100
AcDbSymbolTableRecord
100
AcDbBlockTableRecord
  2
_D_1
340
0
  0
BLOCK_RECORD
  5
FE
330
1
100
AcDbSymbolTableRecord
100
AcDbBlockTableRecord
  2
_D_2
340
0
  0
BLOCK_RECORD
  5
113
330
1
100
AcDbSymbolTableRecord
100
AcDbBlockTableRecord
  2
_D_3
340
0
  0
BLOCK_RECORD
  5
12C
330
1
100
AcDbSymbolTableRecord
100
AcDbBlockTableRecord
  2
SW_DOWELSYMBOL_0
340
0
102
{BLKREFS
331
132
102
}
  0
ENDTAB
  0
ENDSEC
  0
SECTION
  2
BLOCKS
  0
BLOCK
  5
20
330
1F
100
AcDbEntity
  8
0
100
AcDbBlockBegin
  2
*Model_Space
 70
     0
 10
0.0
 20
0.0
 30
0.0
  3
*Model_Space
  1
*Model_Space
  0
ENDBLK
  5
21
330
1F
100
AcDbEntity
  8
0
100
AcDbBlockEnd
  0
BLOCK
  5
1C
330
1B
100
AcDbEntity
 67
     1
  8
0
100
AcDbBlockBegin
  2
*Paper_Space
 70
     0
 10
0.0
 20
0.0
 30
0.0
  3
*Paper_Space
  1
*Paper_Space
  0
ENDBLK
  5
1D
330
1B
100
AcDbEntity
 67
     1
  8
0
100
AcDbBlockEnd
  0
BLOCK
  5
24
330
23
100
AcDbEntity
  8
0
100
AcDbBlockBegin
  2
*Paper_Space0
 70
     0
 10
0.0
 20
0.0
 30
0.0
  3
*Paper_Space0
  1
*Paper_Space0
  0
ENDBLK
  5
25
330
23
100
AcDbEntity
  8
0
100
AcDbBlockEnd
  0
BLOCK
  5
80
330
7F
100
AcDbEntity
  8
0
100
AcDbBlockBegin
  2
블럭10
 70
     2
 10
0.0
 20
0.0
 30
0.0
  3
블럭10
  1
블럭10
  0
ELLIPSE
  5
82
330
7F
100
AcDbEntity
  8
중심선
100
AcDbEllipse
 10
20.54032771741204
 20
12.0471743016438
 30
0.0
 11
6.600054785286829
 21
-1.261213355974178E-13
 31
0.0
210
0.0
220
0.0
230
1.0
 40
0.636358354079598
 41
0.9219305317359503
 42
6.513795318482858
  0
ELLIPSE
  5
83
330
7F
100
AcDbEntity
  8
중심선
100
AcDbEllipse
 10
20.54032771746488
 20
12.04717430159265
 30
0.0
 11
3.960054785062283
 21
1.540847449632565E-10
 31
0.0
210
0.0
220
0.0
230
1.0
 40
0.3939339440162632
 41
1.131841032648279
 42
5.62031148352944
  0
LINE
  5
84
330
7F
100
AcDbEntity
  8
중심선
100
AcDbLine
 10
2.268634060543552
 20
16.24717430164393
 30
0.0
 11
5.714909304380834
 21
16.24717430164393
 31
0.0
  0
LINE
  5
85
330
7F
100
AcDbEntity
  8
중심선
100
AcDbLine
 10
5.245725140726316
 20
7.84717430164391
 30
0.0
 11
8.692000384563599
 21
7.84717430164391
 31
0.0
  0
LINE
  5
86
330
7F
100
AcDbEntity
  8
중심선
100
AcDbLine
 10
15.74043728645272
 20
16.24717430164393
 30
0.0
 11
8.692000384563599
 21
7.84717430164391
 31
0.0
  0
LINE
  5
87
330
7F
100
AcDbEntity
  8
중심선
100
AcDbLine
 10
0.1404042013395286
 20
13.71084872107135
 30
0.0
 11
3.58671253028996
 21
13.71088815037384
 31
0.0
  0
LINE
  5
88
330
7F
100
AcDbEntity
  8
중심선
100
AcDbLine
 10
2.750260043222114
 20
10.84717430164391
 30
0.0
 11
6.196535287059397
 21
10.84717430164391
 31
0.0
  0
LINE
  5
89
330
7F
100
AcDbEntity
  8
중심선
100
AcDbLine
 10
12.29416204261559
 20
16.24717430164393
 30
0.0
 11
5.245725140726316
 21
7.84717430164391
 31
0.0
  0
LINE
  5
8A
330
7F
100
AcDbEntity
  8
중심선
100
AcDbLine
 10
10.72767329541681
 20
16.24717430164393
 30
0.0
 11
6.196535287059397
 21
10.84717430164391
 31
0.0
  0
LINE
  5
8B
330
7F
100
AcDbEntity
  8
중심선
100
AcDbLine
 10
7.28139805157953
 20
16.24717430164393
 30
0.0
 11
2.750260043222114
 21
10.84717430164391
 31
0.0
  0
LINE
  5
8C
330
7F
100
AcDbEntity
  8
중심선
100
AcDbLine
 10
5.714909304380834
 20
16.24717430164393
 30
0.0
 11
3.58671253028996
 21
13.71088815037384
 31
0.0
  0
LINE
  5
8D
330
7F
100
AcDbEntity
  8
중심선
100
AcDbLine
 10
2.268634060543552
 20
16.24717430164393
 30
0.0
 11
0.1404042013395286
 21
13.71084872107135
 31
0.0
  0
LINE
  5
8E
330
7F
100
AcDbEntity
  8
중심선
100
AcDbLine
 10
7.28139805157953
 20
16.24717430164393
 30
0.0
 11
10.72767329541681
 21
16.24717430164393
 31
0.0
  0
LINE
  5
8F
330
7F
100
AcDbEntity
  8
중심선
100
AcDbLine
 10
12.29416204261559
 20
16.24717430164393
 30
0.0
 11
15.74043728645272
 21
16.24717430164393
 31
0.0
  0
LINE
  5
90
330
7F
100
AcDbEntity
  8
중심선
100
AcDbLine
 10
19.22036997980202
 20
11.08717430171403
 30
0.0
 11
23.66174974927406
 21
11.08717430171406
 31
0.0
  0
LINE
  5
91
330
7F
100
AcDbEntity
  8
중심선
100
AcDbLine
 10
19.22039502424796
 20
13.00717430171391
 30
0.0
 11
19.22036997980202
 21
11.08717430171403
 31
0.0
  0
LINE
  5
92
330
7F
100
AcDbEntity
  8
중심선
100
AcDbLine
 10
19.22039502424796
 20
13.00717430171391
 30
0.0
 11
26.96566020931264
 21
13.00717430171391
 31
0.0
  0
LINE
  5
93
330
7F
100
AcDbEntity
  8
중심선
100
AcDbLine
 10
22.22332737316547
 20
13.45928029700563
 30
0.0
 11
24.52862924686651
 21
15.39360700705356
 31
0.0
  0
ATTDEF
  5
95
330
7F
100
AcDbEntity
  8
FORMAT
 62
     2
100
AcDbText
 10
3.448148490846466
 20
2.075366912832191
 30
0.0
 40
4.233333333333333
  1
EM154040
 41
0.75
  7
SLDTEXTSTYLE0
 11
3.448148490846466
 21
-0.0412997538344756
 31
0.0
100
AcDbAttributeDefinition
  3

  2
AUTOATTR0
 70
     0
 74
     1
  0
ENDBLK
  5
81
330
7F
100
AcDbEntity
  8
0
100
AcDbBlockEnd
  0
BLOCK
  5
D6
330
D5
100
AcDbEntity
  8
0
100
AcDbBlockBegin
  2
_D
 70
     0
 10
0.0
 20
0.0
 30
0.0
  3
_D
  1
_D
  0
LINE
  5
D8
330
D5
100
AcDbEntity
  8
치수문자_일반주서
 62
     0
370
    -2
100
AcDbLine
 10
-44.21250000000001
 20
7.937499999999984
 30
0.0
 11
-57.58000000000002
 21
7.937499999999934
 31
0.0
  0
LINE
  5
D9
330
D5
100
AcDbEntity
  8
치수문자_일반주서
 62
     0
370
    -2
100
AcDbLine
 10
-44.21250000000001
 20
-7.937500000000016
 30
0.0
 11
-57.57999999999996
 21
-7.937500000000066
 31
0.0
  0
LINE
  5
DA
330
D5
100
AcDbEntity
  8
치수문자_일반주서
 62
     0
370
    -2
100
AcDbLine
 10
-57.58000000000001
 20
4.635499999999935
 30
0.0
 11
-57.57999999999998
 21
-4.635500000000066
 31
0.0
  0
SOLID
  5
DB
330
D5
100
AcDbEntity
  8
치수문자_일반주서
 62
     0
100
AcDbTrace
 10
-57.02966666666667
 20
4.635499999999936
 30
0.0
 11
-58.13033333333334
 21
4.635499999999933
 31
0.0
 12
-57.58000000000002
 22
7.937499999999934
 32
0.0
 13
-57.58000000000002
 23
7.937499999999934
 33
0.0
  0
SOLID
  5
DC
330
D5
100
AcDbEntity
  8
치수문자_일반주서
 62
     0
100
AcDbTrace
 10
-58.13033333333331
 20
-4.635500000000068
 30
0.0
 11
-57.02966666666664
 21
-4.635500000000064
 31
0.0
 12
-57.57999999999996
 22
-7.937500000000066
 32
0.0
 13
-57.57999999999996
 23
-7.937500000000066
 33
0.0
  0
MTEXT
  5
DD
330
D5
100
AcDbEntity
  8
치수문자_일반주서
 62
     0
100
AcDbMText
 10
-61.95499999999999
 20
-0.0000000000000336
 30
0.0
 40
3.5
 41
0.0
 71
     2
 72
     1
  1
\A1;%%c15.88 [5/8]
  7
SLDTEXTSTYLE0
 11
-3.580687802255623E-15
 21
1.0
 31
0.0
 73
     1
 44
1.0
  0
POINT
  5
DE
330
D5
100
AcDbEntity
  8
Defpoints
 62
     0
100
AcDbPoint
 10
-44.15000000000001
 20
7.937499999999984
 30
0.0
  0
POINT
  5
DF
330
D5
100
AcDbEntity
  8
Defpoints
 62
     0
100
AcDbPoint
 10
-44.15000000000001
 20
-7.937500000000016
 30
0.0
  0
POINT
  5
E0
330
D5
100
AcDbEntity
  8
Defpoints
 62
     0
100
AcDbPoint
 10
-57.57999999999996
 20
-7.937500000000066
 30
0.0
  0
ENDBLK
  5
D7
330
D5
100
AcDbEntity
  8
0
100
AcDbBlockEnd
  0
BLOCK
  5
EA
330
E9
100
AcDbEntity
  8
0
100
AcDbBlockBegin
  2
_D_1
 70
     0
 10
0.0
 20
0.0
 30
0.0
  3
_D_1
  1
_D_1
  0
LINE
  5
EC
330
E9
100
AcDbEntity
  8
치수문자_일반주서
 62
     0
370
    -2
100
AcDbLine
 10
43.81249999999898
 20
7.937500000000005
 30
0.0
 11
57.06437948519922
 21
7.937500000000057
 31
0.0
  0
LINE
  5
ED
330
E9
100
AcDbEntity
  8
치수문자_일반주서
 62
     0
370
    -2
100
AcDbLine
 10
43.81250000000001
 20
-7.937499999999997
 30
0.0
 11
57.06437948519928
 21
-7.93749999999995
 31
0.0
  0
LINE
  5
EE
330
E9
100
AcDbEntity
  8
치수문자_일반주서
 62
     0
370
    -2
100
AcDbLine
 10
57.06437948519922
 20
7.937500000000057
 30
0.0
 11
57.06437948519903
 21
59.69994510801081
 31
0.0
  0
LINE
  5
EF
330
E9
100
AcDbEntity
  8
치수문자_일반주서
 62
     0
370
    -2
100
AcDbLine
 10
57.06437948519922
 20
7.937500000000057
 30
0.0
 11
57.06437948519928
 21
-7.93749999999995
 31
0.0
  0
LINE
  5
F0
330
E9
100
AcDbEntity
  8
치수문자_일반주서
 62
     0
370
    -2
100
AcDbLine
 10
57.0643794851992
 20
11.23950000000006
 30
0.0
 11
57.06437948519919
 21
14.54150000000006
 31
0.0
  0
LINE
  5
F1
330
E9
100
AcDbEntity
  8
치수문자_일반주서
 62
     0
370
    -2
100
AcDbLine
 10
57.06437948519929
 20
-11.23949999999995
 30
0.0
 11
57.0643794851993
 21
-14.54149999999995
 31
0.0
  0
SOLID
  5
F2
330
E9
100
AcDbEntity
  8
치수문자_일반주서
 62
     0
100
AcDbTrace
 10
56.51404615186587
 20
11.23950000000005
 30
0.0
 11
57.61471281853254
 21
11.23950000000006
 31
0.0
 12
57.06437948519922
 22
7.937500000000057
 32
0.0
 13
57.06437948519922
 23
7.937500000000057
 33
0.0
  0
SOLID
  5
F3
330
E9
100
AcDbEntity
  8
치수문자_일반주서
 62
     0
100
AcDbTrace
 10
57.61471281853262
 20
-11.23949999999995
 30
0.0
 11
56.51404615186595
 21
-11.23949999999995
 31
0.0
 12
57.06437948519928
 22
-7.93749999999995
 32
0.0
 13
57.06437948519928
 23
-7.93749999999995
 33
0.0
  0
MTEXT
  5
F4
330
E9
100
AcDbEntity
  8
치수문자_일반주서
 62
     0
100
AcDbMText
 10
52.68937948519908
 20
45.69994510801079
 30
0.0
 40
3.5
 41
0.0
 71
     2
 72
     1
  1
\A1;%%c15.88 [5/8]
  7
SLDTEXTSTYLE0
 11
-3.580687802255622E-15
 21
1.0
 31
0.0
 73
     1
 44
1.0
  0
POINT
  5
F5
330
E9
100
AcDbEntity
  8
Defpoints
 62
     0
100
AcDbPoint
 10
43.74999999999898
 20
7.937500000000005
 30
0.0
  0
POINT
  5
F6
330
E9
100
AcDbEntity
  8
Defpoints
 62
     0
100
AcDbPoint
 10
43.75000000000001
 20
-7.937499999999997
 30
0.0
  0
POINT
  5
F7
330
E9
100
AcDbEntity
  8
Defpoints
 62
     0
100
AcDbPoint
 10
57.06437948519928
 20
-7.937499999999948
 30
0.0
  0
ENDBLK
  5
EB
330
E9
100
AcDbEntity
  8
0
100
AcDbBlockEnd
  0
BLOCK
  5
FF
330
FE
100
AcDbEntity
  8
0
100
AcDbBlockBegin
  2
_D_2
 70
     0
 10
0.0
 20
0.0
 30
0.0
  3
_D_2
  1
_D_2
  0
LINE
  5
101
330
FE
100
AcDbEntity
  8
치수문자_일반주서
 62
     0
370
    -2
100
AcDbLine
 10
43.74999999999898
 20
8.000000000000005
 30
0.0
 11
43.74999999999898
 21
20.9319625944289
 31
0.0
  0
LINE
  5
102
330
FE
100
AcDbEntity
  8
치수문자_일반주서
 62
     0
370
    -2
100
AcDbLine
 10
12.0
 20
6.98480219790263
 30
0.0
 11
12.0
 21
20.9319625944289
 31
0.0
  0
LINE
  5
103
330
FE
100
AcDbEntity
  8
치수문자_일반주서
 62
     0
370
    -2
100
AcDbLine
 10
12.0
 20
20.9319625944289
 30
0.0
 11
-23.479
 21
20.9319625944289
 31
0.0
  0
LINE
  5
104
330
FE
100
AcDbEntity
  8
치수문자_일반주서
 62
     0
370
    -2
100
AcDbLine
 10
43.74999999999898
 20
20.9319625944289
 30
0.0
 11
12.0
 21
20.9319625944289
 31
0.0
  0
LINE
  5
105
330
FE
100
AcDbEntity
  8
치수문자_일반주서
 62
     0
370
    -2
100
AcDbLine
 10
47.05199999999898
 20
20.9319625944289
 30
0.0
 11
50.35399999999898
 21
20.9319625944289
 31
0.0
  0
LINE
  5
106
330
FE
100
AcDbEntity
  8
치수문자_일반주서
 62
     0
370
    -2
100
AcDbLine
 10
8.698
 20
20.9319625944289
 30
0.0
 11
5.396000000000001
 21
20.9319625944289
 31
0.0
  0
SOLID
  5
107
330
FE
100
AcDbEntity
  8
치수문자_일반주서
 62
     0
100
AcDbTrace
 10
47.05199999999898
 20
21.48229592776223
 30
0.0
 11
47.05199999999898
 21
20.38162926109556
 31
0.0
 12
43.74999999999898
 22
20.9319625944289
 32
0.0
 13
43.74999999999898
 23
20.9319625944289
 33
0.0
  0
SOLID
  5
108
330
FE
100
AcDbEntity
  8
치수문자_일반주서
 62
     0
100
AcDbTrace
 10
8.698
 20
20.38162926109556
 30
0.0
 11
8.698
 21
21.48229592776223
 31
0.0
 12
12.0
 22
20.9319625944289
 32
0.0
 13
12.0
 23
20.9319625944289
 33
0.0
  0
MTEXT
  5
109
330
FE
100
AcDbEntity
  8
치수문자_일반주서
 62
     0
100
AcDbMText
 10
-9.0415
 20
25.3069625944289
 30
0.0
 40
3.5
 41
0.0
 71
     2
 72
     1
  1
\A1;31.75 [1 1/4]
  7
SLDTEXTSTYLE0
 73
     1
 44
1.0
  0
POINT
  5
10A
330
FE
100
AcDbEntity
  8
Defpoints
 62
     0
100
AcDbPoint
 10
43.74999999999898
 20
7.937500000000005
 30
0.0
  0
POINT
  5
185
330
FE
100
AcDbEntity
  8
Defpoints
 62
     0
100
AcDbPoint
 10
12.0
 20
6.92230219790263
 30
0.0
  0
POINT
  5
186
330
FE
100
AcDbEntity
  8
Defpoints
 62
     0
100
AcDbPoint
 10
12.0
 20
20.9319625944289
 30
0.0
  0
ENDBLK
  5
100
330
FE
100
AcDbEntity
  8
0
100
AcDbBlockEnd
  0
BLOCK
  5
114
330
113
100
AcDbEntity
  8
0
100
AcDbBlockBegin
  2
_D_3
 70
     0
 10
0.0
 20
0.0
 30
0.0
  3
_D_3
  1
_D_3
  0
LINE
  5
116
330
113
100
AcDbEntity
  8
치수문자_일반주서
 62
     0
370
    -2
100
AcDbLine
 10
43.74999999999898
 20
8.000000000000005
 30
0.0
 11
43.74999999999898
 21
43.41217844013391
 31
0.0
  0
LINE
  5
117
330
113
100
AcDbEntity
  8
치수문자_일반주서
 62
     0
370
    -2
100
AcDbLine
 10
-45.15000000000001
 20
6.999999999999991
 30
0.0
 11
-45.15000000000001
 21
43.41217844013391
 31
0.0
  0
LINE
  5
118
330
113
100
AcDbEntity
  8
치수문자_일반주서
 62
     0
370
    -2
100
AcDbLine
 10
40.44799999999898
 20
43.41217844013391
 30
0.0
 11
-41.84800000000001
 21
43.41217844013391
 31
0.0
  0
SOLID
  5
119
330
113
100
AcDbEntity
  8
치수문자_일반주서
 62
     0
100
AcDbTrace
 10
40.44799999999898
 20
42.86184510680058
 30
0.0
 11
40.44799999999898
 21
43.96251177346725
 31
0.0
 12
43.74999999999898
 22
43.41217844013391
 32
0.0
 13
43.74999999999898
 23
43.41217844013391
 33
0.0
  0
SOLID
  5
11A
330
113
100
AcDbEntity
  8
치수문자_일반주서
 62
     0
100
AcDbTrace
 10
-41.84800000000001
 20
43.96251177346725
 30
0.0
 11
-41.84800000000001
 21
42.86184510680058
 31
0.0
 12
-45.15000000000001
 22
43.41217844013391
 32
0.0
 13
-45.15000000000001
 23
43.41217844013391
 33
0.0
  0
MTEXT
  5
11B
330
113
100
AcDbEntity
  8
치수문자_일반주서
 62
     0
100
AcDbMText
 10
-0.700000000000002
 20
47.78717844013391
 30
0.0
 40
3.5
 41
0.0
 71
     2
 72
     1
  1
\A1;88.9 [3 1/2]
  7
SLDTEXTSTYLE0
 73
     1
 44
1.0
  0
POINT
  5
11C
330
113
100
AcDbEntity
  8
Defpoints
 62
     0
100
AcDbPoint
 10
43.74999999999898
 20
7.937500000000005
 30
0.0
  0
POINT
  5
11D
330
113
100
AcDbEntity
  8
Defpoints
 62
     0
100
AcDbPoint
 10
-45.15000000000001
 20
6.937499999999991
 30
0.0
  0
POINT
  5
11E
330
113
100
AcDbEntity
  8
Defpoints
 62
     0
100
AcDbPoint
 10
-45.15000000000001
 20
43.41217844013391
 30
0.0
  0
ENDBLK
  5
115
330
113
100
AcDbEntity
  8
0
100
AcDbBlockEnd
  0
BLOCK
  5
12D
330
12C
100
AcDbEntity
  8
0
100
AcDbBlockBegin
  2
SW_DOWELSYMBOL_0
 70
     0
 10
0.0
 20
0.0
 30
0.0
  3
SW_DOWELSYMBOL_0
  1
SW_DOWELSYMBOL_0
  0
CIRCLE
  5
12F
330
12C
100
AcDbEntity
  8
해칭선
 62
     0
100
AcDbCircle
 10
0.0
 20
0.0
 30
0.0
 40
3.000000000000001
  0
HATCH
  5
130
330
12C
100
AcDbEntity
  8
0
  6
Continuous
 62
     0
370
     0
100
AcDbHatch
 10
0.0
 20
0.0
 30
0.0
210
0.0
220
0.0
230
1.0
  2
SOLID
 70
     1
 71
     0
 91
        1
 92
        0
 93
        3
 72
     2
 10
0.0
 20
0.0
 40
3.000000000000001
 50
0.0
 51
90.0
 73
     1
 72
     1
 10
0.0
 20
3.000000000000001
 11
0.0
 21
0.0
 72
     1
 10
0.0
 20
0.0
 11
3.000000000000001
 21
0.0
 97
        0
 75
     0
 76
     1
 98
        1
 10
0.0
 20
0.0
  0
HATCH
  5
131
330
12C
100
AcDbEntity
  8
0
  6
Continuous
 62
     0
370
     0
100
AcDbHatch
 10
0.0
 20
0.0
 30
0.0
210
0.0
220
0.0
230
1.0
  2
SOLID
 70
     1
 71
     0
 91
        1
 92
        0
 93
        3
 72
     2
 10
0.0
 20
0.0
 40
3.000000000000001
 50
180.0
 51
270.0000000000008
 73
     1
 72
     1
 10
0.0
 20
-3.000000000000001
 11
0.0
 21
0.0
 72
     1
 10
0.0
 20
0.0
 11
-3.000000000000001
 21
0.0
 97
        0
 75
     0
 76
     1
 98
        1
 10
0.0
 20
0.0
  0
ENDBLK
  5
12E
330
12C
100
AcDbEntity
  8
0
100
AcDbBlockEnd
  0
ENDSEC
  0
SECTION
  2
ENTITIES
  0
LINE
  5
96
330
1F
100
AcDbEntity
  8
외형선
  6
Continuous
370
    15
100
AcDbLine
 10
8.949907510226621
 20
7.937499999999998
 30
0.0
 11
-44.15000000000001
 21
7.937499999999995
 31
0.0
  0
LINE
  5
97
330
1F
100
AcDbEntity
  8
외형선
  6
Continuous
370
    15
100
AcDbLine
 10
-44.15000000000001
 20
-7.937500000000005
 30
0.0
 11
8.949907510226621
 21
-7.937500000000002
 31
0.0
  0
LINE
  5
98
330
1F
100
AcDbEntity
  8
외형선
  6
Continuous
370
    15
100
AcDbLine
 10
-44.15000000000001
 20
7.937499999999993
 30
0.0
 11
-45.15000000000001
 21
6.93749999999999
 31
0.0
  0
LINE
  5
99
330
1F
100
AcDbEntity
  8
외형선
  6
Continuous
370
    15
100
AcDbLine
 10
-45.15000000000001
 20
-6.937500000000002
 30
0.0
 11
-44.15000000000001
 21
-7.937500000000004
 31
0.0
  0
SPLINE
  5
9A
330
1F
100
AcDbEntity
  8
외형선
  6
Continuous
370
    15
100
AcDbSpline
210
0.0
220
0.0
230
1.0
 70
     8
 71
     3
 72
     9
 73
     5
 74
     0
 42
0.000000001
 43
0.00000001
 40
0.0
 40
0.0
 40
0.0
 40
0.0
 40
0.5574236838363493
 40
1.0
 40
1.0
 40
1.0
 40
1.0
 10
8.94987216125033
 20
-6.56635162182658
 30
0.0
 10
9.51861796293808
 20
-6.516980327498017
 30
0.0
 10
10.53892947495257
 20
-6.428409827606843
 30
0.0
 10
11.5517497387241
 20
-6.363205884831539
 30
0.0
 10
12.0
 20
-6.334348164038699
 30
0.0
  0
SPLINE
  5
9B
330
1F
100
AcDbEntity
  8
0
  6
Continuous
 62
     1
370
    15
100
AcDbSpline
210
0.0
220
0.0
230
1.0
 70
     8
 71
     3
 72
     9
 73
     5
 74
     0
 42
0.000000001
 43
0.00000001
 40
0.0
 40
0.0
 40
0.0
 40
0.0
 40
0.461810183826032
 40
1.0
 40
1.0
 40
1.0
 40
1.0
 10
23.18515265322594
 20
2.034007299654653
 30
0.0
 10
22.84676166351499
 20
2.195190272884817
 30
0.0
 10
22.1140125783661
 20
2.544214566577922
 30
0.0
 10
21.37960136941573
 20
2.928484726246412
 30
0.0
 10
20.98434873587463
 20
3.135295012839538
 30
0.0
  0
LINE
  5
9C
330
1F
100
AcDbEntity
  8
0
  6
Continuous
 62
     1
370
    15
100
AcDbLine
 10
18.77725784678507
 20
2.245661396195679
 30
0.0
 11
18.71142101931287
 21
2.281984043283523
 31
0.0
  0
SPLINE
  5
9D
330
1F
100
AcDbEntity
  8
0
  6
Continuous
 62
     1
370
    15
100
AcDbSpline
210
0.0
220
0.0
230
1.0
 70
     8
 71
     3
 72
    20
 73
    16
 74
     0
 42
0.000000001
 43
0.00000001
 40
0.0
 40
0.0
 40
0.0
 40
0.0
 40
0.1283124001781909
 40
0.2327336175682968
 40
0.3198137914463698
 40
0.3932078510527157
 40
0.4685631750385374
 40
0.5570661756988579
 40
0.6294828550954771
 40
0.6903939605417132
 40
0.757010059890833
 40
0.8351821864586307
 40
0.9259226177542408
 40
0.975719064822845
 40
1.0
 40
1.0
 40
1.0
 40
1.0
 10
20.56156632570106
 20
6.30744680746758
 30
0.0
 10
20.29469369534724
 20
6.293732739444893
 30
0.0
 10
19.81063889934968
 20
6.268858100220115
 30
0.0
 10
19.11325222326243
 20
6.242640342065213
 30
0.0
 10
18.53319484954094
 20
6.225288145923965
 30
0.0
 10
18.02428039629424
 20
6.213386514535732
 30
0.0
 10
17.51864361620695
 20
6.204859382588814
 30
0.0
 10
17.00913456932476
 20
6.199769616131677
 30
0.0
 10
16.53228015178313
 20
6.198357978369006
 30
0.0
 10
16.10208028562293
 20
6.199566567551641
 30
0.0
 10
15.65946786742794
 20
6.203249716815312
 30
0.0
 10
15.15264650729507
 20
6.210601421356975
 30
0.0
 10
14.68207437194163
 20
6.220915571067912
 30
0.0
 10
14.3275035775709
 20
6.230679071087145
 30
0.0
 10
14.16814840504465
 20
6.235772190926935
 30
0.0
 10
14.11591528749984
 20
6.237441603491611
 30
0.0
  0
SPLINE
  5
9E
330
1F
100
AcDbEntity
  8
0
  6
Continuous
 62
     1
370
    15
100
AcDbSpline
210
0.0
220
0.0
230
1.0
 70
     8
 71
     3
 72
    31
 73
    27
 74
     0
 42
0.000000001
 43
0.00000001
 40
0.0
 40
0.0
 40
0.0
 40
0.0
 40
0.0610406103124029
 40
0.1099219298316113
 40
0.1467554641380186
 40
0.1773461248314679
 40
0.2043524584408838
 40
0.2306453248492278
 40
0.2631817956501625
 40
0.2995457209783755
 40
0.3424870881621022
 40
0.3831339885570187
 40
0.4227192652994373
 40
0.4581917551667715
 40
0.4957332713876144
 40
0.5532443148483126
 40
0.6050990970313451
 40
0.6537219076888212
 40
0.7066387228426467
 40
0.7660496733193006
 40
0.7957350330756948
 40
0.8234445748983898
 40
0.8549361260920288
 40
0.8919550428315602
 40
0.9400964028893227
 40
0.9999999999999999
 40
0.9999999999999999
 40
0.9999999999999999
 40
0.9999999999999999
 10
40.80110747354681
 20
5.428873412028569
 30
0.0
 10
40.52352555959225
 20
5.406088782561846
 30
0.0
 10
40.0236560544861
 20
5.365058222273172
 30
0.0
 10
39.34891403658762
 20
5.32135077396658
 30
0.0
 10
38.80210989420874
 20
5.291699342568623
 30
0.0
 10
38.35811833421821
 20
5.271311611982366
 30
0.0
 10
37.96833092648059
 20
5.256273330813563
 30
0.0
 10
37.57482123712482
 20
5.24382752138287
 30
0.0
 10
37.13452968253495
 20
5.233174508665695
 30
0.0
 10
36.61704951870182
 20
5.225241760445648
 30
0.0
 10
36.06242419776348
 20
5.222367834186693
 30
0.0
 10
35.49327675166268
 20
5.225559883041228
 30
0.0
 10
34.95812117451636
 20
5.234095556536693
 30
0.0
 10
34.43729756151293
 20
5.247391126714748
 30
0.0
 10
33.83363303314586
 20
5.268410355321446
 30
0.0
 10
33.15447837885522
 20
5.300287152176455
 30
0.0
 10
32.42390558865011
 20
5.344800803614913
 30
0.0
 10
31.7144308404171
 20
5.39669156960803
 30
0.0
 10
30.97093102332872
 20
5.460197072527722
 30
0.0
 10
30.31193305731702
 20
5.52568934625304
 30
0.0
 10
29.77876010488654
 20
5.58416731514233
 30
0.0
 10
29.36851023489722
 20
5.631734889868592
 30
0.0
 10
28.91575246762464
 20
5.687386598622872
 30
0.0
 10
28.36530486104165
 20
5.75885971633258
 30
0.0
 10
27.69657553547695
 20
5.852380849239293
 30
0.0
 10
27.20674610434274
 20
5.928088593246439
 30
0.0
 10
26.93516892328216
 20
5.970063399975198
 30
0.0
  0
SPLINE
  5
9F
330
1F
100
AcDbEntity
  8
0
  6
Continuous
 62
     1
370
    15
100
AcDbSpline
210
0.0
220
0.0
230
1.0
 70
     8
 71
     3
 72
    19
 73
    15
 74
     0
 42
0.000000001
 43
0.00000001
 40
0.0
 40
0.0
 40
0.0
 40
0.0
 40
0.1049545841674956
 40
0.1858885835213205
 40
0.2842855190848031
 40
0.376819553960917
 40
0.483913805133339
 40
0.5819529925341612
 40
0.6623345829835596
 40
0.7295578204023901
 40
0.8139108292807375
 40
0.907227159523402
 40
0.9854298707373215
 40
1.0
 40
1.0
 40
1.0
 40
1.0
 10
26.93516892328216
 20
-5.970063399975203
 30
0.0
 10
27.1172068562269
 20
-5.941017386556591
 30
0.0
 10
27.43962034364774
 20
-5.889573018174258
 30
0.0
 10
28.01029431755369
 20
-5.805639977586162
 30
0.0
 10
28.5631277002116
 20
-5.733286843405226
 30
0.0
 10
29.16345646861663
 20
-5.655943730985872
 30
0.0
 10
29.75063923425086
 20
-5.586853967458447
 30
0.0
 10
30.31680561699979
 20
-5.52542803318518
 30
0.0
 10
30.79994539570416
 20
-5.477526983843355
 30
0.0
 10
31.25272078242844
 20
-5.436002788134018
 30
0.0
 10
31.73956400498576
 20
-5.395199993898431
 30
0.0
 10
32.25088288776245
 20
-5.357489872753423
 30
0.0
 10
32.62155646844196
 20
-5.332665239000909
 30
0.0
 10
32.80442915838118
 20
-5.32217434994247
 30
0.0
 10
32.83314961921153
 20
-5.320526738326003
 30
0.0
  0
SPLINE
  5
A0
330
1F
100
AcDbEntity
  8
0
  6
Continuous
 62
     1
370
    15
100
AcDbSpline
210
0.0
220
0.0
230
1.0
 70
     8
 71
     3
 72
    29
 73
    25
 74
     0
 42
0.000000001
 43
0.00000001
 40
0.0
 40
0.0
 40
0.0
 40
0.0
 40
0.0800183274602368
 40
0.1397151037340086
 40
0.1789883169656593
 40
0.206439664621334
 40
0.2401751005478587
 40
0.279766946943968
 40
0.3168542083517017
 40
0.3613327777543686
 40
0.4049105707216828
 40
0.4532836662798734
 40
0.5059813076218838
 40
0.5440197833373954
 40
0.5738973617025935
 40
0.5990916967646678
 40
0.6367569499713053
 40
0.6880609813026279
 40
0.7359115175092172
 40
0.773149779570519
 40
0.8069095413538941
 40
0.8549291865783455
 40
0.919185872770536
 40
1.0
 40
1.0
 40
1.0
 40
1.0
 10
12.0
 20
-6.3343481640387
 30
0.0
 10
12.22909125263686
 20
-6.321302173876328
 30
0.0
 10
12.62909346641244
 20
-6.298523368986232
 30
0.0
 10
13.1413889708416
 20
-6.274513845037918
 30
0.0
 10
13.5031898518249
 20
-6.259339082500698
 30
0.0
 10
13.79078897148672
 20
-6.24837335046374
 30
0.0
 10
14.07916088902682
 20
-6.238352079121442
 30
0.0
 10
14.39517891541344
 20
-6.228671930152188
 30
0.0
 10
14.73881777776347
 20
-6.219766693566545
 30
0.0
 10
15.06928024242157
 20
-6.211999887311385
 30
0.0
 10
15.44200175685151
 20
-6.204180819837276
 30
0.0
 10
15.86272157652702
 20
-6.199690191751823
 30
0.0
 10
16.26762239995636
 20
-6.198549178994415
 30
0.0
 10
16.61853679032944
 20
-6.198612189929374
 30
0.0
 10
16.8892465566509
 20
-6.199564744011338
 30
0.0
 10
17.15469059078776
 20
-6.201313432819473
 30
0.0
 10
17.48131260368796
 20
-6.204647906827623
 30
0.0
 10
17.87275118000411
 20
-6.210630833133261
 30
0.0
 10
18.26348052780625
 20
-6.218810176010415
 30
0.0
 10
18.60452888145729
 20
-6.22760744513634
 30
0.0
 10
18.9466279832027
 20
-6.237806255204318
 30
0.0
 10
19.36428319448945
 20
-6.252286550310849
 30
0.0
 10
19.9159873584375
 20
-6.274650562524975
 30
0.0
 10
20.33059961917023
 20
-6.295713400610976
 30
0.0
 10
20.56156632570107
 20
-6.307446807467584
 30
0.0
  0
SPLINE
  5
A1
330
1F
100
AcDbEntity
  8
외형선
  6
Continuous
370
    15
100
AcDbSpline
210
0.0
220
0.0
230
1.0
 70
     8
 71
     3
 72
    10
 73
     6
 74
     0
 42
0.000000001
 43
0.00000001
 40
0.0
 40
0.0
 40
0.0
 40
0.0
 40
0.5
 40
0.5
 40
1.0
 40
1.0
 40
1.0
 40
1.0
 10
12.0
 20
6.92230219790263
 30
0.0
 10
11.49137255887738
 20
7.065954171025695
 30
0.0
 10
10.98620014624331
 20
7.195109410601202
 30
0.0
 10
9.967823972187787
 20
7.424070348833547
 30
0.0
 10
9.457190447220103
 20
7.523602632978106
 30
0.0
 10
8.949810742009024
 20
7.607324648199596
 30
0.0
  0
LINE
  5
A2
330
1F
100
AcDbEntity
  8
외형선
  6
Continuous
370
    15
100
AcDbLine
 10
12.0
 20
6.922302197902627
 30
0.0
 11
12.0
 21
5.580371526051612
 31
0.0
  0
SPLINE
  5
A3
330
1F
100
AcDbEntity
  8
외형선
  6
Continuous
370
    15
100
AcDbSpline
210
0.0
220
0.0
230
1.0
 70
     8
 71
     3
 72
    10
 73
     6
 74
     0
 42
0.000000001
 43
0.00000001
 40
0.0
 40
0.0
 40
0.0
 40
0.0
 40
0.5
 40
0.5
 40
1.0
 40
1.0
 40
1.0
 40
1.0
 10
8.94990751022662
 20
6.685723743299294
 30
0.0
 10
9.457271500195374
 20
6.527618721267969
 30
0.0
 10
9.967888806269267
 20
6.355439519706707
 30
0.0
 10
10.98623242522844
 20
5.986009478541439
 30
0.0
 10
11.49138872656875
 20
5.789138466347238
 30
0.0
 10
12.0
 20
5.580371526051611
 30
0.0
  0
SPLINE
  5
A4
330
1F
100
AcDbEntity
  8
외형선
  6
Continuous
370
    15
100
AcDbSpline
210
0.0
220
0.0
230
1.0
 70
     8
 71
     3
 72
    10
 73
     6
 74
     0
 42
0.000000001
 43
0.00000001
 40
0.0
 40
0.0
 40
0.0
 40
0.0
 40
0.5
 40
0.5
 40
1.0
 40
1.0
 40
1.0
 40
1.0
 10
12.0
 20
-6.922302197902634
 30
0.0
 10
11.49137255887738
 20
-7.065954171025699
 30
0.0
 10
10.98620014624331
 20
-7.195109410601206
 30
0.0
 10
9.967823972187787
 20
-7.424070348833552
 30
0.0
 10
9.457190447220103
 20
-7.52360263297811
 30
0.0
 10
8.949810742009024
 20
-7.6073246481996
 30
0.0
  0
LINE
  5
A5
330
1F
100
AcDbEntity
  8
외형선
  6
Continuous
370
    15
100
AcDbLine
 10
8.949907510226621
 20
7.607421734431991
 30
0.0
 11
8.949907510226621
 21
7.937499999999998
 31
0.0
  0
LINE
  5
A6
330
1F
100
AcDbEntity
  8
외형선
  6
Continuous
370
    15
100
AcDbLine
 10
-44.15000000000001
 20
7.937499999999993
 30
0.0
 11
-44.15000000000001
 21
-7.93749999999999
 31
0.0
  0
LINE
  5
A7
330
1F
100
AcDbEntity
  8
외형선
  6
Continuous
370
    15
100
AcDbLine
 10
8.949907510226621
 20
-7.937500000000002
 30
0.0
 11
8.949907510226621
 21
6.685723250193476
 31
0.0
  0
LINE
  5
A8
330
1F
100
AcDbEntity
  8
외형선
  6
Continuous
370
    15
100
AcDbLine
 10
-45.15000000000001
 20
6.937499999999991
 30
0.0
 11
-45.15000000000001
 21
-6.937500000000002
 31
0.0
  0
SPLINE
  5
A9
330
1F
100
AcDbEntity
  8
외형선
  6
Continuous
370
    15
100
AcDbSpline
210
0.0
220
0.0
230
1.0
 70
    24
 71
     3
 72
    14
 73
    10
 74
     0
 42
0.000000001
 43
0.00000001
 40
0.0
 40
0.0
 40
0.0
 40
0.0
 40
0.25
 40
0.25
 40
0.5
 40
0.5
 40
0.75
 40
0.75
 40
1.0
 40
1.0
 40
1.0
 40
1.0
 10
12.0
 20
3.740537298894925
 30
0.0
 10
12.0
 20
3.13174411726468
 30
0.0
 10
12.0
 20
2.460276939686685
 30
0.0
 10
12.0
 20
1.040938278989609
 30
0.0
 10
12.0
 20
0.2936082189774465
 30
0.0
 10
12.0
 20
-1.205719050879227
 30
0.0
 10
12.0
 20
-1.956917356470151
 30
0.0
 10
12.0
 20
-3.390995282677456
 30
0.0
 10
12.0
 20
-4.073312778093213
 30
0.0
 10
12.0
 20
-4.695501246409997
 30
0.0
  0
SPLINE
  5
AA
330
1F
100
AcDbEntity
  8
외형선
  6
Continuous
370
    15
100
AcDbSpline
210
0.0
220
0.0
230
1.0
 70
     8
 71
     3
 72
    10
 73
     6
 74
     0
 42
0.000000001
 43
0.00000001
 40
0.0
 40
0.0
 40
0.0
 40
0.0
 40
0.5000000000000001
 40
0.5000000000000001
 40
1.0
 40
1.0
 40
1.0
 40
1.0
 10
12.0
 20
-4.695501246409996
 30
0.0
 10
11.4913828205884
 20
-4.537395766965854
 30
0.0
 10
10.98622063387096
 20
-4.370035135721245
 30
0.0
 10
9.96786512268992
 20
-4.017203120011055
 30
0.0
 10
9.457241891929357
 20
-3.831984543219964
 30
0.0
 10
8.949872161250333
 20
-3.639697146448979
 30
0.0
  0
SPLINE
  5
AB
330
1F
100
AcDbEntity
  8
외형선
  6
Continuous
370
    15
100
AcDbSpline
210
0.0
220
0.0
230
1.0
 70
     8
 71
     3
 72
    10
 73
     6
 74
     0
 42
0.000000001
 43
0.00000001
 40
0.0
 40
0.0
 40
0.0
 40
0.0
 40
0.5
 40
0.5
 40
1.0
 40
1.0
 40
1.0
 40
1.0
 10
12.0
 20
3.740537298894926
 30
0.0
 10
11.49138482967911
 20
3.892490300207264
 30
0.0
 10
10.98622464504379
 20
4.036442144972756
 30
0.0
 10
9.967873179347226
 20
4.307964712063105
 30
0.0
 10
9.457251964040566
 20
4.435260224468176
 30
0.0
 10
8.94988418622989
 20
4.552949771624633
 30
0.0
  0
SPLINE
  5
AC
330
1F
100
AcDbEntity
  8
외형선
  6
Continuous
370
    15
100
AcDbSpline
210
0.0
220
0.0
230
1.0
 70
    24
 71
     3
 72
    10
 73
     6
 74
     0
 42
0.000000001
 43
0.00000001
 40
0.0
 40
0.0
 40
0.0
 40
0.0
 40
0.5
 40
0.5
 40
1.0
 40
1.0
 40
1.0
 40
1.0
 10
12.0
 20
5.58037152605161
 30
0.0
 10
12.0
 20
5.387968427344899
 30
0.0
 10
12.0
 20
5.117903559788343
 30
0.0
 10
12.0
 20
4.478406392181737
 30
0.0
 10
12.0
 20
4.111068955337682
 30
0.0
 10
12.0
 20
3.740537298894925
 30
0.0
  0
SPLINE
  5
AD
330
1F
100
AcDbEntity
  8
외형선
  6
Continuous
370
    15
100
AcDbSpline
210
0.0
220
0.0
230
1.0
 70
    24
 71
     3
 72
    13
 73
     9
 74
     0
 42
0.000000001
 43
0.00000001
 40
0.0
 40
0.0
 40
0.0
 40
0.0
 40
0.181196292407291
 40
0.3647518737008989
 40
0.6314763967310214
 40
0.7688313562783373
 40
0.9061863158256532
 40
1.0
 40
1.0
 40
1.0
 40
1.0
 10
12.0
 20
-4.695501246409996
 30
0.0
 10
12.0
 20
-4.878420422401175
 30
0.0
 10
12.0
 20
-5.246640496290075
 30
0.0
 10
12.0
 20
-5.741875527765757
 30
0.0
 10
12.0
 20
-6.075244333149224
 30
0.0
 10
12.0
 20
-6.251282522658702
 30
0.0
 10
12.0
 20
-6.333910969927084
 30
0.0
 10
12.0
 20
-6.317590899685028
 30
0.0
 10
12.0
 20
-6.310967830523299
 30
0.0
  0
SPLINE
  5
AE
330
1F
100
AcDbEntity
  8
외형선
  6
Continuous
370
    15
100
AcDbSpline
210
0.0
220
0.0
230
1.0
 70
    24
 71
     3
 72
    10
 73
     6
 74
     0
 42
0.000000001
 43
0.00000001
 40
0.0
 40
0.0
 40
0.0
 40
0.0
 40
0.1340096318059995
 40
0.7771667379388276
 40
1.0
 40
1.0
 40
1.0
 40
1.0
 10
12.0
 20
-6.373615426704988
 30
0.0
 10
12.0
 20
-6.400197920063297
 30
0.0
 10
12.0
 20
-6.554358702173838
 30
0.0
 10
12.0
 20
-6.734328801159479
 30
0.0
 10
12.0
 20
-6.883832491679597
 30
0.0
 10
12.0
 20
-6.922302197893835
 30
0.0
  0
SPLINE
  5
AF
330
1F
100
AcDbEntity
  8
0
  6
Continuous
 62
     1
370
    15
100
AcDbSpline
210
0.0
220
0.0
230
1.0
 70
     8
 71
     3
 72
    50
 73
    46
 74
     0
 42
0.000000001
 43
0.00000001
 40
0.0
 40
0.0
 40
0.0
 40
0.0
 40
0.0624999999999997
 40
0.0624999999999997
 40
0.0937499999999995
 40
0.0937499999999995
 40
0.1249999999999993
 40
0.1249999999999993
 40
0.1562499999999992
 40
0.1562499999999992
 40
0.187499999999999
 40
0.187499999999999
 40
0.2499999999999987
 40
0.2499999999999987
 40
0.3124999999999983
 40
0.3124999999999983
 40
0.374999999999998
 40
0.374999999999998
 40
0.4062499999999978
 40
0.4062499999999978
 40
0.4374999999999977
 40
0.4374999999999977
 40
0.4999999999999976
 40
0.4999999999999976
 40
0.5312499999999976
 40
0.5312499999999976
 40
0.5624999999999977
 40
0.5624999999999977
 40
0.6249999999999979
 40
0.6249999999999979
 40
0.6562499999999979
 40
0.6562499999999979
 40
0.687499999999998
 40
0.687499999999998
 40
0.7499999999999982
 40
0.7499999999999982
 40
0.7812499999999983
 40
0.7812499999999983
 40
0.8124999999999987
 40
0.8124999999999987
 40
0.8749999999999992
 40
0.8749999999999992
 40
0.9374999999999997
 40
0.9374999999999997
 40
1.0
 40
1.0
 40
1.0
 40
1.0
 10
43.75000000000001
 20
-7.532218149528209
 30
0.0
 10
43.09175240621782
 20
-7.41194653970283
 30
0.0
 10
42.42647864949102
 20
-7.26504543108222
 30
0.0
 10
41.43352557858969
 20
-7.007960078254479
 30
0.0
 10
41.10450772437064
 20
-6.916283825905345
 30
0.0
 10
40.44450344966286
 20
-6.720936124991749
 30
0.0
 10
40.11310422197983
 20
-6.61720689632315
 30
0.0
 10
39.45009242265387
 20
-6.398394385986848
 30
0.0
 10
39.11848209984895
 20
-6.283311834097589
 30
0.0
 10
38.45763891827972
 20
-6.04272852808882
 30
0.0
 10
38.12904014078976
 20
-5.917323285041079
 30
0.0
 10
37.13699599686119
 20
-5.52525055190113
 30
0.0
 10
36.47148403559428
 20
-5.243134107269326
 30
0.0
 10
35.15284851671333
 20
-4.646317929490504
 30
0.0
 10
34.48994823503488
 20
-4.330187054665423
 30
0.0
 10
33.1650711280587
 20
-3.670175466654885
 30
0.0
 10
32.50765326945478
 20
-3.327125097580568
 30
0.0
 10
31.51334081336627
 20
-2.795613047004409
 30
0.0
 10
31.18158788089473
 20
-2.615799007114751
 30
0.0
 10
30.52004113227381
 20
-2.252297923526865
 30
0.0
 10
30.19137385010334
 20
-2.068824586836682
 30
0.0
 10
29.20044217709833
 20
-1.51259347665119
 30
0.0
 10
28.53483055285984
 20
-1.134278871265457
 30
0.0
 10
27.54445010944535
 20
-0.5643927185852109
 30
0.0
 10
27.21559924909718
 20
-0.3740220096415547
 30
0.0
 10
26.5537870611461
 20
0.0078277719857914
 30
0.0
 10
26.22199325667263
 20
0.1990823804037546
 30
0.0
 10
25.2278353188269
 20
0.7715942262071194
 30
0.0
 10
24.57050968957856
 20
1.150869965894187
 30
0.0
 10
23.57660757812403
 20
1.713334984742247
 30
0.0
 10
23.24478061983633
 20
1.899594625192712
 30
0.0
 10
22.58266612632998
 20
2.268203852502078
 30
0.0
 10
22.2534428049335
 20
2.450359937421591
 30
0.0
 10
21.26382638439357
 20
2.990351284688598
 30
0.0
 10
20.59825370826066
 20
3.342234271711671
 30
0.0
 10
19.60667186474753
 20
3.849653567961877
 30
0.0
 10
19.27810309599721
 20
4.015273227788706
 30
0.0
 10
18.61693503296099
 20
4.339937815240962
 30
0.0
 10
18.28525380474841
 20
4.498819656249506
 30
0.0
 10
17.29080075476788
 20
4.963221726625174
 30
0.0
 10
16.63314627950206
 20
5.255838053255613
 30
0.0
 10
15.30876368321285
 20
5.803952984120478
 30
0.0
 10
14.6445808706108
 20
6.058983791924789
 30
0.0
 10
13.3271151551905
 20
6.524014936404536
 30
0.0
 10
12.66172001107497
 20
6.735412192447753
 30
0.0
 10
11.99999999999752
 20
6.922302197903329
 30
0.0
  0
SPLINE
  5
B0
330
1F
100
AcDbEntity
  8
0
  6
Continuous
 62
     1
370
    15
100
AcDbSpline
210
0.0
220
0.0
230
1.0
 70
     8
 71
     3
 72
    17
 73
    13
 74
     0
 42
0.000000001
 43
0.00000001
 40
0.0
 40
0.0
 40
0.0
 40
0.0
 40
0.1056337895032878
 40
0.2111914002749186
 40
0.3167211805006276
 40
0.4222716712517822
 40
0.5278912700346532
 40
0.6335376085647049
 40
0.7391033813394919
 40
0.844634207707433
 40
0.9501786214843808
 40
1.0
 40
1.0
 40
1.0
 40
1.0
 10
43.75
 20
-6.262467348422717
 30
0.0
 10
43.02458260218095
 20
-6.114968286628474
 30
0.0
 10
41.57427094764709
 20
-5.820076533279101
 30
0.0
 10
39.39959201614962
 20
-5.190263746476636
 30
0.0
 10
37.22553944380179
 20
-4.442124699821242
 30
0.0
 10
35.05101949059388
 20
-3.579956177706529
 30
0.0
 10
32.87543090242874
 20
-2.629243183099252
 30
0.0
 10
30.69958342163471
 20
-1.613117287008963
 30
0.0
 10
28.52473936912988
 20
-0.5555205635152047
 30
0.0
 10
26.35065185628748
 20
0.512910470163233
 30
0.0
 10
24.55932876912253
 20
1.391439394215394
 30
0.0
 10
23.49244074870066
 20
1.885828200382019
 30
0.0
 10
23.15032018847383
 20
2.044364590422949
 30
0.0
  0
LINE
  5
B1
330
1F
100
AcDbEntity
  8
0
  6
Continuous
 62
     1
370
    15
100
AcDbLine
 10
43.74999999999972
 20
-7.532218149528209
 30
0.0
 11
43.75
 21
-6.262467348422717
 31
0.0
  0
SPLINE
  5
B2
330
1F
100
AcDbEntity
  8
0
  6
Continuous
 62
     1
370
    15
100
AcDbSpline
210
0.0
220
0.0
230
1.0
 70
     8
 71
     3
 72
    50
 73
    46
 74
     0
 42
0.000000001
 43
0.00000001
 40
0.0
 40
0.0
 40
0.0
 40
0.0
 40
0.0624999999999997
 40
0.0624999999999997
 40
0.1249999999999993
 40
0.1249999999999993
 40
0.1874999999999989
 40
0.1874999999999989
 40
0.2187499999999988
 40
0.2187499999999988
 40
0.2499999999999987
 40
0.2499999999999987
 40
0.3124999999999986
 40
0.3124999999999986
 40
0.3437499999999986
 40
0.3437499999999986
 40
0.3749999999999986
 40
0.3749999999999986
 40
0.4374999999999984
 40
0.4374999999999984
 40
0.4687499999999984
 40
0.4687499999999984
 40
0.4999999999999984
 40
0.4999999999999984
 40
0.5624999999999988
 40
0.5624999999999988
 40
0.5937499999999989
 40
0.5937499999999989
 40
0.6249999999999989
 40
0.6249999999999989
 40
0.6874999999999991
 40
0.6874999999999991
 40
0.7499999999999993
 40
0.7499999999999993
 40
0.8124999999999996
 40
0.8124999999999996
 40
0.8437499999999997
 40
0.8437499999999997
 40
0.8749999999999998
 40
0.8749999999999998
 40
0.9062499999999999
 40
0.9062499999999999
 40
0.9375
 40
0.9375
 40
1.0
 40
1.0
 40
1.0
 40
1.0
 10
12.0
 20
5.580371526051614
 30
0.0
 10
12.6617200110774
 20
5.308758863766237
 30
0.0
 10
13.32711515519289
 20
5.017168827353726
 30
0.0
 10
14.64458087061304
 20
4.40325896406531
 30
0.0
 10
15.30876368321508
 20
4.079082873245231
 30
0.0
 10
16.63314627950417
 20
3.405276232744224
 30
0.0
 10
17.29080075476994
 20
3.05615928809049
 30
0.0
 10
18.28525380475041
 20
2.516997420073436
 30
0.0
 10
18.61693503296296
 20
2.334894170769225
 30
0.0
 10
19.27810309599911
 20
1.967355728511301
 30
0.0
 10
19.60667186474942
 20
1.782097237248276
 30
0.0
 10
20.59825370826248
 20
1.221071814733881
 30
0.0
 10
21.26382638439533
 20
0.8406461809669179
 30
0.0
 10
22.25344280493517
 20
0.2692767403490942
 30
0.0
 10
22.58266612633162
 20
0.0785466648659584
 30
0.0
 10
23.24478061983794
 20
-0.3034245464442611
 30
0.0
 10
23.5766075781256
 20
-0.4944601553016725
 30
0.0
 10
24.57050968958005
 20
-1.06547782946721
 30
0.0
 10
25.22783531882835
 20
-1.442770214035398
 30
0.0
 10
26.221993256674
 20
-2.000791291368938
 30
0.0
 10
26.55378706114745
 20
-2.185294934600615
 30
0.0
 10
27.21559924909846
 20
-2.549859618201278
 30
0.0
 10
27.54445010944661
 20
-2.729712274613041
 30
0.0
 10
28.53483055286102
 20
-3.262407099470185
 30
0.0
 10
29.20044217709947
 20
-3.608356038638039
 30
0.0
 10
30.19137385010439
 20
-4.105430212265697
 30
0.0
 10
30.52004113227484
 20
-4.267437533182378
 30
0.0
 10
31.1815878808957
 20
-4.584456851037613
 30
0.0
 10
31.51334081336722
 20
-4.739275690703256
 30
0.0
 10
32.50765326945566
 20
-5.190821790359676
 30
0.0
 10
33.16507112805953
 20
-5.474054353255244
 30
0.0
 10
34.4899482350356
 20
-6.00203866826856
 30
0.0
 10
35.15284851671401
 20
-6.246083314788184
 30
0.0
 10
36.47148403559486
 20
-6.68842328939355
 30
0.0
 10
37.1369959968617
 20
-6.88775878001992
 30
0.0
 10
38.1290401407902
 20
-7.149253609975634
 30
0.0
 10
38.45763891828013
 20
-7.230119657826583
 30
0.0
 10
39.1184820998493
 20
-7.379480428117118
 30
0.0
 10
39.45009242265422
 20
-7.447905308097232
 30
0.0
 10
40.11310422198013
 20
-7.571667800789639
 30
0.0
 10
40.44450344966312
 20
-7.627005008058485
 30
0.0
 10
41.10450772437087
 20
-7.724219496066867
 30
0.0
 10
41.43352557858985
 20
-7.766136121903195
 30
0.0
 10
42.42647864949112
 20
-7.871801491257727
 30
0.0
 10
43.09175240621787
 20
-7.915119284318699
 30
0.0
 10
43.75000000000001
 20
-7.937499999999996
 30
0.0
  0
SPLINE
  5
B3
330
1F
100
AcDbEntity
  8
0
  6
Continuous
 62
     1
370
    15
100
AcDbSpline
210
0.0
220
0.0
230
1.0
 70
     8
 71
     3
 72
    12
 73
     8
 74
     0
 42
0.000000001
 43
0.00000001
 40
0.0
 40
0.0
 40
0.0
 40
0.0
 40
0.1689899706624555
 40
0.3498533615531732
 40
0.5305748970931197
 40
0.7652901748021854
 40
1.0
 40
1.0
 40
1.0
 40
1.0
 10
24.03485153512635
 20
-0.756888190525312
 30
0.0
 10
23.35696926659103
 20
-0.4840785651934567
 30
0.0
 10
21.95357597967178
 20
0.0807085882231922
 30
0.0
 10
19.82497544411013
 20
0.9409835862721534
 30
0.0
 10
17.4331839082085
 20
1.87905230638523
 30
0.0
 10
14.82479286487884
 20
2.850706541908929
 30
0.0
 10
12.94159033030835
 20
3.443929343385625
 30
0.0
 10
12.0
 20
3.740537298894925
 30
0.0
  0
SPLINE
  5
B4
330
1F
100
AcDbEntity
  8
외형선
  6
Continuous
370
    15
100
AcDbSpline
210
0.0
220
0.0
230
1.0
 70
    24
 71
     3
 72
    10
 73
     6
 74
     0
 42
0.000000001
 43
0.00000001
 40
0.0
 40
0.0
 40
0.0
 40
0.0
 40
0.5
 40
0.5
 40
1.0
 40
1.0
 40
1.0
 40
1.0
 10
12.0
 20
5.580371526051613
 30
0.0
 10
12.0
 20
5.387968427344903
 30
0.0
 10
12.0
 20
5.117903559788345
 30
0.0
 10
12.0
 20
4.478406392181739
 30
0.0
 10
12.0
 20
4.111068955337681
 30
0.0
 10
12.0
 20
3.740537298894925
 30
0.0
  0
LINE
  5
B5
330
1F
100
AcDbEntity
  8
0
  6
Continuous
 62
     1
370
    15
100
AcDbLine
 10
43.75000000000001
 20
-7.937499999999995
 30
0.0
 11
43.74999999999995
 21
-7.532218149528187
 31
0.0
  0
SPLINE
  5
B6
330
1F
100
AcDbEntity
  8
0
  6
Continuous
 62
     1
370
    15
100
AcDbSpline
210
0.0
220
0.0
230
1.0
 70
     8
 71
     3
 72
     8
 73
     4
 74
     0
 42
0.000000001
 43
0.00000001
 40
0.0
 40
0.0
 40
0.0
 40
0.0
 40
1.0
 40
1.0
 40
1.0
 40
1.0
 10
38.83883024581499
 20
2.220079671996137
 30
0.0
 10
38.80890471791479
 20
2.255523819275095
 30
0.0
 10
38.77929209921009
 20
2.290863161819926
 30
0.0
 10
38.75000000000833
 20
2.32609515066032
 30
0.0
  0
LINE
  5
B7
330
1F
100
AcDbEntity
  8
0
  6
Continuous
 62
     1
370
    15
100
AcDbLine
 10
38.75000000000001
 20
2.93771943529659
 30
0.0
 11
43.75
 21
0.0000000000000024
 31
0.0
  0
LINE
  5
B8
330
1F
100
AcDbEntity
  8
0
  6
Continuous
 62
     1
370
    15
100
AcDbLine
 10
43.75
 20
0.0000000000000024
 30
0.0
 11
43.75
 21
-2.121240884110305
 31
0.0
  0
SPLINE
  5
B9
330
1F
100
AcDbEntity
  8
0
  6
Continuous
 62
     1
370
    15
100
AcDbSpline
210
0.0
220
0.0
230
1.0
 70
     8
 71
     3
 72
    12
 73
     8
 74
     0
 42
0.000000001
 43
0.00000001
 40
0.0
 40
0.0
 40
0.0
 40
0.0
 40
0.5
 40
0.5
 40
0.75
 40
0.75
 40
1.0
 40
1.0
 40
1.0
 40
1.0
 10
43.75
 20
-2.121240884110304
 30
0.0
 10
42.89985708373018
 20
-1.452887382416916
 30
0.0
 10
42.0639164266329
 20
-0.7571355301524694
 30
0.0
 10
40.83186851419034
 20
0.3286694918016417
 30
0.0
 10
40.42488238863037
 20
0.6977356413040292
 30
0.0
 10
39.61922911848984
 20
1.451916538950688
 30
0.0
 10
39.2227441128429
 20
1.835090379294039
 30
0.0
 10
38.83883024581499
 20
2.220079671996135
 30
0.0
  0
SPLINE
  5
BA
330
1F
100
AcDbEntity
  8
0
  6
Continuous
 62
     1
370
    15
100
AcDbSpline
210
0.0
220
0.0
230
1.0
 70
     8
 71
     3
 72
    16
 73
    12
 74
     0
 42
0.000000001
 43
0.00000001
 40
0.0
 40
0.0
 40
0.0
 40
0.0
 40
0.1036140992646373
 40
0.2072142083809758
 40
0.3262393755044872
 40
0.4452950905647303
 40
0.5642587447690673
 40
0.6831824683688126
 40
0.8021217216672487
 40
0.921131856775272
 40
1.0
 40
1.0
 40
1.0
 40
1.0
 10
38.83883024581099
 20
2.220079671997866
 30
0.0
 10
38.207544460444
 20
2.48927768274254
 30
0.0
 10
36.94505812696845
 20
3.027637356668007
 30
0.0
 10
34.95757882352152
 20
3.803469696295545
 30
0.0
 10
32.87542580541978
 20
4.534249507960492
 30
0.0
 10
30.69962601041749
 20
5.183708350433237
 30
0.0
 10
28.52476742511736
 20
5.703785421916619
 30
0.0
 10
26.35068872411235
 20
6.082883249423325
 30
0.0
 10
24.1763046412341
 20
6.303922451404862
 30
0.0
 10
22.24578965936606
 20
6.380811145241989
 30
0.0
 10
21.03994437931827
 20
6.315624758927266
 30
0.0
 10
20.55933185805029
 20
6.289643487534121
 30
0.0
  0
SPLINE
  5
BB
330
1F
100
AcDbEntity
  8
0
  6
Continuous
 62
     1
370
    15
100
AcDbSpline
210
0.0
220
0.0
230
1.0
 70
    24
 71
     3
 72
    10
 73
     6
 74
     0
 42
0.000000001
 43
0.00000001
 40
0.0
 40
0.0
 40
0.0
 40
0.0
 40
0.5
 40
0.5
 40
1.0
 40
1.0
 40
1.0
 40
1.0
 10
43.75
 20
-6.262467348422715
 30
0.0
 10
43.75000000000001
 20
-5.782400400217703
 30
0.0
 10
43.75
 20
-5.175817403507597
 30
0.0
 10
43.75000000000001
 20
-3.765570313258521
 30
0.0
 10
43.75000000000001
 20
-2.963127829219771
 30
0.0
 10
43.75
 20
-2.121240884110557
 30
0.0
  0
SPLINE
  5
BC
330
1F
100
AcDbEntity
  8
0
  6
Continuous
 62
     1
370
    15
100
AcDbSpline
210
0.0
220
0.0
230
1.0
 70
     8
 71
     3
 72
     9
 73
     5
 74
     0
 42
0.000000001
 43
0.00000001
 40
0.0
 40
0.0
 40
0.0
 40
0.0
 40
0.7367368671587355
 40
1.0
 40
1.0
 40
1.0
 40
1.0
 10
43.75
 20
5.556249999999998
 30
0.0
 10
43.02458210734814
 20
5.549955838866166
 30
0.0
 10
42.03994576703648
 20
5.541412542861305
 30
0.0
 10
41.05542385830866
 20
5.439780015856046
 30
0.0
 10
40.79623553626611
 20
5.413023918398067
 30
0.0
  0
SPLINE
  5
BD
330
1F
100
AcDbEntity
  8
0
  6
Continuous
 62
     1
370
    15
100
AcDbSpline
210
0.0
220
0.0
230
1.0
 70
     8
 71
     3
 72
    10
 73
     6
 74
     0
 42
0.000000001
 43
0.00000001
 40
0.0
 40
0.0
 40
0.0
 40
0.0
 40
0.5000000000000001
 40
0.5000000000000001
 40
1.0
 40
1.0
 40
1.0
 40
1.0
 10
43.75
 20
5.556250000000002
 30
0.0
 10
42.93340404815338
 20
5.334809564106325
 30
0.0
 10
42.12174692733262
 20
5.08610331405106
 30
0.0
 10
40.50913907929083
 20
4.529584005730246
 30
0.0
 10
39.70925656940429
 20
4.222666859573502
 30
0.0
 10
38.91849131611419
 20
3.876674191206885
 30
0.0
  0
SPLINE
  5
BE
330
1F
100
AcDbEntity
  8
0
  6
Continuous
 62
     1
370
    15
100
AcDbSpline
210
0.0
220
0.0
230
1.0
 70
    24
 71
     3
 72
     8
 73
     4
 74
     0
 42
0.000000001
 43
0.00000001
 40
0.0
 40
0.0
 40
0.0
 40
0.0
 40
1.0
 40
1.0
 40
1.0
 40
1.0
 10
38.91849131611421
 20
3.876674191206895
 30
0.0
 10
38.8630816833712
 20
3.830179988808565
 30
0.0
 10
38.80690809952009
 20
3.78304475531718
 30
0.0
 10
38.75000000000001
 20
3.735293189998884
 30
0.0
  0
SPLINE
  5
BF
330
1F
100
AcDbEntity
  8
0
  6
Continuous
 62
     1
370
    15
100
AcDbSpline
210
0.0
220
0.0
230
1.0
 70
    24
 71
     3
 72
     8
 73
     4
 74
     0
 42
0.000000001
 43
0.00000001
 40
0.0
 40
0.0
 40
0.0
 40
0.0
 40
1.0
 40
1.0
 40
1.0
 40
1.0
 10
38.75000000000002
 20
2.326095150670326
 30
0.0
 10
38.75000000000002
 20
2.844328698008597
 30
0.0
 10
38.75000000000001
 20
3.323694336874995
 30
0.0
 10
38.75000000000001
 20
3.735293189998729
 30
0.0
  0
SPLINE
  5
C0
330
1F
100
AcDbEntity
  8
0
  6
Continuous
 62
     1
370
    15
100
AcDbSpline
210
0.0
220
0.0
230
1.0
 70
     8
 71
     3
 72
    15
 73
    11
 74
     0
 42
0.000000001
 43
0.00000001
 40
0.0
 40
0.0
 40
0.0
 40
0.0
 40
0.039384870662828
 40
0.1849197577679549
 40
0.3305413763420458
 40
0.4762302775869082
 40
0.6218078852918781
 40
0.7477613818341238
 40
0.8738281216777883
 40
1.0
 40
1.0
 40
1.0
 40
1.0
 10
26.93912164758164
 20
-5.954715062307507
 30
0.0
 10
26.74300768417602
 20
-5.98992103476107
 30
0.0
 10
25.82221383624527
 20
-6.155220038884567
 30
0.0
 10
24.1763039191653
 20
-6.300623245538467
 30
0.0
 10
22.00085606900211
 20
-6.378083841827019
 30
0.0
 10
19.82498711205573
 20
-6.284690792761852
 30
0.0
 10
17.74730013820332
 20
-6.049028365477338
 30
0.0
 10
15.76781990283705
 20
-5.693585011582824
 30
0.0
 10
13.88456081539007
 20
-5.255565503927664
 30
0.0
 10
12.6283614754267
 20
-4.88224120211406
 30
0.0
 10
12.0
 20
-4.695501246409996
 30
0.0
  0
SPLINE
  5
C1
330
1F
100
AcDbEntity
  8
외형선
  6
Continuous
370
    15
100
AcDbSpline
210
0.0
220
0.0
230
1.0
 70
    24
 71
     3
 72
    14
 73
    10
 74
     0
 42
0.000000001
 43
0.00000001
 40
0.0
 40
0.0
 40
0.0
 40
0.0
 40
0.25
 40
0.25
 40
0.5
 40
0.5
 40
0.75
 40
0.75
 40
1.0
 40
1.0
 40
1.0
 40
1.0
 10
12.0
 20
3.740537298894925
 30
0.0
 10
12.0
 20
3.13174411726468
 30
0.0
 10
12.0
 20
2.460276939686685
 30
0.0
 10
12.0
 20
1.040938278989609
 30
0.0
 10
12.0
 20
0.2936082189774465
 30
0.0
 10
12.0
 20
-1.205719050879227
 30
0.0
 10
12.0
 20
-1.956917356470151
 30
0.0
 10
12.0
 20
-3.390995282677456
 30
0.0
 10
12.0
 20
-4.073312778093213
 30
0.0
 10
12.0
 20
-4.695501246409997
 30
0.0
  0
SPLINE
  5
C2
330
1F
100
AcDbEntity
  8
외형선
  6
Continuous
370
    15
100
AcDbSpline
210
0.0
220
0.0
230
1.0
 70
    24
 71
     3
 72
    13
 73
     9
 74
     0
 42
0.000000001
 43
0.00000001
 40
0.0
 40
0.0
 40
0.0
 40
0.0
 40
0.1813072024483948
 40
0.3649751379011066
 40
0.6318629227034194
 40
0.7693019570626801
 40
0.9067409914219409
 40
1.0
 40
1.0
 40
1.0
 40
1.0
 10
12.0
 20
-4.695501246409997
 30
0.0
 10
12.0
 20
-4.878420579316479
 30
0.0
 10
12.0
 20
-5.246640969079114
 30
0.0
 10
12.0
 20
-5.741873244912767
 30
0.0
 10
12.0
 20
-6.075254563781511
 30
0.0
 10
12.0
 20
-6.251264348668615
 30
0.0
 10
12.0
 20
-6.333833696768397
 30
0.0
 10
12.0
 20
-6.317590476563454
 30
0.0
 10
12.0
 20
-6.311024202341355
 30
0.0
  0
LINE
  5
C3
330
1F
100
AcDbEntity
  8
0
  6
Continuous
 62
     1
370
    15
100
AcDbLine
 10
43.75
 20
0.0000000000000024
 30
0.0
 11
43.75
 21
5.556249999999998
 31
0.0
  0
SPLINE
  5
C4
330
1F
100
AcDbEntity
  8
0
  6
Continuous
 62
     1
370
    15
100
AcDbSpline
210
0.0
220
0.0
230
1.0
 70
    24
 71
     3
 72
    10
 73
     6
 74
     0
 42
0.000000001
 43
0.00000001
 40
0.0
 40
0.0
 40
0.0
 40
0.0
 40
0.5
 40
0.5
 40
1.0
 40
1.0
 40
1.0
 40
1.0
 10
43.75
 20
5.556249999999997
 30
0.0
 10
43.75000000000001
 20
5.89305603840805
 30
0.0
 10
43.75
 20
6.28445584663274
 30
0.0
 10
43.75000000000001
 20
7.105611590126786
 30
0.0
 10
43.75
 20
7.533270396674181
 30
0.0
 10
43.74999999999898
 20
7.937500000000005
 30
0.0
  0
SPLINE
  5
C5
330
1F
100
AcDbEntity
  8
0
  6
Continuous
 62
     1
370
    15
100
AcDbSpline
210
0.0
220
0.0
230
1.0
 70
     8
 71
     3
 72
    15
 73
    11
 74
     0
 42
0.000000001
 43
0.00000001
 40
0.0
 40
0.0
 40
0.0
 40
0.0
 40
0.1230965223521208
 40
0.2287168181559116
 40
0.3236852177120854
 40
0.514263926527292
 40
0.6099103167387873
 40
0.7070801257145637
 40
0.902105562634381
 40
1.0
 40
1.0
 40
1.0
 40
1.0
 10
32.86024831531044
 20
5.319775568758801
 30
0.0
 10
33.30707928281007
 20
5.513793406478118
 30
0.0
 10
34.13730385119961
 20
5.874284033351522
 30
0.0
 10
35.31266858008497
 20
6.300475750443877
 30
0.0
 10
36.73144798457666
 20
6.77634543983313
 30
0.0
 10
38.11610400772533
 20
7.159965102189784
 30
0.0
 10
39.50736577493625
 20
7.464589406479627
 30
0.0
 10
40.91562769243711
 20
7.712742686091214
 30
0.0
 10
42.33169748284674
 20
7.877984907707013
 30
0.0
 10
43.39473172350141
 20
7.917563947602689
 30
0.0
 10
43.74999999999898
 20
7.937500000000005
 30
0.0
  0
LINE
  5
C6
330
1F
100
AcDbEntity
  8
0
  6
Continuous
 62
     1
370
    15
100
AcDbLine
 10
14.11577878617511
 20
-6.237485785023337
 30
0.0
 11
11.99999999999752
 21
-6.922302197903334
 31
0.0
  0
SPLINE
  5
C7
330
1F
100
AcDbEntity
  8
외형선
  6
Continuous
370
    15
100
AcDbSpline
210
0.0
220
0.0
230
1.0
 70
    24
 71
     3
 72
    11
 73
     7
 74
     0
 42
0.000000001
 43
0.00000001
 40
0.0
 40
0.0
 40
0.0
 40
0.0
 40
0.1360473262816544
 40
0.4566943720038633
 40
0.7777151030939092
 40
1.0
 40
1.0
 40
1.0
 40
1.0
 10
12.0
 20
-6.373615426704988
 30
0.0
 10
12.0
 20
-6.400181555525512
 30
0.0
 10
12.0
 20
-6.489360827546967
 30
0.0
 10
12.0
 20
-6.634012552270704
 30
0.0
 10
12.0
 20
-6.790176285003256
 30
0.0
 10
12.0
 20
-6.883940183252581
 30
0.0
 10
12.0
 20
-6.922302197893837
 30
0.0
  0
LINE
  5
C8
330
1F
100
AcDbEntity
  8
중심선
 48
0.8
100
AcDbLine
 10
-48.15
 20
-0.0000000000000059
 30
0.0
 11
46.75000000000001
 21
0.0000000000000057
 31
0.0
  0
LINE
  5
C9
330
1F
100
AcDbEntity
  8
참조1
100
AcDbLine
 10
-6.73768467149223
 20
0.0010749287238892
 30
0.0
 11
-6.737684671492225
 21
-39.99892507127611
 31
0.0
  0
LINE
  5
CA
330
1F
100
AcDbEntity
  8
참조1
100
AcDbLine
 10
-6.737684671492225
 20
-39.99892507127611
 30
0.0
 11
-15.54395731641845
 21
-39.9989250712761
 31
0.0
  0
CIRCLE
  5
CB
330
1F
100
AcDbEntity
  8
해칭선
100
AcDbCircle
 10
0.0
 20
0.0
 30
0.0
 40
3.000000000000001
  0
INSERT
  5
CC
330
1F
100
AcDbEntity
  8
0
  6
Continuous
 62
     7
100
AcDbBlockReference
 66
     1
  2
블럭10
 10
-14.6402729321252
 20
-52.04717430164393
 30
0.0
  0
ATTRIB
  5
CD
330
CC
100
AcDbEntity
  8
FORMAT
 62
     2
100
AcDbText
 10
-24.78190894426183
 20
-49.97180738881175
 30
0.0
 40
4.233333333333333
  1
EM154040 [ 2 FLUTE ]
 41
0.75
  7
SLDTEXTSTYLE0
 11
-24.78190894426183
 21
-52.08847405547841
 31
0.0
100
AcDbAttribute
  2
AUTOATTR0
 70
     0
 74
     1
  0
SEQEND
  5
CE
330
CC
100
AcDbEntity
  8
0
  6
Continuous
 62
     7
  0
HATCH
  5
CF
330
1F
100
AcDbEntity
  8
중심선
100
AcDbHatch
 10
0.0
 20
0.0
 30
0.0
210
0.0
220
0.0
230
1.0
  2
SOLID
 70
     1
 71
     0
 91
        1
 92
        0
 93
        4
 72
     1
 10
-8.92536362774435
 20
-35.8
 11
-12.37163887158163
 21
-35.8
 72
     1
 10
-12.37163887158163
 20
-35.8
 11
-14.49986873078565
 21
-38.33632558057257
 72
     1
 10
-14.49986873078565
 20
-38.33632558057257
 11
-11.05356040183522
 21
-38.33628615127008
 72
     1
 10
-11.05356040183522
 20
-38.33628615127008
 11
-8.92536362774435
 21
-35.8
 97
        0
 75
     0
 76
     1
 98
        1
 10
6.037684671492236
 20
-0.0010749287238948
  0
HATCH
  5
D0
330
1F
100
AcDbEntity
  8
중심선
100
AcDbHatch
 10
0.0
 20
0.0
 30
0.0
210
0.0
220
0.0
230
1.0
  2
SOLID
 70
     1
 71
     0
 91
        1
 92
        0
 93
        4
 72
     1
 10
-3.912599636708372
 20
-35.80000000000003
 11
-7.358874880545653
 21
-35.79999999999998
 72
     1
 10
-7.358874880545653
 20
-35.79999999999998
 11
-11.89001288890307
 21
-41.20000000000002
 72
     1
 10
-11.89001288890307
 20
-41.20000000000002
 11
-8.443737645065788
 21
-41.20000000000002
 72
     1
 10
-8.443737645065788
 20
-41.20000000000002
 11
-3.912599636708372
 21
-35.80000000000003
 97
        0
 75
     0
 76
     1
 98
        1
 10
6.037684671492236
 20
-0.0010749287238948
  0
HATCH
  5
D1
330
1F
100
AcDbEntity
  8
중심선
100
AcDbHatch
 10
0.0
 20
0.0
 30
0.0
210
0.0
220
0.0
230
1.0
  2
SOLID
 70
     1
 71
     0
 91
        1
 92
        0
 93
        4
 72
     1
 10
1.100164354327496
 20
-35.8
 11
-2.346110889509592
 21
-35.8
 72
     1
 10
-2.346110889509592
 20
-35.8
 11
-9.394547791398868
 21
-44.20000000000002
 72
     1
 10
-9.394547791398868
 20
-44.20000000000002
 11
-5.948272547561587
 21
-44.20000000000002
 72
     1
 10
-5.948272547561587
 20
-44.20000000000002
 11
1.100164354327496
 21
-35.8
 97
        0
 75
     0
 76
     1
 98
        1
 10
6.037684671492236
 20
-0.0010749287238948
  0
HATCH
  5
D2
330
1F
100
AcDbEntity
  8
중심선
100
AcDbHatch
 10
0.0
 20
0.0
 30
0.0
210
0.0
220
0.0
230
1.0
  2
SOLID
 70
     1
 71
     0
 91
        1
 92
        0
 93
        6
 72
     3
 10
5.900054785339695
 20
-40.00000000005127
 11
3.960054785062282
 21
1.540882976769353E-10
 40
0.3939339440162629
 50
17.09539180608438
 51
320.0019657685075
 73
     0
 72
     1
 10
7.583054441040291
 20
-38.58789400463827
 11
9.888356314741356
 21
-36.65356729459035
 72
     3
 10
5.900054785286849
 20
-40.00000000000015
 11
6.600054785286829
 21
-1.278976924368180E-13
 40
0.6363583540795981
 50
39.99873849337412
 51
368.4976242363725
 73
     1
 72
     1
 10
12.32538727718746
 20
-39.03999999993002
 11
4.580122092122771
 21
-39.03999999993002
 72
     1
 10
4.580122092122771
 20
-39.03999999993002
 11
4.580097047676837
 21
-40.95999999992991
 72
     1
 10
4.580097047676837
 20
-40.95999999992991
 11
9.021476817148873
 21
-40.95999999992988
 97
        0
 75
     0
 76
     1
 98
        1
 10
6.037684671492236
 20
-0.0010749287238948
  0
DIMENSION
  5
D3
330
1F
100
AcDbEntity
  8
치수문자_일반주서
100
AcDbDimension
  2
_D
 10
-57.57999999999996
 20
-7.937500000000066
 30
0.0
 11
-57.57999999999999
 21
-0.000000000000018
 31
0.0
 70
   160
  1
%%c<>
 71
     2
 42
15.875
 52
-270.0
  3
SLDDIMSTYLE0
100
AcDbAlignedDimension
 13
-44.15000000000001
 23
7.937499999999984
 33
0.0
 14
-44.15000000000001
 24
-7.937500000000016
 34
0.0
 50
90.0000000000002
100
AcDbRotatedDimension
1001
ACAD
1000
DSTYLE
1002
{
1070
   171
1070
     6
1070
   273
1070
     7
1002
}
  0
DIMENSION
  5
E8
330
1F
100
AcDbEntity
  8
치수문자_일반주서
100
AcDbDimension
  2
_D_1
 10
57.06437948519928
 20
-7.93749999999995
 30
0.0
 11
57.06437948519908
 21
45.69994510801081
 31
0.0
 70
   160
  1
%%c<>
 71
     2
 42
15.875
 52
-270.0
  3
SLDDIMSTYLE0
100
AcDbAlignedDimension
 13
43.74999999999898
 23
7.937500000000005
 33
0.0
 14
43.75000000000001
 24
-7.937499999999997
 34
0.0
 50
90.0000000000002
100
AcDbRotatedDimension
1001
ACAD
1000
DSTYLE
1002
{
1070
   171
1070
     6
1070
   273
1070
     7
1002
}
  0
DIMENSION
  5
FC
330
1F
100
AcDbEntity
  8
치수문자_일반주서
100
AcDbDimension
  2
_D_2
 10
12.0
 20
20.9319625944289
 30
0.0
 11
-9.0415
 21
20.9319625944289
 31
0.0
 70
   160
  1
<>
 71
     2
 42
31.74999999999898
  3
SLDDIMSTYLE0
100
AcDbAlignedDimension
 13
43.74999999999898
 23
7.937500000000005
 33
0.0
 14
12.0
 24
6.92230219790263
 34
0.0
 50
-0.0000000000000192
100
AcDbRotatedDimension
1001
ACAD
1000
DSTYLE
1002
{
1070
   171
1070
     6
1070
   273
1070
     7
1002
}
  0
DIMENSION
  5
111
330
1F
100
AcDbEntity
  8
치수문자_일반주서
100
AcDbDimension
  2
_D_3
 10
-45.15000000000001
 20
43.41217844013391
 30
0.0
 11
-0.700000000000002
 21
43.41217844013391
 31
0.0
 70
   160
  1
<>
 71
     2
 42
88.89999999999898
  3
SLDDIMSTYLE0
100
AcDbAlignedDimension
 13
43.74999999999898
 23
7.937500000000005
 33
0.0
 14
-45.15000000000001
 24
6.937499999999991
 34
0.0
100
AcDbRotatedDimension
1001
ACAD
1000
DSTYLE
1002
{
1070
   171
1070
     6
1070
   273
1070
     7
1002
}
  0
LINE
  5
125
330
1F
100
AcDbEntity
  8
참조1
100
AcDbLine
 10
82.42838331323583
 20
7.441074928723896
 30
0.0
 11
82.42838331323583
 21
-7.438925071276109
 31
0.0
  0
LINE
  5
126
330
1F
100
AcDbEntity
  8
참조1
100
AcDbLine
 10
95.12838331323583
 20
5.441074928723896
 30
0.0
 11
82.42838331323583
 21
5.441074928723896
 31
0.0
  0
SOLID
  5
127
330
1F
100
AcDbEntity
  8
참조1
100
AcDbTrace
 10
82.42838331323583
 20
5.441074928723896
 30
0.0
 11
88.77838331323582
 21
4.425074928723896
 31
0.0
 12
88.77838331323582
 22
6.457074928723896
 32
0.0
 13
88.77838331323582
 23
6.457074928723896
 33
0.0
  0
LINE
  5
128
330
1F
100
AcDbEntity
  8
참조1
100
AcDbLine
 10
95.12838331323583
 20
-5.438925071276109
 30
0.0
 11
82.42838331323583
 21
-5.438925071276109
 31
0.0
  0
SOLID
  5
129
330
1F
100
AcDbEntity
  8
참조1
100
AcDbTrace
 10
82.42838331323583
 20
-5.438925071276109
 30
0.0
 11
88.77838331323582
 21
-6.454925071276109
 31
0.0
 12
88.77838331323582
 22
-4.422925071276109
 32
0.0
 13
88.77838331323582
 23
-4.422925071276109
 33
0.0
  0
MTEXT
  5
12A
330
1F
100
AcDbEntity
  8
참조1
100
AcDbMText
 10
91.82587340570609
 20
10.98929157337383
 30
0.0
 40
3.5
 41
0.0
 71
     1
 72
     1
  1
A
  7
SLDTEXTSTYLE0
 73
     1
 44
1.0
  0
MTEXT
  5
12B
330
1F
100
AcDbEntity
  8
참조1
100
AcDbMText
 10
91.82587340570609
 20
0.1092915733738259
 30
0.0
 40
3.5
 41
0.0
 71
     1
 72
     1
  1
A
  7
SLDTEXTSTYLE0
 73
     1
 44
1.0
  0
INSERT
  5
132
330
1F
100
AcDbEntity
  8
해칭선
100
AcDbBlockReference
  2
SW_DOWELSYMBOL_0
 10
0.0
 20
0.0
 30
0.0
  0
ENDSEC
  0
SECTION
  2
OBJECTS
  0
DICTIONARY
  5
C
330
0
100
AcDbDictionary
281
     1
  3
ACAD_GROUP
350
D
  3
ACAD_IMAGE_VARS
350
156
  3
ACAD_LAYOUT
350
1A
  3
ACAD_MLINESTYLE
350
17
  3
ACAD_PLOTSETTINGS
350
19
  3
ACAD_PLOTSTYLENAME
350
E
  3
ACAD_SCALELIST
350
47
  3
APPDATA
350
154
  3
DWGPROPS
350
18B
  0
DICTIONARY
  5
17D
330
2
100
AcDbDictionary
280
     1
281
     1
  3
ACAD_LAYERSTATES
360
17E
  0
DICTIONARY
  5
D
102
{ACAD_REACTORS
330
C
102
}
330
C
100
AcDbDictionary
281
     1
  0
RASTERVARIABLES
  5
156
102
{ACAD_REACTORS
330
C
102
}
330
C
100
AcDbRasterVariables
 90
        0
 70
     1
 71
     1
 72
     1
  0
DICTIONARY
  5
1A
102
{ACAD_REACTORS
330
C
102
}
330
C
100
AcDbDictionary
281
     1
  3
Layout1
350
1E
  3
Layout2
350
26
  3
Model
350
22
  0
DICTIONARY
  5
17
102
{ACAD_REACTORS
330
C
102
}
330
C
100
AcDbDictionary
281
     1
  3
Standard
350
18
  0
DICTIONARY
  5
19
102
{ACAD_REACTORS
330
C
102
}
330
C
100
AcDbDictionary
281
     1
  0
ACDBDICTIONARYWDFLT
  5
E
102
{ACAD_REACTORS
330
C
102
}
330
C
100
AcDbDictionary
281
     1
  3
Normal
350
F
100
AcDbDictionaryWithDefault
340
F
  0
DICTIONARY
  5
47
102
{ACAD_REACTORS
330
C
102
}
330
C
100
AcDbDictionary
281
     1
  3
A0
350
48
  3
A1
350
49
  3
A2
350
4A
  3
A3
350
4B
  3
A4
350
4C
  3
A5
350
4D
  3
A6
350
4E
  3
A7
350
4F
  3
A8
350
50
  3
A9
350
51
  3
B0
350
52
  3
B1
350
53
  3
B2
350
54
  3
B3
350
55
  3
B4
350
56
  3
B5
350
57
  3
B6
350
58
  3
B7
350
59
  3
B8
350
5A
  3
B9
350
5B
  3
C0
350
5C
  3
C1
350
5D
  3
C2
350
5E
  3
C3
350
5F
  3
C4
350
60
  3
C5
350
61
  3
C6
350
62
  3
C7
350
63
  3
C8
350
64
  3
C9
350
65
  3
D0
350
66
  3
D1
350
67
  3
D2
350
68
  0
DICTIONARY
  5
154
102
{ACAD_REACTORS
330
C
102
}
330
C
100
AcDbDictionary
281
     1
  0
XRECORD
  5
18B
102
{ACAD_REACTORS
330
C
102
}
330
C
100
AcDbXrecord
280
     1
  1
DWGPROPS COOKIE
  2

  3

  4

  6

  7

  8
12017012
  9

300
=
301
=
302
=
303
=
304
=
305
=
306
=
307
=
308
=
309
=
 40
0.0
 41
2458288.371076238
 42
2458294.331296354
  1

 90
        0
  0
DICTIONARY
  5
17E
102
{ACAD_REACTORS
330
17D
102
}
330
17D
100
AcDbDictionary
281
     1
  0
LAYOUT
  5
1E
102
{ACAD_REACTORS
330
1A
102
}
330
1A
100
AcDbPlotSettings
  1

  2
none_device
  4

  6

 40
0.0
 41
0.0
 42
0.0
 43
0.0
 44
0.0
 45
0.0
 46
0.0
 47
0.0
 48
0.0
 49
0.0
140
0.0
141
0.0
142
1.0
143
1.0
 70
   688
 72
     1
 73
     0
 74
     5
  7

 75
    16
147
1.0
148
0.0
149
0.0
100
AcDbLayout
  1
Layout1
 70
     1
 71
     1
 10
0.0
 20
0.0
 11
420.0
 21
297.0
 12
0.0
 22
0.0
 32
0.0
 14
1.000000000000000E+20
 24
1.000000000000000E+20
 34
1.000000000000000E+20
 15
-1.000000000000000E+20
 25
-1.000000000000000E+20
 35
-1.000000000000000E+20
146
0.0
 13
0.0
 23
0.0
 33
0.0
 16
1.0
 26
0.0
 36
0.0
 17
0.0
 27
1.0
 37
0.0
 76
     0
330
1B
  0
LAYOUT
  5
26
102
{ACAD_REACTORS
330
1A
102
}
330
1A
100
AcDbPlotSettings
  1

  2
none_device
  4

  6

 40
0.0
 41
0.0
 42
0.0
 43
0.0
 44
0.0
 45
0.0
 46
0.0
 47
0.0
 48
0.0
 49
0.0
140
0.0
141
0.0
142
1.0
143
1.0
 70
   688
 72
     1
 73
     0
 74
     5
  7

 75
    16
147
1.0
148
0.0
149
0.0
100
AcDbLayout
  1
Layout2
 70
     1
 71
     2
 10
0.0
 20
0.0
 11
0.0
 21
0.0
 12
0.0
 22
0.0
 32
0.0
 14
0.0
 24
0.0
 34
0.0
 15
0.0
 25
0.0
 35
0.0
146
0.0
 13
0.0
 23
0.0
 33
0.0
 16
1.0
 26
0.0
 36
0.0
 17
0.0
 27
1.0
 37
0.0
 76
     0
330
23
  0
LAYOUT
  5
22
102
{ACAD_REACTORS
330
1A
102
}
330
1A
100
AcDbPlotSettings
  1

  2
none_device
  4
ANSI_A_(11.00_x_8.50_Inches)
  6

 40
6.35
 41
19.05
 42
6.35000508
 43
19.05000254
 44
279.4
 45
215.9
 46
101.9460094408529
 47
86.39208102605838
 48
0.0
 49
0.0
140
0.0
141
0.0
142
0.0565594743226714
143
1.0
 70
  1696
 72
     0
 73
     0
 74
     0
  7

 75
     0
147
0.0235690232323232
148
0.0
149
0.0
100
AcDbLayout
  1
Model
 70
     1
 71
     0
 10
0.0
 20
0.0
 11
420.0
 21
297.0
 12
0.0
 22
0.0
 32
0.0
 14
1.000000000000000E+20
 24
1.000000000000000E+20
 34
1.000000000000000E+20
 15
-1.000000000000000E+20
 25
-1.000000000000000E+20
 35
-1.000000000000000E+20
146
0.0
 13
0.0
 23
0.0
 33
0.0
 16
1.0
 26
0.0
 36
0.0
 17
0.0
 27
1.0
 37
0.0
 76
     0
330
1F
331
29
  0
MLINESTYLE
  5
18
102
{ACAD_REACTORS
330
17
102
}
330
17
100
AcDbMlineStyle
  2
Standard
 70
     0
  3

 62
   256
 51
90.0
 52
90.0
 71
     2
 49
0.5
 62
   256
  6
BYLAYER
 49
-0.5
 62
   256
  6
BYLAYER
  0
ACDBPLACEHOLDER
  5
F
102
{ACAD_REACTORS
330
E
102
}
330
E
  0
SCALE
  5
48
102
{ACAD_REACTORS
330
47
102
}
330
47
100
AcDbScale
 70
     0
300
1:1
140
1.0
141
1.0
290
     1
  0
SCALE
  5
49
102
{ACAD_REACTORS
330
47
102
}
330
47
100
AcDbScale
 70
     0
300
1:2
140
1.0
141
2.0
290
     0
  0
SCALE
  5
4A
102
{ACAD_REACTORS
330
47
102
}
330
47
100
AcDbScale
 70
     0
300
1:4
140
1.0
141
4.0
290
     0
  0
SCALE
  5
4B
102
{ACAD_REACTORS
330
47
102
}
330
47
100
AcDbScale
 70
     0
300
1:5
140
1.0
141
5.0
290
     0
  0
SCALE
  5
4C
102
{ACAD_REACTORS
330
47
102
}
330
47
100
AcDbScale
 70
     0
300
1:8
140
1.0
141
8.0
290
     0
  0
SCALE
  5
4D
102
{ACAD_REACTORS
330
47
102
}
330
47
100
AcDbScale
 70
     0
300
1:10
140
1.0
141
10.0
290
     0
  0
SCALE
  5
4E
102
{ACAD_REACTORS
330
47
102
}
330
47
100
AcDbScale
 70
     0
300
1:16
140
1.0
141
16.0
290
     0
  0
SCALE
  5
4F
102
{ACAD_REACTORS
330
47
102
}
330
47
100
AcDbScale
 70
     0
300
1:20
140
1.0
141
20.0
290
     0
  0
SCALE
  5
50
102
{ACAD_REACTORS
330
47
102
}
330
47
100
AcDbScale
 70
     0
300
1:30
140
1.0
141
30.0
290
     0
  0
SCALE
  5
51
102
{ACAD_REACTORS
330
47
102
}
330
47
100
AcDbScale
 70
     0
300
1:40
140
1.0
141
40.0
290
     0
  0
SCALE
  5
52
102
{ACAD_REACTORS
330
47
102
}
330
47
100
AcDbScale
 70
     0
300
1:50
140
1.0
141
50.0
290
     0
  0
SCALE
  5
53
102
{ACAD_REACTORS
330
47
102
}
330
47
100
AcDbScale
 70
     0
300
1:100
140
1.0
141
100.0
290
     0
  0
SCALE
  5
54
102
{ACAD_REACTORS
330
47
102
}
330
47
100
AcDbScale
 70
     0
300
2:1
140
2.0
141
1.0
290
     0
  0
SCALE
  5
55
102
{ACAD_REACTORS
330
47
102
}
330
47
100
AcDbScale
 70
     0
300
4:1
140
4.0
141
1.0
290
     0
  0
SCALE
  5
56
102
{ACAD_REACTORS
330
47
102
}
330
47
100
AcDbScale
 70
     0
300
8:1
140
8.0
141
1.0
290
     0
  0
SCALE
  5
57
102
{ACAD_REACTORS
330
47
102
}
330
47
100
AcDbScale
 70
     0
300
10:1
140
10.0
141
1.0
290
     0
  0
SCALE
  5
58
102
{ACAD_REACTORS
330
47
102
}
330
47
100
AcDbScale
 70
     0
300
100:1
140
100.0
141
1.0
290
     0
  0
SCALE
  5
59
102
{ACAD_REACTORS
330
47
102
}
330
47
100
AcDbScale
 70
     0
300
1/128" = 1'-0"
140
0.0078125
141
12.0
290
     0
  0
SCALE
  5
5A
102
{ACAD_REACTORS
330
47
102
}
330
47
100
AcDbScale
 70
     0
300
1/64" = 1'-0"
140
0.015625
141
12.0
290
     0
  0
SCALE
  5
5B
102
{ACAD_REACTORS
330
47
102
}
330
47
100
AcDbScale
 70
     0
300
1/32" = 1'-0"
140
0.03125
141
12.0
290
     0
  0
SCALE
  5
5C
102
{ACAD_REACTORS
330
47
102
}
330
47
100
AcDbScale
 70
     0
300
1/16" = 1'-0"
140
0.0625
141
12.0
290
     0
  0
SCALE
  5
5D
102
{ACAD_REACTORS
330
47
102
}
330
47
100
AcDbScale
 70
     0
300
3/32" = 1'-0"
140
0.09375
141
12.0
290
     0
  0
SCALE
  5
5E
102
{ACAD_REACTORS
330
47
102
}
330
47
100
AcDbScale
 70
     0
300
1/8" = 1'-0"
140
0.125
141
12.0
290
     0
  0
SCALE
  5
5F
102
{ACAD_REACTORS
330
47
102
}
330
47
100
AcDbScale
 70
     0
300
3/16" = 1'-0"
140
0.1875
141
12.0
290
     0
  0
SCALE
  5
60
102
{ACAD_REACTORS
330
47
102
}
330
47
100
AcDbScale
 70
     0
300
1/4" = 1'-0"
140
0.25
141
12.0
290
     0
  0
SCALE
  5
61
102
{ACAD_REACTORS
330
47
102
}
330
47
100
AcDbScale
 70
     0
300
3/8" = 1'-0"
140
0.375
141
12.0
290
     0
  0
SCALE
  5
62
102
{ACAD_REACTORS
330
47
102
}
330
47
100
AcDbScale
 70
     0
300
1/2" = 1'-0"
140
0.5
141
12.0
290
     0
  0
SCALE
  5
63
102
{ACAD_REACTORS
330
47
102
}
330
47
100
AcDbScale
 70
     0
300
3/4" = 1'-0"
140
0.75
141
12.0
290
     0
  0
SCALE
  5
64
102
{ACAD_REACTORS
330
47
102
}
330
47
100
AcDbScale
 70
     0
300
1" = 1'-0"
140
1.0
141
12.0
290
     0
  0
SCALE
  5
65
102
{ACAD_REACTORS
330
47
102
}
330
47
100
AcDbScale
 70
     0
300
1-1/2" = 1'-0"
140
1.5
141
12.0
290
     0
  0
SCALE
  5
66
102
{ACAD_REACTORS
330
47
102
}
330
47
100
AcDbScale
 70
     0
300
3" = 1'-0"
140
3.0
141
12.0
290
     0
  0
SCALE
  5
67
102
{ACAD_REACTORS
330
47
102
}
330
47
100
AcDbScale
 70
     0
300
6" = 1'-0"
140
6.0
141
12.0
290
     0
  0
SCALE
  5
68
102
{ACAD_REACTORS
330
47
102
}
330
47
100
AcDbScale
 70
     0
300
1'-0" = 1'-0"
140
12.0
141
12.0
290
     0
  0
ENDSEC
  0
EOF
