  0
SECTION
  2
HEADER
  9
$ACADVER
  1
AC1015
  9
$ACADMAINTVER
 70
     6
  9
$DWGCODEPAGE
  3
ANSI_949
  9
$INSBASE
 10
0.0
 20
0.0
 30
0.0
  9
$EXTMIN
 10
1.000000000000000E+20
 20
1.000000000000000E+20
 30
1.000000000000000E+20
  9
$EXTMAX
 10
-1.000000000000000E+20
 20
-1.000000000000000E+20
 30
-1.000000000000000E+20
  9
$LIMMIN
 10
0.0
 20
0.0
  9
$LIMMAX
 10
420.0
 20
297.0
  9
$ORTHOMODE
 70
     1
  9
$REGENMODE
 70
     1
  9
$FILLMODE
 70
     1
  9
$QTEXTMODE
 70
     0
  9
$MIRRTEXT
 70
     1
  9
$LTSCALE
 40
1.0
  9
$ATTMODE
 70
     1
  9
$TEXTSIZE
 40
3.5
  9
$TRACEWID
 40
1.0
  9
$TEXTSTYLE
  7
Standard
  9
$CLAYER
  8
0
  9
$CELTYPE
  6
ByLayer
  9
$CECOLOR
 62
   256
  9
$CELTSCALE
 40
1.0
  9
$DISPSILH
 70
     0
  9
$DIMSCALE
 40
1.0
  9
$DIMASZ
 40
3.302
  9
$DIMEXO
 40
1.0
  9
$DIMDLI
 40
3.75
  9
$DIMRND
 40
0.0
  9
$DIMDLE
 40
0.0
  9
$DIMEXE
 40
1.0
  9
$DIMTP
 40
0.0
  9
$DIMTM
 40
0.0
  9
$DIMTXT
 40
3.5
  9
$DIMCEN
 40
2.5
  9
$DIMTSZ
 40
0.0
  9
$DIMTOL
 70
     0
  9
$DIMLIM
 70
     0
  9
$DIMTIH
 70
     1
  9
$DIMTOH
 70
     1
  9
$DIMSE1
 70
     0
  9
$DIMSE2
 70
     0
  9
$DIMTAD
 70
     1
  9
$DIMZIN
 70
     0
  9
$DIMBLK
  1

  9
$DIMASO
 70
     1
  9
$DIMSHO
 70
     1
  9
$DIMPOST
  1

  9
$DIMAPOST
  1

  9
$DIMALT
 70
     0
  9
$DIMALTD
 70
     3
  9
$DIMALTF
 40
0.0393700787401575
  9
$DIMLFAC
 40
1.0
  9
$DIMTOFL
 70
     1
  9
$DIMTVP
 40
0.0
  9
$DIMTIX
 70
     0
  9
$DIMSOXD
 70
     0
  9
$DIMSAH
 70
     0
  9
$DIMBLK1
  1

  9
$DIMBLK2
  1

  9
$DIMSTYLE
  2
ISO-25
  9
$DIMCLRD
 70
     0
  9
$DIMCLRE
 70
     0
  9
$DIMCLRT
 70
     0
  9
$DIMTFAC
 40
1.0
  9
$DIMGAP
 40
1.524
  9
$DIMJUST
 70
     0
  9
$DIMSD1
 70
     0
  9
$DIMSD2
 70
     0
  9
$DIMTOLJ
 70
     0
  9
$DIMTZIN
 70
     0
  9
$DIMALTZ
 70
     0
  9
$DIMALTTZ
 70
     0
  9
$DIMUPT
 70
     0
  9
$DIMDEC
 70
     2
  9
$DIMTDEC
 70
     2
  9
$DIMALTU
 70
     2
  9
$DIMALTTD
 70
     3
  9
$DIMTXSTY
  7
Standard
  9
$DIMAUNIT
 70
     0
  9
$DIMADEC
 70
     2
  9
$DIMALTRND
 40
0.0
  9
$DIMAZIN
 70
     0
  9
$DIMDSEP
 70
    44
  9
$DIMATFIT
 70
     3
  9
$DIMFRAC
 70
     0
  9
$DIMLDRBLK
  1

  9
$DIMLUNIT
 70
     2
  9
$DIMLWD
 70
    -2
  9
$DIMLWE
 70
    -2
  9
$DIMTMOVE
 70
     0
  9
$LUNITS
 70
     2
  9
$LUPREC
 70
     2
  9
$SKETCHINC
 40
1.0
  9
$FILLETRAD
 40
10.0
  9
$AUNITS
 70
     0
  9
$AUPREC
 70
     2
  9
$MENU
  1
.
  9
$ELEVATION
 40
0.0
  9
$PELEVATION
 40
0.0
  9
$THICKNESS
 40
0.0
  9
$LIMCHECK
 70
     0
  9
$CHAMFERA
 40
0.0
  9
$CHAMFERB
 40
0.0
  9
$CHAMFERC
 40
0.0
  9
$CHAMFERD
 40
0.0
  9
$SKPOLY
 70
     0
  9
$TDCREATE
 40
2458288.746454687
  9
$TDUCREATE
 40
2458288.371454687
  9
$TDUPDATE
 40
2458294.703459907
  9
$TDUUPDATE
 40
2458294.328459907
  9
$TDINDWG
 40
0.0015295486
  9
$TDUSRTIMER
 40
2458294.326930637
  9
$USRTIMER
 70
     1
  9
$ANGBASE
 50
0.0
  9
$ANGDIR
 70
     0
  9
$PDMODE
 70
     0
  9
$PDSIZE
 40
-1.0
  9
$PLINEWID
 40
0.0
  9
$SPLFRAME
 70
     0
  9
$SPLINETYPE
 70
     6
  9
$SPLINESEGS
 70
     8
  9
$HANDSEED
  5
18A
  9
$SURFTAB1
 70
     6
  9
$SURFTAB2
 70
     6
  9
$SURFTYPE
 70
     6
  9
$SURFU
 70
     6
  9
$SURFV
 70
     6
  9
$UCSBASE
  2

  9
$UCSNAME
  2

  9
$UCSORG
 10
0.0
 20
0.0
 30
0.0
  9
$UCSXDIR
 10
1.0
 20
0.0
 30
0.0
  9
$UCSYDIR
 10
0.0
 20
1.0
 30
0.0
  9
$UCSORTHOREF
  2

  9
$UCSORTHOVIEW
 70
     0
  9
$UCSORGTOP
 10
0.0
 20
0.0
 30
0.0
  9
$UCSORGBOTTOM
 10
0.0
 20
0.0
 30
0.0
  9
$UCSORGLEFT
 10
0.0
 20
0.0
 30
0.0
  9
$UCSORGRIGHT
 10
0.0
 20
0.0
 30
0.0
  9
$UCSORGFRONT
 10
0.0
 20
0.0
 30
0.0
  9
$UCSORGBACK
 10
0.0
 20
0.0
 30
0.0
  9
$PUCSBASE
  2

  9
$PUCSNAME
  2

  9
$PUCSORG
 10
0.0
 20
0.0
 30
0.0
  9
$PUCSXDIR
 10
1.0
 20
0.0
 30
0.0
  9
$PUCSYDIR
 10
0.0
 20
1.0
 30
0.0
  9
$PUCSORTHOREF
  2

  9
$PUCSORTHOVIEW
 70
     0
  9
$PUCSORGTOP
 10
0.0
 20
0.0
 30
0.0
  9
$PUCSORGBOTTOM
 10
0.0
 20
0.0
 30
0.0
  9
$PUCSORGLEFT
 10
0.0
 20
0.0
 30
0.0
  9
$PUCSORGRIGHT
 10
0.0
 20
0.0
 30
0.0
  9
$PUCSORGFRONT
 10
0.0
 20
0.0
 30
0.0
  9
$PUCSORGBACK
 10
0.0
 20
0.0
 30
0.0
  9
$USERI1
 70
     0
  9
$USERI2
 70
     0
  9
$USERI3
 70
     0
  9
$USERI4
 70
     0
  9
$USERI5
 70
     0
  9
$USERR1
 40
0.0
  9
$USERR2
 40
0.0
  9
$USERR3
 40
0.0
  9
$USERR4
 40
0.0
  9
$USERR5
 40
0.0
  9
$WORLDVIEW
 70
     1
  9
$SHADEDGE
 70
     3
  9
$SHADEDIF
 70
    70
  9
$TILEMODE
 70
     1
  9
$MAXACTVP
 70
    64
  9
$PINSBASE
 10
0.0
 20
0.0
 30
0.0
  9
$PLIMCHECK
 70
     0
  9
$PEXTMIN
 10
1.000000000000000E+20
 20
1.000000000000000E+20
 30
1.000000000000000E+20
  9
$PEXTMAX
 10
-1.000000000000000E+20
 20
-1.000000000000000E+20
 30
-1.000000000000000E+20
  9
$PLIMMIN
 10
0.0
 20
0.0
  9
$PLIMMAX
 10
0.0
 20
0.0
  9
$UNITMODE
 70
     0
  9
$VISRETAIN
 70
     1
  9
$PLINEGEN
 70
     0
  9
$PSLTSCALE
 70
     1
  9
$TREEDEPTH
 70
  3020
  9
$CMLSTYLE
  2
Standard
  9
$CMLJUST
 70
     0
  9
$CMLSCALE
 40
20.0
  9
$PROXYGRAPHICS
 70
     1
  9
$MEASUREMENT
 70
     1
  9
$CELWEIGHT
370
    -1
  9
$ENDCAPS
280
     0
  9
$JOINSTYLE
280
     0
  9
$LWDISPLAY
290
     1
  9
$INSUNITS
 70
     4
  9
$HYPERLINKBASE
  1

  9
$STYLESHEET
  1

  9
$XEDIT
290
     1
  9
$CEPSNTYPE
380
     0
  9
$PSTYLEMODE
290
     1
  9
$FINGERPRINTGUID
  2
{9ACE5FA2-6725-4CC6-ACC9-F38B34A15EDA}
  9
$VERSIONGUID
  2
{FAEB1C32-E019-11D5-929B-00C0DF256EC4}
  9
$EXTNAMES
290
     1
  9
$PSVPSCALE
 40
0.0
  9
$OLESTARTUP
290
     0
  0
ENDSEC
  0
SECTION
  2
CLASSES
  0
CLASS
  1
ACDBDICTIONARYWDFLT
  2
AcDbDictionaryWithDefault
  3
ObjectDBX Classes
 90
        0
280
     0
281
     0
  0
CLASS
  1
VISUALSTYLE
  2
AcDbVisualStyle
  3
ObjectDBX Classes
 90
     4095
280
     0
281
     0
  0
CLASS
  1
MATERIAL
  2
AcDbMaterial
  3
ObjectDBX Classes
 90
     1153
280
     0
281
     0
  0
CLASS
  1
SCALE
  2
AcDbScale
  3
ObjectDBX Classes
 90
     1153
280
     0
281
     0
  0
CLASS
  1
SUN
  2
AcDbSun
  3
SCENEOE
 90
     1153
280
     0
281
     0
  0
CLASS
  1
ACDBPLACEHOLDER
  2
AcDbPlaceHolder
  3
ObjectDBX Classes
 90
        0
280
     0
281
     0
  0
CLASS
  1
LAYOUT
  2
AcDbLayout
  3
ObjectDBX Classes
 90
        0
280
     0
281
     0
  0
CLASS
  1
TABLESTYLE
  2
AcDbTableStyle
  3
ObjectDBX Classes
 90
     4095
280
     0
281
     0
  0
CLASS
  1
MLEADERSTYLE
  2
AcDbMLeaderStyle
  3
ACDB_MLEADERSTYLE_CLASS
 90
     4095
280
     0
281
     0
  0
CLASS
  1
RASTERVARIABLES
  2
AcDbRasterVariables
  3
ISM
 90
        0
280
     0
281
     0
  0
ENDSEC
  0
SECTION
  2
TABLES
  0
TABLE
  2
VPORT
  5
8
330
0
100
AcDbSymbolTable
 70
     1
  0
VPORT
  5
29
330
8
100
AcDbSymbolTableRecord
100
AcDbViewportTableRecord
  2
*Active
 70
     0
 10
0.0
 20
0.0
 11
1.0
 21
1.0
 12
11.9609163321553
 22
-20.2873925632649
 13
0.0
 23
0.0
 14
10.0
 24
10.0
 15
10.0
 25
10.0
 16
0.0
 26
0.0
 36
1.0
 17
0.0
 27
0.0
 37
0.0
 40
150.6970018988322
 41
1.859099804305284
 42
50.0
 43
0.0
 44
0.0
 50
0.0
 51
0.0
 71
    16
 72
  2000
 73
     1
 74
     3
 75
     0
 76
     0
 77
     0
 78
     0
281
     0
 65
     1
110
0.0
120
0.0
130
0.0
111
1.0
121
0.0
131
0.0
112
0.0
122
1.0
132
0.0
 79
     0
146
0.0
  0
ENDTAB
  0
TABLE
  2
LTYPE
  5
5
330
0
100
AcDbSymbolTable
 70
     6
  0
LTYPE
  5
14
330
5
100
AcDbSymbolTableRecord
100
AcDbLinetypeTableRecord
  2
ByBlock
 70
     0
  3

 72
    65
 73
     0
 40
0.0
  0
LTYPE
  5
15
330
5
100
AcDbSymbolTableRecord
100
AcDbLinetypeTableRecord
  2
ByLayer
 70
     0
  3

 72
    65
 73
     0
 40
0.0
  0
LTYPE
  5
16
330
5
100
AcDbSymbolTableRecord
100
AcDbLinetypeTableRecord
  2
Continuous
 70
     0
  3
Solid line
 72
    65
 73
     0
 40
0.0
  0
LTYPE
  5
6A
330
5
100
AcDbSymbolTableRecord
100
AcDbLinetypeTableRecord
  2
HIDDEN
 70
     0
  3
Hidden __ __ __ __ __ __ __ __ __ __ __ __ __ __
 72
    65
 73
     2
 40
1.905
 49
1.27
 74
     0
 49
-0.635
 74
     0
  0
LTYPE
  5
6B
330
5
100
AcDbSymbolTableRecord
100
AcDbLinetypeTableRecord
  2
PHANTOM
 70
     0
  3
Phantom ______  __  __  ______  __  __  ______
 72
    65
 73
     6
 40
12.7
 49
6.35
 74
     0
 49
-1.27
 74
     0
 49
1.27
 74
     0
 49
-1.27
 74
     0
 49
1.27
 74
     0
 49
-1.27
 74
     0
  0
LTYPE
  5
6C
330
5
100
AcDbSymbolTableRecord
100
AcDbLinetypeTableRecord
  2
CENTER
 70
     0
  3
Center ____ _ ____ _ ____ _ ____ _ ____ _ ____
 72
    65
 73
     4
 40
10.16
 49
6.35
 74
     0
 49
-1.27
 74
     0
 49
1.27
 74
     0
 49
-1.27
 74
     0
  0
LTYPE
  5
6D
330
5
100
AcDbSymbolTableRecord
100
AcDbLinetypeTableRecord
  2
CENTERX2
 70
     0
  3
Center (2x) ________  __  ________  __  _____
 72
    65
 73
     4
 40
20.32
 49
12.7
 74
     0
 49
-2.54
 74
     0
 49
2.54
 74
     0
 49
-2.54
 74
     0
  0
LTYPE
  5
6E
330
5
100
AcDbSymbolTableRecord
100
AcDbLinetypeTableRecord
  2
DOT2
 70
     0
  3
Dot (.5x) ........................................
 72
    65
 73
     2
 40
0.635
 49
0.0
 74
     0
 49
-0.635
 74
     0
  0
ENDTAB
  0
TABLE
  2
LAYER
  5
2
102
{ACAD_XDICTIONARY
360
17B
102
}
330
0
100
AcDbSymbolTable
 70
    18
  0
LAYER
  5
10
330
2
100
AcDbSymbolTableRecord
100
AcDbLayerTableRecord
  2
0
 70
     0
 62
     7
  6
Continuous
370
    -3
390
F
  0
LAYER
  5
6F
330
2
100
AcDbSymbolTableRecord
100
AcDbLayerTableRecord
  2
FORMAT
 70
     0
 62
     2
  6
Continuous
370
    -3
390
F
  0
LAYER
  5
70
330
2
100
AcDbSymbolTableRecord
100
AcDbLayerTableRecord
  2
외형선
 70
     0
 62
     4
  6
Continuous
370
    30
390
F
  0
LAYER
  5
71
330
2
100
AcDbSymbolTableRecord
100
AcDbLayerTableRecord
  2
숨은선
 70
     0
 62
     2
  6
HIDDEN
370
    15
390
F
  0
LAYER
  5
72
330
2
100
AcDbSymbolTableRecord
100
AcDbLayerTableRecord
  2
중심선
 70
     0
 62
     1
  6
CENTERX2
370
    -3
390
F
  0
LAYER
  5
73
330
2
100
AcDbSymbolTableRecord
100
AcDbLayerTableRecord
  2
파단선
 70
     0
 62
     4
  6
Continuous
370
    -3
390
F
  0
LAYER
  5
74
330
2
100
AcDbSymbolTableRecord
100
AcDbLayerTableRecord
  2
해칭선
 70
     0
 62
   100
  6
Continuous
370
    -3
390
F
  0
LAYER
  5
75
330
2
100
AcDbSymbolTableRecord
100
AcDbLayerTableRecord
  2
가는실선
 70
     0
 62
     4
  6
Continuous
370
    -3
390
F
  0
LAYER
  5
76
330
2
100
AcDbSymbolTableRecord
100
AcDbLayerTableRecord
  2
치수_보조선
 70
     0
 62
     4
  6
Continuous
370
    -3
390
F
  0
LAYER
  5
77
330
2
100
AcDbSymbolTableRecord
100
AcDbLayerTableRecord
  2
치수문자_일반주서
 70
     0
 62
     7
  6
Continuous
370
    15
390
F
  0
LAYER
  5
78
330
2
100
AcDbSymbolTableRecord
100
AcDbLayerTableRecord
  2
개별주서
 70
     0
 62
   100
  6
Continuous
370
    30
390
F
  0
LAYER
  5
79
330
2
100
AcDbSymbolTableRecord
100
AcDbLayerTableRecord
  2
중간선
 70
     0
 62
     2
  6
Continuous
370
    15
390
F
  0
LAYER
  5
7A
330
2
100
AcDbSymbolTableRecord
100
AcDbLayerTableRecord
  2
윤곽선
 70
     0
 62
     3
  6
Continuous
370
    40
390
F
  0
LAYER
  5
7B
330
2
100
AcDbSymbolTableRecord
100
AcDbLayerTableRecord
  2
중심마크
 70
     0
 62
   100
  6
Continuous
370
    30
390
F
  0
LAYER
  5
7C
330
2
100
AcDbSymbolTableRecord
100
AcDbLayerTableRecord
  2
가상선
 70
     0
 62
     4
  6
PHANTOM
370
    -3
390
F
  0
LAYER
  5
7D
330
2
100
AcDbSymbolTableRecord
100
AcDbLayerTableRecord
  2
특수지정선
 70
     0
 62
     5
  6
CENTERX2
370
    60
390
F
  0
LAYER
  5
7E
330
2
100
AcDbSymbolTableRecord
100
AcDbLayerTableRecord
  2
참조1
 70
     0
 62
    -4
  6
Continuous
370
    -3
390
F
  0
LAYER
  5
182
330
2
100
AcDbSymbolTableRecord
100
AcDbLayerTableRecord
  2
Defpoints
 70
     0
 62
     7
  6
Continuous
290
     0
370
    -3
390
F
  0
ENDTAB
  0
TABLE
  2
STYLE
  5
3
330
0
100
AcDbSymbolTable
 70
     2
  0
STYLE
  5
11
330
3
100
AcDbSymbolTableRecord
100
AcDbTextStyleTableRecord
  2
Standard
 70
     0
 40
0.0
 41
1.0
 50
0.0
 71
     0
 42
3.5
  3
txt
  4

  0
STYLE
  5
94
330
3
100
AcDbSymbolTableRecord
100
AcDbTextStyleTableRecord
  2
SLDTEXTSTYLE0
 70
     0
 40
0.0
 41
0.75
 50
0.0
 71
     0
 42
3.5
  3
TXT
  4

  0
ENDTAB
  0
TABLE
  2
VIEW
  5
6
330
0
100
AcDbSymbolTable
 70
     0
  0
ENDTAB
  0
TABLE
  2
UCS
  5
7
330
0
100
AcDbSymbolTable
 70
     0
  0
ENDTAB
  0
TABLE
  2
APPID
  5
9
330
0
100
AcDbSymbolTable
 70
     1
  0
APPID
  5
12
330
9
100
AcDbSymbolTableRecord
100
AcDbRegAppTableRecord
  2
ACAD
 70
     0
  0
ENDTAB
  0
TABLE
  2
DIMSTYLE
  5
A
330
0
100
AcDbSymbolTable
 70
     3
100
AcDbDimStyleTable
  0
DIMSTYLE
105
27
330
A
100
AcDbSymbolTableRecord
100
AcDbDimStyleTableRecord
  2
ISO-25
 70
     0
 41
2.5
 42
0.625
 43
3.75
 44
1.25
 73
     0
 74
     0
 77
     1
 78
     8
140
2.5
141
2.5
143
0.03937007874016
147
0.625
171
     3
172
     1
178
     0
271
     2
272
     2
274
     3
278
    44
283
     0
284
     8
340
11
  0
DIMSTYLE
105
D3
102
{ACAD_REACTORS
330
D2
330
E7
330
FB
330
110
102
}
330
A
100
AcDbSymbolTableRecord
100
AcDbDimStyleTableRecord
  2
SLDDIMSTYLE0
 70
     0
 41
3.302
 44
0.0
 45
0.000000001
 73
     0
 74
     0
 77
     1
 78
    12
 79
     3
140
3.5
143
0.0393700787401575
147
0.875
148
0.000000001
170
     1
172
     1
173
     1
178
     0
271
     2
272
     2
276
     2
284
    12
289
     0
340
94
  0
DIMSTYLE
105
FC
330
A
100
AcDbSymbolTableRecord
100
AcDbDimStyleTableRecord
  2
SLDDIMSTYLE1
 70
     0
 41
3.302
 44
0.0
 45
0.000000001
 73
     0
 74
     0
 77
     1
 78
     4
 79
     1
140
3.5
143
0.0393700787401575
147
0.875
148
0.000000001
170
     1
173
     1
178
     0
271
     2
272
     2
276
     2
284
    12
340
94
  0
ENDTAB
  0
TABLE
  2
BLOCK_RECORD
  5
1
330
0
100
AcDbSymbolTable
 70
     8
  0
BLOCK_RECORD
  5
1F
330
1
100
AcDbSymbolTableRecord
100
AcDbBlockTableRecord
  2
*Model_Space
340
22
  0
BLOCK_RECORD
  5
1B
330
1
100
AcDbSymbolTableRecord
100
AcDbBlockTableRecord
  2
*Paper_Space
340
1E
  0
BLOCK_RECORD
  5
23
330
1
100
AcDbSymbolTableRecord
100
AcDbBlockTableRecord
  2
*Paper_Space0
340
26
  0
BLOCK_RECORD
  5
7F
330
1
100
AcDbSymbolTableRecord
100
AcDbBlockTableRecord
  2
블럭10
340
0
102
{BLKREFS
331
CB
102
}
  0
BLOCK_RECORD
  5
D4
330
1
100
AcDbSymbolTableRecord
100
AcDbBlockTableRecord
  2
_D
340
0
  0
BLOCK_RECORD
  5
E8
330
1
100
AcDbSymbolTableRecord
100
AcDbBlockTableRecord
  2
_D_1
340
0
  0
BLOCK_RECORD
  5
FD
330
1
100
AcDbSymbolTableRecord
100
AcDbBlockTableRecord
  2
_D_2
340
0
  0
BLOCK_RECORD
  5
111
330
1
100
AcDbSymbolTableRecord
100
AcDbBlockTableRecord
  2
_D_3
340
0
  0
BLOCK_RECORD
  5
12A
330
1
100
AcDbSymbolTableRecord
100
AcDbBlockTableRecord
  2
SW_DOWELSYMBOL_0
340
0
102
{BLKREFS
331
130
102
}
  0
ENDTAB
  0
ENDSEC
  0
SECTION
  2
BLOCKS
  0
BLOCK
  5
20
330
1F
100
AcDbEntity
  8
0
100
AcDbBlockBegin
  2
*Model_Space
 70
     0
 10
0.0
 20
0.0
 30
0.0
  3
*Model_Space
  1
*Model_Space
  0
ENDBLK
  5
21
330
1F
100
AcDbEntity
  8
0
100
AcDbBlockEnd
  0
BLOCK
  5
1C
330
1B
100
AcDbEntity
 67
     1
  8
0
100
AcDbBlockBegin
  2
*Paper_Space
 70
     0
 10
0.0
 20
0.0
 30
0.0
  3
*Paper_Space
  1
*Paper_Space
  0
ENDBLK
  5
1D
330
1B
100
AcDbEntity
 67
     1
  8
0
100
AcDbBlockEnd
  0
BLOCK
  5
24
330
23
100
AcDbEntity
  8
0
100
AcDbBlockBegin
  2
*Paper_Space0
 70
     0
 10
0.0
 20
0.0
 30
0.0
  3
*Paper_Space0
  1
*Paper_Space0
  0
ENDBLK
  5
25
330
23
100
AcDbEntity
  8
0
100
AcDbBlockEnd
  0
BLOCK
  5
80
330
7F
100
AcDbEntity
  8
0
100
AcDbBlockBegin
  2
블럭10
 70
     2
 10
0.0
 20
0.0
 30
0.0
  3
블럭10
  1
블럭10
  0
ELLIPSE
  5
82
330
7F
100
AcDbEntity
  8
중심선
100
AcDbEllipse
 10
20.54032771741204
 20
12.0471743016438
 30
0.0
 11
6.600054785286829
 21
-1.261213355974178E-13
 31
0.0
210
0.0
220
0.0
230
1.0
 40
0.636358354079598
 41
0.9219305317359503
 42
6.513795318482858
  0
ELLIPSE
  5
83
330
7F
100
AcDbEntity
  8
중심선
100
AcDbEllipse
 10
20.54032771746488
 20
12.04717430159265
 30
0.0
 11
3.960054785062283
 21
1.540847449632565E-10
 31
0.0
210
0.0
220
0.0
230
1.0
 40
0.3939339440162632
 41
1.131841032648279
 42
5.62031148352944
  0
LINE
  5
84
330
7F
100
AcDbEntity
  8
중심선
100
AcDbLine
 10
2.268634060543552
 20
16.24717430164393
 30
0.0
 11
5.714909304380834
 21
16.24717430164393
 31
0.0
  0
LINE
  5
85
330
7F
100
AcDbEntity
  8
중심선
100
AcDbLine
 10
5.245725140726316
 20
7.84717430164391
 30
0.0
 11
8.692000384563599
 21
7.84717430164391
 31
0.0
  0
LINE
  5
86
330
7F
100
AcDbEntity
  8
중심선
100
AcDbLine
 10
15.74043728645272
 20
16.24717430164393
 30
0.0
 11
8.692000384563599
 21
7.84717430164391
 31
0.0
  0
LINE
  5
87
330
7F
100
AcDbEntity
  8
중심선
100
AcDbLine
 10
0.1404042013395286
 20
13.71084872107135
 30
0.0
 11
3.58671253028996
 21
13.71088815037384
 31
0.0
  0
LINE
  5
88
330
7F
100
AcDbEntity
  8
중심선
100
AcDbLine
 10
2.750260043222114
 20
10.84717430164391
 30
0.0
 11
6.196535287059397
 21
10.84717430164391
 31
0.0
  0
LINE
  5
89
330
7F
100
AcDbEntity
  8
중심선
100
AcDbLine
 10
12.29416204261559
 20
16.24717430164393
 30
0.0
 11
5.245725140726316
 21
7.84717430164391
 31
0.0
  0
LINE
  5
8A
330
7F
100
AcDbEntity
  8
중심선
100
AcDbLine
 10
10.72767329541681
 20
16.24717430164393
 30
0.0
 11
6.196535287059397
 21
10.84717430164391
 31
0.0
  0
LINE
  5
8B
330
7F
100
AcDbEntity
  8
중심선
100
AcDbLine
 10
7.28139805157953
 20
16.24717430164393
 30
0.0
 11
2.750260043222114
 21
10.84717430164391
 31
0.0
  0
LINE
  5
8C
330
7F
100
AcDbEntity
  8
중심선
100
AcDbLine
 10
5.714909304380834
 20
16.24717430164393
 30
0.0
 11
3.58671253028996
 21
13.71088815037384
 31
0.0
  0
LINE
  5
8D
330
7F
100
AcDbEntity
  8
중심선
100
AcDbLine
 10
2.268634060543552
 20
16.24717430164393
 30
0.0
 11
0.1404042013395286
 21
13.71084872107135
 31
0.0
  0
LINE
  5
8E
330
7F
100
AcDbEntity
  8
중심선
100
AcDbLine
 10
7.28139805157953
 20
16.24717430164393
 30
0.0
 11
10.72767329541681
 21
16.24717430164393
 31
0.0
  0
LINE
  5
8F
330
7F
100
AcDbEntity
  8
중심선
100
AcDbLine
 10
12.29416204261559
 20
16.24717430164393
 30
0.0
 11
15.74043728645272
 21
16.24717430164393
 31
0.0
  0
LINE
  5
90
330
7F
100
AcDbEntity
  8
중심선
100
AcDbLine
 10
19.22036997980202
 20
11.08717430171403
 30
0.0
 11
23.66174974927406
 21
11.08717430171406
 31
0.0
  0
LINE
  5
91
330
7F
100
AcDbEntity
  8
중심선
100
AcDbLine
 10
19.22039502424796
 20
13.00717430171391
 30
0.0
 11
19.22036997980202
 21
11.08717430171403
 31
0.0
  0
LINE
  5
92
330
7F
100
AcDbEntity
  8
중심선
100
AcDbLine
 10
19.22039502424796
 20
13.00717430171391
 30
0.0
 11
26.96566020931264
 21
13.00717430171391
 31
0.0
  0
LINE
  5
93
330
7F
100
AcDbEntity
  8
중심선
100
AcDbLine
 10
22.22332737316547
 20
13.45928029700563
 30
0.0
 11
24.52862924686651
 21
15.39360700705356
 31
0.0
  0
ATTDEF
  5
95
330
7F
100
AcDbEntity
  8
FORMAT
 62
     2
100
AcDbText
 10
3.448148490846466
 20
2.075366912832191
 30
0.0
 40
4.233333333333333
  1
EM154048
 41
0.75
  7
SLDTEXTSTYLE0
 11
3.448148490846466
 21
-0.0412997538344756
 31
0.0
100
AcDbAttributeDefinition
  3

  2
AUTOATTR0
 70
     0
 74
     1
  0
ENDBLK
  5
81
330
7F
100
AcDbEntity
  8
0
100
AcDbBlockEnd
  0
BLOCK
  5
D5
330
D4
100
AcDbEntity
  8
0
100
AcDbBlockBegin
  2
_D
 70
     0
 10
0.0
 20
0.0
 30
0.0
  3
_D
  1
_D
  0
LINE
  5
D7
330
D4
100
AcDbEntity
  8
치수문자_일반주서
 62
     0
370
    -2
100
AcDbLine
 10
-50.56249999999999
 20
9.525000000000002
 30
0.0
 11
-63.93000000000001
 21
9.524999999999952
 31
0.0
  0
LINE
  5
D8
330
D4
100
AcDbEntity
  8
치수문자_일반주서
 62
     0
370
    -2
100
AcDbLine
 10
-50.56249999999999
 20
-9.52500000000001
 30
0.0
 11
-63.92999999999994
 21
-9.525000000000059
 31
0.0
  0
LINE
  5
D9
330
D4
100
AcDbEntity
  8
치수문자_일반주서
 62
     0
370
    -2
100
AcDbLine
 10
-63.92999999999999
 20
6.222999999999953
 30
0.0
 11
-63.92999999999996
 21
-6.223000000000059
 31
0.0
  0
SOLID
  5
DA
330
D4
100
AcDbEntity
  8
치수문자_일반주서
 62
     0
100
AcDbTrace
 10
-63.37966666666666
 20
6.222999999999955
 30
0.0
 11
-64.48033333333332
 21
6.222999999999951
 31
0.0
 12
-63.93000000000001
 22
9.524999999999952
 32
0.0
 13
-63.93000000000001
 23
9.524999999999952
 33
0.0
  0
SOLID
  5
DB
330
D4
100
AcDbEntity
  8
치수문자_일반주서
 62
     0
100
AcDbTrace
 10
-64.48033333333329
 20
-6.223000000000061
 30
0.0
 11
-63.37966666666662
 21
-6.223000000000058
 31
0.0
 12
-63.92999999999994
 22
-9.525000000000059
 32
0.0
 13
-63.92999999999994
 23
-9.525000000000059
 33
0.0
  0
MTEXT
  5
DC
330
D4
100
AcDbEntity
  8
치수문자_일반주서
 62
     0
100
AcDbMText
 10
-68.30499999999998
 20
-0.0000000000000134
 30
0.0
 40
3.5
 41
0.0
 71
     2
 72
     1
  1
\A1;%%c19.05 [3/4]
  7
SLDTEXTSTYLE0
 11
-3.356894814614645E-15
 21
1.0
 31
0.0
 73
     1
 44
1.0
  0
POINT
  5
DD
330
D4
100
AcDbEntity
  8
Defpoints
 62
     0
100
AcDbPoint
 10
-50.49999999999999
 20
9.525000000000002
 30
0.0
  0
POINT
  5
DE
330
D4
100
AcDbEntity
  8
Defpoints
 62
     0
100
AcDbPoint
 10
-50.49999999999999
 20
-9.52500000000001
 30
0.0
  0
POINT
  5
DF
330
D4
100
AcDbEntity
  8
Defpoints
 62
     0
100
AcDbPoint
 10
-63.92999999999994
 20
-9.525000000000059
 30
0.0
  0
ENDBLK
  5
D6
330
D4
100
AcDbEntity
  8
0
100
AcDbBlockEnd
  0
BLOCK
  5
E9
330
E8
100
AcDbEntity
  8
0
100
AcDbBlockBegin
  2
_D_1
 70
     0
 10
0.0
 20
0.0
 30
0.0
  3
_D_1
  1
_D_1
  0
LINE
  5
EB
330
E8
100
AcDbEntity
  8
치수문자_일반주서
 62
     0
370
    -2
100
AcDbLine
 10
50.16250000000001
 20
9.525000000000007
 30
0.0
 11
61.61431776956783
 21
9.525000000000048
 31
0.0
  0
LINE
  5
EC
330
E8
100
AcDbEntity
  8
치수문자_일반주서
 62
     0
370
    -2
100
AcDbLine
 10
50.16250000000004
 20
-9.524999999999993
 30
0.0
 11
61.6143177695679
 21
-9.524999999999949
 31
0.0
  0
LINE
  5
ED
330
E8
100
AcDbEntity
  8
치수문자_일반주서
 62
     0
370
    -2
100
AcDbLine
 10
61.61431776956783
 20
9.525000000000048
 30
0.0
 11
61.61431776956766
 21
60.07319175370553
 31
0.0
  0
LINE
  5
EE
330
E8
100
AcDbEntity
  8
치수문자_일반주서
 62
     0
370
    -2
100
AcDbLine
 10
61.61431776956783
 20
9.525000000000048
 30
0.0
 11
61.6143177695679
 21
-9.524999999999949
 31
0.0
  0
LINE
  5
EF
330
E8
100
AcDbEntity
  8
치수문자_일반주서
 62
     0
370
    -2
100
AcDbLine
 10
61.61431776956782
 20
12.82700000000005
 30
0.0
 11
61.6143177695678
 21
16.12900000000005
 31
0.0
  0
LINE
  5
F0
330
E8
100
AcDbEntity
  8
치수문자_일반주서
 62
     0
370
    -2
100
AcDbLine
 10
61.61431776956791
 20
-12.82699999999995
 30
0.0
 11
61.61431776956793
 21
-16.12899999999995
 31
0.0
  0
SOLID
  5
F1
330
E8
100
AcDbEntity
  8
치수문자_일반주서
 62
     0
100
AcDbTrace
 10
61.06398443623448
 20
12.82700000000005
 30
0.0
 11
62.16465110290115
 21
12.82700000000005
 31
0.0
 12
61.61431776956783
 22
9.525000000000048
 32
0.0
 13
61.61431776956783
 23
9.525000000000048
 33
0.0
  0
SOLID
  5
F2
330
E8
100
AcDbEntity
  8
치수문자_일반주서
 62
     0
100
AcDbTrace
 10
62.16465110290125
 20
-12.82699999999995
 30
0.0
 11
61.06398443623458
 21
-12.82699999999995
 31
0.0
 12
61.6143177695679
 22
-9.524999999999949
 32
0.0
 13
61.6143177695679
 23
-9.524999999999949
 33
0.0
  0
MTEXT
  5
F3
330
E8
100
AcDbEntity
  8
치수문자_일반주서
 62
     0
100
AcDbMText
 10
57.23931776956771
 20
46.29194175370552
 30
0.0
 40
3.5
 41
0.0
 71
     2
 72
     1
  1
\A1;%%c19.05 [3/4]
  7
SLDTEXTSTYLE0
 11
-3.356894814614647E-15
 21
1.0
 31
0.0
 73
     1
 44
1.0
  0
POINT
  5
F4
330
E8
100
AcDbEntity
  8
Defpoints
 62
     0
100
AcDbPoint
 10
50.10000000000001
 20
9.525000000000007
 30
0.0
  0
POINT
  5
F5
330
E8
100
AcDbEntity
  8
Defpoints
 62
     0
100
AcDbPoint
 10
50.10000000000004
 20
-9.524999999999993
 30
0.0
  0
POINT
  5
F6
330
E8
100
AcDbEntity
  8
Defpoints
 62
     0
100
AcDbPoint
 10
61.6143177695679
 20
-9.52499999999995
 30
0.0
  0
ENDBLK
  5
EA
330
E8
100
AcDbEntity
  8
0
100
AcDbBlockEnd
  0
BLOCK
  5
FE
330
FD
100
AcDbEntity
  8
0
100
AcDbBlockBegin
  2
_D_2
 70
     0
 10
0.0
 20
0.0
 30
0.0
  3
_D_2
  1
_D_2
  0
LINE
  5
100
330
FD
100
AcDbEntity
  8
치수문자_일반주서
 62
     0
370
    -2
100
AcDbLine
 10
50.10000000000001
 20
9.587500000000007
 30
0.0
 11
50.10000000000001
 21
29.699375
 31
0.0
  0
LINE
  5
101
330
FD
100
AcDbEntity
  8
치수문자_일반주서
 62
     0
370
    -2
100
AcDbLine
 10
12.00000000000001
 20
8.36954607639678
 30
0.0
 11
12.00000000000001
 21
29.699375
 31
0.0
  0
LINE
  5
102
330
FD
100
AcDbEntity
  8
치수문자_일반주서
 62
     0
370
    -2
100
AcDbLine
 10
12.00000000000001
 20
29.699375
 30
0.0
 11
-20.85399999999999
 21
29.699375
 31
0.0
  0
LINE
  5
103
330
FD
100
AcDbEntity
  8
치수문자_일반주서
 62
     0
370
    -2
100
AcDbLine
 10
50.10000000000001
 20
29.699375
 30
0.0
 11
12.00000000000001
 21
29.699375
 31
0.0
  0
LINE
  5
104
330
FD
100
AcDbEntity
  8
치수문자_일반주서
 62
     0
370
    -2
100
AcDbLine
 10
53.40200000000001
 20
29.699375
 30
0.0
 11
56.70400000000001
 21
29.699375
 31
0.0
  0
LINE
  5
105
330
FD
100
AcDbEntity
  8
치수문자_일반주서
 62
     0
370
    -2
100
AcDbLine
 10
8.698000000000008
 20
29.699375
 30
0.0
 11
5.396000000000008
 21
29.699375
 31
0.0
  0
SOLID
  5
106
330
FD
100
AcDbEntity
  8
치수문자_일반주서
 62
     0
100
AcDbTrace
 10
53.40200000000001
 20
30.24970833333333
 30
0.0
 11
53.40200000000001
 21
29.14904166666666
 31
0.0
 12
50.10000000000001
 22
29.699375
 32
0.0
 13
50.10000000000001
 23
29.699375
 33
0.0
  0
SOLID
  5
107
330
FD
100
AcDbEntity
  8
치수문자_일반주서
 62
     0
100
AcDbTrace
 10
8.698000000000008
 20
29.14904166666666
 30
0.0
 11
8.698000000000008
 21
30.24970833333333
 31
0.0
 12
12.00000000000001
 22
29.699375
 32
0.0
 13
12.00000000000001
 23
29.699375
 33
0.0
  0
MTEXT
  5
108
330
FD
100
AcDbEntity
  8
치수문자_일반주서
 62
     0
100
AcDbMText
 10
-7.728999999999992
 20
34.074375
 30
0.0
 40
3.5
 41
0.0
 71
     2
 72
     1
  1
\A1;38.1 [1 1/2]
  7
SLDTEXTSTYLE0
 73
     1
 44
1.0
  0
POINT
  5
109
330
FD
100
AcDbEntity
  8
Defpoints
 62
     0
100
AcDbPoint
 10
50.10000000000001
 20
9.525000000000007
 30
0.0
  0
POINT
  5
183
330
FD
100
AcDbEntity
  8
Defpoints
 62
     0
100
AcDbPoint
 10
12.00000000000001
 20
8.30704607639678
 30
0.0
  0
POINT
  5
184
330
FD
100
AcDbEntity
  8
Defpoints
 62
     0
100
AcDbPoint
 10
12.00000000000001
 20
29.699375
 30
0.0
  0
ENDBLK
  5
FF
330
FD
100
AcDbEntity
  8
0
100
AcDbBlockEnd
  0
BLOCK
  5
112
330
111
100
AcDbEntity
  8
0
100
AcDbBlockBegin
  2
_D_3
 70
     0
 10
0.0
 20
0.0
 30
0.0
  3
_D_3
  1
_D_3
  0
LINE
  5
114
330
111
100
AcDbEntity
  8
치수문자_일반주서
 62
     0
370
    -2
100
AcDbLine
 10
50.09999999999999
 20
9.58750000000001
 30
0.0
 11
50.1
 21
44.52342844013393
 31
0.0
  0
LINE
  5
115
330
111
100
AcDbEntity
  8
치수문자_일반주서
 62
     0
370
    -2
100
AcDbLine
 10
-51.49999999999999
 20
8.587499999999988
 30
0.0
 11
-51.49999999999999
 21
44.52342844013393
 31
0.0
  0
LINE
  5
116
330
111
100
AcDbEntity
  8
치수문자_일반주서
 62
     0
370
    -2
100
AcDbLine
 10
46.798
 20
44.52342844013393
 30
0.0
 11
-48.19799999999999
 21
44.52342844013393
 31
0.0
  0
SOLID
  5
117
330
111
100
AcDbEntity
  8
치수문자_일반주서
 62
     0
100
AcDbTrace
 10
46.798
 20
43.97309510680059
 30
0.0
 11
46.798
 21
45.07376177346726
 31
0.0
 12
50.1
 22
44.52342844013393
 32
0.0
 13
50.1
 23
44.52342844013393
 33
0.0
  0
SOLID
  5
118
330
111
100
AcDbEntity
  8
치수문자_일반주서
 62
     0
100
AcDbTrace
 10
-48.19799999999999
 20
45.07376177346726
 30
0.0
 11
-48.19799999999999
 21
43.97309510680059
 31
0.0
 12
-51.49999999999999
 22
44.52342844013393
 32
0.0
 13
-51.49999999999999
 23
44.52342844013393
 33
0.0
  0
MTEXT
  5
119
330
111
100
AcDbEntity
  8
치수문자_일반주서
 62
     0
100
AcDbMText
 10
-0.6999999999999869
 20
48.89842844013393
 30
0.0
 40
3.5
 41
0.0
 71
     2
 72
     1
  1
\A1;101.6 [4]
  7
SLDTEXTSTYLE0
 73
     1
 44
1.0
  0
POINT
  5
11A
330
111
100
AcDbEntity
  8
Defpoints
 62
     0
100
AcDbPoint
 10
50.09999999999999
 20
9.52500000000001
 30
0.0
  0
POINT
  5
11B
330
111
100
AcDbEntity
  8
Defpoints
 62
     0
100
AcDbPoint
 10
-51.49999999999999
 20
8.524999999999988
 30
0.0
  0
POINT
  5
11C
330
111
100
AcDbEntity
  8
Defpoints
 62
     0
100
AcDbPoint
 10
-51.49999999999999
 20
44.52342844013393
 30
0.0
  0
ENDBLK
  5
113
330
111
100
AcDbEntity
  8
0
100
AcDbBlockEnd
  0
BLOCK
  5
12B
330
12A
100
AcDbEntity
  8
0
100
AcDbBlockBegin
  2
SW_DOWELSYMBOL_0
 70
     0
 10
0.0
 20
0.0
 30
0.0
  3
SW_DOWELSYMBOL_0
  1
SW_DOWELSYMBOL_0
  0
CIRCLE
  5
12D
330
12A
100
AcDbEntity
  8
해칭선
 62
     0
100
AcDbCircle
 10
0.0
 20
0.0
 30
0.0
 40
3.000000000000002
  0
HATCH
  5
12E
330
12A
100
AcDbEntity
  8
0
  6
Continuous
 62
     0
370
     0
100
AcDbHatch
 10
0.0
 20
0.0
 30
0.0
210
0.0
220
0.0
230
1.0
  2
SOLID
 70
     1
 71
     0
 91
        1
 92
        0
 93
        3
 72
     2
 10
-0.0000000000000234
 20
0.0
 40
3.000000000000002
 50
0.0
 51
90.0
 73
     1
 72
     1
 10
-0.0000000000000234
 20
3.000000000000002
 11
-0.0000000000000234
 21
0.0
 72
     1
 10
-0.0000000000000234
 20
0.0
 11
2.999999999999979
 21
0.0
 97
        0
 75
     0
 76
     1
 98
        1
 10
0.0
 20
0.0
  0
HATCH
  5
12F
330
12A
100
AcDbEntity
  8
0
  6
Continuous
 62
     0
370
     0
100
AcDbHatch
 10
0.0
 20
0.0
 30
0.0
210
0.0
220
0.0
230
1.0
  2
SOLID
 70
     1
 71
     0
 91
        1
 92
        0
 93
        3
 72
     2
 10
-0.0000000000000234
 20
0.0
 40
3.000000000000002
 50
180.0
 51
270.0000000000008
 73
     1
 72
     1
 10
-0.0000000000000234
 20
-3.000000000000002
 11
-0.0000000000000234
 21
0.0
 72
     1
 10
-0.0000000000000234
 20
0.0
 11
-3.000000000000026
 21
0.0
 97
        0
 75
     0
 76
     1
 98
        1
 10
0.0
 20
0.0
  0
ENDBLK
  5
12C
330
12A
100
AcDbEntity
  8
0
100
AcDbBlockEnd
  0
ENDSEC
  0
SECTION
  2
ENTITIES
  0
LINE
  5
96
330
1F
100
AcDbEntity
  8
외형선
  6
Continuous
370
    15
100
AcDbLine
 10
8.950001710640112
 20
9.524999999999997
 30
0.0
 11
-50.49999999999999
 21
9.524999999999993
 31
0.0
  0
LINE
  5
97
330
1F
100
AcDbEntity
  8
외형선
  6
Continuous
370
    15
100
AcDbLine
 10
-50.49999999999999
 20
-9.525000000000007
 30
0.0
 11
8.950001710640112
 21
-9.525000000000004
 31
0.0
  0
LINE
  5
98
330
1F
100
AcDbEntity
  8
외형선
  6
Continuous
370
    15
100
AcDbLine
 10
-50.49999999999999
 20
9.52499999999999
 30
0.0
 11
-51.49999999999999
 21
8.524999999999988
 31
0.0
  0
LINE
  5
99
330
1F
100
AcDbEntity
  8
외형선
  6
Continuous
370
    15
100
AcDbLine
 10
-51.49999999999999
 20
-8.525000000000002
 30
0.0
 11
-50.49999999999999
 21
-9.525000000000004
 31
0.0
  0
SPLINE
  5
9A
330
1F
100
AcDbEntity
  8
외형선
  6
Continuous
370
    15
100
AcDbSpline
210
0.0
220
0.0
230
1.0
 70
     8
 71
     3
 72
     9
 73
     5
 74
     0
 42
0.000000001
 43
0.00000001
 40
0.0
 40
0.0
 40
0.0
 40
0.0
 40
0.5180574257771678
 40
1.0
 40
1.0
 40
1.0
 40
1.0
 10
8.950002365141419
 20
-7.82869681573617
 30
0.0
 10
9.47915592614972
 20
-7.783599091239625
 30
0.0
 10
10.50057466214117
 20
-7.696547497627408
 30
0.0
 10
11.5123718558652
 20
-7.632260232913707
 30
0.0
 10
12.0
 20
-7.601277463067842
 30
0.0
  0
LINE
  5
9B
330
1F
100
AcDbEntity
  8
0
  6
Continuous
 62
     1
370
    15
100
AcDbLine
 10
20.1332749214243
 20
2.693624511014177
 30
0.0
 11
20.05173773120354
 21
2.738530871183084
 31
0.0
  0
SPLINE
  5
9C
330
1F
100
AcDbEntity
  8
0
  6
Continuous
 62
     1
370
    15
100
AcDbSpline
210
0.0
220
0.0
230
1.0
 70
     8
 71
     3
 72
     9
 73
     5
 74
     0
 42
0.000000001
 43
0.00000001
 40
0.0
 40
0.0
 40
0.0
 40
0.0
 40
0.462295009966259
 40
1.0
 40
1.0
 40
1.0
 40
1.0
 10
25.42359167282007
 20
2.440702372501115
 30
0.0
 10
25.01672066082157
 20
2.634311521472606
 30
0.0
 10
24.13660946942413
 20
3.053111518871717
 30
0.0
 10
23.25468087704183
 20
3.514384936945198
 30
0.0
 10
22.78046347206443
 20
3.762413955613228
 30
0.0
  0
SPLINE
  5
9D
330
1F
100
AcDbEntity
  8
0
  6
Continuous
 62
     1
370
    15
100
AcDbSpline
210
0.0
220
0.0
230
1.0
 70
     8
 71
     3
 72
    20
 73
    16
 74
     0
 42
0.000000001
 43
0.00000001
 40
0.0
 40
0.0
 40
0.0
 40
0.0
 40
0.1283129793126419
 40
0.233235647776869
 40
0.3202251889834323
 40
0.3932680948256806
 40
0.4684184037578535
 40
0.5569841502355699
 40
0.629810727448637
 40
0.6907826006904864
 40
0.7571014883419845
 40
0.8350123708417997
 40
0.9258313415298564
 40
0.9758446362539827
 40
1.0
 40
1.0
 40
1.0
 40
1.0
 10
22.2750800322012
 20
7.568937742372812
 30
0.0
 10
21.95481279155067
 20
7.552467367323407
 30
0.0
 10
21.37266016961807
 20
7.52252901958685
 30
0.0
 10
20.53450817465307
 20
7.491208564870004
 30
0.0
 10
19.83825910129968
 20
7.470343182890257
 30
0.0
 10
19.22935024697021
 20
7.456045378482052
 30
0.0
 10
18.62384462582035
 20
7.445827363285553
 30
0.0
 10
18.0116673392552
 20
7.439723018897991
 30
0.0
 10
17.43785698577381
 20
7.438029252730229
 30
0.0
 10
16.92113695568647
 20
7.439475689791199
 30
0.0
 10
16.39138418046066
 20
7.443900290147326
 30
0.0
 10
15.7845092814384
 20
7.452725962757611
 30
0.0
 10
15.2197037079702
 20
7.465104028925324
 30
0.0
 10
14.79368899712067
 20
7.476808490510213
 30
0.0
 10
14.60216888963025
 20
7.482908649358835
 30
0.0
 10
14.53979432392378
 20
7.484895358555635
 30
0.0
  0
SPLINE
  5
9E
330
1F
100
AcDbEntity
  8
0
  6
Continuous
 62
     1
370
    15
100
AcDbSpline
210
0.0
220
0.0
230
1.0
 70
     8
 71
     3
 72
    30
 73
    26
 74
     0
 42
0.000000001
 43
0.00000001
 40
0.0
 40
0.0
 40
0.0
 40
0.0
 40
0.0675935401084254
 40
0.1198167752048313
 40
0.1581218994782132
 40
0.1907171555621813
 40
0.2209301070570467
 40
0.2571033000733131
 40
0.2995298009298215
 40
0.3423670368056954
 40
0.3830800468358249
 40
0.4227172336564374
 40
0.4582041000896767
 40
0.4956889933273024
 40
0.5530766197261903
 40
0.6051298665614432
 40
0.6537861629941716
 40
0.7065422786316503
 40
0.7660076042737476
 40
0.7958027669028017
 40
0.8235437666739588
 40
0.8549912360108325
 40
0.8918446254247809
 40
0.9399331274167698
 40
1.0
 40
1.0
 40
1.0
 40
1.0
 10
46.56141820068184
 20
6.514648726040139
 30
0.0
 10
46.19247688608551
 20
6.484533503411659
 30
0.0
 10
45.53848896824813
 20
6.431151052157701
 30
0.0
 10
44.66370511594361
 20
6.376366986647378
 30
0.0
 10
43.96630882709572
 20
6.340335946305224
 30
0.0
 10
43.39778749922577
 20
6.316025222297863
 30
0.0
 10
42.85179343695946
 20
6.297149615191757
 30
0.0
 10
42.24912297208149
 20
6.281357748387232
 30
0.0
 10
41.57445238263919
 20
6.270468968288657
 30
0.0
 10
40.87581416283835
 20
6.266841298550862
 30
0.0
 10
40.1924587804539
 20
6.270671864816749
 30
0.0
 10
39.54940794721616
 20
6.280900688155454
 30
0.0
 10
38.9243109739544
 20
6.296851993739832
 30
0.0
 10
38.20085996755939
 20
6.322065013150213
 30
0.0
 10
37.3860182377053
 20
6.360450276330673
 30
0.0
 10
36.50821774256836
 20
6.413701923452453
 30
0.0
 10
35.65634895234568
 20
6.475976287448577
 30
0.0
 10
34.76484397985735
 20
6.55243343492363
 30
0.0
 10
33.97392339540934
 20
6.630980903790983
 30
0.0
 10
33.33269226255424
 20
6.701070411779377
 30
0.0
 10
32.83982778350823
 20
6.75818561348351
 30
0.0
 10
32.29748349006411
 20
6.824894343673185
 30
0.0
 10
31.63850728380865
 20
6.910851209331931
 30
0.0
 10
30.83642141576615
 20
7.023045821205611
 30
0.0
 10
30.24768485877682
 20
7.113719113353647
 30
0.0
 10
29.92071485018818
 20
7.164076861246889
 30
0.0
  0
SPLINE
  5
9F
330
1F
100
AcDbEntity
  8
0
  6
Continuous
 62
     1
370
    15
100
AcDbSpline
210
0.0
220
0.0
230
1.0
 70
     8
 71
     3
 72
    19
 73
    15
 74
     0
 42
0.000000001
 43
0.00000001
 40
0.0
 40
0.0
 40
0.0
 40
0.0
 40
0.1046801871358907
 40
0.1855380879551835
 40
0.2833023997596515
 40
0.375240786519594
 40
0.4819627089170435
 40
0.5799095645924455
 40
0.6600201994779415
 40
0.7267132415449228
 40
0.810506783133278
 40
0.9034853078427406
 40
0.9816154886382837
 40
1.0
 40
1.0
 40
1.0
 40
1.0
 10
29.92071485018818
 20
-7.164076861246895
 30
0.0
 10
30.13960016211238
 20
-7.129226293848595
 30
0.0
 10
30.52755860360019
 20
-7.067456174629767
 30
0.0
 10
31.21291073296062
 20
-6.967067871738195
 30
0.0
 10
31.87569402502779
 20
-6.879990370367405
 30
0.0
 10
32.59494210390717
 20
-6.787077352740688
 30
0.0
 10
33.2998365516188
 20
-6.704158503943286
 30
0.0
 10
33.98046026180279
 20
-6.630621604224415
 30
0.0
 10
34.5605510100125
 20
-6.573172436353
 30
0.0
 10
35.10253171458508
 20
-6.523257448965714
 30
0.0
 10
35.68553426121166
 20
-6.474299790980782
 30
0.0
 10
36.29924984093734
 20
-6.429002147447151
 30
0.0
 10
36.75400778581357
 20
-6.398666928162225
 30
0.0
 10
36.98328312929409
 20
-6.385578089628845
 30
0.0
 10
37.0269564298348
 20
-6.383084874395496
 30
0.0
  0
SPLINE
  5
A0
330
1F
100
AcDbEntity
  8
0
  6
Continuous
 62
     1
370
    15
100
AcDbSpline
210
0.0
220
0.0
230
1.0
 70
     8
 71
     3
 72
    30
 73
    26
 74
     0
 42
0.000000001
 43
0.00000001
 40
0.0
 40
0.0
 40
0.0
 40
0.0
 40
0.0711803256211654
 40
0.1266414954142599
 40
0.1664372936109571
 40
0.1919214852395368
 40
0.2181266870889749
 40
0.2496179062962338
 40
0.284613083454549
 40
0.3168382924863183
 40
0.3612954064768273
 40
0.4047783862175569
 40
0.4529204406650728
 40
0.5054987794253036
 40
0.5436537932431681
 40
0.5737090225802824
 40
0.5990015756994523
 40
0.636744246839987
 40
0.6880421402986711
 40
0.7357433250942779
 40
0.7728078058877618
 40
0.8065028982931535
 40
0.8546382804441303
 40
0.9192064502645226
 40
1.0
 40
1.0
 40
1.0
 40
1.0
 10
11.9999999999998
 20
-7.601277463067855
 30
0.0
 10
12.2446025997215
 20
-7.587285686160243
 30
0.0
 10
12.67979081698024
 20
-7.562392015955456
 30
0.0
 10
13.25146864847158
 20
-7.534820495393961
 30
0.0
 10
13.66604379927058
 20
-7.51677992222524
 30
0.0
 10
13.98034106839607
 20
-7.50431942098784
 30
0.0
 10
14.2660832858254
 20
-7.493826160387716
 30
0.0
 10
14.58456562647905
 20
-7.483184396741595
 30
0.0
 10
14.92328496817332
 20
-7.473126835646794
 30
0.0
 10
15.30231445520211
 20
-7.463390638208986
 30
0.0
 10
15.68306601716893
 20
-7.454434652667255
 30
0.0
 10
16.12898522384596
 20
-7.445052001736071
 30
0.0
 10
16.63226042448409
 20
-7.439631297126632
 30
0.0
 10
17.11741348374044
 20
-7.438260493005952
 30
0.0
 10
17.53916770273473
 20
-7.438331425702297
 30
0.0
 10
17.86547049053566
 20
-7.439468337225152
 30
0.0
 10
18.18530850866952
 20
-7.441563369372363
 30
0.0
 10
18.5779379142182
 20
-7.445559847027334
 30
0.0
 10
19.04745389953125
 20
-7.452732593694715
 30
0.0
 10
19.51513802606012
 20
-7.462547552384363
 30
0.0
 10
19.92299083291333
 20
-7.473107658804993
 30
0.0
 10
20.33310709314913
 20
-7.485340978012662
 30
0.0
 10
20.83566819448345
 20
-7.502728292888342
 30
0.0
 10
21.49948701959106
 20
-7.529490009537152
 30
0.0
 10
21.99800086957475
 20
-7.554845113115066
 30
0.0
 10
22.27508003220121
 20
-7.568937742372818
 30
0.0
  0
SPLINE
  5
A1
330
1F
100
AcDbEntity
  8
외형선
  6
Continuous
370
    15
100
AcDbSpline
210
0.0
220
0.0
230
1.0
 70
     8
 71
     3
 72
     8
 73
     4
 74
     0
 42
0.000000001
 43
0.00000001
 40
0.0
 40
0.0
 40
0.0
 40
0.0
 40
1.0
 40
1.0
 40
1.0
 40
1.0
 10
12.00000000000001
 20
8.30704607639678
 30
0.0
 10
10.98116254085789
 20
8.594439767449668
 30
0.0
 10
9.968841024793782
 20
8.83383108593849
 30
0.0
 10
8.95000350326185
 20
9.02215920646945
 30
0.0
  0
LINE
  5
A2
330
1F
100
AcDbEntity
  8
외형선
  6
Continuous
370
    15
100
AcDbLine
 10
12.00000000000001
 20
8.307046076396777
 30
0.0
 11
12.00000000000001
 21
6.696857771193029
 31
0.0
  0
SPLINE
  5
A3
330
1F
100
AcDbEntity
  8
외형선
  6
Continuous
370
    15
100
AcDbSpline
210
0.0
220
0.0
230
1.0
 70
     8
 71
     3
 72
     8
 73
     4
 74
     0
 42
0.000000001
 43
0.00000001
 40
0.0
 40
0.0
 40
0.0
 40
0.0
 40
1.0
 40
1.0
 40
1.0
 40
1.0
 10
12.00000000000001
 20
6.696857771193027
 30
0.0
 10
10.98116194331735
 20
7.114555760384834
 30
0.0
 10
9.968839829798716
 20
7.493157586574961
 30
0.0
 10
8.950001710640112
 20
7.827822491220529
 30
0.0
  0
SPLINE
  5
A4
330
1F
100
AcDbEntity
  8
외형선
  6
Continuous
370
    15
100
AcDbSpline
210
0.0
220
0.0
230
1.0
 70
     8
 71
     3
 72
     8
 73
     4
 74
     0
 42
0.000000001
 43
0.00000001
 40
0.0
 40
0.0
 40
0.0
 40
0.0
 40
1.0
 40
1.0
 40
1.0
 40
1.0
 10
12.00000000000001
 20
-8.307046076396787
 30
0.0
 10
10.98116254085789
 20
-8.594439767449677
 30
0.0
 10
9.968841024793782
 20
-8.833831085938499
 30
0.0
 10
8.95000350326185
 20
-9.022159206469457
 30
0.0
  0
LINE
  5
A5
330
1F
100
AcDbEntity
  8
외형선
  6
Continuous
370
    15
100
AcDbLine
 10
8.950001710640112
 20
9.022290079487304
 30
0.0
 11
8.950001710640112
 21
9.524999999999997
 31
0.0
  0
LINE
  5
A6
330
1F
100
AcDbEntity
  8
외형선
  6
Continuous
370
    15
100
AcDbLine
 10
-50.49999999999999
 20
9.52499999999999
 30
0.0
 11
-50.49999999999999
 21
-9.525000000000013
 31
0.0
  0
LINE
  5
A7
330
1F
100
AcDbEntity
  8
외형선
  6
Continuous
370
    15
100
AcDbLine
 10
8.950001710640112
 20
-9.525000000000004
 30
0.0
 11
8.950001710640112
 21
7.827822713580015
 31
0.0
  0
LINE
  5
A8
330
1F
100
AcDbEntity
  8
외형선
  6
Continuous
370
    15
100
AcDbLine
 10
-51.49999999999999
 20
8.524999999999988
 30
0.0
 11
-51.49999999999999
 21
-8.524999999999991
 31
0.0
  0
SPLINE
  5
A9
330
1F
100
AcDbEntity
  8
외형선
  6
Continuous
370
    15
100
AcDbSpline
210
0.0
220
0.0
230
1.0
 70
    24
 71
     3
 72
    14
 73
    10
 74
     0
 42
0.000000001
 43
0.00000001
 40
0.0
 40
0.0
 40
0.0
 40
0.0
 40
0.25
 40
0.25
 40
0.5
 40
0.5
 40
0.75
 40
0.75
 40
1.0
 40
1.0
 40
1.0
 40
1.0
 10
12.00000000000001
 20
4.48894459148268
 30
0.0
 10
12.00000000000001
 20
3.758418450458947
 30
0.0
 10
12.00000000000001
 20
2.952678892958839
 30
0.0
 10
12.00000000000001
 20
1.249501833391789
 30
0.0
 10
12.00000000000001
 20
0.3527139999457493
 30
0.0
 10
12.00000000000001
 20
-1.446476563080002
 30
0.0
 10
12.00000000000001
 20
-2.347920608706777
 30
0.0
 10
12.00000000000001
 20
-4.068839341134678
 30
0.0
 10
12.00000000000001
 20
-4.887639440178068
 30
0.0
 10
12.00000000000001
 20
-5.63428950502317
 30
0.0
  0
SPLINE
  5
AA
330
1F
100
AcDbEntity
  8
외형선
  6
Continuous
370
    15
100
AcDbSpline
210
0.0
220
0.0
230
1.0
 70
     8
 71
     3
 72
     8
 73
     4
 74
     0
 42
0.000000001
 43
0.00000001
 40
0.0
 40
0.0
 40
0.0
 40
0.0
 40
1.0
 40
1.0
 40
1.0
 40
1.0
 10
12.00000000000001
 20
-5.634289505023171
 30
0.0
 10
10.98116216148444
 20
-5.317917850746021
 30
0.0
 10
9.968840266101491
 20
-4.970083019332378
 30
0.0
 10
8.950002365141419
 20
-4.59523237919062
 30
0.0
  0
SPLINE
  5
AB
330
1F
100
AcDbEntity
  8
외형선
  6
Continuous
370
    15
100
AcDbSpline
210
0.0
220
0.0
230
1.0
 70
     8
 71
     3
 72
     8
 73
     4
 74
     0
 42
0.000000001
 43
0.00000001
 40
0.0
 40
0.0
 40
0.0
 40
0.0
 40
1.0
 40
1.0
 40
1.0
 40
1.0
 10
12.00000000000001
 20
4.48894459148268
 30
0.0
 10
10.98116208725347
 20
4.792969115167215
 30
0.0
 10
9.96884011765023
 20
5.070735783377273
 30
0.0
 10
8.950002142448485
 20
5.318693105714868
 30
0.0
  0
SPLINE
  5
AC
330
1F
100
AcDbEntity
  8
외형선
  6
Continuous
370
    15
100
AcDbSpline
210
0.0
220
0.0
230
1.0
 70
    24
 71
     3
 72
    10
 73
     6
 74
     0
 42
0.000000001
 43
0.00000001
 40
0.0
 40
0.0
 40
0.0
 40
0.0
 40
0.5
 40
0.5
 40
1.0
 40
1.0
 40
1.0
 40
1.0
 10
12.00000000000001
 20
6.696857771193025
 30
0.0
 10
12.00000000000001
 20
6.465947603761275
 30
0.0
 10
12.00000000000001
 20
6.141845499473724
 30
0.0
 10
12.00000000000001
 20
5.374410345923491
 30
0.0
 10
12.00000000000001
 20
4.933591200290728
 30
0.0
 10
12.00000000000001
 20
4.48894459148268
 30
0.0
  0
SPLINE
  5
AD
330
1F
100
AcDbEntity
  8
외형선
  6
Continuous
370
    15
100
AcDbSpline
210
0.0
220
0.0
230
1.0
 70
    24
 71
     3
 72
    14
 73
    10
 74
     0
 42
0.000000001
 43
0.00000001
 40
0.0
 40
0.0
 40
0.0
 40
0.0
 40
0.1810170709280867
 40
0.3643884283087288
 40
0.4978074218148388
 40
0.6312264153209488
 40
0.7685215192533289
 40
0.905816623185709
 40
1.0
 40
1.0
 40
1.0
 40
1.0
 10
12.00000000000001
 20
-5.634289505023171
 30
0.0
 10
12.00000000000001
 20
-5.853673225016915
 30
0.0
 10
12.0
 20
-6.295293943522529
 30
0.0
 10
12.00000000000001
 20
-6.764462961395099
 30
0.0
 10
12.00000000000001
 20
-7.105036405722252
 30
0.0
 10
12.0
 20
-7.341945537524672
 30
0.0
 10
12.0
 20
-7.501312831239062
 30
0.0
 10
12.00000000000001
 20
-7.600692685828127
 30
0.0
 10
12.0
 20
-7.581120981255257
 30
0.0
 10
12.00000000000001
 20
-7.573157695766524
 30
0.0
  0
SPLINE
  5
AE
330
1F
100
AcDbEntity
  8
외형선
  6
Continuous
370
    15
100
AcDbSpline
210
0.0
220
0.0
230
1.0
 70
    24
 71
     3
 72
    10
 73
     6
 74
     0
 42
0.000000001
 43
0.00000001
 40
0.0
 40
0.0
 40
0.0
 40
0.0
 40
0.1254615208315236
 40
0.7743418500908011
 40
1.0
 40
1.0
 40
1.0
 40
1.0
 10
12.00000000000001
 20
-7.6552369604416
 30
0.0
 10
12.00000000000001
 20
-7.684814513346445
 30
0.0
 10
12.00000000000001
 20
-7.867365600609695
 30
0.0
 10
12.0
 20
-8.081219349081136
 30
0.0
 10
12.00000000000001
 20
-8.260727409224701
 30
0.0
 10
12.00000000000001
 20
-8.307046076396787
 30
0.0
  0
SPLINE
  5
AF
330
1F
100
AcDbEntity
  8
0
  6
Continuous
 62
     1
370
    15
100
AcDbSpline
210
0.0
220
0.0
230
1.0
 70
     8
 71
     3
 72
    52
 73
    48
 74
     0
 42
0.000000001
 43
0.00000001
 40
0.0
 40
0.0
 40
0.0
 40
0.0
 40
0.0624999999999993
 40
0.0624999999999993
 40
0.0937499999999989
 40
0.0937499999999989
 40
0.1249999999999985
 40
0.1249999999999985
 40
0.1874999999999982
 40
0.1874999999999982
 40
0.218749999999998
 40
0.218749999999998
 40
0.2499999999999978
 40
0.2499999999999978
 40
0.3124999999999977
 40
0.3124999999999977
 40
0.3437499999999977
 40
0.3437499999999977
 40
0.3749999999999977
 40
0.3749999999999977
 40
0.4374999999999978
 40
0.4374999999999978
 40
0.4687499999999978
 40
0.4687499999999978
 40
0.4999999999999978
 40
0.4999999999999978
 40
0.562499999999998
 40
0.562499999999998
 40
0.6249999999999983
 40
0.6249999999999983
 40
0.6562499999999984
 40
0.6562499999999984
 40
0.6874999999999984
 40
0.6874999999999984
 40
0.7499999999999988
 40
0.7499999999999988
 40
0.781249999999999
 40
0.781249999999999
 40
0.8124999999999991
 40
0.8124999999999991
 40
0.8749999999999994
 40
0.8749999999999994
 40
0.9374999999999997
 40
0.9374999999999997
 40
0.9687499999999998
 40
0.9687499999999998
 40
1.0
 40
1.0
 40
1.0
 40
1.0
 10
50.10000000000004
 20
-9.524999999999993
 30
0.0
 10
49.30963556433507
 20
-9.49813894624357
 30
0.0
 10
48.51133396405917
 20
-9.446142650822813
 30
0.0
 10
47.32057807489377
 20
-9.319367403131144
 30
0.0
 10
46.92596360275743
 20
-9.269079832384486
 30
0.0
 10
46.13271389891572
 20
-9.152355224359141
 30
0.0
 10
45.73478315140068
 20
-9.08592643745517
 30
0.0
 10
44.5417305854537
 20
-8.863155322503706
 30
0.0
 10
43.7521127221972
 20
-8.683709118043106
 30
0.0
 10
42.55969481403557
 20
-8.369716934743087
 30
0.0
 10
42.161597727684
 20
-8.257624994293655
 30
0.0
 10
41.36726387994185
 20
-8.019471955995987
 30
0.0
 10
40.9723447320767
 20
-7.893563263803466
 30
0.0
 10
39.78348762343001
 20
-7.49522206001699
 30
0.0
 10
38.98494285290526
 20
-7.201938912680005
 30
0.0
 10
37.79678658355201
 20
-6.727292059596134
 30
0.0
 10
37.40152456162521
 20
-6.563219328572678
 30
0.0
 10
36.60692797921298
 20
-6.223398025120606
 30
0.0
 10
36.2088166149243
 20
-6.047810738815937
 30
0.0
 10
35.01670769708537
 20
-5.506073349682469
 30
0.0
 10
34.22687803846905
 20
-5.125293676880021
 30
0.0
 10
33.0337400869025
 20
-4.528096186826539
 30
0.0
 10
32.63589842419301
 20
-4.324894688324084
 30
0.0
 10
31.84305967239248
 20
-3.911831460395849
 30
0.0
 10
31.44829165171852
 20
-3.702020272362196
 30
0.0
 10
30.25705669988276
 20
-3.062273354483518
 30
0.0
 10
29.46003180137511
 20
-2.623101640127184
 30
0.0
 10
27.87814449410535
 20
-1.73188080342564
 30
0.0
 10
27.07972759383408
 20
-1.27729285341557
 30
0.0
 10
25.88950348580429
 20
-0.5925184822726337
 30
0.0
 10
25.49492484930504
 20
-0.3639639623967356
 30
0.0
 10
24.70129925220045
 20
0.0942382388993916
 30
0.0
 10
24.30329714248973
 20
0.3236851943497664
 30
0.0
 10
23.11038302072641
 20
1.010374952133312
 30
0.0
 10
22.3208765292131
 20
1.465142108462321
 30
0.0
 10
21.12820259523074
 20
2.138910029522751
 30
0.0
 10
20.73013753417037
 20
2.361928661643596
 30
0.0
 10
19.93610164021958
 20
2.803088108392832
 30
0.0
 10
19.5414076984776
 20
3.020999293392034
 30
0.0
 10
18.35190218843059
 20
3.667306640687144
 30
0.0
 10
17.55339325971617
 20
4.087876889626632
 30
0.0
 10
15.97018913226619
 20
4.895386346942948
 30
0.0
 10
15.17458470191258
 20
5.284201035202746
 30
0.0
 10
13.9828376931252
 20
5.837620908668446
 30
0.0
 10
13.58772380076703
 20
6.016859645573335
 30
0.0
 10
12.79543269953466
 20
6.364917775117935
 30
0.0
 10
12.39772342198747
 20
6.53380116712431
 30
0.0
 10
12.00000000000002
 20
6.696857771193025
 30
0.0
  0
SPLINE
  5
B0
330
1F
100
AcDbEntity
  8
0
  6
Continuous
 62
     1
370
    15
100
AcDbSpline
210
0.0
220
0.0
230
1.0
 70
     8
 71
     3
 72
    12
 73
     8
 74
     0
 42
0.000000001
 43
0.00000001
 40
0.0
 40
0.0
 40
0.0
 40
0.0
 40
0.0693483699225289
 40
0.3019766668139311
 40
0.5346345235511657
 40
0.7673122192801365
 40
1.0
 40
1.0
 40
1.0
 40
1.0
 10
26.41149419103084
 20
-0.8921404515482679
 30
0.0
 10
26.07836707790251
 20
-0.7601179764979221
 30
0.0
 10
24.62776895482881
 20
-0.1852276509608367
 30
0.0
 10
22.05949586388283
 20
0.8656623464980386
 30
0.0
 10
18.70659644378548
 20
2.186281596289359
 30
0.0
 10
15.35337706746122
 20
3.433424661309387
 30
0.0
 10
13.11780850491163
 20
4.137099531617494
 30
0.0
 10
12.00000000000001
 20
4.48894459148268
 30
0.0
  0
SPLINE
  5
B1
330
1F
100
AcDbEntity
  8
외형선
  6
Continuous
370
    15
100
AcDbSpline
210
0.0
220
0.0
230
1.0
 70
    24
 71
     3
 72
    10
 73
     6
 74
     0
 42
0.000000001
 43
0.00000001
 40
0.0
 40
0.0
 40
0.0
 40
0.0
 40
0.5
 40
0.5
 40
1.0
 40
1.0
 40
1.0
 40
1.0
 10
12.00000000000001
 20
6.696857771193028
 30
0.0
 10
12.00000000000001
 20
6.465947603761279
 30
0.0
 10
12.00000000000001
 20
6.141845499473726
 30
0.0
 10
12.00000000000001
 20
5.374410345923493
 30
0.0
 10
12.00000000000001
 20
4.933591200290729
 30
0.0
 10
12.00000000000001
 20
4.48894459148268
 30
0.0
  0
SPLINE
  5
B2
330
1F
100
AcDbEntity
  8
0
  6
Continuous
 62
     1
370
    15
100
AcDbSpline
210
0.0
220
0.0
230
1.0
 70
     8
 71
     3
 72
    52
 73
    48
 74
     0
 42
0.000000001
 43
0.00000001
 40
0.0
 40
0.0
 40
0.0
 40
0.0
 40
0.0625000000000005
 40
0.0625000000000005
 40
0.0937500000000007
 40
0.0937500000000007
 40
0.1250000000000009
 40
0.1250000000000009
 40
0.187500000000001
 40
0.187500000000001
 40
0.218750000000001
 40
0.218750000000001
 40
0.2500000000000011
 40
0.2500000000000011
 40
0.3125000000000009
 40
0.3125000000000009
 40
0.3437500000000009
 40
0.3437500000000009
 40
0.3750000000000009
 40
0.3750000000000009
 40
0.4375000000000007
 40
0.4375000000000007
 40
0.4687500000000008
 40
0.4687500000000008
 40
0.5000000000000009
 40
0.5000000000000009
 40
0.5625000000000008
 40
0.5625000000000008
 40
0.6250000000000007
 40
0.6250000000000007
 40
0.6562500000000007
 40
0.6562500000000007
 40
0.6875000000000006
 40
0.6875000000000006
 40
0.7500000000000004
 40
0.7500000000000004
 40
0.7812500000000004
 40
0.7812500000000004
 40
0.8125000000000004
 40
0.8125000000000004
 40
0.8750000000000003
 40
0.8750000000000003
 40
0.9375000000000003
 40
0.9375000000000003
 40
0.9687500000000002
 40
0.9687500000000002
 40
1.0
 40
1.0
 40
1.0
 40
1.0
 10
50.10000000000001
 20
-9.038661779433848
 30
0.0
 10
49.309635564335
 20
-8.894303654555756
 30
0.0
 10
48.51133396405907
 20
-8.718006516732318
 30
0.0
 10
47.32057807489356
 20
-8.409562682254064
 30
0.0
 10
46.9259636027572
 20
-8.29957186312378
 30
0.0
 10
46.13271389891544
 20
-8.065023057448917
 30
0.0
 10
45.73478315140037
 20
-7.940511092085355
 30
0.0
 10
44.54173058545329
 20
-7.546665161631259
 30
0.0
 10
43.75211272219673
 20
-7.257619315217237
 30
0.0
 10
42.55969481403501
 20
-6.786846581786716
 30
0.0
 10
42.16159772768341
 20
-6.623798887133429
 30
0.0
 10
41.36726387994122
 20
-6.286739048110719
 30
0.0
 10
40.97234473207604
 20
-6.112929879670024
 30
0.0
 10
39.78348762342927
 20
-5.575473269918777
 30
0.0
 10
38.98494285290445
 20
-5.195585954867727
 30
0.0
 10
37.79678658355112
 20
-4.602255525778819
 30
0.0
 10
37.40152456162429
 20
-4.400453535025892
 30
0.0
 10
36.606927979212
 20
-3.988866394821222
 30
0.0
 10
36.20881661492331
 20
-3.779284154349849
 30
0.0
 10
35.01670769708427
 20
-3.141625143547607
 30
0.0
 10
34.22687803846789
 20
-2.705014233908416
 30
0.0
 10
33.03374008690128
 20
-2.036757986199104
 30
0.0
 10
32.63589842419174
 20
-1.812015585503059
 30
0.0
 10
31.84305967239117
 20
-1.360315267708269
 30
0.0
 10
31.44829165171717
 20
-1.13340480346494
 30
0.0
 10
30.25705669988132
 20
-0.4489915773246053
 30
0.0
 10
29.46003180137363
 20
0.0109813884072938
 30
0.0
 10
27.87814449410374
 20
0.9253385718236953
 30
0.0
 10
27.0797275938324
 20
1.382318460611893
 30
0.0
 10
25.88950348580255
 20
2.056816607672047
 30
0.0
 10
25.49492484930327
 20
2.279654378300186
 30
0.0
 10
24.70129925219861
 20
2.721827060851506
 30
0.0
 10
24.30329714248786
 20
2.940960660129673
 30
0.0
 10
23.11038302072446
 20
3.589921190019298
 30
0.0
 10
22.32087652921109
 20
4.01055378979712
 30
0.0
 10
21.12820259522864
 20
4.619938557561365
 30
0.0
 10
20.73013753416826
 20
4.819309421775158
 30
0.0
 10
19.93610164021742
 20
5.208990408682641
 30
0.0
 10
19.5414076984754
 20
5.399105251373483
 30
0.0
 10
18.35190218842828
 20
5.955787674166714
 30
0.0
 10
17.55339325971381
 20
6.308280118216759
 30
0.0
 10
15.97018913226375
 20
6.965122285915695
 30
0.0
 10
15.17458470191005
 20
7.271018691361313
 30
0.0
 10
13.9828376931226
 20
7.690201798168919
 30
0.0
 10
13.58772380076442
 20
7.823129370596531
 30
0.0
 10
12.79543269953197
 20
8.075437364304102
 30
0.0
 10
12.39772342198474
 20
8.194856245490291
 30
0.0
 10
11.99999999999725
 20
8.307046076397556
 30
0.0
  0
SPLINE
  5
B3
330
1F
100
AcDbEntity
  8
0
  6
Continuous
 62
     1
370
    15
100
AcDbSpline
210
0.0
220
0.0
230
1.0
 70
     8
 71
     3
 72
    17
 73
    13
 74
     0
 42
0.000000001
 43
0.00000001
 40
0.0
 40
0.0
 40
0.0
 40
0.0
 40
0.1079280601266204
 40
0.2158238114312215
 40
0.3236980032811048
 40
0.4315614404046443
 40
0.539424955185763
 40
0.6472993798085956
 40
0.7551955184032338
 40
0.8631241105142529
 40
0.9761786966039173
 40
1.0
 40
1.0
 40
1.0
 40
1.0
 10
50.10000000000001
 20
-7.514960818107258
 30
0.0
 10
49.21063428742013
 20
-7.333679544925332
 30
0.0
 10
47.43216909847814
 20
-6.971171266046547
 30
0.0
 10
44.76494289636349
 20
-6.193022658722062
 30
0.0
 10
42.09831715829992
 20
-5.267505026579827
 30
0.0
 10
39.43199942582203
 20
-4.200941038249765
 30
0.0
 10
36.76567938262606
 20
-3.025732490412593
 30
0.0
 10
34.0990473612095
 20
-1.771763564022041
 30
0.0
 10
31.43180906434633
 20
-0.4698782087974878
 30
0.0
 10
28.72172863523423
 20
0.8586677784920902
 30
0.0
 10
26.70443783016842
 20
1.848610382306707
 30
0.0
 10
25.57656121054463
 20
2.36420303738206
 30
0.0
 10
25.38027031336508
 20
2.453934611814098
 30
0.0
  0
LINE
  5
B4
330
1F
100
AcDbEntity
  8
0
  6
Continuous
 62
     1
370
    15
100
AcDbLine
 10
50.09999999999967
 20
-9.038661779433832
 30
0.0
 11
50.10000000000001
 21
-7.514960818107258
 31
0.0
  0
LINE
  5
B5
330
1F
100
AcDbEntity
  8
0
  6
Continuous
 62
     1
370
    15
100
AcDbLine
 10
50.10000000000003
 20
-9.524999999999997
 30
0.0
 11
50.09999999999967
 21
-9.038661779433832
 31
0.0
  0
SPLINE
  5
B6
330
1F
100
AcDbEntity
  8
0
  6
Continuous
 62
     1
370
    15
100
AcDbSpline
210
0.0
220
0.0
230
1.0
 70
     8
 71
     3
 72
    12
 73
     8
 74
     0
 42
0.000000001
 43
0.00000001
 40
0.0
 40
0.0
 40
0.0
 40
0.0
 40
0.5000000000000011
 40
0.5000000000000011
 40
0.7500000000000006
 40
0.7500000000000006
 40
1.0
 40
1.0
 40
1.0
 40
1.0
 10
50.1
 20
-2.545489060932359
 30
0.0
 10
49.24179496967376
 20
-1.870798261156443
 30
0.0
 10
48.39573740577396
 20
-1.172677160324447
 30
0.0
 10
47.14492402574461
 20
-0.0902502097417878
 30
0.0
 10
46.73107042667416
 20
0.2765076356954173
 30
0.0
 10
45.90998841918658
 20
1.022802140366349
 30
0.0
 10
45.50138535338719
 20
1.403657852354437
 30
0.0
 10
45.10000000000002
 20
1.788486169330862
 30
0.0
  0
LINE
  5
B7
330
1F
100
AcDbEntity
  8
0
  6
Continuous
 62
     1
370
    15
100
AcDbLine
 10
45.10000000000002
 20
2.937719435296588
 30
0.0
 11
50.10000000000001
 21
0.0000000000000016
 31
0.0
  0
LINE
  5
B8
330
1F
100
AcDbEntity
  8
0
  6
Continuous
 62
     1
370
    15
100
AcDbLine
 10
50.10000000000001
 20
0.0000000000000016
 30
0.0
 11
50.10000000000001
 21
-2.545489060932366
 31
0.0
  0
SPLINE
  5
B9
330
1F
100
AcDbEntity
  8
0
  6
Continuous
 62
     1
370
    15
100
AcDbSpline
210
0.0
220
0.0
230
1.0
 70
     8
 71
     3
 72
    15
 73
    11
 74
     0
 42
0.000000001
 43
0.00000001
 40
0.0
 40
0.0
 40
0.0
 40
0.0
 40
0.1353274338320758
 40
0.2706547030253847
 40
0.4059817932652708
 40
0.5413086902423686
 40
0.6766353796530273
 40
0.8119618471997305
 40
0.9395516164157706
 40
1.0
 40
1.0
 40
1.0
 40
1.0
 10
45.10000000000002
 20
2.27396250458873
 30
0.0
 10
44.07017395511797
 20
2.720243871255061
 30
0.0
 10
42.01052311823579
 20
3.612806061643755
 30
0.0
 10
38.92104921812828
 20
4.803955094210197
 30
0.0
 10
35.83158092865141
 20
5.833109678832549
 30
0.0
 10
32.74211383661287
 20
6.655768730141678
 30
0.0
 10
29.6526663297511
 20
7.249885690283232
 30
0.0
 10
26.62204580850666
 20
7.570113197302878
 30
0.0
 10
24.16140146582341
 20
7.665800039369482
 30
0.0
 10
22.73050741108403
 20
7.57013624381011
 30
0.0
 10
22.27051973623619
 20
7.539383326261305
 30
0.0
  0
SPLINE
  5
BA
330
1F
100
AcDbEntity
  8
0
  6
Continuous
 62
     1
370
    15
100
AcDbSpline
210
0.0
220
0.0
230
1.0
 70
    24
 71
     3
 72
     8
 73
     4
 74
     0
 42
0.000000001
 43
0.00000001
 40
0.0
 40
0.0
 40
0.0
 40
0.0
 40
1.0
 40
1.0
 40
1.0
 40
1.0
 10
45.10000000000001
 20
1.78848616933077
 30
0.0
 10
45.10000000000001
 20
1.951691093477689
 30
0.0
 10
45.10000000000001
 20
2.113595766767041
 30
0.0
 10
45.10000000000001
 20
2.273962504588737
 30
0.0
  0
LINE
  5
BB
330
1F
100
AcDbEntity
  8
0
  6
Continuous
 62
     1
370
    15
100
AcDbLine
 10
50.10000000000001
 20
-7.514960818107258
 30
0.0
 11
50.1
 21
-2.54548906093236
 31
0.0
  0
SPLINE
  5
BC
330
1F
100
AcDbEntity
  8
0
  6
Continuous
 62
     1
370
    15
100
AcDbSpline
210
0.0
220
0.0
230
1.0
 70
    24
 71
     3
 72
    10
 73
     6
 74
     0
 42
0.000000001
 43
0.00000001
 40
0.0
 40
0.0
 40
0.0
 40
0.0
 40
0.5
 40
0.5
 40
1.0
 40
1.0
 40
1.0
 40
1.0
 10
45.10000000000002
 20
2.273962504588733
 30
0.0
 10
45.10000000000002
 20
2.801767246870172
 30
0.0
 10
45.10000000000002
 20
3.304266617507628
 30
0.0
 10
45.10000000000002
 20
4.2210955016316
 30
0.0
 10
45.10000000000002
 20
4.635160569708961
 30
0.0
 10
45.10000000000001
 20
4.9891594832221
 30
0.0
  0
SPLINE
  5
BD
330
1F
100
AcDbEntity
  8
0
  6
Continuous
 62
     1
370
    15
100
AcDbSpline
210
0.0
220
0.0
230
1.0
 70
     8
 71
     3
 72
     9
 73
     5
 74
     0
 42
0.000000001
 43
0.00000001
 40
0.0
 40
0.0
 40
0.0
 40
0.0
 40
0.8602675248035161
 40
1.0
 40
1.0
 40
1.0
 40
1.0
 10
50.10000000000001
 20
6.667499999999998
 30
0.0
 10
49.08399833238061
 20
6.661661167082652
 30
0.0
 10
47.9029684337436
 20
6.654873937820826
 30
0.0
 10
46.72193853538426
 20
6.51843185217525
 30
0.0
 10
46.55691030440545
 20
6.499366461827023
 30
0.0
  0
SPLINE
  5
BE
330
1F
100
AcDbEntity
  8
0
  6
Continuous
 62
     1
370
    15
100
AcDbSpline
210
0.0
220
0.0
230
1.0
 70
     8
 71
     3
 72
    10
 73
     6
 74
     0
 42
0.000000001
 43
0.00000001
 40
0.0
 40
0.0
 40
0.0
 40
0.0
 40
0.5
 40
0.5
 40
1.0
 40
1.0
 40
1.0
 40
1.0
 10
50.10000000000001
 20
6.667500000000003
 30
0.0
 10
49.25713843727276
 20
6.438964413875567
 30
0.0
 10
48.41828215753447
 20
6.185979994980777
 30
0.0
 10
46.75055932524701
 20
5.628562403643726
 30
0.0
 10
45.92162789194635
 20
5.324600261969326
 30
0.0
 10
45.09999999999986
 20
4.989159483222248
 30
0.0
  0
SPLINE
  5
BF
330
1F
100
AcDbEntity
  8
0
  6
Continuous
 62
     1
370
    15
100
AcDbSpline
210
0.0
220
0.0
230
1.0
 70
     8
 71
     3
 72
    14
 73
    10
 74
     0
 42
0.000000001
 43
0.00000001
 40
0.0
 40
0.0
 40
0.0
 40
0.0
 40
0.0151166068440625
 40
0.1874788898697184
 40
0.3499871139553252
 40
0.5124926542232784
 40
0.6749961931541533
 40
0.837498413888136
 40
0.9999999999999999
 40
0.9999999999999999
 40
0.9999999999999999
 40
0.9999999999999999
 10
29.9236087931739
 20
-7.153741098406623
 30
0.0
 10
29.83329120491128
 20
-7.171183507344408
 30
0.0
 10
28.71315615358287
 20
-7.387507415086595
 30
0.0
 10
26.62204447149543
 20
-7.563442741538581
 30
0.0
 10
23.65050386413227
 20
-7.659521509189142
 30
0.0
 10
20.73782272567197
 20
-7.492604441109081
 30
0.0
 10
17.82519489434883
 20
-7.095749086038921
 30
0.0
 10
14.91259045145588
 20
-6.489152804199992
 30
0.0
 10
12.97086221997311
 20
-5.919243567135638
 30
0.0
 10
11.9999999999998
 20
-5.634289505023109
 30
0.0
  0
SPLINE
  5
C0
330
1F
100
AcDbEntity
  8
외형선
  6
Continuous
370
    15
100
AcDbSpline
210
0.0
220
0.0
230
1.0
 70
    24
 71
     3
 72
    14
 73
    10
 74
     0
 42
0.000000001
 43
0.00000001
 40
0.0
 40
0.0
 40
0.0
 40
0.0
 40
0.25
 40
0.25
 40
0.5
 40
0.5
 40
0.75
 40
0.75
 40
1.0
 40
1.0
 40
1.0
 40
1.0
 10
12.00000000000001
 20
4.48894459148268
 30
0.0
 10
12.00000000000001
 20
3.758418450458947
 30
0.0
 10
12.00000000000001
 20
2.952678892958839
 30
0.0
 10
12.00000000000001
 20
1.249501833391789
 30
0.0
 10
12.00000000000001
 20
0.3527139999457493
 30
0.0
 10
12.00000000000001
 20
-1.446476563080002
 30
0.0
 10
12.00000000000001
 20
-2.347920608706777
 30
0.0
 10
12.00000000000001
 20
-4.068839341134678
 30
0.0
 10
12.00000000000001
 20
-4.887639440178068
 30
0.0
 10
12.00000000000001
 20
-5.63428950502317
 30
0.0
  0
SPLINE
  5
C1
330
1F
100
AcDbEntity
  8
외형선
  6
Continuous
370
    15
100
AcDbSpline
210
0.0
220
0.0
230
1.0
 70
    24
 71
     3
 72
    14
 73
    10
 74
     0
 42
0.000000001
 43
0.00000001
 40
0.0
 40
0.0
 40
0.0
 40
0.0
 40
0.1811475645367151
 40
0.3646511127103083
 40
0.4981662867911726
 40
0.6316814608720367
 40
0.7690755396329637
 40
0.9064696183938907
 40
1.0
 40
1.0
 40
1.0
 40
1.0
 10
12.00000000000001
 20
-5.634289505023171
 30
0.0
 10
12.00000000000001
 20
-5.853673162560886
 30
0.0
 10
12.0
 20
-6.295293755342142
 30
0.0
 10
12.00000000000001
 20
-6.764463638704792
 30
0.0
 10
12.0
 20
-7.10503462456584
 30
0.0
 10
12.0
 20
-7.341952339942936
 30
0.0
 10
12.0
 20
-7.501286601031953
 30
0.0
 10
12.0
 20
-7.600583159684392
 30
0.0
 10
12.0
 20
-7.58111981033044
 30
0.0
 10
12.0
 20
-7.573236650229017
 30
0.0
  0
LINE
  5
C2
330
1F
100
AcDbEntity
  8
0
  6
Continuous
 62
     1
370
    15
100
AcDbLine
 10
50.10000000000001
 20
0.0000000000000016
 30
0.0
 11
50.10000000000001
 21
6.667500000000002
 31
0.0
  0
SPLINE
  5
C3
330
1F
100
AcDbEntity
  8
0
  6
Continuous
 62
     1
370
    15
100
AcDbSpline
210
0.0
220
0.0
230
1.0
 70
     8
 71
     3
 72
    12
 73
     8
 74
     0
 42
0.000000001
 43
0.00000001
 40
0.0
 40
0.0
 40
0.0
 40
0.0
 40
0.1449035389125746
 40
0.3586458218106092
 40
0.5724054702085993
 40
0.7861882747874365
 40
1.0
 40
1.0
 40
1.0
 40
1.0
 10
37.02907522186098
 20
6.383964198599374
 30
0.0
 10
37.66039335821564
 20
6.653719851378675
 30
0.0
 10
39.22294740993878
 20
7.321382894704765
 30
0.0
 10
41.7168436330265
 20
8.15964994570782
 30
0.0
 10
44.51088202718415
 20
8.886368352833596
 30
0.0
 10
47.30527779083299
 20
9.37135554731501
 30
0.0
 10
49.16838392614653
 20
9.468416070896057
 30
0.0
 10
50.10000000000001
 20
9.525000000000007
 30
0.0
  0
LINE
  5
C4
330
1F
100
AcDbEntity
  8
0
  6
Continuous
 62
     1
370
    15
100
AcDbLine
 10
50.10000000000001
 20
6.667500000000002
 30
0.0
 11
50.09999999999999
 21
9.52500000000001
 31
0.0
  0
LINE
  5
C5
330
1F
100
AcDbEntity
  8
0
  6
Continuous
 62
     1
370
    15
100
AcDbLine
 10
14.53987709527092
 20
-7.484868564841742
 30
0.0
 11
11.99999999999725
 21
-8.307046076397564
 31
0.0
  0
SPLINE
  5
C6
330
1F
100
AcDbEntity
  8
외형선
  6
Continuous
370
    15
100
AcDbSpline
210
0.0
220
0.0
230
1.0
 70
    24
 71
     3
 72
    10
 73
     6
 74
     0
 42
0.000000001
 43
0.00000001
 40
0.0
 40
0.0
 40
0.0
 40
0.0
 40
0.1254615208335447
 40
0.7743418501032675
 40
1.0
 40
1.0
 40
1.0
 40
1.0
 10
12.00000000000001
 20
-7.6552369604416
 30
0.0
 10
12.00000000000001
 20
-7.684814513346446
 30
0.0
 10
12.00000000000001
 20
-7.867365600609697
 30
0.0
 10
12.0
 20
-8.081219349077623
 30
0.0
 10
12.00000000000001
 20
-8.26072740921814
 30
0.0
 10
12.00000000000001
 20
-8.307046076386985
 30
0.0
  0
LINE
  5
C7
330
1F
100
AcDbEntity
  8
중심선
100
AcDbLine
 10
-54.49999999999998
 20
-0.0000000000000067
 30
0.0
 11
53.10000000000002
 21
0.0000000000000065
 31
0.0
  0
LINE
  5
C8
330
1F
100
AcDbEntity
  8
참조1
100
AcDbLine
 10
-6.73768467149223
 20
0.0010749287238892
 30
0.0
 11
-6.737684671492225
 21
-39.99892507127611
 31
0.0
  0
LINE
  5
C9
330
1F
100
AcDbEntity
  8
참조1
100
AcDbLine
 10
-6.737684671492225
 20
-39.99892507127611
 30
0.0
 11
-15.54395731641845
 21
-39.9989250712761
 31
0.0
  0
CIRCLE
  5
CA
330
1F
100
AcDbEntity
  8
해칭선
100
AcDbCircle
 10
0.0
 20
0.0
 30
0.0
 40
3.000000000000002
  0
INSERT
  5
CB
330
1F
100
AcDbEntity
  8
0
  6
Continuous
 62
     7
100
AcDbBlockReference
 66
     1
  2
블럭10
 10
-14.64027293212519
 20
-52.04717430164393
 30
0.0
  0
ATTRIB
  5
CC
330
CB
100
AcDbEntity
  8
FORMAT
 62
     2
100
AcDbText
 10
-24.78190894426182
 20
-49.97180738881175
 30
0.0
 40
4.233333333333333
  1
EM154048 [ 2 FLUTE ]
 41
0.75
  7
SLDTEXTSTYLE0
 11
-24.78190894426182
 21
-52.08847405547841
 31
0.0
100
AcDbAttribute
  2
AUTOATTR0
 70
     0
 74
     1
  0
SEQEND
  5
CD
330
CB
100
AcDbEntity
  8
0
  6
Continuous
 62
     7
  0
HATCH
  5
CE
330
1F
100
AcDbEntity
  8
중심선
100
AcDbHatch
 10
0.0
 20
0.0
 30
0.0
210
0.0
220
0.0
230
1.0
  2
SOLID
 70
     1
 71
     0
 91
        1
 92
        0
 93
        4
 72
     1
 10
-8.925363627744343
 20
-35.8
 11
-12.37163887158162
 21
-35.8
 72
     1
 10
-12.37163887158162
 20
-35.8
 11
-14.49986873078565
 21
-38.33632558057257
 72
     1
 10
-14.49986873078565
 20
-38.33632558057257
 11
-11.05356040183522
 21
-38.33628615127008
 72
     1
 10
-11.05356040183522
 20
-38.33628615127008
 11
-8.925363627744343
 21
-35.8
 97
        0
 75
     0
 76
     1
 98
        1
 10
6.037684671492244
 20
-0.0010749287238963
  0
HATCH
  5
CF
330
1F
100
AcDbEntity
  8
중심선
100
AcDbHatch
 10
0.0
 20
0.0
 30
0.0
210
0.0
220
0.0
230
1.0
  2
SOLID
 70
     1
 71
     0
 91
        1
 92
        0
 93
        4
 72
     1
 10
-3.912599636708364
 20
-35.80000000000003
 11
-7.358874880545645
 21
-35.79999999999998
 72
     1
 10
-7.358874880545645
 20
-35.79999999999998
 11
-11.89001288890306
 21
-41.20000000000002
 72
     1
 10
-11.89001288890306
 20
-41.20000000000002
 11
-8.44373764506578
 21
-41.20000000000002
 72
     1
 10
-8.44373764506578
 20
-41.20000000000002
 11
-3.912599636708364
 21
-35.80000000000003
 97
        0
 75
     0
 76
     1
 98
        1
 10
6.037684671492244
 20
-0.0010749287238963
  0
HATCH
  5
D0
330
1F
100
AcDbEntity
  8
중심선
100
AcDbHatch
 10
0.0
 20
0.0
 30
0.0
210
0.0
220
0.0
230
1.0
  2
SOLID
 70
     1
 71
     0
 91
        1
 92
        0
 93
        4
 72
     1
 10
1.100164354327504
 20
-35.8
 11
-2.346110889509584
 21
-35.8
 72
     1
 10
-2.346110889509584
 20
-35.8
 11
-9.39454779139886
 21
-44.20000000000002
 72
     1
 10
-9.39454779139886
 20
-44.20000000000002
 11
-5.948272547561579
 21
-44.20000000000002
 72
     1
 10
-5.948272547561579
 20
-44.20000000000002
 11
1.100164354327504
 21
-35.8
 97
        0
 75
     0
 76
     1
 98
        1
 10
6.037684671492244
 20
-0.0010749287238963
  0
HATCH
  5
D1
330
1F
100
AcDbEntity
  8
중심선
100
AcDbHatch
 10
0.0
 20
0.0
 30
0.0
210
0.0
220
0.0
230
1.0
  2
SOLID
 70
     1
 71
     0
 91
        1
 92
        0
 93
        6
 72
     3
 10
5.900054785339703
 20
-40.00000000005127
 11
3.960054785062283
 21
1.540882976769353E-10
 40
0.3939339440162628
 50
17.09539180608437
 51
320.0019657685075
 73
     0
 72
     1
 10
7.583054441040298
 20
-38.58789400463827
 11
9.888356314741364
 21
-36.65356729459035
 72
     3
 10
5.900054785286857
 20
-40.00000000000015
 11
6.600054785286829
 21
-1.278976924368180E-13
 40
0.636358354079598
 50
39.99873849337413
 51
368.4976242363725
 73
     1
 72
     1
 10
12.32538727718747
 20
-39.03999999993002
 11
4.58012209212278
 21
-39.03999999993002
 72
     1
 10
4.580122092122779
 20
-39.03999999993002
 11
4.580097047676845
 21
-40.95999999992991
 72
     1
 10
4.580097047676845
 20
-40.95999999992991
 11
9.021476817148882
 21
-40.95999999992988
 97
        0
 75
     0
 76
     1
 98
        1
 10
6.037684671492244
 20
-0.0010749287238963
  0
DIMENSION
  5
D2
330
1F
100
AcDbEntity
  8
치수문자_일반주서
100
AcDbDimension
  2
_D
 10
-63.92999999999994
 20
-9.525000000000059
 30
0.0
 11
-63.92999999999998
 21
0.0000000000000012
 31
0.0
 70
   160
  1
%%c<>
 71
     2
 42
19.05000000000001
 52
-270.0
  3
SLDDIMSTYLE0
100
AcDbAlignedDimension
 13
-50.49999999999999
 23
9.525000000000002
 33
0.0
 14
-50.49999999999999
 24
-9.52500000000001
 34
0.0
 50
90.0000000000002
100
AcDbRotatedDimension
1001
ACAD
1000
DSTYLE
1002
{
1070
   171
1070
     6
1070
   273
1070
     7
1002
}
  0
DIMENSION
  5
E7
330
1F
100
AcDbEntity
  8
치수문자_일반주서
100
AcDbDimension
  2
_D_1
 10
61.6143177695679
 20
-9.524999999999949
 30
0.0
 11
61.61431776956771
 21
46.29194175370553
 31
0.0
 70
   160
  1
%%c<>
 71
     2
 42
19.05
 52
-270.0
  3
SLDDIMSTYLE0
100
AcDbAlignedDimension
 13
50.10000000000001
 23
9.525000000000007
 33
0.0
 14
50.10000000000004
 24
-9.524999999999993
 34
0.0
 50
90.0000000000002
100
AcDbRotatedDimension
1001
ACAD
1000
DSTYLE
1002
{
1070
   171
1070
     6
1070
   273
1070
     7
1002
}
  0
DIMENSION
  5
FB
330
1F
100
AcDbEntity
  8
치수문자_일반주서
100
AcDbDimension
  2
_D_2
 10
12.00000000000001
 20
29.699375
 30
0.0
 11
-7.728999999999992
 21
29.699375
 31
0.0
 70
   160
  1
<>
 71
     2
 42
38.1
  3
SLDDIMSTYLE0
100
AcDbAlignedDimension
 13
50.10000000000001
 23
9.525000000000007
 33
0.0
 14
12.00000000000001
 24
8.30704607639678
 34
0.0
 50
0.0000000000000053
100
AcDbRotatedDimension
1001
ACAD
1000
DSTYLE
1002
{
1070
   171
1070
     6
1070
   273
1070
     7
1002
}
  0
DIMENSION
  5
110
330
1F
100
AcDbEntity
  8
치수문자_일반주서
100
AcDbDimension
  2
_D_3
 10
-51.49999999999999
 20
44.52342844013393
 30
0.0
 11
-0.6999999999999869
 21
44.52342844013393
 31
0.0
 70
   160
  1
<>
 71
     2
 42
101.6
  3
SLDDIMSTYLE0
100
AcDbAlignedDimension
 13
50.09999999999999
 23
9.52500000000001
 33
0.0
 14
-51.49999999999999
 24
8.524999999999988
 34
0.0
100
AcDbRotatedDimension
1001
ACAD
1000
DSTYLE
1002
{
1070
   171
1070
     6
1070
   273
1070
     7
1002
}
  0
LINE
  5
123
330
1F
100
AcDbEntity
  8
참조1
100
AcDbLine
 10
82.42838331323583
 20
7.441074928723896
 30
0.0
 11
82.42838331323583
 21
-7.438925071276109
 31
0.0
  0
LINE
  5
124
330
1F
100
AcDbEntity
  8
참조1
100
AcDbLine
 10
95.12838331323583
 20
5.441074928723896
 30
0.0
 11
82.42838331323583
 21
5.441074928723896
 31
0.0
  0
SOLID
  5
125
330
1F
100
AcDbEntity
  8
참조1
100
AcDbTrace
 10
82.42838331323583
 20
5.441074928723896
 30
0.0
 11
88.77838331323582
 21
4.425074928723896
 31
0.0
 12
88.77838331323582
 22
6.457074928723896
 32
0.0
 13
88.77838331323582
 23
6.457074928723896
 33
0.0
  0
LINE
  5
126
330
1F
100
AcDbEntity
  8
참조1
100
AcDbLine
 10
95.12838331323583
 20
-5.438925071276109
 30
0.0
 11
82.42838331323583
 21
-5.438925071276109
 31
0.0
  0
SOLID
  5
127
330
1F
100
AcDbEntity
  8
참조1
100
AcDbTrace
 10
82.42838331323583
 20
-5.438925071276109
 30
0.0
 11
88.77838331323582
 21
-6.454925071276109
 31
0.0
 12
88.77838331323582
 22
-4.422925071276109
 32
0.0
 13
88.77838331323582
 23
-4.422925071276109
 33
0.0
  0
MTEXT
  5
128
330
1F
100
AcDbEntity
  8
참조1
100
AcDbMText
 10
91.82587340570609
 20
10.98929157337383
 30
0.0
 40
3.5
 41
0.0
 71
     1
 72
     1
  1
A
  7
SLDTEXTSTYLE0
 73
     1
 44
1.0
  0
MTEXT
  5
129
330
1F
100
AcDbEntity
  8
참조1
100
AcDbMText
 10
91.82587340570609
 20
0.1092915733738259
 30
0.0
 40
3.5
 41
0.0
 71
     1
 72
     1
  1
A
  7
SLDTEXTSTYLE0
 73
     1
 44
1.0
  0
INSERT
  5
130
330
1F
100
AcDbEntity
  8
해칭선
100
AcDbBlockReference
  2
SW_DOWELSYMBOL_0
 10
0.0
 20
0.0
 30
0.0
  0
ENDSEC
  0
SECTION
  2
OBJECTS
  0
DICTIONARY
  5
C
330
0
100
AcDbDictionary
281
     1
  3
ACAD_GROUP
350
D
  3
ACAD_IMAGE_VARS
350
154
  3
ACAD_LAYOUT
350
1A
  3
ACAD_MLINESTYLE
350
17
  3
ACAD_PLOTSETTINGS
350
19
  3
ACAD_PLOTSTYLENAME
350
E
  3
ACAD_SCALELIST
350
47
  3
APPDATA
350
152
  3
DWGPROPS
350
189
  0
DICTIONARY
  5
17B
330
2
100
AcDbDictionary
280
     1
281
     1
  3
ACAD_LAYERSTATES
360
17C
  0
DICTIONARY
  5
D
102
{ACAD_REACTORS
330
C
102
}
330
C
100
AcDbDictionary
281
     1
  0
RASTERVARIABLES
  5
154
102
{ACAD_REACTORS
330
C
102
}
330
C
100
AcDbRasterVariables
 90
        0
 70
     1
 71
     1
 72
     1
  0
DICTIONARY
  5
1A
102
{ACAD_REACTORS
330
C
102
}
330
C
100
AcDbDictionary
281
     1
  3
Layout1
350
1E
  3
Layout2
350
26
  3
Model
350
22
  0
DICTIONARY
  5
17
102
{ACAD_REACTORS
330
C
102
}
330
C
100
AcDbDictionary
281
     1
  3
Standard
350
18
  0
DICTIONARY
  5
19
102
{ACAD_REACTORS
330
C
102
}
330
C
100
AcDbDictionary
281
     1
  0
ACDBDICTIONARYWDFLT
  5
E
102
{ACAD_REACTORS
330
C
102
}
330
C
100
AcDbDictionary
281
     1
  3
Normal
350
F
100
AcDbDictionaryWithDefault
340
F
  0
DICTIONARY
  5
47
102
{ACAD_REACTORS
330
C
102
}
330
C
100
AcDbDictionary
281
     1
  3
A0
350
48
  3
A1
350
49
  3
A2
350
4A
  3
A3
350
4B
  3
A4
350
4C
  3
A5
350
4D
  3
A6
350
4E
  3
A7
350
4F
  3
A8
350
50
  3
A9
350
51
  3
B0
350
52
  3
B1
350
53
  3
B2
350
54
  3
B3
350
55
  3
B4
350
56
  3
B5
350
57
  3
B6
350
58
  3
B7
350
59
  3
B8
350
5A
  3
B9
350
5B
  3
C0
350
5C
  3
C1
350
5D
  3
C2
350
5E
  3
C3
350
5F
  3
C4
350
60
  3
C5
350
61
  3
C6
350
62
  3
C7
350
63
  3
C8
350
64
  3
C9
350
65
  3
D0
350
66
  3
D1
350
67
  3
D2
350
68
  0
DICTIONARY
  5
152
102
{ACAD_REACTORS
330
C
102
}
330
C
100
AcDbDictionary
281
     1
  0
XRECORD
  5
189
102
{ACAD_REACTORS
330
C
102
}
330
C
100
AcDbXrecord
280
     1
  1
DWGPROPS COOKIE
  2

  3

  4

  6

  7

  8
12017012
  9

300
=
301
=
302
=
303
=
304
=
305
=
306
=
307
=
308
=
309
=
 40
0.0
 41
2458288.371454687
 42
2458294.328459907
  1

 90
        0
  0
DICTIONARY
  5
17C
102
{ACAD_REACTORS
330
17B
102
}
330
17B
100
AcDbDictionary
281
     1
  0
LAYOUT
  5
1E
102
{ACAD_REACTORS
330
1A
102
}
330
1A
100
AcDbPlotSettings
  1

  2
none_device
  4

  6

 40
0.0
 41
0.0
 42
0.0
 43
0.0
 44
0.0
 45
0.0
 46
0.0
 47
0.0
 48
0.0
 49
0.0
140
0.0
141
0.0
142
1.0
143
1.0
 70
   688
 72
     1
 73
     0
 74
     5
  7

 75
    16
147
1.0
148
0.0
149
0.0
100
AcDbLayout
  1
Layout1
 70
     1
 71
     1
 10
0.0
 20
0.0
 11
420.0
 21
297.0
 12
0.0
 22
0.0
 32
0.0
 14
1.000000000000000E+20
 24
1.000000000000000E+20
 34
1.000000000000000E+20
 15
-1.000000000000000E+20
 25
-1.000000000000000E+20
 35
-1.000000000000000E+20
146
0.0
 13
0.0
 23
0.0
 33
0.0
 16
1.0
 26
0.0
 36
0.0
 17
0.0
 27
1.0
 37
0.0
 76
     0
330
1B
  0
LAYOUT
  5
26
102
{ACAD_REACTORS
330
1A
102
}
330
1A
100
AcDbPlotSettings
  1

  2
none_device
  4

  6

 40
0.0
 41
0.0
 42
0.0
 43
0.0
 44
0.0
 45
0.0
 46
0.0
 47
0.0
 48
0.0
 49
0.0
140
0.0
141
0.0
142
1.0
143
1.0
 70
   688
 72
     1
 73
     0
 74
     5
  7

 75
    16
147
1.0
148
0.0
149
0.0
100
AcDbLayout
  1
Layout2
 70
     1
 71
     2
 10
0.0
 20
0.0
 11
0.0
 21
0.0
 12
0.0
 22
0.0
 32
0.0
 14
0.0
 24
0.0
 34
0.0
 15
0.0
 25
0.0
 35
0.0
146
0.0
 13
0.0
 23
0.0
 33
0.0
 16
1.0
 26
0.0
 36
0.0
 17
0.0
 27
1.0
 37
0.0
 76
     0
330
23
  0
LAYOUT
  5
22
102
{ACAD_REACTORS
330
1A
102
}
330
1A
100
AcDbPlotSettings
  1

  2
none_device
  4
ANSI_A_(11.00_x_8.50_Inches)
  6

 40
6.35
 41
19.05
 42
6.35000508
 43
19.05000254
 44
279.4
 45
215.9
 46
96.71020781905402
 47
86.00301604318761
 48
0.0
 49
0.0
140
0.0
141
0.0
142
0.0495599371803182
143
1.0
 70
  1696
 72
     0
 73
     0
 74
     0
  7

 75
     0
147
0.0235690232323232
148
0.0
149
0.0
100
AcDbLayout
  1
Model
 70
     1
 71
     0
 10
0.0
 20
0.0
 11
420.0
 21
297.0
 12
0.0
 22
0.0
 32
0.0
 14
1.000000000000000E+20
 24
1.000000000000000E+20
 34
1.000000000000000E+20
 15
-1.000000000000000E+20
 25
-1.000000000000000E+20
 35
-1.000000000000000E+20
146
0.0
 13
0.0
 23
0.0
 33
0.0
 16
1.0
 26
0.0
 36
0.0
 17
0.0
 27
1.0
 37
0.0
 76
     0
330
1F
331
29
  0
MLINESTYLE
  5
18
102
{ACAD_REACTORS
330
17
102
}
330
17
100
AcDbMlineStyle
  2
Standard
 70
     0
  3

 62
   256
 51
90.0
 52
90.0
 71
     2
 49
0.5
 62
   256
  6
BYLAYER
 49
-0.5
 62
   256
  6
BYLAYER
  0
ACDBPLACEHOLDER
  5
F
102
{ACAD_REACTORS
330
E
102
}
330
E
  0
SCALE
  5
48
102
{ACAD_REACTORS
330
47
102
}
330
47
100
AcDbScale
 70
     0
300
1:1
140
1.0
141
1.0
290
     1
  0
SCALE
  5
49
102
{ACAD_REACTORS
330
47
102
}
330
47
100
AcDbScale
 70
     0
300
1:2
140
1.0
141
2.0
290
     0
  0
SCALE
  5
4A
102
{ACAD_REACTORS
330
47
102
}
330
47
100
AcDbScale
 70
     0
300
1:4
140
1.0
141
4.0
290
     0
  0
SCALE
  5
4B
102
{ACAD_REACTORS
330
47
102
}
330
47
100
AcDbScale
 70
     0
300
1:5
140
1.0
141
5.0
290
     0
  0
SCALE
  5
4C
102
{ACAD_REACTORS
330
47
102
}
330
47
100
AcDbScale
 70
     0
300
1:8
140
1.0
141
8.0
290
     0
  0
SCALE
  5
4D
102
{ACAD_REACTORS
330
47
102
}
330
47
100
AcDbScale
 70
     0
300
1:10
140
1.0
141
10.0
290
     0
  0
SCALE
  5
4E
102
{ACAD_REACTORS
330
47
102
}
330
47
100
AcDbScale
 70
     0
300
1:16
140
1.0
141
16.0
290
     0
  0
SCALE
  5
4F
102
{ACAD_REACTORS
330
47
102
}
330
47
100
AcDbScale
 70
     0
300
1:20
140
1.0
141
20.0
290
     0
  0
SCALE
  5
50
102
{ACAD_REACTORS
330
47
102
}
330
47
100
AcDbScale
 70
     0
300
1:30
140
1.0
141
30.0
290
     0
  0
SCALE
  5
51
102
{ACAD_REACTORS
330
47
102
}
330
47
100
AcDbScale
 70
     0
300
1:40
140
1.0
141
40.0
290
     0
  0
SCALE
  5
52
102
{ACAD_REACTORS
330
47
102
}
330
47
100
AcDbScale
 70
     0
300
1:50
140
1.0
141
50.0
290
     0
  0
SCALE
  5
53
102
{ACAD_REACTORS
330
47
102
}
330
47
100
AcDbScale
 70
     0
300
1:100
140
1.0
141
100.0
290
     0
  0
SCALE
  5
54
102
{ACAD_REACTORS
330
47
102
}
330
47
100
AcDbScale
 70
     0
300
2:1
140
2.0
141
1.0
290
     0
  0
SCALE
  5
55
102
{ACAD_REACTORS
330
47
102
}
330
47
100
AcDbScale
 70
     0
300
4:1
140
4.0
141
1.0
290
     0
  0
SCALE
  5
56
102
{ACAD_REACTORS
330
47
102
}
330
47
100
AcDbScale
 70
     0
300
8:1
140
8.0
141
1.0
290
     0
  0
SCALE
  5
57
102
{ACAD_REACTORS
330
47
102
}
330
47
100
AcDbScale
 70
     0
300
10:1
140
10.0
141
1.0
290
     0
  0
SCALE
  5
58
102
{ACAD_REACTORS
330
47
102
}
330
47
100
AcDbScale
 70
     0
300
100:1
140
100.0
141
1.0
290
     0
  0
SCALE
  5
59
102
{ACAD_REACTORS
330
47
102
}
330
47
100
AcDbScale
 70
     0
300
1/128" = 1'-0"
140
0.0078125
141
12.0
290
     0
  0
SCALE
  5
5A
102
{ACAD_REACTORS
330
47
102
}
330
47
100
AcDbScale
 70
     0
300
1/64" = 1'-0"
140
0.015625
141
12.0
290
     0
  0
SCALE
  5
5B
102
{ACAD_REACTORS
330
47
102
}
330
47
100
AcDbScale
 70
     0
300
1/32" = 1'-0"
140
0.03125
141
12.0
290
     0
  0
SCALE
  5
5C
102
{ACAD_REACTORS
330
47
102
}
330
47
100
AcDbScale
 70
     0
300
1/16" = 1'-0"
140
0.0625
141
12.0
290
     0
  0
SCALE
  5
5D
102
{ACAD_REACTORS
330
47
102
}
330
47
100
AcDbScale
 70
     0
300
3/32" = 1'-0"
140
0.09375
141
12.0
290
     0
  0
SCALE
  5
5E
102
{ACAD_REACTORS
330
47
102
}
330
47
100
AcDbScale
 70
     0
300
1/8" = 1'-0"
140
0.125
141
12.0
290
     0
  0
SCALE
  5
5F
102
{ACAD_REACTORS
330
47
102
}
330
47
100
AcDbScale
 70
     0
300
3/16" = 1'-0"
140
0.1875
141
12.0
290
     0
  0
SCALE
  5
60
102
{ACAD_REACTORS
330
47
102
}
330
47
100
AcDbScale
 70
     0
300
1/4" = 1'-0"
140
0.25
141
12.0
290
     0
  0
SCALE
  5
61
102
{ACAD_REACTORS
330
47
102
}
330
47
100
AcDbScale
 70
     0
300
3/8" = 1'-0"
140
0.375
141
12.0
290
     0
  0
SCALE
  5
62
102
{ACAD_REACTORS
330
47
102
}
330
47
100
AcDbScale
 70
     0
300
1/2" = 1'-0"
140
0.5
141
12.0
290
     0
  0
SCALE
  5
63
102
{ACAD_REACTORS
330
47
102
}
330
47
100
AcDbScale
 70
     0
300
3/4" = 1'-0"
140
0.75
141
12.0
290
     0
  0
SCALE
  5
64
102
{ACAD_REACTORS
330
47
102
}
330
47
100
AcDbScale
 70
     0
300
1" = 1'-0"
140
1.0
141
12.0
290
     0
  0
SCALE
  5
65
102
{ACAD_REACTORS
330
47
102
}
330
47
100
AcDbScale
 70
     0
300
1-1/2" = 1'-0"
140
1.5
141
12.0
290
     0
  0
SCALE
  5
66
102
{ACAD_REACTORS
330
47
102
}
330
47
100
AcDbScale
 70
     0
300
3" = 1'-0"
140
3.0
141
12.0
290
     0
  0
SCALE
  5
67
102
{ACAD_REACTORS
330
47
102
}
330
47
100
AcDbScale
 70
     0
300
6" = 1'-0"
140
6.0
141
12.0
290
     0
  0
SCALE
  5
68
102
{ACAD_REACTORS
330
47
102
}
330
47
100
AcDbScale
 70
     0
300
1'-0" = 1'-0"
140
12.0
141
12.0
290
     0
  0
ENDSEC
  0
EOF
