  0
SECTION
  2
HEADER
  9
$ACADVER
  1
AC1015
  9
$ACADMAINTVER
 70
     6
  9
$DWGCODEPAGE
  3
ANSI_949
  9
$INSBASE
 10
0.0
 20
0.0
 30
0.0
  9
$EXTMIN
 10
-48.8250000000001
 20
-50.28867796974447
 30
0.0
  9
$EXTMAX
 10
86.47629082238856
 20
40.39198679301992
 30
0.0
  9
$LIMMIN
 10
0.0
 20
0.0
  9
$LIMMAX
 10
420.0
 20
297.0
  9
$ORTHOMODE
 70
     0
  9
$REGENMODE
 70
     1
  9
$FILLMODE
 70
     1
  9
$QTEXTMODE
 70
     0
  9
$MIRRTEXT
 70
     1
  9
$LTSCALE
 40
1.0
  9
$ATTMODE
 70
     1
  9
$TEXTSIZE
 40
3.5
  9
$TRACEWID
 40
1.0
  9
$TEXTSTYLE
  7
Standard
  9
$CLAYER
  8
0
  9
$CELTYPE
  6
ByLayer
  9
$CECOLOR
 62
   256
  9
$CELTSCALE
 40
1.0
  9
$DISPSILH
 70
     0
  9
$DIMSCALE
 40
1.0
  9
$DIMASZ
 40
3.302
  9
$DIMEXO
 40
1.0
  9
$DIMDLI
 40
3.75
  9
$DIMRND
 40
0.0
  9
$DIMDLE
 40
0.0
  9
$DIMEXE
 40
1.0
  9
$DIMTP
 40
0.0
  9
$DIMTM
 40
0.0
  9
$DIMTXT
 40
3.5
  9
$DIMCEN
 40
2.5
  9
$DIMTSZ
 40
0.0
  9
$DIMTOL
 70
     0
  9
$DIMLIM
 70
     0
  9
$DIMTIH
 70
     1
  9
$DIMTOH
 70
     1
  9
$DIMSE1
 70
     0
  9
$DIMSE2
 70
     0
  9
$DIMTAD
 70
     1
  9
$DIMZIN
 70
     0
  9
$DIMBLK
  1

  9
$DIMASO
 70
     1
  9
$DIMSHO
 70
     1
  9
$DIMPOST
  1

  9
$DIMAPOST
  1

  9
$DIMALT
 70
     0
  9
$DIMALTD
 70
     3
  9
$DIMALTF
 40
0.0393700787401575
  9
$DIMLFAC
 40
1.0
  9
$DIMTOFL
 70
     1
  9
$DIMTVP
 40
0.0
  9
$DIMTIX
 70
     0
  9
$DIMSOXD
 70
     0
  9
$DIMSAH
 70
     0
  9
$DIMBLK1
  1

  9
$DIMBLK2
  1

  9
$DIMSTYLE
  2
ISO-25
  9
$DIMCLRD
 70
     0
  9
$DIMCLRE
 70
     0
  9
$DIMCLRT
 70
     0
  9
$DIMTFAC
 40
1.0
  9
$DIMGAP
 40
1.524
  9
$DIMJUST
 70
     0
  9
$DIMSD1
 70
     0
  9
$DIMSD2
 70
     0
  9
$DIMTOLJ
 70
     0
  9
$DIMTZIN
 70
     0
  9
$DIMALTZ
 70
     0
  9
$DIMALTTZ
 70
     0
  9
$DIMUPT
 70
     0
  9
$DIMDEC
 70
     2
  9
$DIMTDEC
 70
     2
  9
$DIMALTU
 70
     2
  9
$DIMALTTD
 70
     3
  9
$DIMTXSTY
  7
Standard
  9
$DIMAUNIT
 70
     0
  9
$DIMADEC
 70
     2
  9
$DIMALTRND
 40
0.0
  9
$DIMAZIN
 70
     0
  9
$DIMDSEP
 70
    44
  9
$DIMATFIT
 70
     3
  9
$DIMFRAC
 70
     0
  9
$DIMLDRBLK
  1

  9
$DIMLUNIT
 70
     2
  9
$DIMLWD
 70
    -2
  9
$DIMLWE
 70
    -2
  9
$DIMTMOVE
 70
     0
  9
$LUNITS
 70
     2
  9
$LUPREC
 70
     2
  9
$SKETCHINC
 40
1.0
  9
$FILLETRAD
 40
10.0
  9
$AUNITS
 70
     0
  9
$AUPREC
 70
     2
  9
$MENU
  1
.
  9
$ELEVATION
 40
0.0
  9
$PELEVATION
 40
0.0
  9
$THICKNESS
 40
0.0
  9
$LIMCHECK
 70
     0
  9
$CHAMFERA
 40
0.0
  9
$CHAMFERB
 40
0.0
  9
$CHAMFERC
 40
0.0
  9
$CHAMFERD
 40
0.0
  9
$SKPOLY
 70
     0
  9
$TDCREATE
 40
2458299.350637789
  9
$TDUCREATE
 40
2458298.975637789
  9
$TDUPDATE
 40
2458302.719764815
  9
$TDUUPDATE
 40
2458302.344764815
  9
$TDINDWG
 40
0.0005465394
  9
$TDUSRTIMER
 40
2458302.344218472
  9
$USRTIMER
 70
     1
  9
$ANGBASE
 50
0.0
  9
$ANGDIR
 70
     0
  9
$PDMODE
 70
     0
  9
$PDSIZE
 40
-1.0
  9
$PLINEWID
 40
0.0
  9
$SPLFRAME
 70
     0
  9
$SPLINETYPE
 70
     6
  9
$SPLINESEGS
 70
     8
  9
$HANDSEED
  5
239
  9
$SURFTAB1
 70
     6
  9
$SURFTAB2
 70
     6
  9
$SURFTYPE
 70
     6
  9
$SURFU
 70
     6
  9
$SURFV
 70
     6
  9
$UCSBASE
  2

  9
$UCSNAME
  2

  9
$UCSORG
 10
0.0
 20
0.0
 30
0.0
  9
$UCSXDIR
 10
1.0
 20
0.0
 30
0.0
  9
$UCSYDIR
 10
0.0
 20
1.0
 30
0.0
  9
$UCSORTHOREF
  2

  9
$UCSORTHOVIEW
 70
     0
  9
$UCSORGTOP
 10
0.0
 20
0.0
 30
0.0
  9
$UCSORGBOTTOM
 10
0.0
 20
0.0
 30
0.0
  9
$UCSORGLEFT
 10
0.0
 20
0.0
 30
0.0
  9
$UCSORGRIGHT
 10
0.0
 20
0.0
 30
0.0
  9
$UCSORGFRONT
 10
0.0
 20
0.0
 30
0.0
  9
$UCSORGBACK
 10
0.0
 20
0.0
 30
0.0
  9
$PUCSBASE
  2

  9
$PUCSNAME
  2

  9
$PUCSORG
 10
0.0
 20
0.0
 30
0.0
  9
$PUCSXDIR
 10
1.0
 20
0.0
 30
0.0
  9
$PUCSYDIR
 10
0.0
 20
1.0
 30
0.0
  9
$PUCSORTHOREF
  2

  9
$PUCSORTHOVIEW
 70
     0
  9
$PUCSORGTOP
 10
0.0
 20
0.0
 30
0.0
  9
$PUCSORGBOTTOM
 10
0.0
 20
0.0
 30
0.0
  9
$PUCSORGLEFT
 10
0.0
 20
0.0
 30
0.0
  9
$PUCSORGRIGHT
 10
0.0
 20
0.0
 30
0.0
  9
$PUCSORGFRONT
 10
0.0
 20
0.0
 30
0.0
  9
$PUCSORGBACK
 10
0.0
 20
0.0
 30
0.0
  9
$USERI1
 70
     0
  9
$USERI2
 70
     0
  9
$USERI3
 70
     0
  9
$USERI4
 70
     0
  9
$USERI5
 70
     0
  9
$USERR1
 40
0.0
  9
$USERR2
 40
0.0
  9
$USERR3
 40
0.0
  9
$USERR4
 40
0.0
  9
$USERR5
 40
0.0
  9
$WORLDVIEW
 70
     1
  9
$SHADEDGE
 70
     3
  9
$SHADEDIF
 70
    70
  9
$TILEMODE
 70
     1
  9
$MAXACTVP
 70
    64
  9
$PINSBASE
 10
0.0
 20
0.0
 30
0.0
  9
$PLIMCHECK
 70
     0
  9
$PEXTMIN
 10
1.000000000000000E+20
 20
1.000000000000000E+20
 30
1.000000000000000E+20
  9
$PEXTMAX
 10
-1.000000000000000E+20
 20
-1.000000000000000E+20
 30
-1.000000000000000E+20
  9
$PLIMMIN
 10
0.0
 20
0.0
  9
$PLIMMAX
 10
0.0
 20
0.0
  9
$UNITMODE
 70
     0
  9
$VISRETAIN
 70
     1
  9
$PLINEGEN
 70
     0
  9
$PSLTSCALE
 70
     1
  9
$TREEDEPTH
 70
  3020
  9
$CMLSTYLE
  2
Standard
  9
$CMLJUST
 70
     0
  9
$CMLSCALE
 40
20.0
  9
$PROXYGRAPHICS
 70
     1
  9
$MEASUREMENT
 70
     1
  9
$CELWEIGHT
370
    -1
  9
$ENDCAPS
280
     0
  9
$JOINSTYLE
280
     0
  9
$LWDISPLAY
290
     1
  9
$INSUNITS
 70
     4
  9
$HYPERLINKBASE
  1

  9
$STYLESHEET
  1

  9
$XEDIT
290
     1
  9
$CEPSNTYPE
380
     0
  9
$PSTYLEMODE
290
     1
  9
$FINGERPRINTGUID
  2
{5ECD9612-3249-48A1-8BDD-92D69FADF097}
  9
$VERSIONGUID
  2
{FAEB1C32-E019-11D5-929B-00C0DF256EC4}
  9
$EXTNAMES
290
     1
  9
$PSVPSCALE
 40
0.0
  9
$OLESTARTUP
290
     0
  0
ENDSEC
  0
SECTION
  2
CLASSES
  0
CLASS
  1
ACDBDICTIONARYWDFLT
  2
AcDbDictionaryWithDefault
  3
ObjectDBX Classes
 90
        0
280
     0
281
     0
  0
CLASS
  1
VISUALSTYLE
  2
AcDbVisualStyle
  3
ObjectDBX Classes
 90
     4095
280
     0
281
     0
  0
CLASS
  1
MATERIAL
  2
AcDbMaterial
  3
ObjectDBX Classes
 90
     1153
280
     0
281
     0
  0
CLASS
  1
SCALE
  2
AcDbScale
  3
ObjectDBX Classes
 90
     1153
280
     0
281
     0
  0
CLASS
  1
SUN
  2
AcDbSun
  3
SCENEOE
 90
     1153
280
     0
281
     0
  0
CLASS
  1
ACDBPLACEHOLDER
  2
AcDbPlaceHolder
  3
ObjectDBX Classes
 90
        0
280
     0
281
     0
  0
CLASS
  1
LAYOUT
  2
AcDbLayout
  3
ObjectDBX Classes
 90
        0
280
     0
281
     0
  0
CLASS
  1
TABLESTYLE
  2
AcDbTableStyle
  3
ObjectDBX Classes
 90
     4095
280
     0
281
     0
  0
CLASS
  1
MLEADERSTYLE
  2
AcDbMLeaderStyle
  3
ACDB_MLEADERSTYLE_CLASS
 90
     4095
280
     0
281
     0
  0
CLASS
  1
RASTERVARIABLES
  2
AcDbRasterVariables
  3
ISM
 90
        0
280
     0
281
     0
  0
ENDSEC
  0
SECTION
  2
TABLES
  0
TABLE
  2
VPORT
  5
8
330
0
100
AcDbSymbolTable
 70
     1
  0
VPORT
  5
29
330
8
100
AcDbSymbolTableRecord
100
AcDbViewportTableRecord
  2
*Active
 70
     0
 10
0.0
 20
0.0
 11
1.0
 21
1.0
 12
-17.4306369848743
 22
3.679141164046628
 13
0.0
 23
0.0
 14
10.0
 24
10.0
 15
10.0
 25
10.0
 16
0.0
 26
0.0
 36
1.0
 17
0.0
 27
0.0
 37
0.0
 40
41.45132233047377
 41
1.595744680851064
 42
50.0
 43
0.0
 44
0.0
 50
0.0
 51
0.0
 71
    16
 72
  2000
 73
     1
 74
     3
 75
     0
 76
     0
 77
     0
 78
     0
281
     0
 65
     1
110
0.0
120
0.0
130
0.0
111
1.0
121
0.0
131
0.0
112
0.0
122
1.0
132
0.0
 79
     0
146
0.0
  0
ENDTAB
  0
TABLE
  2
LTYPE
  5
5
330
0
100
AcDbSymbolTable
 70
     6
  0
LTYPE
  5
14
330
5
100
AcDbSymbolTableRecord
100
AcDbLinetypeTableRecord
  2
ByBlock
 70
     0
  3

 72
    65
 73
     0
 40
0.0
  0
LTYPE
  5
15
330
5
100
AcDbSymbolTableRecord
100
AcDbLinetypeTableRecord
  2
ByLayer
 70
     0
  3

 72
    65
 73
     0
 40
0.0
  0
LTYPE
  5
16
330
5
100
AcDbSymbolTableRecord
100
AcDbLinetypeTableRecord
  2
Continuous
 70
     0
  3
Solid line
 72
    65
 73
     0
 40
0.0
  0
LTYPE
  5
6A
330
5
100
AcDbSymbolTableRecord
100
AcDbLinetypeTableRecord
  2
HIDDEN
 70
     0
  3
Hidden __ __ __ __ __ __ __ __ __ __ __ __ __ __
 72
    65
 73
     2
 40
1.905
 49
1.27
 74
     0
 49
-0.635
 74
     0
  0
LTYPE
  5
6B
330
5
100
AcDbSymbolTableRecord
100
AcDbLinetypeTableRecord
  2
PHANTOM
 70
     0
  3
Phantom ______  __  __  ______  __  __  ______
 72
    65
 73
     6
 40
12.7
 49
6.35
 74
     0
 49
-1.27
 74
     0
 49
1.27
 74
     0
 49
-1.27
 74
     0
 49
1.27
 74
     0
 49
-1.27
 74
     0
  0
LTYPE
  5
6C
330
5
100
AcDbSymbolTableRecord
100
AcDbLinetypeTableRecord
  2
CENTER
 70
     0
  3
Center ____ _ ____ _ ____ _ ____ _ ____ _ ____
 72
    65
 73
     4
 40
10.16
 49
6.35
 74
     0
 49
-1.27
 74
     0
 49
1.27
 74
     0
 49
-1.27
 74
     0
  0
LTYPE
  5
6D
330
5
100
AcDbSymbolTableRecord
100
AcDbLinetypeTableRecord
  2
CENTERX2
 70
     0
  3
Center (2x) ________  __  ________  __  _____
 72
    65
 73
     4
 40
20.32
 49
12.7
 74
     0
 49
-2.54
 74
     0
 49
2.54
 74
     0
 49
-2.54
 74
     0
  0
LTYPE
  5
6E
330
5
100
AcDbSymbolTableRecord
100
AcDbLinetypeTableRecord
  2
DOT2
 70
     0
  3
Dot (.5x) ........................................
 72
    65
 73
     2
 40
0.635
 49
0.0
 74
     0
 49
-0.635
 74
     0
  0
ENDTAB
  0
TABLE
  2
LAYER
  5
2
330
0
100
AcDbSymbolTable
 70
    18
  0
LAYER
  5
10
330
2
100
AcDbSymbolTableRecord
100
AcDbLayerTableRecord
  2
0
 70
     0
 62
     7
  6
Continuous
370
    -3
390
F
  0
LAYER
  5
6F
330
2
100
AcDbSymbolTableRecord
100
AcDbLayerTableRecord
  2
FORMAT
 70
     0
 62
     2
  6
Continuous
370
    -3
390
F
  0
LAYER
  5
70
330
2
100
AcDbSymbolTableRecord
100
AcDbLayerTableRecord
  2
외형선
 70
     0
 62
     4
  6
Continuous
370
    30
390
F
  0
LAYER
  5
71
330
2
100
AcDbSymbolTableRecord
100
AcDbLayerTableRecord
  2
숨은선
 70
     0
 62
     2
  6
HIDDEN
370
    15
390
F
  0
LAYER
  5
72
330
2
100
AcDbSymbolTableRecord
100
AcDbLayerTableRecord
  2
중심선
 70
     0
 62
     1
  6
CENTERX2
370
    -3
390
F
  0
LAYER
  5
73
330
2
100
AcDbSymbolTableRecord
100
AcDbLayerTableRecord
  2
파단선
 70
     0
 62
     4
  6
Continuous
370
    -3
390
F
  0
LAYER
  5
74
330
2
100
AcDbSymbolTableRecord
100
AcDbLayerTableRecord
  2
해칭선
 70
     0
 62
   100
  6
Continuous
370
    -3
390
F
  0
LAYER
  5
75
330
2
100
AcDbSymbolTableRecord
100
AcDbLayerTableRecord
  2
가는실선
 70
     0
 62
     4
  6
Continuous
370
    -3
390
F
  0
LAYER
  5
76
330
2
100
AcDbSymbolTableRecord
100
AcDbLayerTableRecord
  2
치수_보조선
 70
     0
 62
     4
  6
Continuous
370
    -3
390
F
  0
LAYER
  5
77
330
2
100
AcDbSymbolTableRecord
100
AcDbLayerTableRecord
  2
치수문자_일반주서
 70
     0
 62
     7
  6
Continuous
370
    15
390
F
  0
LAYER
  5
78
330
2
100
AcDbSymbolTableRecord
100
AcDbLayerTableRecord
  2
개별주서
 70
     0
 62
   100
  6
Continuous
370
    30
390
F
  0
LAYER
  5
79
330
2
100
AcDbSymbolTableRecord
100
AcDbLayerTableRecord
  2
중간선
 70
     0
 62
     2
  6
Continuous
370
    15
390
F
  0
LAYER
  5
7A
330
2
100
AcDbSymbolTableRecord
100
AcDbLayerTableRecord
  2
윤곽선
 70
     0
 62
     3
  6
Continuous
370
    40
390
F
  0
LAYER
  5
7B
330
2
100
AcDbSymbolTableRecord
100
AcDbLayerTableRecord
  2
중심마크
 70
     0
 62
   100
  6
Continuous
370
    30
390
F
  0
LAYER
  5
7C
330
2
100
AcDbSymbolTableRecord
100
AcDbLayerTableRecord
  2
가상선
 70
     0
 62
     4
  6
PHANTOM
370
    -3
390
F
  0
LAYER
  5
7D
330
2
100
AcDbSymbolTableRecord
100
AcDbLayerTableRecord
  2
특수지정선
 70
     0
 62
     5
  6
CENTERX2
370
    60
390
F
  0
LAYER
  5
7E
330
2
100
AcDbSymbolTableRecord
100
AcDbLayerTableRecord
  2
참조1
 70
     0
 62
    -4
  6
Continuous
370
    -3
390
F
  0
LAYER
  5
236
330
2
100
AcDbSymbolTableRecord
100
AcDbLayerTableRecord
  2
Defpoints
 70
     0
 62
     7
  6
Continuous
290
     0
370
    -3
390
F
  0
ENDTAB
  0
TABLE
  2
STYLE
  5
3
330
0
100
AcDbSymbolTable
 70
     2
  0
STYLE
  5
11
330
3
100
AcDbSymbolTableRecord
100
AcDbTextStyleTableRecord
  2
Standard
 70
     0
 40
0.0
 41
1.0
 50
0.0
 71
     0
 42
3.5
  3
txt
  4

  0
STYLE
  5
94
330
3
100
AcDbSymbolTableRecord
100
AcDbTextStyleTableRecord
  2
SLDTEXTSTYLE0
 70
     0
 40
0.0
 41
0.75
 50
0.0
 71
     0
 42
3.5
  3
TXT
  4

  0
ENDTAB
  0
TABLE
  2
VIEW
  5
6
330
0
100
AcDbSymbolTable
 70
     0
  0
ENDTAB
  0
TABLE
  2
UCS
  5
7
330
0
100
AcDbSymbolTable
 70
     0
  0
ENDTAB
  0
TABLE
  2
APPID
  5
9
330
0
100
AcDbSymbolTable
 70
     1
  0
APPID
  5
12
330
9
100
AcDbSymbolTableRecord
100
AcDbRegAppTableRecord
  2
ACAD
 70
     0
  0
ENDTAB
  0
TABLE
  2
DIMSTYLE
  5
A
330
0
100
AcDbSymbolTable
 70
     4
100
AcDbDimStyleTable
  0
DIMSTYLE
105
27
330
A
100
AcDbSymbolTableRecord
100
AcDbDimStyleTableRecord
  2
ISO-25
 70
     0
 41
2.5
 42
0.625
 43
3.75
 44
1.25
 73
     0
 74
     0
 77
     1
 78
     8
140
2.5
141
2.5
143
0.03937007874016
147
0.625
171
     3
172
     1
178
     0
271
     2
272
     2
274
     3
278
    44
283
     0
284
     8
340
11
  0
DIMSTYLE
105
1B4
102
{ACAD_REACTORS
330
1B3
330
1C7
102
}
330
A
100
AcDbSymbolTableRecord
100
AcDbDimStyleTableRecord
  2
SLDDIMSTYLE0
 70
     0
 41
3.302
 44
0.0
 45
0.000000001
 73
     0
 74
     0
 77
     1
 78
    12
 79
     3
140
3.5
143
0.0393700787401575
147
0.875
148
0.000000001
170
     1
172
     1
173
     1
178
     0
271
     2
272
     2
276
     2
284
    12
289
     0
340
94
  0
DIMSTYLE
105
1DC
102
{ACAD_REACTORS
330
1DB
102
}
330
A
100
AcDbSymbolTableRecord
100
AcDbDimStyleTableRecord
  2
SLDDIMSTYLE1
 70
     0
 41
3.302
 44
0.0
 45
0.000000001
 73
     0
 74
     0
 77
     1
 78
    12
 79
     3
140
3.5
143
0.0393700787401575
147
0.875
148
0.000000001
170
     1
173
     1
178
     0
271
     2
272
     2
276
     2
284
    12
340
94
  0
DIMSTYLE
105
1F1
102
{ACAD_REACTORS
330
1F0
102
}
330
A
100
AcDbSymbolTableRecord
100
AcDbDimStyleTableRecord
  2
SLDDIMSTYLE2
 70
     0
 41
3.302
 44
0.0
 45
0.000000001
 73
     0
 74
     0
 77
     1
 78
     4
 79
     1
140
3.5
143
0.0393700787401575
147
0.875
148
0.000000001
170
     1
173
     1
178
     0
271
     2
272
     2
276
     2
284
    12
340
94
  0
ENDTAB
  0
TABLE
  2
BLOCK_RECORD
  5
1
330
0
100
AcDbSymbolTable
 70
     7
  0
BLOCK_RECORD
  5
1F
330
1
100
AcDbSymbolTableRecord
100
AcDbBlockTableRecord
  2
*Model_Space
340
22
  0
BLOCK_RECORD
  5
1B
330
1
100
AcDbSymbolTableRecord
100
AcDbBlockTableRecord
  2
*Paper_Space
340
1E
  0
BLOCK_RECORD
  5
23
330
1
100
AcDbSymbolTableRecord
100
AcDbBlockTableRecord
  2
*Paper_Space0
340
26
  0
BLOCK_RECORD
  5
7F
330
1
100
AcDbSymbolTableRecord
100
AcDbBlockTableRecord
  2
블럭10
340
0
102
{BLKREFS
331
1AB
102
}
  0
BLOCK_RECORD
  5
1B5
330
1
100
AcDbSymbolTableRecord
100
AcDbBlockTableRecord
  2
_D
340
0
  0
BLOCK_RECORD
  5
1C8
330
1
100
AcDbSymbolTableRecord
100
AcDbBlockTableRecord
  2
_D_1
340
0
  0
BLOCK_RECORD
  5
1DD
330
1
100
AcDbSymbolTableRecord
100
AcDbBlockTableRecord
  2
_D_2
340
0
  0
BLOCK_RECORD
  5
1F2
330
1
100
AcDbSymbolTableRecord
100
AcDbBlockTableRecord
  2
_D_3
340
0
  0
BLOCK_RECORD
  5
20B
330
1
100
AcDbSymbolTableRecord
100
AcDbBlockTableRecord
  2
SW_DOWELSYMBOL_0
340
0
102
{BLKREFS
331
211
102
}
  0
ENDTAB
  0
ENDSEC
  0
SECTION
  2
BLOCKS
  0
BLOCK
  5
20
330
1F
100
AcDbEntity
  8
0
100
AcDbBlockBegin
  2
*Model_Space
 70
     0
 10
0.0
 20
0.0
 30
0.0
  3
*Model_Space
  1
*Model_Space
  0
ENDBLK
  5
21
330
1F
100
AcDbEntity
  8
0
100
AcDbBlockEnd
  0
BLOCK
  5
1C
330
1B
100
AcDbEntity
 67
     1
  8
0
100
AcDbBlockBegin
  2
*Paper_Space
 70
     0
 10
0.0
 20
0.0
 30
0.0
  3
*Paper_Space
  1
*Paper_Space
  0
ENDBLK
  5
1D
330
1B
100
AcDbEntity
 67
     1
  8
0
100
AcDbBlockEnd
  0
BLOCK
  5
24
330
23
100
AcDbEntity
  8
0
100
AcDbBlockBegin
  2
*Paper_Space0
 70
     0
 10
0.0
 20
0.0
 30
0.0
  3
*Paper_Space0
  1
*Paper_Space0
  0
ENDBLK
  5
25
330
23
100
AcDbEntity
  8
0
100
AcDbBlockEnd
  0
BLOCK
  5
80
330
7F
100
AcDbEntity
  8
0
100
AcDbBlockBegin
  2
블럭10
 70
     2
 10
0.0
 20
0.0
 30
0.0
  3
블럭10
  1
블럭10
  0
ELLIPSE
  5
82
330
7F
100
AcDbEntity
  8
중심선
100
AcDbEllipse
 10
20.54032771741204
 20
12.0471743016438
 30
0.0
 11
6.600054785286829
 21
-1.261213355974178E-13
 31
0.0
210
0.0
220
0.0
230
1.0
 40
0.636358354079598
 41
0.9219305317359503
 42
6.513795318482858
  0
ELLIPSE
  5
83
330
7F
100
AcDbEntity
  8
중심선
100
AcDbEllipse
 10
20.54032771746488
 20
12.04717430159265
 30
0.0
 11
3.960054785062283
 21
1.540847449632565E-10
 31
0.0
210
0.0
220
0.0
230
1.0
 40
0.3939339440162632
 41
1.131841032648279
 42
5.62031148352944
  0
LINE
  5
84
330
7F
100
AcDbEntity
  8
중심선
100
AcDbLine
 10
2.268634060543552
 20
16.24717430164393
 30
0.0
 11
5.714909304380834
 21
16.24717430164393
 31
0.0
  0
LINE
  5
85
330
7F
100
AcDbEntity
  8
중심선
100
AcDbLine
 10
5.245725140726316
 20
7.84717430164391
 30
0.0
 11
8.692000384563599
 21
7.84717430164391
 31
0.0
  0
LINE
  5
86
330
7F
100
AcDbEntity
  8
중심선
100
AcDbLine
 10
15.74043728645272
 20
16.24717430164393
 30
0.0
 11
8.692000384563599
 21
7.84717430164391
 31
0.0
  0
LINE
  5
87
330
7F
100
AcDbEntity
  8
중심선
100
AcDbLine
 10
0.1404042013395286
 20
13.71084872107135
 30
0.0
 11
3.58671253028996
 21
13.71088815037384
 31
0.0
  0
LINE
  5
88
330
7F
100
AcDbEntity
  8
중심선
100
AcDbLine
 10
2.750260043222114
 20
10.84717430164391
 30
0.0
 11
6.196535287059397
 21
10.84717430164391
 31
0.0
  0
LINE
  5
89
330
7F
100
AcDbEntity
  8
중심선
100
AcDbLine
 10
12.29416204261559
 20
16.24717430164393
 30
0.0
 11
5.245725140726316
 21
7.84717430164391
 31
0.0
  0
LINE
  5
8A
330
7F
100
AcDbEntity
  8
중심선
100
AcDbLine
 10
10.72767329541681
 20
16.24717430164393
 30
0.0
 11
6.196535287059397
 21
10.84717430164391
 31
0.0
  0
LINE
  5
8B
330
7F
100
AcDbEntity
  8
중심선
100
AcDbLine
 10
7.28139805157953
 20
16.24717430164393
 30
0.0
 11
2.750260043222114
 21
10.84717430164391
 31
0.0
  0
LINE
  5
8C
330
7F
100
AcDbEntity
  8
중심선
100
AcDbLine
 10
5.714909304380834
 20
16.24717430164393
 30
0.0
 11
3.58671253028996
 21
13.71088815037384
 31
0.0
  0
LINE
  5
8D
330
7F
100
AcDbEntity
  8
중심선
100
AcDbLine
 10
2.268634060543552
 20
16.24717430164393
 30
0.0
 11
0.1404042013395286
 21
13.71084872107135
 31
0.0
  0
LINE
  5
8E
330
7F
100
AcDbEntity
  8
중심선
100
AcDbLine
 10
7.28139805157953
 20
16.24717430164393
 30
0.0
 11
10.72767329541681
 21
16.24717430164393
 31
0.0
  0
LINE
  5
8F
330
7F
100
AcDbEntity
  8
중심선
100
AcDbLine
 10
12.29416204261559
 20
16.24717430164393
 30
0.0
 11
15.74043728645272
 21
16.24717430164393
 31
0.0
  0
LINE
  5
90
330
7F
100
AcDbEntity
  8
중심선
100
AcDbLine
 10
19.22036997980202
 20
11.08717430171403
 30
0.0
 11
23.66174974927406
 21
11.08717430171406
 31
0.0
  0
LINE
  5
91
330
7F
100
AcDbEntity
  8
중심선
100
AcDbLine
 10
19.22039502424796
 20
13.00717430171391
 30
0.0
 11
19.22036997980202
 21
11.08717430171403
 31
0.0
  0
LINE
  5
92
330
7F
100
AcDbEntity
  8
중심선
100
AcDbLine
 10
19.22039502424796
 20
13.00717430171391
 30
0.0
 11
26.96566020931264
 21
13.00717430171391
 31
0.0
  0
LINE
  5
93
330
7F
100
AcDbEntity
  8
중심선
100
AcDbLine
 10
22.22332737316547
 20
13.45928029700563
 30
0.0
 11
24.52862924686651
 21
15.39360700705356
 31
0.0
  0
ATTDEF
  5
95
330
7F
100
AcDbEntity
  8
FORMAT
 62
     2
100
AcDbText
 10
-10.14163601213663
 20
2.075366912832191
 30
0.0
 40
4.233333333333333
  1
EM156016 [ 3 FLUTE ]
 41
0.75
  7
SLDTEXTSTYLE0
 11
-10.14163601213663
 21
-0.0412997538344756
 31
0.0
100
AcDbAttributeDefinition
  3

  2
AUTOATTR0
 70
     0
 74
     1
  0
ENDBLK
  5
81
330
7F
100
AcDbEntity
  8
0
100
AcDbBlockEnd
  0
BLOCK
  5
1B6
330
1B5
100
AcDbEntity
  8
0
100
AcDbBlockBegin
  2
_D
 70
     0
 10
0.0
 20
0.0
 30
0.0
  3
_D
  1
_D
  0
LINE
  5
1B8
330
1B5
100
AcDbEntity
  8
치수문자_일반주서
 62
     0
370
    -2
100
AcDbLine
 10
7.04259592551889
 20
3.175000000000025
 30
0.0
 11
43.30010597126572
 21
3.175000000000161
 31
0.0
  0
LINE
  5
1B9
330
1B5
100
AcDbEntity
  8
치수문자_일반주서
 62
     0
370
    -2
100
AcDbLine
 10
21.1126580173591
 20
-3.174999999999998
 30
0.0
 11
43.30010597126574
 21
-3.174999999999915
 31
0.0
  0
LINE
  5
1BA
330
1B5
100
AcDbEntity
  8
치수문자_일반주서
 62
     0
370
    -2
100
AcDbLine
 10
43.30010597126572
 20
3.175000000000161
 30
0.0
 11
43.30010597126562
 21
35.81025000000015
 31
0.0
  0
LINE
  5
1BB
330
1B5
100
AcDbEntity
  8
치수문자_일반주서
 62
     0
370
    -2
100
AcDbLine
 10
43.30010597126572
 20
3.175000000000161
 30
0.0
 11
43.30010597126574
 21
-3.174999999999915
 31
0.0
  0
LINE
  5
1BC
330
1B5
100
AcDbEntity
  8
치수문자_일반주서
 62
     0
370
    -2
100
AcDbLine
 10
43.30010597126571
 20
6.47700000000016
 30
0.0
 11
43.30010597126569
 21
9.77900000000016
 31
0.0
  0
LINE
  5
1BD
330
1B5
100
AcDbEntity
  8
치수문자_일반주서
 62
     0
370
    -2
100
AcDbLine
 10
43.30010597126576
 20
-6.476999999999915
 30
0.0
 11
43.30010597126577
 21
-9.778999999999915
 31
0.0
  0
SOLID
  5
1BE
330
1B5
100
AcDbEntity
  8
치수문자_일반주서
 62
     0
100
AcDbTrace
 10
42.74977263793237
 20
6.477000000000158
 30
0.0
 11
43.85043930459904
 21
6.477000000000162
 31
0.0
 12
43.30010597126572
 22
3.175000000000161
 32
0.0
 13
43.30010597126572
 23
3.175000000000161
 33
0.0
  0
SOLID
  5
1BF
330
1B5
100
AcDbEntity
  8
치수문자_일반주서
 62
     0
100
AcDbTrace
 10
43.85043930459909
 20
-6.476999999999913
 30
0.0
 11
42.74977263793242
 21
-6.476999999999917
 31
0.0
 12
43.30010597126574
 22
-3.174999999999915
 32
0.0
 13
43.30010597126574
 23
-3.174999999999915
 33
0.0
  0
MTEXT
  5
1C0
330
1B5
100
AcDbEntity
  8
치수문자_일반주서
 62
     0
100
AcDbMText
 10
38.92510597126566
 20
23.12275000000014
 30
0.0
 40
3.5
 41
0.0
 71
     2
 72
     1
  1
\A1;%%c6.35 [1/4]
  7
SLDTEXTSTYLE0
 11
-3.356894814614606E-15
 21
1.0
 31
0.0
 73
     1
 44
1.0
  0
POINT
  5
1C1
330
1B5
100
AcDbEntity
  8
Defpoints
 62
     0
100
AcDbPoint
 10
6.98009592551889
 20
3.175000000000024
 30
0.0
  0
POINT
  5
1C2
330
1B5
100
AcDbEntity
  8
Defpoints
 62
     0
100
AcDbPoint
 10
21.0501580173591
 20
-3.174999999999999
 30
0.0
  0
POINT
  5
1C3
330
1B5
100
AcDbEntity
  8
Defpoints
 62
     0
100
AcDbPoint
 10
43.30010597126574
 20
-3.174999999999916
 30
0.0
  0
ENDBLK
  5
1B7
330
1B5
100
AcDbEntity
  8
0
100
AcDbBlockEnd
  0
BLOCK
  5
1C9
330
1C8
100
AcDbEntity
  8
0
100
AcDbBlockBegin
  2
_D_1
 70
     0
 10
0.0
 20
0.0
 30
0.0
  3
_D_1
  1
_D_1
  0
LINE
  5
1CB
330
1C8
100
AcDbEntity
  8
치수문자_일반주서
 62
     0
370
    -2
100
AcDbLine
 10
-33.70250000000003
 20
3.174999999999984
 30
0.0
 11
-44.45000000000007
 21
3.174999999999945
 31
0.0
  0
LINE
  5
1CC
330
1C8
100
AcDbEntity
  8
치수문자_일반주서
 62
     0
370
    -2
100
AcDbLine
 10
-33.70250000000003
 20
-3.17500000000001
 30
0.0
 11
-44.45000000000005
 21
-3.17500000000005
 31
0.0
  0
LINE
  5
1CD
330
1C8
100
AcDbEntity
  8
치수문자_일반주서
 62
     0
370
    -2
100
AcDbLine
 10
-44.45000000000006
 20
-0.1270000000000548
 30
0.0
 11
-44.45000000000007
 21
0.12699999999995
 31
0.0
  0
SOLID
  5
1CE
330
1C8
100
AcDbEntity
  8
치수문자_일반주서
 62
     0
100
AcDbTrace
 10
-43.89966666666673
 20
-0.127000000000053
 30
0.0
 11
-45.00033333333339
 21
-0.1270000000000567
 31
0.0
 12
-44.45000000000007
 22
3.174999999999945
 32
0.0
 13
-44.45000000000007
 23
3.174999999999945
 33
0.0
  0
SOLID
  5
1CF
330
1C8
100
AcDbEntity
  8
치수문자_일반주서
 62
     0
100
AcDbTrace
 10
-45.0003333333334
 20
0.1269999999999482
 30
0.0
 11
-43.89966666666673
 21
0.1269999999999519
 31
0.0
 12
-44.45000000000005
 22
-3.17500000000005
 32
0.0
 13
-44.45000000000005
 23
-3.17500000000005
 33
0.0
  0
MTEXT
  5
1D0
330
1C8
100
AcDbEntity
  8
치수문자_일반주서
 62
     0
100
AcDbMText
 10
-48.82500000000006
 20
-0.5086721738103389
 30
0.0
 40
3.5
 41
0.0
 71
     2
 72
     1
  1
\A1;%%c6.35 [1/4]
  7
SLDTEXTSTYLE0
 11
-3.356894814614649E-15
 21
1.0
 31
0.0
 73
     1
 44
1.0
  0
POINT
  5
1D1
330
1C8
100
AcDbEntity
  8
Defpoints
 62
     0
100
AcDbPoint
 10
-33.64000000000003
 20
3.174999999999984
 30
0.0
  0
POINT
  5
1D2
330
1C8
100
AcDbEntity
  8
Defpoints
 62
     0
100
AcDbPoint
 10
-33.64000000000003
 20
-3.17500000000001
 30
0.0
  0
POINT
  5
1D3
330
1C8
100
AcDbEntity
  8
Defpoints
 62
     0
100
AcDbPoint
 10
-44.45000000000005
 20
-3.17500000000005
 30
0.0
  0
ENDBLK
  5
1CA
330
1C8
100
AcDbEntity
  8
0
100
AcDbBlockEnd
  0
BLOCK
  5
1DE
330
1DD
100
AcDbEntity
  8
0
100
AcDbBlockBegin
  2
_D_2
 70
     0
 10
0.0
 20
0.0
 30
0.0
  3
_D_2
  1
_D_2
  0
LINE
  5
1E0
330
1DD
100
AcDbEntity
  8
치수문자_일반주서
 62
     0
370
    -2
100
AcDbLine
 10
29.04999999999999
 20
2.082106629395929
 30
0.0
 11
29.04999999999999
 21
19.34732179202408
 31
0.0
  0
LINE
  5
1E1
330
1DD
100
AcDbEntity
  8
치수문자_일반주서
 62
     0
370
    -2
100
AcDbLine
 10
9.999999999999982
 20
3.236370332732279
 30
0.0
 11
9.999999999999982
 21
19.34732179202408
 31
0.0
  0
LINE
  5
1E2
330
1DD
100
AcDbEntity
  8
치수문자_일반주서
 62
     0
370
    -2
100
AcDbLine
 10
25.74799999999999
 20
19.34732179202408
 30
0.0
 11
13.30199999999998
 21
19.34732179202408
 31
0.0
  0
SOLID
  5
1E3
330
1DD
100
AcDbEntity
  8
치수문자_일반주서
 62
     0
100
AcDbTrace
 10
25.74799999999999
 20
18.79698845869075
 30
0.0
 11
25.74799999999999
 21
19.89765512535742
 31
0.0
 12
29.04999999999999
 22
19.34732179202408
 32
0.0
 13
29.04999999999999
 23
19.34732179202408
 33
0.0
  0
SOLID
  5
1E4
330
1DD
100
AcDbEntity
  8
치수문자_일반주서
 62
     0
100
AcDbTrace
 10
13.30199999999998
 20
19.89765512535742
 30
0.0
 11
13.30199999999998
 21
18.79698845869075
 31
0.0
 12
9.999999999999982
 22
19.34732179202408
 32
0.0
 13
9.999999999999982
 23
19.34732179202408
 33
0.0
  0
MTEXT
  5
1E5
330
1DD
100
AcDbEntity
  8
치수문자_일반주서
 62
     0
100
AcDbMText
 10
19.52499999999998
 20
23.72232179202408
 30
0.0
 40
3.5
 41
0.0
 71
     2
 72
     1
  1
\A1;19.05 [3/4]
  7
SLDTEXTSTYLE0
 73
     1
 44
1.0
  0
POINT
  5
1E6
330
1DD
100
AcDbEntity
  8
Defpoints
 62
     0
100
AcDbPoint
 10
29.04999999999999
 20
2.019606629395929
 30
0.0
  0
POINT
  5
1E7
330
1DD
100
AcDbEntity
  8
Defpoints
 62
     0
100
AcDbPoint
 10
9.999999999999982
 20
3.173870332732279
 30
0.0
  0
POINT
  5
1E8
330
1DD
100
AcDbEntity
  8
Defpoints
 62
     0
100
AcDbPoint
 10
9.999999999999982
 20
19.34732179202408
 30
0.0
  0
ENDBLK
  5
1DF
330
1DD
100
AcDbEntity
  8
0
100
AcDbBlockEnd
  0
BLOCK
  5
1F3
330
1F2
100
AcDbEntity
  8
0
100
AcDbBlockBegin
  2
_D_3
 70
     0
 10
0.0
 20
0.0
 30
0.0
  3
_D_3
  1
_D_3
  0
LINE
  5
1F5
330
1F2
100
AcDbEntity
  8
치수문자_일반주서
 62
     0
370
    -2
100
AcDbLine
 10
29.04999999999999
 20
2.082106629395929
 30
0.0
 11
29.04999999999999
 21
36.01698679301992
 31
0.0
  0
LINE
  5
1F6
330
1F2
100
AcDbEntity
  8
치수문자_일반주서
 62
     0
370
    -2
100
AcDbLine
 10
-34.45000000000002
 20
2.427499999999996
 30
0.0
 11
-34.45000000000002
 21
36.01698679301992
 31
0.0
  0
LINE
  5
1F7
330
1F2
100
AcDbEntity
  8
치수문자_일반주서
 62
     0
370
    -2
100
AcDbLine
 10
25.74799999999999
 20
36.01698679301992
 30
0.0
 11
-31.14800000000002
 21
36.01698679301992
 31
0.0
  0
SOLID
  5
1F8
330
1F2
100
AcDbEntity
  8
치수문자_일반주서
 62
     0
100
AcDbTrace
 10
25.74799999999999
 20
35.46665345968659
 30
0.0
 11
25.74799999999999
 21
36.56732012635326
 31
0.0
 12
29.04999999999999
 22
36.01698679301992
 32
0.0
 13
29.04999999999999
 23
36.01698679301992
 33
0.0
  0
SOLID
  5
1F9
330
1F2
100
AcDbEntity
  8
치수문자_일반주서
 62
     0
100
AcDbTrace
 10
-31.14800000000002
 20
36.56732012635326
 30
0.0
 11
-31.14800000000002
 21
35.46665345968659
 31
0.0
 12
-34.45000000000002
 22
36.01698679301992
 32
0.0
 13
-34.45000000000002
 23
36.01698679301992
 33
0.0
  0
MTEXT
  5
1FA
330
1F2
100
AcDbEntity
  8
치수문자_일반주서
 62
     0
100
AcDbMText
 10
0.0762867256974967
 20
40.39198679301992
 30
0.0
 40
3.5
 41
0.0
 71
     2
 72
     1
  1
\A1;63.50 [2 1/2]
  7
SLDTEXTSTYLE0
 73
     1
 44
1.0
  0
POINT
  5
1FB
330
1F2
100
AcDbEntity
  8
Defpoints
 62
     0
100
AcDbPoint
 10
29.04999999999999
 20
2.019606629395929
 30
0.0
  0
POINT
  5
1FC
330
1F2
100
AcDbEntity
  8
Defpoints
 62
     0
100
AcDbPoint
 10
-34.45000000000002
 20
2.364999999999996
 30
0.0
  0
POINT
  5
1FD
330
1F2
100
AcDbEntity
  8
Defpoints
 62
     0
100
AcDbPoint
 10
-34.45000000000002
 20
36.01698679301992
 30
0.0
  0
ENDBLK
  5
1F4
330
1F2
100
AcDbEntity
  8
0
100
AcDbBlockEnd
  0
BLOCK
  5
20C
330
20B
100
AcDbEntity
  8
0
100
AcDbBlockBegin
  2
SW_DOWELSYMBOL_0
 70
     0
 10
0.0
 20
0.0
 30
0.0
  3
SW_DOWELSYMBOL_0
  1
SW_DOWELSYMBOL_0
  0
CIRCLE
  5
20E
330
20B
100
AcDbEntity
  8
해칭선
 62
     0
100
AcDbCircle
 10
0.0
 20
0.0
 30
0.0
 40
3.000000000000004
  0
HATCH
  5
20F
330
20B
100
AcDbEntity
  8
0
  6
Continuous
 62
     0
370
     0
100
AcDbHatch
 10
0.0
 20
0.0
 30
0.0
210
0.0
220
0.0
230
1.0
  2
SOLID
 70
     1
 71
     0
 91
        1
 92
        0
 93
        3
 72
     2
 10
0.0000000000000104
 20
-0.0000000000000035
 40
3.000000000000004
 50
0.0
 51
90.0
 73
     1
 72
     1
 10
0.0000000000000104
 20
3.000000000000001
 11
0.0000000000000104
 21
-0.0000000000000036
 72
     1
 10
0.0000000000000104
 20
-0.0000000000000035
 11
3.000000000000015
 21
-0.0000000000000035
 97
        0
 75
     0
 76
     1
 98
        1
 10
0.0
 20
0.0
  0
HATCH
  5
210
330
20B
100
AcDbEntity
  8
0
  6
Continuous
 62
     0
370
     0
100
AcDbHatch
 10
0.0
 20
0.0
 30
0.0
210
0.0
220
0.0
230
1.0
  2
SOLID
 70
     1
 71
     0
 91
        1
 92
        0
 93
        3
 72
     2
 10
0.0000000000000104
 20
-0.0000000000000035
 40
3.000000000000004
 50
180.0
 51
270.0000000000008
 73
     1
 72
     1
 10
0.0000000000000104
 20
-3.000000000000008
 11
0.0000000000000104
 21
-0.0000000000000036
 72
     1
 10
0.0000000000000104
 20
-0.0000000000000035
 11
-2.999999999999994
 21
-0.0000000000000035
 97
        0
 75
     0
 76
     1
 98
        1
 10
0.0
 20
0.0
  0
ENDBLK
  5
20D
330
20B
100
AcDbEntity
  8
0
100
AcDbBlockEnd
  0
ENDSEC
  0
SECTION
  2
ENTITIES
  0
LINE
  5
96
330
1F
100
AcDbEntity
  8
외형선
  6
Continuous
370
    15
100
AcDbLine
 10
6.980095925518894
 20
3.175
 30
0.0
 11
-33.64000000000001
 21
3.174999999999996
 31
0.0
  0
LINE
  5
97
330
1F
100
AcDbEntity
  8
외형선
  6
Continuous
370
    15
100
AcDbLine
 10
-33.64000000000001
 20
-3.175000000000004
 30
0.0
 11
6.980095925518897
 21
-3.174999999999999
 31
0.0
  0
LINE
  5
98
330
1F
100
AcDbEntity
  8
외형선
  6
Continuous
370
    15
100
AcDbLine
 10
-33.64000000000001
 20
3.174999999999996
 30
0.0
 11
-34.45000000000002
 21
2.364999999999996
 31
0.0
  0
LINE
  5
99
330
1F
100
AcDbEntity
  8
외형선
  6
Continuous
370
    15
100
AcDbLine
 10
-34.45000000000002
 20
-2.365000000000005
 30
0.0
 11
-33.64000000000001
 21
-3.175000000000005
 31
0.0
  0
LINE
  5
9A
330
1F
100
AcDbEntity
  8
외형선
  6
Continuous
 62
     1
370
    15
100
AcDbLine
 10
19.36823979945561
 20
-3.174999999999999
 30
0.0
 11
19.58751270330011
 21
-3.174999999999999
 31
0.0
  0
LINE
  5
9B
330
1F
100
AcDbEntity
  8
외형선
  6
Continuous
 62
     1
370
    15
100
AcDbLine
 10
15.89361058048951
 20
3.175000000000001
 30
0.0
 11
15.51336763366147
 21
3.175000000000001
 31
0.0
  0
SPLINE
  5
9C
330
1F
100
AcDbEntity
  8
외형선
  6
Continuous
 62
     1
370
    15
100
AcDbSpline
210
0.0
220
0.0
230
1.0
 70
     8
 71
     3
 72
     9
 73
     5
 74
     0
 42
0.000000001
 43
0.00000001
 40
0.0
 40
0.0
 40
0.0
 40
0.0
 40
0.6238056601747324
 40
1.0
 40
1.0
 40
1.0
 40
1.0
 10
16.7941632759068
 20
3.078877612893666
 30
0.0
 10
16.78410311713808
 20
3.090186932044444
 30
0.0
 10
16.76797604518126
 20
3.108316487245355
 30
0.0
 10
16.75099491265126
 20
3.120573585534264
 30
0.0
 10
16.74460670670965
 20
3.125184636533234
 30
0.0
  0
SPLINE
  5
9D
330
1F
100
AcDbEntity
  8
외형선
  6
Continuous
 62
     1
370
    15
100
AcDbSpline
210
0.0
220
0.0
230
1.0
 70
     8
 71
     3
 72
     9
 73
     5
 74
     0
 42
0.000000001
 43
0.00000001
 40
0.0
 40
0.0
 40
0.0
 40
0.0
 40
0.5741522163424239
 40
1.0
 40
1.0
 40
1.0
 40
1.0
 10
19.56875784349497
 20
-3.169575323126635
 30
0.0
 10
19.59129212772284
 20
-3.171596995421168
 30
0.0
 10
19.63054005464269
 20
-3.175118138833993
 30
0.0
 10
19.66878370429809
 20
-3.161546712473799
 30
0.0
 10
19.68506967774282
 20
-3.15576735063724
 30
0.0
  0
SPLINE
  5
9E
330
1F
100
AcDbEntity
  8
외형선
  6
Continuous
 62
     1
370
    15
100
AcDbSpline
210
0.0
220
0.0
230
1.0
 70
     8
 71
     3
 72
     9
 73
     5
 74
     0
 42
0.000000001
 43
0.00000001
 40
0.0
 40
0.0
 40
0.0
 40
0.0
 40
0.5550537166403704
 40
0.9999999999999999
 40
0.9999999999999999
 40
0.9999999999999999
 40
0.9999999999999999
 10
15.52896519114472
 20
3.171336091979209
 30
0.0
 10
15.5032721942342
 20
3.172513748222408
 30
0.0
 10
15.45698298628864
 20
3.174635446011096
 30
0.0
 10
15.41272819295132
 20
3.154738194371914
 30
0.0
 10
15.39303718713503
 20
3.145884986205989
 30
0.0
  0
SPLINE
  5
9F
330
1F
100
AcDbEntity
  8
외형선
  6
Continuous
 62
     1
370
    15
100
AcDbSpline
210
0.0
220
0.0
230
1.0
 70
     8
 71
     3
 72
    11
 73
     7
 74
     0
 42
0.000000001
 43
0.00000001
 40
0.0
 40
0.0
 40
0.0
 40
0.0
 40
0.2445966058172803
 40
0.4999696721276159
 40
0.7553521695857341
 40
1.0
 40
1.0
 40
1.0
 40
1.0
 10
19.74539907964726
 20
-3.121480706101196
 30
0.0
 10
19.78841230025067
 20
-3.092318451476269
 30
0.0
 10
19.87633382201661
 20
-3.032709108842061
 30
0.0
 10
20.04009709655801
 20
-3.004585320431974
 30
0.0
 10
20.20385166435049
 20
-3.028536799503591
 30
0.0
 10
20.29170300497849
 20
-3.084953533590769
 30
0.0
 10
20.33468567759972
 20
-3.112556322510024
 30
0.0
  0
SPLINE
  5
A0
330
1F
100
AcDbEntity
  8
외형선
  6
Continuous
 62
     1
370
    15
100
AcDbSpline
210
0.0
220
0.0
230
1.0
 70
     8
 71
     3
 72
    11
 73
     7
 74
     0
 42
0.000000001
 43
0.00000001
 40
0.0
 40
0.0
 40
0.0
 40
0.0
 40
0.2448265908605147
 40
0.5000610625315799
 40
0.7552749374295223
 40
1.0
 40
1.0
 40
1.0
 40
1.0
 10
15.35234163866864
 20
3.12093669835913
 30
0.0
 10
15.30950447534918
 20
3.092034934962928
 30
0.0
 10
15.222009087981
 20
3.033002758506348
 30
0.0
 10
15.05849508253322
 20
3.0052806052243
 30
0.0
 10
14.89496618899882
 20
3.029649667724373
 30
0.0
 10
14.8073480336955
 20
3.086177034937255
 30
0.0
 10
14.7644580786792
 20
3.113847741180237
 30
0.0
  0
SPLINE
  5
A1
330
1F
100
AcDbEntity
  8
외형선
  6
Continuous
 62
     1
370
    15
100
AcDbSpline
210
0.0
220
0.0
230
1.0
 70
     8
 71
     3
 72
     9
 73
     5
 74
     0
 42
0.000000001
 43
0.00000001
 40
0.0
 40
0.0
 40
0.0
 40
0.0
 40
0.4979264479912142
 40
1.0
 40
1.0
 40
1.0
 40
1.0
 10
20.33649496730693
 20
-3.113842809782682
 30
0.0
 10
20.36313958078125
 20
-3.131097152780465
 30
0.0
 10
20.41665072400694
 20
-3.165749545854567
 30
0.0
 10
20.47836100991976
 20
-3.171719618160909
 30
0.0
 10
20.50934411236349
 20
-3.174717033569503
 30
0.0
  0
LINE
  5
A2
330
1F
100
AcDbEntity
  8
외형선
  6
Continuous
 62
     1
370
    15
100
AcDbLine
 10
20.51330933605882
 20
-3.174999999999999
 30
0.0
 11
21.58700669865937
 21
-3.174999999999999
 31
0.0
  0
SPLINE
  5
A3
330
1F
100
AcDbEntity
  8
외형선
  6
Continuous
 62
     1
370
    15
100
AcDbSpline
210
0.0
220
0.0
230
1.0
 70
     8
 71
     3
 72
     9
 73
     5
 74
     0
 42
0.000000001
 43
0.00000001
 40
0.0
 40
0.0
 40
0.0
 40
0.0
 40
0.4971562690443834
 40
1.0
 40
1.0
 40
1.0
 40
1.0
 10
14.76399634751903
 20
3.114166535537435
 30
0.0
 10
14.73708197524846
 20
3.13154044396149
 30
0.0
 10
14.68294533060289
 20
3.166487018119048
 30
0.0
 10
14.62076054092323
 20
3.172113178713087
 30
0.0
 10
14.58949130927201
 20
3.17494225829715
 30
0.0
  0
LINE
  5
A4
330
1F
100
AcDbEntity
  8
외형선
  6
Continuous
 62
     1
370
    15
100
AcDbLine
 10
14.58694475426148
 20
3.175000000000001
 30
0.0
 11
13.51332748524523
 21
3.175000000000001
 31
0.0
  0
SPLINE
  5
A5
330
1F
100
AcDbEntity
  8
외형선
  6
Continuous
 62
     1
370
    15
100
AcDbSpline
210
0.0
220
0.0
230
1.0
 70
     8
 71
     3
 72
     9
 73
     5
 74
     0
 42
0.000000001
 43
0.00000001
 40
0.0
 40
0.0
 40
0.0
 40
0.0
 40
0.5033496123354035
 40
1.0
 40
1.0
 40
1.0
 40
1.0
 10
21.58764080415314
 20
-3.174999897727321
 30
0.0
 10
21.62019951994331
 20
-3.172125456244502
 30
0.0
 10
21.68488361821669
 20
-3.166414830046773
 30
0.0
 10
21.74166345164344
 20
-3.128462688473329
 30
0.0
 10
21.76986317792637
 20
-3.109613742648177
 30
0.0
  0
SPLINE
  5
A6
330
1F
100
AcDbEntity
  8
외형선
  6
Continuous
 62
     1
370
    15
100
AcDbSpline
210
0.0
220
0.0
230
1.0
 70
     8
 71
     3
 72
     9
 73
     5
 74
     0
 42
0.000000001
 43
0.00000001
 40
0.0
 40
0.0
 40
0.0
 40
0.0
 40
0.502111470825478
 40
1.0
 40
1.0
 40
1.0
 40
1.0
 10
13.51361510628761
 20
3.174999998021292
 30
0.0
 10
13.4808157880946
 20
3.172070678793163
 30
0.0
 10
13.41549300600583
 20
3.166236676986129
 30
0.0
 10
13.35825338694323
 20
3.127729166226162
 30
0.0
 10
13.32975443719764
 20
3.10855671833171
 30
0.0
  0
SPLINE
  5
A7
330
1F
100
AcDbEntity
  8
외형선
  6
Continuous
 62
     1
370
    15
100
AcDbSpline
210
0.0
220
0.0
230
1.0
 70
     8
 71
     3
 72
    11
 73
     7
 74
     0
 42
0.000000001
 43
0.00000001
 40
0.0
 40
0.0
 40
0.0
 40
0.0
 40
0.2031432633287329
 40
0.4407693997477638
 40
0.7094293298107717
 40
1.0
 40
1.0
 40
1.0
 40
1.0
 10
21.76725742156873
 20
-3.111770689730843
 30
0.0
 10
21.7996394124334
 20
-3.09007137050649
 30
0.0
 10
21.86990012618871
 20
-3.042989346949665
 30
0.0
 10
22.01600703801096
 20
-3.007577960970726
 30
0.0
 10
22.18944281916134
 20
-3.021824357683796
 30
0.0
 10
22.28559849471092
 20
-3.081949660416573
 30
0.0
 10
22.3355600294952
 20
-3.113190171044056
 30
0.0
  0
SPLINE
  5
A8
330
1F
100
AcDbEntity
  8
외형선
  6
Continuous
 62
     1
370
    15
100
AcDbSpline
210
0.0
220
0.0
230
1.0
 70
     8
 71
     3
 72
    11
 73
     7
 74
     0
 42
0.000000001
 43
0.00000001
 40
0.0
 40
0.0
 40
0.0
 40
0.0
 40
0.2468805253038484
 40
0.5003018847219122
 40
0.7535940626810795
 40
1.0
 40
1.0
 40
1.0
 40
1.0
 10
13.33487202735284
 20
3.112693318115279
 30
0.0
 10
13.29384532488467
 20
3.086067495016042
 30
0.0
 10
13.21070496157135
 20
3.032110426258085
 30
0.0
 10
13.05056408291203
 20
3.006329125014886
 30
0.0
 10
12.89038027195542
 20
3.03211296116395
 30
0.0
 10
12.80692384427282
 20
3.086222681471928
 30
0.0
 10
12.76577067867207
 20
3.11290470396291
 30
0.0
  0
SPLINE
  5
A9
330
1F
100
AcDbEntity
  8
외형선
  6
Continuous
 62
     1
370
    15
100
AcDbSpline
210
0.0
220
0.0
230
1.0
 70
     8
 71
     3
 72
     9
 73
     5
 74
     0
 42
0.000000001
 43
0.00000001
 40
0.0
 40
0.0
 40
0.0
 40
0.0
 40
0.4978869743697076
 40
0.9999999999999999
 40
0.9999999999999999
 40
0.9999999999999999
 40
0.9999999999999999
 10
22.33006012767654
 20
-3.108825615704811
 30
0.0
 10
22.35850628572891
 20
-3.127919081702345
 30
0.0
 10
22.41564005205889
 20
-3.166268078523771
 30
0.0
 10
22.48085929366023
 20
-3.172081166707269
 30
0.0
 10
22.51360672438999
 20
-3.174999994003341
 30
0.0
  0
LINE
  5
AA
330
1F
100
AcDbEntity
  8
외형선
  6
Continuous
 62
     1
370
    15
100
AcDbLine
 10
22.51359475698593
 20
-3.174999999999999
 30
0.0
 11
23.58755554681672
 21
-3.174999999999999
 31
0.0
  0
SPLINE
  5
AB
330
1F
100
AcDbEntity
  8
외형선
  6
Continuous
 62
     1
370
    15
100
AcDbSpline
210
0.0
220
0.0
230
1.0
 70
     8
 71
     3
 72
     9
 73
     5
 74
     0
 42
0.000000001
 43
0.00000001
 40
0.0
 40
0.0
 40
0.0
 40
0.0
 40
0.4966232317687709
 40
1.0
 40
1.0
 40
1.0
 40
1.0
 10
12.77030275018669
 20
3.109228546976687
 30
0.0
 10
12.74202729136858
 20
3.128190631070259
 30
0.0
 10
12.68509185820851
 20
3.166372663002268
 30
0.0
 10
12.62025884762897
 20
3.172111260246186
 30
0.0
 10
12.58762341628875
 20
3.174999936781009
 30
0.0
  0
LINE
  5
AC
330
1F
100
AcDbEntity
  8
외형선
  6
Continuous
 62
     1
370
    15
100
AcDbLine
 10
12.58640408676026
 20
3.175000000000001
 30
0.0
 11
11.51330894891954
 21
3.175000000000001
 31
0.0
  0
SPLINE
  5
AD
330
1F
100
AcDbEntity
  8
외형선
  6
Continuous
 62
     1
370
    15
100
AcDbSpline
210
0.0
220
0.0
230
1.0
 70
     8
 71
     3
 72
     9
 73
     5
 74
     0
 42
0.000000001
 43
0.00000001
 40
0.0
 40
0.0
 40
0.0
 40
0.0
 40
0.503051649373318
 40
0.9999999999999999
 40
0.9999999999999999
 40
0.9999999999999999
 40
0.9999999999999999
 10
23.58766825150089
 20
-3.174999817053942
 30
0.0
 10
23.61944645035516
 20
-3.172276714464743
 30
0.0
 10
23.68261729751142
 20
-3.166863547461728
 30
0.0
 10
23.7378038696443
 20
-3.131082158268738
 30
0.0
 10
23.76522874564248
 20
-3.113300655926151
 30
0.0
  0
SPLINE
  5
AE
330
1F
100
AcDbEntity
  8
외형선
  6
Continuous
 62
     1
370
    15
100
AcDbSpline
210
0.0
220
0.0
230
1.0
 70
     8
 71
     3
 72
    11
 73
     7
 74
     0
 42
0.000000001
 43
0.00000001
 40
0.0
 40
0.0
 40
0.0
 40
0.0
 40
0.2449153691906166
 40
0.4999211483100834
 40
0.7549552552858976
 40
1.0
 40
1.0
 40
1.0
 40
1.0
 10
23.76376653629061
 20
-3.114322698713596
 30
0.0
 10
23.8064618263293
 20
-3.086689559701801
 30
0.0
 10
23.89361143435149
 20
-3.030284808003929
 30
0.0
 10
24.05676870462356
 20
-3.005643824731428
 30
0.0
 10
24.21990934734691
 20
-3.033093912196295
 30
0.0
 10
24.30691999935089
 20
-3.091577241012154
 30
0.0
 10
24.34955628148055
 20
-3.120234786379818
 30
0.0
  0
SPLINE
  5
AF
330
1F
100
AcDbEntity
  8
외형선
  6
Continuous
 62
     1
370
    15
100
AcDbSpline
210
0.0
220
0.0
230
1.0
 70
     8
 71
     3
 72
     9
 73
     5
 74
     0
 42
0.000000001
 43
0.00000001
 40
0.0
 40
0.0
 40
0.0
 40
0.0
 40
0.5021039137008179
 40
1.0
 40
1.0
 40
1.0
 40
1.0
 10
11.51147137191683
 20
3.174928272936265
 30
0.0
 10
11.48014278280055
 20
3.172057015207751
 30
0.0
 10
11.41774815041186
 20
3.166338562014764
 30
0.0
 10
11.36352229602011
 20
3.131305241359503
 30
0.0
 10
11.33652345534223
 20
3.113862288115184
 30
0.0
  0
LINE
  5
B0
330
1F
100
AcDbEntity
  8
외형선
  6
Continuous
 62
     1
370
    15
100
AcDbLine
 10
29.04999999999999
 20
2.074999999999996
 30
0.0
 11
28.2970315723595
 21
2.827968427640484
 31
0.0
  0
SPLINE
  5
B1
330
1F
100
AcDbEntity
  8
외형선
  6
Continuous
 62
     1
370
    15
100
AcDbSpline
210
0.0
220
0.0
230
1.0
 70
     8
 71
     3
 72
    11
 73
     7
 74
     0
 42
0.000000001
 43
0.00000001
 40
0.0
 40
0.0
 40
0.0
 40
0.0
 40
0.2448191417268415
 40
0.5000421436087615
 40
0.7552509688861997
 40
1.0
 40
1.0
 40
1.0
 40
1.0
 10
11.33591860489955
 20
3.113443547813409
 30
0.0
 10
11.29309635561211
 20
3.085829762877238
 30
0.0
 10
11.2056320781998
 20
3.029428714677989
 30
0.0
 10
11.04217443562924
 20
3.005160317882045
 30
0.0
 10
10.87870641362508
 20
3.032978915183355
 30
0.0
 10
10.7911569133384
 20
3.092100917204877
 30
0.0
 10
10.74829799013969
 20
3.121043462116006
 30
0.0
  0
LINE
  5
B2
330
1F
100
AcDbEntity
  8
외형선
  6
Continuous
 62
     1
370
    15
100
AcDbLine
 10
24.50194748369285
 20
-3.169178400096068
 30
0.0
 11
24.52626775874725
 21
-3.172514867439673
 31
0.0
  0
LINE
  5
B3
330
1F
100
AcDbEntity
  8
외형선
  6
Continuous
 62
     1
370
    15
100
AcDbLine
 10
24.51354844765174
 20
-3.174999999999999
 30
0.0
 11
25.02954204602914
 21
-3.174999999999999
 31
0.0
  0
LINE
  5
B4
330
1F
100
AcDbEntity
  8
외형선
  6
Continuous
 62
     1
370
    15
100
AcDbLine
 10
10.63401827847119
 20
3.168819011149171
 30
0.0
 11
10.57160181368825
 21
3.171088399881034
 31
0.0
  0
LINE
  5
B5
330
1F
100
AcDbEntity
  8
외형선
  6
Continuous
370
    15
100
AcDbLine
 10
10.58761451475094
 20
3.175000000000001
 30
0.0
 11
10.23306025933466
 21
3.175000000000001
 31
0.0
  0
SPLINE
  5
B6
330
1F
100
AcDbEntity
  8
외형선
  6
Continuous
 62
     1
370
    15
100
AcDbSpline
210
0.0
220
0.0
230
1.0
 70
     8
 71
     3
 72
     9
 73
     5
 74
     0
 42
0.000000001
 43
0.00000001
 40
0.0
 40
0.0
 40
0.0
 40
0.0
 40
0.3943881622343767
 40
1.0
 40
1.0
 40
1.0
 40
1.0
 10
25.72904238040809
 20
-3.135258623351632
 30
0.0
 10
25.73752287668588
 20
-3.130084175557561
 30
0.0
 10
25.75902579459738
 20
-3.116963985121932
 30
0.0
 10
25.7791322262897
 20
-3.09612404750487
 30
0.0
 10
25.7913089193378
 20
-3.08350313458568
 30
0.0
  0
SPLINE
  5
B7
330
1F
100
AcDbEntity
  8
외형선
  6
Continuous
370
    15
100
AcDbSpline
210
0.0
220
0.0
230
1.0
 70
     8
 71
     3
 72
    14
 73
    10
 74
     0
 42
0.000000001
 43
0.00000001
 40
0.0
 40
0.0
 40
0.0
 40
0.0
 40
0.25
 40
0.25
 40
0.5
 40
0.5
 40
0.75
 40
0.75
 40
1.0
 40
1.0
 40
1.0
 40
1.0
 10
9.999999999999982
 20
3.173870332732283
 30
0.0
 10
9.747872209078553
 20
3.171424420552552
 30
0.0
 10
9.497807103825442
 20
3.165022916994083
 30
0.0
 10
8.995322732605796
 20
3.14432954464687
 30
0.0
 10
8.742674080537986
 20
3.130018291349844
 30
0.0
 10
8.23739702098998
 20
3.093584060533409
 30
0.0
 10
7.98477216928241
 20
3.071461341236573
 30
0.0
 10
7.482382112376539
 20
3.019697255554179
 30
0.0
 10
7.232251694073448
 20
2.990058392740552
 30
0.0
 10
6.980095925518897
 20
2.956638112121733
 30
0.0
  0
LINE
  5
B8
330
1F
100
AcDbEntity
  8
외형선
  6
Continuous
370
    15
100
AcDbLine
 10
6.980095925518894
 20
3.175
 30
0.0
 11
6.980095925518897
 21
1.51759123305503
 31
0.0
  0
SPLINE
  5
B9
330
1F
100
AcDbEntity
  8
외형선
  6
Continuous
370
    15
100
AcDbSpline
210
0.0
220
0.0
230
1.0
 70
     8
 71
     3
 72
    14
 73
    10
 74
     0
 42
0.000000001
 43
0.00000001
 40
0.0
 40
0.0
 40
0.0
 40
0.0
 40
0.25
 40
0.25
 40
0.5
 40
0.5
 40
0.75
 40
0.75
 40
1.0
 40
1.0
 40
1.0
 40
1.0
 10
9.999999999999982
 20
0.4807578760405421
 30
0.0
 10
9.747872209078553
 20
0.5713988120363823
 30
0.0
 10
9.497807103825442
 20
0.6611921424006335
 30
0.0
 10
8.995322732605796
 20
0.8391870633751969
 30
0.0
 10
8.742674080537986
 20
0.9274121882969962
 30
0.0
 10
8.237397020989983
 20
1.101314409847288
 30
0.0
 10
7.98477216928241
 20
1.186990283271887
 30
0.0
 10
7.482382112376539
 20
1.354845488162358
 30
0.0
 10
7.232251694073448
 20
1.437072097143496
 30
0.0
 10
6.980095925518897
 20
1.517619619723109
 30
0.0
  0
LINE
  5
BA
330
1F
100
AcDbEntity
  8
외형선
  6
Continuous
370
    15
100
AcDbLine
 10
9.999999999999982
 20
0.4807578760405423
 30
0.0
 11
9.999999999999982
 21
-1.513592932616259
 31
0.0
  0
SPLINE
  5
BB
330
1F
100
AcDbEntity
  8
외형선
  6
Continuous
370
    15
100
AcDbSpline
210
0.0
220
0.0
230
1.0
 70
     8
 71
     3
 72
    14
 73
    10
 74
     0
 42
0.000000001
 43
0.00000001
 40
0.0
 40
0.0
 40
0.0
 40
0.0
 40
0.25
 40
0.25
 40
0.5
 40
0.5
 40
0.75
 40
0.75
 40
1.0
 40
1.0
 40
1.0
 40
1.0
 10
9.999999999999982
 20
-1.513592932616259
 30
0.0
 10
9.747872209078553
 20
-1.432985210340501
 30
0.0
 10
9.497807103825442
 20
-1.350707952823432
 30
0.0
 10
8.995322732605796
 20
-1.182736730110921
 30
0.0
 10
8.742674080537986
 20
-1.097010415206885
 30
0.0
 10
8.23739702098998
 20
-0.9230236957318739
 30
0.0
 10
7.98477216928241
 20
-0.8347645161464691
 30
0.0
 10
7.482382112376539
 20
-0.6567185138161535
 30
0.0
 10
7.232251694073448
 20
-0.5668919488207524
 30
0.0
 10
6.980095925518897
 20
-0.4762277151832421
 30
0.0
  0
SPLINE
  5
BC
330
1F
100
AcDbEntity
  8
외형선
  6
Continuous
370
    15
100
AcDbSpline
210
0.0
220
0.0
230
1.0
 70
     8
 71
     3
 72
    14
 73
    10
 74
     0
 42
0.000000001
 43
0.00000001
 40
0.0
 40
0.0
 40
0.0
 40
0.0
 40
0.2499999999999999
 40
0.2499999999999999
 40
0.4999999999999999
 40
0.4999999999999999
 40
0.7499999999999999
 40
0.7499999999999999
 40
1.0
 40
1.0
 40
1.0
 40
1.0
 10
9.999999999999982
 20
-2.958305104874093
 30
0.0
 10
9.747872209078553
 20
-2.991600868778747
 30
0.0
 10
9.497807103825442
 20
-3.02111258800273
 30
0.0
 10
8.9953227326058
 20
-3.07262655420421
 30
0.0
 10
8.74267408053799
 20
-3.094621080347549
 30
0.0
 10
8.237397020989983
 20
-3.130795499251133
 30
0.0
 10
7.98477216928241
 20
-3.144975139267058
 30
0.0
 10
7.482382112376539
 20
-3.165404839103701
 30
0.0
 10
7.232251694073448
 20
-3.171675564578973
 30
0.0
 10
6.980095925518897
 20
-3.173989258137318
 30
0.0
  0
LINE
  5
BD
330
1F
100
AcDbEntity
  8
외형선
  6
Continuous
370
    15
100
AcDbLine
 10
-33.64000000000001
 20
3.174999999999996
 30
0.0
 11
-33.64000000000001
 21
-3.175000000000004
 31
0.0
  0
LINE
  5
BE
330
1F
100
AcDbEntity
  8
외형선
  6
Continuous
370
    15
100
AcDbLine
 10
6.980095925518894
 20
-0.4762017203759643
 30
0.0
 11
6.980095925518897
 21
-3.174999999999999
 31
0.0
  0
LINE
  5
BF
330
1F
100
AcDbEntity
  8
외형선
  6
Continuous
370
    15
100
AcDbLine
 10
-34.45000000000002
 20
2.364999999999996
 30
0.0
 11
-34.45000000000002
 21
-2.365000000000007
 31
0.0
  0
SPLINE
  5
C0
330
1F
100
AcDbEntity
  8
외형선
  6
Continuous
370
    15
100
AcDbSpline
210
0.0
220
0.0
230
1.0
 70
    24
 71
     3
 72
    12
 73
     8
 74
     0
 42
0.000000001
 43
0.00000001
 40
0.0
 40
0.0
 40
0.0
 40
0.0
 40
0.1609259518037362
 40
0.4076350012662947
 40
0.6614986298765119
 40
0.829647256237124
 40
1.0
 40
1.0
 40
1.0
 40
1.0
 10
9.999999999999982
 20
-1.557455432037159
 30
0.0
 10
9.999999999999982
 20
-1.601589404768957
 30
0.0
 10
9.999999999999982
 20
-1.713383380996944
 30
0.0
 10
9.999999999999986
 20
-1.986182224488604
 30
0.0
 10
9.999999999999982
 20
-2.314144162888071
 30
0.0
 10
9.999999999999982
 20
-2.645259975009541
 30
0.0
 10
9.999999999999982
 20
-2.853504740017571
 30
0.0
 10
9.999999999999982
 20
-2.958305104874091
 30
0.0
  0
SPLINE
  5
C1
330
1F
100
AcDbEntity
  8
외형선
  6
Continuous
370
    15
100
AcDbSpline
210
0.0
220
0.0
230
1.0
 70
    24
 71
     3
 72
    15
 73
    11
 74
     0
 42
0.000000001
 43
0.00000001
 40
0.0
 40
0.0
 40
0.0
 40
0.0
 40
0.0844144997154494
 40
0.169725365592429
 40
0.3070373266446463
 40
0.4483313438695513
 40
0.5856433049217689
 40
0.7269373221466735
 40
0.8642492831988948
 40
0.9999999999999999
 40
0.9999999999999999
 40
0.9999999999999999
 40
0.9999999999999999
 10
9.999999999999982
 20
3.173870332732282
 30
0.0
 10
9.999999999999982
 20
3.067497417385772
 30
0.0
 10
9.999999999999982
 20
2.853622052286443
 30
0.0
 10
9.999999999999982
 20
2.478558785310737
 30
0.0
 10
9.999999999999982
 20
2.054963210360186
 30
0.0
 10
9.999999999999982
 20
1.616380836555338
 30
0.0
 10
9.999999999999982
 20
1.23130818149588
 30
0.0
 10
9.999999999999982
 20
0.9200994372578571
 30
0.0
 10
9.999999999999982
 20
0.6802413271073839
 30
0.0
 10
9.999999999999982
 20
0.5930955905749098
 30
0.0
 10
9.999999999999982
 20
0.5497718515218634
 30
0.0
  0
SPLINE
  5
C2
330
1F
100
AcDbEntity
  8
외형선
  6
Continuous
 62
     1
370
    15
100
AcDbSpline
210
0.0
220
0.0
230
1.0
 70
     8
 71
     3
 72
     8
 73
     4
 74
     0
 42
0.000000001
 43
0.00000001
 40
0.0
 40
0.0
 40
0.0
 40
0.0
 40
1.0
 40
1.0
 40
1.0
 40
1.0
 10
27.79265763720022
 20
0.6478096557990735
 30
0.0
 10
27.83897119079668
 20
0.6338776598655481
 30
0.0
 10
27.89546724838865
 20
0.6151410958085073
 30
0.0
 10
27.95348484366865
 20
0.5944394390501679
 30
0.0
  0
SPLINE
  5
C3
330
1F
100
AcDbEntity
  8
외형선
  6
Continuous
 62
     1
370
    15
100
AcDbSpline
210
0.0
220
0.0
230
1.0
 70
     8
 71
     3
 72
    12
 73
     8
 74
     0
 42
0.000000001
 43
0.00000001
 40
0.0
 40
0.0
 40
0.0
 40
0.0
 40
0.4999999999999998
 40
0.4999999999999998
 40
0.7499999999999999
 40
0.7499999999999999
 40
1.0
 40
1.0
 40
1.0
 40
1.0
 10
27.95002229302575
 20
0.5956734685636561
 30
0.0
 10
27.95046158483724
 20
0.2627500107435651
 30
0.0
 10
27.95669533270729
 20
-0.0807102176890379
 30
0.0
 10
27.9709275131889
 20
-0.580957668525349
 30
0.0
 10
27.97655721528321
 20
-0.7460438604863955
 30
0.0
 10
27.98904625697647
 20
-1.064545280346384
 30
0.0
 10
27.99591928090674
 20
-1.218619493307372
 30
0.0
 10
28.00333333333332
 20
-1.367463274630921
 30
0.0
  0
SPLINE
  5
C4
330
1F
100
AcDbEntity
  8
외형선
  6
Continuous
 62
     1
370
    15
100
AcDbSpline
210
0.0
220
0.0
230
1.0
 70
     8
 71
     3
 72
    12
 73
     8
 74
     0
 42
0.000000001
 43
0.00000001
 40
0.0
 40
0.0
 40
0.0
 40
0.0
 40
0.5000000000000002
 40
0.5000000000000002
 40
0.7500000000000001
 40
0.7500000000000001
 40
1.0
 40
1.0
 40
1.0
 40
1.0
 10
28.00333333333329
 20
-1.367463274630656
 30
0.0
 10
27.96935211662974
 20
-1.06094345269725
 30
0.0
 10
27.93293672159729
 20
-0.7220931178808702
 30
0.0
 10
27.87898674646976
 20
-0.2047415235146854
 30
0.0
 10
27.86112679947321
 20
-0.030935632718334
 30
0.0
 10
27.82637104697325
 20
0.3122353231669798
 30
0.0
 10
27.80988178565346
 20
0.480281228315275
 30
0.0
 10
27.79265763719991
 20
0.6478096557990528
 30
0.0
  0
SPLINE
  5
C5
330
1F
100
AcDbEntity
  8
외형선
  6
Continuous
 62
     1
370
    15
100
AcDbSpline
210
0.0
220
0.0
230
1.0
 70
     8
 71
     3
 72
     8
 73
     4
 74
     0
 42
0.000000001
 43
0.00000001
 40
0.0
 40
0.0
 40
0.0
 40
0.0
 40
1.0
 40
1.0
 40
1.0
 40
1.0
 10
27.36789168934909
 20
-1.203588288745002
 30
0.0
 10
27.32154069843507
 20
-1.196972911398407
 30
0.0
 10
27.26500926369871
 20
-1.182717126504595
 30
0.0
 10
27.20697063937108
 20
-1.163005646361377
 30
0.0
  0
SPLINE
  5
C6
330
1F
100
AcDbEntity
  8
외형선
  6
Continuous
 62
     1
370
    15
100
AcDbSpline
210
0.0
220
0.0
230
1.0
 70
     8
 71
     3
 72
    10
 73
     6
 74
     0
 42
0.000000001
 43
0.00000001
 40
0.0
 40
0.0
 40
0.0
 40
0.0
 40
0.5
 40
0.5
 40
1.0
 40
1.0
 40
1.0
 40
1.0
 10
27.2069694239317
 20
-1.162994323319478
 30
0.0
 10
27.17143196640588
 20
-0.8319265863365364
 30
0.0
 10
27.13405111559116
 20
-0.4727834851631716
 30
0.0
 10
27.06183352314653
 20
0.2421113204572267
 30
0.0
 10
27.02852348746053
 20
0.5924961117518972
 30
0.0
 10
26.99255061936065
 20
0.9339274210974907
 30
0.0
  0
SPLINE
  5
C7
330
1F
100
AcDbEntity
  8
외형선
  6
Continuous
 62
     1
370
    15
100
AcDbSpline
210
0.0
220
0.0
230
1.0
 70
     8
 71
     3
 72
     8
 73
     4
 74
     0
 42
0.000000001
 43
0.00000001
 40
0.0
 40
0.0
 40
0.0
 40
0.0
 40
1.0
 40
1.0
 40
1.0
 40
1.0
 10
26.99255162119778
 20
0.933917912322635
 30
0.0
 10
27.04876211703325
 20
0.9143057136571552
 30
0.0
 10
27.10534266556468
 20
0.8912919089386285
 30
0.0
 10
27.15202027181096
 20
0.8702333760435811
 30
0.0
  0
SPLINE
  5
C8
330
1F
100
AcDbEntity
  8
외형선
  6
Continuous
 62
     1
370
    15
100
AcDbSpline
210
0.0
220
0.0
230
1.0
 70
     8
 71
     3
 72
    10
 73
     6
 74
     0
 42
0.000000001
 43
0.00000001
 40
0.0
 40
0.0
 40
0.0
 40
0.0
 40
0.4999999999999999
 40
0.4999999999999999
 40
1.0
 40
1.0
 40
1.0
 40
1.0
 10
27.36789168932804
 20
-1.203588288549409
 30
0.0
 10
27.33233709256362
 20
-0.8792195505392291
 30
0.0
 10
27.2947259736348
 20
-0.5252099340969083
 30
0.0
 10
27.22172945841562
 20
0.1829557442056526
 30
0.0
 10
27.18810755532264
 20
0.5309536187192333
 30
0.0
 10
27.152020271814
 20
0.8702333760195508
 30
0.0
  0
SPLINE
  5
C9
330
1F
100
AcDbEntity
  8
외형선
  6
Continuous
 62
     1
370
    15
100
AcDbSpline
210
0.0
220
0.0
230
1.0
 70
     8
 71
     3
 72
     8
 73
     4
 74
     0
 42
0.000000001
 43
0.00000001
 40
0.0
 40
0.0
 40
0.0
 40
0.0
 40
1.0
 40
1.0
 40
1.0
 40
1.0
 10
27.20696579717593
 20
-1.163004001819847
 30
0.0
 10
26.83662910420201
 20
-1.037227651021397
 30
0.0
 10
26.46486667380091
 20
-0.9081231462744034
 30
0.0
 10
26.09179426935491
 20
-0.7767376443054599
 30
0.0
  0
SPLINE
  5
CA
330
1F
100
AcDbEntity
  8
외형선
  6
Continuous
 62
     1
370
    15
100
AcDbSpline
210
0.0
220
0.0
230
1.0
 70
     8
 71
     3
 72
    12
 73
     8
 74
     0
 42
0.000000001
 43
0.00000001
 40
0.0
 40
0.0
 40
0.0
 40
0.0
 40
0.5000000000000001
 40
0.5000000000000001
 40
0.7500000000000002
 40
0.7500000000000002
 40
1.0
 40
1.0
 40
1.0
 40
1.0
 10
26.09206509321473
 20
-0.7767109502985927
 30
0.0
 10
26.05560506085574
 20
-0.4289434722375458
 30
0.0
 10
26.01849842444729
 20
-0.0641361665717218
 30
0.0
 10
25.96643569340216
 20
0.4629891874059218
 30
0.0
 10
25.94955534882779
 20
0.6358253365765273
 30
0.0
 10
25.9140010053454
 20
0.9798018579847197
 30
0.0
 10
25.89577569563778
 20
1.149398880996186
 30
0.0
 10
25.87748376280933
 20
1.312866447984358
 30
0.0
  0
SPLINE
  5
CB
330
1F
100
AcDbEntity
  8
외형선
  6
Continuous
 62
     1
370
    15
100
AcDbSpline
210
0.0
220
0.0
230
1.0
 70
     8
 71
     3
 72
     8
 73
     4
 74
     0
 42
0.000000001
 43
0.00000001
 40
0.0
 40
0.0
 40
0.0
 40
0.0
 40
1.0
 40
1.0
 40
1.0
 40
1.0
 10
26.99255161756891
 20
0.9339179135878489
 30
0.0
 10
26.62292949330343
 20
1.062881418057896
 30
0.0
 10
26.24972720778441
 20
1.189719485249904
 30
0.0
 10
25.87748375833538
 20
1.312865888261034
 30
0.0
  0
SPLINE
  5
CC
330
1F
100
AcDbEntity
  8
외형선
  6
Continuous
 62
     1
370
    15
100
AcDbSpline
210
0.0
220
0.0
230
1.0
 70
     8
 71
     3
 72
     8
 73
     4
 74
     0
 42
0.000000001
 43
0.00000001
 40
0.0
 40
0.0
 40
0.0
 40
0.0
 40
1.0
 40
1.0
 40
1.0
 40
1.0
 10
25.1303554511711
 20
-0.4333857677929324
 30
0.0
 10
24.76113064513621
 20
-0.2997033648631784
 30
0.0
 10
24.3879361327951
 20
-0.1643640934366443
 30
0.0
 10
24.01530958210211
 20
-0.0290115509314851
 30
0.0
  0
SPLINE
  5
CD
330
1F
100
AcDbEntity
  8
외형선
  6
Continuous
 62
     1
370
    15
100
AcDbSpline
210
0.0
220
0.0
230
1.0
 70
     8
 71
     3
 72
    10
 73
     6
 74
     0
 42
0.000000001
 43
0.00000001
 40
0.0
 40
0.0
 40
0.0
 40
0.0
 40
0.5
 40
0.5
 40
1.0
 40
1.0
 40
1.0
 40
1.0
 10
24.01530968995538
 20
-0.0290115400891571
 30
0.0
 10
23.97943006203081
 20
0.3278686696702485
 30
0.0
 10
23.94609063233548
 20
0.6769648163810027
 30
0.0
 10
23.87373625570665
 20
1.355078037507836
 30
0.0
 10
23.83638250493384
 20
1.677661274010764
 30
0.0
 10
23.8009606871468
 20
1.957464572210514
 30
0.0
  0
SPLINE
  5
CE
330
1F
100
AcDbEntity
  8
외형선
  6
Continuous
 62
     1
370
    15
100
AcDbSpline
210
0.0
220
0.0
230
1.0
 70
     8
 71
     3
 72
     8
 73
     4
 74
     0
 42
0.000000001
 43
0.00000001
 40
0.0
 40
0.0
 40
0.0
 40
0.0
 40
1.0
 40
1.0
 40
1.0
 40
1.0
 10
24.91572930011905
 20
1.623316062517671
 30
0.0
 10
24.54571886195397
 20
1.739251393533346
 30
0.0
 10
24.17261692632888
 20
1.851094693990644
 30
0.0
 10
23.80095977857224
 20
1.957463911707269
 30
0.0
  0
SPLINE
  5
CF
330
1F
100
AcDbEntity
  8
외형선
  6
Continuous
 62
     1
370
    15
100
AcDbSpline
210
0.0
220
0.0
230
1.0
 70
     8
 71
     3
 72
    12
 73
     8
 74
     0
 42
0.000000001
 43
0.00000001
 40
0.0
 40
0.0
 40
0.0
 40
0.0
 40
0.2500000000000001
 40
0.2500000000000001
 40
0.5000000000000002
 40
0.5000000000000002
 40
1.0
 40
1.0
 40
1.0
 40
1.0
 10
25.13035480792975
 20
-0.4333794820401956
 30
0.0
 10
25.11206709187436
 20
-0.2555070674778665
 30
0.0
 10
25.09386976594899
 20
-0.0758488919921016
 30
0.0
 10
25.05841497159818
 20
0.2793823986669207
 30
0.0
 10
25.0416096140846
 20
0.4534510400950648
 30
0.0
 10
24.98932580333194
 20
0.9731510331161334
 30
0.0
 10
24.9521542275518
 20
1.315127092855696
 30
0.0
 10
24.91572830148342
 20
1.623326199981107
 30
0.0
  0
SPLINE
  5
D0
330
1F
100
AcDbEntity
  8
외형선
  6
Continuous
 62
     1
370
    15
100
AcDbSpline
210
0.0
220
0.0
230
1.0
 70
     8
 71
     3
 72
     8
 73
     4
 74
     0
 42
0.000000001
 43
0.00000001
 40
0.0
 40
0.0
 40
0.0
 40
0.0
 40
1.0
 40
1.0
 40
1.0
 40
1.0
 10
11.29188747767346
 20
-1.90849956763476
 30
0.0
 10
10.92229551775223
 20
-1.800723546723157
 30
0.0
 10
10.54929339460131
 20
-1.687431200959226
 30
0.0
 10
10.17741322019183
 20
-1.569971470185905
 30
0.0
  0
SPLINE
  5
D1
330
1F
100
AcDbEntity
  8
외형선
  6
Continuous
 62
     1
370
    15
100
AcDbSpline
210
0.0
220
0.0
230
1.0
 70
     8
 71
     3
 72
    10
 73
     6
 74
     0
 42
0.000000001
 43
0.00000001
 40
0.0
 40
0.0
 40
0.0
 40
0.0
 40
0.4999999999999999
 40
0.4999999999999999
 40
1.0
 40
1.0
 40
1.0
 40
1.0
 10
10.17741328215777
 20
-1.56997203295118
 30
0.0
 10
10.14900389888236
 20
-1.317472256597491
 30
0.0
 10
10.11998284776572
 20
-1.043338759289736
 30
0.0
 10
10.05973709791887
 20
-0.4679910617652835
 30
0.0
 10
10.0292071985422
 20
-0.1690804461919437
 30
0.0
 10
10.0000080847724
 20
0.1238351652128669
 30
0.0
  0
SPLINE
  5
D2
330
1F
100
AcDbEntity
  8
외형선
  6
Continuous
 62
     1
370
    15
100
AcDbSpline
210
0.0
220
0.0
230
1.0
 70
     8
 71
     3
 72
     8
 73
     4
 74
     0
 42
0.000000001
 43
0.00000001
 40
0.0
 40
0.0
 40
0.0
 40
0.0
 40
1.0
 40
1.0
 40
1.0
 40
1.0
 10
11.07720876573301
 20
0.0910854256430967
 30
0.0
 10
10.71914371209902
 20
0.2214154549264732
 30
0.0
 10
10.35870972244871
 20
0.3518003149770238
 30
0.0
 10
9.999999999999982
 20
0.4807578760405423
 30
0.0
  0
SPLINE
  5
D3
330
1F
100
AcDbEntity
  8
외형선
  6
Continuous
 62
     1
370
    15
100
AcDbSpline
210
0.0
220
0.0
230
1.0
 70
     8
 71
     3
 72
    10
 73
     6
 74
     0
 42
0.000000001
 43
0.00000001
 40
0.0
 40
0.0
 40
0.0
 40
0.0
 40
0.5
 40
0.5
 40
1.0
 40
1.0
 40
1.0
 40
1.0
 10
11.29161476595097
 20
-1.908508143857341
 30
0.0
 10
11.25566551577327
 20
-1.623080726480218
 30
0.0
 10
11.22234926251181
 20
-1.309203697551817
 30
0.0
 10
11.15009202553826
 20
-0.6278135433477599
 30
0.0
 10
11.11271693469346
 20
-0.2644681412379806
 30
0.0
 10
11.07720932602536
 20
0.0910798103370193
 30
0.0
  0
LINE
  5
D4
330
1F
100
AcDbEntity
  8
외형선
  6
Continuous
370
    15
100
AcDbLine
 10
9.999999999999982
 20
0.1238343605141095
 30
0.0
 11
9.999999999999982
 21
0.4807578760405428
 31
0.0
  0
SPLINE
  5
D5
330
1F
100
AcDbEntity
  8
외형선
  6
Continuous
 62
     1
370
    15
100
AcDbSpline
210
0.0
220
0.0
230
1.0
 70
     8
 71
     3
 72
    10
 73
     6
 74
     0
 42
0.000000001
 43
0.00000001
 40
0.0
 40
0.0
 40
0.0
 40
0.0
 40
0.5
 40
0.5
 40
1.0
 40
1.0
 40
1.0
 40
1.0
 10
27.95001114650944
 20
0.5956781573278785
 30
0.0
 10
28.13458488002098
 20
0.5180369572576529
 30
0.0
 10
28.31886117355955
 20
0.467618771650717
 30
0.0
 10
28.68827627126591
 20
0.4286026112842419
 30
0.0
 10
28.8758895919278
 20
0.4400155392036851
 30
0.0
 10
29.04999999999998
 20
0.4950880597006315
 30
0.0
  0
LINE
  5
D6
330
1F
100
AcDbEntity
  8
외형선
  6
Continuous
 62
     1
370
    15
100
AcDbLine
 10
29.04999999999999
 20
0.4950880597006305
 30
0.0
 11
29.04999999999999
 21
-1.422247913250307
 31
0.0
  0
SPLINE
  5
D7
330
1F
100
AcDbEntity
  8
외형선
  6
Continuous
 62
     1
370
    15
100
AcDbSpline
210
0.0
220
0.0
230
1.0
 70
     8
 71
     3
 72
     8
 73
     4
 74
     0
 42
0.000000001
 43
0.00000001
 40
0.000000298923855
 40
0.000000298923855
 40
0.000000298923855
 40
0.000000298923855
 40
0.0000193564464021
 40
0.0000193564464021
 40
0.0000193564464021
 40
0.0000193564464021
 10
29.04999999999999
 20
-1.422247913250307
 30
0.0
 10
29.04574973082115
 20
-1.426657789854358
 30
0.0
 10
29.04149825008339
 20
-1.43106735463865
 30
0.0
 10
29.03724557735816
 20
-1.435476610010808
 30
0.0
  0
SPLINE
  5
D8
330
1F
100
AcDbEntity
  8
외형선
  6
Continuous
 62
     1
370
    15
100
AcDbSpline
210
0.0
220
0.0
230
1.0
 70
     8
 71
     3
 72
    10
 73
     6
 74
     0
 42
0.000000001
 43
0.00000001
 40
0.0
 40
0.0
 40
0.0
 40
0.0
 40
0.5
 40
0.5
 40
1.0
 40
1.0
 40
1.0
 40
1.0
 10
29.03724557735814
 20
-1.435476610010752
 30
0.0
 10
28.88129711493787
 20
-1.425609666462068
 30
0.0
 10
28.71278498547456
 20
-1.419398379951862
 30
0.0
 10
28.36589827393232
 20
-1.411159182227588
 30
0.0
 10
28.18707676623809
 20
-1.409290881329707
 30
0.0
 10
28.00544026149711
 20
-1.409836462836141
 30
0.0
  0
SPLINE
  5
D9
330
1F
100
AcDbEntity
  8
외형선
  6
Continuous
 62
     1
370
    15
100
AcDbSpline
210
0.0
220
0.0
230
1.0
 70
     8
 71
     3
 72
     8
 73
     4
 74
     0
 42
0.000000001
 43
0.00000001
 40
0.0
 40
0.0
 40
0.0
 40
0.0
 40
0.0000484551619687
 40
0.0000484551619687
 40
0.0000484551619687
 40
0.0000484551619687
 10
28.00333333333332
 20
-1.367463274630921
 30
0.0
 10
28.0040397672175
 20
-1.381645571238295
 30
0.0
 10
28.00474211143648
 20
-1.39577076456533
 30
0.0
 10
28.00544026149711
 20
-1.409836462836143
 30
0.0
  0
SPLINE
  5
DA
330
1F
100
AcDbEntity
  8
외형선
  6
Continuous
 62
     1
370
    15
100
AcDbSpline
210
0.0
220
0.0
230
1.0
 70
     8
 71
     3
 72
     8
 73
     4
 74
     0
 42
0.000000001
 43
0.00000001
 40
0.0
 40
0.0
 40
0.0
 40
0.0
 40
1.0
 40
1.0
 40
1.0
 40
1.0
 10
26.09207838175709
 20
-0.7768377002076216
 30
0.0
 10
26.03585553044768
 20
-0.7570377732367055
 30
0.0
 10
25.97925989851971
 20
-0.7347759814934431
 30
0.0
 10
25.93258423303771
 20
-0.7154257350493858
 30
0.0
  0
SPLINE
  5
DB
330
1F
100
AcDbEntity
  8
외형선
  6
Continuous
 62
     1
370
    15
100
AcDbSpline
210
0.0
220
0.0
230
1.0
 70
     8
 71
     3
 72
    12
 73
     8
 74
     0
 42
0.000000001
 43
0.00000001
 40
0.0
 40
0.0
 40
0.0
 40
0.0
 40
0.4999999999999998
 40
0.4999999999999998
 40
0.7499999999999999
 40
0.7499999999999999
 40
1.0
 40
1.0
 40
1.0
 40
1.0
 10
25.93258390487392
 20
-0.715422648708302
 30
0.0
 10
25.89580847077319
 20
-0.3695551172243363
 30
0.0
 10
25.8585338694483
 20
-0.0081496665822756
 30
0.0
 10
25.80649563934412
 20
0.511569136113228
 30
0.0
 10
25.78927808600538
 20
0.6828435015773472
 30
0.0
 10
25.75327492398088
 20
1.022257459877113
 30
0.0
 10
25.73486151543376
 20
1.189138288106693
 30
0.0
 10
25.71643000131289
 20
1.349469575241041
 30
0.0
  0
SPLINE
  5
DC
330
1F
100
AcDbEntity
  8
외형선
  6
Continuous
 62
     1
370
    15
100
AcDbSpline
210
0.0
220
0.0
230
1.0
 70
     8
 71
     3
 72
     8
 73
     4
 74
     0
 42
0.000000001
 43
0.00000001
 40
0.0
 40
0.0
 40
0.0
 40
0.0
 40
1.0
 40
1.0
 40
1.0
 40
1.0
 10
25.71643000130162
 20
1.349469575341861
 30
0.0
 10
25.76282380150577
 20
1.344944466125047
 30
0.0
 10
25.81939514357784
 20
1.33208289261357
 30
0.0
 10
25.87748382802045
 20
1.312865865209411
 30
0.0
  0
SPLINE
  5
DD
330
1F
100
AcDbEntity
  8
외형선
  6
Continuous
 62
     1
370
    15
100
AcDbSpline
210
0.0
220
0.0
230
1.0
 70
     8
 71
     3
 72
     8
 73
     4
 74
     0
 42
0.000000001
 43
0.00000001
 40
0.0
 40
0.0
 40
0.0
 40
0.0
 40
1.0
 40
1.0
 40
1.0
 40
1.0
 10
13.36842269393467
 20
-2.453092835458228
 30
0.0
 10
12.99905812075323
 20
-2.367407623154924
 30
0.0
 10
12.62579189267053
 20
-2.27474509139347
 30
0.0
 10
12.25316448349984
 20
-2.176179595230784
 30
0.0
  0
SPLINE
  5
DE
330
1F
100
AcDbEntity
  8
외형선
  6
Continuous
 62
     1
370
    15
100
AcDbSpline
210
0.0
220
0.0
230
1.0
 70
     8
 71
     3
 72
    12
 73
     8
 74
     0
 42
0.000000001
 43
0.00000001
 40
0.0
 40
0.0
 40
0.0
 40
0.0
 40
0.2500000000000001
 40
0.2500000000000001
 40
0.5000000000000001
 40
0.5000000000000001
 40
1.0
 40
1.0
 40
1.0
 40
1.0
 10
12.25316422330512
 20
-2.176179764820592
 30
0.0
 10
12.23489105446747
 20
-2.045484958917802
 30
0.0
 10
12.21673188499908
 20
-1.904569072045329
 30
0.0
 10
12.18139538377149
 20
-1.608872201199972
 30
0.0
 10
12.16464424457055
 20
-1.455489458777347
 30
0.0
 10
12.11217118643733
 20
-0.9708543523666637
 30
0.0
 10
12.0749576934102
 20
-0.6162630955157137
 30
0.0
 10
12.03858513182091
 20
-0.2590529099855468
 30
0.0
  0
SPLINE
  5
DF
330
1F
100
AcDbEntity
  8
외형선
  6
Continuous
 62
     1
370
    15
100
AcDbSpline
210
0.0
220
0.0
230
1.0
 70
     8
 71
     3
 72
     8
 73
     4
 74
     0
 42
0.000000001
 43
0.00000001
 40
0.0
 40
0.0
 40
0.0
 40
0.0
 40
1.0
 40
1.0
 40
1.0
 40
1.0
 10
13.15379437053204
 20
-0.6599132675329991
 30
0.0
 10
12.78356868276129
 20
-0.5279042736770628
 30
0.0
 10
12.41031835321554
 20
-0.3937414502245694
 30
0.0
 10
12.03858514016232
 20
-0.2590529854352467
 30
0.0
  0
SPLINE
  5
E0
330
1F
100
AcDbEntity
  8
외형선
  6
Continuous
 62
     1
370
    15
100
AcDbSpline
210
0.0
220
0.0
230
1.0
 70
     8
 71
     3
 72
    12
 73
     8
 74
     0
 42
0.000000001
 43
0.00000001
 40
0.0
 40
0.0
 40
0.0
 40
0.0
 40
0.4999999999999998
 40
0.4999999999999998
 40
0.7499999999999999
 40
0.7499999999999999
 40
1.0
 40
1.0
 40
1.0
 40
1.0
 10
13.36842135593774
 20
-2.453093604529317
 30
0.0
 10
13.33198366755878
 20
-2.22540039444499
 30
0.0
 10
13.29482677199678
 20
-1.948144219288301
 30
0.0
 10
13.24259894737599
 20
-1.494986685253852
 30
0.0
 10
13.22577504845257
 20
-1.338079113569443
 30
0.0
 10
13.19029075361586
 20
-1.00771795433839
 30
0.0
 10
13.172084504842
 20
-0.8355508261133057
 30
0.0
 10
13.1537943135845
 20
-0.6599127369605782
 30
0.0
  0
SPLINE
  5
E1
330
1F
100
AcDbEntity
  8
외형선
  6
Continuous
 62
     1
370
    15
100
AcDbSpline
210
0.0
220
0.0
230
1.0
 70
     8
 71
     3
 72
    10
 73
     6
 74
     0
 42
0.000000001
 43
0.00000001
 40
0.0
 40
0.0
 40
0.0
 40
0.0
 40
0.5
 40
0.5
 40
1.0
 40
1.0
 40
1.0
 40
1.0
 10
28.00544026149711
 20
-1.409836462836144
 30
0.0
 10
27.91071138078366
 20
-1.356700386651406
 30
0.0
 10
27.79578496343873
 20
-1.312782140612621
 30
0.0
 10
27.56765348820462
 20
-1.242332684338109
 30
0.0
 10
27.45858540908254
 20
-1.216532417169407
 30
0.0
 10
27.36789168934946
 20
-1.203588288744893
 30
0.0
  0
SPLINE
  5
E2
330
1F
100
AcDbEntity
  8
외형선
  6
Continuous
 62
     1
370
    15
100
AcDbSpline
210
0.0
220
0.0
230
1.0
 70
     8
 71
     3
 72
    10
 73
     6
 74
     0
 42
0.000000001
 43
0.00000001
 40
0.0
 40
0.0
 40
0.0
 40
0.0
 40
0.5
 40
0.5
 40
1.0
 40
1.0
 40
1.0
 40
1.0
 10
27.15202027181147
 20
0.8702333760433524
 30
0.0
 10
27.24691054019876
 20
0.8274237720608292
 30
0.0
 10
27.36231545737186
 20
0.7870629143681861
 30
0.0
 10
27.59156854405793
 20
0.7104766694298542
 30
0.0
 10
27.70145845889557
 20
0.6752440995548797
 30
0.0
 10
27.79265763719992
 20
0.6478096557990227
 30
0.0
  0
SPLINE
  5
E3
330
1F
100
AcDbEntity
  8
외형선
  6
Continuous
 62
     1
370
    15
100
AcDbSpline
210
0.0
220
0.0
230
1.0
 70
     8
 71
     3
 72
     8
 73
     4
 74
     0
 42
0.000000001
 43
0.00000001
 40
0.0
 40
0.0
 40
0.0
 40
0.0
 40
1.0
 40
1.0
 40
1.0
 40
1.0
 10
23.05444994841026
 20
0.3204258520540296
 30
0.0
 10
22.6852131403388
 20
0.4544943871987168
 30
0.0
 10
22.31249965648514
 20
0.5881129940847295
 30
0.0
 10
21.94083101876946
 20
0.7196495801047248
 30
0.0
  0
SPLINE
  5
E4
330
1F
100
AcDbEntity
  8
외형선
  6
Continuous
 62
     1
370
    15
100
AcDbSpline
210
0.0
220
0.0
230
1.0
 70
     8
 71
     3
 72
    12
 73
     8
 74
     0
 42
0.000000001
 43
0.00000001
 40
0.0
 40
0.0
 40
0.0
 40
0.0
 40
0.4999999999999999
 40
0.4999999999999999
 40
0.7499999999999999
 40
0.7499999999999999
 40
1.0
 40
1.0
 40
1.0
 40
1.0
 10
21.94083106302524
 20
0.7196491539273467
 30
0.0
 10
21.90557637913913
 20
1.065263803404482
 30
0.0
 10
21.86826085224779
 20
1.403553730136793
 30
0.0
 10
21.81384392930183
 20
1.8567732015909
 30
0.0
 10
21.795971545447
 20
1.998893839382536
 30
0.0
 10
21.76147435335552
 20
2.260210436807016
 30
0.0
 10
21.7443944378694
 20
2.380728962616844
 30
0.0
 10
21.72652101888993
 20
2.49122996472052
 30
0.0
  0
SPLINE
  5
E5
330
1F
100
AcDbEntity
  8
외형선
  6
Continuous
 62
     1
370
    15
100
AcDbSpline
210
0.0
220
0.0
230
1.0
 70
     8
 71
     3
 72
     8
 73
     4
 74
     0
 42
0.000000001
 43
0.00000001
 40
0.0
 40
0.0
 40
0.0
 40
0.0
 40
1.0
 40
1.0
 40
1.0
 40
1.0
 10
22.84047489649988
 20
2.22066612989607
 30
0.0
 10
22.47025603751217
 20
2.317030185773863
 30
0.0
 10
22.09742923276971
 20
2.407587953511451
 30
0.0
 10
21.72652130678782
 20
2.491227960982671
 30
0.0
  0
SPLINE
  5
E6
330
1F
100
AcDbEntity
  8
외형선
  6
Continuous
 62
     1
370
    15
100
AcDbSpline
210
0.0
220
0.0
230
1.0
 70
     8
 71
     3
 72
    12
 73
     8
 74
     0
 42
0.000000001
 43
0.00000001
 40
0.0
 40
0.0
 40
0.0
 40
0.0
 40
0.2500000000000001
 40
0.2500000000000001
 40
0.5000000000000001
 40
0.5000000000000001
 40
1.0
 40
1.0
 40
1.0
 40
1.0
 10
23.05445202345382
 20
0.3204300283842533
 30
0.0
 10
23.03714633870123
 20
0.4959798199165077
 30
0.0
 10
23.0201264947078
 20
0.6691313680534968
 30
0.0
 10
22.98440575596064
 20
1.012989358792762
 30
0.0
 10
22.9661194370566
 20
1.18227110922268
 30
0.0
 10
22.91113928724294
 20
1.670956112251008
 30
0.0
 10
22.87459612268628
 20
1.96962314271648
 30
0.0
 10
22.84047495548818
 20
2.220665760350651
 30
0.0
  0
SPLINE
  5
E7
330
1F
100
AcDbEntity
  8
외형선
  6
Continuous
 62
     1
370
    15
100
AcDbSpline
210
0.0
220
0.0
230
1.0
 70
     8
 71
     3
 72
     8
 73
     4
 74
     0
 42
0.000000001
 43
0.00000001
 40
0.0
 40
0.0
 40
0.0
 40
0.0
 40
1.0
 40
1.0
 40
1.0
 40
1.0
 10
25.29143693582242
 20
-0.4904136446858846
 30
0.0
 10
25.24502468569666
 20
-0.4744338333887893
 30
0.0
 10
25.18844300702101
 20
-0.4544170850808708
 30
0.0
 10
25.13035545430967
 20
-0.4333857689293548
 30
0.0
  0
SPLINE
  5
E8
330
1F
100
AcDbEntity
  8
외형선
  6
Continuous
 62
     1
370
    15
100
AcDbSpline
210
0.0
220
0.0
230
1.0
 70
     8
 71
     3
 72
     8
 73
     4
 74
     0
 42
0.000000001
 43
0.00000001
 40
0.0
 40
0.0
 40
0.0
 40
0.0
 40
1.0
 40
1.0
 40
1.0
 40
1.0
 10
24.91572950729985
 20
1.623315997602557
 30
0.0
 10
24.97195777568917
 20
1.605697999995676
 30
0.0
 10
25.02855742680221
 20
1.580626423205051
 30
0.0
 10
25.07524782088102
 20
1.552830849472281
 30
0.0
  0
SPLINE
  5
E9
330
1F
100
AcDbEntity
  8
외형선
  6
Continuous
 62
     1
370
    15
100
AcDbSpline
210
0.0
220
0.0
230
1.0
 70
     8
 71
     3
 72
    12
 73
     8
 74
     0
 42
0.000000001
 43
0.00000001
 40
0.0
 40
0.0
 40
0.0
 40
0.0
 40
0.2499999999999999
 40
0.2499999999999999
 40
0.4999999999999999
 40
0.4999999999999999
 40
1.0
 40
1.0
 40
1.0
 40
1.0
 10
25.29143693581376
 20
-0.4904136445998419
 30
0.0
 10
25.27300501279939
 20
-0.3147936065730267
 30
0.0
 10
25.25461510667805
 20
-0.1369163687736073
 30
0.0
 10
25.2187034008855
 20
0.2156323051279312
 30
0.0
 10
25.2016109952178
 20
0.3888835918774191
 30
0.0
 10
25.14934320449328
 20
0.9039969553227168
 30
0.0
 10
25.11199632668701
 20
1.244618946607757
 30
0.0
 10
25.0752481222801
 20
1.552828321624816
 30
0.0
  0
SPLINE
  5
EA
330
1F
100
AcDbEntity
  8
외형선
  6
Continuous
 62
     1
370
    15
100
AcDbSpline
210
0.0
220
0.0
230
1.0
 70
     8
 71
     3
 72
     8
 73
     4
 74
     0
 42
0.000000001
 43
0.00000001
 40
0.0
 40
0.0
 40
0.0
 40
0.0
 40
1.0
 40
1.0
 40
1.0
 40
1.0
 10
10.17741321878982
 20
-1.569971469743051
 30
0.0
 10
10.12125581825207
 20
-1.55223394673795
 30
0.0
 10
10.06473593123019
 20
-1.527369756479668
 30
0.0
 10
10.01813230710114
 20
-1.500164653180478
 30
0.0
  0
SPLINE
  5
EB
330
1F
100
AcDbEntity
  8
외형선
  6
Continuous
370
    15
100
AcDbSpline
210
0.0
220
0.0
230
1.0
 70
     8
 71
     3
 72
     8
 73
     4
 74
     0
 42
0.000000001
 43
0.00000001
 40
0.0
 40
0.0
 40
0.0
 40
0.0
 40
1.0
 40
1.0
 40
1.0
 40
1.0
 10
10.01813232378148
 20
-1.500164800933579
 30
0.0
 10
10.01210601864599
 20
-1.446775982427676
 30
0.0
 10
10.00611456285191
 20
-1.392636654649114
 30
0.0
 10
10.0000000021647
 20
-1.337363454094454
 30
0.0
  0
SPLINE
  5
EC
330
1F
100
AcDbEntity
  8
외형선
  6
Continuous
370
    15
100
AcDbSpline
210
0.0
220
0.0
230
1.0
 70
    24
 71
     3
 72
     8
 73
     4
 74
     0
 42
0.000000001
 43
0.00000001
 40
0.0
 40
0.0
 40
0.0
 40
0.0
 40
1.0
 40
1.0
 40
1.0
 40
1.0
 10
10.00000000000007
 20
0.1239162690926127
 30
0.0
 10
10.00000000000007
 20
-0.3841055108799702
 30
0.0
 10
10.00000000000018
 20
-0.8963345450045583
 30
0.0
 10
10.00000000000018
 20
-1.337363434526119
 30
0.0
  0
SPLINE
  5
ED
330
1F
100
AcDbEntity
  8
외형선
  6
Continuous
 62
     1
370
    15
100
AcDbSpline
210
0.0
220
0.0
230
1.0
 70
     8
 71
     3
 72
     8
 73
     4
 74
     0
 42
0.000000001
 43
0.00000001
 40
0.0
 40
0.0
 40
0.0
 40
0.0
 40
1.0
 40
1.0
 40
1.0
 40
1.0
 10
11.45261220547794
 20
-1.927893380925515
 30
0.0
 10
11.40623093031731
 20
-1.932219197321383
 30
0.0
 10
11.34968030086439
 20
-1.925352786762197
 30
0.0
 10
11.29160324671408
 20
-1.908416682690744
 30
0.0
  0
SPLINE
  5
EE
330
1F
100
AcDbEntity
  8
외형선
  6
Continuous
 62
     1
370
    15
100
AcDbSpline
210
0.0
220
0.0
230
1.0
 70
     8
 71
     3
 72
     8
 73
     4
 74
     0
 42
0.000000001
 43
0.00000001
 40
0.0
 40
0.0
 40
0.0
 40
0.0
 40
1.0
 40
1.0
 40
1.0
 40
1.0
 10
11.07720876522216
 20
0.0910854258292821
 30
0.0
 10
11.13340861740901
 20
0.070629566462823
 30
0.0
 10
11.18997518117528
 20
0.0516139012589054
 30
0.0
 10
11.23663152742825
 20
0.0396301625539565
 30
0.0
  0
SPLINE
  5
EF
330
1F
100
AcDbEntity
  8
외형선
  6
Continuous
 62
     1
370
    15
100
AcDbSpline
210
0.0
220
0.0
230
1.0
 70
     8
 71
     3
 72
    10
 73
     6
 74
     0
 42
0.000000001
 43
0.00000001
 40
0.0
 40
0.0
 40
0.0
 40
0.0
 40
0.5
 40
0.5
 40
1.0
 40
1.0
 40
1.0
 40
1.0
 10
11.45261220479333
 20
-1.927893375682126
 30
0.0
 10
11.41624365873756
 20
-1.649348805178392
 30
0.0
 10
11.38270111134134
 20
-1.34167494862513
 30
0.0
 10
11.3102303998606
 20
-0.672035756802114
 30
0.0
 10
11.27255698102287
 20
-0.3130589100029507
 30
0.0
 10
11.2366315293477
 20
0.0396301437136694
 30
0.0
  0
SPLINE
  5
F0
330
1F
100
AcDbEntity
  8
외형선
  6
Continuous
 62
     1
370
    15
100
AcDbSpline
210
0.0
220
0.0
230
1.0
 70
     8
 71
     3
 72
    10
 73
     6
 74
     0
 42
0.000000001
 43
0.00000001
 40
0.0
 40
0.0
 40
0.0
 40
0.0
 40
0.3861900927635631
 40
0.8824634832715886
 40
0.9999999999999999
 40
0.9999999999999999
 40
0.9999999999999999
 40
0.9999999999999999
 10
28.5942244393024
 20
-1.417115265215649
 30
0.0
 10
28.52892930874934
 20
-1.428311755521111
 30
0.0
 10
28.37972670249863
 20
-1.453896290237344
 30
0.0
 10
28.18924298965877
 20
-1.517148381826667
 30
0.0
 10
28.06958442664402
 20
-1.563388322748647
 30
0.0
 10
28.04667138707318
 20
-1.572242662708988
 30
0.0
  0
SPLINE
  5
F1
330
1F
100
AcDbEntity
  8
외형선
  6
Continuous
 62
     1
370
    15
100
AcDbSpline
210
0.0
220
0.0
230
1.0
 70
     8
 71
     3
 72
     8
 73
     4
 74
     0
 42
0.000000001
 43
0.00000001
 40
0.0
 40
0.0
 40
0.0
 40
0.0
 40
1.0
 40
1.0
 40
1.0
 40
1.0
 10
29.04999999999999
 20
-1.856130954124574
 30
0.0
 10
28.7134022383075
 20
-1.770033440771575
 30
0.0
 10
28.37908082845642
 20
-1.674923105983074
 30
0.0
 10
28.04667138707317
 20
-1.572242662708983
 30
0.0
  0
LINE
  5
F2
330
1F
100
AcDbEntity
  8
외형선
  6
Continuous
 62
     1
370
    15
100
AcDbLine
 10
29.04999999999999
 20
-1.992647066881756
 30
0.0
 11
29.04999999999999
 21
-1.856130954124572
 31
0.0
  0
SPLINE
  5
F3
330
1F
100
AcDbEntity
  8
외형선
  6
Continuous
 62
     1
370
    15
100
AcDbSpline
210
0.0
220
0.0
230
1.0
 70
     8
 71
     3
 72
    10
 73
     6
 74
     0
 42
0.000000001
 43
0.00000001
 40
0.0
 40
0.0
 40
0.0
 40
0.0
 40
0.5
 40
0.5
 40
1.0
 40
1.0
 40
1.0
 40
1.0
 10
28.10729886908372
 20
-2.839931066214761
 30
0.0
 10
28.26552594803509
 20
-2.682477228553287
 30
0.0
 10
28.42381434133802
 20
-2.531883353998629
 30
0.0
 10
28.74082409183029
 20
-2.246931551095296
 30
0.0
 10
28.90062989626251
 20
-2.112282048522014
 30
0.0
 10
29.04999999999998
 20
-1.992647066881755
 30
0.0
  0
SPLINE
  5
F4
330
1F
100
AcDbEntity
  8
외형선
  6
Continuous
 62
     1
370
    15
100
AcDbSpline
210
0.0
220
0.0
230
1.0
 70
     8
 71
     3
 72
     8
 73
     4
 74
     0
 42
0.000000001
 43
0.00000001
 40
0.0
 40
0.0
 40
0.0
 40
0.0
 40
1.0
 40
1.0
 40
1.0
 40
1.0
 10
27.84262373403292
 20
-2.962923885719876
 30
0.0
 10
27.92081773163997
 20
-2.900089120307302
 30
0.0
 10
28.01358179553647
 20
-2.859164956713169
 30
0.0
 10
28.10729886908367
 20
-2.839931066214672
 30
0.0
  0
SPLINE
  5
F5
330
1F
100
AcDbEntity
  8
외형선
  6
Continuous
 62
     1
370
    15
100
AcDbSpline
210
0.0
220
0.0
230
1.0
 70
     8
 71
     3
 72
     8
 73
     4
 74
     0
 42
0.000000001
 43
0.00000001
 40
0.0
 40
0.0
 40
0.0
 40
0.0
 40
1.0
 40
1.0
 40
1.0
 40
1.0
 10
27.68319812239834
 20
-3.029103675623239
 30
0.0
 10
27.73939630160641
 20
-3.022981259583457
 30
0.0
 10
27.79596874617376
 20
-3.00041468178057
 30
0.0
 10
27.84262373403292
 20
-2.962923885719877
 30
0.0
  0
SPLINE
  5
F6
330
1F
100
AcDbEntity
  8
외형선
  6
Continuous
 62
     1
370
    15
100
AcDbSpline
210
0.0
220
0.0
230
1.0
 70
     8
 71
     3
 72
     8
 73
     4
 74
     0
 42
0.000000001
 43
0.00000001
 40
0.0
 40
0.0
 40
0.0
 40
0.0
 40
1.0
 40
1.0
 40
1.0
 40
1.0
 10
27.6831947320217
 20
-3.029104044981808
 30
0.0
 10
27.31051602474377
 20
-3.069704849958573
 30
0.0
 10
26.94164668154036
 20
-3.101917945129907
 30
0.0
 10
26.56917616040202
 20
-3.125698281494204
 30
0.0
  0
SPLINE
  5
F7
330
1F
100
AcDbEntity
  8
외형선
  6
Continuous
 62
     1
370
    15
100
AcDbSpline
210
0.0
220
0.0
230
1.0
 70
     8
 71
     3
 72
     8
 73
     4
 74
     0
 42
0.000000001
 43
0.00000001
 40
0.0
 40
0.0
 40
0.0
 40
0.0
 40
1.0
 40
1.0
 40
1.0
 40
1.0
 10
26.40844710133148
 20
-3.083879163443914
 30
0.0
 10
26.4547300780017
 20
-3.114755320435842
 30
0.0
 10
26.51119684657808
 20
-3.129399976256332
 30
0.0
 10
26.56918129483502
 20
-3.125697953691895
 30
0.0
  0
SPLINE
  5
F8
330
1F
100
AcDbEntity
  8
외형선
  6
Continuous
 62
     1
370
    15
100
AcDbSpline
210
0.0
220
0.0
230
1.0
 70
     8
 71
     3
 72
    10
 73
     6
 74
     0
 42
0.000000001
 43
0.00000001
 40
0.0
 40
0.0
 40
0.0
 40
0.0
 40
0.5
 40
0.5
 40
1.0
 40
1.0
 40
1.0
 40
1.0
 10
25.76815499364015
 20
-3.111052110685341
 30
0.0
 10
25.86299113495964
 20
-3.036800387207506
 30
0.0
 10
25.97835186443147
 20
-2.998662643941108
 30
0.0
 10
26.20752391825793
 20
-2.992352600643629
 30
0.0
 10
26.31733107190198
 20
-3.023094118235903
 30
0.0
 10
26.4084471013298
 20
-3.083879163442614
 30
0.0
  0
SPLINE
  5
F9
330
1F
100
AcDbEntity
  8
외형선
  6
Continuous
 62
     1
370
    15
100
AcDbSpline
210
0.0
220
0.0
230
1.0
 70
     8
 71
     3
 72
     8
 73
     4
 74
     0
 42
0.000000001
 43
0.00000001
 40
0.0
 40
0.0
 40
0.0
 40
0.0
 40
1.0
 40
1.0
 40
1.0
 40
1.0
 10
25.6087652583593
 20
-3.16797515995061
 30
0.0
 10
25.66495079805502
 20
-3.166616140288363
 30
0.0
 10
25.72151185790414
 20
-3.147571239032497
 30
0.0
 10
25.76815499363978
 20
-3.111052110685613
 30
0.0
  0
SPLINE
  5
FA
330
1F
100
AcDbEntity
  8
외형선
  6
Continuous
 62
     1
370
    15
100
AcDbSpline
210
0.0
220
0.0
230
1.0
 70
     8
 71
     3
 72
     8
 73
     4
 74
     0
 42
0.000000001
 43
0.00000001
 40
0.0
 40
0.0
 40
0.0
 40
0.0
 40
1.0
 40
1.0
 40
1.0
 40
1.0
 10
25.6087638413665
 20
-3.167975194224865
 30
0.0
 10
25.23619132755342
 20
-3.17698698169616
 30
0.0
 10
24.86695617874522
 20
-3.177336212225747
 30
0.0
 10
24.49386635725524
 20
-3.169010255906068
 30
0.0
  0
SPLINE
  5
FB
330
1F
100
AcDbEntity
  8
외형선
  6
Continuous
 62
     1
370
    15
100
AcDbSpline
210
0.0
220
0.0
230
1.0
 70
     8
 71
     3
 72
     8
 73
     4
 74
     0
 42
0.000000001
 43
0.00000001
 40
0.0
 40
0.0
 40
0.0
 40
0.0
 40
1.0
 40
1.0
 40
1.0
 40
1.0
 10
24.33282914605016
 20
-3.111135190509041
 30
0.0
 10
24.37921957578413
 20
-3.147444003751033
 30
0.0
 10
24.43578701168467
 20
-3.167714144718405
 30
0.0
 10
24.49386658073558
 20
-3.169010260899192
 30
0.0
  0
SPLINE
  5
FC
330
1F
100
AcDbEntity
  8
외형선
  6
Continuous
 62
     1
370
    15
100
AcDbSpline
210
0.0
220
0.0
230
1.0
 70
     8
 71
     3
 72
    10
 73
     6
 74
     0
 42
0.000000001
 43
0.00000001
 40
0.0
 40
0.0
 40
0.0
 40
0.0
 40
0.5
 40
0.5
 40
1.0
 40
1.0
 40
1.0
 40
1.0
 10
23.69171965894733
 20
-3.083985819150074
 30
0.0
 10
23.78668182151554
 20
-3.015860828685179
 30
0.0
 10
23.9021825848532
 20
-2.985549302816249
 30
0.0
 10
24.13160602085892
 20
-2.998172850601962
 30
0.0
 10
24.24154350707175
 20
-3.039687841638588
 30
0.0
 10
24.33282914604848
 20
-3.111135190507735
 30
0.0
  0
SPLINE
  5
FD
330
1F
100
AcDbEntity
  8
외형선
  6
Continuous
 62
     1
370
    15
100
AcDbSpline
210
0.0
220
0.0
230
1.0
 70
     8
 71
     3
 72
     8
 73
     4
 74
     0
 42
0.000000001
 43
0.00000001
 40
0.0
 40
0.0
 40
0.0
 40
0.0
 40
1.0
 40
1.0
 40
1.0
 40
1.0
 10
23.53220432306647
 20
-3.128413950644412
 30
0.0
 10
23.58842678395822
 20
-3.131908134987677
 30
0.0
 10
23.64503184307635
 20
-3.117479233000455
 30
0.0
 10
23.69171965894697
 20
-3.083985819150329
 30
0.0
  0
SPLINE
  5
FE
330
1F
100
AcDbEntity
  8
외형선
  6
Continuous
 62
     1
370
    15
100
AcDbSpline
210
0.0
220
0.0
230
1.0
 70
     8
 71
     3
 72
     8
 73
     4
 74
     0
 42
0.000000001
 43
0.00000001
 40
0.0
 40
0.0
 40
0.0
 40
0.0
 40
1.0
 40
1.0
 40
1.0
 40
1.0
 10
23.53220432290021
 20
-3.128413950634116
 30
0.0
 10
23.1601425651931
 20
-3.105290587690874
 30
0.0
 10
22.79039188069648
 20
-3.073688685991748
 30
0.0
 10
22.41707653856862
 20
-3.033672621481348
 30
0.0
  0
SPLINE
  5
FF
330
1F
100
AcDbEntity
  8
외형선
  6
Continuous
 62
     1
370
    15
100
AcDbSpline
210
0.0
220
0.0
230
1.0
 70
     8
 71
     3
 72
     8
 73
     4
 74
     0
 42
0.000000001
 43
0.00000001
 40
0.0
 40
0.0
 40
0.0
 40
0.0
 40
1.0
 40
1.0
 40
1.0
 40
1.0
 10
22.25612557927712
 20
-2.962996583732428
 30
0.0
 10
22.30248227666128
 20
-3.002686157259965
 30
0.0
 10
22.35902258309634
 20
-3.027449756886479
 30
0.0
 10
22.4170765386107
 20
-3.033672621491628
 30
0.0
  0
SPLINE
  5
100
330
1F
100
AcDbEntity
  8
외형선
  6
Continuous
 62
     1
370
    15
100
AcDbSpline
210
0.0
220
0.0
230
1.0
 70
     8
 71
     3
 72
    10
 73
     6
 74
     0
 42
0.000000001
 43
0.00000001
 40
0.0
 40
0.0
 40
0.0
 40
0.0
 40
0.5
 40
0.5
 40
1.0
 40
1.0
 40
1.0
 40
1.0
 10
21.61558191102342
 20
-2.883051744225945
 30
0.0
 10
21.71044181775516
 20
-2.824961299538458
 30
0.0
 10
21.82584178705982
 20
-2.804138324871833
 30
0.0
 10
22.05509265709325
 20
-2.834950472215776
 30
0.0
 10
22.16493026341328
 20
-2.884917182077681
 30
0.0
 10
22.2561255792755
 20
-2.96299658373123
 30
0.0
  0
SPLINE
  5
101
330
1F
100
AcDbEntity
  8
외형선
  6
Continuous
 62
     1
370
    15
100
AcDbSpline
210
0.0
220
0.0
230
1.0
 70
     8
 71
     3
 72
     8
 73
     4
 74
     0
 42
0.000000001
 43
0.00000001
 40
0.0
 40
0.0
 40
0.0
 40
0.0
 40
1.0
 40
1.0
 40
1.0
 40
1.0
 10
21.4562423740874
 20
-2.912479192549353
 30
0.0
 10
21.51240821507315
 20
-2.920631037543643
 30
0.0
 10
21.5689505379878
 20
-2.911607930810357
 30
0.0
 10
21.61558191102306
 20
-2.883051744226134
 30
0.0
  0
SPLINE
  5
102
330
1F
100
AcDbEntity
  8
외형선
  6
Continuous
 62
     1
370
    15
100
AcDbSpline
210
0.0
220
0.0
230
1.0
 70
     8
 71
     3
 72
     8
 73
     4
 74
     0
 42
0.000000001
 43
0.00000001
 40
0.0
 40
0.0
 40
0.0
 40
0.0
 40
1.0
 40
1.0
 40
1.0
 40
1.0
 10
21.45624212318975
 20
-2.912479156134444
 30
0.0
 10
21.08542985741517
 20
-2.858659890408843
 30
0.0
 10
20.71536828630842
 20
-2.796963972230843
 30
0.0
 10
20.3425747419206
 20
-2.727661253277916
 30
0.0
  0
SPLINE
  5
103
330
1F
100
AcDbEntity
  8
외형선
  6
Continuous
 62
     1
370
    15
100
AcDbSpline
210
0.0
220
0.0
230
1.0
 70
     8
 71
     3
 72
     8
 73
     4
 74
     0
 42
0.000000001
 43
0.00000001
 40
0.0
 40
0.0
 40
0.0
 40
0.0
 40
1.0
 40
1.0
 40
1.0
 40
1.0
 10
20.18169214158739
 20
-2.648190621035842
 30
0.0
 10
20.22802625708868
 20
-2.689012773244337
 30
0.0
 10
20.28454142063335
 20
-2.716872796734619
 30
0.0
 10
20.34257474193501
 20
-2.727661253285931
 30
0.0
  0
SPLINE
  5
104
330
1F
100
AcDbEntity
  8
외형선
  6
Continuous
 62
     1
370
    15
100
AcDbSpline
210
0.0
220
0.0
230
1.0
 70
     8
 71
     3
 72
    10
 73
     6
 74
     0
 42
0.000000001
 43
0.00000001
 40
0.0
 40
0.0
 40
0.0
 40
0.0
 40
0.5
 40
0.5
 40
1.0
 40
1.0
 40
1.0
 40
1.0
 10
19.54092658649527
 20
-2.519874605705905
 30
0.0
 10
19.63583538349069
 20
-2.475104325084193
 30
0.0
 10
19.75126823910868
 20
-2.464987044079413
 30
0.0
 10
19.9805733915801
 20
-2.51224177929369
 30
0.0
 10
20.09047285701565
 20
-2.567822894600681
 30
0.0
 10
20.18169214158572
 20
-2.648190621034717
 30
0.0
  0
SPLINE
  5
105
330
1F
100
AcDbEntity
  8
외형선
  6
Continuous
 62
     1
370
    15
100
AcDbSpline
210
0.0
220
0.0
230
1.0
 70
     8
 71
     3
 72
     8
 73
     4
 74
     0
 42
0.000000001
 43
0.00000001
 40
0.0
 40
0.0
 40
0.0
 40
0.0
 40
1.0
 40
1.0
 40
1.0
 40
1.0
 10
19.38144151368784
 20
-2.532581120893622
 30
0.0
 10
19.43764998909874
 20
-2.544953657753684
 30
0.0
 10
19.49424495330858
 20
-2.541895217954685
 30
0.0
 10
19.54092658649492
 20
-2.519874605706052
 30
0.0
  0
SPLINE
  5
106
330
1F
100
AcDbEntity
  8
외형선
  6
Continuous
 62
     1
370
    15
100
AcDbSpline
210
0.0
220
0.0
230
1.0
 70
     8
 71
     3
 72
     8
 73
     4
 74
     0
 42
0.000000001
 43
0.00000001
 40
0.0
 40
0.0
 40
0.0
 40
0.0
 40
1.0
 40
1.0
 40
1.0
 40
1.0
 10
19.38144151367518
 20
-2.532581120890971
 30
0.0
 10
19.01104858669977
 20
-2.451050709181473
 30
0.0
 10
18.63931889854353
 20
-2.362525833355663
 30
0.0
 10
18.26621748490449
 20
-2.267678468212803
 30
0.0
  0
SPLINE
  5
107
330
1F
100
AcDbEntity
  8
외형선
  6
Continuous
 62
     1
370
    15
100
AcDbSpline
210
0.0
220
0.0
230
1.0
 70
     8
 71
     3
 72
     8
 73
     4
 74
     0
 42
0.000000001
 43
0.00000001
 40
0.0
 40
0.0
 40
0.0
 40
0.0
 40
1.0
 40
1.0
 40
1.0
 40
1.0
 10
18.10516735107004
 20
-2.183828739663477
 30
0.0
 10
18.15156003806831
 20
-2.223515475343213
 30
0.0
 10
18.20813121522287
 20
-2.252912162159359
 30
0.0
 10
18.26621743201314
 20
-2.267678454771812
 30
0.0
  0
SPLINE
  5
108
330
1F
100
AcDbEntity
  8
외형선
  6
Continuous
 62
     1
370
    15
100
AcDbSpline
210
0.0
220
0.0
230
1.0
 70
     8
 71
     3
 72
    10
 73
     6
 74
     0
 42
0.000000001
 43
0.00000001
 40
0.0
 40
0.0
 40
0.0
 40
0.0
 40
0.5
 40
0.5
 40
1.0
 40
1.0
 40
1.0
 40
1.0
 10
17.4640673266216
 20
-2.014186867493554
 30
0.0
 10
17.55902446804198
 20
-1.985272715120715
 30
0.0
 10
17.67451408776212
 20
-1.986474483279445
 30
0.0
 10
17.90392039016372
 20
-2.047624596270534
 30
0.0
 10
18.01386923744352
 20
-2.105727548763418
 30
0.0
 10
18.10516735106836
 20
-2.18382873966255
 30
0.0
  0
SPLINE
  5
109
330
1F
100
AcDbEntity
  8
외형선
  6
Continuous
 62
     1
370
    15
100
AcDbSpline
210
0.0
220
0.0
230
1.0
 70
     8
 71
     3
 72
     8
 73
     4
 74
     0
 42
0.000000001
 43
0.00000001
 40
0.0
 40
0.0
 40
0.0
 40
0.0
 40
1.0
 40
1.0
 40
1.0
 40
1.0
 10
17.30456197193178
 20
-2.009418942930417
 30
0.0
 10
17.36077397165644
 20
-2.025326279175441
 30
0.0
 10
17.41737537877955
 20
-2.028404419478432
 30
0.0
 10
17.46406732662124
 20
-2.014186867493664
 30
0.0
  0
SPLINE
  5
10A
330
1F
100
AcDbEntity
  8
외형선
  6
Continuous
 62
     1
370
    15
100
AcDbSpline
210
0.0
220
0.0
230
1.0
 70
     8
 71
     3
 72
     8
 73
     4
 74
     0
 42
0.000000001
 43
0.00000001
 40
0.0
 40
0.0
 40
0.0
 40
0.0
 40
1.0
 40
1.0
 40
1.0
 40
1.0
 10
17.30456293333705
 20
-2.009419214997005
 30
0.0
 10
16.93551420098181
 20
-1.904982762864555
 30
0.0
 10
16.56248212908641
 20
-1.794709081477571
 30
0.0
 10
16.18999845125774
 20
-1.679894669728077
 30
0.0
  0
SPLINE
  5
10B
330
1F
100
AcDbEntity
  8
외형선
  6
Continuous
 62
     1
370
    15
100
AcDbSpline
210
0.0
220
0.0
230
1.0
 70
     8
 71
     3
 72
     8
 73
     4
 74
     0
 42
0.000000001
 43
0.00000001
 40
0.0
 40
0.0
 40
0.0
 40
0.0
 40
1.0
 40
1.0
 40
1.0
 40
1.0
 10
16.0291718920182
 20
-1.596482836391036
 30
0.0
 10
16.07548157758493
 20
-1.632757585285417
 30
0.0
 10
16.1319805024422
 20
-1.662011210506539
 30
0.0
 10
16.18999845083182
 20
-1.679894669600451
 30
0.0
  0
SPLINE
  5
10C
330
1F
100
AcDbEntity
  8
외형선
  6
Continuous
 62
     1
370
    15
100
AcDbSpline
210
0.0
220
0.0
230
1.0
 70
     8
 71
     3
 72
    10
 73
     6
 74
     0
 42
0.000000001
 43
0.00000001
 40
0.0
 40
0.0
 40
0.0
 40
0.0
 40
0.5
 40
0.5
 40
1.0
 40
1.0
 40
1.0
 40
1.0
 10
15.38905417437239
 20
-1.395387325582661
 30
0.0
 10
15.48385282688542
 20
-1.383957125417123
 30
0.0
 10
15.59916572118782
 20
-1.396320036302298
 30
0.0
 10
15.82825936639194
 20
-1.467786903873517
 30
0.0
 10
15.93804696862293
 20
-1.525103951525406
 30
0.0
 10
16.02917189201651
 20
-1.596482836390175
 30
0.0
  0
SPLINE
  5
10D
330
1F
100
AcDbEntity
  8
외형선
  6
Continuous
 62
     1
370
    15
100
AcDbSpline
210
0.0
220
0.0
230
1.0
 70
     8
 71
     3
 72
     8
 73
     4
 74
     0
 42
0.000000001
 43
0.00000001
 40
0.0
 40
0.0
 40
0.0
 40
0.0
 40
1.0
 40
1.0
 40
1.0
 40
1.0
 10
15.22972542049783
 20
-1.373517857686091
 30
0.0
 10
15.28589346983848
 20
-1.392000592796809
 30
0.0
 10
15.34242491610968
 20
-1.401009575913998
 30
0.0
 10
15.38905417437203
 20
-1.395387325582662
 30
0.0
  0
SPLINE
  5
10E
330
1F
100
AcDbEntity
  8
외형선
  6
Continuous
 62
     1
370
    15
100
AcDbSpline
210
0.0
220
0.0
230
1.0
 70
     8
 71
     3
 72
     8
 73
     4
 74
     0
 42
0.000000001
 43
0.00000001
 40
0.0
 40
0.0
 40
0.0
 40
0.0
 40
1.0
 40
1.0
 40
1.0
 40
1.0
 10
15.22972716912693
 20
-1.373518433092567
 30
0.0
 10
14.86028244031226
 20
-1.251948454818754
 30
0.0
 10
14.48733534106471
 20
-1.126264357065863
 30
0.0
 10
14.11541579454717
 20
-0.997973179556361
 30
0.0
  0
SPLINE
  5
10F
330
1F
100
AcDbEntity
  8
외형선
  6
Continuous
 62
     1
370
    15
100
AcDbSpline
210
0.0
220
0.0
230
1.0
 70
     8
 71
     3
 72
     8
 73
     4
 74
     0
 42
0.000000001
 43
0.00000001
 40
0.0
 40
0.0
 40
0.0
 40
0.0
 40
1.0
 40
1.0
 40
1.0
 40
1.0
 10
13.954422860259
 20
-0.9195682988854385
 30
0.0
 10
14.00079508712137
 20
-0.9504381405880301
 30
0.0
 10
14.05734536737759
 20
-0.977942170643946
 30
0.0
 10
14.11541490934732
 20
-0.9979728742150753
 30
0.0
  0
SPLINE
  5
110
330
1F
100
AcDbEntity
  8
외형선
  6
Continuous
 62
     1
370
    15
100
AcDbSpline
210
0.0
220
0.0
230
1.0
 70
     8
 71
     3
 72
    10
 73
     6
 74
     0
 42
0.000000001
 43
0.00000001
 40
0.0
 40
0.0
 40
0.0
 40
0.0
 40
0.5
 40
0.5
 40
1.0
 40
1.0
 40
1.0
 40
1.0
 10
13.31332167635347
 20
-0.6976922279935935
 30
0.0
 10
13.40829582587428
 20
-0.7043895526934656
 30
0.0
 10
13.5237725161725
 20
-0.7274276142872922
 30
0.0
 10
13.7531675953298
 20
-0.8054174124557081
 30
0.0
 10
13.86312712053711
 20
-0.8587930197142736
 30
0.0
 10
13.95442286025732
 20
-0.9195682988850572
 30
0.0
  0
SPLINE
  5
111
330
1F
100
AcDbEntity
  8
외형선
  6
Continuous
 62
     1
370
    15
100
AcDbSpline
210
0.0
220
0.0
230
1.0
 70
     8
 71
     3
 72
     8
 73
     4
 74
     0
 42
0.000000001
 43
0.00000001
 40
0.0
 40
0.0
 40
0.0
 40
0.0
 40
1.0
 40
1.0
 40
1.0
 40
1.0
 10
13.15379436877129
 20
-0.6599132669049337
 30
0.0
 10
13.21002560591526
 20
-0.6799632777064597
 30
0.0
 10
13.26662889808841
 20
-0.6943995773221958
 30
0.0
 10
13.31332167635312
 20
-0.6976922279935716
 30
0.0
  0
SPLINE
  5
112
330
1F
100
AcDbEntity
  8
외형선
  6
Continuous
 62
     1
370
    15
100
AcDbSpline
210
0.0
220
0.0
230
1.0
 70
     8
 71
     3
 72
     8
 73
     4
 74
     0
 42
0.000000001
 43
0.00000001
 40
0.0
 40
0.0
 40
0.0
 40
0.0
 40
1.0
 40
1.0
 40
1.0
 40
1.0
 10
11.87756311983844
 20
-0.1901067639856985
 30
0.0
 10
11.92394444489593
 20
-0.2138158860347892
 30
0.0
 10
11.98050547805303
 20
-0.238009236181824
 30
0.0
 10
12.03858513947695
 20
-0.2590529851881317
 30
0.0
  0
SPLINE
  5
113
330
1F
100
AcDbEntity
  8
외형선
  6
Continuous
 62
     1
370
    15
100
AcDbSpline
210
0.0
220
0.0
230
1.0
 70
     8
 71
     3
 72
    10
 73
     6
 74
     0
 42
0.000000001
 43
0.00000001
 40
0.0
 40
0.0
 40
0.0
 40
0.0
 40
0.5
 40
0.5
 40
1.0
 40
1.0
 40
1.0
 40
1.0
 10
11.23663152742862
 20
0.0396301625538228
 30
0.0
 10
11.33158062585104
 20
0.0152423723142454
 30
0.0
 10
11.44703597909355
 20
-0.0170242842304172
 30
0.0
 10
11.67637992715867
 20
-0.0970612074521703
 30
0.0
 10
11.78628650902813
 20
-0.1434481507780414
 30
0.0
 10
11.87756311983677
 20
-0.1901067639856148
 30
0.0
  0
SPLINE
  5
114
330
1F
100
AcDbEntity
  8
외형선
  6
Continuous
370
    15
100
AcDbSpline
210
0.0
220
0.0
230
1.0
 70
     8
 71
     3
 72
     8
 73
     4
 74
     0
 42
0.000000001
 43
0.00000001
 40
0.0
 40
0.0
 40
0.0
 40
0.0
 40
1.0
 40
1.0
 40
1.0
 40
1.0
 10
10.60100696967619
 20
3.17218668198927
 30
0.0
 10
10.40060836864672
 20
3.175250527334108
 30
0.0
 10
10.20003591666904
 20
3.175810897408535
 30
0.0
 10
9.999999999999982
 20
3.17387033273228
 30
0.0
  0
SPLINE
  5
115
330
1F
100
AcDbEntity
  8
외형선
  6
Continuous
 62
     1
370
    15
100
AcDbSpline
210
0.0
220
0.0
230
1.0
 70
     8
 71
     3
 72
     8
 73
     4
 74
     0
 42
0.000000001
 43
0.00000001
 40
0.0
 40
0.0
 40
0.0
 40
0.0
 40
1.0
 40
1.0
 40
1.0
 40
1.0
 10
10.76193171500853
 20
3.115509875630957
 30
0.0
 10
10.71558599636102
 20
3.151448204559723
 30
0.0
 10
10.65905527757216
 20
3.171299195777126
 30
0.0
 10
10.60100688374981
 20
3.172186683308598
 30
0.0
  0
SPLINE
  5
116
330
1F
100
AcDbEntity
  8
외형선
  6
Continuous
 62
     1
370
    15
100
AcDbSpline
210
0.0
220
0.0
230
1.0
 70
     8
 71
     3
 72
    10
 73
     6
 74
     0
 42
0.000000001
 43
0.00000001
 40
0.0
 40
0.0
 40
0.0
 40
0.0
 40
0.5
 40
0.5
 40
1.0
 40
1.0
 40
1.0
 40
1.0
 10
11.40240432131589
 20
3.092718986118467
 30
0.0
 10
11.30755517073687
 20
3.023987327446985
 30
0.0
 10
11.19217672692261
 20
2.992964513075177
 30
0.0
 10
10.96296634334897
 20
3.00406478181161
 30
0.0
 10
10.85312466521865
 20
3.044795204755164
 30
0.0
 10
10.7619317150089
 20
3.115509875630663
 30
0.0
  0
SPLINE
  5
117
330
1F
100
AcDbEntity
  8
외형선
  6
Continuous
 62
     1
370
    15
100
AcDbSpline
210
0.0
220
0.0
230
1.0
 70
     8
 71
     3
 72
     8
 73
     4
 74
     0
 42
0.000000001
 43
0.00000001
 40
0.0
 40
0.0
 40
0.0
 40
0.0
 40
1.0
 40
1.0
 40
1.0
 40
1.0
 10
11.56172803687706
 20
3.138239503089067
 30
0.0
 10
11.505561255086
 20
3.141349556506615
 30
0.0
 10
11.44903292138051
 20
3.126508018545321
 30
0.0
 10
11.40240432131499
 20
3.09271898612542
 30
0.0
  0
SPLINE
  5
118
330
1F
100
AcDbEntity
  8
외형선
  6
Continuous
 62
     1
370
    15
100
AcDbSpline
210
0.0
220
0.0
230
1.0
 70
     8
 71
     3
 72
     8
 73
     4
 74
     0
 42
0.000000001
 43
0.00000001
 40
0.0
 40
0.0
 40
0.0
 40
0.0
 40
1.0
 40
1.0
 40
1.0
 40
1.0
 10
12.67543977935488
 20
3.051455208841343
 30
0.0
 10
12.30367001028047
 20
3.088772970375216
 30
0.0
 10
11.9308295389327
 20
3.117805979382366
 30
0.0
 10
11.56144452854157
 20
3.138255199802615
 30
0.0
  0
SPLINE
  5
119
330
1F
100
AcDbEntity
  8
외형선
  6
Continuous
 62
     1
370
    15
100
AcDbSpline
210
0.0
220
0.0
230
1.0
 70
     8
 71
     3
 72
     8
 73
     4
 74
     0
 42
0.000000001
 43
0.00000001
 40
0.0
 40
0.0
 40
0.0
 40
0.0
 40
1.0
 40
1.0
 40
1.0
 40
1.0
 10
12.83635830977992
 20
2.981684000722556
 30
0.0
 10
12.79001214718381
 20
3.021175503364193
 30
0.0
 10
12.73348627745358
 20
3.045628578483607
 30
0.0
 10
12.67543937765689
 20
3.051455249168826
 30
0.0
  0
SPLINE
  5
11A
330
1F
100
AcDbEntity
  8
외형선
  6
Continuous
 62
     1
370
    15
100
AcDbSpline
210
0.0
220
0.0
230
1.0
 70
     8
 71
     3
 72
    10
 73
     6
 74
     0
 42
0.000000001
 43
0.00000001
 40
0.0
 40
0.0
 40
0.0
 40
0.0
 40
0.5
 40
0.5
 40
1.0
 40
1.0
 40
1.0
 40
1.0
 10
13.47727379125244
 20
2.90565276550846
 30
0.0
 10
13.38232727054622
 20
2.846657524746864
 30
0.0
 10
13.26688377201225
 20
2.825114638193884
 30
0.0
 10
13.03754685834769
 20
2.854545999927429
 30
0.0
 10
12.92761588169757
 20
2.903923546769038
 30
0.0
 10
12.8363583097803
 20
2.981684000722279
 30
0.0
  0
SPLINE
  5
11B
330
1F
100
AcDbEntity
  8
외형선
  6
Continuous
 62
     1
370
    15
100
AcDbSpline
210
0.0
220
0.0
230
1.0
 70
     8
 71
     3
 72
     8
 73
     4
 74
     0
 42
0.000000001
 43
0.00000001
 40
0.0
 40
0.0
 40
0.0
 40
0.0
 40
1.0
 40
1.0
 40
1.0
 40
1.0
 10
13.6367748551421
 20
2.936318486580705
 30
0.0
 10
13.58055163290318
 20
2.944113759516482
 30
0.0
 10
13.5239573631973
 20
2.934659711172434
 30
0.0
 10
13.47727379125147
 20
2.905652765515574
 30
0.0
  0
SPLINE
  5
11C
330
1F
100
AcDbEntity
  8
외형선
  6
Continuous
 62
     1
370
    15
100
AcDbSpline
210
0.0
220
0.0
230
1.0
 70
     8
 71
     3
 72
     8
 73
     4
 74
     0
 42
0.000000001
 43
0.00000001
 40
0.0
 40
0.0
 40
0.0
 40
0.0
 40
1.0
 40
1.0
 40
1.0
 40
1.0
 10
14.75197536496094
 20
2.758619552733994
 30
0.0
 10
14.38028835800235
 20
2.825517150722669
 30
0.0
 10
14.0070417547665
 20
2.884981454007163
 30
0.0
 10
13.63677723359899
 20
2.936318156810799
 30
0.0
  0
SPLINE
  5
11D
330
1F
100
AcDbEntity
  8
외형선
  6
Continuous
 62
     1
370
    15
100
AcDbSpline
210
0.0
220
0.0
230
1.0
 70
     8
 71
     3
 72
     8
 73
     4
 74
     0
 42
0.000000001
 43
0.00000001
 40
0.0
 40
0.0
 40
0.0
 40
0.0
 40
1.0
 40
1.0
 40
1.0
 40
1.0
 10
14.91302940540735
 20
2.679630934570987
 30
0.0
 10
14.86663602372122
 20
2.72047854620408
 30
0.0
 10
14.81006494180619
 20
2.748164376511768
 30
0.0
 10
14.75197536482878
 20
2.758619552763049
 30
0.0
  0
SPLINE
  5
11E
330
1F
100
AcDbEntity
  8
외형선
  6
Continuous
 62
     1
370
    15
100
AcDbSpline
210
0.0
220
0.0
230
1.0
 70
     8
 71
     3
 72
    10
 73
     6
 74
     0
 42
0.000000001
 43
0.00000001
 40
0.0
 40
0.0
 40
0.0
 40
0.0
 40
0.5
 40
0.5
 40
1.0
 40
1.0
 40
1.0
 40
1.0
 10
15.55414793850434
 20
2.554521117577889
 30
0.0
 10
15.45916493375165
 20
2.508564630251064
 30
0.0
 10
15.34367548210697
 20
2.497712819206183
 30
0.0
 10
15.11427673662974
 20
2.54394547867258
 30
0.0
 10
15.00433746531833
 20
2.599237653575272
 30
0.0
 10
14.91302940540772
 20
2.679630934570736
 30
0.0
  0
SPLINE
  5
11F
330
1F
100
AcDbEntity
  8
외형선
  6
Continuous
 62
     1
370
    15
100
AcDbSpline
210
0.0
220
0.0
230
1.0
 70
     8
 71
     3
 72
     8
 73
     4
 74
     0
 42
0.000000001
 43
0.00000001
 40
0.0
 40
0.0
 40
0.0
 40
0.0
 40
1.0
 40
1.0
 40
1.0
 40
1.0
 10
15.71362568851172
 20
2.568633217006744
 30
0.0
 10
15.65740873021822
 20
2.580664398858559
 30
0.0
 10
15.60082246667578
 20
2.577104077219258
 30
0.0
 10
15.55414793850339
 20
2.554521117584401
 30
0.0
  0
SPLINE
  5
120
330
1F
100
AcDbEntity
  8
외형선
  6
Continuous
 62
     1
370
    15
100
AcDbSpline
210
0.0
220
0.0
230
1.0
 70
     8
 71
     3
 72
     8
 73
     4
 74
     0
 42
0.000000001
 43
0.00000001
 40
0.0
 40
0.0
 40
0.0
 40
0.0
 40
1.0
 40
1.0
 40
1.0
 40
1.0
 10
16.82796116129857
 20
2.310344946176624
 30
0.0
 10
16.45704533125306
 20
2.402905433041537
 30
0.0
 10
16.08408965848282
 20
2.48934896670928
 30
0.0
 10
15.71362568856782
 20
2.568633216994753
 30
0.0
  0
SPLINE
  5
121
330
1F
100
AcDbEntity
  8
외형선
  6
Continuous
 62
     1
370
    15
100
AcDbSpline
210
0.0
220
0.0
230
1.0
 70
     8
 71
     3
 72
     8
 73
     4
 74
     0
 42
0.000000001
 43
0.00000001
 40
0.0
 40
0.0
 40
0.0
 40
0.0
 40
1.0
 40
1.0
 40
1.0
 40
1.0
 10
16.98875873652605
 20
2.226650245527882
 30
0.0
 10
16.94245981428643
 20
2.266521668766886
 30
0.0
 10
16.88597189211661
 20
2.295868612509939
 30
0.0
 10
16.82796091653861
 20
2.31034500725996
 30
0.0
  0
SPLINE
  5
122
330
1F
100
AcDbEntity
  8
외형선
  6
Continuous
 62
     1
370
    15
100
AcDbSpline
210
0.0
220
0.0
230
1.0
 70
     8
 71
     3
 72
    10
 73
     6
 74
     0
 42
0.000000001
 43
0.00000001
 40
0.0
 40
0.0
 40
0.0
 40
0.0
 40
0.5
 40
0.5
 40
1.0
 40
1.0
 40
1.0
 40
1.0
 10
17.62891583954889
 20
2.059835673624547
 30
0.0
 10
17.53407578525478
 20
2.029511954310794
 30
0.0
 10
17.41872166884187
 20
2.029783217016211
 30
0.0
 10
17.18964857379554
 20
2.090099306755388
 30
0.0
 10
17.07988044028354
 20
2.148178612905746
 30
0.0
 10
16.98875873652642
 20
2.226650245527673
 30
0.0
  0
SPLINE
  5
123
330
1F
100
AcDbEntity
  8
외형선
  6
Continuous
 62
     1
370
    15
100
AcDbSpline
210
0.0
220
0.0
230
1.0
 70
     8
 71
     3
 72
     8
 73
     4
 74
     0
 42
0.000000001
 43
0.00000001
 40
0.0
 40
0.0
 40
0.0
 40
0.0
 40
1.0
 40
1.0
 40
1.0
 40
1.0
 10
17.78825534382601
 20
2.056668862515224
 30
0.0
 10
17.73208041326643
 20
2.072237742461961
 30
0.0
 10
17.67554118917011
 20
2.074743446777935
 30
0.0
 10
17.62891583954801
 20
2.05983567363007
 30
0.0
  0
SPLINE
  5
124
330
1F
100
AcDbEntity
  8
외형선
  6
Continuous
 62
     1
370
    15
100
AcDbSpline
210
0.0
220
0.0
230
1.0
 70
     8
 71
     3
 72
     8
 73
     4
 74
     0
 42
0.000000001
 43
0.00000001
 40
0.0
 40
0.0
 40
0.0
 40
0.0
 40
1.0
 40
1.0
 40
1.0
 40
1.0
 10
18.90272659416772
 20
1.732194086089272
 30
0.0
 10
18.53224350339362
 20
1.845249356035509
 30
0.0
 10
18.15924271353231
 20
1.953849707442834
 30
0.0
 10
17.78825739220952
 20
2.056668294805755
 30
0.0
  0
SPLINE
  5
125
330
1F
100
AcDbEntity
  8
외형선
  6
Continuous
 62
     1
370
    15
100
AcDbSpline
210
0.0
220
0.0
230
1.0
 70
     8
 71
     3
 72
     8
 73
     4
 74
     0
 42
0.000000001
 43
0.00000001
 40
0.0
 40
0.0
 40
0.0
 40
0.0
 40
1.0
 40
1.0
 40
1.0
 40
1.0
 10
19.06375284082023
 20
1.648368362140004
 30
0.0
 10
19.01736818647394
 20
1.685071307157169
 30
0.0
 10
18.96080847564649
 20
1.714470030789939
 30
0.0
 10
18.90272659415857
 20
1.732194086095746
 30
0.0
  0
SPLINE
  5
126
330
1F
100
AcDbEntity
  8
외형선
  6
Continuous
 62
     1
370
    15
100
AcDbSpline
210
0.0
220
0.0
230
1.0
 70
     8
 71
     3
 72
    10
 73
     6
 74
     0
 42
0.000000001
 43
0.00000001
 40
0.0
 40
0.0
 40
0.0
 40
0.0
 40
0.5
 40
0.5
 40
1.0
 40
1.0
 40
1.0
 40
1.0
 10
19.70491060814457
 20
1.448806838359173
 30
0.0
 10
19.6099058364703
 20
1.435824338210747
 30
0.0
 10
19.49436371971423
 20
1.447363114433137
 30
0.0
 10
19.26494281099745
 20
1.518436681928358
 30
0.0
 10
19.1550467748617
 20
1.576129896881254
 30
0.0
 10
19.06375284082061
 20
1.648368362139845
 30
0.0
  0
SPLINE
  5
127
330
1F
100
AcDbEntity
  8
외형선
  6
Continuous
 62
     1
370
    15
100
AcDbSpline
210
0.0
220
0.0
230
1.0
 70
     8
 71
     3
 72
     8
 73
     4
 74
     0
 42
0.000000001
 43
0.00000001
 40
0.0
 40
0.0
 40
0.0
 40
0.0
 40
1.0
 40
1.0
 40
1.0
 40
1.0
 10
19.86442276991163
 20
1.428453078991718
 30
0.0
 10
19.80819400152873
 20
1.446709056438017
 30
0.0
 10
19.75159359042374
 20
1.455186116094871
 30
0.0
 10
19.70491060814361
 20
1.448806838363665
 30
0.0
  0
SPLINE
  5
128
330
1F
100
AcDbEntity
  8
외형선
  6
Continuous
 62
     1
370
    15
100
AcDbSpline
210
0.0
220
0.0
230
1.0
 70
     8
 71
     3
 72
     8
 73
     4
 74
     0
 42
0.000000001
 43
0.00000001
 40
0.0
 40
0.0
 40
0.0
 40
0.0
 40
1.0
 40
1.0
 40
1.0
 40
1.0
 10
20.97987705337546
 20
1.055657007361744
 30
0.0
 10
20.60955417566664
 20
1.18296373178891
 30
0.0
 10
20.23622115529398
 20
1.307740085749935
 30
0.0
 10
19.86442276904422
 20
1.428453079273344
 30
0.0
  0
SPLINE
  5
129
330
1F
100
AcDbEntity
  8
외형선
  6
Continuous
 62
     1
370
    15
100
AcDbSpline
210
0.0
220
0.0
230
1.0
 70
     8
 71
     3
 72
     8
 73
     4
 74
     0
 42
0.000000001
 43
0.00000001
 40
0.0
 40
0.0
 40
0.0
 40
0.0
 40
1.0
 40
1.0
 40
1.0
 40
1.0
 10
21.14061726526395
 20
0.9765575324315038
 30
0.0
 10
21.09423503124141
 20
1.008005675675706
 30
0.0
 10
21.03767552527854
 20
1.035787780520947
 30
0.0
 10
20.97959388459524
 20
1.055754352237572
 30
0.0
  0
SPLINE
  5
12A
330
1F
100
AcDbEntity
  8
외형선
  6
Continuous
 62
     1
370
    15
100
AcDbSpline
210
0.0
220
0.0
230
1.0
 70
     8
 71
     3
 72
    10
 73
     6
 74
     0
 42
0.000000001
 43
0.00000001
 40
0.0
 40
0.0
 40
0.0
 40
0.0
 40
0.5
 40
0.5
 40
1.0
 40
1.0
 40
1.0
 40
1.0
 10
21.7814473774952
 20
0.755953291694036
 30
0.0
 10
21.68650596425292
 20
0.7610296519224166
 30
0.0
 10
21.57101652598425
 20
0.7830900082036757
 30
0.0
 10
21.34167021101955
 20
0.8607537358052225
 30
0.0
 10
21.23184899895239
 20
0.9147004725050577
 30
0.0
 10
21.1406172652643
 20
0.976557532431417
 30
0.0
  0
SPLINE
  5
12B
330
1F
100
AcDbEntity
  8
외형선
  6
Continuous
 62
     1
370
    15
100
AcDbSpline
210
0.0
220
0.0
230
1.0
 70
     8
 71
     3
 72
     8
 73
     4
 74
     0
 42
0.000000001
 43
0.00000001
 40
0.0
 40
0.0
 40
0.0
 40
0.0
 40
1.0
 40
1.0
 40
1.0
 40
1.0
 10
21.94083101958201
 20
0.7196495798171986
 30
0.0
 10
21.88464189773771
 20
0.7395353719153063
 30
0.0
 10
21.82808693120911
 20
0.7534595519524526
 30
0.0
 10
21.78144737749432
 20
0.7559532916969568
 30
0.0
  0
SPLINE
  5
12C
330
1F
100
AcDbEntity
  8
외형선
  6
Continuous
 62
     1
370
    15
100
AcDbSpline
210
0.0
220
0.0
230
1.0
 70
     8
 71
     3
 72
     8
 73
     4
 74
     0
 42
0.000000001
 43
0.00000001
 40
0.0
 40
0.0
 40
0.0
 40
0.0
 40
1.0
 40
1.0
 40
1.0
 40
1.0
 10
23.21529392410241
 20
0.2503664832688699
 30
0.0
 10
23.16897101118968
 20
0.2747588037004473
 30
0.0
 10
23.11247711235827
 20
0.2993563997149639
 30
0.0
 10
23.05445252747282
 20
0.320424915607079
 30
0.0
  0
SPLINE
  5
12D
330
1F
100
AcDbEntity
  8
외형선
  6
Continuous
 62
     1
370
    15
100
AcDbSpline
210
0.0
220
0.0
230
1.0
 70
     8
 71
     3
 72
    10
 73
     6
 74
     0
 42
0.000000001
 43
0.00000001
 40
0.0
 40
0.0
 40
0.0
 40
0.0
 40
0.5
 40
0.5
 40
1.0
 40
1.0
 40
1.0
 40
1.0
 10
23.85588310090134
 20
0.0212460828113935
 30
0.0
 10
23.76097494240362
 20
0.0440909369528512
 30
0.0
 10
23.64553441052922
 20
0.0754307033933226
 30
0.0
 10
23.41626510351487
 20
0.1552789574175352
 30
0.0
 10
23.30644832495825
 20
0.202367184118352
 30
0.0
 10
23.21529392410278
 20
0.2503664832688489
 30
0.0
  0
SPLINE
  5
12E
330
1F
100
AcDbEntity
  8
외형선
  6
Continuous
 62
     1
370
    15
100
AcDbSpline
210
0.0
220
0.0
230
1.0
 70
     8
 71
     3
 72
     8
 73
     4
 74
     0
 42
0.000000001
 43
0.00000001
 40
0.0
 40
0.0
 40
0.0
 40
0.0
 40
1.0
 40
1.0
 40
1.0
 40
1.0
 10
24.01530969517472
 20
-0.0290115920038821
 30
0.0
 10
23.95910733111405
 20
-0.0085966944240417
 30
0.0
 10
23.90253550232443
 20
0.0100166234830552
 30
0.0
 10
23.85588310090041
 20
0.0212460828127817
 30
0.0
  0
SPLINE
  5
12F
330
1F
100
AcDbEntity
  8
외형선
  6
Continuous
 62
     1
370
    15
100
AcDbSpline
210
0.0
220
0.0
230
1.0
 70
     8
 71
     3
 72
    10
 73
     6
 74
     0
 42
0.000000001
 43
0.00000001
 40
0.0
 40
0.0
 40
0.0
 40
0.0
 40
0.5
 40
0.5
 40
1.0
 40
1.0
 40
1.0
 40
1.0
 10
25.93258423303867
 20
-0.715425735049106
 30
0.0
 10
25.83759750794269
 20
-0.6760472597656668
 30
0.0
 10
25.7220640213003
 20
-0.6371311989204496
 30
0.0
 10
25.49261805317977
 20
-0.5594807717708125
 30
0.0
 10
25.3827128273008
 20
-0.5218400788242448
 30
0.0
 10
25.29143693582278
 20
-0.4904136446858359
 30
0.0
  0
SPLINE
  5
130
330
1F
100
AcDbEntity
  8
외형선
  6
Continuous
370
    15
100
AcDbSpline
210
0.0
220
0.0
230
1.0
 70
    24
 71
     3
 72
    16
 73
    12
 74
     0
 42
0.000000001
 43
0.00000001
 40
0.0
 40
0.0
 40
0.0
 40
0.0
 40
0.0770606472088925
 40
0.154939572755944
 40
0.2802894667181727
 40
0.4092745160971107
 40
0.5346244100593395
 40
0.6636094594382778
 40
0.7889593534005099
 40
0.917944402779445
 40
1.0
 40
1.0
 40
1.0
 40
1.0
 10
9.999999999999982
 20
3.173870332732279
 30
0.0
 10
9.999999999999982
 20
3.067497698184386
 30
0.0
 10
9.999999999999982
 20
2.853622897663985
 30
0.0
 10
9.999999999999982
 20
2.47855449146743
 30
0.0
 10
9.999999999999982
 20
2.054990934136792
 30
0.0
 10
9.999999999999982
 20
1.616276920263212
 30
0.0
 10
9.999999999999982
 20
1.231687687285932
 30
0.0
 10
9.999999999999982
 20
0.9186535736492364
 30
0.0
 10
9.999999999999982
 20
0.6823187719448356
 30
0.0
 10
9.999999999999982
 20
0.5441318852669469
 30
0.0
 10
9.999999999999982
 20
0.5080209147196806
 30
0.0
 10
9.999999999999982
 20
0.4939804571006647
 30
0.0
  0
SPLINE
  5
131
330
1F
100
AcDbEntity
  8
외형선
  6
Continuous
 62
     1
370
    15
100
AcDbSpline
210
0.0
220
0.0
230
1.0
 70
     8
 71
     3
 72
    12
 73
     8
 74
     0
 42
0.000000001
 43
0.00000001
 40
0.0
 40
0.0
 40
0.0
 40
0.0
 40
0.2499999999999999
 40
0.2499999999999999
 40
0.4999999999999998
 40
0.4999999999999998
 40
1.0
 40
1.0
 40
1.0
 40
1.0
 10
23.85588310089584
 20
0.0212460828654372
 30
0.0
 10
23.83788866717267
 20
0.1977182166950426
 30
0.0
 10
23.82071647983299
 20
0.3713867094079142
 30
0.0
 10
23.78593594435
 20
0.71505645937115
 30
0.0
 10
23.76791784900604
 20
0.8863754897630939
 30
0.0
 10
23.71307821521122
 20
1.387363348173697
 30
0.0
 10
23.67550274221045
 20
1.70319806215482
 30
0.0
 10
23.64007156742527
 20
1.975111451858236
 30
0.0
  0
SPLINE
  5
132
330
1F
100
AcDbEntity
  8
외형선
  6
Continuous
 62
     1
370
    15
100
AcDbSpline
210
0.0
220
0.0
230
1.0
 70
     8
 71
     3
 72
     8
 73
     4
 74
     0
 42
0.000000001
 43
0.00000001
 40
0.0
 40
0.0
 40
0.0
 40
0.0
 40
1.0
 40
1.0
 40
1.0
 40
1.0
 10
23.64007156736406
 20
1.975111452330567
 30
0.0
 10
23.68640394853445
 20
1.980292916655278
 30
0.0
 10
23.74292225998128
 20
1.974074398090248
 30
0.0
 10
23.80096080806264
 20
1.957463617067484
 30
0.0
  0
SPLINE
  5
133
330
1F
100
AcDbEntity
  8
외형선
  6
Continuous
 62
     1
370
    15
100
AcDbSpline
210
0.0
220
0.0
230
1.0
 70
     8
 71
     3
 72
    10
 73
     6
 74
     0
 42
0.000000001
 43
0.00000001
 40
0.0
 40
0.0
 40
0.0
 40
0.0
 40
0.5
 40
0.5
 40
1.0
 40
1.0
 40
1.0
 40
1.0
 10
25.07524782088154
 20
1.552830849471962
 30
0.0
 10
25.17022967823087
 20
1.496286558696037
 30
0.0
 10
25.28572231693104
 20
1.450980542616521
 30
0.0
 10
25.51514460242952
 20
1.381738097243943
 30
0.0
 10
25.62511292463872
 20
1.358376363391765
 30
0.0
 10
25.7164300013013
 20
1.34946957534177
 30
0.0
  0
SPLINE
  5
134
330
1F
100
AcDbEntity
  8
외형선
  6
Continuous
 62
     1
370
    15
100
AcDbSpline
210
0.0
220
0.0
230
1.0
 70
     8
 71
     3
 72
     8
 73
     4
 74
     0
 42
0.000000001
 43
0.00000001
 40
0.0
 40
0.0
 40
0.0
 40
0.0
 40
1.0
 40
1.0
 40
1.0
 40
1.0
 10
27.47567749140657
 20
3.153025730595104
 30
0.0
 10
27.41944644949532
 20
3.150621432310643
 30
0.0
 10
27.3628438034313
 20
3.13071990127168
 30
0.0
 10
27.31615468304192
 20
3.093797309360482
 30
0.0
  0
SPLINE
  5
135
330
1F
100
AcDbEntity
  8
외형선
  6
Continuous
 62
     1
370
    15
100
AcDbSpline
210
0.0
220
0.0
230
1.0
 70
     8
 71
     3
 72
     8
 73
     4
 74
     0
 42
0.000000001
 43
0.00000001
 40
0.0
 40
0.0
 40
0.0
 40
0.0
 40
1.0
 40
1.0
 40
1.0
 40
1.0
 10
27.95000000000002
 20
3.168619615689993
 30
0.0
 10
27.79168394913412
 20
3.164975692047731
 30
0.0
 10
27.63345768131642
 20
3.159772063404109
 30
0.0
 10
27.47567025503897
 20
3.153025421185086
 30
0.0
  0
SPLINE
  5
136
330
1F
100
AcDbEntity
  8
외형선
  6
Continuous
 62
     1
370
    15
100
AcDbSpline
210
0.0
220
0.0
230
1.0
 70
     8
 71
     3
 72
    10
 73
     6
 74
     0
 42
0.000000001
 43
0.00000001
 40
0.0
 40
0.0
 40
0.0
 40
0.0
 40
0.5
 40
0.5
 40
1.0
 40
1.0
 40
1.0
 40
1.0
 10
29.03724557735814
 20
2.030595522500663
 30
0.0
 10
28.87337689222545
 20
2.229356374222828
 30
0.0
 10
28.69571216608592
 20
2.420433849264598
 30
0.0
 10
28.33003291712511
 20
2.79762368826748
 30
0.0
 10
28.14148449118392
 20
2.983455942281567
 30
0.0
 10
27.94999999999997
 20
3.168619615689983
 30
0.0
  0
SPLINE
  5
137
330
1F
100
AcDbEntity
  8
외형선
  6
Continuous
 62
     1
370
    15
100
AcDbSpline
210
0.0
220
0.0
230
1.0
 70
     8
 71
     3
 72
    10
 73
     6
 74
     0
 42
0.000000001
 43
0.00000001
 40
0.0
 40
0.0
 40
0.0
 40
0.0
 40
0.5
 40
0.5
 40
1.0
 40
1.0
 40
1.0
 40
1.0
 10
29.03724557735823
 20
2.030595522500618
 30
0.0
 10
28.92367537765193
 20
1.809503459258806
 30
0.0
 10
28.77858149270359
 20
1.619933496234109
 30
0.0
 10
28.43765108915984
 20
1.306715502672476
 30
0.0
 10
28.24757583543147
 20
1.188082395917792
 30
0.0
 10
28.04667138707318
 20
1.102764171070183
 30
0.0
  0
SPLINE
  5
138
330
1F
100
AcDbEntity
  8
외형선
  6
Continuous
 62
     1
370
    15
100
AcDbSpline
210
0.0
220
0.0
230
1.0
 70
     8
 71
     3
 72
     8
 73
     4
 74
     0
 42
0.000000001
 43
0.00000001
 40
0.0
 40
0.0
 40
0.0
 40
0.0
 40
1.0
 40
1.0
 40
1.0
 40
1.0
 10
29.04999999999999
 20
0.6124588087644215
 30
0.0
 10
28.7134022383075
 20
0.7808251587088874
 30
0.0
 10
28.37908082845643
 20
0.9439823291218946
 30
0.0
 10
28.04667138707319
 20
1.102764171070193
 30
0.0
  0
LINE
  5
139
330
1F
100
AcDbEntity
  8
외형선
  6
Continuous
 62
     1
370
    15
100
AcDbLine
 10
29.04999999999999
 20
0.4950880597006305
 30
0.0
 11
29.04999999999999
 21
0.6124588087644213
 31
0.0
  0
SPLINE
  5
13A
330
1F
100
AcDbEntity
  8
외형선
  6
Continuous
 62
     1
370
    15
100
AcDbSpline
210
0.0
220
0.0
230
1.0
 70
     8
 71
     3
 72
    10
 73
     6
 74
     0
 42
0.000000001
 43
0.00000001
 40
0.0
 40
0.0
 40
0.0
 40
0.0
 40
0.5
 40
0.5
 40
1.0
 40
1.0
 40
1.0
 40
1.0
 10
22.99974475913615
 20
2.147428439584369
 30
0.0
 10
23.09458834212433
 20
2.080463631271461
 30
0.0
 10
23.20993618961418
 20
2.032876676369052
 30
0.0
 10
23.43909921706558
 20
1.975011634111294
 30
0.0
 10
23.54890198615632
 20
1.964915733470238
 30
0.0
 10
23.64007156736375
 20
1.975111452330413
 30
0.0
  0
SPLINE
  5
13B
330
1F
100
AcDbEntity
  8
외형선
  6
Continuous
 62
     1
370
    15
100
AcDbSpline
210
0.0
220
0.0
230
1.0
 70
     8
 71
     3
 72
     8
 73
     4
 74
     0
 42
0.000000001
 43
0.00000001
 40
0.0
 40
0.0
 40
0.0
 40
0.0
 40
1.0
 40
1.0
 40
1.0
 40
1.0
 10
22.84047490558431
 20
2.220666127532176
 30
0.0
 10
22.89662726315934
 20
2.206050262354439
 30
0.0
 10
22.95313957006566
 20
2.180334277324294
 30
0.0
 10
22.99974475913564
 20
2.147428439584726
 30
0.0
  0
SPLINE
  5
13C
330
1F
100
AcDbEntity
  8
외형선
  6
Continuous
 62
     1
370
    15
100
AcDbSpline
210
0.0
220
0.0
230
1.0
 70
     8
 71
     3
 72
     8
 73
     4
 74
     0
 42
0.000000001
 43
0.00000001
 40
0.0
 40
0.0
 40
0.0
 40
0.0
 40
1.0
 40
1.0
 40
1.0
 40
1.0
 10
21.56555823773224
 20
2.489009173136997
 30
0.0
 10
21.61192019152044
 20
2.50357081555232
 30
0.0
 10
21.66845969359872
 20
2.504320897119868
 30
0.0
 10
21.72652134436135
 20
2.491227952513928
 30
0.0
  0
SPLINE
  5
13D
330
1F
100
AcDbEntity
  8
외형선
  6
Continuous
 62
     1
370
    15
100
AcDbSpline
210
0.0
220
0.0
230
1.0
 70
     8
 71
     3
 72
    10
 73
     6
 74
     0
 42
0.000000001
 43
0.00000001
 40
0.0
 40
0.0
 40
0.0
 40
0.0
 40
0.5
 40
0.5
 40
1.0
 40
1.0
 40
1.0
 40
1.0
 10
20.92452762237139
 20
2.620910775644834
 30
0.0
 10
21.01950860709977
 20
2.54718596660513
 30
0.0
 10
21.1350058353097
 20
2.5000335542357
 30
0.0
 10
21.36435690044959
 20
2.456705161727846
 30
0.0
 10
21.47428084187698
 20
2.460340217442482
 30
0.0
 10
21.56555823773193
 20
2.489009173136806
 30
0.0
  0
SPLINE
  5
13E
330
1F
100
AcDbEntity
  8
외형선
  6
Continuous
 62
     1
370
    15
100
AcDbSpline
210
0.0
220
0.0
230
1.0
 70
     8
 71
     3
 72
     8
 73
     4
 74
     0
 42
0.000000001
 43
0.00000001
 40
0.0
 40
0.0
 40
0.0
 40
0.0
 40
1.0
 40
1.0
 40
1.0
 40
1.0
 10
20.76502418262826
 20
2.692925923091799
 30
0.0
 10
20.82124967958933
 20
2.682088552735561
 30
0.0
 10
20.87784622517643
 20
2.657145155649788
 30
0.0
 10
20.9245276223709
 20
2.620910775645221
 30
0.0
  0
SPLINE
  5
13F
330
1F
100
AcDbEntity
  8
외형선
  6
Continuous
 62
     1
370
    15
100
AcDbSpline
210
0.0
220
0.0
230
1.0
 70
     8
 71
     3
 72
     8
 73
     4
 74
     0
 42
0.000000001
 43
0.00000001
 40
0.0
 40
0.0
 40
0.0
 40
0.0
 40
1.0
 40
1.0
 40
1.0
 40
1.0
 10
20.76502390798359
 20
2.692925976028586
 30
0.0
 10
20.39390382859666
 20
2.764458745923382
 30
0.0
 10
20.02065065402337
 20
2.828791091174153
 30
0.0
 10
19.64980673099829
 20
2.885145716891492
 30
0.0
  0
SPLINE
  5
140
330
1F
100
AcDbEntity
  8
외형선
  6
Continuous
 62
     1
370
    15
100
AcDbSpline
210
0.0
220
0.0
230
1.0
 70
     8
 71
     3
 72
     8
 73
     4
 74
     0
 42
0.000000001
 43
0.00000001
 40
0.0
 40
0.0
 40
0.0
 40
0.0
 40
1.0
 40
1.0
 40
1.0
 40
1.0
 10
19.48875414630122
 20
2.863143695900649
 30
0.0
 10
19.53514707387345
 20
2.886289148196233
 30
0.0
 10
19.59171679327164
 20
2.893973249639474
 30
0.0
 10
19.64980695161481
 20
2.885145683370928
 30
0.0
  0
SPLINE
  5
141
330
1F
100
AcDbEntity
  8
외형선
  6
Continuous
 62
     1
370
    15
100
AcDbSpline
210
0.0
220
0.0
230
1.0
 70
     8
 71
     3
 72
    10
 73
     6
 74
     0
 42
0.000000001
 43
0.00000001
 40
0.0
 40
0.0
 40
0.0
 40
0.0
 40
0.5
 40
0.5
 40
1.0
 40
1.0
 40
1.0
 40
1.0
 10
18.84770641323276
 20
2.946912401844461
 30
0.0
 10
18.94268678232737
 20
2.870598742384038
 30
0.0
 10
19.05820899160717
 20
2.826522393283629
 30
0.0
 10
19.28759288378438
 20
2.800373767734726
 30
0.0
 10
19.39746855614948
 20
2.81760127418427
 30
0.0
 10
19.48875414630091
 20
2.863143695900427
 30
0.0
  0
SPLINE
  5
142
330
1F
100
AcDbEntity
  8
외형선
  6
Continuous
 62
     1
370
    15
100
AcDbSpline
210
0.0
220
0.0
230
1.0
 70
     8
 71
     3
 72
     8
 73
     4
 74
     0
 42
0.000000001
 43
0.00000001
 40
0.0
 40
0.0
 40
0.0
 40
0.0
 40
1.0
 40
1.0
 40
1.0
 40
1.0
 10
18.68826098901356
 20
3.013602301822221
 30
0.0
 10
18.74446899776198
 20
3.007169220116766
 30
0.0
 10
18.8010451343025
 20
2.984403232678239
 30
0.0
 10
18.84770641323226
 20
2.946912401844854
 30
0.0
  0
SPLINE
  5
143
330
1F
100
AcDbEntity
  8
외형선
  6
Continuous
 62
     1
370
    15
100
AcDbSpline
210
0.0
220
0.0
230
1.0
 70
     8
 71
     3
 72
     8
 73
     4
 74
     0
 42
0.000000001
 43
0.00000001
 40
0.0
 40
0.0
 40
0.0
 40
0.0
 40
1.0
 40
1.0
 40
1.0
 40
1.0
 10
18.68854486986846
 20
3.013569809661789
 30
0.0
 10
18.31722755182302
 20
3.056071802853409
 30
0.0
 10
17.94426499754889
 20
3.090429111558775
 30
0.0
 10
17.57418870625467
 20
3.116251889754449
 30
0.0
  0
SPLINE
  5
144
330
1F
100
AcDbEntity
  8
외형선
  6
Continuous
 62
     1
370
    15
100
AcDbSpline
210
0.0
220
0.0
230
1.0
 70
     8
 71
     3
 72
     8
 73
     4
 74
     0
 42
0.000000001
 43
0.00000001
 40
0.0
 40
0.0
 40
0.0
 40
0.0
 40
1.0
 40
1.0
 40
1.0
 40
1.0
 10
17.41343482538205
 20
3.075656221690726
 30
0.0
 10
17.45971832335843
 20
3.106087733609203
 30
0.0
 10
17.51618915120113
 20
3.120298914558957
 30
0.0
 10
17.57418672608479
 20
3.116252027929995
 30
0.0
  0
SPLINE
  5
145
330
1F
100
AcDbEntity
  8
외형선
  6
Continuous
 62
     1
370
    15
100
AcDbSpline
210
0.0
220
0.0
230
1.0
 70
     8
 71
     3
 72
    10
 73
     6
 74
     0
 42
0.000000001
 43
0.00000001
 40
0.0
 40
0.0
 40
0.0
 40
0.0
 40
0.5
 40
0.5
 40
1.0
 40
1.0
 40
1.0
 40
1.0
 10
16.77316056178896
 20
3.106573419347146
 30
0.0
 10
16.86802496470015
 20
3.03202737789553
 30
0.0
 10
16.98341461744434
 20
2.993447386568834
 30
0.0
 10
17.21257787610925
 20
2.985858284237822
 30
0.0
 10
17.32232776334077
 20
3.015753107932933
 30
0.0
 10
17.41343482538174
 20
3.075656221690487
 30
0.0
  0
SPLINE
  5
146
330
1F
100
AcDbEntity
  8
외형선
  6
Continuous
 62
     1
370
    15
100
AcDbSpline
210
0.0
220
0.0
230
1.0
 70
     8
 71
     3
 72
     8
 73
     4
 74
     0
 42
0.000000001
 43
0.00000001
 40
0.0
 40
0.0
 40
0.0
 40
0.0
 40
1.0
 40
1.0
 40
1.0
 40
1.0
 10
16.61379137805041
 20
3.164219938558322
 30
0.0
 10
16.66997607609729
 20
3.162538844135885
 30
0.0
 10
16.7265269792045
 20
3.143218871947701
 30
0.0
 10
16.77316056178847
 20
3.106573419347541
 30
0.0
  0
SPLINE
  5
147
330
1F
100
AcDbEntity
  8
외형선
  6
Continuous
 62
     1
370
    15
100
AcDbSpline
210
0.0
220
0.0
230
1.0
 70
     8
 71
     3
 72
     9
 73
     5
 74
     0
 42
0.000000001
 43
0.00000001
 40
0.0
 40
0.0
 40
0.0
 40
0.0
 40
0.8679672673522681
 40
1.0
 40
1.0
 40
1.0
 40
1.0
 10
16.61379143730329
 20
3.164219936785344
 30
0.0
 10
16.40539636591075
 20
3.169847493884531
 30
0.0
 10
16.16530082402672
 20
3.176331099097379
 30
0.0
 10
15.92529871481055
 20
3.174463803092523
 30
0.0
 10
15.89361058048951
 20
3.174217258898339
 30
0.0
  0
LINE
  5
148
330
1F
100
AcDbEntity
  8
외형선
  6
Continuous
 62
     1
370
    15
100
AcDbLine
 10
22.20026614779137
 20
2.380771090752054
 30
0.0
 11
22.36322440031819
 21
2.420333928142508
 31
0.0
  0
SPLINE
  5
149
330
1F
100
AcDbEntity
  8
외형선
  6
Continuous
 62
     1
370
    15
100
AcDbSpline
210
0.0
220
0.0
230
1.0
 70
     8
 71
     3
 72
     8
 73
     4
 74
     0
 42
0.000000001
 43
0.00000001
 40
0.0
 40
0.0
 40
0.0
 40
0.0
 40
1.0
 40
1.0
 40
1.0
 40
1.0
 10
22.52426034165468
 20
2.421044571180876
 30
0.0
 10
22.47787428528357
 20
2.434269766946874
 30
0.0
 10
22.42130859025907
 20
2.433990309780081
 30
0.0
 10
22.36322640086878
 20
2.420334398503018
 30
0.0
  0
SPLINE
  5
14A
330
1F
100
AcDbEntity
  8
외형선
  6
Continuous
 62
     1
370
    15
100
AcDbSpline
210
0.0
220
0.0
230
1.0
 70
     8
 71
     3
 72
    10
 73
     6
 74
     0
 42
0.000000001
 43
0.00000001
 40
0.0
 40
0.0
 40
0.0
 40
0.0
 40
0.5
 40
0.5
 40
1.0
 40
1.0
 40
1.0
 40
1.0
 10
23.16525718581998
 20
2.559299204758172
 30
0.0
 10
23.07031720659533
 20
2.486284936195561
 30
0.0
 10
22.9548485470094
 20
2.438903783566992
 30
0.0
 10
22.72548146385707
 20
2.393369376436106
 30
0.0
 10
22.61554600615717
 20
2.395017983060363
 30
0.0
 10
22.52426034165519
 20
2.421044571180556
 30
0.0
  0
SPLINE
  5
14B
330
1F
100
AcDbEntity
  8
외형선
  6
Continuous
 62
     1
370
    15
100
AcDbSpline
210
0.0
220
0.0
230
1.0
 70
     8
 71
     3
 72
     8
 73
     4
 74
     0
 42
0.000000001
 43
0.00000001
 40
0.0
 40
0.0
 40
0.0
 40
0.0
 40
1.0
 40
1.0
 40
1.0
 40
1.0
 10
23.32472124244356
 20
2.63185149244344
 30
0.0
 10
23.26851059421561
 20
2.620379662367734
 30
0.0
 10
23.21193162214585
 20
2.595194513112298
 30
0.0
 10
23.16525718581769
 20
2.559299204762147
 30
0.0
  0
SPLINE
  5
14C
330
1F
100
AcDbEntity
  8
외형선
  6
Continuous
 62
     1
370
    15
100
AcDbSpline
210
0.0
220
0.0
230
1.0
 70
     8
 71
     3
 72
     8
 73
     4
 74
     0
 42
0.000000001
 43
0.00000001
 40
0.0
 40
0.0
 40
0.0
 40
0.0
 40
1.0
 40
1.0
 40
1.0
 40
1.0
 10
24.43874953798077
 20
2.836436879549303
 30
0.0
 10
24.06704362319122
 20
2.775742866222865
 30
0.0
 10
23.69419195045828
 20
2.707255447290621
 30
0.0
 10
23.32472124164325
 20
2.631851492280112
 30
0.0
  0
SPLINE
  5
14D
330
1F
100
AcDbEntity
  8
외형선
  6
Continuous
 62
     1
370
    15
100
AcDbSpline
210
0.0
220
0.0
230
1.0
 70
     8
 71
     3
 72
     8
 73
     4
 74
     0
 42
0.000000001
 43
0.00000001
 40
0.0
 40
0.0
 40
0.0
 40
0.0
 40
1.0
 40
1.0
 40
1.0
 40
1.0
 10
24.59947788325376
 20
2.817230094724705
 30
0.0
 10
24.55320200547867
 20
2.839194108499331
 30
0.0
 10
24.49673856627578
 20
2.845905617404459
 30
0.0
 10
24.43875079602616
 20
2.836437084973874
 30
0.0
  0
SPLINE
  5
14E
330
1F
100
AcDbEntity
  8
외형선
  6
Continuous
 62
     1
370
    15
100
AcDbSpline
210
0.0
220
0.0
230
1.0
 70
     8
 71
     3
 72
    10
 73
     6
 74
     0
 42
0.000000001
 43
0.00000001
 40
0.0
 40
0.0
 40
0.0
 40
0.0
 40
0.5
 40
0.5
 40
1.0
 40
1.0
 40
1.0
 40
1.0
 10
25.23979053718925
 20
2.908399556922853
 30
0.0
 10
25.14493845764214
 20
2.832248704217099
 30
0.0
 10
25.02960105824857
 20
2.787490807044202
 30
0.0
 10
24.80045111747965
 20
2.758658406576046
 30
0.0
 10
24.69061618439682
 20
2.773972937908256
 30
0.0
 10
24.59947788325429
 20
2.817230094724333
 30
0.0
  0
SPLINE
  5
14F
330
1F
100
AcDbEntity
  8
외형선
  6
Continuous
 62
     1
370
    15
100
AcDbSpline
210
0.0
220
0.0
230
1.0
 70
     8
 71
     3
 72
     8
 73
     4
 74
     0
 42
0.000000001
 43
0.00000001
 40
0.0
 40
0.0
 40
0.0
 40
0.0
 40
1.0
 40
1.0
 40
1.0
 40
1.0
 10
25.39918635900913
 20
2.976175419720248
 30
0.0
 10
25.34299553272756
 20
2.969042851175236
 30
0.0
 10
25.2864380280386
 20
2.945849934629922
 30
0.0
 10
25.23979053718703
 20
2.908399556927806
 30
0.0
  0
SPLINE
  5
150
330
1F
100
AcDbEntity
  8
외형선
  6
Continuous
 62
     1
370
    15
100
AcDbSpline
210
0.0
220
0.0
230
1.0
 70
     8
 71
     3
 72
     8
 73
     4
 74
     0
 42
0.000000001
 43
0.00000001
 40
0.0
 40
0.0
 40
0.0
 40
0.0
 40
1.0
 40
1.0
 40
1.0
 40
1.0
 10
26.51419875713045
 20
3.092752485966199
 30
0.0
 10
26.14264438564921
 20
3.062202826718394
 30
0.0
 10
25.76946042159062
 20
3.023176065677376
 30
0.0
 10
25.39918635865737
 20
2.976175419675598
 30
0.0
  0
SPLINE
  5
151
330
1F
100
AcDbEntity
  8
외형선
  6
Continuous
 62
     1
370
    15
100
AcDbSpline
210
0.0
220
0.0
230
1.0
 70
     8
 71
     3
 72
     8
 73
     4
 74
     0
 42
0.000000001
 43
0.00000001
 40
0.0
 40
0.0
 40
0.0
 40
0.0
 40
1.0
 40
1.0
 40
1.0
 40
1.0
 10
26.67495359526156
 20
3.054772489982061
 30
0.0
 10
26.62856486308178
 20
3.08422223927213
 30
0.0
 10
26.57199957088318
 20
3.097505600681147
 30
0.0
 10
26.51391470671917
 20
3.092729129377172
 30
0.0
  0
SPLINE
  5
152
330
1F
100
AcDbEntity
  8
외형선
  6
Continuous
 62
     1
370
    15
100
AcDbSpline
210
0.0
220
0.0
230
1.0
 70
     8
 71
     3
 72
    10
 73
     6
 74
     0
 42
0.000000001
 43
0.00000001
 40
0.0
 40
0.0
 40
0.0
 40
0.0
 40
0.5
 40
0.5
 40
1.0
 40
1.0
 40
1.0
 40
1.0
 10
27.31615468304422
 20
3.093797309354676
 30
0.0
 10
27.22115285215398
 20
3.018668161416299
 30
0.0
 10
27.10564626808788
 20
2.979132244641194
 30
0.0
 10
26.87622661131476
 20
2.968698650283896
 30
0.0
 10
26.76627034434384
 20
2.996800322170479
 30
0.0
 10
26.67495359526209
 20
3.05477248998166
 30
0.0
  0
SPLINE
  5
153
330
1F
100
AcDbEntity
  8
외형선
  6
Continuous
 62
     1
370
    15
100
AcDbSpline
210
0.0
220
0.0
230
1.0
 70
     8
 71
     3
 72
     8
 73
     4
 74
     0
 42
0.000000001
 43
0.00000001
 40
0.0
 40
0.0
 40
0.0
 40
0.0
 40
1.0
 40
1.0
 40
1.0
 40
1.0
 10
12.25316418869081
 20
-2.176179517249408
 30
0.0
 10
12.19693942654397
 20
-2.161307230293105
 30
0.0
 10
12.1403424081701
 20
-2.135628125399365
 30
0.0
 10
12.09366527017068
 20
-2.103091583827441
 30
0.0
  0
SPLINE
  5
154
330
1F
100
AcDbEntity
  8
외형선
  6
Continuous
 62
     1
370
    15
100
AcDbSpline
210
0.0
220
0.0
230
1.0
 70
     8
 71
     3
 72
    12
 73
     8
 74
     0
 42
0.000000001
 43
0.00000001
 40
0.0
 40
0.0
 40
0.0
 40
0.0
 40
0.25
 40
0.25
 40
0.5
 40
0.5
 40
1.0
 40
1.0
 40
1.0
 40
1.0
 10
12.09366514909952
 20
-2.103090718973279
 30
0.0
 10
12.07528632220829
 20
-1.971807400717862
 30
0.0
 10
12.05706103480724
 20
-1.830614184332869
 30
0.0
 10
12.02167853311737
 20
-1.535124170011975
 30
0.0
 10
12.00483601464683
 20
-1.381903274702534
 30
0.0
 10
11.9516438151312
 20
-0.8971699435118321
 30
0.0
 10
11.91407700047421
 20
-0.5439635786104775
 30
0.0
 10
11.87756311984205
 20
-0.1901067640368607
 30
0.0
  0
SPLINE
  5
155
330
1F
100
AcDbEntity
  8
외형선
  6
Continuous
 62
     1
370
    15
100
AcDbSpline
210
0.0
220
0.0
230
1.0
 70
     8
 71
     3
 72
    12
 73
     8
 74
     0
 42
0.000000001
 43
0.00000001
 40
0.0
 40
0.0
 40
0.0
 40
0.0
 40
0.2500000000000001
 40
0.2500000000000001
 40
0.5000000000000001
 40
0.5000000000000001
 40
1.0
 40
1.0
 40
1.0
 40
1.0
 10
23.21529391941889
 20
0.2503665298090824
 30
0.0
 10
23.19771845764657
 20
0.4250004089853584
 30
0.0
 10
23.1807724080546
 20
0.5964236580771852
 30
0.0
 10
23.14500945632494
 20
0.9380148212274017
 30
0.0
 10
23.12665251067603
 20
1.106622761217898
 30
0.0
 10
23.071323859156
 20
1.594539527807808
 30
0.0
 10
23.03415110451225
 20
1.894896267274325
 30
0.0
 10
22.999744823084
 20
2.147427970226464
 30
0.0
  0
SPLINE
  5
156
330
1F
100
AcDbEntity
  8
외형선
  6
Continuous
 62
     1
370
    15
100
AcDbSpline
210
0.0
220
0.0
230
1.0
 70
     8
 71
     3
 72
    10
 73
     6
 74
     0
 42
0.000000001
 43
0.00000001
 40
0.0
 40
0.0
 40
0.0
 40
0.0
 40
0.4999999999999999
 40
0.4999999999999999
 40
1.0
 40
1.0
 40
1.0
 40
1.0
 10
12.09366527017325
 20
-2.103091583824838
 30
0.0
 10
11.99868303811347
 20
-2.036883725449406
 30
0.0
 10
11.88315993157021
 20
-1.989519373181092
 30
0.0
 10
11.65374636789536
 20
-1.930661533674405
 30
0.0
 10
11.54385950082018
 20
-1.919383070570674
 30
0.0
 10
11.45261220547795
 20
-1.927893380925511
 30
0.0
  0
SPLINE
  5
157
330
1F
100
AcDbEntity
  8
외형선
  6
Continuous
 62
     1
370
    15
100
AcDbSpline
210
0.0
220
0.0
230
1.0
 70
     8
 71
     3
 72
     8
 73
     4
 74
     0
 42
0.000000001
 43
0.00000001
 40
0.0
 40
0.0
 40
0.0
 40
0.0
 40
1.0
 40
1.0
 40
1.0
 40
1.0
 10
13.52947762129777
 20
-2.452634525700738
 30
0.0
 10
13.48307523134149
 20
-2.466446258225394
 30
0.0
 10
13.4265037028491
 20
-2.466566473441625
 30
0.0
 10
13.36842117653344
 20
-2.453092483455331
 30
0.0
  0
SPLINE
  5
158
330
1F
100
AcDbEntity
  8
외형선
  6
Continuous
 62
     1
370
    15
100
AcDbSpline
210
0.0
220
0.0
230
1.0
 70
     8
 71
     3
 72
    12
 73
     8
 74
     0
 42
0.000000001
 43
0.00000001
 40
0.0
 40
0.0
 40
0.0
 40
0.0
 40
0.4999999999999999
 40
0.4999999999999999
 40
0.7499999999999999
 40
0.7499999999999999
 40
1.0
 40
1.0
 40
1.0
 40
1.0
 10
13.52947762128889
 20
-2.452634525647474
 30
0.0
 10
13.49288454738313
 20
-2.233143391301504
 30
0.0
 10
13.45536023318751
 20
-1.963093916371811
 30
0.0
 10
13.40239732639222
 20
-1.518386326640757
 30
0.0
 10
13.38554217773317
 20
-1.364627597235708
 30
0.0
 10
13.35000125080246
 20
-1.04035980667125
 30
0.0
 10
13.33172326968866
 20
-0.8709367236903575
 30
0.0
 10
13.31332193242853
 20
-0.6976946388499143
 30
0.0
  0
SPLINE
  5
159
330
1F
100
AcDbEntity
  8
외형선
  6
Continuous
 62
     1
370
    15
100
AcDbSpline
210
0.0
220
0.0
230
1.0
 70
     8
 71
     3
 72
    10
 73
     6
 74
     0
 42
0.000000001
 43
0.00000001
 40
0.0
 40
0.0
 40
0.0
 40
0.0
 40
0.5
 40
0.5
 40
1.0
 40
1.0
 40
1.0
 40
1.0
 10
21.7814473702729
 20
0.7559533607967394
 30
0.0
 10
21.74575827145089
 20
1.097425615511709
 30
0.0
 10
21.70812143414794
 20
1.43007939352071
 30
0.0
 10
21.63530497668685
 20
2.020587590317215
 30
0.0
 10
21.60174775641057
 20
2.275612481605647
 30
0.0
 10
21.56555823773193
 20
2.489009173136803
 30
0.0
  0
SPLINE
  5
15A
330
1F
100
AcDbEntity
  8
외형선
  6
Continuous
 62
     1
370
    15
100
AcDbSpline
210
0.0
220
0.0
230
1.0
 70
     8
 71
     3
 72
     8
 73
     4
 74
     0
 42
0.000000001
 43
0.00000001
 40
0.0
 40
0.0
 40
0.0
 40
0.0
 40
1.0
 40
1.0
 40
1.0
 40
1.0
 10
15.44372763392278
 20
-2.859097189232577
 30
0.0
 10
15.07397139804151
 20
-2.800397764170888
 30
0.0
 10
14.70242036927098
 20
-2.733837123039323
 30
0.0
 10
14.32981857530034
 20
-2.65994375184227
 30
0.0
  0
SPLINE
  5
15B
330
1F
100
AcDbEntity
  8
외형선
  6
Continuous
 62
     1
370
    15
100
AcDbSpline
210
0.0
220
0.0
230
1.0
 70
     8
 71
     3
 72
    10
 73
     6
 74
     0
 42
0.000000001
 43
0.00000001
 40
0.0
 40
0.0
 40
0.0
 40
0.0
 40
0.5
 40
0.5
 40
1.0
 40
1.0
 40
1.0
 40
1.0
 10
14.32981612729995
 20
-2.659945330480017
 30
0.0
 10
14.29418102739213
 20
-2.46553366885484
 30
0.0
 10
14.25679450439382
 20
-2.216428764780505
 30
0.0
 10
14.18475294273839
 20
-1.649470749351475
 30
0.0
 10
14.15146021218981
 20
-1.337270976602452
 30
0.0
 10
14.11541498216734
 20
-0.9979735596628155
 30
0.0
  0
SPLINE
  5
15C
330
1F
100
AcDbEntity
  8
외형선
  6
Continuous
 62
     1
370
    15
100
AcDbSpline
210
0.0
220
0.0
230
1.0
 70
     8
 71
     3
 72
    12
 73
     8
 74
     0
 42
0.000000001
 43
0.00000001
 40
0.0
 40
0.0
 40
0.0
 40
0.0
 40
0.5000000000000001
 40
0.5000000000000001
 40
0.7499999999999999
 40
0.7499999999999999
 40
1.0
 40
1.0
 40
1.0
 40
1.0
 10
15.4437275711705
 20
-2.859097961995112
 30
0.0
 10
15.40964825912636
 20
-2.706412120685988
 30
0.0
 10
15.37299397305429
 20
-2.496109534492748
 30
0.0
 10
15.31801478810804
 20
-2.113986601997838
 30
0.0
 10
15.29973538187659
 20
-1.975868647335666
 30
0.0
 10
15.26404067123085
 20
-1.68453891129001
 30
0.0
 10
15.24705243011804
 20
-1.532675506870472
 30
0.0
 10
15.22972575885202
 20
-1.373520965652959
 30
0.0
  0
SPLINE
  5
15D
330
1F
100
AcDbEntity
  8
외형선
  6
Continuous
 62
     1
370
    15
100
AcDbSpline
210
0.0
220
0.0
230
1.0
 70
     8
 71
     3
 72
    12
 73
     8
 74
     0
 42
0.000000001
 43
0.00000001
 40
0.0
 40
0.0
 40
0.0
 40
0.0
 40
0.2500000000000001
 40
0.2500000000000001
 40
0.4999999999999999
 40
0.4999999999999999
 40
1.0
 40
1.0
 40
1.0
 40
1.0
 10
19.86442271246795
 20
1.428453582367804
 30
0.0
 10
19.84612093107172
 20
1.588831143917122
 30
0.0
 10
19.82785132646035
 20
1.742200348585881
 30
0.0
 10
19.79214563135854
 20
2.02879247094897
 30
0.0
 10
19.77510210825699
 20
2.161104550090277
 30
0.0
 10
19.72334427089061
 20
2.528174350712037
 30
0.0
 10
19.68632249797003
 20
2.735341561533467
 30
0.0
 10
19.64980686956802
 20
2.885146019966117
 30
0.0
  0
SPLINE
  5
15E
330
1F
100
AcDbEntity
  8
외형선
  6
Continuous
 62
     1
370
    15
100
AcDbSpline
210
0.0
220
0.0
230
1.0
 70
     8
 71
     3
 72
    12
 73
     8
 74
     0
 42
0.000000001
 43
0.00000001
 40
0.0
 40
0.0
 40
0.0
 40
0.0
 40
0.4999999999999996
 40
0.4999999999999996
 40
0.7499999999999998
 40
0.7499999999999998
 40
1.0
 40
1.0
 40
1.0
 40
1.0
 10
20.97959328650697
 20
1.055759923002597
 30
0.0
 10
20.94334052839136
 20
1.393429416251517
 30
0.0
 10
20.90603711663461
 20
1.713407524596939
 30
0.0
 10
20.85314952276929
 20
2.128069949058276
 30
0.0
 10
20.83641676865739
 20
2.254822026102759
 30
0.0
 10
20.80133944554711
 20
2.490175491849861
 30
0.0
 10
20.78326438180432
 20
2.597895286946629
 30
0.0
 10
20.76502402006884
 20
2.692926770005807
 30
0.0
  0
SPLINE
  5
15F
330
1F
100
AcDbEntity
  8
외형선
  6
Continuous
 62
     1
370
    15
100
AcDbSpline
210
0.0
220
0.0
230
1.0
 70
     8
 71
     3
 72
    10
 73
     6
 74
     0
 42
0.000000001
 43
0.00000001
 40
0.0
 40
0.0
 40
0.0
 40
0.0
 40
0.5
 40
0.5
 40
1.0
 40
1.0
 40
1.0
 40
1.0
 10
14.17039906666821
 20
-2.587764175464571
 30
0.0
 10
14.07545262136347
 20
-2.514491502413188
 30
0.0
 10
13.95995695247239
 20
-2.467291944923441
 30
0.0
 10
13.73057766303229
 20
-2.422900898247482
 30
0.0
 10
13.62071687607267
 20
-2.425477041271872
 30
0.0
 10
13.52947762129777
 20
-2.452634525700742
 30
0.0
  0
SPLINE
  5
160
330
1F
100
AcDbEntity
  8
외형선
  6
Continuous
 62
     1
370
    15
100
AcDbSpline
210
0.0
220
0.0
230
1.0
 70
     8
 71
     3
 72
    10
 73
     6
 74
     0
 42
0.000000001
 43
0.00000001
 40
0.0
 40
0.0
 40
0.0
 40
0.0
 40
0.5
 40
0.5
 40
1.0
 40
1.0
 40
1.0
 40
1.0
 10
14.17039888853006
 20
-2.587763199560956
 30
0.0
 10
14.13435623245842
 20
-2.39030874819551
 30
0.0
 10
14.09668441351254
 20
-2.138914323337775
 30
0.0
 10
14.02445410928245
 20
-1.570597822857968
 30
0.0
 10
13.99087359395633
 20
-1.258208215780804
 30
0.0
 10
13.95442286026188
 20
-0.9195682989273609
 30
0.0
  0
SPLINE
  5
161
330
1F
100
AcDbEntity
  8
외형선
  6
Continuous
 62
     1
370
    15
100
AcDbSpline
210
0.0
220
0.0
230
1.0
 70
     8
 71
     3
 72
     8
 73
     4
 74
     0
 42
0.000000001
 43
0.00000001
 40
0.0
 40
0.0
 40
0.0
 40
0.0
 40
1.0
 40
1.0
 40
1.0
 40
1.0
 10
14.32981573468117
 20
-2.659943188498284
 30
0.0
 10
14.27361680533647
 20
-2.648797964587056
 30
0.0
 10
14.21704898823915
 20
-2.62376514886244
 30
0.0
 10
14.17039906666571
 20
-2.587764175468296
 30
0.0
  0
SPLINE
  5
162
330
1F
100
AcDbEntity
  8
외형선
  6
Continuous
 62
     1
370
    15
100
AcDbSpline
210
0.0
220
0.0
230
1.0
 70
     8
 71
     3
 72
    12
 73
     8
 74
     0
 42
0.000000001
 43
0.00000001
 40
0.0
 40
0.0
 40
0.0
 40
0.0
 40
0.5
 40
0.5
 40
0.75
 40
0.75
 40
1.0
 40
1.0
 40
1.0
 40
1.0
 10
21.1406171085457
 20
0.9765589816437213
 30
0.0
 10
21.10424722030015
 20
1.312879460148684
 30
0.0
 10
21.06661293761751
 20
1.633470695086478
 30
0.0
 10
21.01302882323546
 20
2.050866014991799
 30
0.0
 10
20.99610059951928
 20
2.17861618781865
 30
0.0
 10
20.96099623343525
 20
2.41559107449032
 30
0.0
 10
20.94286466102925
 20
2.524467726857624
 30
0.0
 10
20.92452764942114
 20
2.6209106333776
 30
0.0
  0
SPLINE
  5
163
330
1F
100
AcDbEntity
  8
외형선
  6
Continuous
 62
     1
370
    15
100
AcDbSpline
210
0.0
220
0.0
230
1.0
 70
     8
 71
     3
 72
     8
 73
     4
 74
     0
 42
0.000000001
 43
0.00000001
 40
0.0
 40
0.0
 40
0.0
 40
0.0
 40
1.0
 40
1.0
 40
1.0
 40
1.0
 10
15.6044929527727
 20
-2.838655363882392
 30
0.0
 10
15.55819448413455
 20
-2.861161155888511
 30
0.0
 10
15.50171722048516
 20
-2.868303134310405
 30
0.0
 10
15.4437273900512
 20
-2.85909715052225
 30
0.0
  0
SPLINE
  5
164
330
1F
100
AcDbEntity
  8
외형선
  6
Continuous
 62
     1
370
    15
100
AcDbSpline
210
0.0
220
0.0
230
1.0
 70
     8
 71
     3
 72
    14
 73
    10
 74
     0
 42
0.000000001
 43
0.00000001
 40
0.0
 40
0.0
 40
0.0
 40
0.0
 40
0.25
 40
0.25
 40
0.5
 40
0.5
 40
0.75
 40
0.75
 40
1.0
 40
1.0
 40
1.0
 40
1.0
 10
15.60449295277027
 20
-2.838655363872218
 30
0.0
 10
15.58716581406241
 20
-2.766094836475357
 30
0.0
 10
15.56982101367599
 20
-2.680294123668857
 30
0.0
 10
15.53369318781577
 20
-2.481349139365154
 30
0.0
 10
15.51523108710713
 20
-2.368638458149054
 30
0.0
 10
15.47830438722637
 20
-2.121114020664868
 30
0.0
 10
15.45984369257993
 20
-1.986326452705524
 30
0.0
 10
15.42372129152504
 20
-1.700972058199876
 30
0.0
 10
15.4063857216789
 20
-1.551408362363015
 30
0.0
 10
15.3890541743746
 20
-1.395387325602537
 30
0.0
  0
SPLINE
  5
165
330
1F
100
AcDbEntity
  8
외형선
  6
Continuous
 62
     1
370
    15
100
AcDbSpline
210
0.0
220
0.0
230
1.0
 70
     8
 71
     3
 72
    12
 73
     8
 74
     0
 42
0.000000001
 43
0.00000001
 40
0.0
 40
0.0
 40
0.0
 40
0.0
 40
0.2499999999999998
 40
0.2499999999999998
 40
0.4999999999999997
 40
0.4999999999999997
 40
1.0
 40
1.0
 40
1.0
 40
1.0
 10
19.7049104796107
 20
1.448807937088806
 30
0.0
 10
19.68648770946325
 20
1.606288936362551
 30
0.0
 10
19.66813575945877
 20
1.756456367788825
 30
0.0
 10
19.63235224894667
 20
2.036176045480556
 30
0.0
 10
19.6153803264148
 20
2.164729599102109
 30
0.0
 10
19.56286388814353
 20
2.522226217042561
 30
0.0
 10
19.52545107074835
 20
2.721649737446589
 30
0.0
 10
19.48875414630072
 20
2.863143695901143
 30
0.0
  0
SPLINE
  5
166
330
1F
100
AcDbEntity
  8
외형선
  6
Continuous
370
    15
100
AcDbSpline
210
0.0
220
0.0
230
1.0
 70
     8
 71
     3
 72
     8
 73
     4
 74
     0
 42
0.000000001
 43
0.00000001
 40
0.0
 40
0.0
 40
0.0
 40
0.0
 40
0.0000229101826524
 40
0.0000229101826524
 40
0.0000229101826524
 40
0.0000229101826524
 10
10.01813230710359
 20
-1.500164653179282
 30
0.0
 10
10.01218139614028
 20
-1.496690778550263
 30
0.0
 10
10.00613393442188
 20
-1.493250850854491
 30
0.0
 10
9.999999999999938
 20
-1.489847884284782
 30
0.0
  0
SPLINE
  5
167
330
1F
100
AcDbEntity
  8
외형선
  6
Continuous
370
    15
100
AcDbSpline
210
0.0
220
0.0
230
1.0
 70
    24
 71
     3
 72
     8
 73
     4
 74
     0
 42
0.000000001
 43
0.00000001
 40
0.0
 40
0.0
 40
0.0
 40
0.0
 40
1.0
 40
1.0
 40
1.0
 40
1.0
 10
9.999999999999956
 20
-1.337363434526076
 30
0.0
 10
9.999999999999956
 20
-1.389106812364691
 30
0.0
 10
10.0
 20
-1.439950169314149
 30
0.0
 10
10.0
 20
-1.489847884284872
 30
0.0
  0
SPLINE
  5
168
330
1F
100
AcDbEntity
  8
외형선
  6
Continuous
 62
     1
370
    15
100
AcDbSpline
210
0.0
220
0.0
230
1.0
 70
     8
 71
     3
 72
    10
 73
     6
 74
     0
 42
0.000000001
 43
0.00000001
 40
0.0
 40
0.0
 40
0.0
 40
0.0
 40
0.5
 40
0.5
 40
1.0
 40
1.0
 40
1.0
 40
1.0
 10
16.24484729289779
 20
-2.926200586765818
 30
0.0
 10
16.14998783207175
 20
-2.850034483071907
 30
0.0
 10
16.03459908227171
 20
-2.805632285609383
 30
0.0
 10
15.80540148042992
 20
-2.778121507332937
 30
0.0
 10
15.69560834341458
 20
-2.79436396309397
 30
0.0
 10
15.6044929527727
 20
-2.838655363882394
 30
0.0
  0
SPLINE
  5
169
330
1F
100
AcDbEntity
  8
외형선
  6
Continuous
 62
     1
370
    15
100
AcDbSpline
210
0.0
220
0.0
230
1.0
 70
     8
 71
     3
 72
    12
 73
     8
 74
     0
 42
0.000000001
 43
0.00000001
 40
0.0
 40
0.0
 40
0.0
 40
0.0
 40
0.2499999999999999
 40
0.2499999999999999
 40
0.4999999999999998
 40
0.4999999999999998
 40
1.0
 40
1.0
 40
1.0
 40
1.0
 10
16.24484723102928
 20
-2.926200373946522
 30
0.0
 10
16.22703613540222
 20
-2.864932604462263
 30
0.0
 10
16.21015444694441
 20
-2.791047702610384
 30
0.0
 10
16.17488211355395
 20
-2.615700610593227
 30
0.0
 10
16.15668830820402
 20
-2.514224795422687
 30
0.0
 10
16.10156851912144
 20
-2.17339499813124
 30
0.0
 10
16.06414779944793
 20
-1.896985102268196
 30
0.0
 10
16.02917189202395
 20
-1.59648283645423
 30
0.0
  0
LINE
  5
16A
330
1F
100
AcDbEntity
  8
외형선
  6
Continuous
 62
     1
370
    15
100
AcDbLine
 10
13.0644805756561
 20
-2.380398133855434
 30
0.0
 11
12.73157416953201
 21
-2.45962930929127
 31
0.0
  0
SPLINE
  5
16B
330
1F
100
AcDbEntity
  8
외형선
  6
Continuous
 62
     1
370
    15
100
AcDbSpline
210
0.0
220
0.0
230
1.0
 70
     8
 71
     3
 72
     8
 73
     4
 74
     0
 42
0.000000001
 43
0.00000001
 40
0.0
 40
0.0
 40
0.0
 40
0.0
 40
1.0
 40
1.0
 40
1.0
 40
1.0
 10
12.57064054818383
 20
-2.458686510986586
 30
0.0
 10
12.61699407392424
 20
-2.47266652229072
 30
0.0
 10
12.67352670790428
 20
-2.472970164122113
 30
0.0
 10
12.73157416886692
 20
-2.45962930944816
 30
0.0
  0
SPLINE
  5
16C
330
1F
100
AcDbEntity
  8
외형선
  6
Continuous
 62
     1
370
    15
100
AcDbSpline
210
0.0
220
0.0
230
1.0
 70
     8
 71
     3
 72
    10
 73
     6
 74
     0
 42
0.000000001
 43
0.00000001
 40
0.0
 40
0.0
 40
0.0
 40
0.0
 40
0.5
 40
0.5
 40
1.0
 40
1.0
 40
1.0
 40
1.0
 10
11.92976087964845
 20
-2.593021700379458
 30
0.0
 10
12.02468853685626
 20
-2.519692813785099
 30
0.0
 10
12.14014793337094
 20
-2.472507774441465
 30
0.0
 10
12.36949795376129
 20
-2.428361264245593
 30
0.0
 10
12.4794039434019
 20
-2.431169968375665
 30
0.0
 10
12.57064054818383
 20
-2.458686510986582
 30
0.0
  0
SPLINE
  5
16D
330
1F
100
AcDbEntity
  8
외형선
  6
Continuous
 62
     1
370
    15
100
AcDbSpline
210
0.0
220
0.0
230
1.0
 70
     8
 71
     3
 72
     8
 73
     4
 74
     0
 42
0.000000001
 43
0.00000001
 40
0.0
 40
0.0
 40
0.0
 40
0.0
 40
1.0
 40
1.0
 40
1.0
 40
1.0
 10
11.77026688869579
 20
-2.665240603864554
 30
0.0
 10
11.82648246557167
 20
-2.654114677455739
 30
0.0
 10
11.88308031674039
 20
-2.629081093440781
 30
0.0
 10
11.92976087964846
 20
-2.59302170037946
 30
0.0
  0
SPLINE
  5
16E
330
1F
100
AcDbEntity
  8
외형선
  6
Continuous
 62
     1
370
    15
100
AcDbSpline
210
0.0
220
0.0
230
1.0
 70
     8
 71
     3
 72
     8
 73
     4
 74
     0
 42
0.000000001
 43
0.00000001
 40
0.0
 40
0.0
 40
0.0
 40
0.0
 40
1.0
 40
1.0
 40
1.0
 40
1.0
 10
11.77026689377105
 20
-2.66524060285999
 30
0.0
 10
11.39824221656167
 20
-2.738870002652866
 30
0.0
 10
11.02833730143724
 20
-2.805094471277287
 30
0.0
 10
10.65495359420445
 20
-2.863675671316022
 30
0.0
  0
SPLINE
  5
16F
330
1F
100
AcDbEntity
  8
외형선
  6
Continuous
 62
     1
370
    15
100
AcDbSpline
210
0.0
220
0.0
230
1.0
 70
     8
 71
     3
 72
     8
 73
     4
 74
     0
 42
0.000000001
 43
0.00000001
 40
0.0
 40
0.0
 40
0.0
 40
0.0
 40
1.0
 40
1.0
 40
1.0
 40
1.0
 10
10.49391181983581
 20
-2.842904086344123
 30
0.0
 10
10.54030217009191
 20
-2.865535049734544
 30
0.0
 10
10.59687148186744
 20
-2.872788334179041
 30
0.0
 10
10.65495359343341
 20
-2.863675671441951
 30
0.0
  0
SPLINE
  5
170
330
1F
100
AcDbEntity
  8
외형선
  6
Continuous
 62
     1
370
    15
100
AcDbSpline
210
0.0
220
0.0
230
1.0
 70
     8
 71
     3
 72
     8
 73
     4
 74
     0
 42
0.000000001
 43
0.00000001
 40
0.0
 40
0.0
 40
0.0
 40
0.0
 40
1.0
 40
1.0
 40
1.0
 40
1.0
 10
9.999999999999938
 20
-2.842545926368022
 30
0.0
 10
10.16952361990527
 20
-2.771135113880485
 30
0.0
 10
10.35470561741239
 20
-2.774994047869033
 30
0.0
 10
10.49391181983582
 20
-2.842904086344123
 30
0.0
  0
SPLINE
  5
171
330
1F
100
AcDbEntity
  8
외형선
  6
Continuous
 62
     1
370
    15
100
AcDbSpline
210
0.0
220
0.0
230
1.0
 70
     8
 71
     3
 72
     8
 73
     4
 74
     0
 42
0.000000001
 43
0.00000001
 40
0.0
 40
0.0
 40
0.0
 40
0.0
 40
1.0
 40
1.0
 40
1.0
 40
1.0
 10
16.40423666384067
 20
-2.993435974703239
 30
0.0
 10
16.3480467302656
 20
-2.986633158196503
 30
0.0
 10
16.2914870356259
 20
-2.96364932883687
 30
0.0
 10
16.24484729289528
 20
-2.926200586770531
 30
0.0
  0
SPLINE
  5
172
330
1F
100
AcDbEntity
  8
외형선
  6
Continuous
 62
     1
370
    15
100
AcDbSpline
210
0.0
220
0.0
230
1.0
 70
     8
 71
     3
 72
     8
 73
     4
 74
     0
 42
0.000000001
 43
0.00000001
 40
0.0
 40
0.0
 40
0.0
 40
0.0
 40
1.0
 40
1.0
 40
1.0
 40
1.0
 10
17.5191486848191
 20
-3.103971169439788
 30
0.0
 10
17.14808655196441
 20
-3.0755143298764
 30
0.0
 10
16.77741972377719
 20
-3.03861659045766
 30
0.0
 10
16.40423676403317
 20
-2.993435986833369
 30
0.0
  0
SPLINE
  5
173
330
1F
100
AcDbEntity
  8
외형선
  6
Continuous
 62
     1
370
    15
100
AcDbSpline
210
0.0
220
0.0
230
1.0
 70
     8
 71
     3
 72
     8
 73
     4
 74
     0
 42
0.000000001
 43
0.00000001
 40
0.0
 40
0.0
 40
0.0
 40
0.0
 40
1.0
 40
1.0
 40
1.0
 40
1.0
 10
17.68020396553261
 20
-3.064816045514341
 30
0.0
 10
17.63380306690085
 20
-3.094726910341179
 30
0.0
 10
17.57722891990647
 20
-3.108425358766575
 30
0.0
 10
17.51914750749052
 20
-3.103971079155562
 30
0.0
  0
SPLINE
  5
174
330
1F
100
AcDbEntity
  8
외형선
  6
Continuous
 62
     1
370
    15
100
AcDbSpline
210
0.0
220
0.0
230
1.0
 70
     8
 71
     3
 72
    10
 73
     6
 74
     0
 42
0.000000001
 43
0.00000001
 40
0.0
 40
0.0
 40
0.0
 40
0.0
 40
0.5
 40
0.5
 40
1.0
 40
1.0
 40
1.0
 40
1.0
 10
18.32132567545595
 20
-3.10005321832392
 30
0.0
 10
18.22635141030804
 20
-3.025176710443275
 30
0.0
 10
18.11083253316722
 20
-2.986087615618067
 30
0.0
 10
17.88139581938031
 20
-2.977015334684494
 30
0.0
 10
17.77147989867672
 20
-3.005977915678023
 30
0.0
 10
17.68020396553261
 20
-3.064816045514335
 30
0.0
  0
SPLINE
  5
175
330
1F
100
AcDbEntity
  8
외형선
  6
Continuous
 62
     1
370
    15
100
AcDbSpline
210
0.0
220
0.0
230
1.0
 70
     8
 71
     3
 72
     8
 73
     4
 74
     0
 42
0.000000001
 43
0.00000001
 40
0.0
 40
0.0
 40
0.0
 40
0.0
 40
1.0
 40
1.0
 40
1.0
 40
1.0
 10
18.48082878109998
 20
-3.158564299683254
 30
0.0
 10
18.4246045803007
 20
-3.156488610219424
 30
0.0
 10
18.36800485419849
 20
-3.13685449170251
 30
0.0
 10
18.32132567545338
 20
-3.100053218329478
 30
0.0
  0
SPLINE
  5
176
330
1F
100
AcDbEntity
  8
외형선
  6
Continuous
 62
     1
370
    15
100
AcDbSpline
210
0.0
220
0.0
230
1.0
 70
     8
 71
     3
 72
     9
 73
     5
 74
     0
 42
0.000000001
 43
0.00000001
 40
0.0
 40
0.0
 40
0.0
 40
0.0
 40
0.704903581217576
 40
0.9999999999999999
 40
0.9999999999999999
 40
0.9999999999999999
 40
0.9999999999999999
 10
18.48082909018225
 20
-3.158564311093965
 30
0.0
 10
18.68938738446759
 20
-3.165273281353026
 30
0.0
 10
18.98525521638455
 20
-3.174790852887382
 30
0.0
 10
19.28097418951793
 20
-3.173987150248792
 30
0.0
 10
19.36823979945561
 20
-3.173749980478378
 30
0.0
  0
SPLINE
  5
177
330
1F
100
AcDbEntity
  8
외형선
  6
Continuous
 62
     1
370
    15
100
AcDbSpline
210
0.0
220
0.0
230
1.0
 70
     8
 71
     3
 72
     9
 73
     5
 74
     0
 42
0.000000001
 43
0.00000001
 40
0.0
 40
0.0
 40
0.0
 40
0.0
 40
0.5013458963322689
 40
1.0
 40
1.0
 40
1.0
 40
1.0
 10
19.75688515130567
 20
-3.118230941470389
 30
0.0
 10
19.74571890939229
 20
-3.126154545146063
 30
0.0
 10
19.72344637860055
 20
-3.141959209617521
 30
0.0
 10
19.6983430866532
 20
-3.152215775846408
 30
0.0
 10
19.68582522710808
 20
-3.157330254685982
 30
0.0
  0
SPLINE
  5
178
330
1F
100
AcDbEntity
  8
외형선
  6
Continuous
370
    15
100
AcDbSpline
210
0.0
220
0.0
230
1.0
 70
    24
 71
     3
 72
    11
 73
     7
 74
     0
 42
0.000000001
 43
0.00000001
 40
0.0
 40
0.0
 40
0.0
 40
0.0
 40
0.1714757920999538
 40
0.4385198760250635
 40
0.7055639599501734
 40
1.0
 40
1.0
 40
1.0
 40
1.0
 10
9.999999999999982
 20
-1.557455432037159
 30
0.0
 10
9.999999999999982
 20
-1.601568638405875
 30
0.0
 10
9.999999999999982
 20
-1.714380584342834
 30
0.0
 10
9.999999999999982
 20
-1.988896594544487
 30
0.0
 10
9.999999999999982
 20
-2.366315655770974
 30
0.0
 10
9.999999999999982
 20
-2.678722223860634
 30
0.0
 10
9.999999999999982
 20
-2.842545926368013
 30
0.0
  0
SPLINE
  5
179
330
1F
100
AcDbEntity
  8
외형선
  6
Continuous
 62
     1
370
    15
100
AcDbSpline
210
0.0
220
0.0
230
1.0
 70
     8
 71
     3
 72
    12
 73
     8
 74
     0
 42
0.000000001
 43
0.00000001
 40
0.0
 40
0.0
 40
0.0
 40
0.0
 40
0.2499999999999999
 40
0.2499999999999999
 40
0.4999999999999998
 40
0.4999999999999998
 40
1.0
 40
1.0
 40
1.0
 40
1.0
 10
19.06375258858603
 20
1.648370439339101
 30
0.0
 10
19.0454589061073
 20
1.799022334876074
 30
0.0
 10
19.02741025039528
 20
1.940946732605855
 30
0.0
 10
18.99253941420495
 20
2.202179070876956
 30
0.0
 10
18.97546051201487
 20
2.322337729498028
 30
0.0
 10
18.92160620956223
 20
2.65373883878476
 30
0.0
 10
18.88394429312476
 20
2.830238909592917
 30
0.0
 10
18.8477065514257
 20
2.946911956911011
 30
0.0
  0
SPLINE
  5
17A
330
1F
100
AcDbEntity
  8
외형선
  6
Continuous
 62
     1
370
    15
100
AcDbSpline
210
0.0
220
0.0
230
1.0
 70
     8
 71
     3
 72
    12
 73
     8
 74
     0
 42
0.000000001
 43
0.00000001
 40
0.0
 40
0.0
 40
0.0
 40
0.0
 40
0.2499999999999999
 40
0.2499999999999999
 40
0.4999999999999998
 40
0.4999999999999998
 40
1.0
 40
1.0
 40
1.0
 40
1.0
 10
16.40423667304596
 20
-2.99343600542049
 30
0.0
 10
16.38646497763546
 20
-2.934133362322827
 30
0.0
 10
16.36960400771961
 20
-2.861966741912391
 30
0.0
 10
16.33481589829488
 20
-2.690542212385327
 30
0.0
 10
16.31683760962812
 20
-2.590894614615483
 30
0.0
 10
16.26224321996778
 20
-2.25474177720786
 30
0.0
 10
16.22500333597196
 20
-1.980319659102584
 30
0.0
 10
16.18999844655207
 20
-1.679894632855626
 30
0.0
  0
SPLINE
  5
17B
330
1F
100
AcDbEntity
  8
외형선
  6
Continuous
 62
     1
370
    15
100
AcDbSpline
210
0.0
220
0.0
230
1.0
 70
     8
 71
     3
 72
    12
 73
     8
 74
     0
 42
0.000000001
 43
0.00000001
 40
0.0
 40
0.0
 40
0.0
 40
0.0
 40
0.2499999999999999
 40
0.2499999999999999
 40
0.4999999999999999
 40
0.4999999999999999
 40
1.0
 40
1.0
 40
1.0
 40
1.0
 10
17.51914770213544
 20
-3.103971481890865
 30
0.0
 10
17.5009107176284
 20
-3.066237596680241
 30
0.0
 10
17.48284530377805
 20
-3.013659486187561
 30
0.0
 10
17.44779847068263
 20
-2.88215727700701
 30
0.0
 10
17.43105779867969
 20
-2.803884979056293
 30
0.0
 10
17.37811700480842
 20
-2.526952466258607
 30
0.0
 10
17.3408011532743
 20
-2.286616814134628
 30
0.0
 10
17.30456213344446
 20
-2.009420178365933
 30
0.0
  0
SPLINE
  5
17C
330
1F
100
AcDbEntity
  8
외형선
  6
Continuous
 62
     1
370
    15
100
AcDbSpline
210
0.0
220
0.0
230
1.0
 70
     8
 71
     3
 72
    12
 73
     8
 74
     0
 42
0.000000001
 43
0.00000001
 40
0.0
 40
0.0
 40
0.0
 40
0.0
 40
0.2499999999999999
 40
0.2499999999999999
 40
0.4999999999999999
 40
0.4999999999999999
 40
1.0
 40
1.0
 40
1.0
 40
1.0
 10
17.78825571141467
 20
2.056666026161176
 30
0.0
 10
17.77078151268606
 20
2.191498887265308
 30
0.0
 10
17.75398454038036
 20
2.315201212488672
 30
0.0
 10
17.7185401091912
 20
2.544125925564376
 30
0.0
 10
17.70033822558886
 20
2.648102791684893
 30
0.0
 10
17.64543271572488
 20
2.920786349114373
 30
0.0
 10
17.6084818802028
 20
3.048893274335242
 30
0.0
 10
17.57418708591572
 20
3.11625132118875
 30
0.0
  0
SPLINE
  5
17D
330
1F
100
AcDbEntity
  8
외형선
  6
Continuous
 62
     1
370
    15
100
AcDbSpline
210
0.0
220
0.0
230
1.0
 70
     8
 71
     3
 72
    10
 73
     6
 74
     0
 42
0.000000001
 43
0.00000001
 40
0.0
 40
0.0
 40
0.0
 40
0.0
 40
0.5
 40
0.5
 40
1.0
 40
1.0
 40
1.0
 40
1.0
 10
18.90272660778987
 20
1.732193973138223
 30
0.0
 10
18.86652276068325
 20
2.032155782202719
 30
0.0
 10
18.83316397641506
 20
2.292000927826256
 30
0.0
 10
18.76150464549399
 20
2.728761172780818
 30
0.0
 10
18.72410686714386
 20
2.901307727640507
 30
0.0
 10
18.68826112715615
 20
3.013601869054117
 30
0.0
  0
SPLINE
  5
17E
330
1F
100
AcDbEntity
  8
외형선
  6
Continuous
 62
     1
370
    15
100
AcDbSpline
210
0.0
220
0.0
230
1.0
 70
     8
 71
     3
 72
    12
 73
     8
 74
     0
 42
0.000000001
 43
0.00000001
 40
0.0
 40
0.0
 40
0.0
 40
0.0
 40
0.2500000000000001
 40
0.2500000000000001
 40
0.5000000000000001
 40
0.5000000000000001
 40
1.0
 40
1.0
 40
1.0
 40
1.0
 10
17.68020378749906
 20
-3.064815718813264
 30
0.0
 10
17.66180484518488
 20
-3.03105262928431
 30
0.0
 10
17.64353070426444
 20
-2.982364230242231
 30
0.0
 10
17.60799983425635
 20
-2.85822140845468
 30
0.0
 10
17.59114750677077
 20
-2.783600055793072
 30
0.0
 10
17.5381777723894
 20
-2.518228275943023
 30
0.0
 10
17.50065433043888
 20
-2.285221667166129
 30
0.0
 10
17.46406740126816
 20
-2.014187420471835
 30
0.0
  0
SPLINE
  5
17F
330
1F
100
AcDbEntity
  8
외형선
  6
Continuous
 62
     1
370
    15
100
AcDbSpline
210
0.0
220
0.0
230
1.0
 70
     8
 71
     3
 72
    12
 73
     8
 74
     0
 42
0.000000001
 43
0.00000001
 40
0.0
 40
0.0
 40
0.0
 40
0.0
 40
0.2499999999999999
 40
0.2499999999999999
 40
0.4999999999999999
 40
0.4999999999999999
 40
1.0
 40
1.0
 40
1.0
 40
1.0
 10
17.62891583954713
 20
2.059835673637775
 30
0.0
 10
17.61142318508985
 20
2.191279528519554
 30
0.0
 10
17.59437619437585
 20
2.312072972355459
 30
0.0
 10
17.55848002796554
 20
2.534504162433374
 30
0.0
 10
17.54008291677947
 20
2.63494747836385
 30
0.0
 10
17.4847215682481
 20
2.896428051308313
 30
0.0
 10
17.44773357539304
 20
3.016197306774615
 30
0.0
 10
17.41343482538583
 20
3.075656221683381
 30
0.0
  0
SPLINE
  5
180
330
1F
100
AcDbEntity
  8
외형선
  6
Continuous
 62
     1
370
    15
100
AcDbSpline
210
0.0
220
0.0
230
1.0
 70
     8
 71
     3
 72
    10
 73
     6
 74
     0
 42
0.000000001
 43
0.00000001
 40
0.0
 40
0.0
 40
0.0
 40
0.0
 40
0.5
 40
0.5
 40
1.0
 40
1.0
 40
1.0
 40
1.0
 10
18.32132540690385
 20
-3.100052913931532
 30
0.0
 10
18.28447569009981
 20
-3.058285178202156
 30
0.0
 10
18.24756725528285
 20
-2.954681199704404
 30
0.0
 10
18.17906689749483
 20
-2.648521681804115
 30
0.0
 10
18.14200858485825
 20
-2.437875796458026
 30
0.0
 10
18.1051673510683
 20
-2.183828739662112
 30
0.0
  0
SPLINE
  5
181
330
1F
100
AcDbEntity
  8
외형선
  6
Continuous
 62
     1
370
    15
100
AcDbSpline
210
0.0
220
0.0
230
1.0
 70
     8
 71
     3
 72
    12
 73
     8
 74
     0
 42
0.000000001
 43
0.00000001
 40
0.0
 40
0.0
 40
0.0
 40
0.0
 40
0.4999999999999999
 40
0.4999999999999999
 40
0.7499999999999998
 40
0.7499999999999998
 40
1.0
 40
1.0
 40
1.0
 40
1.0
 10
16.98875873651447
 20
2.226650245611942
 30
0.0
 10
16.95409739710583
 20
2.47105483324302
 30
0.0
 10
16.91680759773431
 20
2.678602019827187
 30
0.0
 10
16.86155677566136
 20
2.904219675658806
 30
0.0
 10
16.84326659781842
 20
2.965367728761323
 30
0.0
 10
16.80770952696174
 20
3.057909247530777
 30
0.0
 10
16.79084213381407
 20
3.089335025918007
 30
0.0
 10
16.77316056179162
 20
3.106573419344564
 30
0.0
  0
SPLINE
  5
182
330
1F
100
AcDbEntity
  8
외형선
  6
Continuous
 62
     1
370
    15
100
AcDbSpline
210
0.0
220
0.0
230
1.0
 70
     8
 71
     3
 72
    10
 73
     6
 74
     0
 42
0.000000001
 43
0.00000001
 40
0.0
 40
0.0
 40
0.0
 40
0.0
 40
0.5
 40
0.5
 40
1.0
 40
1.0
 40
1.0
 40
1.0
 10
18.48082871842651
 20
-3.15856423715218
 30
0.0
 10
18.44426254047731
 20
-3.122081112975881
 30
0.0
 10
18.40738612328484
 20
-3.023310356942415
 30
0.0
 10
18.33898332380783
 20
-2.724865631355181
 30
0.0
 10
18.30282137730423
 20
-2.519045841387078
 30
0.0
 10
18.26621736417425
 20
-2.267677988893743
 30
0.0
  0
SPLINE
  5
183
330
1F
100
AcDbEntity
  8
외형선
  6
Continuous
 62
     1
370
    15
100
AcDbSpline
210
0.0
220
0.0
230
1.0
 70
     8
 71
     3
 72
    12
 73
     8
 74
     0
 42
0.000000001
 43
0.00000001
 40
0.0
 40
0.0
 40
0.0
 40
0.0
 40
0.5
 40
0.5
 40
0.75
 40
0.75
 40
1.0
 40
1.0
 40
1.0
 40
1.0
 10
16.82796108849556
 20
2.310343807420963
 30
0.0
 10
16.79324768866145
 20
2.552555348758824
 30
0.0
 10
16.75611411707237
 20
2.756162011369534
 30
0.0
 10
16.70135969643665
 20
2.974700893157312
 30
0.0
 10
16.68327667073091
 20
3.033305218709952
 30
0.0
 10
16.64819060458341
 20
3.120672195671393
 30
0.0
 10
16.63144252669618
 20
3.149602112496896
 30
0.0
 10
16.61379145912692
 20
3.164219871412593
 30
0.0
  0
SPLINE
  5
184
330
1F
100
AcDbEntity
  8
외형선
  6
Continuous
 62
     1
370
    15
100
AcDbSpline
210
0.0
220
0.0
230
1.0
 70
     8
 71
     3
 72
    10
 73
     6
 74
     0
 42
0.000000001
 43
0.00000001
 40
0.0
 40
0.0
 40
0.0
 40
0.0
 40
0.5000000000000001
 40
0.5000000000000001
 40
1.0
 40
1.0
 40
1.0
 40
1.0
 10
19.75688507592067
 20
-3.11823097618131
 30
0.0
 10
19.72095703652582
 20
-3.1347739510575
 30
0.0
 10
19.68328744446769
 20
-3.090126805519556
 30
0.0
 10
19.61083539874522
 20
-2.885054184220976
 30
0.0
 10
19.57729538222995
 20
-2.728899148384343
 30
0.0
 10
19.54092660194951
 20
-2.519874694526944
 30
0.0
  0
SPLINE
  5
185
330
1F
100
AcDbEntity
  8
외형선
  6
Continuous
 62
     1
370
    15
100
AcDbSpline
210
0.0
220
0.0
230
1.0
 70
     8
 71
     3
 72
    12
 73
     8
 74
     0
 42
0.000000001
 43
0.00000001
 40
0.0
 40
0.0
 40
0.0
 40
0.0
 40
0.5000000000000001
 40
0.5000000000000001
 40
0.7500000000000002
 40
0.7500000000000002
 40
1.0
 40
1.0
 40
1.0
 40
1.0
 10
15.55414779966778
 20
2.554521893270093
 30
0.0
 10
15.51769286240102
 20
2.758198806827099
 30
0.0
 10
15.48008805893752
 20
2.913077827658438
 30
0.0
 10
15.42670827441421
 20
3.054477083964954
 30
0.0
 10
15.40984109788619
 20
3.086760071798727
 30
0.0
 10
15.37457854636712
 20
3.123038006489211
 30
0.0
 10
15.3563923974816
 20
3.1265828836485
 30
0.0
 10
15.33802911861921
 20
3.114857417992753
 30
0.0
  0
LINE
  5
186
330
1F
100
AcDbEntity
  8
외형선
  6
Continuous
 62
     1
370
    15
100
AcDbLine
 10
20.51330933605882
 20
-3.155885459839075
 30
0.0
 11
20.50855260617219
 21
-3.157010976288535
 31
0.0
  0
LINE
  5
187
330
1F
100
AcDbEntity
  8
외형선
  6
Continuous
 62
     1
370
    15
100
AcDbLine
 10
14.58694475426148
 20
3.171852173025852
 30
0.0
 11
14.58994143723964
 21
3.173979547958479
 31
0.0
  0
SPLINE
  5
188
330
1F
100
AcDbEntity
  8
외형선
  6
Continuous
 62
     1
370
    15
100
AcDbSpline
210
0.0
220
0.0
230
1.0
 70
     8
 71
     3
 72
     8
 73
     4
 74
     0
 42
0.000000001
 43
0.00000001
 40
0.000000298923855
 40
0.000000298923855
 40
0.000000298923855
 40
0.000000298923855
 40
0.0000193564464021
 40
0.0000193564464021
 40
0.0000193564464021
 40
0.0000193564464021
 10
29.04999999999999
 20
2.019606629395929
 30
0.0
 10
29.04574973082115
 20
2.023271677259181
 30
0.0
 10
29.04149825008339
 20
2.026934632110265
 30
0.0
 10
29.03724557735816
 20
2.030595522500617
 30
0.0
  0
LINE
  5
189
330
1F
100
AcDbEntity
  8
외형선
  6
Continuous
 62
     1
370
    15
100
AcDbLine
 10
29.04999999999999
 20
0.6124588087644214
 30
0.0
 11
29.04999999999999
 21
2.019606629395929
 31
0.0
  0
LINE
  5
18A
330
1F
100
AcDbEntity
  8
외형선
  6
Continuous
 62
     1
370
    15
100
AcDbLine
 10
13.33511399207158
 20
3.103119083596514
 30
0.0
 11
13.33207284498115
 21
3.101241217568387
 31
0.0
  0
LINE
  5
18B
330
1F
100
AcDbEntity
  8
외형선
  6
Continuous
 62
     1
370
    15
100
AcDbLine
 10
22.33580478362101
 20
-3.102742962128911
 30
0.0
 11
22.33229044707261
 21
-3.100301133543477
 31
0.0
  0
LINE
  5
18C
330
1F
100
AcDbEntity
  8
외형선
  6
Continuous
 62
     1
370
    15
100
AcDbLine
 10
12.76794549421499
 20
3.097983942506077
 30
0.0
 11
12.76509000841716
 21
3.100327772967242
 31
0.0
  0
LINE
  5
18D
330
1F
100
AcDbEntity
  8
외형선
  6
Continuous
 62
     1
370
    15
100
AcDbLine
 10
29.04999999999999
 20
2.074999999999996
 30
0.0
 11
29.04999999999999
 21
2.019606629395929
 31
0.0
  0
LINE
  5
18E
330
1F
100
AcDbEntity
  8
외형선
  6
Continuous
 62
     1
370
    15
100
AcDbLine
 10
29.04999999999999
 20
-1.422247913250307
 30
0.0
 11
29.04999999999999
 21
-1.856130954124575
 31
0.0
  0
LINE
  5
18F
330
1F
100
AcDbEntity
  8
외형선
  6
Continuous
 62
     1
370
    15
100
AcDbLine
 10
24.52619289250237
 20
-3.169683639378834
 30
0.0
 11
24.51354844765174
 21
-3.169420147420522
 31
0.0
  0
LINE
  5
190
330
1F
100
AcDbEntity
  8
외형선
  6
Continuous
 62
     1
370
    15
100
AcDbLine
 10
10.57253160978718
 20
3.160254857174052
 30
0.0
 11
10.58761451475094
 21
3.166574948719996
 31
0.0
  0
SPLINE
  5
191
330
1F
100
AcDbEntity
  8
외형선
  6
Continuous
 62
     1
370
    15
100
AcDbSpline
210
0.0
220
0.0
230
1.0
 70
     8
 71
     3
 72
    11
 73
     7
 74
     0
 42
0.000000001
 43
0.00000001
 40
0.0
 40
0.0
 40
0.0
 40
0.0
 40
0.2892690467108245
 40
0.6171691077078949
 40
0.9420049738571102
 40
1.0
 40
1.0
 40
1.0
 40
1.0
 10
19.58751270330011
 20
-3.167258858813525
 30
0.0
 10
19.56737126855547
 20
-3.159691992490898
 30
0.0
 10
19.52439857081733
 20
-3.14354772752518
 30
0.0
 10
19.45906786181161
 20
-2.944924965567464
 30
0.0
 10
19.41193895006418
 20
-2.711619143776461
 30
0.0
 10
19.38545368950407
 20
-2.556134964547645
 30
0.0
 10
19.38144143916192
 20
-2.532580676686517
 30
0.0
  0
SPLINE
  5
192
330
1F
100
AcDbEntity
  8
외형선
  6
Continuous
 62
     1
370
    15
100
AcDbSpline
210
0.0
220
0.0
230
1.0
 70
     8
 71
     3
 72
    10
 73
     6
 74
     0
 42
0.000000001
 43
0.00000001
 40
0.0
 40
0.0
 40
0.0
 40
0.0
 40
0.3629015865483085
 40
0.7221380146371602
 40
1.0
 40
1.0
 40
1.0
 40
1.0
 10
15.71362563912678
 20
2.568633504604694
 30
0.0
 10
15.68896017102687
 20
2.696639738669681
 30
0.0
 10
15.63987834602526
 20
2.951359395886069
 30
0.0
 10
15.57403764883403
 20
3.147070903674289
 30
0.0
 10
15.53179235552886
 20
3.157821445896411
 30
0.0
 10
15.51336763366147
 20
3.162510151663832
 30
0.0
  0
SPLINE
  5
193
330
1F
100
AcDbEntity
  8
외형선
  6
Continuous
 62
     1
370
    15
100
AcDbSpline
210
0.0
220
0.0
230
1.0
 70
     8
 71
     3
 72
    10
 73
     6
 74
     0
 42
0.000000001
 43
0.00000001
 40
0.0
 40
0.0
 40
0.0
 40
0.0
 40
0.0630081117531952
 40
0.5348965130518303
 40
1.0
 40
1.0
 40
1.0
 40
1.0
 10
20.33471249435706
 20
-3.10337387199641
 30
0.0
 10
20.33148187975608
 20
-3.103950986281234
 30
0.0
 10
20.30405613349897
 20
-3.108850298607782
 30
0.0
 10
20.25151646207114
 20
-2.973136202763728
 30
0.0
 10
20.20485434956377
 20
-2.755981998513389
 30
0.0
 10
20.181692237375
 20
-2.648191121271894
 30
0.0
  0
SPLINE
  5
194
330
1F
100
AcDbEntity
  8
외형선
  6
Continuous
 62
     1
370
    15
100
AcDbSpline
210
0.0
220
0.0
230
1.0
 70
     8
 71
     3
 72
    10
 73
     6
 74
     0
 42
0.000000001
 43
0.00000001
 40
0.0
 40
0.0
 40
0.0
 40
0.0
 40
0.3911505256751051
 40
0.7775084549687431
 40
1.0
 40
1.0
 40
1.0
 40
1.0
 10
14.91302924948847
 20
2.679631707101575
 30
0.0
 10
14.89319201731293
 20
2.768040500191336
 30
0.0
 10
14.85376060989493
 20
2.943774852081139
 30
0.0
 10
14.80492732036801
 20
3.076459674279973
 30
0.0
 10
14.7750397741568
 20
3.097758386355086
 30
0.0
 10
14.76411798377322
 20
3.105541563571461
 30
0.0
  0
SPLINE
  5
195
330
1F
100
AcDbEntity
  8
외형선
  6
Continuous
 62
     1
370
    15
100
AcDbSpline
210
0.0
220
0.0
230
1.0
 70
     8
 71
     3
 72
    10
 73
     6
 74
     0
 42
0.000000001
 43
0.00000001
 40
0.0
 40
0.0
 40
0.0
 40
0.0
 40
0.1408809338336212
 40
0.5736351705835112
 40
1.0
 40
1.0
 40
1.0
 40
1.0
 10
20.50855260617219
 20
-3.157010976288535
 30
0.0
 10
20.50075772575663
 20
-3.160655829397583
 30
0.0
 10
20.46901874280712
 20
-3.175496843565118
 30
0.0
 10
20.41196067389628
 20
-3.045665536865833
 30
0.0
 10
20.36558845659274
 20
-2.833135963076944
 30
0.0
 10
20.34257478677802
 20
-2.727661484575603
 30
0.0
  0
SPLINE
  5
196
330
1F
100
AcDbEntity
  8
외형선
  6
Continuous
 62
     1
370
    15
100
AcDbSpline
210
0.0
220
0.0
230
1.0
 70
     8
 71
     3
 72
     9
 73
     5
 74
     0
 42
0.000000001
 43
0.00000001
 40
0.0
 40
0.0
 40
0.0
 40
0.0
 40
0.2855659177538162
 40
1.0
 40
1.0
 40
1.0
 40
1.0
 10
21.58700669865937
 20
-3.14265365412723
 30
0.0
 10
21.5746288695557
 20
-3.151285574604188
 30
0.0
 10
21.53128395920703
 20
-3.181512993005009
 30
0.0
 10
21.48751347644272
 20
-3.024590137972373
 30
0.0
 10
21.45624235175953
 20
-2.912479102053683
 30
0.0
  0
SPLINE
  5
197
330
1F
100
AcDbEntity
  8
외형선
  6
Continuous
 62
     1
370
    15
100
AcDbSpline
210
0.0
220
0.0
230
1.0
 70
     8
 71
     3
 72
    11
 73
     7
 74
     0
 42
0.000000001
 43
0.00000001
 40
0.0
 40
0.0
 40
0.0
 40
0.0
 40
0.0066134969844
 40
0.3377423313229334
 40
0.6688711656614665
 40
1.0
 40
1.0
 40
1.0
 40
1.0
 10
14.58994143723964
 20
3.173979547958479
 30
0.0
 10
14.5902986408702
 20
3.174238518718697
 30
0.0
 10
14.60854054635968
 20
3.187463804600984
 30
0.0
 10
14.64466715370807
 20
3.130163599942965
 30
0.0
 10
14.6983212592848
 20
3.002324406730731
 30
0.0
 10
14.73409066300262
 20
2.839854503970639
 30
0.0
 10
14.75197536486153
 20
2.758619552590594
 30
0.0
  0
SPLINE
  5
198
330
1F
100
AcDbEntity
  8
외형선
  6
Continuous
 62
     1
370
    15
100
AcDbSpline
210
0.0
220
0.0
230
1.0
 70
     8
 71
     3
 72
     9
 73
     5
 74
     0
 42
0.000000001
 43
0.00000001
 40
0.0
 40
0.0
 40
0.0
 40
0.0
 40
0.5526864356512567
 40
1.0
 40
1.0
 40
1.0
 40
1.0
 10
13.63677523400889
 20
2.936317065709273
 30
0.0
 10
13.61405294410095
 20
3.013531459329212
 30
0.0
 10
13.57294050051228
 20
3.15323887503402
 30
0.0
 10
13.53175176523371
 20
3.158105583965982
 30
0.0
 10
13.51332748524523
 20
3.160282528884986
 30
0.0
  0
SPLINE
  5
199
330
1F
100
AcDbEntity
  8
외형선
  6
Continuous
 62
     1
370
    15
100
AcDbSpline
210
0.0
220
0.0
230
1.0
 70
     8
 71
     3
 72
    10
 73
     6
 74
     0
 42
0.000000001
 43
0.00000001
 40
0.0
 40
0.0
 40
0.0
 40
0.0
 40
0.2007353415357933
 40
0.6016114085036414
 40
1.0
 40
1.0
 40
1.0
 40
1.0
 10
21.7675902246661
 20
-3.09748813935324
 30
0.0
 10
21.75761130537923
 20
-3.10802066714934
 30
0.0
 10
21.72770410696769
 20
-3.139587051195297
 30
0.0
 10
21.67577902932278
 20
-3.076905555685874
 30
0.0
 10
21.63560602124701
 20
-2.947535777407687
 30
0.0
 10
21.61558203052756
 20
-2.883052200904408
 30
0.0
  0
SPLINE
  5
19A
330
1F
100
AcDbEntity
  8
외형선
  6
Continuous
 62
     1
370
    15
100
AcDbSpline
210
0.0
220
0.0
230
1.0
 70
     8
 71
     3
 72
    10
 73
     6
 74
     0
 42
0.000000001
 43
0.00000001
 40
0.0
 40
0.0
 40
0.0
 40
0.0
 40
0.4444897265765793
 40
0.7970075633437348
 40
1.0
 40
1.0
 40
1.0
 40
1.0
 10
13.47727359171019
 20
2.905653473734902
 30
0.0
 10
13.45618328507759
 20
2.969640851616553
 30
0.0
 10
13.41836658675054
 20
3.084375616181292
 30
0.0
 10
13.37187791120292
 20
3.134068155732915
 30
0.0
 10
13.34495284620662
 20
3.111401753495688
 30
0.0
 10
13.33511399207158
 20
3.103119083596514
 30
0.0
  0
SPLINE
  5
19B
330
1F
100
AcDbEntity
  8
외형선
  6
Continuous
 62
     1
370
    15
100
AcDbSpline
210
0.0
220
0.0
230
1.0
 70
     8
 71
     3
 72
     9
 73
     5
 74
     0
 42
0.000000001
 43
0.00000001
 40
0.0
 40
0.0
 40
0.0
 40
0.0
 40
0.300680523622939
 40
1.0
 40
1.0
 40
1.0
 40
1.0
 10
22.33229044707261
 20
-3.100301133543478
 30
0.0
 10
22.32464063330116
 20
-3.096804099304864
 30
0.0
 10
22.29919896624779
 20
-3.085173701045352
 30
0.0
 10
22.27385153304794
 20
-3.013276027401032
 30
0.0
 10
22.25612557933511
 20
-2.962996583915357
 30
0.0
  0
SPLINE
  5
19C
330
1F
100
AcDbEntity
  8
외형선
  6
Continuous
 62
     1
370
    15
100
AcDbSpline
210
0.0
220
0.0
230
1.0
 70
     8
 71
     3
 72
     9
 73
     5
 74
     0
 42
0.000000001
 43
0.00000001
 40
0.0
 40
0.0
 40
0.0
 40
0.0
 40
0.578969622573239
 40
1.0
 40
1.0
 40
1.0
 40
1.0
 10
12.83635825436777
 20
2.98168416183811
 30
0.0
 10
12.8232189929369
 20
3.018321299310096
 30
0.0
 10
12.80052477735359
 20
3.081601195255501
 30
0.0
 10
12.77759825610807
 20
3.093129975717072
 30
0.0
 10
12.76794549421499
 20
3.097983942506077
 30
0.0
  0
SPLINE
  5
19D
330
1F
100
AcDbEntity
  8
외형선
  6
Continuous
 62
     1
370
    15
100
AcDbSpline
210
0.0
220
0.0
230
1.0
 70
     8
 71
     3
 72
     9
 73
     5
 74
     0
 42
0.000000001
 43
0.00000001
 40
0.0
 40
0.0
 40
0.0
 40
0.0
 40
0.4697713946399407
 40
0.9999999999999999
 40
0.9999999999999999
 40
0.9999999999999999
 40
0.9999999999999999
 10
22.51349395143596
 20
-3.170966150283488
 30
0.0
 10
22.49839372075966
 20
-3.167308152101862
 30
0.0
 10
22.4662499358281
 20
-3.159521389809897
 30
0.0
 10
22.43411526001613
 20
-3.077279575423841
 30
0.0
 10
22.41707653567664
 20
-3.033672612879641
 30
0.0
  0
LINE
  5
19E
330
1F
100
AcDbEntity
  8
외형선
  6
Continuous
 62
     1
370
    15
100
AcDbLine
 10
23.58755554681672
 20
-3.174304762876414
 30
0.0
 11
23.53220424862646
 21
-3.128413825928564
 31
0.0
  0
SPLINE
  5
19F
330
1F
100
AcDbEntity
  8
외형선
  6
Continuous
 62
     1
370
    15
100
AcDbSpline
210
0.0
220
0.0
230
1.0
 70
     8
 71
     3
 72
     9
 73
     5
 74
     0
 42
0.000000001
 43
0.00000001
 40
0.0
 40
0.0
 40
0.0
 40
0.0
 40
0.3974529916386712
 40
0.9999999999999999
 40
0.9999999999999999
 40
0.9999999999999999
 40
0.9999999999999999
 10
12.58656252321264
 20
3.164904679864879
 30
0.0
 10
12.59833732780911
 20
3.165593867831344
 30
0.0
 10
12.62796298126794
 20
3.167327879100509
 30
0.0
 10
12.65758863472678
 20
3.095022403617921
 30
0.0
 10
12.67543948358915
 20
3.051454955677745
 30
0.0
  0
LINE
  5
1A0
330
1F
100
AcDbEntity
  8
외형선
  6
Continuous
 62
     1
370
    15
100
AcDbLine
 10
11.56171670196499
 20
3.138257120487746
 30
0.0
 11
11.51330894891954
 21
3.157586236450175
 31
0.0
  0
SPLINE
  5
1A1
330
1F
100
AcDbEntity
  8
외형선
  6
Continuous
 62
     1
370
    15
100
AcDbSpline
210
0.0
220
0.0
230
1.0
 70
     8
 71
     3
 72
     9
 73
     5
 74
     0
 42
0.000000001
 43
0.00000001
 40
0.0
 40
0.0
 40
0.0
 40
0.0
 40
0.2544933845814541
 40
1.0
 40
1.0
 40
1.0
 40
1.0
 10
23.76310669778078
 20
-3.105161046133177
 30
0.0
 10
23.75718053396916
 20
-3.111841242528843
 30
0.0
 10
23.73389441271546
 20
-3.138090240736215
 30
0.0
 10
23.70973267420032
 20
-3.107094079721777
 30
0.0
 10
23.69171993829727
 20
-3.083986236632934
 30
0.0
  0
LINE
  5
1A2
330
1F
100
AcDbEntity
  8
외형선
  6
Continuous
 62
     1
370
    15
100
AcDbLine
 10
11.4024042354841
 20
3.09271910303693
 30
0.0
 11
11.33801110736006
 21
3.107266325139033
 31
0.0
  0
LINE
  5
1A3
330
1F
100
AcDbEntity
  8
외형선
  6
Continuous
 62
     1
370
    15
100
AcDbLine
 10
24.51354844765174
 20
-3.169420147420522
 30
0.0
 11
24.49386614340249
 21
-3.169009996642691
 31
0.0
  0
LINE
  5
1A4
330
1F
100
AcDbEntity
  8
외형선
  6
Continuous
 62
     1
370
    15
100
AcDbLine
 10
10.58761451475094
 20
3.166574948719996
 30
0.0
 11
10.60100690440163
 21
3.172186674631856
 31
0.0
  0
LINE
  5
1A5
330
1F
100
AcDbEntity
  8
중심선
100
AcDbLine
 10
-37.45000000000001
 20
-0.0000000000000046
 30
0.0
 11
32.05
 21
0.0000000000000039
 31
0.0
  0
LINE
  5
1A6
330
1F
100
AcDbEntity
  8
참조1
100
AcDbLine
 10
-2.700000000000006
 20
-0.3168705809327337
 30
0.0
 11
-2.7
 21
-40.31687058093273
 31
0.0
  0
LINE
  5
1A7
330
1F
100
AcDbEntity
  8
참조1
100
AcDbLine
 10
-19.72860765519648
 20
-3.174999999999991
 30
0.0
 11
48.41397268839599
 21
-3.174999999999991
 31
0.0
  0
LINE
  5
1A8
330
1F
100
AcDbEntity
  8
참조1
100
AcDbLine
 10
48.41397268839599
 20
-3.174999999999991
 30
0.0
 11
48.41397268839599
 21
-6.927248606176843
 31
0.0
  0
LINE
  5
1A9
330
1F
100
AcDbEntity
  8
참조1
100
AcDbLine
 10
-2.7
 20
-40.31687058093273
 30
0.0
 11
-24.19604980726571
 21
-40.31687058093273
 31
0.0
  0
CIRCLE
  5
1AA
330
1F
100
AcDbEntity
  8
해칭선
100
AcDbCircle
 10
0.0
 20
0.0
 30
0.0
 40
3.000000000000005
  0
INSERT
  5
1AB
330
1F
100
AcDbEntity
  8
0
  6
Continuous
 62
     7
100
AcDbBlockReference
 66
     1
  2
블럭10
 10
-16.64027293212521
 20
-52.36404488257666
 30
0.0
  0
ATTRIB
  5
1AC
330
1AB
100
AcDbEntity
  8
FORMAT
 62
     2
100
AcDbText
 10
-26.78190894426184
 20
-50.28867796974446
 30
0.0
 40
4.233333333333333
  1
EM156016 [ 3 FLUTE ]
 41
0.75
  7
SLDTEXTSTYLE0
 11
-26.78190894426184
 21
-52.40534463641113
 31
0.0
100
AcDbAttribute
  2
AUTOATTR0
 70
     0
 74
     1
  0
SEQEND
  5
1AD
330
1AB
100
AcDbEntity
  8
0
  6
Continuous
 62
     7
  0
HATCH
  5
1AE
330
1F
100
AcDbEntity
  8
중심선
100
AcDbHatch
 10
0.0
 20
0.0
 30
0.0
210
0.0
220
0.0
230
1.0
  2
SOLID
 70
     1
 71
     0
 91
        1
 92
        0
 93
        4
 72
     1
 10
-10.92536362774436
 20
-36.11687058093273
 11
-14.37163887158164
 21
-36.11687058093273
 72
     1
 10
-14.37163887158164
 20
-36.11687058093273
 11
-16.49986873078566
 21
-38.65319616150532
 72
     1
 10
-16.49986873078566
 20
-38.65319616150532
 11
-13.05356040183521
 21
-38.65315673220283
 72
     1
 10
-13.05356040183521
 20
-38.65315673220283
 11
-10.92536362774436
 21
-36.11687058093273
 97
        0
 75
     0
 76
     1
 98
        1
 10
-0.0000000000000124
 20
-0.3168705809327302
  0
HATCH
  5
1AF
330
1F
100
AcDbEntity
  8
중심선
100
AcDbHatch
 10
0.0
 20
0.0
 30
0.0
210
0.0
220
0.0
230
1.0
  2
SOLID
 70
     1
 71
     0
 91
        1
 92
        0
 93
        4
 72
     1
 10
-5.912599636708411
 20
-36.11687058093275
 11
-9.358874880545665
 21
-36.11687058093275
 72
     1
 10
-9.358874880545665
 20
-36.11687058093275
 11
-13.89001288890308
 21
-41.51687058093275
 72
     1
 10
-13.89001288890308
 20
-41.51687058093275
 11
-10.4437376450658
 21
-41.51687058093275
 72
     1
 10
-10.4437376450658
 20
-41.51687058093275
 11
-5.912599636708411
 21
-36.11687058093275
 97
        0
 75
     0
 76
     1
 98
        1
 10
-0.0000000000000124
 20
-0.3168705809327302
  0
HATCH
  5
1B0
330
1F
100
AcDbEntity
  8
중심선
100
AcDbHatch
 10
0.0
 20
0.0
 30
0.0
210
0.0
220
0.0
230
1.0
  2
SOLID
 70
     1
 71
     0
 91
        1
 92
        0
 93
        4
 72
     1
 10
-0.8998356456725156
 20
-36.11687058093273
 11
-4.346110889509659
 21
-36.11687058093273
 72
     1
 10
-4.346110889509659
 20
-36.11687058093273
 11
-11.39454779139888
 21
-44.51687058093275
 72
     1
 10
-11.39454779139888
 20
-44.51687058093275
 11
-7.948272547561598
 21
-44.51687058093275
 72
     1
 10
-7.948272547561598
 20
-44.51687058093275
 11
-0.8998356456725158
 21
-36.11687058093273
 97
        0
 75
     0
 76
     1
 98
        1
 10
-0.0000000000000124
 20
-0.3168705809327302
  0
HATCH
  5
1B1
330
1F
100
AcDbEntity
  8
중심선
100
AcDbHatch
 10
0.0
 20
0.0
 30
0.0
210
0.0
220
0.0
230
1.0
  2
SOLID
 70
     1
 71
     0
 91
        1
 92
        0
 93
        6
 72
     3
 10
3.900054785339684
 20
-40.316870580984
 11
3.960054785062283
 21
1.540882976769353E-10
 40
0.3939339440162628
 50
17.09539180608437
 51
320.0019657685075
 73
     0
 72
     1
 10
5.583054441040279
 20
-38.904764585571
 11
7.888356314741345
 21
-36.97043787552308
 72
     3
 10
3.900054785286837
 20
-40.31687058093288
 11
6.600054785286829
 21
-1.278976924368180E-13
 40
0.636358354079598
 50
39.99873849337413
 51
368.4976242363725
 73
     1
 72
     1
 10
10.32538727718745
 20
-39.35687058086275
 11
2.580122092122759
 21
-39.35687058086275
 72
     1
 10
2.580122092122759
 20
-39.35687058086275
 11
2.580097047676825
 21
-41.27687058086264
 72
     1
 10
2.580097047676825
 20
-41.27687058086264
 11
7.021476817148862
 21
-41.27687058086261
 97
        0
 75
     0
 76
     1
 98
        1
 10
-0.0000000000000124
 20
-0.3168705809327302
  0
POINT
  5
1B2
330
1F
100
AcDbEntity
  8
치수문자_일반주서
100
AcDbPoint
 10
-0.000000000000002
 20
-0.3168705809327337
 30
0.0
  0
DIMENSION
  5
1B3
330
1F
100
AcDbEntity
  8
치수문자_일반주서
100
AcDbDimension
  2
_D
 10
43.30010597126574
 20
-3.174999999999915
 30
0.0
 11
43.30010597126566
 21
23.12275000000015
 31
0.0
 70
   160
  1
%%c<>
 71
     2
 42
6.350000000000072
 52
-270.0
  3
SLDDIMSTYLE0
100
AcDbAlignedDimension
 13
6.98009592551889
 23
3.175000000000024
 33
0.0
 14
21.0501580173591
 24
-3.174999999999999
 34
0.0
 50
90.0000000000002
100
AcDbRotatedDimension
1001
ACAD
1000
DSTYLE
1002
{
1070
   273
1070
     7
1002
}
  0
DIMENSION
  5
1C7
330
1F
100
AcDbEntity
  8
치수문자_일반주서
100
AcDbDimension
  2
_D_1
 10
-44.45000000000005
 20
-3.17500000000005
 30
0.0
 11
-44.45000000000006
 21
-0.5086721738103244
 31
0.0
 70
   160
  1
%%c<>
 71
     2
 42
6.349999999999994
 52
-270.0
  3
SLDDIMSTYLE0
100
AcDbAlignedDimension
 13
-33.64000000000003
 23
3.174999999999984
 33
0.0
 14
-33.64000000000003
 24
-3.17500000000001
 34
0.0
 50
90.0000000000002
100
AcDbRotatedDimension
1001
ACAD
1000
DSTYLE
1002
{
1070
   273
1070
     7
1002
}
  0
DIMENSION
  5
1DB
330
1F
100
AcDbEntity
  8
치수문자_일반주서
100
AcDbDimension
  2
_D_2
 10
9.999999999999982
 20
19.34732179202408
 30
0.0
 11
19.52499999999998
 21
19.34732179202408
 31
0.0
 70
   160
  1
<>
 71
     2
 42
19.05000000000001
  3
SLDDIMSTYLE1
100
AcDbAlignedDimension
 13
29.04999999999999
 23
2.019606629395929
 33
0.0
 14
9.999999999999982
 24
3.173870332732279
 34
0.0
 50
0.0000000000000107
100
AcDbRotatedDimension
1001
ACAD
1000
DSTYLE
1002
{
1070
   273
1070
     7
1002
}
  0
DIMENSION
  5
1F0
330
1F
100
AcDbEntity
  8
치수문자_일반주서
100
AcDbDimension
  2
_D_3
 10
-34.45000000000002
 20
36.01698679301992
 30
0.0
 11
0.0762867256974967
 21
36.01698679301992
 31
0.0
 70
   160
  1
<>
 71
     2
 42
63.50000000000001
  3
SLDDIMSTYLE2
100
AcDbAlignedDimension
 13
29.04999999999999
 23
2.019606629395929
 33
0.0
 14
-34.45000000000002
 24
2.364999999999996
 34
0.0
100
AcDbRotatedDimension
1001
ACAD
1000
DSTYLE
1002
{
1070
   273
1070
     7
1002
}
  0
LINE
  5
204
330
1F
100
AcDbEntity
  8
참조1
100
AcDbLine
 10
73.77629082238856
 20
7.123129419067272
 30
0.0
 11
73.77629082238856
 21
-7.756870580932732
 31
0.0
  0
LINE
  5
205
330
1F
100
AcDbEntity
  8
참조1
100
AcDbLine
 10
86.47629082238856
 20
5.123129419067272
 30
0.0
 11
73.77629082238856
 21
5.123129419067272
 31
0.0
  0
SOLID
  5
206
330
1F
100
AcDbEntity
  8
참조1
100
AcDbTrace
 10
73.77629082238856
 20
5.123129419067272
 30
0.0
 11
80.12629082238855
 21
4.107129419067272
 31
0.0
 12
80.12629082238855
 22
6.139129419067272
 32
0.0
 13
80.12629082238855
 23
6.139129419067272
 33
0.0
  0
LINE
  5
207
330
1F
100
AcDbEntity
  8
참조1
100
AcDbLine
 10
86.47629082238856
 20
-5.756870580932732
 30
0.0
 11
73.77629082238856
 21
-5.756870580932732
 31
0.0
  0
SOLID
  5
208
330
1F
100
AcDbEntity
  8
참조1
100
AcDbTrace
 10
73.77629082238856
 20
-5.756870580932732
 30
0.0
 11
80.12629082238855
 21
-6.772870580932732
 31
0.0
 12
80.12629082238855
 22
-4.740870580932732
 32
0.0
 13
80.12629082238855
 23
-4.740870580932732
 33
0.0
  0
MTEXT
  5
209
330
1F
100
AcDbEntity
  8
참조1
100
AcDbMText
 10
83.37640563295112
 20
10.74884698508335
 30
0.0
 40
3.5
 41
0.0
 71
     1
 72
     1
  1
A
  7
SLDTEXTSTYLE0
 73
     1
 44
1.0
  0
MTEXT
  5
20A
330
1F
100
AcDbEntity
  8
참조1
100
AcDbMText
 10
83.37640563295112
 20
-0.1311530149166567
 30
0.0
 40
3.5
 41
0.0
 71
     1
 72
     1
  1
A
  7
SLDTEXTSTYLE0
 73
     1
 44
1.0
  0
INSERT
  5
211
330
1F
100
AcDbEntity
  8
해칭선
100
AcDbBlockReference
  2
SW_DOWELSYMBOL_0
 10
0.0
 20
0.0
 30
0.0
  0
ENDSEC
  0
SECTION
  2
OBJECTS
  0
DICTIONARY
  5
C
330
0
100
AcDbDictionary
281
     1
  3
ACAD_GROUP
350
D
  3
ACAD_IMAGE_VARS
350
235
  3
ACAD_LAYOUT
350
1A
  3
ACAD_MLINESTYLE
350
17
  3
ACAD_PLOTSETTINGS
350
19
  3
ACAD_PLOTSTYLENAME
350
E
  3
ACAD_SCALELIST
350
47
  3
APPDATA
350
233
  3
DWGPROPS
350
238
  0
DICTIONARY
  5
D
102
{ACAD_REACTORS
330
C
102
}
330
C
100
AcDbDictionary
281
     1
  0
RASTERVARIABLES
  5
235
102
{ACAD_REACTORS
330
C
102
}
330
C
100
AcDbRasterVariables
 90
        0
 70
     1
 71
     1
 72
     1
  0
DICTIONARY
  5
1A
102
{ACAD_REACTORS
330
C
102
}
330
C
100
AcDbDictionary
281
     1
  3
Layout1
350
1E
  3
Layout2
350
26
  3
Model
350
22
  0
DICTIONARY
  5
17
102
{ACAD_REACTORS
330
C
102
}
330
C
100
AcDbDictionary
281
     1
  3
Standard
350
18
  0
DICTIONARY
  5
19
102
{ACAD_REACTORS
330
C
102
}
330
C
100
AcDbDictionary
281
     1
  0
ACDBDICTIONARYWDFLT
  5
E
102
{ACAD_REACTORS
330
C
102
}
330
C
100
AcDbDictionary
281
     1
  3
Normal
350
F
100
AcDbDictionaryWithDefault
340
F
  0
DICTIONARY
  5
47
102
{ACAD_REACTORS
330
C
102
}
330
C
100
AcDbDictionary
281
     1
  3
A0
350
48
  3
A1
350
49
  3
A2
350
4A
  3
A3
350
4B
  3
A4
350
4C
  3
A5
350
4D
  3
A6
350
4E
  3
A7
350
4F
  3
A8
350
50
  3
A9
350
51
  3
B0
350
52
  3
B1
350
53
  3
B2
350
54
  3
B3
350
55
  3
B4
350
56
  3
B5
350
57
  3
B6
350
58
  3
B7
350
59
  3
B8
350
5A
  3
B9
350
5B
  3
C0
350
5C
  3
C1
350
5D
  3
C2
350
5E
  3
C3
350
5F
  3
C4
350
60
  3
C5
350
61
  3
C6
350
62
  3
C7
350
63
  3
C8
350
64
  3
C9
350
65
  3
D0
350
66
  3
D1
350
67
  3
D2
350
68
  0
DICTIONARY
  5
233
102
{ACAD_REACTORS
330
C
102
}
330
C
100
AcDbDictionary
281
     1
  0
XRECORD
  5
238
102
{ACAD_REACTORS
330
C
102
}
330
C
100
AcDbXrecord
280
     1
  1
DWGPROPS COOKIE
  2

  3

  4

  6

  7

  8
12016016
  9

300
=
301
=
302
=
303
=
304
=
305
=
306
=
307
=
308
=
309
=
 40
0.0
 41
2458298.975637789
 42
2458302.344764815
  1

 90
        0
  0
LAYOUT
  5
1E
102
{ACAD_REACTORS
330
1A
102
}
330
1A
100
AcDbPlotSettings
  1

  2
none_device
  4

  6

 40
0.0
 41
0.0
 42
0.0
 43
0.0
 44
0.0
 45
0.0
 46
0.0
 47
0.0
 48
0.0
 49
0.0
140
0.0
141
0.0
142
1.0
143
1.0
 70
   688
 72
     1
 73
     0
 74
     5
  7

 75
    16
147
1.0
148
0.0
149
0.0
100
AcDbLayout
  1
Layout1
 70
     1
 71
     1
 10
0.0
 20
0.0
 11
420.0
 21
297.0
 12
0.0
 22
0.0
 32
0.0
 14
1.000000000000000E+20
 24
1.000000000000000E+20
 34
1.000000000000000E+20
 15
-1.000000000000000E+20
 25
-1.000000000000000E+20
 35
-1.000000000000000E+20
146
0.0
 13
0.0
 23
0.0
 33
0.0
 16
1.0
 26
0.0
 36
0.0
 17
0.0
 27
1.0
 37
0.0
 76
     0
330
1B
  0
LAYOUT
  5
26
102
{ACAD_REACTORS
330
1A
102
}
330
1A
100
AcDbPlotSettings
  1

  2
none_device
  4

  6

 40
0.0
 41
0.0
 42
0.0
 43
0.0
 44
0.0
 45
0.0
 46
0.0
 47
0.0
 48
0.0
 49
0.0
140
0.0
141
0.0
142
1.0
143
1.0
 70
   688
 72
     1
 73
     0
 74
     5
  7

 75
    16
147
1.0
148
0.0
149
0.0
100
AcDbLayout
  1
Layout2
 70
     1
 71
     2
 10
0.0
 20
0.0
 11
0.0
 21
0.0
 12
0.0
 22
0.0
 32
0.0
 14
0.0
 24
0.0
 34
0.0
 15
0.0
 25
0.0
 35
0.0
146
0.0
 13
0.0
 23
0.0
 33
0.0
 16
1.0
 26
0.0
 36
0.0
 17
0.0
 27
1.0
 37
0.0
 76
     0
330
23
  0
LAYOUT
  5
22
102
{ACAD_REACTORS
330
1A
102
}
330
1A
100
AcDbPlotSettings
  1

  2
none_device
  4
ANSI_A_(11.00_x_8.50_Inches)
  6

 40
6.35
 41
19.05
 42
6.35000508
 43
19.05000254
 44
279.4
 45
215.9
 46
102.8694767071461
 47
92.40251829376466
 48
0.0
 49
0.0
140
0.0
141
0.0
142
0.0768421082690618
143
1.0
 70
  1696
 72
     0
 73
     0
 74
     0
  7

 75
     0
147
0.0235690232323232
148
0.0
149
0.0
100
AcDbLayout
  1
Model
 70
     1
 71
     0
 10
0.0
 20
0.0
 11
420.0
 21
297.0
 12
0.0
 22
0.0
 32
0.0
 14
-48.8250000000001
 24
-50.28867796974447
 34
0.0
 15
86.47629082238856
 25
40.39198679301992
 35
0.0
146
0.0
 13
0.0
 23
0.0
 33
0.0
 16
1.0
 26
0.0
 36
0.0
 17
0.0
 27
1.0
 37
0.0
 76
     0
330
1F
331
29
  0
MLINESTYLE
  5
18
102
{ACAD_REACTORS
330
17
102
}
330
17
100
AcDbMlineStyle
  2
Standard
 70
     0
  3

 62
   256
 51
90.0
 52
90.0
 71
     2
 49
0.5
 62
   256
  6
BYLAYER
 49
-0.5
 62
   256
  6
BYLAYER
  0
ACDBPLACEHOLDER
  5
F
102
{ACAD_REACTORS
330
E
102
}
330
E
  0
SCALE
  5
48
102
{ACAD_REACTORS
330
47
102
}
330
47
100
AcDbScale
 70
     0
300
1:1
140
1.0
141
1.0
290
     1
  0
SCALE
  5
49
102
{ACAD_REACTORS
330
47
102
}
330
47
100
AcDbScale
 70
     0
300
1:2
140
1.0
141
2.0
290
     0
  0
SCALE
  5
4A
102
{ACAD_REACTORS
330
47
102
}
330
47
100
AcDbScale
 70
     0
300
1:4
140
1.0
141
4.0
290
     0
  0
SCALE
  5
4B
102
{ACAD_REACTORS
330
47
102
}
330
47
100
AcDbScale
 70
     0
300
1:5
140
1.0
141
5.0
290
     0
  0
SCALE
  5
4C
102
{ACAD_REACTORS
330
47
102
}
330
47
100
AcDbScale
 70
     0
300
1:8
140
1.0
141
8.0
290
     0
  0
SCALE
  5
4D
102
{ACAD_REACTORS
330
47
102
}
330
47
100
AcDbScale
 70
     0
300
1:10
140
1.0
141
10.0
290
     0
  0
SCALE
  5
4E
102
{ACAD_REACTORS
330
47
102
}
330
47
100
AcDbScale
 70
     0
300
1:16
140
1.0
141
16.0
290
     0
  0
SCALE
  5
4F
102
{ACAD_REACTORS
330
47
102
}
330
47
100
AcDbScale
 70
     0
300
1:20
140
1.0
141
20.0
290
     0
  0
SCALE
  5
50
102
{ACAD_REACTORS
330
47
102
}
330
47
100
AcDbScale
 70
     0
300
1:30
140
1.0
141
30.0
290
     0
  0
SCALE
  5
51
102
{ACAD_REACTORS
330
47
102
}
330
47
100
AcDbScale
 70
     0
300
1:40
140
1.0
141
40.0
290
     0
  0
SCALE
  5
52
102
{ACAD_REACTORS
330
47
102
}
330
47
100
AcDbScale
 70
     0
300
1:50
140
1.0
141
50.0
290
     0
  0
SCALE
  5
53
102
{ACAD_REACTORS
330
47
102
}
330
47
100
AcDbScale
 70
     0
300
1:100
140
1.0
141
100.0
290
     0
  0
SCALE
  5
54
102
{ACAD_REACTORS
330
47
102
}
330
47
100
AcDbScale
 70
     0
300
2:1
140
2.0
141
1.0
290
     0
  0
SCALE
  5
55
102
{ACAD_REACTORS
330
47
102
}
330
47
100
AcDbScale
 70
     0
300
4:1
140
4.0
141
1.0
290
     0
  0
SCALE
  5
56
102
{ACAD_REACTORS
330
47
102
}
330
47
100
AcDbScale
 70
     0
300
8:1
140
8.0
141
1.0
290
     0
  0
SCALE
  5
57
102
{ACAD_REACTORS
330
47
102
}
330
47
100
AcDbScale
 70
     0
300
10:1
140
10.0
141
1.0
290
     0
  0
SCALE
  5
58
102
{ACAD_REACTORS
330
47
102
}
330
47
100
AcDbScale
 70
     0
300
100:1
140
100.0
141
1.0
290
     0
  0
SCALE
  5
59
102
{ACAD_REACTORS
330
47
102
}
330
47
100
AcDbScale
 70
     0
300
1/128" = 1'-0"
140
0.0078125
141
12.0
290
     0
  0
SCALE
  5
5A
102
{ACAD_REACTORS
330
47
102
}
330
47
100
AcDbScale
 70
     0
300
1/64" = 1'-0"
140
0.015625
141
12.0
290
     0
  0
SCALE
  5
5B
102
{ACAD_REACTORS
330
47
102
}
330
47
100
AcDbScale
 70
     0
300
1/32" = 1'-0"
140
0.03125
141
12.0
290
     0
  0
SCALE
  5
5C
102
{ACAD_REACTORS
330
47
102
}
330
47
100
AcDbScale
 70
     0
300
1/16" = 1'-0"
140
0.0625
141
12.0
290
     0
  0
SCALE
  5
5D
102
{ACAD_REACTORS
330
47
102
}
330
47
100
AcDbScale
 70
     0
300
3/32" = 1'-0"
140
0.09375
141
12.0
290
     0
  0
SCALE
  5
5E
102
{ACAD_REACTORS
330
47
102
}
330
47
100
AcDbScale
 70
     0
300
1/8" = 1'-0"
140
0.125
141
12.0
290
     0
  0
SCALE
  5
5F
102
{ACAD_REACTORS
330
47
102
}
330
47
100
AcDbScale
 70
     0
300
3/16" = 1'-0"
140
0.1875
141
12.0
290
     0
  0
SCALE
  5
60
102
{ACAD_REACTORS
330
47
102
}
330
47
100
AcDbScale
 70
     0
300
1/4" = 1'-0"
140
0.25
141
12.0
290
     0
  0
SCALE
  5
61
102
{ACAD_REACTORS
330
47
102
}
330
47
100
AcDbScale
 70
     0
300
3/8" = 1'-0"
140
0.375
141
12.0
290
     0
  0
SCALE
  5
62
102
{ACAD_REACTORS
330
47
102
}
330
47
100
AcDbScale
 70
     0
300
1/2" = 1'-0"
140
0.5
141
12.0
290
     0
  0
SCALE
  5
63
102
{ACAD_REACTORS
330
47
102
}
330
47
100
AcDbScale
 70
     0
300
3/4" = 1'-0"
140
0.75
141
12.0
290
     0
  0
SCALE
  5
64
102
{ACAD_REACTORS
330
47
102
}
330
47
100
AcDbScale
 70
     0
300
1" = 1'-0"
140
1.0
141
12.0
290
     0
  0
SCALE
  5
65
102
{ACAD_REACTORS
330
47
102
}
330
47
100
AcDbScale
 70
     0
300
1-1/2" = 1'-0"
140
1.5
141
12.0
290
     0
  0
SCALE
  5
66
102
{ACAD_REACTORS
330
47
102
}
330
47
100
AcDbScale
 70
     0
300
3" = 1'-0"
140
3.0
141
12.0
290
     0
  0
SCALE
  5
67
102
{ACAD_REACTORS
330
47
102
}
330
47
100
AcDbScale
 70
     0
300
6" = 1'-0"
140
6.0
141
12.0
290
     0
  0
SCALE
  5
68
102
{ACAD_REACTORS
330
47
102
}
330
47
100
AcDbScale
 70
     0
300
1'-0" = 1'-0"
140
12.0
141
12.0
290
     0
  0
ENDSEC
  0
EOF
