  0
SECTION
  2
HEADER
  9
$ACADVER
  1
AC1015
  9
$ACADMAINTVER
 70
     6
  9
$DWGCODEPAGE
  3
ANSI_949
  9
$INSBASE
 10
0.0
 20
0.0
 30
0.0
  9
$EXTMIN
 10
1.000000000000000E+20
 20
1.000000000000000E+20
 30
1.000000000000000E+20
  9
$EXTMAX
 10
-1.000000000000000E+20
 20
-1.000000000000000E+20
 30
-1.000000000000000E+20
  9
$LIMMIN
 10
0.0
 20
0.0
  9
$LIMMAX
 10
420.0
 20
297.0
  9
$ORTHOMODE
 70
     0
  9
$REGENMODE
 70
     1
  9
$FILLMODE
 70
     1
  9
$QTEXTMODE
 70
     0
  9
$MIRRTEXT
 70
     1
  9
$LTSCALE
 40
1.0
  9
$ATTMODE
 70
     1
  9
$TEXTSIZE
 40
3.5
  9
$TRACEWID
 40
1.0
  9
$TEXTSTYLE
  7
Standard
  9
$CLAYER
  8
0
  9
$CELTYPE
  6
ByLayer
  9
$CECOLOR
 62
   256
  9
$CELTSCALE
 40
1.0
  9
$DISPSILH
 70
     0
  9
$DIMSCALE
 40
1.0
  9
$DIMASZ
 40
3.302
  9
$DIMEXO
 40
1.0
  9
$DIMDLI
 40
3.75
  9
$DIMRND
 40
0.0
  9
$DIMDLE
 40
0.0
  9
$DIMEXE
 40
1.0
  9
$DIMTP
 40
0.0
  9
$DIMTM
 40
0.0
  9
$DIMTXT
 40
3.5
  9
$DIMCEN
 40
2.5
  9
$DIMTSZ
 40
0.0
  9
$DIMTOL
 70
     0
  9
$DIMLIM
 70
     0
  9
$DIMTIH
 70
     1
  9
$DIMTOH
 70
     1
  9
$DIMSE1
 70
     0
  9
$DIMSE2
 70
     0
  9
$DIMTAD
 70
     1
  9
$DIMZIN
 70
     0
  9
$DIMBLK
  1

  9
$DIMASO
 70
     1
  9
$DIMSHO
 70
     1
  9
$DIMPOST
  1

  9
$DIMAPOST
  1

  9
$DIMALT
 70
     0
  9
$DIMALTD
 70
     3
  9
$DIMALTF
 40
0.0393700787401575
  9
$DIMLFAC
 40
1.0
  9
$DIMTOFL
 70
     1
  9
$DIMTVP
 40
0.0
  9
$DIMTIX
 70
     0
  9
$DIMSOXD
 70
     0
  9
$DIMSAH
 70
     0
  9
$DIMBLK1
  1

  9
$DIMBLK2
  1

  9
$DIMSTYLE
  2
ISO-25
  9
$DIMCLRD
 70
     0
  9
$DIMCLRE
 70
     0
  9
$DIMCLRT
 70
     0
  9
$DIMTFAC
 40
1.0
  9
$DIMGAP
 40
1.524
  9
$DIMJUST
 70
     0
  9
$DIMSD1
 70
     0
  9
$DIMSD2
 70
     0
  9
$DIMTOLJ
 70
     0
  9
$DIMTZIN
 70
     0
  9
$DIMALTZ
 70
     0
  9
$DIMALTTZ
 70
     0
  9
$DIMUPT
 70
     0
  9
$DIMDEC
 70
     2
  9
$DIMTDEC
 70
     2
  9
$DIMALTU
 70
     2
  9
$DIMALTTD
 70
     3
  9
$DIMTXSTY
  7
Standard
  9
$DIMAUNIT
 70
     0
  9
$DIMADEC
 70
     2
  9
$DIMALTRND
 40
0.0
  9
$DIMAZIN
 70
     0
  9
$DIMDSEP
 70
    44
  9
$DIMATFIT
 70
     3
  9
$DIMFRAC
 70
     0
  9
$DIMLDRBLK
  1

  9
$DIMLUNIT
 70
     2
  9
$DIMLWD
 70
    -2
  9
$DIMLWE
 70
    -2
  9
$DIMTMOVE
 70
     0
  9
$LUNITS
 70
     2
  9
$LUPREC
 70
     2
  9
$SKETCHINC
 40
1.0
  9
$FILLETRAD
 40
10.0
  9
$AUNITS
 70
     0
  9
$AUPREC
 70
     2
  9
$MENU
  1
.
  9
$ELEVATION
 40
0.0
  9
$PELEVATION
 40
0.0
  9
$THICKNESS
 40
0.0
  9
$LIMCHECK
 70
     0
  9
$CHAMFERA
 40
0.0
  9
$CHAMFERB
 40
0.0
  9
$CHAMFERC
 40
0.0
  9
$CHAMFERD
 40
0.0
  9
$SKPOLY
 70
     0
  9
$TDCREATE
 40
2458304.447020614
  9
$TDUCREATE
 40
2458304.072020614
  9
$TDUPDATE
 40
2458304.575390741
  9
$TDUUPDATE
 40
2458304.200390741
  9
$TDINDWG
 40
0.0007020949
  9
$TDUSRTIMER
 40
2458304.199688808
  9
$USRTIMER
 70
     1
  9
$ANGBASE
 50
0.0
  9
$ANGDIR
 70
     0
  9
$PDMODE
 70
     0
  9
$PDSIZE
 40
-1.0
  9
$PLINEWID
 40
0.0
  9
$SPLFRAME
 70
     0
  9
$SPLINETYPE
 70
     6
  9
$SPLINESEGS
 70
     8
  9
$HANDSEED
  5
2C3
  9
$SURFTAB1
 70
     6
  9
$SURFTAB2
 70
     6
  9
$SURFTYPE
 70
     6
  9
$SURFU
 70
     6
  9
$SURFV
 70
     6
  9
$UCSBASE
  2

  9
$UCSNAME
  2

  9
$UCSORG
 10
0.0
 20
0.0
 30
0.0
  9
$UCSXDIR
 10
1.0
 20
0.0
 30
0.0
  9
$UCSYDIR
 10
0.0
 20
1.0
 30
0.0
  9
$UCSORTHOREF
  2

  9
$UCSORTHOVIEW
 70
     0
  9
$UCSORGTOP
 10
0.0
 20
0.0
 30
0.0
  9
$UCSORGBOTTOM
 10
0.0
 20
0.0
 30
0.0
  9
$UCSORGLEFT
 10
0.0
 20
0.0
 30
0.0
  9
$UCSORGRIGHT
 10
0.0
 20
0.0
 30
0.0
  9
$UCSORGFRONT
 10
0.0
 20
0.0
 30
0.0
  9
$UCSORGBACK
 10
0.0
 20
0.0
 30
0.0
  9
$PUCSBASE
  2

  9
$PUCSNAME
  2

  9
$PUCSORG
 10
0.0
 20
0.0
 30
0.0
  9
$PUCSXDIR
 10
1.0
 20
0.0
 30
0.0
  9
$PUCSYDIR
 10
0.0
 20
1.0
 30
0.0
  9
$PUCSORTHOREF
  2

  9
$PUCSORTHOVIEW
 70
     0
  9
$PUCSORGTOP
 10
0.0
 20
0.0
 30
0.0
  9
$PUCSORGBOTTOM
 10
0.0
 20
0.0
 30
0.0
  9
$PUCSORGLEFT
 10
0.0
 20
0.0
 30
0.0
  9
$PUCSORGRIGHT
 10
0.0
 20
0.0
 30
0.0
  9
$PUCSORGFRONT
 10
0.0
 20
0.0
 30
0.0
  9
$PUCSORGBACK
 10
0.0
 20
0.0
 30
0.0
  9
$USERI1
 70
     0
  9
$USERI2
 70
     0
  9
$USERI3
 70
     0
  9
$USERI4
 70
     0
  9
$USERI5
 70
     0
  9
$USERR1
 40
0.0
  9
$USERR2
 40
0.0
  9
$USERR3
 40
0.0
  9
$USERR4
 40
0.0
  9
$USERR5
 40
0.0
  9
$WORLDVIEW
 70
     1
  9
$SHADEDGE
 70
     3
  9
$SHADEDIF
 70
    70
  9
$TILEMODE
 70
     1
  9
$MAXACTVP
 70
    64
  9
$PINSBASE
 10
0.0
 20
0.0
 30
0.0
  9
$PLIMCHECK
 70
     0
  9
$PEXTMIN
 10
1.000000000000000E+20
 20
1.000000000000000E+20
 30
1.000000000000000E+20
  9
$PEXTMAX
 10
-1.000000000000000E+20
 20
-1.000000000000000E+20
 30
-1.000000000000000E+20
  9
$PLIMMIN
 10
0.0
 20
0.0
  9
$PLIMMAX
 10
0.0
 20
0.0
  9
$UNITMODE
 70
     0
  9
$VISRETAIN
 70
     1
  9
$PLINEGEN
 70
     0
  9
$PSLTSCALE
 70
     1
  9
$TREEDEPTH
 70
  3020
  9
$CMLSTYLE
  2
Standard
  9
$CMLJUST
 70
     0
  9
$CMLSCALE
 40
20.0
  9
$PROXYGRAPHICS
 70
     1
  9
$MEASUREMENT
 70
     1
  9
$CELWEIGHT
370
    -1
  9
$ENDCAPS
280
     0
  9
$JOINSTYLE
280
     0
  9
$LWDISPLAY
290
     1
  9
$INSUNITS
 70
     4
  9
$HYPERLINKBASE
  1

  9
$STYLESHEET
  1

  9
$XEDIT
290
     1
  9
$CEPSNTYPE
380
     0
  9
$PSTYLEMODE
290
     1
  9
$FINGERPRINTGUID
  2
{98CF49E5-EC5B-4927-8E8C-2F874BFC0275}
  9
$VERSIONGUID
  2
{FAEB1C32-E019-11D5-929B-00C0DF256EC4}
  9
$EXTNAMES
290
     1
  9
$PSVPSCALE
 40
0.0
  9
$OLESTARTUP
290
     0
  0
ENDSEC
  0
SECTION
  2
CLASSES
  0
CLASS
  1
ACDBDICTIONARYWDFLT
  2
AcDbDictionaryWithDefault
  3
ObjectDBX Classes
 90
        0
280
     0
281
     0
  0
CLASS
  1
VISUALSTYLE
  2
AcDbVisualStyle
  3
ObjectDBX Classes
 90
     4095
280
     0
281
     0
  0
CLASS
  1
MATERIAL
  2
AcDbMaterial
  3
ObjectDBX Classes
 90
     1153
280
     0
281
     0
  0
CLASS
  1
SCALE
  2
AcDbScale
  3
ObjectDBX Classes
 90
     1153
280
     0
281
     0
  0
CLASS
  1
SUN
  2
AcDbSun
  3
SCENEOE
 90
     1153
280
     0
281
     0
  0
CLASS
  1
ACDBPLACEHOLDER
  2
AcDbPlaceHolder
  3
ObjectDBX Classes
 90
        0
280
     0
281
     0
  0
CLASS
  1
LAYOUT
  2
AcDbLayout
  3
ObjectDBX Classes
 90
        0
280
     0
281
     0
  0
CLASS
  1
TABLESTYLE
  2
AcDbTableStyle
  3
ObjectDBX Classes
 90
     4095
280
     0
281
     0
  0
CLASS
  1
MLEADERSTYLE
  2
AcDbMLeaderStyle
  3
ACDB_MLEADERSTYLE_CLASS
 90
     4095
280
     0
281
     0
  0
CLASS
  1
RASTERVARIABLES
  2
AcDbRasterVariables
  3
ISM
 90
        0
280
     0
281
     0
  0
CLASS
  1
DIMASSOC
  2
AcDbDimAssoc
  3
"AcDbDimAssoc|Product Desc:     AcDim ARX App For Dimension|Company:          Autodesk, Inc.|WEB Address:      www.autodesk.com"
 90
        0
280
     0
281
     0
  0
ENDSEC
  0
SECTION
  2
TABLES
  0
TABLE
  2
VPORT
  5
8
330
0
100
AcDbSymbolTable
 70
     1
  0
VPORT
  5
29
330
8
100
AcDbSymbolTableRecord
100
AcDbViewportTableRecord
  2
*Active
 70
     0
 10
0.0
 20
0.0
 11
1.0
 21
1.0
 12
39.61812878304139
 22
-11.37269382315715
 13
0.0
 23
0.0
 14
10.0
 24
10.0
 15
10.0
 25
10.0
 16
0.0
 26
0.0
 36
1.0
 17
0.0
 27
0.0
 37
0.0
 40
103.7583409991528
 41
1.547388781431335
 42
50.0
 43
0.0
 44
0.0
 50
0.0
 51
0.0
 71
    16
 72
  2000
 73
     1
 74
     3
 75
     0
 76
     0
 77
     0
 78
     0
281
     0
 65
     1
110
0.0
120
0.0
130
0.0
111
1.0
121
0.0
131
0.0
112
0.0
122
1.0
132
0.0
 79
     0
146
0.0
  0
ENDTAB
  0
TABLE
  2
LTYPE
  5
5
330
0
100
AcDbSymbolTable
 70
     6
  0
LTYPE
  5
14
330
5
100
AcDbSymbolTableRecord
100
AcDbLinetypeTableRecord
  2
ByBlock
 70
     0
  3

 72
    65
 73
     0
 40
0.0
  0
LTYPE
  5
15
330
5
100
AcDbSymbolTableRecord
100
AcDbLinetypeTableRecord
  2
ByLayer
 70
     0
  3

 72
    65
 73
     0
 40
0.0
  0
LTYPE
  5
16
330
5
100
AcDbSymbolTableRecord
100
AcDbLinetypeTableRecord
  2
Continuous
 70
     0
  3
Solid line
 72
    65
 73
     0
 40
0.0
  0
LTYPE
  5
6A
330
5
100
AcDbSymbolTableRecord
100
AcDbLinetypeTableRecord
  2
HIDDEN
 70
     0
  3
Hidden __ __ __ __ __ __ __ __ __ __ __ __ __ __
 72
    65
 73
     2
 40
1.905
 49
1.27
 74
     0
 49
-0.635
 74
     0
  0
LTYPE
  5
6B
330
5
100
AcDbSymbolTableRecord
100
AcDbLinetypeTableRecord
  2
PHANTOM
 70
     0
  3
Phantom ______  __  __  ______  __  __  ______
 72
    65
 73
     6
 40
12.7
 49
6.35
 74
     0
 49
-1.27
 74
     0
 49
1.27
 74
     0
 49
-1.27
 74
     0
 49
1.27
 74
     0
 49
-1.27
 74
     0
  0
LTYPE
  5
6C
330
5
100
AcDbSymbolTableRecord
100
AcDbLinetypeTableRecord
  2
CENTER
 70
     0
  3
Center ____ _ ____ _ ____ _ ____ _ ____ _ ____
 72
    65
 73
     4
 40
10.16
 49
6.35
 74
     0
 49
-1.27
 74
     0
 49
1.27
 74
     0
 49
-1.27
 74
     0
  0
LTYPE
  5
6D
330
5
100
AcDbSymbolTableRecord
100
AcDbLinetypeTableRecord
  2
CENTERX2
 70
     0
  3
Center (2x) ________  __  ________  __  _____
 72
    65
 73
     4
 40
20.32
 49
12.7
 74
     0
 49
-2.54
 74
     0
 49
2.54
 74
     0
 49
-2.54
 74
     0
  0
LTYPE
  5
6E
330
5
100
AcDbSymbolTableRecord
100
AcDbLinetypeTableRecord
  2
DOT2
 70
     0
  3
Dot (.5x) ........................................
 72
    65
 73
     2
 40
0.635
 49
0.0
 74
     0
 49
-0.635
 74
     0
  0
ENDTAB
  0
TABLE
  2
LAYER
  5
2
330
0
100
AcDbSymbolTable
 70
    18
  0
LAYER
  5
10
330
2
100
AcDbSymbolTableRecord
100
AcDbLayerTableRecord
  2
0
 70
     0
 62
     7
  6
Continuous
370
    -3
390
F
  0
LAYER
  5
6F
330
2
100
AcDbSymbolTableRecord
100
AcDbLayerTableRecord
  2
FORMAT
 70
     0
 62
     2
  6
Continuous
370
    -3
390
F
  0
LAYER
  5
70
330
2
100
AcDbSymbolTableRecord
100
AcDbLayerTableRecord
  2
외형선
 70
     0
 62
     4
  6
Continuous
370
    30
390
F
  0
LAYER
  5
71
330
2
100
AcDbSymbolTableRecord
100
AcDbLayerTableRecord
  2
숨은선
 70
     0
 62
     2
  6
HIDDEN
370
    15
390
F
  0
LAYER
  5
72
330
2
100
AcDbSymbolTableRecord
100
AcDbLayerTableRecord
  2
중심선
 70
     0
 62
     1
  6
CENTERX2
370
    -3
390
F
  0
LAYER
  5
73
330
2
100
AcDbSymbolTableRecord
100
AcDbLayerTableRecord
  2
파단선
 70
     0
 62
     4
  6
Continuous
370
    -3
390
F
  0
LAYER
  5
74
330
2
100
AcDbSymbolTableRecord
100
AcDbLayerTableRecord
  2
해칭선
 70
     0
 62
   100
  6
Continuous
370
    -3
390
F
  0
LAYER
  5
75
330
2
100
AcDbSymbolTableRecord
100
AcDbLayerTableRecord
  2
가는실선
 70
     0
 62
     4
  6
Continuous
370
    -3
390
F
  0
LAYER
  5
76
330
2
100
AcDbSymbolTableRecord
100
AcDbLayerTableRecord
  2
치수_보조선
 70
     0
 62
     4
  6
Continuous
370
    -3
390
F
  0
LAYER
  5
77
330
2
100
AcDbSymbolTableRecord
100
AcDbLayerTableRecord
  2
치수문자_일반주서
 70
     0
 62
     7
  6
Continuous
370
    15
390
F
  0
LAYER
  5
78
330
2
100
AcDbSymbolTableRecord
100
AcDbLayerTableRecord
  2
개별주서
 70
     0
 62
   100
  6
Continuous
370
    30
390
F
  0
LAYER
  5
79
330
2
100
AcDbSymbolTableRecord
100
AcDbLayerTableRecord
  2
중간선
 70
     0
 62
     2
  6
Continuous
370
    15
390
F
  0
LAYER
  5
7A
330
2
100
AcDbSymbolTableRecord
100
AcDbLayerTableRecord
  2
윤곽선
 70
     0
 62
     3
  6
Continuous
370
    40
390
F
  0
LAYER
  5
7B
330
2
100
AcDbSymbolTableRecord
100
AcDbLayerTableRecord
  2
중심마크
 70
     0
 62
   100
  6
Continuous
370
    30
390
F
  0
LAYER
  5
7C
330
2
100
AcDbSymbolTableRecord
100
AcDbLayerTableRecord
  2
가상선
 70
     0
 62
     4
  6
PHANTOM
370
    -3
390
F
  0
LAYER
  5
7D
330
2
100
AcDbSymbolTableRecord
100
AcDbLayerTableRecord
  2
특수지정선
 70
     0
 62
     5
  6
CENTERX2
370
    60
390
F
  0
LAYER
  5
7E
330
2
100
AcDbSymbolTableRecord
100
AcDbLayerTableRecord
  2
참조1
 70
     0
 62
    -4
  6
Continuous
370
    -3
390
F
  0
LAYER
  5
157
330
2
100
AcDbSymbolTableRecord
100
AcDbLayerTableRecord
  2
Defpoints
 70
     0
 62
     7
  6
Continuous
290
     0
370
    -3
390
F
  0
ENDTAB
  0
TABLE
  2
STYLE
  5
3
330
0
100
AcDbSymbolTable
 70
     2
  0
STYLE
  5
11
330
3
100
AcDbSymbolTableRecord
100
AcDbTextStyleTableRecord
  2
Standard
 70
     0
 40
0.0
 41
1.0
 50
0.0
 71
     0
 42
3.5
  3
txt
  4

  0
STYLE
  5
94
330
3
100
AcDbSymbolTableRecord
100
AcDbTextStyleTableRecord
  2
SLDTEXTSTYLE0
 70
     0
 40
0.0
 41
0.75
 50
0.0
 71
     0
 42
3.5
  3
TXT
  4

  0
ENDTAB
  0
TABLE
  2
VIEW
  5
6
330
0
100
AcDbSymbolTable
 70
     0
  0
ENDTAB
  0
TABLE
  2
UCS
  5
7
330
0
100
AcDbSymbolTable
 70
     0
  0
ENDTAB
  0
TABLE
  2
APPID
  5
9
330
0
100
AcDbSymbolTable
 70
     2
  0
APPID
  5
12
330
9
100
AcDbSymbolTableRecord
100
AcDbRegAppTableRecord
  2
ACAD
 70
     0
  0
APPID
  5
164
330
9
100
AcDbSymbolTableRecord
100
AcDbRegAppTableRecord
  2
ACAD_DSTYLE_DIMRADIAL_EXTENSION
 70
     0
  0
ENDTAB
  0
TABLE
  2
DIMSTYLE
  5
A
330
0
100
AcDbSymbolTable
 70
     3
100
AcDbDimStyleTable
  0
DIMSTYLE
105
27
330
A
100
AcDbSymbolTableRecord
100
AcDbDimStyleTableRecord
  2
ISO-25
 70
     0
 41
2.5
 42
0.625
 43
3.75
 44
1.25
 73
     0
 74
     0
 77
     1
 78
     8
140
2.5
141
2.5
143
0.03937007874016
147
0.625
171
     3
172
     1
178
     0
271
     2
272
     2
274
     3
278
    44
283
     0
284
     8
340
11
  0
DIMSTYLE
105
D4
102
{ACAD_REACTORS
330
1B5
330
1C2
330
1DC
330
1F6
330
26A
330
26B
330
26D
330
2B5
102
}
330
A
100
AcDbSymbolTableRecord
100
AcDbDimStyleTableRecord
  2
SLDDIMSTYLE0
 70
     0
 41
3.302
 44
0.0
 45
0.000000001
 73
     0
 74
     0
 77
     1
 78
    12
 79
     3
140
3.5
143
0.0393700787401575
147
0.875
148
0.000000001
170
     1
172
     1
173
     1
178
     0
271
     2
272
     2
276
     2
284
    12
289
     0
340
94
  0
DIMSTYLE
105
112
102
{ACAD_REACTORS
330
1CF
330
26C
102
}
330
A
100
AcDbSymbolTableRecord
100
AcDbDimStyleTableRecord
  2
SLDDIMSTYLE1
 70
     0
 41
3.302
 44
0.0
 45
0.000000001
 73
     0
 74
     0
 77
     1
 78
     4
 79
     1
140
3.5
143
0.0393700787401575
147
0.875
148
0.000000001
170
     1
173
     1
178
     0
271
     2
272
     2
276
     2
284
    12
340
94
  0
ENDTAB
  0
TABLE
  2
BLOCK_RECORD
  5
1
330
0
100
AcDbSymbolTable
 70
    19
  0
BLOCK_RECORD
  5
1F
330
1
100
AcDbSymbolTableRecord
100
AcDbBlockTableRecord
  2
*Model_Space
340
22
  0
BLOCK_RECORD
  5
1B
330
1
100
AcDbSymbolTableRecord
100
AcDbBlockTableRecord
  2
*Paper_Space
340
1E
  0
BLOCK_RECORD
  5
23
330
1
100
AcDbSymbolTableRecord
100
AcDbBlockTableRecord
  2
*Paper_Space0
340
26
  0
BLOCK_RECORD
  5
7F
330
1
100
AcDbSymbolTableRecord
100
AcDbBlockTableRecord
  2
블럭10
340
0
102
{BLKREFS
331
CC
102
}
  0
BLOCK_RECORD
  5
D5
330
1
100
AcDbSymbolTableRecord
100
AcDbBlockTableRecord
  2
_D
340
0
  0
BLOCK_RECORD
  5
E9
330
1
100
AcDbSymbolTableRecord
100
AcDbBlockTableRecord
  2
_D_1
340
0
  0
BLOCK_RECORD
  5
FD
330
1
100
AcDbSymbolTableRecord
100
AcDbBlockTableRecord
  2
_D_2
340
0
  0
BLOCK_RECORD
  5
113
330
1
100
AcDbSymbolTableRecord
100
AcDbBlockTableRecord
  2
_D_3
340
0
  0
BLOCK_RECORD
  5
12C
330
1
100
AcDbSymbolTableRecord
100
AcDbBlockTableRecord
  2
SW_DOWELSYMBOL_0
340
0
102
{BLKREFS
331
0
331
1EC
331
26E
102
}
  0
BLOCK_RECORD
  5
1F9
330
1
100
AcDbSymbolTableRecord
100
AcDbBlockTableRecord
  2
*D8
340
0
  0
BLOCK_RECORD
  5
204
330
1
100
AcDbSymbolTableRecord
100
AcDbBlockTableRecord
  2
*D9
340
0
  0
BLOCK_RECORD
  5
210
330
1
100
AcDbSymbolTableRecord
100
AcDbBlockTableRecord
  2
*D10
340
0
  0
BLOCK_RECORD
  5
21C
330
1
100
AcDbSymbolTableRecord
100
AcDbBlockTableRecord
  2
*D11
340
0
  0
BLOCK_RECORD
  5
228
330
1
100
AcDbSymbolTableRecord
100
AcDbBlockTableRecord
  2
*D12
340
0
  0
BLOCK_RECORD
  5
275
330
1
100
AcDbSymbolTableRecord
100
AcDbBlockTableRecord
  2
*D13
340
0
  0
BLOCK_RECORD
  5
281
330
1
100
AcDbSymbolTableRecord
100
AcDbBlockTableRecord
  2
*D14
340
0
  0
BLOCK_RECORD
  5
28D
330
1
100
AcDbSymbolTableRecord
100
AcDbBlockTableRecord
  2
*D15
340
0
  0
BLOCK_RECORD
  5
299
330
1
100
AcDbSymbolTableRecord
100
AcDbBlockTableRecord
  2
*D16
340
0
  0
BLOCK_RECORD
  5
2A8
330
1
100
AcDbSymbolTableRecord
100
AcDbBlockTableRecord
  2
*D17
340
0
  0
BLOCK_RECORD
  5
2B8
330
1
100
AcDbSymbolTableRecord
100
AcDbBlockTableRecord
  2
*D18
340
0
  0
ENDTAB
  0
ENDSEC
  0
SECTION
  2
BLOCKS
  0
BLOCK
  5
20
330
1F
100
AcDbEntity
  8
0
100
AcDbBlockBegin
  2
*Model_Space
 70
     0
 10
0.0
 20
0.0
 30
0.0
  3
*Model_Space
  1
*Model_Space
  0
ENDBLK
  5
21
330
1F
100
AcDbEntity
  8
0
100
AcDbBlockEnd
  0
BLOCK
  5
1C
330
1B
100
AcDbEntity
 67
     1
  8
0
100
AcDbBlockBegin
  2
*Paper_Space
 70
     0
 10
0.0
 20
0.0
 30
0.0
  3
*Paper_Space
  1
*Paper_Space
  0
ENDBLK
  5
1D
330
1B
100
AcDbEntity
 67
     1
  8
0
100
AcDbBlockEnd
  0
BLOCK
  5
24
330
23
100
AcDbEntity
  8
0
100
AcDbBlockBegin
  2
*Paper_Space0
 70
     0
 10
0.0
 20
0.0
 30
0.0
  3
*Paper_Space0
  1
*Paper_Space0
  0
ENDBLK
  5
25
330
23
100
AcDbEntity
  8
0
100
AcDbBlockEnd
  0
BLOCK
  5
80
330
7F
100
AcDbEntity
  8
0
100
AcDbBlockBegin
  2
블럭10
 70
     2
 10
0.0
 20
0.0
 30
0.0
  3
블럭10
  1
블럭10
  0
ELLIPSE
  5
82
330
7F
100
AcDbEntity
  8
중심선
100
AcDbEllipse
 10
20.54032771741204
 20
12.0471743016438
 30
0.0
 11
6.600054785286829
 21
-1.261213355974178E-13
 31
0.0
210
0.0
220
0.0
230
1.0
 40
0.636358354079598
 41
0.9219305317359503
 42
6.513795318482858
  0
ELLIPSE
  5
83
330
7F
100
AcDbEntity
  8
중심선
100
AcDbEllipse
 10
20.54032771746488
 20
12.04717430159265
 30
0.0
 11
3.960054785062283
 21
1.540847449632565E-10
 31
0.0
210
0.0
220
0.0
230
1.0
 40
0.3939339440162632
 41
1.131841032648279
 42
5.62031148352944
  0
LINE
  5
84
330
7F
100
AcDbEntity
  8
중심선
100
AcDbLine
 10
2.268634060543552
 20
16.24717430164393
 30
0.0
 11
5.714909304380834
 21
16.24717430164393
 31
0.0
  0
LINE
  5
85
330
7F
100
AcDbEntity
  8
중심선
100
AcDbLine
 10
5.245725140726316
 20
7.84717430164391
 30
0.0
 11
8.692000384563599
 21
7.84717430164391
 31
0.0
  0
LINE
  5
86
330
7F
100
AcDbEntity
  8
중심선
100
AcDbLine
 10
15.74043728645272
 20
16.24717430164393
 30
0.0
 11
8.692000384563599
 21
7.84717430164391
 31
0.0
  0
LINE
  5
87
330
7F
100
AcDbEntity
  8
중심선
100
AcDbLine
 10
0.1404042013395286
 20
13.71084872107135
 30
0.0
 11
3.58671253028996
 21
13.71088815037384
 31
0.0
  0
LINE
  5
88
330
7F
100
AcDbEntity
  8
중심선
100
AcDbLine
 10
2.750260043222114
 20
10.84717430164391
 30
0.0
 11
6.196535287059397
 21
10.84717430164391
 31
0.0
  0
LINE
  5
89
330
7F
100
AcDbEntity
  8
중심선
100
AcDbLine
 10
12.29416204261559
 20
16.24717430164393
 30
0.0
 11
5.245725140726316
 21
7.84717430164391
 31
0.0
  0
LINE
  5
8A
330
7F
100
AcDbEntity
  8
중심선
100
AcDbLine
 10
10.72767329541681
 20
16.24717430164393
 30
0.0
 11
6.196535287059397
 21
10.84717430164391
 31
0.0
  0
LINE
  5
8B
330
7F
100
AcDbEntity
  8
중심선
100
AcDbLine
 10
7.28139805157953
 20
16.24717430164393
 30
0.0
 11
2.750260043222114
 21
10.84717430164391
 31
0.0
  0
LINE
  5
8C
330
7F
100
AcDbEntity
  8
중심선
100
AcDbLine
 10
5.714909304380834
 20
16.24717430164393
 30
0.0
 11
3.58671253028996
 21
13.71088815037384
 31
0.0
  0
LINE
  5
8D
330
7F
100
AcDbEntity
  8
중심선
100
AcDbLine
 10
2.268634060543552
 20
16.24717430164393
 30
0.0
 11
0.1404042013395286
 21
13.71084872107135
 31
0.0
  0
LINE
  5
8E
330
7F
100
AcDbEntity
  8
중심선
100
AcDbLine
 10
7.28139805157953
 20
16.24717430164393
 30
0.0
 11
10.72767329541681
 21
16.24717430164393
 31
0.0
  0
LINE
  5
8F
330
7F
100
AcDbEntity
  8
중심선
100
AcDbLine
 10
12.29416204261559
 20
16.24717430164393
 30
0.0
 11
15.74043728645272
 21
16.24717430164393
 31
0.0
  0
LINE
  5
90
330
7F
100
AcDbEntity
  8
중심선
100
AcDbLine
 10
19.22036997980202
 20
11.08717430171403
 30
0.0
 11
23.66174974927406
 21
11.08717430171406
 31
0.0
  0
LINE
  5
91
330
7F
100
AcDbEntity
  8
중심선
100
AcDbLine
 10
19.22039502424796
 20
13.00717430171391
 30
0.0
 11
19.22036997980202
 21
11.08717430171403
 31
0.0
  0
LINE
  5
92
330
7F
100
AcDbEntity
  8
중심선
100
AcDbLine
 10
19.22039502424796
 20
13.00717430171391
 30
0.0
 11
26.96566020931264
 21
13.00717430171391
 31
0.0
  0
LINE
  5
93
330
7F
100
AcDbEntity
  8
중심선
100
AcDbLine
 10
22.22332737316547
 20
13.45928029700563
 30
0.0
 11
24.52862924686651
 21
15.39360700705356
 31
0.0
  0
ATTDEF
  5
95
330
7F
100
AcDbEntity
  8
FORMAT
 62
     2
100
AcDbText
 10
3.448148490846466
 20
2.075366912832191
 30
0.0
 40
4.233333333333333
  1
EM212016
 41
0.75
  7
SLDTEXTSTYLE0
 11
3.448148490846466
 21
-0.0412997538344756
 31
0.0
100
AcDbAttributeDefinition
  3

  2
AUTOATTR0
 70
     0
 74
     1
  0
ENDBLK
  5
81
330
7F
100
AcDbEntity
  8
0
100
AcDbBlockEnd
  0
BLOCK
  5
D6
330
D5
100
AcDbEntity
  8
0
100
AcDbBlockBegin
  2
_D
 70
     0
 10
0.0
 20
0.0
 30
0.0
  3
_D
  1
_D
  0
SOLID
  5
D8
330
D5
100
AcDbEntity
  8
치수문자_일반주서
100
AcDbTrace
 10
-50.625
 20
3.176074928723903
 30
0.0
 11
-50.117
 21
6.478074928723903
 31
0.0
 12
-51.133
 22
6.478074928723903
 32
0.0
 13
-51.133
 23
6.478074928723903
 33
0.0
  0
SOLID
  5
D9
330
D5
100
AcDbEntity
  8
치수문자_일반주서
100
AcDbTrace
 10
-50.625
 20
-3.173925071276119
 30
0.0
 11
-51.133
 21
-6.475925071276118
 31
0.0
 12
-50.117
 22
-6.475925071276118
 32
0.0
 13
-50.117
 23
-6.475925071276118
 33
0.0
  0
LINE
  5
DA
330
D5
100
AcDbEntity
  8
치수문자_일반주서
100
AcDbLine
 10
-61.41788171604272
 20
-5.4132915023448
 30
0.0
 11
-61.41788171604271
 21
-6.124228987909301
 31
0.0
  0
LINE
  5
DB
330
D5
100
AcDbEntity
  8
치수문자_일반주서
100
AcDbLine
 10
-61.41788171604271
 20
-6.124228987909301
 30
0.0
 11
-55.86163172498341
 21
-6.124228987909262
 31
0.0
  0
LINE
  5
DC
330
D5
100
AcDbEntity
  8
치수문자_일반주서
100
AcDbLine
 10
-55.86163172498341
 20
-6.124228987909262
 30
0.0
 11
-55.86163172498342
 21
-5.413291502344761
 31
0.0
  0
LINE
  5
DD
330
D5
100
AcDbEntity
  8
치수문자_일반주서
100
AcDbLine
 10
-61.41788171604279
 20
5.415441359792458
 30
0.0
 11
-61.41788171604279
 21
6.126378845356958
 31
0.0
  0
LINE
  5
DE
330
D5
100
AcDbEntity
  8
치수문자_일반주서
100
AcDbLine
 10
-61.41788171604279
 20
6.126378845356958
 30
0.0
 11
-55.86163172498349
 21
6.126378845356997
 31
0.0
  0
LINE
  5
DF
330
D5
100
AcDbEntity
  8
치수문자_일반주서
100
AcDbLine
 10
-55.86163172498349
 20
6.126378845356997
 30
0.0
 11
-55.86163172498348
 21
5.415441359792497
 31
0.0
  0
LINE
  5
E0
330
D5
100
AcDbEntity
  8
치수문자_일반주서
100
AcDbLine
 10
-37.98999999999999
 20
3.176074928723904
 30
0.0
 11
-51.62500000000001
 21
3.176074928723903
 31
0.0
  0
LINE
  5
E1
330
D5
100
AcDbEntity
  8
치수문자_일반주서
100
AcDbLine
 10
-37.98999999999999
 20
-3.173925071276118
 30
0.0
 11
-51.62500000000001
 21
-3.173925071276119
 31
0.0
  0
LINE
  5
E2
330
D5
100
AcDbEntity
  8
치수문자_일반주서
100
AcDbLine
 10
-50.625
 20
3.176074928723903
 30
0.0
 11
-50.625
 21
9.526074928723903
 31
0.0
  0
LINE
  5
E3
330
D5
100
AcDbEntity
  8
치수문자_일반주서
100
AcDbLine
 10
-50.625
 20
3.176074928723903
 30
0.0
 11
-50.625
 21
-3.173925071276119
 31
0.0
  0
LINE
  5
E4
330
D5
100
AcDbEntity
  8
치수문자_일반주서
100
AcDbLine
 10
-50.625
 20
-3.173925071276119
 30
0.0
 11
-50.625
 21
-9.52392507127612
 31
0.0
  0
MTEXT
  5
E5
330
D5
100
AcDbEntity
  8
치수문자_일반주서
100
AcDbMText
 10
-60.37336863956231
 20
-4.524619601733423
 30
0.0
 40
3.5
 41
0.0
 71
     1
 72
     1
  1
0.25
  7
SLDTEXTSTYLE0
 11
-7.044195017643634E-15
 21
1.0
 31
0.0
 73
     1
 44
1.0
  0
MTEXT
  5
E6
330
D5
100
AcDbEntity
  8
치수문자_일반주서
100
AcDbMText
 10
-55.13673708920182
 20
-7.163838766581714
 30
0.0
 40
3.5
 41
0.0
 71
     1
 72
     1
  1
%%c
  7
SLDTEXTSTYLE0
 11
-7.044195017643634E-15
 21
1.0
 31
0.0
 73
     1
 44
1.0
  0
MTEXT
  5
E7
330
D5
100
AcDbEntity
  8
치수문자_일반주서
100
AcDbMText
 10
-55.13673708920186
 20
-1.885401368207632
 30
0.0
 40
3.5
 41
0.0
 71
     1
 72
     1
  1
6.35
  7
SLDTEXTSTYLE0
 11
-7.044195017643634E-15
 21
1.0
 31
0.0
 73
     1
 44
1.0
  0
ENDBLK
  5
D7
330
D5
100
AcDbEntity
  8
0
100
AcDbBlockEnd
  0
BLOCK
  5
EA
330
E9
100
AcDbEntity
  8
0
100
AcDbBlockBegin
  2
_D_1
 70
     0
 10
0.0
 20
0.0
 30
0.0
  3
_D_1
  1
_D_1
  0
SOLID
  5
EC
330
E9
100
AcDbEntity
  8
치수문자_일반주서
100
AcDbTrace
 10
56.87287091285007
 20
3.176074928723895
 30
0.0
 11
57.38087091285007
 21
6.478074928723895
 31
0.0
 12
56.36487091285007
 22
6.478074928723895
 32
0.0
 13
56.36487091285007
 23
6.478074928723895
 33
0.0
  0
SOLID
  5
ED
330
E9
100
AcDbEntity
  8
치수문자_일반주서
100
AcDbTrace
 10
56.87287091285007
 20
-3.173925071276111
 30
0.0
 11
56.36487091285007
 21
-6.475925071276111
 31
0.0
 12
57.38087091285007
 22
-6.475925071276111
 32
0.0
 13
57.38087091285007
 23
-6.475925071276111
 33
0.0
  0
LINE
  5
EE
330
E9
100
AcDbEntity
  8
치수문자_일반주서
100
AcDbLine
 10
46.07998919680735
 20
7.785847245270724
 30
0.0
 11
46.07998919680735
 21
7.074909759706224
 31
0.0
  0
LINE
  5
EF
330
E9
100
AcDbEntity
  8
치수문자_일반주서
100
AcDbLine
 10
46.07998919680735
 20
7.074909759706224
 30
0.0
 11
51.63623918786666
 21
7.074909759706263
 31
0.0
  0
LINE
  5
F0
330
E9
100
AcDbEntity
  8
치수문자_일반주서
100
AcDbLine
 10
51.63623918786666
 20
7.074909759706263
 30
0.0
 11
51.63623918786665
 21
7.785847245270763
 31
0.0
  0
LINE
  5
F1
330
E9
100
AcDbEntity
  8
치수문자_일반주서
100
AcDbLine
 10
46.07998919680728
 20
18.61458010740798
 30
0.0
 11
46.07998919680728
 21
19.32551759297248
 31
0.0
  0
LINE
  5
F2
330
E9
100
AcDbEntity
  8
치수문자_일반주서
100
AcDbLine
 10
46.07998919680728
 20
19.32551759297248
 30
0.0
 11
51.63623918786658
 21
19.32551759297252
 31
0.0
  0
LINE
  5
F3
330
E9
100
AcDbEntity
  8
치수문자_일반주서
100
AcDbLine
 10
51.63623918786658
 20
19.32551759297252
 30
0.0
 11
51.63623918786659
 21
18.61458010740802
 31
0.0
  0
LINE
  5
F4
330
E9
100
AcDbEntity
  8
치수문자_일반주서
100
AcDbLine
 10
33.34504998429094
 20
3.176074928723896
 30
0.0
 11
57.87287091285007
 21
3.176074928723895
 31
0.0
  0
LINE
  5
F5
330
E9
100
AcDbEntity
  8
치수문자_일반주서
100
AcDbLine
 10
33.34504998429094
 20
-3.17392507127611
 30
0.0
 11
57.87287091285007
 21
-3.173925071276111
 31
0.0
  0
LINE
  5
F6
330
E9
100
AcDbEntity
  8
치수문자_일반주서
100
AcDbLine
 10
56.87287091285007
 20
3.176074928723895
 30
0.0
 11
56.87287091285007
 21
20.36512737164502
 31
0.0
  0
LINE
  5
F7
330
E9
100
AcDbEntity
  8
치수문자_일반주서
100
AcDbLine
 10
56.87287091285007
 20
3.176074928723895
 30
0.0
 11
56.87287091285007
 21
-3.173925071276111
 31
0.0
  0
LINE
  5
F8
330
E9
100
AcDbEntity
  8
치수문자_일반주서
100
AcDbLine
 10
56.87287091285007
 20
-3.173925071276111
 30
0.0
 11
56.87287091285007
 21
-9.52392507127611
 31
0.0
  0
MTEXT
  5
F9
330
E9
100
AcDbEntity
  8
치수문자_일반주서
100
AcDbMText
 10
47.12450227328776
 20
8.674519145882103
 30
0.0
 40
3.5
 41
0.0
 71
     1
 72
     1
  1
0.25
  7
SLDTEXTSTYLE0
 11
-7.044195017643634E-15
 21
1.0
 31
0.0
 73
     1
 44
1.0
  0
MTEXT
  5
FA
330
E9
100
AcDbEntity
  8
치수문자_일반주서
100
AcDbMText
 10
52.36113382364825
 20
6.03529998103381
 30
0.0
 40
3.5
 41
0.0
 71
     1
 72
     1
  1
%%c
  7
SLDTEXTSTYLE0
 11
-7.044195017643634E-15
 21
1.0
 31
0.0
 73
     1
 44
1.0
  0
MTEXT
  5
FB
330
E9
100
AcDbEntity
  8
치수문자_일반주서
100
AcDbMText
 10
52.36113382364821
 20
11.31373737940789
 30
0.0
 40
3.5
 41
0.0
 71
     1
 72
     1
  1
6.35
  7
SLDTEXTSTYLE0
 11
-7.044195017643634E-15
 21
1.0
 31
0.0
 73
     1
 44
1.0
  0
ENDBLK
  5
EB
330
E9
100
AcDbEntity
  8
0
100
AcDbBlockEnd
  0
BLOCK
  5
FE
330
FD
100
AcDbEntity
  8
0
100
AcDbBlockBegin
  2
_D_2
 70
     0
 10
0.0
 20
0.0
 30
0.0
  3
_D_2
  1
_D_2
  0
SOLID
  5
100
330
FD
100
AcDbEntity
  8
치수문자_일반주서
100
AcDbTrace
 10
38.57500000000003
 20
13.20021367633943
 30
0.0
 11
41.87700000000003
 21
12.69221367633943
 31
0.0
 12
41.87700000000003
 22
13.70821367633943
 32
0.0
 13
41.87700000000003
 23
13.70821367633943
 33
0.0
  0
SOLID
  5
101
330
FD
100
AcDbEntity
  8
치수문자_일반주서
100
AcDbTrace
 10
10.00000000000003
 20
13.20021367633943
 30
0.0
 11
6.698000000000031
 21
13.70821367633943
 31
0.0
 12
6.698000000000031
 22
12.69221367633943
 32
0.0
 13
6.698000000000031
 23
12.69221367633943
 33
0.0
  0
LINE
  5
102
330
FD
100
AcDbEntity
  8
치수문자_일반주서
100
AcDbLine
 10
18.87313391817736
 20
23.99309539238217
 30
0.0
 11
18.16219643261286
 21
23.99309539238218
 31
0.0
  0
LINE
  5
103
330
FD
100
AcDbEntity
  8
치수문자_일반주서
100
AcDbLine
 10
18.16219643261286
 20
23.99309539238218
 30
0.0
 11
18.16219643261283
 21
18.43684540132287
 31
0.0
  0
LINE
  5
104
330
FD
100
AcDbEntity
  8
치수문자_일반주서
100
AcDbLine
 10
18.16219643261283
 20
18.43684540132287
 30
0.0
 11
18.87313391817733
 21
18.43684540132287
 31
0.0
  0
LINE
  5
105
330
FD
100
AcDbEntity
  8
치수문자_일반주서
100
AcDbLine
 10
29.70186678031462
 20
23.9930953923821
 30
0.0
 11
30.41280426587912
 21
23.99309539238209
 31
0.0
  0
LINE
  5
106
330
FD
100
AcDbEntity
  8
치수문자_일반주서
100
AcDbLine
 10
30.41280426587912
 20
23.99309539238209
 30
0.0
 11
30.41280426587909
 21
18.43684540132279
 31
0.0
  0
LINE
  5
107
330
FD
100
AcDbEntity
  8
치수문자_일반주서
100
AcDbLine
 10
30.41280426587909
 20
18.43684540132279
 30
0.0
 11
29.70186678031459
 21
18.43684540132279
 31
0.0
  0
LINE
  5
108
330
FD
100
AcDbEntity
  8
치수문자_일반주서
100
AcDbLine
 10
38.57500000000003
 20
3.64943029566397
 30
0.0
 11
38.57500000000003
 21
14.20021367633943
 31
0.0
  0
LINE
  5
109
330
FD
100
AcDbEntity
  8
치수문자_일반주서
100
AcDbLine
 10
10.00000000000003
 20
3.675111699305957
 30
0.0
 11
10.00000000000003
 21
14.20021367633943
 31
0.0
  0
LINE
  5
10A
330
FD
100
AcDbEntity
  8
치수문자_일반주서
100
AcDbLine
 10
38.57500000000003
 20
13.20021367633943
 30
0.0
 11
44.92500000000003
 21
13.20021367633943
 31
0.0
  0
LINE
  5
10B
330
FD
100
AcDbEntity
  8
치수문자_일반주서
100
AcDbLine
 10
38.57500000000003
 20
13.20021367633943
 30
0.0
 11
10.00000000000003
 21
13.20021367633943
 31
0.0
  0
LINE
  5
10C
330
FD
100
AcDbEntity
  8
치수문자_일반주서
100
AcDbLine
 10
10.00000000000003
 20
13.20021367633943
 30
0.0
 11
3.65000000000003
 21
13.20021367633943
 31
0.0
  0
MTEXT
  5
10D
330
FD
100
AcDbEntity
  8
치수문자_일반주서
100
AcDbMText
 10
17.64843770712612
 20
17.76542294220115
 30
0.0
 40
3.5
 41
0.0
 71
     1
 72
     1
  1

  7
SLDTEXTSTYLE0
 73
     1
 44
1.0
  0
MTEXT
  5
10E
330
FD
100
AcDbEntity
  8
치수문자_일반주서
100
AcDbMText
 10
19.76180581878873
 20
22.94858231590176
 30
0.0
 40
3.5
 41
0.0
 71
     1
 72
     1
  1
1.13
  7
SLDTEXTSTYLE0
 73
     1
 44
1.0
  0
MTEXT
  5
10F
330
FD
100
AcDbEntity
  8
치수문자_일반주서
100
AcDbMText
 10
18.46875010561197
 20
17.71195076554129
 30
0.0
 40
3.5
 41
0.0
 71
     1
 72
     1
  1
28.58
  7
SLDTEXTSTYLE0
 73
     1
 44
1.0
  0
MTEXT
  5
110
330
FD
100
AcDbEntity
  8
치수문자_일반주서
100
AcDbMText
 10
32.25850751101969
 20
17.76542294220105
 30
0.0
 40
3.5
 41
0.0
 71
     1
 72
     1
  1

  7
SLDTEXTSTYLE0
 73
     1
 44
1.0
  0
ENDBLK
  5
FF
330
FD
100
AcDbEntity
  8
0
100
AcDbBlockEnd
  0
BLOCK
  5
114
330
113
100
AcDbEntity
  8
0
100
AcDbBlockBegin
  2
_D_3
 70
     0
 10
0.0
 20
0.0
 30
0.0
  3
_D_3
  1
_D_3
  0
SOLID
  5
116
330
113
100
AcDbEntity
  8
치수문자_일반주서
100
AcDbTrace
 10
38.57500000000003
 20
24.98298973358812
 30
0.0
 11
35.27300000000003
 21
25.49098973358812
 31
0.0
 12
35.27300000000003
 22
24.47498973358812
 32
0.0
 13
35.27300000000003
 23
24.47498973358812
 33
0.0
  0
SOLID
  5
117
330
113
100
AcDbEntity
  8
치수문자_일반주서
100
AcDbTrace
 10
-37.62499999999999
 20
24.98298973358811
 30
0.0
 11
-34.32299999999999
 21
24.47498973358811
 31
0.0
 12
-34.32299999999999
 22
25.49098973358811
 32
0.0
 13
-34.32299999999999
 23
25.49098973358811
 33
0.0
  0
LINE
  5
118
330
113
100
AcDbEntity
  8
치수문자_일반주서
100
AcDbLine
 10
-4.939366081822637
 20
35.77587144963085
 30
0.0
 11
-5.650303567387137
 21
35.77587144963086
 31
0.0
  0
LINE
  5
119
330
113
100
AcDbEntity
  8
치수문자_일반주서
100
AcDbLine
 10
-5.650303567387137
 20
35.77587144963086
 30
0.0
 11
-5.650303567387177
 21
30.21962145857155
 31
0.0
  0
LINE
  5
11A
330
113
100
AcDbEntity
  8
치수문자_일반주서
100
AcDbLine
 10
-5.650303567387177
 20
30.21962145857155
 30
0.0
 11
-4.939366081822677
 21
30.21962145857155
 31
0.0
  0
LINE
  5
11B
330
113
100
AcDbEntity
  8
치수문자_일반주서
100
AcDbLine
 10
5.889366780314621
 20
35.77587144963077
 30
0.0
 11
6.600304265879121
 21
35.77587144963076
 31
0.0
  0
LINE
  5
11C
330
113
100
AcDbEntity
  8
치수문자_일반주서
100
AcDbLine
 10
6.600304265879121
 20
35.77587144963076
 30
0.0
 11
6.600304265879081
 21
30.21962145857146
 31
0.0
  0
LINE
  5
11D
330
113
100
AcDbEntity
  8
치수문자_일반주서
100
AcDbLine
 10
6.600304265879081
 20
30.21962145857146
 30
0.0
 11
5.889366780314581
 21
30.21962145857146
 31
0.0
  0
LINE
  5
11E
330
113
100
AcDbEntity
  8
치수문자_일반주서
100
AcDbLine
 10
38.57500000000003
 20
3.64943029566397
 30
0.0
 11
38.57500000000003
 21
25.98298973358812
 31
0.0
  0
LINE
  5
11F
330
113
100
AcDbEntity
  8
치수문자_일반주서
100
AcDbLine
 10
-37.62499999999999
 20
3.541074928723894
 30
0.0
 11
-37.62499999999999
 21
25.98298973358812
 31
0.0
  0
LINE
  5
120
330
113
100
AcDbEntity
  8
치수문자_일반주서
100
AcDbLine
 10
38.57500000000003
 20
24.98298973358812
 30
0.0
 11
-37.62499999999999
 21
24.98298973358811
 31
0.0
  0
MTEXT
  5
121
330
113
100
AcDbEntity
  8
치수문자_일반주서
100
AcDbMText
 10
-6.164062292873878
 20
29.54819899944984
 30
0.0
 40
3.5
 41
0.0
 71
     1
 72
     1
  1

  7
SLDTEXTSTYLE0
 73
     1
 44
1.0
  0
MTEXT
  5
122
330
113
100
AcDbEntity
  8
치수문자_일반주서
100
AcDbMText
 10
-4.050694181211274
 20
34.73135837315044
 30
0.0
 40
3.5
 41
0.0
 71
     1
 72
     1
  1
3.00
  7
SLDTEXTSTYLE0
 73
     1
 44
1.0
  0
MTEXT
  5
123
330
113
100
AcDbEntity
  8
치수문자_일반주서
100
AcDbMText
 10
-5.343749894388038
 20
29.49472682278997
 30
0.0
 40
3.5
 41
0.0
 71
     1
 72
     1
  1
76.20
  7
SLDTEXTSTYLE0
 73
     1
 44
1.0
  0
MTEXT
  5
124
330
113
100
AcDbEntity
  8
치수문자_일반주서
100
AcDbMText
 10
8.446007511019689
 20
29.54819899944973
 30
0.0
 40
3.5
 41
0.0
 71
     1
 72
     1
  1

  7
SLDTEXTSTYLE0
 73
     1
 44
1.0
  0
ENDBLK
  5
115
330
113
100
AcDbEntity
  8
0
100
AcDbBlockEnd
  0
BLOCK
  5
12D
330
12C
100
AcDbEntity
  8
0
100
AcDbBlockBegin
  2
SW_DOWELSYMBOL_0
 70
     0
 10
0.0
 20
0.0
 30
0.0
  3
SW_DOWELSYMBOL_0
  1
SW_DOWELSYMBOL_0
  0
CIRCLE
  5
12F
330
12C
100
AcDbEntity
  8
해칭선
 62
     0
100
AcDbCircle
 10
0.0
 20
0.0
 30
0.0
 40
3.000000000000002
  0
HATCH
  5
130
330
12C
100
AcDbEntity
  8
0
  6
Continuous
 62
     0
370
     0
100
AcDbHatch
 10
0.0
 20
0.0
 30
0.0
210
0.0
220
0.0
230
1.0
  2
SOLID
 70
     1
 71
     0
 91
        1
 92
        0
 93
        3
 72
     2
 10
0.0000000000000069
 20
0.0
 40
3.000000000000002
 50
0.0
 51
90.0
 73
     1
 72
     1
 10
0.0000000000000069
 20
3.000000000000002
 11
0.0000000000000069
 21
0.0
 72
     1
 10
0.0000000000000069
 20
0.0
 11
3.000000000000009
 21
0.0
 97
        0
 75
     0
 76
     1
 98
        1
 10
0.0
 20
0.0
  0
HATCH
  5
131
330
12C
100
AcDbEntity
  8
0
  6
Continuous
 62
     0
370
     0
100
AcDbHatch
 10
0.0
 20
0.0
 30
0.0
210
0.0
220
0.0
230
1.0
  2
SOLID
 70
     1
 71
     0
 91
        1
 92
        0
 93
        3
 72
     2
 10
0.0000000000000069
 20
0.0
 40
3.000000000000002
 50
180.0
 51
270.0000000000008
 73
     1
 72
     1
 10
0.0000000000000069
 20
-3.000000000000002
 11
0.0000000000000069
 21
0.0
 72
     1
 10
0.0000000000000069
 20
0.0
 11
-2.999999999999995
 21
0.0
 97
        0
 75
     0
 76
     1
 98
        1
 10
0.0
 20
0.0
  0
ENDBLK
  5
12E
330
12C
100
AcDbEntity
  8
0
100
AcDbBlockEnd
  0
BLOCK
  5
1FA
330
1F9
100
AcDbEntity
  8
0
100
AcDbBlockBegin
  2
*D8
 70
     1
 10
0.0
 20
0.0
 30
0.0
  3
*D8
  1
*D8
  0
LINE
  5
1FB
330
1F9
100
AcDbEntity
  8
치수문자_일반주서
 62
     0
370
    -2
100
AcDbLine
 10
94.93498271500785
 20
29.86775910831512
 30
0.0
 11
113.2207667126972
 21
-0.0000000000001439
 31
0.0
  0
MTEXT
  5
1FC
330
1F9
100
AcDbEntity
  8
치수문자_일반주서
 62
     0
100
AcDbMText
 10
108.6064152978832
 20
12.56439457437568
 30
0.0
 40
3.5
 41
0.0
 71
     5
 72
     1
  1
\A1;R0.76 [R.03]
  7
SLDTEXTSTYLE0
 11
0.5221414160944389
 21
-0.852858922447842
 31
0.0
 73
     1
 44
1.0
  0
LINE
  5
1FD
330
1F9
100
AcDbEntity
  8
치수문자_일반주서
 62
     0
370
    -2
100
AcDbLine
 10
92.81300000000005
 20
33.33377776914315
 30
0.0
 11
93.210871759064
 21
32.68389927023789
 31
0.0
  0
SOLID
  5
1FE
330
1F9
100
AcDbEntity
  8
치수문자_일반주서
 62
     0
100
AcDbTrace
 10
95.40433940866164
 20
30.15511093430576
 30
0.0
 11
94.46562602135405
 21
29.58040728232448
 31
0.0
 12
93.210871759064
 22
32.68389927023789
 32
0.0
 13
93.210871759064
 23
32.68389927023789
 33
0.0
  0
POINT
  5
1FF
330
1F9
100
AcDbEntity
  8
Defpoints
 62
     0
100
AcDbPoint
 10
93.210871759064
 20
32.68389927023789
 30
0.0
  0
POINT
  5
200
330
1F9
100
AcDbEntity
  8
Defpoints
 62
     0
100
AcDbPoint
 10
92.81300000000005
 20
33.33377776914315
 30
0.0
  0
ENDBLK
  5
201
330
1F9
100
AcDbEntity
  8
0
100
AcDbBlockEnd
  0
BLOCK
  5
205
330
204
100
AcDbEntity
  8
0
100
AcDbBlockBegin
  2
*D9
 70
     1
 10
0.0
 20
0.0
 30
0.0
  3
*D9
  1
*D9
  0
LINE
  5
207
330
204
100
AcDbEntity
  8
치수문자_일반주서
 62
     0
370
    -2
100
AcDbLine
 10
17.94750000000005
 20
38.92177776914319
 30
0.0
 11
4.375000000000025
 21
38.92177776914314
 31
0.0
  0
LINE
  5
208
330
204
100
AcDbEntity
  8
치수문자_일반주서
 62
     0
370
    -2
100
AcDbLine
 10
17.94750000000005
 20
32.57177776914317
 30
0.0
 11
4.375000000000047
 21
32.57177776914312
 31
0.0
  0
LINE
  5
209
330
204
100
AcDbEntity
  8
치수문자_일반주서
 62
     0
370
    -2
100
AcDbLine
 10
4.375000000000036
 20
35.61977776914314
 30
0.0
 11
4.375000000000036
 21
35.87377776914312
 31
0.0
  0
SOLID
  5
20A
330
204
100
AcDbEntity
  8
치수문자_일반주서
 62
     0
100
AcDbTrace
 10
4.92533333333337
 20
35.61977776914314
 30
0.0
 11
3.824666666666703
 21
35.61977776914314
 31
0.0
 12
4.375000000000025
 22
38.92177776914314
 32
0.0
 13
4.375000000000025
 23
38.92177776914314
 33
0.0
  0
SOLID
  5
20B
330
204
100
AcDbEntity
  8
치수문자_일반주서
 62
     0
100
AcDbTrace
 10
3.824666666666702
 20
35.87377776914312
 30
0.0
 11
4.925333333333369
 21
35.87377776914312
 31
0.0
 12
4.375000000000047
 22
32.57177776914312
 32
0.0
 13
4.375000000000047
 23
32.57177776914312
 33
0.0
  0
MTEXT
  5
20C
330
204
100
AcDbEntity
  8
치수문자_일반주서
 62
     0
100
AcDbMText
 10
0.0000000000000355
 20
35.74677776914318
 30
0.0
 40
3.5
 41
0.0
 71
     2
 72
     1
  1
\A1;%%c6.35 [1/4]
  7
SLDTEXTSTYLE0
 11
-3.496765431890244E-15
 21
1.0
 31
0.0
 73
     1
 44
1.0
  0
POINT
  5
20D
330
204
100
AcDbEntity
  8
Defpoints
 62
     0
100
AcDbPoint
 10
18.01000000000005
 20
38.92177776914319
 30
0.0
  0
POINT
  5
20E
330
204
100
AcDbEntity
  8
Defpoints
 62
     0
100
AcDbPoint
 10
18.01000000000005
 20
32.57177776914317
 30
0.0
  0
POINT
  5
20F
330
204
100
AcDbEntity
  8
Defpoints
 62
     0
100
AcDbPoint
 10
4.37500000000005
 20
32.57177776914312
 30
0.0
  0
ENDBLK
  5
206
330
204
100
AcDbEntity
  8
0
100
AcDbBlockEnd
  0
BLOCK
  5
211
330
210
100
AcDbEntity
  8
0
100
AcDbBlockBegin
  2
*D10
 70
     1
 10
0.0
 20
0.0
 30
0.0
  3
*D10
  1
*D10
  0
LINE
  5
213
330
210
100
AcDbEntity
  8
치수문자_일반주서
 62
     0
370
    -2
100
AcDbLine
 10
93.57500000000005
 20
38.20545647799671
 30
0.0
 11
93.57500000000005
 21
48.69373985867217
 31
0.0
  0
LINE
  5
214
330
210
100
AcDbEntity
  8
치수문자_일반주서
 62
     0
370
    -2
100
AcDbLine
 10
65.00000000000004
 20
38.48331453972525
 30
0.0
 11
65.00000000000004
 21
48.69373985867217
 31
0.0
  0
LINE
  5
215
330
210
100
AcDbEntity
  8
치수문자_일반주서
 62
     0
370
    -2
100
AcDbLine
 10
90.27300000000005
 20
48.69373985867217
 30
0.0
 11
68.30200000000005
 21
48.69373985867217
 31
0.0
  0
SOLID
  5
216
330
210
100
AcDbEntity
  8
치수문자_일반주서
 62
     0
100
AcDbTrace
 10
90.27300000000005
 20
48.14340652533884
 30
0.0
 11
90.27300000000005
 21
49.24407319200551
 31
0.0
 12
93.57500000000005
 22
48.69373985867217
 32
0.0
 13
93.57500000000005
 23
48.69373985867217
 33
0.0
  0
SOLID
  5
217
330
210
100
AcDbEntity
  8
치수문자_일반주서
 62
     0
100
AcDbTrace
 10
68.30200000000005
 20
49.24407319200551
 30
0.0
 11
68.30200000000005
 21
48.14340652533884
 31
0.0
 12
65.00000000000004
 22
48.69373985867217
 32
0.0
 13
65.00000000000004
 23
48.69373985867217
 33
0.0
  0
MTEXT
  5
218
330
210
100
AcDbEntity
  8
치수문자_일반주서
 62
     0
100
AcDbMText
 10
79.28750000000004
 20
53.06873985867217
 30
0.0
 40
3.5
 41
0.0
 71
     2
 72
     1
  1
\A1;28.58 [1 1/8]
  7
SLDTEXTSTYLE0
 73
     1
 44
1.0
  0
POINT
  5
219
330
210
100
AcDbEntity
  8
Defpoints
 62
     0
100
AcDbPoint
 10
93.57500000000005
 20
38.14295647799671
 30
0.0
  0
POINT
  5
21A
330
210
100
AcDbEntity
  8
Defpoints
 62
     0
100
AcDbPoint
 10
65.00000000000004
 20
38.42081453972525
 30
0.0
  0
POINT
  5
21B
330
210
100
AcDbEntity
  8
Defpoints
 62
     0
100
AcDbPoint
 10
65.00000000000004
 20
48.69373985867217
 30
0.0
  0
ENDBLK
  5
212
330
210
100
AcDbEntity
  8
0
100
AcDbBlockEnd
  0
BLOCK
  5
21D
330
21C
100
AcDbEntity
  8
0
100
AcDbBlockBegin
  2
*D11
 70
     1
 10
0.0
 20
0.0
 30
0.0
  3
*D11
  1
*D11
  0
LINE
  5
21F
330
21C
100
AcDbEntity
  8
치수문자_일반주서
 62
     0
370
    -2
100
AcDbLine
 10
93.57500000000005
 20
38.20545647799671
 30
0.0
 11
93.57500000000005
 21
60.47651591592084
 31
0.0
  0
LINE
  5
220
330
21C
100
AcDbEntity
  8
치수문자_일반주서
 62
     0
370
    -2
100
AcDbLine
 10
17.37500000000005
 20
38.34927776914318
 30
0.0
 11
17.37500000000005
 21
60.47651591592084
 31
0.0
  0
LINE
  5
221
330
21C
100
AcDbEntity
  8
치수문자_일반주서
 62
     0
370
    -2
100
AcDbLine
 10
90.27300000000005
 20
60.47651591592084
 30
0.0
 11
20.67700000000005
 21
60.47651591592084
 31
0.0
  0
SOLID
  5
222
330
21C
100
AcDbEntity
  8
치수문자_일반주서
 62
     0
100
AcDbTrace
 10
90.27300000000005
 20
59.92618258258751
 30
0.0
 11
90.27300000000005
 21
61.02684924925418
 31
0.0
 12
93.57500000000005
 22
60.47651591592084
 32
0.0
 13
93.57500000000005
 23
60.47651591592084
 33
0.0
  0
SOLID
  5
223
330
21C
100
AcDbEntity
  8
치수문자_일반주서
 62
     0
100
AcDbTrace
 10
20.67700000000005
 20
61.02684924925418
 30
0.0
 11
20.67700000000005
 21
59.92618258258751
 31
0.0
 12
17.37500000000005
 22
60.47651591592084
 32
0.0
 13
17.37500000000005
 23
60.47651591592084
 33
0.0
  0
MTEXT
  5
224
330
21C
100
AcDbEntity
  8
치수문자_일반주서
 62
     0
100
AcDbMText
 10
55.47500000000004
 20
64.85151591592084
 30
0.0
 40
3.5
 41
0.0
 71
     2
 72
     1
  1
\A1;76.20 [3]
  7
SLDTEXTSTYLE0
 73
     1
 44
1.0
  0
POINT
  5
225
330
21C
100
AcDbEntity
  8
Defpoints
 62
     0
100
AcDbPoint
 10
93.57500000000005
 20
38.14295647799671
 30
0.0
  0
POINT
  5
226
330
21C
100
AcDbEntity
  8
Defpoints
 62
     0
100
AcDbPoint
 10
17.37500000000005
 20
38.28677776914318
 30
0.0
  0
POINT
  5
227
330
21C
100
AcDbEntity
  8
Defpoints
 62
     0
100
AcDbPoint
 10
17.37500000000005
 20
60.47651591592084
 30
0.0
  0
ENDBLK
  5
21E
330
21C
100
AcDbEntity
  8
0
100
AcDbBlockEnd
  0
BLOCK
  5
229
330
228
100
AcDbEntity
  8
0
100
AcDbBlockBegin
  2
*D12
 70
     1
 10
0.0
 20
0.0
 30
0.0
  3
*D12
  1
*D12
  0
LINE
  5
22B
330
228
100
AcDbEntity
  8
치수문자_일반주서
 62
     0
370
    -2
100
AcDbLine
 10
78.76933051212553
 20
38.92177776914318
 30
0.0
 11
116.2920528593964
 21
38.92177776914332
 31
0.0
  0
LINE
  5
22C
330
228
100
AcDbEntity
  8
치수문자_일반주서
 62
     0
370
    -2
100
AcDbLine
 10
78.76933051212549
 20
32.57177776914318
 30
0.0
 11
116.2920528593965
 21
32.57177776914332
 31
0.0
  0
LINE
  5
22D
330
228
100
AcDbEntity
  8
치수문자_일반주서
 62
     0
370
    -2
100
AcDbLine
 10
116.2920528593964
 20
38.92177776914332
 30
0.0
 11
116.2920528593963
 21
70.90077776914332
 31
0.0
  0
LINE
  5
22E
330
228
100
AcDbEntity
  8
치수문자_일반주서
 62
     0
370
    -2
100
AcDbLine
 10
116.2920528593964
 20
38.92177776914332
 30
0.0
 11
116.2920528593965
 21
32.57177776914332
 31
0.0
  0
LINE
  5
22F
330
228
100
AcDbEntity
  8
치수문자_일반주서
 62
     0
370
    -2
100
AcDbLine
 10
116.2920528593964
 20
42.22377776914332
 30
0.0
 11
116.2920528593964
 21
45.52577776914332
 31
0.0
  0
LINE
  5
230
330
228
100
AcDbEntity
  8
치수문자_일반주서
 62
     0
370
    -2
100
AcDbLine
 10
116.2920528593965
 20
29.26977776914332
 30
0.0
 11
116.2920528593965
 21
25.96777776914332
 31
0.0
  0
SOLID
  5
231
330
228
100
AcDbEntity
  8
치수문자_일반주서
 62
     0
100
AcDbTrace
 10
115.7417195260631
 20
42.22377776914332
 30
0.0
 11
116.8423861927298
 21
42.22377776914332
 31
0.0
 12
116.2920528593964
 22
38.92177776914332
 32
0.0
 13
116.2920528593964
 23
38.92177776914332
 33
0.0
  0
SOLID
  5
232
330
228
100
AcDbEntity
  8
치수문자_일반주서
 62
     0
100
AcDbTrace
 10
116.8423861927298
 20
29.26977776914333
 30
0.0
 11
115.7417195260632
 21
29.26977776914332
 31
0.0
 12
116.2920528593965
 22
32.57177776914332
 32
0.0
 13
116.2920528593965
 23
32.57177776914332
 33
0.0
  0
MTEXT
  5
233
330
228
100
AcDbEntity
  8
치수문자_일반주서
 62
     0
100
AcDbMText
 10
111.9170528593964
 20
58.2132777691433
 30
0.0
 40
3.5
 41
0.0
 71
     2
 72
     1
  1
\A1;%%c6.35 [1/4]
  7
SLDTEXTSTYLE0
 11
-4.475859752819533E-15
 21
1.0
 31
0.0
 73
     1
 44
1.0
  0
POINT
  5
234
330
228
100
AcDbEntity
  8
Defpoints
 62
     0
100
AcDbPoint
 10
78.70683051212553
 20
38.92177776914318
 30
0.0
  0
POINT
  5
235
330
228
100
AcDbEntity
  8
Defpoints
 62
     0
100
AcDbPoint
 10
78.70683051212549
 20
32.57177776914318
 30
0.0
  0
POINT
  5
236
330
228
100
AcDbEntity
  8
Defpoints
 62
     0
100
AcDbPoint
 10
116.2920528593964
 20
32.57177776914332
 30
0.0
  0
ENDBLK
  5
22A
330
228
100
AcDbEntity
  8
0
100
AcDbBlockEnd
  0
BLOCK
  5
276
330
275
100
AcDbEntity
  8
0
100
AcDbBlockBegin
  2
*D13
 70
     1
 10
0.0
 20
0.0
 30
0.0
  3
*D13
  1
*D13
  0
LINE
  5
278
330
275
100
AcDbEntity
  8
치수문자_일반주서
 62
     0
370
    -2
100
AcDbLine
 10
-37.05249999999999
 20
3.176074928723906
 30
0.0
 11
-50.62500000000001
 21
3.176074928723856
 31
0.0
  0
LINE
  5
279
330
275
100
AcDbEntity
  8
치수문자_일반주서
 62
     0
370
    -2
100
AcDbLine
 10
-37.05249999999999
 20
-3.173925071276117
 30
0.0
 11
-50.62499999999999
 21
-3.173925071276166
 31
0.0
  0
LINE
  5
27A
330
275
100
AcDbEntity
  8
치수문자_일반주서
 62
     0
370
    -2
100
AcDbLine
 10
-50.62499999999999
 20
-0.1259250712761433
 30
0.0
 11
-50.625
 21
0.1280749287238332
 31
0.0
  0
SOLID
  5
27B
330
275
100
AcDbEntity
  8
치수문자_일반주서
 62
     0
100
AcDbTrace
 10
-50.07466666666666
 20
-0.1259250712761414
 30
0.0
 11
-51.17533333333333
 21
-0.1259250712761451
 31
0.0
 12
-50.62500000000001
 22
3.176074928723856
 32
0.0
 13
-50.62500000000001
 23
3.176074928723856
 33
0.0
  0
SOLID
  5
27C
330
275
100
AcDbEntity
  8
치수문자_일반주서
 62
     0
100
AcDbTrace
 10
-51.17533333333333
 20
0.1280749287238313
 30
0.0
 11
-50.07466666666667
 21
0.1280749287238351
 31
0.0
 12
-50.62499999999999
 22
-3.173925071276166
 32
0.0
 13
-50.62499999999999
 23
-3.173925071276166
 33
0.0
  0
MTEXT
  5
27D
330
275
100
AcDbEntity
  8
치수문자_일반주서
 62
     0
100
AcDbMText
 10
-55.0
 20
0.0010749287238948
 30
0.0
 40
3.5
 41
0.0
 71
     2
 72
     1
  1
\A1;%%c6.35 [1/4]
  7
SLDTEXTSTYLE0
 11
-3.356894814614634E-15
 21
1.0
 31
0.0
 73
     1
 44
1.0
  0
POINT
  5
27E
330
275
100
AcDbEntity
  8
Defpoints
 62
     0
100
AcDbPoint
 10
-36.98999999999999
 20
3.176074928723907
 30
0.0
  0
POINT
  5
27F
330
275
100
AcDbEntity
  8
Defpoints
 62
     0
100
AcDbPoint
 10
-36.98999999999999
 20
-3.173925071276116
 30
0.0
  0
POINT
  5
280
330
275
100
AcDbEntity
  8
Defpoints
 62
     0
100
AcDbPoint
 10
-50.62499999999999
 20
-3.173925071276167
 30
0.0
  0
ENDBLK
  5
277
330
275
100
AcDbEntity
  8
0
100
AcDbBlockEnd
  0
BLOCK
  5
282
330
281
100
AcDbEntity
  8
0
100
AcDbBlockBegin
  2
*D14
 70
     1
 10
0.0
 20
0.0
 30
0.0
  3
*D14
  1
*D14
  0
LINE
  5
284
330
281
100
AcDbEntity
  8
치수문자_일반주서
 62
     0
370
    -2
100
AcDbLine
 10
38.57500000000001
 20
2.459753637577421
 30
0.0
 11
38.57500000000001
 21
12.94803701825289
 31
0.0
  0
LINE
  5
285
330
281
100
AcDbEntity
  8
치수문자_일반주서
 62
     0
370
    -2
100
AcDbLine
 10
10.00000000000001
 20
2.737611699305965
 30
0.0
 11
10.00000000000001
 21
12.94803701825289
 31
0.0
  0
LINE
  5
286
330
281
100
AcDbEntity
  8
치수문자_일반주서
 62
     0
370
    -2
100
AcDbLine
 10
35.27300000000001
 20
12.94803701825289
 30
0.0
 11
13.30200000000001
 21
12.94803701825289
 31
0.0
  0
SOLID
  5
287
330
281
100
AcDbEntity
  8
치수문자_일반주서
 62
     0
100
AcDbTrace
 10
35.27300000000001
 20
12.39770368491956
 30
0.0
 11
35.27300000000001
 21
13.49837035158622
 31
0.0
 12
38.57500000000001
 22
12.94803701825289
 32
0.0
 13
38.57500000000001
 23
12.94803701825289
 33
0.0
  0
SOLID
  5
288
330
281
100
AcDbEntity
  8
치수문자_일반주서
 62
     0
100
AcDbTrace
 10
13.30200000000001
 20
13.49837035158622
 30
0.0
 11
13.30200000000001
 21
12.39770368491956
 31
0.0
 12
10.00000000000001
 22
12.94803701825289
 32
0.0
 13
10.00000000000001
 23
12.94803701825289
 33
0.0
  0
MTEXT
  5
289
330
281
100
AcDbEntity
  8
치수문자_일반주서
 62
     0
100
AcDbMText
 10
24.2875
 20
17.32303701825289
 30
0.0
 40
3.5
 41
0.0
 71
     2
 72
     1
  1
\A1;28.58 [1 1/8]
  7
SLDTEXTSTYLE0
 73
     1
 44
1.0
  0
POINT
  5
28A
330
281
100
AcDbEntity
  8
Defpoints
 62
     0
100
AcDbPoint
 10
38.57500000000001
 20
2.397253637577421
 30
0.0
  0
POINT
  5
28B
330
281
100
AcDbEntity
  8
Defpoints
 62
     0
100
AcDbPoint
 10
10.00000000000001
 20
2.675111699305965
 30
0.0
  0
POINT
  5
28C
330
281
100
AcDbEntity
  8
Defpoints
 62
     0
100
AcDbPoint
 10
10.00000000000001
 20
12.94803701825289
 30
0.0
  0
ENDBLK
  5
283
330
281
100
AcDbEntity
  8
0
100
AcDbBlockEnd
  0
BLOCK
  5
28E
330
28D
100
AcDbEntity
  8
0
100
AcDbBlockBegin
  2
*D15
 70
     1
 10
0.0
 20
0.0
 30
0.0
  3
*D15
  1
*D15
  0
LINE
  5
290
330
28D
100
AcDbEntity
  8
치수문자_일반주서
 62
     0
370
    -2
100
AcDbLine
 10
38.57500000000001
 20
2.459753637577421
 30
0.0
 11
38.575
 21
24.73081307550156
 31
0.0
  0
LINE
  5
291
330
28D
100
AcDbEntity
  8
치수문자_일반주서
 62
     0
370
    -2
100
AcDbLine
 10
-37.62499999999999
 20
2.603574928723894
 30
0.0
 11
-37.62499999999999
 21
24.73081307550156
 31
0.0
  0
LINE
  5
292
330
28D
100
AcDbEntity
  8
치수문자_일반주서
 62
     0
370
    -2
100
AcDbLine
 10
35.273
 20
24.73081307550156
 30
0.0
 11
-34.32299999999999
 21
24.73081307550156
 31
0.0
  0
SOLID
  5
293
330
28D
100
AcDbEntity
  8
치수문자_일반주서
 62
     0
100
AcDbTrace
 10
35.273
 20
24.18047974216822
 30
0.0
 11
35.273
 21
25.28114640883489
 31
0.0
 12
38.575
 22
24.73081307550156
 32
0.0
 13
38.575
 23
24.73081307550156
 33
0.0
  0
SOLID
  5
294
330
28D
100
AcDbEntity
  8
치수문자_일반주서
 62
     0
100
AcDbTrace
 10
-34.32299999999999
 20
25.28114640883489
 30
0.0
 11
-34.32299999999999
 21
24.18047974216822
 31
0.0
 12
-37.62499999999999
 22
24.73081307550156
 32
0.0
 13
-37.62499999999999
 23
24.73081307550156
 33
0.0
  0
MTEXT
  5
295
330
28D
100
AcDbEntity
  8
치수문자_일반주서
 62
     0
100
AcDbMText
 10
0.4750000000000085
 20
29.10581307550156
 30
0.0
 40
3.5
 41
0.0
 71
     2
 72
     1
  1
\A1;76.20 [3]
  7
SLDTEXTSTYLE0
 73
     1
 44
1.0
  0
POINT
  5
296
330
28D
100
AcDbEntity
  8
Defpoints
 62
     0
100
AcDbPoint
 10
38.57500000000001
 20
2.397253637577421
 30
0.0
  0
POINT
  5
297
330
28D
100
AcDbEntity
  8
Defpoints
 62
     0
100
AcDbPoint
 10
-37.62499999999999
 20
2.541074928723894
 30
0.0
  0
POINT
  5
298
330
28D
100
AcDbEntity
  8
Defpoints
 62
     0
100
AcDbPoint
 10
-37.62499999999999
 20
24.73081307550156
 30
0.0
  0
ENDBLK
  5
28F
330
28D
100
AcDbEntity
  8
0
100
AcDbBlockEnd
  0
BLOCK
  5
29A
330
299
100
AcDbEntity
  8
0
100
AcDbBlockBegin
  2
*D16
 70
     1
 10
0.0
 20
0.0
 30
0.0
  3
*D16
  1
*D16
  0
LINE
  5
29C
330
299
100
AcDbEntity
  8
치수문자_일반주서
 62
     0
370
    -2
100
AcDbLine
 10
23.7693305121255
 20
3.176074928723893
 30
0.0
 11
61.29205285939639
 21
3.176074928724031
 31
0.0
  0
LINE
  5
29D
330
299
100
AcDbEntity
  8
치수문자_일반주서
 62
     0
370
    -2
100
AcDbLine
 10
23.76933051212546
 20
-3.173925071276102
 30
0.0
 11
61.29205285939641
 21
-3.173925071275963
 31
0.0
  0
LINE
  5
29E
330
299
100
AcDbEntity
  8
치수문자_일반주서
 62
     0
370
    -2
100
AcDbLine
 10
61.29205285939639
 20
3.176074928724031
 30
0.0
 11
61.29205285939629
 21
35.15507492872403
 31
0.0
  0
LINE
  5
29F
330
299
100
AcDbEntity
  8
치수문자_일반주서
 62
     0
370
    -2
100
AcDbLine
 10
61.29205285939639
 20
3.176074928724031
 30
0.0
 11
61.29205285939641
 21
-3.173925071275963
 31
0.0
  0
LINE
  5
2A0
330
299
100
AcDbEntity
  8
치수문자_일반주서
 62
     0
370
    -2
100
AcDbLine
 10
61.29205285939638
 20
6.47807492872403
 30
0.0
 11
61.29205285939636
 21
9.78007492872403
 31
0.0
  0
LINE
  5
2A1
330
299
100
AcDbEntity
  8
치수문자_일반주서
 62
     0
370
    -2
100
AcDbLine
 10
61.29205285939643
 20
-6.475925071275963
 30
0.0
 11
61.29205285939644
 21
-9.777925071275963
 31
0.0
  0
SOLID
  5
2A2
330
299
100
AcDbEntity
  8
치수문자_일반주서
 62
     0
100
AcDbTrace
 10
60.74171952606304
 20
6.478074928724029
 30
0.0
 11
61.84238619272971
 21
6.478074928724032
 31
0.0
 12
61.29205285939639
 22
3.176074928724031
 32
0.0
 13
61.29205285939639
 23
3.176074928724031
 33
0.0
  0
SOLID
  5
2A3
330
299
100
AcDbEntity
  8
치수문자_일반주서
 62
     0
100
AcDbTrace
 10
61.84238619272976
 20
-6.475925071275961
 30
0.0
 11
60.74171952606309
 21
-6.475925071275965
 31
0.0
 12
61.29205285939641
 22
-3.173925071275963
 32
0.0
 13
61.29205285939641
 23
-3.173925071275963
 33
0.0
  0
MTEXT
  5
2A4
330
299
100
AcDbEntity
  8
치수문자_일반주서
 62
     0
100
AcDbMText
 10
56.91705285939633
 20
22.46757492872402
 30
0.0
 40
3.5
 41
0.0
 71
     2
 72
     1
  1
\A1;%%c6.35 [1/4]
  7
SLDTEXTSTYLE0
 11
-3.356894814614650E-15
 21
1.0
 31
0.0
 73
     1
 44
1.0
  0
POINT
  5
2A5
330
299
100
AcDbEntity
  8
Defpoints
 62
     0
100
AcDbPoint
 10
23.7068305121255
 20
3.176074928723892
 30
0.0
  0
POINT
  5
2A6
330
299
100
AcDbEntity
  8
Defpoints
 62
     0
100
AcDbPoint
 10
23.70683051212546
 20
-3.173925071276102
 30
0.0
  0
POINT
  5
2A7
330
299
100
AcDbEntity
  8
Defpoints
 62
     0
100
AcDbPoint
 10
61.29205285939644
 20
-3.173925071275962
 30
0.0
  0
ENDBLK
  5
29B
330
299
100
AcDbEntity
  8
0
100
AcDbBlockEnd
  0
BLOCK
  5
2A9
330
2A8
100
AcDbEntity
  8
0
100
AcDbBlockBegin
  2
*D17
 70
     1
 10
0.0
 20
0.0
 30
0.0
  3
*D17
  1
*D17
  0
LINE
  5
2AB
330
2A8
100
AcDbEntity
  8
치수문자_일반주서
 62
     0
370
    -2
100
AcDbLine
 10
39.93498271500781
 20
-5.877943732104164
 30
0.0
 11
58.22076671269713
 21
-35.74570284041943
 31
0.0
  0
MTEXT
  5
2AC
330
2A8
100
AcDbEntity
  8
치수문자_일반주서
 62
     0
100
AcDbMText
 10
53.6064152978832
 20
-23.1813082660436
 30
0.0
 40
3.5
 41
0.0
 71
     5
 72
     1
  1
\A1;R0.76 [R.03]
  7
SLDTEXTSTYLE0
 11
0.5221414160944389
 21
-0.852858922447842
 31
0.0
 73
     1
 44
1.0
  0
LINE
  5
2AD
330
2A8
100
AcDbEntity
  8
치수문자_일반주서
 62
     0
370
    -2
100
AcDbLine
 10
37.81300000000001
 20
-2.411925071276137
 30
0.0
 11
38.21087175906397
 21
-3.061803570181389
 31
0.0
  0
SOLID
  5
2AE
330
2A8
100
AcDbEntity
  8
치수문자_일반주서
 62
     0
100
AcDbTrace
 10
40.4043394086616
 20
-5.590591906113525
 30
0.0
 11
39.46562602135401
 21
-6.165295558094804
 31
0.0
 12
38.21087175906397
 22
-3.061803570181389
 32
0.0
 13
38.21087175906397
 23
-3.061803570181389
 33
0.0
  0
POINT
  5
2AF
330
2A8
100
AcDbEntity
  8
Defpoints
 62
     0
100
AcDbPoint
 10
38.21087175906397
 20
-3.061803570181389
 30
0.0
  0
POINT
  5
2B0
330
2A8
100
AcDbEntity
  8
Defpoints
 62
     0
100
AcDbPoint
 10
37.81300000000001
 20
-2.411925071276137
 30
0.0
  0
ENDBLK
  5
2AA
330
2A8
100
AcDbEntity
  8
0
100
AcDbBlockEnd
  0
BLOCK
  5
2B9
330
2B8
100
AcDbEntity
  8
0
100
AcDbBlockBegin
  2
*D18
 70
     1
 10
0.0
 20
0.0
 30
0.0
  3
*D18
  1
*D18
  0
LINE
  5
2BB
330
2B8
100
AcDbEntity
  8
치수문자_일반주서
 62
     0
370
    -2
100
AcDbLine
 10
39.91499528468979
 20
-5.997743407825167
 30
0.0
 11
57.00749655367289
 21
-36.8144395418985
 31
0.0
  0
MTEXT
  5
2BC
330
2B8
100
AcDbEntity
  8
치수문자_일반주서
 62
     0
100
AcDbMText
 10
52.61860892015849
 20
-23.48960776424051
 30
0.0
 40
3.5
 41
0.0
 71
     5
 72
     1
  1
\A1;R0.51 [R0.02]
  7
SLDTEXTSTYLE0
 11
0.4850381324645102
 21
-0.8744930017189049
 31
0.0
 73
     1
 44
1.0
  0
LINE
  5
2BD
330
2B8
100
AcDbEntity
  8
치수문자_일반주서
 62
     0
370
    -2
100
AcDbLine
 10
38.06700000000001
 20
-2.66592507127614
 30
0.0
 11
38.31339937129198
 21
-3.110167516149344
 31
0.0
  0
SOLID
  5
2BE
330
2B8
100
AcDbEntity
  8
치수문자_일반주서
 62
     0
100
AcDbTrace
 10
40.39625793330243
 20
-5.730810755592199
 30
0.0
 11
39.43373263607716
 21
-6.264676060058136
 31
0.0
 12
38.31339937129198
 22
-3.110167516149344
 32
0.0
 13
38.31339937129198
 23
-3.110167516149344
 33
0.0
  0
POINT
  5
2BF
330
2B8
100
AcDbEntity
  8
Defpoints
 62
     0
100
AcDbPoint
 10
38.31339937129198
 20
-3.110167516149344
 30
0.0
  0
POINT
  5
2C0
330
2B8
100
AcDbEntity
  8
Defpoints
 62
     0
100
AcDbPoint
 10
38.06700000000001
 20
-2.66592507127614
 30
0.0
  0
ENDBLK
  5
2BA
330
2B8
100
AcDbEntity
  8
0
100
AcDbBlockEnd
  0
ENDSEC
  0
SECTION
  2
ENTITIES
  0
LINE
  5
C9
330
1F
100
AcDbEntity
  8
참조1
100
AcDbLine
 10
0.4750000000000171
 20
0.0010749287238892
 30
0.0
 11
0.4750000000000218
 21
-39.99892507127611
 31
0.0
  0
LINE
  5
CA
330
1F
100
AcDbEntity
  8
참조1
100
AcDbLine
 10
0.4750000000000218
 20
-39.99892507127611
 30
0.0
 11
-14.68385681430865
 21
-39.9989250712761
 31
0.0
  0
INSERT
  5
CC
330
1F
100
AcDbEntity
  8
0
  6
Continuous
 62
     7
100
AcDbBlockReference
 66
     1
  2
블럭10
 10
-13.46527293212519
 20
-52.04609937292004
 30
0.0
  0
ATTRIB
  5
CD
330
CC
100
AcDbEntity
  8
FORMAT
 62
     2
100
AcDbText
 10
-23.60690894426182
 20
-49.97073246008785
 30
0.0
 40
4.233333333333333
  1
EM212016 [ 4 FLUTE ]
 41
0.75
  7
SLDTEXTSTYLE0
 11
-23.60690894426182
 21
-52.08739912675452
 31
0.0
100
AcDbAttribute
  2
AUTOATTR0
 70
     0
 74
     1
  0
SEQEND
  5
CE
330
CC
100
AcDbEntity
  8
0
  6
Continuous
 62
     7
  0
HATCH
  5
CF
330
1F
100
AcDbEntity
  8
중심선
100
AcDbHatch
 10
0.0
 20
0.0
 30
0.0
210
0.0
220
0.0
230
1.0
  2
SOLID
 70
     1
 71
     0
 91
        1
 92
        0
 93
        4
 72
     1
 10
-7.750363627744338
 20
-35.7989250712761
 11
-11.19663887158162
 21
-35.7989250712761
 72
     1
 10
-11.19663887158162
 20
-35.7989250712761
 11
-13.32486873078564
 21
-38.3352506518487
 72
     1
 10
-13.32486873078564
 20
-38.3352506518487
 11
-9.878560401835212
 21
-38.33521122254621
 72
     1
 10
-9.878560401835212
 20
-38.33521122254621
 11
-7.750363627744338
 21
-35.7989250712761
 97
        0
 75
     0
 76
     1
 98
        1
 10
0.0
 20
0.0
  0
HATCH
  5
D0
330
1F
100
AcDbEntity
  8
중심선
100
AcDbHatch
 10
0.0
 20
0.0
 30
0.0
210
0.0
220
0.0
230
1.0
  2
SOLID
 70
     1
 71
     0
 91
        1
 92
        0
 93
        4
 72
     1
 10
-2.73759963670836
 20
-35.7989250712761
 11
-6.183874880545642
 21
-35.7989250712761
 72
     1
 10
-6.183874880545642
 20
-35.7989250712761
 11
-10.71501288890306
 21
-41.19892507127612
 72
     1
 10
-10.71501288890306
 20
-41.19892507127612
 11
-7.268737645065776
 21
-41.19892507127612
 72
     1
 10
-7.268737645065776
 20
-41.19892507127612
 11
-2.73759963670836
 21
-35.7989250712761
 97
        0
 75
     0
 76
     1
 98
        1
 10
0.0
 20
0.0
  0
HATCH
  5
D1
330
1F
100
AcDbEntity
  8
중심선
100
AcDbHatch
 10
0.0
 20
0.0
 30
0.0
210
0.0
220
0.0
230
1.0
  2
SOLID
 70
     1
 71
     0
 91
        1
 92
        0
 93
        4
 72
     1
 10
2.275164354327508
 20
-35.7989250712761
 11
-1.171110889509608
 21
-35.7989250712761
 72
     1
 10
-1.171110889509608
 20
-35.7989250712761
 11
-8.219547791398856
 21
-44.19892507127612
 72
     1
 10
-8.219547791398856
 20
-44.19892507127612
 11
-4.773272547561574
 21
-44.19892507127612
 72
     1
 10
-4.773272547561574
 20
-44.19892507127612
 11
2.275164354327508
 21
-35.7989250712761
 97
        0
 75
     0
 76
     1
 98
        1
 10
0.0
 20
0.0
  0
HATCH
  5
D2
330
1F
100
AcDbEntity
  8
중심선
100
AcDbHatch
 10
0.0
 20
0.0
 30
0.0
210
0.0
220
0.0
230
1.0
  2
SOLID
 70
     1
 71
     0
 91
        1
 92
        0
 93
        6
 72
     3
 10
7.075054785339708
 20
-39.99892507132738
 11
3.960054785062284
 21
1.540850780301639E-10
 40
0.3939339440162633
 50
17.09539180608434
 51
320.0019657685074
 73
     0
 72
     1
 10
8.758054441040303
 20
-38.58681907591438
 11
11.06335631474134
 21
-36.65249236586649
 72
     3
 10
7.075054785286861
 20
-39.99892507127625
 11
6.600054785286829
 21
-1.249000902703301E-13
 40
0.6363583540795982
 50
39.99873849337408
 51
368.4976242363725
 73
     1
 72
     1
 10
13.50038727718747
 20
-39.03892507120613
 11
5.755122092122783
 21
-39.0389250712061
 72
     1
 10
5.755122092122783
 20
-39.0389250712061
 11
5.755097047676849
 21
-40.95892507120602
 72
     1
 10
5.755097047676849
 20
-40.95892507120602
 11
10.19647681714889
 21
-40.95892507120599
 97
        0
 75
     0
 76
     1
 98
        1
 10
0.0
 20
0.0
  0
LINE
  5
125
330
1F
100
AcDbEntity
  8
참조1
100
AcDbLine
 10
83.28848381534561
 20
7.441074928723896
 30
0.0
 11
83.28848381534561
 21
-7.438925071276109
 31
0.0
  0
LINE
  5
126
330
1F
100
AcDbEntity
  8
참조1
100
AcDbLine
 10
95.98848381534562
 20
5.441074928723896
 30
0.0
 11
83.28848381534561
 21
5.441074928723896
 31
0.0
  0
SOLID
  5
127
330
1F
100
AcDbEntity
  8
참조1
100
AcDbTrace
 10
83.28848381534561
 20
5.441074928723896
 30
0.0
 11
89.63848381534561
 21
4.425074928723896
 31
0.0
 12
89.63848381534561
 22
6.457074928723896
 32
0.0
 13
89.63848381534561
 23
6.457074928723896
 33
0.0
  0
LINE
  5
128
330
1F
100
AcDbEntity
  8
참조1
100
AcDbLine
 10
95.98848381534562
 20
-5.438925071276109
 30
0.0
 11
83.28848381534561
 21
-5.438925071276109
 31
0.0
  0
SOLID
  5
129
330
1F
100
AcDbEntity
  8
참조1
100
AcDbTrace
 10
83.28848381534561
 20
-5.438925071276109
 30
0.0
 11
89.63848381534561
 21
-6.454925071276109
 31
0.0
 12
89.63848381534561
 22
-4.422925071276109
 32
0.0
 13
89.63848381534561
 23
-4.422925071276109
 33
0.0
  0
MTEXT
  5
12A
330
1F
100
AcDbEntity
  8
참조1
100
AcDbMText
 10
92.88859862590819
 20
11.06679249473997
 30
0.0
 40
3.5
 41
0.0
 71
     1
 72
     1
  1
A
  7
SLDTEXTSTYLE0
 73
     1
 44
1.0
  0
MTEXT
  5
12B
330
1F
100
AcDbEntity
  8
참조1
100
AcDbMText
 10
92.88859862590819
 20
0.1867924947399659
 30
0.0
 40
3.5
 41
0.0
 71
     1
 72
     1
  1
A
  7
SLDTEXTSTYLE0
 73
     1
 44
1.0
  0
LINE
  5
238
330
1F
100
AcDbEntity
  8
외형선
  6
Continuous
 62
     1
370
    15
100
AcDbLine
 10
37.41668054751205
 20
0.9286306577367966
 30
0.0
 11
37.3702110036921
 21
0.953689837738743
 31
0.0
  0
LINE
  5
239
330
1F
100
AcDbEntity
  8
외형선
  6
Continuous
 62
     1
370
    15
100
AcDbLine
 10
33.97949347840513
 20
-0.9292003088879994
 30
0.0
 11
34.02089762666173
 21
-0.9514967636711305
 31
0.0
  0
LINE
  5
23A
330
1F
100
AcDbEntity
  8
외형선
  6
Continuous
 62
     1
370
    15
100
AcDbLine
 10
21.76963848758525
 20
-3.173925071276102
 30
0.0
 11
23.70624720107744
 21
-3.173925071276102
 31
0.0
  0
LINE
  5
23B
330
1F
100
AcDbEntity
  8
외형선
  6
Continuous
 62
     1
370
    15
100
AcDbLine
 10
30.40749041123751
 20
-3.173925071276102
 30
0.0
 11
32.34547006010197
 21
-3.173925071276102
 31
0.0
  0
LINE
  5
23C
330
1F
100
AcDbEntity
  8
외형선
  6
Continuous
 62
     1
370
    15
100
AcDbLine
 10
15.06713229232844
 20
3.176074928723892
 30
0.0
 11
13.13289408500906
 21
3.176074928723892
 31
0.0
  0
LINE
  5
23D
330
1F
100
AcDbEntity
  8
외형선
  6
Continuous
 62
     1
370
    15
100
AcDbLine
 10
23.70624720107745
 20
3.176074928723892
 30
0.0
 11
21.76963848758526
 21
3.176074928723892
 31
0.0
  0
LINE
  5
23E
330
1F
100
AcDbEntity
  8
외형선
  6
Continuous
 62
     1
370
    15
100
AcDbLine
 10
13.13289408500909
 20
-3.173925071276102
 30
0.0
 11
15.06713229232842
 21
-3.173925071276102
 31
0.0
  0
LINE
  5
23F
330
1F
100
AcDbEntity
  8
외형선
  6
Continuous
 62
     1
370
    15
100
AcDbLine
 10
32.345470060102
 20
3.176074928723892
 30
0.0
 11
30.40749041123757
 21
3.176074928723892
 31
0.0
  0
LINE
  5
240
330
1F
100
AcDbEntity
  8
외형선
  6
Continuous
370
    15
100
AcDbLine
 10
-36.98999999999999
 20
-3.173925071276102
 30
0.0
 11
9.750033753458858
 21
-3.173925071276102
 31
0.0
  0
LINE
  5
241
330
1F
100
AcDbEntity
  8
외형선
  6
Continuous
370
    15
100
AcDbLine
 10
9.750033753458858
 20
3.176074928723892
 30
0.0
 11
-36.98999999999999
 21
3.176074928723892
 31
0.0
  0
LINE
  5
242
330
1F
100
AcDbEntity
  8
외형선
  6
Continuous
370
    15
100
AcDbLine
 10
-36.98999999999999
 20
3.176074928723892
 30
0.0
 11
-37.62499999999999
 21
2.541074928723894
 31
0.0
  0
LINE
  5
243
330
1F
100
AcDbEntity
  8
외형선
  6
Continuous
370
    15
100
AcDbLine
 10
-37.62499999999999
 20
-2.538925071276104
 30
0.0
 11
-36.98999999999999
 21
-3.173925071276102
 31
0.0
  0
SPLINE
  5
244
330
1F
100
AcDbEntity
  8
외형선
  6
Continuous
 62
     1
370
    15
100
AcDbSpline
210
0.0
220
0.0
230
1.0
 70
     8
 71
     3
 72
    25
 73
    21
 74
     0
 42
0.000000001
 43
0.00000001
 40
0.0
 40
0.0
 40
0.0
 40
0.0
 40
0.0353236018685157
 40
0.0915705939193449
 40
0.1498309866394471
 40
0.2080390917145368
 40
0.2662220593564276
 40
0.3244072626407499
 40
0.3826220547954932
 40
0.4408931792482867
 40
0.499155731038669
 40
0.5573651157146224
 40
0.6155484721609865
 40
0.6737331700012763
 40
0.7319465669502668
 40
0.7902156794852777
 40
0.8527256059174453
 40
0.9152099976638125
 40
0.9776756439272443
 40
1.0
 40
1.0
 40
1.0
 40
1.0
 10
15.06713229232844
 20
3.159634339636128
 30
0.0
 10
15.3099955782038
 20
3.160715092507189
 30
0.0
 10
15.93957846761555
 20
3.16351676552604
 30
0.0
 10
16.97014754775024
 20
3.007300246909786
 30
0.0
 10
18.15799295372999
 20
2.710692802332332
 30
0.0
 10
19.35888598453327
 20
2.275615880553126
 30
0.0
 10
20.55916972261615
 20
1.734217847729369
 30
0.0
 10
21.75951266028793
 20
1.110050326672258
 30
0.0
 10
22.96055660737861
 20
0.4331301150202691
 30
0.0
 10
24.16247307312694
 20
-0.2640760676463429
 30
0.0
 10
25.3642866809167
 20
-0.9487706548060473
 30
0.0
 10
26.56520732013005
 20
-1.588472791906781
 30
0.0
 10
27.76550195047327
 20
-2.152524780943942
 30
0.0
 10
28.96583125795915
 20
-2.614244460121846
 30
0.0
 10
30.1668458146143
 20
-2.951946538798737
 30
0.0
 10
31.39793031809796
 20
-3.153428412554014
 30
0.0
 10
32.65838361814291
 20
-3.199525219078986
 30
0.0
 10
33.94755876646787
 20
-3.062201350762912
 30
0.0
 10
34.96032864434309
 20
-2.850113330567545
 30
0.0
 10
35.54338204990798
 20
-2.641068247773958
 30
0.0
 10
35.69689415601282
 20
-2.586028776905216
 30
0.0
  0
SPLINE
  5
245
330
1F
100
AcDbEntity
  8
외형선
  6
Continuous
 62
     1
370
    15
100
AcDbSpline
210
0.0
220
0.0
230
1.0
 70
     8
 71
     3
 72
    23
 73
    19
 74
     0
 42
0.000000001
 43
0.00000001
 40
0.0
 40
0.0
 40
0.0
 40
0.0
 40
0.0664333061748767
 40
0.132871921939508
 40
0.1993231858517902
 40
0.2657943913016718
 40
0.3322927606767906
 40
0.3942797312216751
 40
0.4562074312501679
 40
0.5181046010246673
 40
0.5800003438176641
 40
0.6419237755702272
 40
0.7039037667624767
 40
0.765892877595463
 40
0.827822061850747
 40
0.8897197693191103
 40
0.9516150984999826
 40
0.9999999999999999
 40
0.9999999999999999
 40
0.9999999999999999
 40
0.9999999999999999
 10
37.81300000000001
 20
-3.173925071276138
 30
0.0
 10
37.38358092193427
 20
-3.022769589101429
 30
0.0
 10
36.52470844507918
 20
-2.879560813843945
 30
0.0
 10
35.23628291048195
 20
-2.46191232151218
 30
0.0
 10
33.94756031539477
 20
-1.921710409925801
 30
0.0
 10
32.65838320188725
 20
-1.273042579771349
 30
0.0
 10
31.39793042129312
 20
-0.5717426849791636
 30
0.0
 10
30.16684578771444
 20
0.1411213241119285
 30
0.0
 10
28.96583126554332
 20
0.8306867933250075
 30
0.0
 10
27.76550194701215
 20
1.480653033046458
 30
0.0
 10
26.56520732639364
 20
2.060344462356383
 30
0.0
 10
25.36428665930546
 20
2.542285317832039
 30
0.0
 10
24.16247315338779
 20
2.903454302826155
 30
0.0
 10
22.96055630805203
 20
3.126457702427096
 30
0.0
 10
21.75951377590584
 20
3.202066929259601
 30
0.0
 10
20.55916556137402
 20
3.121669902479127
 30
0.0
 10
19.44639131502861
 20
2.923187297359441
 30
0.0
 10
18.73355960847011
 20
2.694378969074734
 30
0.0
 10
18.42080825045267
 20
2.593990455575209
 30
0.0
  0
SPLINE
  5
246
330
1F
100
AcDbEntity
  8
외형선
  6
Continuous
 62
     1
370
    15
100
AcDbSpline
210
0.0
220
0.0
230
1.0
 70
     8
 71
     3
 72
    22
 73
    18
 74
     0
 42
0.000000001
 43
0.00000001
 40
0.0
 40
0.0
 40
0.0
 40
0.0
 40
0.0680325766767804
 40
0.136024012506297
 40
0.203943020134283
 40
0.2718431540640683
 40
0.3397781991018144
 40
0.4078005684479486
 40
0.4782578463816082
 40
0.5486518901871553
 40
0.619015534006799
 40
0.6893818815033798
 40
0.7597840123369698
 40
0.8302542687048219
 40
0.900714157712793
 40
0.971109749005226
 40
1.0
 40
1.0
 40
1.0
 40
1.0
 10
10.00000000000002
 20
2.529879374924498
 30
0.0
 10
10.3869159457802
 20
2.384077750810739
 30
0.0
 10
11.16051386046352
 20
2.092562672143174
 30
0.0
 10
12.32025471065165
 20
1.532759840195531
 30
0.0
 10
13.47891209094362
 20
0.9130634933425341
 30
0.0
 10
14.63721593109312
 20
0.2509638184448306
 30
0.0
 10
15.79618238241967
 20
-0.4218366017680424
 30
0.0
 10
16.97014120783121
 20
-1.083477024086392
 30
0.0
 10
18.15799467538877
 20
-1.703570689340886
 30
0.0
 10
19.35888552585228
 20
-2.250013660535977
 30
0.0
 10
20.55916983715073
 20
-2.689364667448942
 30
0.0
 10
21.7595126607494
 20
-3.001068569508945
 30
0.0
 10
22.96055649082181
 20
-3.169636532291328
 30
0.0
 10
24.16247353936958
 20
-3.189522147237724
 30
0.0
 10
25.36428493364425
 20
-3.050374350519
 30
0.0
 10
26.32940635298127
 20
-2.844425670081577
 30
0.0
 10
26.89387171875943
 20
-2.645349658136162
 30
0.0
 10
27.05812017271338
 20
-2.587422406680666
 30
0.0
  0
LINE
  5
247
330
1F
100
AcDbEntity
  8
외형선
  6
Continuous
370
    15
100
AcDbLine
 10
10.00000000000001
 20
2.675111699305951
 30
0.0
 11
10.00000000000001
 21
2.582251260061128
 31
0.0
  0
SPLINE
  5
248
330
1F
100
AcDbEntity
  8
외형선
  6
Continuous
 62
     1
370
    15
100
AcDbSpline
210
0.0
220
0.0
230
1.0
 70
     8
 71
     3
 72
    25
 73
    21
 74
     0
 42
0.000000001
 43
0.00000001
 40
0.0
 40
0.0
 40
0.0
 40
0.0
 40
0.0118060521694951
 40
0.0706513709811095
 40
0.1294676791475875
 40
0.188282631358953
 40
0.2471238943432439
 40
0.3060189015850903
 40
0.3649225745478718
 40
0.4237693037105679
 40
0.4825861228078061
 40
0.5414006819941227
 40
0.6002406514871429
 40
0.6591334762214293
 40
0.7159910442882039
 40
0.7727756209573579
 40
0.8295310166274341
 40
0.8863021881752169
 40
0.9431338999752441
 40
0.9999999999999999
 40
0.9999999999999999
 40
0.9999999999999999
 40
0.9999999999999999
 10
30.40749041123751
 20
-3.161806519773648
 30
0.0
 10
30.32716445097339
 20
-3.165578644888257
 30
0.0
 10
29.84646699711161
 20
-3.188152305162923
 30
0.0
 10
28.96584189796092
 20
-3.081654818717226
 30
0.0
 10
27.76549910025197
 20
-2.838900338159476
 30
0.0
 10
26.5652080840357
 20
-2.448151777277069
 30
0.0
 10
25.36428647657407
 20
-1.944439130744207
 30
0.0
 10
24.16247312570169
 20
-1.347456215982902
 30
0.0
 10
22.96055660155323
 20
-0.6867589788823949
 30
0.0
 10
21.75951263110792
 20
0.0069574228185658
 30
0.0
 10
20.55916984509101
 20
0.7001925819229982
 30
0.0
 10
19.35888552372359
 20
1.360219209732662
 30
0.0
 10
18.1579946759605
 20
1.955795862928305
 30
0.0
 10
16.97014120768383
 20
2.452565633377418
 30
0.0
 10
15.79618238245852
 20
2.831358808991169
 30
0.0
 10
14.63721593108269
 20
3.080433794221513
 30
0.0
 10
13.4789120909464
 20
3.193702148330424
 30
0.0
 10
12.32025471065092
 20
3.163372492872497
 30
0.0
 10
11.16051386046372
 20
3.001551835300475
 30
0.0
 10
10.38691594578028
 20
2.783947016368415
 30
0.0
 10
10.00000000000001
 20
2.675111699305937
 30
0.0
  0
LINE
  5
249
330
1F
100
AcDbEntity
  8
외형선
  6
Continuous
 62
     1
370
    15
100
AcDbLine
 10
38.57500000000001
 20
0.9528465078525556
 30
0.0
 11
38.57500000000001
 21
2.668074928723943
 31
0.0
  0
SPLINE
  5
24A
330
1F
100
AcDbEntity
  8
외형선
  6
Continuous
 62
     1
370
    15
100
AcDbSpline
210
0.0
220
0.0
230
1.0
 70
     8
 71
     3
 72
    14
 73
    10
 74
     0
 42
0.000000001
 43
0.00000001
 40
0.0
 40
0.0
 40
0.0
 40
0.0
 40
0.25
 40
0.25
 40
0.5
 40
0.5
 40
0.75
 40
0.75
 40
1.0
 40
1.0
 40
1.0
 40
1.0
 10
37.81300000000002
 20
1.731357816925986
 30
0.0
 10
37.90952658135381
 20
1.684762987420477
 30
0.0
 10
38.0008693872127
 20
1.625493467857382
 30
0.0
 10
38.17602598486015
 20
1.488551885762114
 30
0.0
 10
38.25581319516302
 20
1.413994839244424
 30
0.0
 10
38.39973737765157
 20
1.259651902789706
 30
0.0
 10
38.46151393293712
 20
1.182030882550343
 30
0.0
 10
38.54966660146946
 20
1.046529715458263
 30
0.0
 10
38.57499999999998
 20
0.989828175977074
 30
0.0
 10
38.57499999999998
 20
0.9528465078525556
 30
0.0
  0
SPLINE
  5
24B
330
1F
100
AcDbEntity
  8
외형선
  6
Continuous
 62
     1
370
    15
100
AcDbSpline
210
0.0
220
0.0
230
1.0
 70
     8
 71
     3
 72
    15
 73
    11
 74
     0
 42
0.000000001
 43
0.00000001
 40
0.0
 40
0.0
 40
0.0
 40
0.0
 40
0.1378162113587096
 40
0.2755490821182687
 40
0.4131352322798725
 40
0.5506831492639691
 40
0.6883017870243249
 40
0.8260973210001324
 40
0.9688253431004428
 40
0.9999999999999999
 40
0.9999999999999999
 40
0.9999999999999999
 40
0.9999999999999999
 10
10.00000000000002
 20
-1.918761802062363
 30
0.0
 10
10.38691595015074
 20
-2.088266633930104
 30
0.0
 10
11.16051387357248
 20
-2.427173794236495
 30
0.0
 10
12.32025465827606
 20
-2.805157463370634
 30
0.0
 10
13.47891228709954
 20
-3.065246242271812
 30
0.0
 10
14.63721519881815
 20
-3.187234428782688
 30
0.0
 10
15.79618511845702
 20
-3.171078685678573
 30
0.0
 10
16.97013082761442
 20
-3.002807424200142
 30
0.0
 10
17.84521246668347
 20
-2.802843703110305
 30
0.0
 10
18.3333095466435
 20
-2.623916055777258
 30
0.0
 10
18.42080825045266
 20
-2.591840598127419
 30
0.0
  0
SPLINE
  5
24C
330
1F
100
AcDbEntity
  8
외형선
  6
Continuous
 62
     1
370
    15
100
AcDbSpline
210
0.0
220
0.0
230
1.0
 70
     8
 71
     3
 72
    12
 73
     8
 74
     0
 42
0.000000001
 43
0.00000001
 40
0.0
 40
0.0
 40
0.0
 40
0.0
 40
0.0572509928924358
 40
0.2930184318975531
 40
0.5287151400468347
 40
0.7643669863441384
 40
1.0
 40
1.0
 40
1.0
 40
1.0
 10
32.345470060102
 20
3.160071192686729
 30
0.0
 10
32.44982604905373
 20
3.164903317086726
 30
0.0
 10
32.9839343098348
 20
3.18963479234835
 30
0.0
 10
33.947555936104
 20
3.061745563151653
 30
0.0
 10
35.23628407789982
 20
2.773756028281717
 30
0.0
 10
36.52470815327506
 20
2.327055527381113
 30
0.0
 10
37.38358082466882
 20
1.92991843051724
 30
0.0
 10
37.81300000000004
 20
1.731357816925978
 30
0.0
  0
SPLINE
  5
24D
330
1F
100
AcDbEntity
  8
외형선
  6
Continuous
370
    15
100
AcDbSpline
210
0.0
220
0.0
230
1.0
 70
    24
 71
     3
 72
    22
 73
    18
 74
     0
 42
0.000000001
 43
0.00000001
 40
0.0
 40
0.0
 40
0.0
 40
0.0
 40
0.1249999999999999
 40
0.1249999999999999
 40
0.2499999999999999
 40
0.2499999999999999
 40
0.3749999999999998
 40
0.3749999999999998
 40
0.4999999999999999
 40
0.4999999999999999
 40
0.6249999999999999
 40
0.6249999999999999
 40
0.7499999999999999
 40
0.7499999999999999
 40
0.8749999999999999
 40
0.8749999999999999
 40
1.0
 40
1.0
 40
1.0
 40
1.0
 10
10.00000000000002
 20
1.712843706793848
 30
0.0
 10
10.00000000000002
 20
1.672719569343279
 30
0.0
 10
10.00000000000002
 20
1.619031568627577
 30
0.0
 10
10.00000000000002
 20
1.501724601528721
 30
0.0
 10
10.00000000000002
 20
1.426214175028427
 30
0.0
 10
10.00000000000002
 20
1.22765579930352
 30
0.0
 10
10.00000000000001
 20
1.104283797648996
 30
0.0
 10
10.00000000000001
 20
0.7994559104943804
 30
0.0
 10
10.00000000000001
 20
0.6174525387329695
 30
0.0
 10
10.00000000000002
 20
0.2017583640750118
 30
0.0
 10
9.999999999999993
 20
-0.0321249657119722
 30
0.0
 10
10.00000000000001
 20
-0.5141480502899611
 30
0.0
 10
10.00000000000002
 20
-0.7613078140076368
 30
0.0
 10
10.00000000000001
 20
-1.210936811402661
 30
0.0
 10
10.00000000000001
 20
-1.412097619065435
 30
0.0
 10
10.00000000000001
 20
-1.729030654329691
 30
0.0
 10
10.00000000000001
 20
-1.844825814996391
 30
0.0
 10
10.00000000000001
 20
-1.918761802062363
 30
0.0
  0
SPLINE
  5
24E
330
1F
100
AcDbEntity
  8
외형선
  6
Continuous
 62
     1
370
    15
100
AcDbSpline
210
0.0
220
0.0
230
1.0
 70
     8
 71
     3
 72
    18
 73
    14
 74
     0
 42
0.000000001
 43
0.00000001
 40
0.0
 40
0.0
 40
0.0
 40
0.0
 40
0.0008762794236211
 40
0.1028584881246021
 40
0.2048367783765613
 40
0.3068591274409688
 40
0.4089731219620411
 40
0.5075581944262595
 40
0.6060167074460914
 40
0.7044246236675288
 40
0.8028598936098476
 40
0.9014001340135745
 40
0.9999999999999999
 40
0.9999999999999999
 40
0.9999999999999999
 40
0.9999999999999999
 10
21.76963848758526
 20
-3.173282885661017
 30
0.0
 10
21.76620066430858
 20
-3.173496749325544
 30
0.0
 10
21.36266579272813
 20
-3.198600263804529
 30
0.0
 10
20.55918333909224
 20
-3.11048159527094
 30
0.0
 10
19.35888190613965
 20
-2.899396963432132
 30
0.0
 10
18.15799564757516
 20
-2.532130157780358
 30
0.0
 10
16.97014095723072
 20
-2.055039363030666
 30
0.0
 10
15.79618244847341
 20
-1.489045789445342
 30
0.0
 10
14.63721591341443
 20
-0.863853943104651
 30
0.0
 10
13.47891209567923
 20
-0.2000865953363231
 30
0.0
 10
12.32025470938721
 20
0.471230363171621
 30
0.0
 10
11.16051386077998
 20
1.127047428181157
 30
0.0
 10
10.38691594588571
 20
1.51753891217173
 30
0.0
 10
10.00000000000001
 20
1.712843706793848
 30
0.0
  0
LINE
  5
24F
330
1F
100
AcDbEntity
  8
외형선
  6
Continuous
 62
     1
370
    15
100
AcDbLine
 10
38.57500000000001
 20
-2.411925071276137
 30
0.0
 11
38.57500000000001
 21
0.2854981964730072
 31
0.0
  0
SPLINE
  5
250
330
1F
100
AcDbEntity
  8
외형선
  6
Continuous
 62
     1
370
    15
100
AcDbSpline
210
0.0
220
0.0
230
1.0
 70
     8
 71
     3
 72
    14
 73
    10
 74
     0
 42
0.000000001
 43
0.00000001
 40
0.0
 40
0.0
 40
0.0
 40
0.0
 40
0.25
 40
0.25
 40
0.5
 40
0.5
 40
0.75
 40
0.75
 40
1.0
 40
1.0
 40
1.0
 40
1.0
 10
37.81300000000002
 20
-2.661019383428645
 30
0.0
 10
37.90952658135381
 20
-2.691304650109103
 30
0.0
 10
38.00086938721267
 20
-2.707088024491036
 30
0.0
 10
38.17602598486015
 20
-2.707444945752336
 30
0.0
 10
38.25581319516305
 20
-2.692014607683454
 30
0.0
 10
38.3997373776516
 20
-2.621990594866539
 30
0.0
 10
38.4615139329371
 20
-2.567432510496516
 30
0.0
 10
38.54966660146946
 20
-2.417500647101562
 30
0.0
 10
38.57499999999998
 20
-2.321847483616466
 30
0.0
 10
38.57499999999998
 20
-2.216288339025191
 30
0.0
  0
SPLINE
  5
251
330
1F
100
AcDbEntity
  8
외형선
  6
Continuous
 62
     1
370
    15
100
AcDbSpline
210
0.0
220
0.0
230
1.0
 70
     8
 71
     3
 72
    19
 73
    15
 74
     0
 42
0.000000001
 43
0.00000001
 40
0.0
 40
0.0
 40
0.0
 40
0.0
 40
0.0323399585671637
 40
0.1175441635694321
 40
0.2026706160260604
 40
0.2877590043309888
 40
0.3728493543145517
 40
0.4579816743915276
 40
0.5431954739448949
 40
0.6346111161152798
 40
0.7259894159012902
 40
0.817340301955464
 40
0.9086738005375745
 40
1.0
 40
1.0
 40
1.0
 40
1.0
 10
23.70624720107745
 20
3.158252146549046
 30
0.0
 10
23.85833818839233
 20
3.162854684307959
 30
0.0
 10
24.41113444053487
 20
3.17958326019788
 30
0.0
 10
25.3642913263568
 20
3.051148833915157
 30
0.0
 10
26.56520607696955
 20
2.780380909219424
 30
0.0
 10
27.76550228172933
 20
2.367949639858928
 30
0.0
 10
28.9658311758239
 20
1.845686734472508
 30
0.0
 10
30.16684581172903
 20
1.234921175878277
 30
0.0
 10
31.39793041433219
 20
0.5497259011271751
 30
0.0
 10
32.65838320380657
 20
-0.1812305118863122
 30
0.0
 10
33.94756031488097
 20
-0.9198340859866576
 30
0.0
 10
35.2362829106189
 20
-1.605202909593608
 30
0.0
 10
36.52470844504494
 20
-2.213145205894826
 30
0.0
 10
37.38358092192285
 20
-2.511731968113835
 30
0.0
 10
37.81300000000004
 20
-2.661019383428652
 30
0.0
  0
SPLINE
  5
252
330
1F
100
AcDbEntity
  8
외형선
  6
Continuous
 62
     1
370
    15
100
AcDbSpline
210
0.0
220
0.0
230
1.0
 70
     8
 71
     3
 72
    16
 73
    12
 74
     0
 42
0.000000001
 43
0.00000001
 40
0.0
 40
0.0
 40
0.0
 40
0.0
 40
0.119788778990881
 40
0.2395871319335981
 40
0.3594082913005448
 40
0.4792654081198265
 40
0.599171505392199
 40
0.7109429035425364
 40
0.8226074284511594
 40
0.9342169029331405
 40
1.0
 40
1.0
 40
1.0
 40
1.0
 10
37.81300000000002
 20
0.7073601316650908
 30
0.0
 10
37.3835809217686
 20
0.9454013178320508
 30
0.0
 10
36.52470844458224
 20
1.421502715277249
 30
0.0
 10
35.23628291247017
 20
2.047686360871651
 30
0.0
 10
33.94756030793645
 20
2.564753081426204
 30
0.0
 10
32.65838322974574
 20
2.941058934075215
 30
0.0
 10
31.39793032025759
 20
3.151420134278652
 30
0.0
 10
30.16684613627859
 20
3.199278482194956
 30
0.0
 10
28.9658299632949
 20
3.088539443875533
 30
0.0
 10
27.92975437342553
 20
2.884229299729753
 30
0.0
 10
27.2939118436427
 20
2.669281934445124
 30
0.0
 10
27.05812017271342
 20
2.589572264128456
 30
0.0
  0
SPLINE
  5
253
330
1F
100
AcDbEntity
  8
외형선
  6
Continuous
 62
     1
370
    15
100
AcDbSpline
210
0.0
220
0.0
230
1.0
 70
     8
 71
     3
 72
    10
 73
     6
 74
     0
 42
0.000000001
 43
0.00000001
 40
0.0
 40
0.0
 40
0.0
 40
0.0
 40
0.2593279867813083
 40
0.6295519842181287
 40
1.0
 40
1.0
 40
1.0
 40
1.0
 10
13.13289408500909
 20
-3.159174025494984
 30
0.0
 10
12.86214421723592
 20
-3.158076244403546
 30
0.0
 10
12.20486415040246
 20
-3.155411239854935
 30
0.0
 10
11.16051081102874
 20
-2.996460364251298
 30
0.0
 10
10.386914929097
 20
-2.780816423362452
 30
0.0
 10
10.00000000000001
 20
-2.67296184185814
 30
0.0
  0
SPLINE
  5
254
330
1F
100
AcDbEntity
  8
외형선
  6
Continuous
 62
     1
370
    15
100
AcDbSpline
210
0.0
220
0.0
230
1.0
 70
     8
 71
     3
 72
    14
 73
    10
 74
     0
 42
0.000000001
 43
0.00000001
 40
0.0
 40
0.0
 40
0.0
 40
0.0
 40
0.25
 40
0.25
 40
0.5
 40
0.5
 40
0.75
 40
0.75
 40
1.0
 40
1.0
 40
1.0
 40
1.0
 10
38.57500000000001
 20
0.2854981964730072
 30
0.0
 10
38.57500000000001
 20
0.3050505577674443
 30
0.0
 10
38.55319783600377
 20
0.3249655137740177
 30
0.0
 10
38.47061647300546
 20
0.3729645404196589
 30
0.0
 10
38.40946745611767
 20
0.401388516306568
 30
0.0
 10
38.26277595022295
 20
0.4709224767020004
 30
0.0
 10
38.17627738024374
 20
0.5127309410414256
 30
0.0
 10
37.99714839254744
 20
0.6053440602846152
 30
0.0
 10
37.90421321715467
 20
0.6561626762533379
 30
0.0
 10
37.81300000000002
 20
0.7073601316650766
 30
0.0
  0
LINE
  5
255
330
1F
100
AcDbEntity
  8
외형선
  6
Continuous
370
    15
100
AcDbLine
 10
10.00000000000001
 20
1.712843706793841
 30
0.0
 11
10.00000000000002
 21
2.529879374924498
 31
0.0
  0
LINE
  5
256
330
1F
100
AcDbEntity
  8
외형선
  6
Continuous
 62
     1
370
    15
100
AcDbLine
 10
38.57500000000001
 20
0.2854981964730072
 30
0.0
 11
38.57500000000001
 21
0.9528465078525556
 31
0.0
  0
LINE
  5
257
330
1F
100
AcDbEntity
  8
외형선
  6
Continuous
370
    15
100
AcDbLine
 10
10.00000000000001
 20
-2.672961841858147
 30
0.0
 11
10.00000000000002
 21
-1.91876180206237
 31
0.0
  0
LINE
  5
258
330
1F
100
AcDbEntity
  8
외형선
  6
Continuous
 62
     1
370
    15
100
AcDbLine
 10
38.57500000000001
 20
-2.66592507127614
 30
0.0
 11
38.57500000000001
 21
-2.216288339025191
 31
0.0
  0
LINE
  5
259
330
1F
100
AcDbEntity
  8
외형선
  6
Continuous
370
    15
100
AcDbLine
 10
9.750033753458858
 20
-3.173925071276102
 30
0.0
 11
9.750033753458858
 21
-2.592107049914155
 31
0.0
  0
LINE
  5
25A
330
1F
100
AcDbEntity
  8
외형선
  6
Continuous
370
    15
100
AcDbLine
 10
9.750033753458858
 20
-2.612649911406905
 30
0.0
 11
9.780996244096777
 21
-2.602131103614191
 31
0.0
  0
LINE
  5
25B
330
1F
100
AcDbEntity
  8
외형선
  6
Continuous
370
    15
100
AcDbLine
 10
10.00000000000002
 20
2.675111699305944
 30
0.0
 11
9.780996244096734
 21
2.604280961061981
 31
0.0
  0
LINE
  5
25C
330
1F
100
AcDbEntity
  8
외형선
  6
Continuous
370
    15
100
AcDbLine
 10
9.750033753458844
 20
2.614785930958128
 30
0.0
 11
9.750033753458858
 21
3.176074928723892
 31
0.0
  0
SPLINE
  5
25D
330
1F
100
AcDbEntity
  8
외형선
  6
Continuous
370
    15
100
AcDbSpline
210
0.0
220
0.0
230
1.0
 70
     8
 71
     3
 72
     8
 73
     4
 74
     0
 42
0.000000001
 43
0.00000001
 40
0.0
 40
0.0
 40
0.0
 40
0.0
 40
1.0
 40
1.0
 40
1.0
 40
1.0
 10
10.00000000000001
 20
2.529879374924498
 30
0.0
 10
9.916385501799745
 20
2.559107332388415
 30
0.0
 10
9.833182874542338
 20
2.587408813647542
 30
0.0
 10
9.750033753458858
 20
2.614799768854681
 30
0.0
  0
SPLINE
  5
25E
330
1F
100
AcDbEntity
  8
외형선
  6
Continuous
370
    15
100
AcDbSpline
210
0.0
220
0.0
230
1.0
 70
     8
 71
     3
 72
     8
 73
     4
 74
     0
 42
0.000000001
 43
0.00000001
 40
0.0
 40
0.0
 40
0.0
 40
0.0
 40
1.0
 40
1.0
 40
1.0
 40
1.0
 10
10.00000000000002
 20
1.712843706793841
 30
0.0
 10
9.916385501799759
 20
1.753553748295914
 30
0.0
 10
9.833182874542224
 20
1.79360229451872
 30
0.0
 10
9.750033753458858
 20
1.833008307647368
 30
0.0
  0
LINE
  5
25F
330
1F
100
AcDbEntity
  8
외형선
  6
Continuous
370
    15
100
AcDbLine
 10
9.750033753458844
 20
-1.801462115777476
 30
0.0
 11
9.750033753458858
 21
1.833022587819734
 31
0.0
  0
SPLINE
  5
260
330
1F
100
AcDbEntity
  8
외형선
  6
Continuous
370
    15
100
AcDbSpline
210
0.0
220
0.0
230
1.0
 70
     8
 71
     3
 72
     8
 73
     4
 74
     0
 42
0.000000001
 43
0.00000001
 40
0.0
 40
0.0
 40
0.0
 40
0.0
 40
1.0
 40
1.0
 40
1.0
 40
1.0
 10
10.00000000000001
 20
-1.91876180206237
 30
0.0
 10
9.916385501799745
 20
-1.880262804932627
 30
0.0
 10
9.833182874542338
 20
-1.841160078510178
 30
0.0
 10
9.750033753458858
 20
-1.801442050414806
 30
0.0
  0
SPLINE
  5
261
330
1F
100
AcDbEntity
  8
외형선
  6
Continuous
370
    15
100
AcDbSpline
210
0.0
220
0.0
230
1.0
 70
     8
 71
     3
 72
     8
 73
     4
 74
     0
 42
0.000000001
 43
0.00000001
 40
0.0
 40
0.0
 40
0.0
 40
0.0
 40
1.0
 40
1.0
 40
1.0
 40
1.0
 10
10.00000000000002
 20
-2.672961841858147
 30
0.0
 10
9.916385501799759
 20
-2.646901550255642
 30
0.0
 10
9.833182874542224
 20
-2.619955103354997
 30
0.0
 10
9.750033753458858
 20
-2.592117138051321
 30
0.0
  0
LINE
  5
262
330
1F
100
AcDbEntity
  8
외형선
  6
Continuous
370
    15
100
AcDbLine
 10
-36.98999999999999
 20
0.0010749287238951
 30
0.0
 11
-36.98999999999999
 21
3.176074928723892
 31
0.0
  0
LINE
  5
263
330
1F
100
AcDbEntity
  8
외형선
  6
Continuous
370
    15
100
AcDbLine
 10
-36.98999999999999
 20
-3.173925071276109
 30
0.0
 11
-36.98999999999999
 21
0.0010749287238951
 31
0.0
  0
LINE
  5
264
330
1F
100
AcDbEntity
  8
외형선
  6
Continuous
370
    15
100
AcDbLine
 10
-37.62499999999999
 20
0.0010749287238951
 30
0.0
 11
-37.62499999999999
 21
2.541074928723894
 31
0.0
  0
LINE
  5
265
330
1F
100
AcDbEntity
  8
외형선
  6
Continuous
370
    15
100
AcDbLine
 10
-37.62499999999999
 20
-2.538925071276104
 30
0.0
 11
-37.62499999999999
 21
0.0010749287238951
 31
0.0
  0
SPLINE
  5
266
330
1F
100
AcDbEntity
  8
외형선
  6
Continuous
370
    15
100
AcDbSpline
210
0.0
220
0.0
230
1.0
 70
    24
 71
     3
 72
    22
 73
    18
 74
     0
 42
0.000000001
 43
0.00000001
 40
0.0
 40
0.0
 40
0.0
 40
0.0
 40
0.1249999999999999
 40
0.1249999999999999
 40
0.2499999999999999
 40
0.2499999999999999
 40
0.3749999999999999
 40
0.3749999999999999
 40
0.5
 40
0.5
 40
0.625
 40
0.625
 40
0.7500000000000001
 40
0.7500000000000001
 40
0.8750000000000001
 40
0.8750000000000001
 40
1.0
 40
1.0
 40
1.0
 40
1.0
 10
10.00000000000002
 20
-1.918761802062363
 30
0.0
 10
10.00000000000002
 20
-1.844825814996391
 30
0.0
 10
10.00000000000004
 20
-1.729030654329691
 30
0.0
 10
10.00000000000001
 20
-1.412097619065442
 30
0.0
 10
10.00000000000001
 20
-1.210936811402668
 30
0.0
 10
10.00000000000002
 20
-0.7613078140076439
 30
0.0
 10
10.00000000000002
 20
-0.5141480502899682
 30
0.0
 10
10.00000000000004
 20
-0.0321249657119864
 30
0.0
 10
10.00000000000002
 20
0.2017583640749976
 30
0.0
 10
10.00000000000002
 20
0.6174525387329552
 30
0.0
 10
10.00000000000002
 20
0.7994559104943662
 30
0.0
 10
10.00000000000002
 20
1.104283797648982
 30
0.0
 10
10.00000000000002
 20
1.227655799303513
 30
0.0
 10
10.00000000000002
 20
1.426214175028413
 30
0.0
 10
10.00000000000002
 20
1.501724601528714
 30
0.0
 10
10.00000000000002
 20
1.61903156862757
 30
0.0
 10
10.00000000000002
 20
1.672719569343272
 30
0.0
 10
10.00000000000002
 20
1.712843706793848
 30
0.0
  0
LINE
  5
267
330
1F
100
AcDbEntity
  8
외형선
  6
Continuous
370
    15
100
AcDbLine
 10
10.00000000000002
 20
2.582251260061128
 30
0.0
 11
10.00000000000001
 21
2.675111699305965
 31
0.0
  0
LINE
  5
268
330
1F
100
AcDbEntity
  8
중심선
 62
     1
100
AcDbLine
 10
-40.62499999999999
 20
0.001074928723888
 30
0.0
 11
41.57500000000001
 21
0.0010749287239022
 31
0.0
  0
CIRCLE
  5
269
330
1F
100
AcDbEntity
  8
해칭선
100
AcDbCircle
 10
0.0
 20
0.0
 30
0.0
 40
3.000000000000002
  0
DIMENSION
  5
26A
330
1F
100
AcDbEntity
  8
치수문자_일반주서
100
AcDbDimension
  2
*D13
 10
-50.62499999999999
 20
-3.173925071276166
 30
0.0
 11
-50.625
 21
0.0010749287239094
 31
0.0
 70
   160
  1
%%c<>
 71
     2
 42
6.350000000000023
 52
-270.0
  3
SLDDIMSTYLE0
100
AcDbAlignedDimension
 13
-36.98999999999999
 23
3.176074928723907
 33
0.0
 14
-36.98999999999999
 24
-3.173925071276116
 34
0.0
 50
90.0000000000002
100
AcDbRotatedDimension
1001
ACAD
1000
DSTYLE
1002
{
1070
   171
1070
     6
1070
   273
1070
     7
1002
}
  0
DIMENSION
  5
26B
330
1F
100
AcDbEntity
  8
치수문자_일반주서
100
AcDbDimension
  2
*D14
 10
10.00000000000001
 20
12.94803701825289
 30
0.0
 11
24.2875
 21
12.94803701825289
 31
0.0
 70
   160
  1
<>
 71
     2
 42
28.575
  3
SLDDIMSTYLE0
100
AcDbAlignedDimension
 13
38.57500000000001
 23
2.397253637577421
 33
0.0
 14
10.00000000000001
 24
2.675111699305965
 34
0.0
100
AcDbRotatedDimension
1001
ACAD
1000
DSTYLE
1002
{
1070
   171
1070
     6
1070
   273
1070
     7
1002
}
  0
DIMENSION
  5
26C
330
1F
100
AcDbEntity
  8
치수문자_일반주서
100
AcDbDimension
  2
*D15
 10
-37.62499999999999
 20
24.73081307550156
 30
0.0
 11
0.4750000000000085
 21
24.73081307550156
 31
0.0
 70
   160
  1
<>
 71
     2
 42
76.19999999999999
  3
SLDDIMSTYLE1
100
AcDbAlignedDimension
 13
38.57500000000001
 23
2.397253637577421
 33
0.0
 14
-37.62499999999999
 24
2.541074928723894
 34
0.0
 50
0.0000000000000053
100
AcDbRotatedDimension
1001
ACAD
1000
DSTYLE
1002
{
1070
   171
1070
     6
1070
   273
1070
     7
1002
}
  0
DIMENSION
  5
26D
330
1F
100
AcDbEntity
  8
치수문자_일반주서
100
AcDbDimension
  2
*D16
 10
61.29205285939641
 20
-3.173925071275963
 30
0.0
 11
61.29205285939633
 21
22.46757492872403
 31
0.0
 70
   160
  1
%%c<>
 71
     2
 42
6.349999999999994
 52
-270.0
  3
SLDDIMSTYLE0
100
AcDbAlignedDimension
 13
23.7068305121255
 23
3.176074928723892
 33
0.0
 14
23.70683051212546
 24
-3.173925071276102
 34
0.0
 50
90.0000000000002
100
AcDbRotatedDimension
1001
ACAD
1000
DSTYLE
1002
{
1070
   171
1070
     6
1070
   273
1070
     7
1002
}
  0
INSERT
  5
26E
330
1F
100
AcDbEntity
  8
해칭선
100
AcDbBlockReference
  2
SW_DOWELSYMBOL_0
 10
0.0
 20
0.0
 30
0.0
  0
SPLINE
  5
26F
330
1F
100
AcDbEntity
  8
외형선
  6
Continuous
 62
     1
370
    15
100
AcDbSpline
210
0.0
220
0.0
230
1.0
 70
     8
 71
     3
 72
     9
 73
     5
 74
     0
 42
0.000000001
 43
0.00000001
 40
0.2166206418339243
 40
0.2166206418339243
 40
0.2166206418339243
 40
0.2166206418339243
 40
0.6087919864318831
 40
1.0
 40
1.0
 40
1.0
 40
1.0
 10
38.06700000000001
 20
3.176074928723943
 30
0.0
 10
37.07798982113277
 20
2.975708459846594
 30
0.0
 10
36.52542188531371
 20
2.867705994558882
 30
0.0
 10
35.97284356170697
 20
2.68127800350647
 30
0.0
 10
35.69689415601282
 20
2.588178634353007
 30
0.0
  0
ARC
  5
2B3
330
1F
100
AcDbEntity
  8
외형선
  6
Continuous
 62
     1
370
    15
100
AcDbCircle
 10
38.06700000000001
 20
2.668074928723943
 30
0.0
 40
0.508
100
AcDbArc
 50
0.0
 51
90.0
  0
ARC
  5
2B4
102
{ACAD_REACTORS
102
}
330
1F
100
AcDbEntity
  8
외형선
  6
Continuous
 62
     1
370
    15
100
AcDbCircle
 10
38.06700000000001
 20
-2.66592507127614
 30
0.0
 40
0.508
100
AcDbArc
 50
270.0
 51
0.0
  0
DIMENSION
  5
2B5
102
{ACAD_REACTORS
102
}
102
{ACAD_XDICTIONARY
360
2B6
102
}
330
1F
100
AcDbEntity
  8
치수문자_일반주서
100
AcDbDimension
  2
*D18
 10
38.06700000000001
 20
-2.66592507127614
 30
0.0
 11
50.32306479064636
 21
-24.76283286195985
 31
0.0
 70
   164
  1
<>
 71
     5
 42
0.508000000000001
  3
SLDDIMSTYLE0
100
AcDbRadialDimension
 15
38.31339937129198
 25
-3.110167516149344
 35
0.0
 40
0.0
1001
ACAD
1000
DSTYLE
1002
{
1070
    78
1070
     8
1070
   171
1070
     2
1070
   273
1070
     2
1002
}
1001
ACAD_DSTYLE_DIMRADIAL_EXTENSION
1070
   387
1070
     1
1070
   388
1040
4.71238898038469
1070
   390
1040
0.0
  0
ENDSEC
  0
SECTION
  2
OBJECTS
  0
DICTIONARY
  5
C
330
0
100
AcDbDictionary
281
     1
  3
ACAD_GROUP
350
D
  3
ACAD_IMAGE_VARS
350
156
  3
ACAD_LAYOUT
350
1A
  3
ACAD_MLINESTYLE
350
17
  3
ACAD_PLOTSETTINGS
350
19
  3
ACAD_PLOTSTYLENAME
350
E
  3
ACAD_SCALELIST
350
47
  3
APPDATA
350
154
  3
DWGPROPS
350
2C2
  0
DICTIONARY
  5
2B6
330
2B5
100
AcDbDictionary
280
     1
281
     1
  0
DICTIONARY
  5
D
102
{ACAD_REACTORS
330
C
102
}
330
C
100
AcDbDictionary
281
     1
  0
RASTERVARIABLES
  5
156
102
{ACAD_REACTORS
330
C
102
}
330
C
100
AcDbRasterVariables
 90
        0
 70
     1
 71
     1
 72
     1
  0
DICTIONARY
  5
1A
102
{ACAD_REACTORS
330
C
102
}
330
C
100
AcDbDictionary
281
     1
  3
Layout1
350
1E
  3
Layout2
350
26
  3
Model
350
22
  0
DICTIONARY
  5
17
102
{ACAD_REACTORS
330
C
102
}
330
C
100
AcDbDictionary
281
     1
  3
Standard
350
18
  0
DICTIONARY
  5
19
102
{ACAD_REACTORS
330
C
102
}
330
C
100
AcDbDictionary
281
     1
  0
ACDBDICTIONARYWDFLT
  5
E
102
{ACAD_REACTORS
330
C
102
}
330
C
100
AcDbDictionary
281
     1
  3
Normal
350
F
100
AcDbDictionaryWithDefault
340
F
  0
DICTIONARY
  5
47
102
{ACAD_REACTORS
330
C
102
}
330
C
100
AcDbDictionary
281
     1
  3
A0
350
48
  3
A1
350
49
  3
A2
350
4A
  3
A3
350
4B
  3
A4
350
4C
  3
A5
350
4D
  3
A6
350
4E
  3
A7
350
4F
  3
A8
350
50
  3
A9
350
51
  3
B0
350
52
  3
B1
350
53
  3
B2
350
54
  3
B3
350
55
  3
B4
350
56
  3
B5
350
57
  3
B6
350
58
  3
B7
350
59
  3
B8
350
5A
  3
B9
350
5B
  3
C0
350
5C
  3
C1
350
5D
  3
C2
350
5E
  3
C3
350
5F
  3
C4
350
60
  3
C5
350
61
  3
C6
350
62
  3
C7
350
63
  3
C8
350
64
  3
C9
350
65
  3
D0
350
66
  3
D1
350
67
  3
D2
350
68
  0
DICTIONARY
  5
154
102
{ACAD_REACTORS
330
C
102
}
330
C
100
AcDbDictionary
281
     1
  0
XRECORD
  5
2C2
102
{ACAD_REACTORS
330
C
102
}
330
C
100
AcDbXrecord
280
     1
  1
DWGPROPS COOKIE
  2

  3

  4

  6

  7

  8
12016016
  9

300
=
301
=
302
=
303
=
304
=
305
=
306
=
307
=
308
=
309
=
 40
0.0
 41
2458304.072020614
 42
2458304.200390741
  1

 90
        0
  0
LAYOUT
  5
1E
102
{ACAD_REACTORS
330
1A
102
}
330
1A
100
AcDbPlotSettings
  1

  2
none_device
  4

  6

 40
0.0
 41
0.0
 42
0.0
 43
0.0
 44
0.0
 45
0.0
 46
0.0
 47
0.0
 48
0.0
 49
0.0
140
0.0
141
0.0
142
1.0
143
1.0
 70
   688
 72
     1
 73
     0
 74
     5
  7

 75
    16
147
1.0
148
0.0
149
0.0
100
AcDbLayout
  1
Layout1
 70
     1
 71
     1
 10
0.0
 20
0.0
 11
420.0
 21
297.0
 12
0.0
 22
0.0
 32
0.0
 14
1.000000000000000E+20
 24
1.000000000000000E+20
 34
1.000000000000000E+20
 15
-1.000000000000000E+20
 25
-1.000000000000000E+20
 35
-1.000000000000000E+20
146
0.0
 13
0.0
 23
0.0
 33
0.0
 16
1.0
 26
0.0
 36
0.0
 17
0.0
 27
1.0
 37
0.0
 76
     0
330
1B
  0
LAYOUT
  5
26
102
{ACAD_REACTORS
330
1A
102
}
330
1A
100
AcDbPlotSettings
  1

  2
none_device
  4

  6

 40
0.0
 41
0.0
 42
0.0
 43
0.0
 44
0.0
 45
0.0
 46
0.0
 47
0.0
 48
0.0
 49
0.0
140
0.0
141
0.0
142
1.0
143
1.0
 70
   688
 72
     1
 73
     0
 74
     5
  7

 75
    16
147
1.0
148
0.0
149
0.0
100
AcDbLayout
  1
Layout2
 70
     1
 71
     2
 10
0.0
 20
0.0
 11
0.0
 21
0.0
 12
0.0
 22
0.0
 32
0.0
 14
0.0
 24
0.0
 34
0.0
 15
0.0
 25
0.0
 35
0.0
146
0.0
 13
0.0
 23
0.0
 33
0.0
 16
1.0
 26
0.0
 36
0.0
 17
0.0
 27
1.0
 37
0.0
 76
     0
330
23
  0
LAYOUT
  5
22
102
{ACAD_REACTORS
330
1A
102
}
330
1A
100
AcDbPlotSettings
  1

  2
none_device
  4
ANSI_A_(11.00_x_8.50_Inches)
  6

 40
6.35
 41
19.05
 42
6.35000508
 43
19.05000254
 44
279.4
 45
215.9
 46
102.9749998161693
 47
102.025799257822
 48
0.0
 49
0.0
140
0.0
141
0.0
142
0.0691839873389899
143
1.0
 70
  1696
 72
     0
 73
     0
 74
     0
  7

 75
     0
147
0.0235690232323232
148
0.0
149
0.0
100
AcDbLayout
  1
Model
 70
     1
 71
     0
 10
0.0
 20
0.0
 11
420.0
 21
297.0
 12
0.0
 22
0.0
 32
0.0
 14
1.000000000000000E+20
 24
1.000000000000000E+20
 34
1.000000000000000E+20
 15
-1.000000000000000E+20
 25
-1.000000000000000E+20
 35
-1.000000000000000E+20
146
0.0
 13
0.0
 23
0.0
 33
0.0
 16
1.0
 26
0.0
 36
0.0
 17
0.0
 27
1.0
 37
0.0
 76
     0
330
1F
331
29
  0
MLINESTYLE
  5
18
102
{ACAD_REACTORS
330
17
102
}
330
17
100
AcDbMlineStyle
  2
Standard
 70
     0
  3

 62
   256
 51
90.0
 52
90.0
 71
     2
 49
0.5
 62
   256
  6
BYLAYER
 49
-0.5
 62
   256
  6
BYLAYER
  0
ACDBPLACEHOLDER
  5
F
102
{ACAD_REACTORS
330
E
102
}
330
E
  0
SCALE
  5
48
102
{ACAD_REACTORS
330
47
102
}
330
47
100
AcDbScale
 70
     0
300
1:1
140
1.0
141
1.0
290
     1
  0
SCALE
  5
49
102
{ACAD_REACTORS
330
47
102
}
330
47
100
AcDbScale
 70
     0
300
1:2
140
1.0
141
2.0
290
     0
  0
SCALE
  5
4A
102
{ACAD_REACTORS
330
47
102
}
330
47
100
AcDbScale
 70
     0
300
1:4
140
1.0
141
4.0
290
     0
  0
SCALE
  5
4B
102
{ACAD_REACTORS
330
47
102
}
330
47
100
AcDbScale
 70
     0
300
1:5
140
1.0
141
5.0
290
     0
  0
SCALE
  5
4C
102
{ACAD_REACTORS
330
47
102
}
330
47
100
AcDbScale
 70
     0
300
1:8
140
1.0
141
8.0
290
     0
  0
SCALE
  5
4D
102
{ACAD_REACTORS
330
47
102
}
330
47
100
AcDbScale
 70
     0
300
1:10
140
1.0
141
10.0
290
     0
  0
SCALE
  5
4E
102
{ACAD_REACTORS
330
47
102
}
330
47
100
AcDbScale
 70
     0
300
1:16
140
1.0
141
16.0
290
     0
  0
SCALE
  5
4F
102
{ACAD_REACTORS
330
47
102
}
330
47
100
AcDbScale
 70
     0
300
1:20
140
1.0
141
20.0
290
     0
  0
SCALE
  5
50
102
{ACAD_REACTORS
330
47
102
}
330
47
100
AcDbScale
 70
     0
300
1:30
140
1.0
141
30.0
290
     0
  0
SCALE
  5
51
102
{ACAD_REACTORS
330
47
102
}
330
47
100
AcDbScale
 70
     0
300
1:40
140
1.0
141
40.0
290
     0
  0
SCALE
  5
52
102
{ACAD_REACTORS
330
47
102
}
330
47
100
AcDbScale
 70
     0
300
1:50
140
1.0
141
50.0
290
     0
  0
SCALE
  5
53
102
{ACAD_REACTORS
330
47
102
}
330
47
100
AcDbScale
 70
     0
300
1:100
140
1.0
141
100.0
290
     0
  0
SCALE
  5
54
102
{ACAD_REACTORS
330
47
102
}
330
47
100
AcDbScale
 70
     0
300
2:1
140
2.0
141
1.0
290
     0
  0
SCALE
  5
55
102
{ACAD_REACTORS
330
47
102
}
330
47
100
AcDbScale
 70
     0
300
4:1
140
4.0
141
1.0
290
     0
  0
SCALE
  5
56
102
{ACAD_REACTORS
330
47
102
}
330
47
100
AcDbScale
 70
     0
300
8:1
140
8.0
141
1.0
290
     0
  0
SCALE
  5
57
102
{ACAD_REACTORS
330
47
102
}
330
47
100
AcDbScale
 70
     0
300
10:1
140
10.0
141
1.0
290
     0
  0
SCALE
  5
58
102
{ACAD_REACTORS
330
47
102
}
330
47
100
AcDbScale
 70
     0
300
100:1
140
100.0
141
1.0
290
     0
  0
SCALE
  5
59
102
{ACAD_REACTORS
330
47
102
}
330
47
100
AcDbScale
 70
     0
300
1/128" = 1'-0"
140
0.0078125
141
12.0
290
     0
  0
SCALE
  5
5A
102
{ACAD_REACTORS
330
47
102
}
330
47
100
AcDbScale
 70
     0
300
1/64" = 1'-0"
140
0.015625
141
12.0
290
     0
  0
SCALE
  5
5B
102
{ACAD_REACTORS
330
47
102
}
330
47
100
AcDbScale
 70
     0
300
1/32" = 1'-0"
140
0.03125
141
12.0
290
     0
  0
SCALE
  5
5C
102
{ACAD_REACTORS
330
47
102
}
330
47
100
AcDbScale
 70
     0
300
1/16" = 1'-0"
140
0.0625
141
12.0
290
     0
  0
SCALE
  5
5D
102
{ACAD_REACTORS
330
47
102
}
330
47
100
AcDbScale
 70
     0
300
3/32" = 1'-0"
140
0.09375
141
12.0
290
     0
  0
SCALE
  5
5E
102
{ACAD_REACTORS
330
47
102
}
330
47
100
AcDbScale
 70
     0
300
1/8" = 1'-0"
140
0.125
141
12.0
290
     0
  0
SCALE
  5
5F
102
{ACAD_REACTORS
330
47
102
}
330
47
100
AcDbScale
 70
     0
300
3/16" = 1'-0"
140
0.1875
141
12.0
290
     0
  0
SCALE
  5
60
102
{ACAD_REACTORS
330
47
102
}
330
47
100
AcDbScale
 70
     0
300
1/4" = 1'-0"
140
0.25
141
12.0
290
     0
  0
SCALE
  5
61
102
{ACAD_REACTORS
330
47
102
}
330
47
100
AcDbScale
 70
     0
300
3/8" = 1'-0"
140
0.375
141
12.0
290
     0
  0
SCALE
  5
62
102
{ACAD_REACTORS
330
47
102
}
330
47
100
AcDbScale
 70
     0
300
1/2" = 1'-0"
140
0.5
141
12.0
290
     0
  0
SCALE
  5
63
102
{ACAD_REACTORS
330
47
102
}
330
47
100
AcDbScale
 70
     0
300
3/4" = 1'-0"
140
0.75
141
12.0
290
     0
  0
SCALE
  5
64
102
{ACAD_REACTORS
330
47
102
}
330
47
100
AcDbScale
 70
     0
300
1" = 1'-0"
140
1.0
141
12.0
290
     0
  0
SCALE
  5
65
102
{ACAD_REACTORS
330
47
102
}
330
47
100
AcDbScale
 70
     0
300
1-1/2" = 1'-0"
140
1.5
141
12.0
290
     0
  0
SCALE
  5
66
102
{ACAD_REACTORS
330
47
102
}
330
47
100
AcDbScale
 70
     0
300
3" = 1'-0"
140
3.0
141
12.0
290
     0
  0
SCALE
  5
67
102
{ACAD_REACTORS
330
47
102
}
330
47
100
AcDbScale
 70
     0
300
6" = 1'-0"
140
6.0
141
12.0
290
     0
  0
SCALE
  5
68
102
{ACAD_REACTORS
330
47
102
}
330
47
100
AcDbScale
 70
     0
300
1'-0" = 1'-0"
140
12.0
141
12.0
290
     0
  0
ENDSEC
  0
EOF
