  0
SECTION
  2
HEADER
  9
$ACADVER
  1
AC1015
  9
$ACADMAINTVER
 70
     6
  9
$DWGCODEPAGE
  3
ANSI_949
  9
$INSBASE
 10
0.0
 20
0.0
 30
0.0
  9
$EXTMIN
 10
1.000000000000000E+20
 20
1.000000000000000E+20
 30
1.000000000000000E+20
  9
$EXTMAX
 10
-1.000000000000000E+20
 20
-1.000000000000000E+20
 30
-1.000000000000000E+20
  9
$LIMMIN
 10
0.0
 20
0.0
  9
$LIMMAX
 10
420.0
 20
297.0
  9
$ORTHOMODE
 70
     0
  9
$REGENMODE
 70
     1
  9
$FILLMODE
 70
     1
  9
$QTEXTMODE
 70
     0
  9
$MIRRTEXT
 70
     1
  9
$LTSCALE
 40
1.0
  9
$ATTMODE
 70
     1
  9
$TEXTSIZE
 40
3.5
  9
$TRACEWID
 40
1.0
  9
$TEXTSTYLE
  7
Standard
  9
$CLAYER
  8
0
  9
$CELTYPE
  6
ByLayer
  9
$CECOLOR
 62
   256
  9
$CELTSCALE
 40
1.0
  9
$DISPSILH
 70
     0
  9
$DIMSCALE
 40
1.0
  9
$DIMASZ
 40
3.302
  9
$DIMEXO
 40
1.0
  9
$DIMDLI
 40
3.75
  9
$DIMRND
 40
0.0
  9
$DIMDLE
 40
0.0
  9
$DIMEXE
 40
1.0
  9
$DIMTP
 40
0.0
  9
$DIMTM
 40
0.0
  9
$DIMTXT
 40
3.5
  9
$DIMCEN
 40
2.5
  9
$DIMTSZ
 40
0.0
  9
$DIMTOL
 70
     0
  9
$DIMLIM
 70
     0
  9
$DIMTIH
 70
     1
  9
$DIMTOH
 70
     1
  9
$DIMSE1
 70
     0
  9
$DIMSE2
 70
     0
  9
$DIMTAD
 70
     1
  9
$DIMZIN
 70
     0
  9
$DIMBLK
  1

  9
$DIMASO
 70
     1
  9
$DIMSHO
 70
     1
  9
$DIMPOST
  1

  9
$DIMAPOST
  1

  9
$DIMALT
 70
     0
  9
$DIMALTD
 70
     3
  9
$DIMALTF
 40
0.0393700787401575
  9
$DIMLFAC
 40
1.0
  9
$DIMTOFL
 70
     1
  9
$DIMTVP
 40
0.0
  9
$DIMTIX
 70
     0
  9
$DIMSOXD
 70
     0
  9
$DIMSAH
 70
     0
  9
$DIMBLK1
  1

  9
$DIMBLK2
  1

  9
$DIMSTYLE
  2
ISO-25
  9
$DIMCLRD
 70
     0
  9
$DIMCLRE
 70
     0
  9
$DIMCLRT
 70
     0
  9
$DIMTFAC
 40
1.0
  9
$DIMGAP
 40
1.524
  9
$DIMJUST
 70
     0
  9
$DIMSD1
 70
     0
  9
$DIMSD2
 70
     0
  9
$DIMTOLJ
 70
     0
  9
$DIMTZIN
 70
     0
  9
$DIMALTZ
 70
     0
  9
$DIMALTTZ
 70
     0
  9
$DIMUPT
 70
     0
  9
$DIMDEC
 70
     2
  9
$DIMTDEC
 70
     2
  9
$DIMALTU
 70
     2
  9
$DIMALTTD
 70
     3
  9
$DIMTXSTY
  7
Standard
  9
$DIMAUNIT
 70
     0
  9
$DIMADEC
 70
     2
  9
$DIMALTRND
 40
0.0
  9
$DIMAZIN
 70
     0
  9
$DIMDSEP
 70
    44
  9
$DIMATFIT
 70
     3
  9
$DIMFRAC
 70
     0
  9
$DIMLDRBLK
  1

  9
$DIMLUNIT
 70
     2
  9
$DIMLWD
 70
    -2
  9
$DIMLWE
 70
    -2
  9
$DIMTMOVE
 70
     0
  9
$LUNITS
 70
     2
  9
$LUPREC
 70
     2
  9
$SKETCHINC
 40
1.0
  9
$FILLETRAD
 40
10.0
  9
$AUNITS
 70
     0
  9
$AUPREC
 70
     2
  9
$MENU
  1
.
  9
$ELEVATION
 40
0.0
  9
$PELEVATION
 40
0.0
  9
$THICKNESS
 40
0.0
  9
$LIMCHECK
 70
     0
  9
$CHAMFERA
 40
0.0
  9
$CHAMFERB
 40
0.0
  9
$CHAMFERC
 40
0.0
  9
$CHAMFERD
 40
0.0
  9
$SKPOLY
 70
     0
  9
$TDCREATE
 40
2458304.449363414
  9
$TDUCREATE
 40
2458304.074363414
  9
$TDUPDATE
 40
2458304.572893461
  9
$TDUUPDATE
 40
2458304.197893461
  9
$TDINDWG
 40
0.0017468403
  9
$TDUSRTIMER
 40
2458304.196146898
  9
$USRTIMER
 70
     1
  9
$ANGBASE
 50
0.0
  9
$ANGDIR
 70
     0
  9
$PDMODE
 70
     0
  9
$PDSIZE
 40
-1.0
  9
$PLINEWID
 40
0.0
  9
$SPLFRAME
 70
     0
  9
$SPLINETYPE
 70
     6
  9
$SPLINESEGS
 70
     8
  9
$HANDSEED
  5
28F
  9
$SURFTAB1
 70
     6
  9
$SURFTAB2
 70
     6
  9
$SURFTYPE
 70
     6
  9
$SURFU
 70
     6
  9
$SURFV
 70
     6
  9
$UCSBASE
  2

  9
$UCSNAME
  2

  9
$UCSORG
 10
0.0
 20
0.0
 30
0.0
  9
$UCSXDIR
 10
1.0
 20
0.0
 30
0.0
  9
$UCSYDIR
 10
0.0
 20
1.0
 30
0.0
  9
$UCSORTHOREF
  2

  9
$UCSORTHOVIEW
 70
     0
  9
$UCSORGTOP
 10
0.0
 20
0.0
 30
0.0
  9
$UCSORGBOTTOM
 10
0.0
 20
0.0
 30
0.0
  9
$UCSORGLEFT
 10
0.0
 20
0.0
 30
0.0
  9
$UCSORGRIGHT
 10
0.0
 20
0.0
 30
0.0
  9
$UCSORGFRONT
 10
0.0
 20
0.0
 30
0.0
  9
$UCSORGBACK
 10
0.0
 20
0.0
 30
0.0
  9
$PUCSBASE
  2

  9
$PUCSNAME
  2

  9
$PUCSORG
 10
0.0
 20
0.0
 30
0.0
  9
$PUCSXDIR
 10
1.0
 20
0.0
 30
0.0
  9
$PUCSYDIR
 10
0.0
 20
1.0
 30
0.0
  9
$PUCSORTHOREF
  2

  9
$PUCSORTHOVIEW
 70
     0
  9
$PUCSORGTOP
 10
0.0
 20
0.0
 30
0.0
  9
$PUCSORGBOTTOM
 10
0.0
 20
0.0
 30
0.0
  9
$PUCSORGLEFT
 10
0.0
 20
0.0
 30
0.0
  9
$PUCSORGRIGHT
 10
0.0
 20
0.0
 30
0.0
  9
$PUCSORGFRONT
 10
0.0
 20
0.0
 30
0.0
  9
$PUCSORGBACK
 10
0.0
 20
0.0
 30
0.0
  9
$USERI1
 70
     0
  9
$USERI2
 70
     0
  9
$USERI3
 70
     0
  9
$USERI4
 70
     0
  9
$USERI5
 70
     0
  9
$USERR1
 40
0.0
  9
$USERR2
 40
0.0
  9
$USERR3
 40
0.0
  9
$USERR4
 40
0.0
  9
$USERR5
 40
0.0
  9
$WORLDVIEW
 70
     1
  9
$SHADEDGE
 70
     3
  9
$SHADEDIF
 70
    70
  9
$TILEMODE
 70
     1
  9
$MAXACTVP
 70
    64
  9
$PINSBASE
 10
0.0
 20
0.0
 30
0.0
  9
$PLIMCHECK
 70
     0
  9
$PEXTMIN
 10
1.000000000000000E+20
 20
1.000000000000000E+20
 30
1.000000000000000E+20
  9
$PEXTMAX
 10
-1.000000000000000E+20
 20
-1.000000000000000E+20
 30
-1.000000000000000E+20
  9
$PLIMMIN
 10
0.0
 20
0.0
  9
$PLIMMAX
 10
0.0
 20
0.0
  9
$UNITMODE
 70
     0
  9
$VISRETAIN
 70
     1
  9
$PLINEGEN
 70
     0
  9
$PSLTSCALE
 70
     1
  9
$TREEDEPTH
 70
  3020
  9
$CMLSTYLE
  2
Standard
  9
$CMLJUST
 70
     0
  9
$CMLSCALE
 40
20.0
  9
$PROXYGRAPHICS
 70
     1
  9
$MEASUREMENT
 70
     1
  9
$CELWEIGHT
370
    -1
  9
$ENDCAPS
280
     0
  9
$JOINSTYLE
280
     0
  9
$LWDISPLAY
290
     1
  9
$INSUNITS
 70
     4
  9
$HYPERLINKBASE
  1

  9
$STYLESHEET
  1

  9
$XEDIT
290
     1
  9
$CEPSNTYPE
380
     0
  9
$PSTYLEMODE
290
     1
  9
$FINGERPRINTGUID
  2
{3F4CE64B-420B-4B28-83B9-95F3D83D1081}
  9
$VERSIONGUID
  2
{FAEB1C32-E019-11D5-929B-00C0DF256EC4}
  9
$EXTNAMES
290
     1
  9
$PSVPSCALE
 40
0.0
  9
$OLESTARTUP
290
     0
  0
ENDSEC
  0
SECTION
  2
CLASSES
  0
CLASS
  1
ACDBDICTIONARYWDFLT
  2
AcDbDictionaryWithDefault
  3
ObjectDBX Classes
 90
        0
280
     0
281
     0
  0
CLASS
  1
VISUALSTYLE
  2
AcDbVisualStyle
  3
ObjectDBX Classes
 90
     4095
280
     0
281
     0
  0
CLASS
  1
MATERIAL
  2
AcDbMaterial
  3
ObjectDBX Classes
 90
     1153
280
     0
281
     0
  0
CLASS
  1
SCALE
  2
AcDbScale
  3
ObjectDBX Classes
 90
     1153
280
     0
281
     0
  0
CLASS
  1
SUN
  2
AcDbSun
  3
SCENEOE
 90
     1153
280
     0
281
     0
  0
CLASS
  1
ACDBPLACEHOLDER
  2
AcDbPlaceHolder
  3
ObjectDBX Classes
 90
        0
280
     0
281
     0
  0
CLASS
  1
LAYOUT
  2
AcDbLayout
  3
ObjectDBX Classes
 90
        0
280
     0
281
     0
  0
CLASS
  1
TABLESTYLE
  2
AcDbTableStyle
  3
ObjectDBX Classes
 90
     4095
280
     0
281
     0
  0
CLASS
  1
MLEADERSTYLE
  2
AcDbMLeaderStyle
  3
ACDB_MLEADERSTYLE_CLASS
 90
     4095
280
     0
281
     0
  0
CLASS
  1
RASTERVARIABLES
  2
AcDbRasterVariables
  3
ISM
 90
        0
280
     0
281
     0
  0
CLASS
  1
DIMASSOC
  2
AcDbDimAssoc
  3
"AcDbDimAssoc|Product Desc:     AcDim ARX App For Dimension|Company:          Autodesk, Inc.|WEB Address:      www.autodesk.com"
 90
        0
280
     0
281
     0
  0
ENDSEC
  0
SECTION
  2
TABLES
  0
TABLE
  2
VPORT
  5
8
330
0
100
AcDbSymbolTable
 70
     1
  0
VPORT
  5
29
330
8
100
AcDbSymbolTableRecord
100
AcDbViewportTableRecord
  2
*Active
 70
     0
 10
0.0
 20
0.0
 11
1.0
 21
1.0
 12
-3.687769735300478
 22
-1.833013841460286
 13
0.0
 23
0.0
 14
10.0
 24
10.0
 15
10.0
 25
10.0
 16
0.0
 26
0.0
 36
1.0
 17
0.0
 27
0.0
 37
0.0
 40
103.6536969679029
 41
1.547388781431335
 42
50.0
 43
0.0
 44
0.0
 50
0.0
 51
0.0
 71
    16
 72
  2000
 73
     1
 74
     3
 75
     0
 76
     0
 77
     0
 78
     0
281
     0
 65
     1
110
0.0
120
0.0
130
0.0
111
1.0
121
0.0
131
0.0
112
0.0
122
1.0
132
0.0
 79
     0
146
0.0
  0
ENDTAB
  0
TABLE
  2
LTYPE
  5
5
330
0
100
AcDbSymbolTable
 70
     6
  0
LTYPE
  5
14
330
5
100
AcDbSymbolTableRecord
100
AcDbLinetypeTableRecord
  2
ByBlock
 70
     0
  3

 72
    65
 73
     0
 40
0.0
  0
LTYPE
  5
15
330
5
100
AcDbSymbolTableRecord
100
AcDbLinetypeTableRecord
  2
ByLayer
 70
     0
  3

 72
    65
 73
     0
 40
0.0
  0
LTYPE
  5
16
330
5
100
AcDbSymbolTableRecord
100
AcDbLinetypeTableRecord
  2
Continuous
 70
     0
  3
Solid line
 72
    65
 73
     0
 40
0.0
  0
LTYPE
  5
6A
330
5
100
AcDbSymbolTableRecord
100
AcDbLinetypeTableRecord
  2
HIDDEN
 70
     0
  3
Hidden __ __ __ __ __ __ __ __ __ __ __ __ __ __
 72
    65
 73
     2
 40
1.905
 49
1.27
 74
     0
 49
-0.635
 74
     0
  0
LTYPE
  5
6B
330
5
100
AcDbSymbolTableRecord
100
AcDbLinetypeTableRecord
  2
PHANTOM
 70
     0
  3
Phantom ______  __  __  ______  __  __  ______
 72
    65
 73
     6
 40
12.7
 49
6.35
 74
     0
 49
-1.27
 74
     0
 49
1.27
 74
     0
 49
-1.27
 74
     0
 49
1.27
 74
     0
 49
-1.27
 74
     0
  0
LTYPE
  5
6C
330
5
100
AcDbSymbolTableRecord
100
AcDbLinetypeTableRecord
  2
CENTER
 70
     0
  3
Center ____ _ ____ _ ____ _ ____ _ ____ _ ____
 72
    65
 73
     4
 40
10.16
 49
6.35
 74
     0
 49
-1.27
 74
     0
 49
1.27
 74
     0
 49
-1.27
 74
     0
  0
LTYPE
  5
6D
330
5
100
AcDbSymbolTableRecord
100
AcDbLinetypeTableRecord
  2
CENTERX2
 70
     0
  3
Center (2x) ________  __  ________  __  _____
 72
    65
 73
     4
 40
20.32
 49
12.7
 74
     0
 49
-2.54
 74
     0
 49
2.54
 74
     0
 49
-2.54
 74
     0
  0
LTYPE
  5
6E
330
5
100
AcDbSymbolTableRecord
100
AcDbLinetypeTableRecord
  2
DOT2
 70
     0
  3
Dot (.5x) ........................................
 72
    65
 73
     2
 40
0.635
 49
0.0
 74
     0
 49
-0.635
 74
     0
  0
ENDTAB
  0
TABLE
  2
LAYER
  5
2
330
0
100
AcDbSymbolTable
 70
    18
  0
LAYER
  5
10
330
2
100
AcDbSymbolTableRecord
100
AcDbLayerTableRecord
  2
0
 70
     0
 62
     7
  6
Continuous
370
    -3
390
F
  0
LAYER
  5
6F
330
2
100
AcDbSymbolTableRecord
100
AcDbLayerTableRecord
  2
FORMAT
 70
     0
 62
     2
  6
Continuous
370
    -3
390
F
  0
LAYER
  5
70
330
2
100
AcDbSymbolTableRecord
100
AcDbLayerTableRecord
  2
외형선
 70
     0
 62
     4
  6
Continuous
370
    30
390
F
  0
LAYER
  5
71
330
2
100
AcDbSymbolTableRecord
100
AcDbLayerTableRecord
  2
숨은선
 70
     0
 62
     2
  6
HIDDEN
370
    15
390
F
  0
LAYER
  5
72
330
2
100
AcDbSymbolTableRecord
100
AcDbLayerTableRecord
  2
중심선
 70
     0
 62
     1
  6
CENTERX2
370
    -3
390
F
  0
LAYER
  5
73
330
2
100
AcDbSymbolTableRecord
100
AcDbLayerTableRecord
  2
파단선
 70
     0
 62
     4
  6
Continuous
370
    -3
390
F
  0
LAYER
  5
74
330
2
100
AcDbSymbolTableRecord
100
AcDbLayerTableRecord
  2
해칭선
 70
     0
 62
   100
  6
Continuous
370
    -3
390
F
  0
LAYER
  5
75
330
2
100
AcDbSymbolTableRecord
100
AcDbLayerTableRecord
  2
가는실선
 70
     0
 62
     4
  6
Continuous
370
    -3
390
F
  0
LAYER
  5
76
330
2
100
AcDbSymbolTableRecord
100
AcDbLayerTableRecord
  2
치수_보조선
 70
     0
 62
     4
  6
Continuous
370
    -3
390
F
  0
LAYER
  5
77
330
2
100
AcDbSymbolTableRecord
100
AcDbLayerTableRecord
  2
치수문자_일반주서
 70
     0
 62
     7
  6
Continuous
370
    15
390
F
  0
LAYER
  5
78
330
2
100
AcDbSymbolTableRecord
100
AcDbLayerTableRecord
  2
개별주서
 70
     0
 62
   100
  6
Continuous
370
    30
390
F
  0
LAYER
  5
79
330
2
100
AcDbSymbolTableRecord
100
AcDbLayerTableRecord
  2
중간선
 70
     0
 62
     2
  6
Continuous
370
    15
390
F
  0
LAYER
  5
7A
330
2
100
AcDbSymbolTableRecord
100
AcDbLayerTableRecord
  2
윤곽선
 70
     0
 62
     3
  6
Continuous
370
    40
390
F
  0
LAYER
  5
7B
330
2
100
AcDbSymbolTableRecord
100
AcDbLayerTableRecord
  2
중심마크
 70
     0
 62
   100
  6
Continuous
370
    30
390
F
  0
LAYER
  5
7C
330
2
100
AcDbSymbolTableRecord
100
AcDbLayerTableRecord
  2
가상선
 70
     0
 62
     4
  6
PHANTOM
370
    -3
390
F
  0
LAYER
  5
7D
330
2
100
AcDbSymbolTableRecord
100
AcDbLayerTableRecord
  2
특수지정선
 70
     0
 62
     5
  6
CENTERX2
370
    60
390
F
  0
LAYER
  5
7E
330
2
100
AcDbSymbolTableRecord
100
AcDbLayerTableRecord
  2
참조1
 70
     0
 62
    -4
  6
Continuous
370
    -3
390
F
  0
LAYER
  5
153
330
2
100
AcDbSymbolTableRecord
100
AcDbLayerTableRecord
  2
Defpoints
 70
     0
 62
     7
  6
Continuous
290
     0
370
    -3
390
F
  0
ENDTAB
  0
TABLE
  2
STYLE
  5
3
330
0
100
AcDbSymbolTable
 70
     2
  0
STYLE
  5
11
330
3
100
AcDbSymbolTableRecord
100
AcDbTextStyleTableRecord
  2
Standard
 70
     0
 40
0.0
 41
1.0
 50
0.0
 71
     0
 42
3.5
  3
txt
  4

  0
STYLE
  5
94
330
3
100
AcDbSymbolTableRecord
100
AcDbTextStyleTableRecord
  2
SLDTEXTSTYLE0
 70
     0
 40
0.0
 41
0.75
 50
0.0
 71
     0
 42
3.5
  3
TXT
  4

  0
ENDTAB
  0
TABLE
  2
VIEW
  5
6
330
0
100
AcDbSymbolTable
 70
     0
  0
ENDTAB
  0
TABLE
  2
UCS
  5
7
330
0
100
AcDbSymbolTable
 70
     0
  0
ENDTAB
  0
TABLE
  2
APPID
  5
9
330
0
100
AcDbSymbolTable
 70
     2
  0
APPID
  5
12
330
9
100
AcDbSymbolTableRecord
100
AcDbRegAppTableRecord
  2
ACAD
 70
     0
  0
APPID
  5
161
330
9
100
AcDbSymbolTableRecord
100
AcDbRegAppTableRecord
  2
ACAD_DSTYLE_DIMRADIAL_EXTENSION
 70
     0
  0
ENDTAB
  0
TABLE
  2
DIMSTYLE
  5
A
330
0
100
AcDbSymbolTable
 70
     4
100
AcDbDimStyleTable
  0
DIMSTYLE
105
27
330
A
100
AcDbSymbolTableRecord
100
AcDbDimStyleTableRecord
  2
ISO-25
 70
     0
 41
2.5
 42
0.625
 43
3.75
 44
1.25
 73
     0
 74
     0
 77
     1
 78
     8
140
2.5
141
2.5
143
0.03937007874016
147
0.625
171
     3
172
     1
178
     0
271
     2
272
     2
274
     3
278
    44
283
     0
284
     8
340
11
  0
DIMSTYLE
105
D0
102
{ACAD_REACTORS
330
1AB
330
1B8
330
22A
330
22B
102
}
330
A
100
AcDbSymbolTableRecord
100
AcDbDimStyleTableRecord
  2
SLDDIMSTYLE0
 70
     0
 41
3.302
 44
0.0
 45
0.000000001
 73
     0
 74
     0
 77
     1
 78
    12
 79
     3
140
3.5
143
0.0393700787401575
147
0.875
148
0.000000001
170
     1
172
     1
173
     1
178
     0
271
     2
272
     2
276
     2
284
    12
289
     0
340
94
  0
DIMSTYLE
105
FA
102
{ACAD_REACTORS
330
1C5
330
22C
102
}
330
A
100
AcDbSymbolTableRecord
100
AcDbDimStyleTableRecord
  2
SLDDIMSTYLE1
 70
     0
 41
3.302
 44
0.0
 45
0.000000001
 73
     0
 74
     0
 77
     1
 78
     4
 79
     1
140
3.5
143
0.0393700787401575
147
0.875
148
0.000000001
170
     1
173
     1
178
     0
271
     2
272
     2
276
     2
284
    12
340
94
  0
DIMSTYLE
105
10E
102
{ACAD_REACTORS
330
1D2
330
1EF
330
22D
330
280
102
}
330
A
100
AcDbSymbolTableRecord
100
AcDbDimStyleTableRecord
  2
SLDDIMSTYLE2
 70
     0
 41
3.302
 44
0.0
 45
0.000000001
 73
     0
 74
     0
 77
     1
 78
    12
 79
     3
140
3.5
143
0.0393700787401575
147
0.875
148
0.000000001
170
     1
173
     1
178
     0
271
     2
272
     2
276
     2
284
    12
340
94
  0
ENDTAB
  0
TABLE
  2
BLOCK_RECORD
  5
1
330
0
100
AcDbSymbolTable
 70
    19
  0
BLOCK_RECORD
  5
1F
330
1
100
AcDbSymbolTableRecord
100
AcDbBlockTableRecord
  2
*Model_Space
340
22
  0
BLOCK_RECORD
  5
1B
330
1
100
AcDbSymbolTableRecord
100
AcDbBlockTableRecord
  2
*Paper_Space
340
1E
  0
BLOCK_RECORD
  5
23
330
1
100
AcDbSymbolTableRecord
100
AcDbBlockTableRecord
  2
*Paper_Space0
340
26
  0
BLOCK_RECORD
  5
7F
330
1
100
AcDbSymbolTableRecord
100
AcDbBlockTableRecord
  2
블럭10
340
0
102
{BLKREFS
331
C8
102
}
  0
BLOCK_RECORD
  5
D1
330
1
100
AcDbSymbolTableRecord
100
AcDbBlockTableRecord
  2
_D
340
0
  0
BLOCK_RECORD
  5
E5
330
1
100
AcDbSymbolTableRecord
100
AcDbBlockTableRecord
  2
_D_1
340
0
  0
BLOCK_RECORD
  5
FB
330
1
100
AcDbSymbolTableRecord
100
AcDbBlockTableRecord
  2
_D_2
340
0
  0
BLOCK_RECORD
  5
10F
330
1
100
AcDbSymbolTableRecord
100
AcDbBlockTableRecord
  2
_D_3
340
0
  0
BLOCK_RECORD
  5
128
330
1
100
AcDbSymbolTableRecord
100
AcDbBlockTableRecord
  2
SW_DOWELSYMBOL_0
340
0
102
{BLKREFS
331
0
331
1E1
331
22E
102
}
  0
BLOCK_RECORD
  5
1AC
330
1
100
AcDbSymbolTableRecord
100
AcDbBlockTableRecord
  2
*D8
340
0
  0
BLOCK_RECORD
  5
1B9
330
1
100
AcDbSymbolTableRecord
100
AcDbBlockTableRecord
  2
*D9
340
0
  0
BLOCK_RECORD
  5
1C6
330
1
100
AcDbSymbolTableRecord
100
AcDbBlockTableRecord
  2
*D10
340
0
  0
BLOCK_RECORD
  5
1D3
330
1
100
AcDbSymbolTableRecord
100
AcDbBlockTableRecord
  2
*D11
340
0
  0
BLOCK_RECORD
  5
1F2
330
1
100
AcDbSymbolTableRecord
100
AcDbBlockTableRecord
  2
*D12
340
0
  0
BLOCK_RECORD
  5
239
330
1
100
AcDbSymbolTableRecord
100
AcDbBlockTableRecord
  2
*D13
340
0
  0
BLOCK_RECORD
  5
245
330
1
100
AcDbSymbolTableRecord
100
AcDbBlockTableRecord
  2
*D14
340
0
  0
BLOCK_RECORD
  5
251
330
1
100
AcDbSymbolTableRecord
100
AcDbBlockTableRecord
  2
*D15
340
0
  0
BLOCK_RECORD
  5
25D
330
1
100
AcDbSymbolTableRecord
100
AcDbBlockTableRecord
  2
*D16
340
0
  0
BLOCK_RECORD
  5
26B
330
1
100
AcDbSymbolTableRecord
100
AcDbBlockTableRecord
  2
*D17
340
0
  0
BLOCK_RECORD
  5
283
330
1
100
AcDbSymbolTableRecord
100
AcDbBlockTableRecord
  2
*D18
340
0
  0
ENDTAB
  0
ENDSEC
  0
SECTION
  2
BLOCKS
  0
BLOCK
  5
20
330
1F
100
AcDbEntity
  8
0
100
AcDbBlockBegin
  2
*Model_Space
 70
     0
 10
0.0
 20
0.0
 30
0.0
  3
*Model_Space
  1
*Model_Space
  0
ENDBLK
  5
21
330
1F
100
AcDbEntity
  8
0
100
AcDbBlockEnd
  0
BLOCK
  5
1C
330
1B
100
AcDbEntity
 67
     1
  8
0
100
AcDbBlockBegin
  2
*Paper_Space
 70
     0
 10
0.0
 20
0.0
 30
0.0
  3
*Paper_Space
  1
*Paper_Space
  0
ENDBLK
  5
1D
330
1B
100
AcDbEntity
 67
     1
  8
0
100
AcDbBlockEnd
  0
BLOCK
  5
24
330
23
100
AcDbEntity
  8
0
100
AcDbBlockBegin
  2
*Paper_Space0
 70
     0
 10
0.0
 20
0.0
 30
0.0
  3
*Paper_Space0
  1
*Paper_Space0
  0
ENDBLK
  5
25
330
23
100
AcDbEntity
  8
0
100
AcDbBlockEnd
  0
BLOCK
  5
80
330
7F
100
AcDbEntity
  8
0
100
AcDbBlockBegin
  2
블럭10
 70
     2
 10
0.0
 20
0.0
 30
0.0
  3
블럭10
  1
블럭10
  0
ELLIPSE
  5
82
330
7F
100
AcDbEntity
  8
중심선
100
AcDbEllipse
 10
20.54032771741204
 20
12.0471743016438
 30
0.0
 11
6.600054785286829
 21
-1.261213355974178E-13
 31
0.0
210
0.0
220
0.0
230
1.0
 40
0.636358354079598
 41
0.9219305317359503
 42
6.513795318482858
  0
ELLIPSE
  5
83
330
7F
100
AcDbEntity
  8
중심선
100
AcDbEllipse
 10
20.54032771746488
 20
12.04717430159265
 30
0.0
 11
3.960054785062283
 21
1.540847449632565E-10
 31
0.0
210
0.0
220
0.0
230
1.0
 40
0.3939339440162632
 41
1.131841032648279
 42
5.62031148352944
  0
LINE
  5
84
330
7F
100
AcDbEntity
  8
중심선
100
AcDbLine
 10
2.268634060543552
 20
16.24717430164393
 30
0.0
 11
5.714909304380834
 21
16.24717430164393
 31
0.0
  0
LINE
  5
85
330
7F
100
AcDbEntity
  8
중심선
100
AcDbLine
 10
5.245725140726316
 20
7.84717430164391
 30
0.0
 11
8.692000384563599
 21
7.84717430164391
 31
0.0
  0
LINE
  5
86
330
7F
100
AcDbEntity
  8
중심선
100
AcDbLine
 10
15.74043728645272
 20
16.24717430164393
 30
0.0
 11
8.692000384563599
 21
7.84717430164391
 31
0.0
  0
LINE
  5
87
330
7F
100
AcDbEntity
  8
중심선
100
AcDbLine
 10
0.1404042013395286
 20
13.71084872107135
 30
0.0
 11
3.58671253028996
 21
13.71088815037384
 31
0.0
  0
LINE
  5
88
330
7F
100
AcDbEntity
  8
중심선
100
AcDbLine
 10
2.750260043222114
 20
10.84717430164391
 30
0.0
 11
6.196535287059397
 21
10.84717430164391
 31
0.0
  0
LINE
  5
89
330
7F
100
AcDbEntity
  8
중심선
100
AcDbLine
 10
12.29416204261559
 20
16.24717430164393
 30
0.0
 11
5.245725140726316
 21
7.84717430164391
 31
0.0
  0
LINE
  5
8A
330
7F
100
AcDbEntity
  8
중심선
100
AcDbLine
 10
10.72767329541681
 20
16.24717430164393
 30
0.0
 11
6.196535287059397
 21
10.84717430164391
 31
0.0
  0
LINE
  5
8B
330
7F
100
AcDbEntity
  8
중심선
100
AcDbLine
 10
7.28139805157953
 20
16.24717430164393
 30
0.0
 11
2.750260043222114
 21
10.84717430164391
 31
0.0
  0
LINE
  5
8C
330
7F
100
AcDbEntity
  8
중심선
100
AcDbLine
 10
5.714909304380834
 20
16.24717430164393
 30
0.0
 11
3.58671253028996
 21
13.71088815037384
 31
0.0
  0
LINE
  5
8D
330
7F
100
AcDbEntity
  8
중심선
100
AcDbLine
 10
2.268634060543552
 20
16.24717430164393
 30
0.0
 11
0.1404042013395286
 21
13.71084872107135
 31
0.0
  0
LINE
  5
8E
330
7F
100
AcDbEntity
  8
중심선
100
AcDbLine
 10
7.28139805157953
 20
16.24717430164393
 30
0.0
 11
10.72767329541681
 21
16.24717430164393
 31
0.0
  0
LINE
  5
8F
330
7F
100
AcDbEntity
  8
중심선
100
AcDbLine
 10
12.29416204261559
 20
16.24717430164393
 30
0.0
 11
15.74043728645272
 21
16.24717430164393
 31
0.0
  0
LINE
  5
90
330
7F
100
AcDbEntity
  8
중심선
100
AcDbLine
 10
19.22036997980202
 20
11.08717430171403
 30
0.0
 11
23.66174974927406
 21
11.08717430171406
 31
0.0
  0
LINE
  5
91
330
7F
100
AcDbEntity
  8
중심선
100
AcDbLine
 10
19.22039502424796
 20
13.00717430171391
 30
0.0
 11
19.22036997980202
 21
11.08717430171403
 31
0.0
  0
LINE
  5
92
330
7F
100
AcDbEntity
  8
중심선
100
AcDbLine
 10
19.22039502424796
 20
13.00717430171391
 30
0.0
 11
26.96566020931264
 21
13.00717430171391
 31
0.0
  0
LINE
  5
93
330
7F
100
AcDbEntity
  8
중심선
100
AcDbLine
 10
22.22332737316547
 20
13.45928029700563
 30
0.0
 11
24.52862924686651
 21
15.39360700705356
 31
0.0
  0
ATTDEF
  5
95
330
7F
100
AcDbEntity
  8
FORMAT
 62
     2
100
AcDbText
 10
3.448148490846466
 20
2.075366912832191
 30
0.0
 40
4.233333333333333
  1
EM212902
 41
0.75
  7
SLDTEXTSTYLE0
 11
3.448148490846466
 21
-0.0412997538344756
 31
0.0
100
AcDbAttributeDefinition
  3

  2
AUTOATTR0
 70
     0
 74
     1
  0
ENDBLK
  5
81
330
7F
100
AcDbEntity
  8
0
100
AcDbBlockEnd
  0
BLOCK
  5
D2
330
D1
100
AcDbEntity
  8
0
100
AcDbBlockBegin
  2
_D
 70
     0
 10
0.0
 20
0.0
 30
0.0
  3
_D
  1
_D
  0
SOLID
  5
D4
330
D1
100
AcDbEntity
  8
치수문자_일반주서
100
AcDbTrace
 10
-50.46624999999999
 20
3.968749999999992
 30
0.0
 11
-49.95824999999999
 21
7.270749999999992
 31
0.0
 12
-50.97424999999999
 22
7.270749999999992
 32
0.0
 13
-50.97424999999999
 23
7.270749999999992
 33
0.0
  0
SOLID
  5
D5
330
D1
100
AcDbEntity
  8
치수문자_일반주서
100
AcDbTrace
 10
-50.46624999999999
 20
-3.968749999999994
 30
0.0
 11
-50.97424999999999
 21
-7.270749999999993
 31
0.0
 12
-49.95824999999999
 22
-7.270749999999993
 32
0.0
 13
-49.95824999999999
 23
-7.270749999999993
 33
0.0
  0
LINE
  5
D6
330
D1
100
AcDbEntity
  8
치수문자_일반주서
100
AcDbLine
 10
-61.25913171604271
 20
-5.414366431068721
 30
0.0
 11
-61.2591317160427
 21
-6.125303916633221
 31
0.0
  0
LINE
  5
D7
330
D1
100
AcDbEntity
  8
치수문자_일반주서
100
AcDbLine
 10
-61.2591317160427
 20
-6.125303916633221
 30
0.0
 11
-55.7028817249834
 21
-6.125303916633182
 31
0.0
  0
LINE
  5
D8
330
D1
100
AcDbEntity
  8
치수문자_일반주서
100
AcDbLine
 10
-55.7028817249834
 20
-6.125303916633182
 30
0.0
 11
-55.70288172498341
 21
-5.414366431068682
 31
0.0
  0
LINE
  5
D9
330
D1
100
AcDbEntity
  8
치수문자_일반주서
100
AcDbLine
 10
-61.25913171604278
 20
5.414366431068537
 30
0.0
 11
-61.25913171604279
 21
6.125303916633037
 31
0.0
  0
LINE
  5
DA
330
D1
100
AcDbEntity
  8
치수문자_일반주서
100
AcDbLine
 10
-61.25913171604279
 20
6.125303916633037
 30
0.0
 11
-55.70288172498348
 21
6.125303916633076
 31
0.0
  0
LINE
  5
DB
330
D1
100
AcDbEntity
  8
치수문자_일반주서
100
AcDbLine
 10
-55.70288172498348
 20
6.125303916633076
 30
0.0
 11
-55.70288172498348
 21
5.414366431068576
 31
0.0
  0
LINE
  5
DC
330
D1
100
AcDbEntity
  8
치수문자_일반주서
100
AcDbLine
 10
-37.83124999999998
 20
3.968749999999993
 30
0.0
 11
-51.46624999999999
 21
3.968749999999992
 31
0.0
  0
LINE
  5
DD
330
D1
100
AcDbEntity
  8
치수문자_일반주서
100
AcDbLine
 10
-37.83124999999998
 20
-3.968749999999993
 30
0.0
 11
-51.46624999999999
 21
-3.968749999999994
 31
0.0
  0
LINE
  5
DE
330
D1
100
AcDbEntity
  8
치수문자_일반주서
100
AcDbLine
 10
-50.46624999999999
 20
3.968749999999992
 30
0.0
 11
-50.46624999999999
 21
10.31874999999999
 31
0.0
  0
LINE
  5
DF
330
D1
100
AcDbEntity
  8
치수문자_일반주서
100
AcDbLine
 10
-50.46624999999999
 20
3.968749999999992
 30
0.0
 11
-50.46624999999999
 21
-3.968749999999994
 31
0.0
  0
LINE
  5
E0
330
D1
100
AcDbEntity
  8
치수문자_일반주서
100
AcDbLine
 10
-50.46624999999999
 20
-3.968749999999994
 30
0.0
 11
-50.46624999999999
 21
-10.31874999999999
 31
0.0
  0
MTEXT
  5
E1
330
D1
100
AcDbEntity
  8
치수문자_일반주서
100
AcDbMText
 10
-60.2146186395623
 20
-4.525694530457343
 30
0.0
 40
3.5
 41
0.0
 71
     1
 72
     1
  1
0.31
  7
SLDTEXTSTYLE0
 11
-7.044195017643634E-15
 21
1.0
 31
0.0
 73
     1
 44
1.0
  0
MTEXT
  5
E2
330
D1
100
AcDbEntity
  8
치수문자_일반주서
100
AcDbMText
 10
-54.97798708920182
 20
-7.164913695305635
 30
0.0
 40
3.5
 41
0.0
 71
     1
 72
     1
  1
%%c
  7
SLDTEXTSTYLE0
 11
-7.044195017643634E-15
 21
1.0
 31
0.0
 73
     1
 44
1.0
  0
MTEXT
  5
E3
330
D1
100
AcDbEntity
  8
치수문자_일반주서
100
AcDbMText
 10
-54.97798708920185
 20
-1.886476296931553
 30
0.0
 40
3.5
 41
0.0
 71
     1
 72
     1
  1
7.94
  7
SLDTEXTSTYLE0
 11
-7.044195017643634E-15
 21
1.0
 31
0.0
 73
     1
 44
1.0
  0
ENDBLK
  5
D3
330
D1
100
AcDbEntity
  8
0
100
AcDbBlockEnd
  0
BLOCK
  5
E6
330
E5
100
AcDbEntity
  8
0
100
AcDbBlockBegin
  2
_D_1
 70
     0
 10
0.0
 20
0.0
 30
0.0
  3
_D_1
  1
_D_1
  0
SOLID
  5
E8
330
E5
100
AcDbEntity
  8
치수문자_일반주서
100
AcDbTrace
 10
38.57500000000002
 20
13.73453526428176
 30
0.0
 11
41.87700000000002
 21
13.22653526428175
 31
0.0
 12
41.87700000000002
 22
14.24253526428175
 32
0.0
 13
41.87700000000002
 23
14.24253526428175
 33
0.0
  0
SOLID
  5
E9
330
E5
100
AcDbEntity
  8
치수문자_일반주서
100
AcDbTrace
 10
10.00000000000004
 20
13.73453526428181
 30
0.0
 11
6.698000000000042
 21
14.24253526428181
 31
0.0
 12
6.69800000000004
 22
13.22653526428181
 32
0.0
 13
6.69800000000004
 23
13.22653526428181
 33
0.0
  0
LINE
  5
EA
330
E5
100
AcDbEntity
  8
치수문자_일반주서
100
AcDbLine
 10
18.87313391817736
 20
24.52741698032452
 30
0.0
 11
18.16219643261286
 21
24.52741698032452
 31
0.0
  0
LINE
  5
EB
330
E5
100
AcDbEntity
  8
치수문자_일반주서
100
AcDbLine
 10
18.16219643261286
 20
24.52741698032452
 30
0.0
 11
18.16219643261281
 21
18.97116698926522
 31
0.0
  0
LINE
  5
EC
330
E5
100
AcDbEntity
  8
치수문자_일반주서
100
AcDbLine
 10
18.16219643261281
 20
18.97116698926522
 30
0.0
 11
18.87313391817731
 21
18.97116698926521
 31
0.0
  0
LINE
  5
ED
330
E5
100
AcDbEntity
  8
치수문자_일반주서
100
AcDbLine
 10
29.70186678031461
 20
24.52741698032442
 30
0.0
 11
30.41280426587911
 21
24.52741698032441
 31
0.0
  0
LINE
  5
EE
330
E5
100
AcDbEntity
  8
치수문자_일반주서
100
AcDbLine
 10
30.41280426587911
 20
24.52741698032441
 30
0.0
 11
30.41280426587907
 21
18.97116698926511
 31
0.0
  0
LINE
  5
EF
330
E5
100
AcDbEntity
  8
치수문자_일반주서
100
AcDbLine
 10
30.41280426587907
 20
18.97116698926511
 30
0.0
 11
29.70186678031457
 21
18.97116698926512
 31
0.0
  0
LINE
  5
F0
330
E5
100
AcDbEntity
  8
치수문자_일반주서
100
AcDbLine
 10
38.575
 20
4.183751883606289
 30
0.0
 11
38.57500000000002
 21
14.73453526428176
 31
0.0
  0
LINE
  5
F1
330
E5
100
AcDbEntity
  8
치수문자_일반주서
100
AcDbLine
 10
10.00000000000002
 20
4.94136534799854
 30
0.0
 11
10.00000000000004
 21
14.73453526428181
 31
0.0
  0
LINE
  5
F2
330
E5
100
AcDbEntity
  8
치수문자_일반주서
100
AcDbLine
 10
38.57500000000002
 20
13.73453526428176
 30
0.0
 11
44.92500000000003
 21
13.73453526428175
 31
0.0
  0
LINE
  5
F3
330
E5
100
AcDbEntity
  8
치수문자_일반주서
100
AcDbLine
 10
38.57500000000002
 20
13.73453526428176
 30
0.0
 11
10.00000000000004
 21
13.73453526428181
 31
0.0
  0
LINE
  5
F4
330
E5
100
AcDbEntity
  8
치수문자_일반주서
100
AcDbLine
 10
10.00000000000004
 20
13.73453526428181
 30
0.0
 11
3.65000000000004
 21
13.73453526428182
 31
0.0
  0
MTEXT
  5
F5
330
E5
100
AcDbEntity
  8
치수문자_일반주서
100
AcDbMText
 10
17.64843770712611
 20
18.2997445301435
 30
0.0
 40
3.5
 41
0.0
 71
     1
 72
     1
  1

  7
SLDTEXTSTYLE0
 73
     1
 44
1.0
  0
MTEXT
  5
F6
330
E5
100
AcDbEntity
  8
치수문자_일반주서
100
AcDbMText
 10
19.76180581878872
 20
23.4829039038441
 30
0.0
 40
3.5
 41
0.0
 71
     1
 72
     1
  1
1.13
  7
SLDTEXTSTYLE0
 73
     1
 44
1.0
  0
MTEXT
  5
F7
330
E5
100
AcDbEntity
  8
치수문자_일반주서
100
AcDbMText
 10
18.46875010561195
 20
18.24627235348364
 30
0.0
 40
3.5
 41
0.0
 71
     1
 72
     1
  1
28.58
  7
SLDTEXTSTYLE0
 73
     1
 44
1.0
  0
MTEXT
  5
F8
330
E5
100
AcDbEntity
  8
치수문자_일반주서
100
AcDbMText
 10
32.25850751101968
 20
18.29974453014337
 30
0.0
 40
3.5
 41
0.0
 71
     1
 72
     1
  1

  7
SLDTEXTSTYLE0
 73
     1
 44
1.0
  0
ENDBLK
  5
E7
330
E5
100
AcDbEntity
  8
0
100
AcDbBlockEnd
  0
BLOCK
  5
FC
330
FB
100
AcDbEntity
  8
0
100
AcDbBlockBegin
  2
_D_2
 70
     0
 10
0.0
 20
0.0
 30
0.0
  3
_D_2
  1
_D_2
  0
SOLID
  5
FE
330
FB
100
AcDbEntity
  8
치수문자_일반주서
100
AcDbTrace
 10
38.575
 20
25.51731132153044
 30
0.0
 11
35.273
 21
26.02531132153044
 31
0.0
 12
35.273
 22
25.00931132153044
 32
0.0
 13
35.273
 23
25.00931132153044
 33
0.0
  0
SOLID
  5
FF
330
FB
100
AcDbEntity
  8
치수문자_일반주서
100
AcDbTrace
 10
-37.62499999999999
 20
25.51731132153044
 30
0.0
 11
-34.32299999999999
 21
25.00931132153044
 31
0.0
 12
-34.32299999999999
 22
26.02531132153044
 32
0.0
 13
-34.32299999999999
 23
26.02531132153044
 33
0.0
  0
LINE
  5
100
330
FB
100
AcDbEntity
  8
치수문자_일반주서
100
AcDbLine
 10
-4.939366081822651
 20
36.31019303757317
 30
0.0
 11
-5.650303567387151
 21
36.31019303757318
 31
0.0
  0
LINE
  5
101
330
FB
100
AcDbEntity
  8
치수문자_일반주서
100
AcDbLine
 10
-5.650303567387151
 20
36.31019303757318
 30
0.0
 11
-5.650303567387191
 21
30.75394304651388
 31
0.0
  0
LINE
  5
102
330
FB
100
AcDbEntity
  8
치수문자_일반주서
100
AcDbLine
 10
-5.650303567387191
 20
30.75394304651388
 30
0.0
 11
-4.939366081822691
 21
30.75394304651387
 31
0.0
  0
LINE
  5
103
330
FB
100
AcDbEntity
  8
치수문자_일반주서
100
AcDbLine
 10
5.889366780314607
 20
36.31019303757309
 30
0.0
 11
6.600304265879108
 21
36.31019303757309
 31
0.0
  0
LINE
  5
104
330
FB
100
AcDbEntity
  8
치수문자_일반주서
100
AcDbLine
 10
6.600304265879108
 20
36.31019303757309
 30
0.0
 11
6.600304265879068
 21
30.75394304651379
 31
0.0
  0
LINE
  5
105
330
FB
100
AcDbEntity
  8
치수문자_일반주서
100
AcDbLine
 10
6.600304265879068
 20
30.75394304651379
 30
0.0
 11
5.889366780314568
 21
30.75394304651379
 31
0.0
  0
LINE
  5
106
330
FB
100
AcDbEntity
  8
치수문자_일반주서
100
AcDbLine
 10
38.575
 20
4.183751883606289
 30
0.0
 11
38.575
 21
26.51731132153044
 31
0.0
  0
LINE
  5
107
330
FB
100
AcDbEntity
  8
치수문자_일반주서
100
AcDbLine
 10
-37.62499999999999
 20
4.175000000000003
 30
0.0
 11
-37.62499999999999
 21
26.51731132153044
 31
0.0
  0
LINE
  5
108
330
FB
100
AcDbEntity
  8
치수문자_일반주서
100
AcDbLine
 10
38.575
 20
25.51731132153044
 30
0.0
 11
-37.62499999999999
 21
25.51731132153044
 31
0.0
  0
MTEXT
  5
109
330
FB
100
AcDbEntity
  8
치수문자_일반주서
100
AcDbMText
 10
-6.164062292873892
 20
30.08252058739216
 30
0.0
 40
3.5
 41
0.0
 71
     1
 72
     1
  1

  7
SLDTEXTSTYLE0
 73
     1
 44
1.0
  0
MTEXT
  5
10A
330
FB
100
AcDbEntity
  8
치수문자_일반주서
100
AcDbMText
 10
-4.050694181211288
 20
35.26567996109276
 30
0.0
 40
3.5
 41
0.0
 71
     1
 72
     1
  1
3.00
  7
SLDTEXTSTYLE0
 73
     1
 44
1.0
  0
MTEXT
  5
10B
330
FB
100
AcDbEntity
  8
치수문자_일반주서
100
AcDbMText
 10
-5.343749894388052
 20
30.0290484107323
 30
0.0
 40
3.5
 41
0.0
 71
     1
 72
     1
  1
76.20
  7
SLDTEXTSTYLE0
 73
     1
 44
1.0
  0
MTEXT
  5
10C
330
FB
100
AcDbEntity
  8
치수문자_일반주서
100
AcDbMText
 10
8.446007511019674
 20
30.08252058739206
 30
0.0
 40
3.5
 41
0.0
 71
     1
 72
     1
  1

  7
SLDTEXTSTYLE0
 73
     1
 44
1.0
  0
ENDBLK
  5
FD
330
FB
100
AcDbEntity
  8
0
100
AcDbBlockEnd
  0
BLOCK
  5
110
330
10F
100
AcDbEntity
  8
0
100
AcDbBlockBegin
  2
_D_3
 70
     0
 10
0.0
 20
0.0
 30
0.0
  3
_D_3
  1
_D_3
  0
SOLID
  5
112
330
10F
100
AcDbEntity
  8
치수문자_일반주서
100
AcDbTrace
 10
57.57500000000008
 20
3.968749999999996
 30
0.0
 11
57.06700000000008
 21
0.666749999999996
 31
0.0
 12
58.08300000000008
 22
0.666749999999996
 32
0.0
 13
58.08300000000008
 23
0.666749999999996
 33
0.0
  0
SOLID
  5
113
330
10F
100
AcDbEntity
  8
치수문자_일반주서
100
AcDbTrace
 10
57.57500000000008
 20
-3.968750000000001
 30
0.0
 11
58.08300000000008
 21
-0.6667500000000013
 31
0.0
 12
57.06700000000008
 22
-0.6667500000000013
 32
0.0
 13
57.06700000000008
 23
-0.6667500000000013
 33
0.0
  0
LINE
  5
114
330
10F
100
AcDbEntity
  8
치수문자_일반주서
100
AcDbLine
 10
46.78211828395735
 20
8.668699855104093
 30
0.0
 11
46.78211828395736
 21
7.957762369539592
 31
0.0
  0
LINE
  5
115
330
10F
100
AcDbEntity
  8
치수문자_일반주서
100
AcDbLine
 10
46.78211828395736
 20
7.957762369539592
 30
0.0
 11
52.33836827501666
 21
7.957762369539632
 31
0.0
  0
LINE
  5
116
330
10F
100
AcDbEntity
  8
치수문자_일반주서
100
AcDbLine
 10
52.33836827501666
 20
7.957762369539632
 30
0.0
 11
52.33836827501666
 21
8.668699855104132
 31
0.0
  0
LINE
  5
117
330
10F
100
AcDbEntity
  8
치수문자_일반주서
100
AcDbLine
 10
46.78211828395729
 20
19.49743271724135
 30
0.0
 11
46.78211828395728
 21
20.20837020280585
 31
0.0
  0
LINE
  5
118
330
10F
100
AcDbEntity
  8
치수문자_일반주서
100
AcDbLine
 10
46.78211828395728
 20
20.20837020280585
 30
0.0
 11
52.33836827501658
 21
20.20837020280589
 31
0.0
  0
LINE
  5
119
330
10F
100
AcDbEntity
  8
치수문자_일반주서
100
AcDbLine
 10
52.33836827501658
 20
20.20837020280589
 30
0.0
 11
52.33836827501659
 21
19.49743271724139
 31
0.0
  0
LINE
  5
11A
330
10F
100
AcDbEntity
  8
치수문자_일반주서
100
AcDbLine
 10
20.98977765272918
 20
3.968749999999998
 30
0.0
 11
58.57500000000009
 21
3.968749999999996
 31
0.0
  0
LINE
  5
11B
330
10F
100
AcDbEntity
  8
치수문자_일반주서
100
AcDbLine
 10
20.98977765272913
 20
-3.968749999999998
 30
0.0
 11
58.57500000000009
 21
-3.968750000000001
 31
0.0
  0
LINE
  5
11C
330
10F
100
AcDbEntity
  8
치수문자_일반주서
100
AcDbLine
 10
57.57500000000008
 20
3.968749999999996
 30
0.0
 11
57.57500000000008
 21
21.24797998147838
 31
0.0
  0
LINE
  5
11D
330
10F
100
AcDbEntity
  8
치수문자_일반주서
100
AcDbLine
 10
57.57500000000008
 20
3.968749999999996
 30
0.0
 11
57.57500000000008
 21
-3.968750000000001
 31
0.0
  0
MTEXT
  5
11E
330
10F
100
AcDbEntity
  8
치수문자_일반주서
100
AcDbMText
 10
47.82663136043777
 20
9.557371755715472
 30
0.0
 40
3.5
 41
0.0
 71
     1
 72
     1
  1
0.31
  7
SLDTEXTSTYLE0
 11
-7.044195017643634E-15
 21
1.0
 31
0.0
 73
     1
 44
1.0
  0
MTEXT
  5
11F
330
10F
100
AcDbEntity
  8
치수문자_일반주서
100
AcDbMText
 10
53.06326291079825
 20
6.918152590867177
 30
0.0
 40
3.5
 41
0.0
 71
     1
 72
     1
  1
%%c
  7
SLDTEXTSTYLE0
 11
-7.044195017643634E-15
 21
1.0
 31
0.0
 73
     1
 44
1.0
  0
MTEXT
  5
120
330
10F
100
AcDbEntity
  8
치수문자_일반주서
100
AcDbMText
 10
53.06326291079822
 20
12.19658998924126
 30
0.0
 40
3.5
 41
0.0
 71
     1
 72
     1
  1
7.94
  7
SLDTEXTSTYLE0
 11
-7.044195017643634E-15
 21
1.0
 31
0.0
 73
     1
 44
1.0
  0
ENDBLK
  5
111
330
10F
100
AcDbEntity
  8
0
100
AcDbBlockEnd
  0
BLOCK
  5
129
330
128
100
AcDbEntity
  8
0
100
AcDbBlockBegin
  2
SW_DOWELSYMBOL_0
 70
     0
 10
0.0
 20
0.0
 30
0.0
  3
SW_DOWELSYMBOL_0
  1
SW_DOWELSYMBOL_0
  0
CIRCLE
  5
12B
330
128
100
AcDbEntity
  8
해칭선
 62
     0
100
AcDbCircle
 10
0.0
 20
0.0
 30
0.0
 40
3.000000000000002
  0
HATCH
  5
12C
330
128
100
AcDbEntity
  8
0
  6
Continuous
 62
     0
370
     0
100
AcDbHatch
 10
0.0
 20
0.0
 30
0.0
210
0.0
220
0.0
230
1.0
  2
SOLID
 70
     1
 71
     0
 91
        1
 92
        0
 93
        3
 72
     2
 10
0.0
 20
0.0
 40
3.000000000000002
 50
0.0
 51
90.0
 73
     1
 72
     1
 10
0.0
 20
3.000000000000002
 11
0.0
 21
0.0
 72
     1
 10
0.0
 20
0.0
 11
3.000000000000002
 21
0.0
 97
        0
 75
     0
 76
     1
 98
        1
 10
0.0
 20
0.0
  0
HATCH
  5
12D
330
128
100
AcDbEntity
  8
0
  6
Continuous
 62
     0
370
     0
100
AcDbHatch
 10
0.0
 20
0.0
 30
0.0
210
0.0
220
0.0
230
1.0
  2
SOLID
 70
     1
 71
     0
 91
        1
 92
        0
 93
        3
 72
     2
 10
0.0
 20
0.0
 40
3.000000000000002
 50
180.0
 51
270.0000000000008
 73
     1
 72
     1
 10
0.0
 20
-3.000000000000002
 11
0.0
 21
0.0
 72
     1
 10
0.0
 20
0.0
 11
-3.000000000000002
 21
0.0
 97
        0
 75
     0
 76
     1
 98
        1
 10
0.0
 20
0.0
  0
ENDBLK
  5
12A
330
128
100
AcDbEntity
  8
0
100
AcDbBlockEnd
  0
BLOCK
  5
1AD
330
1AC
100
AcDbEntity
  8
0
100
AcDbBlockBegin
  2
*D8
 70
     1
 10
0.0
 20
0.0
 30
0.0
  3
*D8
  1
*D8
  0
LINE
  5
1AE
330
1AC
100
AcDbEntity
  8
치수문자_일반주서
 62
     0
370
    -2
100
AcDbLine
 10
17.94750000000006
 20
45.2536924460238
 30
0.0
 11
4.375000000000036
 21
45.25369244602375
 31
0.0
  0
LINE
  5
1AF
330
1AC
100
AcDbEntity
  8
치수문자_일반주서
 62
     0
370
    -2
100
AcDbLine
 10
17.94750000000006
 20
37.31619244602381
 30
0.0
 11
4.375000000000064
 21
37.31619244602376
 31
0.0
  0
LINE
  5
1B0
330
1AC
100
AcDbEntity
  8
치수문자_일반주서
 62
     0
370
    -2
100
AcDbLine
 10
4.375000000000048
 20
41.95169244602375
 30
0.0
 11
4.375000000000052
 21
40.61819244602376
 31
0.0
  0
SOLID
  5
1B1
330
1AC
100
AcDbEntity
  8
치수문자_일반주서
 62
     0
100
AcDbTrace
 10
4.925333333333382
 20
41.95169244602375
 30
0.0
 11
3.824666666666715
 21
41.95169244602375
 31
0.0
 12
4.375000000000036
 22
45.25369244602375
 32
0.0
 13
4.375000000000036
 23
45.25369244602375
 33
0.0
  0
SOLID
  5
1B2
330
1AC
100
AcDbEntity
  8
치수문자_일반주서
 62
     0
100
AcDbTrace
 10
3.824666666666719
 20
40.61819244602376
 30
0.0
 11
4.925333333333386
 21
40.61819244602376
 31
0.0
 12
4.375000000000064
 22
37.31619244602376
 32
0.0
 13
4.375000000000064
 23
37.31619244602376
 33
0.0
  0
MTEXT
  5
1B3
330
1AC
100
AcDbEntity
  8
치수문자_일반주서
 62
     0
100
AcDbMText
 10
0.0000000000000497
 20
41.28494244602378
 30
0.0
 40
3.5
 41
0.0
 71
     2
 72
     1
  1
\A1;%%c7.94 [5/16]
  7
SLDTEXTSTYLE0
 11
-3.468791308435141E-15
 21
1.0
 31
0.0
 73
     1
 44
1.0
  0
POINT
  5
1B4
330
1AC
100
AcDbEntity
  8
Defpoints
 62
     0
100
AcDbPoint
 10
18.01000000000006
 20
45.2536924460238
 30
0.0
  0
POINT
  5
1B5
330
1AC
100
AcDbEntity
  8
Defpoints
 62
     0
100
AcDbPoint
 10
18.01000000000006
 20
37.31619244602381
 30
0.0
  0
POINT
  5
1B6
330
1AC
100
AcDbEntity
  8
Defpoints
 62
     0
100
AcDbPoint
 10
4.375000000000064
 20
37.31619244602376
 30
0.0
  0
ENDBLK
  5
1B7
330
1AC
100
AcDbEntity
  8
0
100
AcDbBlockEnd
  0
BLOCK
  5
1BA
330
1B9
100
AcDbEntity
  8
0
100
AcDbBlockBegin
  2
*D9
 70
     1
 10
0.0
 20
0.0
 30
0.0
  3
*D9
  1
*D9
  0
LINE
  5
1BB
330
1B9
100
AcDbEntity
  8
치수문자_일반주서
 62
     0
370
    -2
100
AcDbLine
 10
93.41625000000008
 20
42.97150745082266
 30
0.0
 11
93.41625000000008
 21
53.45979083149813
 31
0.0
  0
LINE
  5
1BC
330
1B9
100
AcDbEntity
  8
치수문자_일반주서
 62
     0
370
    -2
100
AcDbLine
 10
64.84125000000006
 20
45.28880779402235
 30
0.0
 11
64.84125000000006
 21
53.45979083149813
 31
0.0
  0
LINE
  5
1BD
330
1B9
100
AcDbEntity
  8
치수문자_일반주서
 62
     0
370
    -2
100
AcDbLine
 10
90.11425000000008
 20
53.45979083149813
 30
0.0
 11
68.14325000000005
 21
53.45979083149813
 31
0.0
  0
SOLID
  5
1BE
330
1B9
100
AcDbEntity
  8
치수문자_일반주서
 62
     0
100
AcDbTrace
 10
90.11425000000008
 20
52.9094574981648
 30
0.0
 11
90.11425000000008
 21
54.01012416483147
 31
0.0
 12
93.41625000000008
 22
53.45979083149813
 32
0.0
 13
93.41625000000008
 23
53.45979083149813
 33
0.0
  0
SOLID
  5
1BF
330
1B9
100
AcDbEntity
  8
치수문자_일반주서
 62
     0
100
AcDbTrace
 10
68.14325000000005
 20
54.01012416483147
 30
0.0
 11
68.14325000000005
 21
52.9094574981648
 31
0.0
 12
64.84125000000006
 22
53.45979083149813
 32
0.0
 13
64.84125000000006
 23
53.45979083149813
 33
0.0
  0
MTEXT
  5
1C0
330
1B9
100
AcDbEntity
  8
치수문자_일반주서
 62
     0
100
AcDbMText
 10
79.12875000000005
 20
57.83479083149813
 30
0.0
 40
3.5
 41
0.0
 71
     2
 72
     1
  1
\A1;28.58 [1 1/8]
  7
SLDTEXTSTYLE0
 73
     1
 44
1.0
  0
POINT
  5
1C1
330
1B9
100
AcDbEntity
  8
Defpoints
 62
     0
100
AcDbPoint
 10
93.41625000000008
 20
42.90900745082266
 30
0.0
  0
POINT
  5
1C2
330
1B9
100
AcDbEntity
  8
Defpoints
 62
     0
100
AcDbPoint
 10
64.84125000000006
 20
45.22630779402235
 30
0.0
  0
POINT
  5
1C3
330
1B9
100
AcDbEntity
  8
Defpoints
 62
     0
100
AcDbPoint
 10
64.84125000000006
 20
53.45979083149813
 30
0.0
  0
ENDBLK
  5
1C4
330
1B9
100
AcDbEntity
  8
0
100
AcDbBlockEnd
  0
BLOCK
  5
1C7
330
1C6
100
AcDbEntity
  8
0
100
AcDbBlockBegin
  2
*D10
 70
     1
 10
0.0
 20
0.0
 30
0.0
  3
*D10
  1
*D10
  0
LINE
  5
1C8
330
1C6
100
AcDbEntity
  8
치수문자_일반주서
 62
     0
370
    -2
100
AcDbLine
 10
93.41625000000008
 20
42.97150745082266
 30
0.0
 11
93.41625000000008
 21
65.24256688874681
 31
0.0
  0
LINE
  5
1C9
330
1C6
100
AcDbEntity
  8
치수문자_일반주서
 62
     0
370
    -2
100
AcDbLine
 10
17.21625000000005
 20
44.52244244602381
 30
0.0
 11
17.21625000000005
 21
65.24256688874681
 31
0.0
  0
LINE
  5
1CA
330
1C6
100
AcDbEntity
  8
치수문자_일반주서
 62
     0
370
    -2
100
AcDbLine
 10
90.11425000000008
 20
65.24256688874681
 30
0.0
 11
20.51825000000005
 21
65.24256688874681
 31
0.0
  0
SOLID
  5
1CB
330
1C6
100
AcDbEntity
  8
치수문자_일반주서
 62
     0
100
AcDbTrace
 10
90.11425000000008
 20
64.69223355541348
 30
0.0
 11
90.11425000000008
 21
65.79290022208014
 31
0.0
 12
93.41625000000008
 22
65.24256688874681
 32
0.0
 13
93.41625000000008
 23
65.24256688874681
 33
0.0
  0
SOLID
  5
1CC
330
1C6
100
AcDbEntity
  8
치수문자_일반주서
 62
     0
100
AcDbTrace
 10
20.51825000000005
 20
65.79290022208014
 30
0.0
 11
20.51825000000005
 21
64.69223355541348
 31
0.0
 12
17.21625000000005
 22
65.24256688874681
 32
0.0
 13
17.21625000000005
 23
65.24256688874681
 33
0.0
  0
MTEXT
  5
1CD
330
1C6
100
AcDbEntity
  8
치수문자_일반주서
 62
     0
100
AcDbMText
 10
55.31625000000006
 20
69.61756688874681
 30
0.0
 40
3.5
 41
0.0
 71
     2
 72
     1
  1
\A1;76.20 [3]
  7
SLDTEXTSTYLE0
 73
     1
 44
1.0
  0
POINT
  5
1CE
330
1C6
100
AcDbEntity
  8
Defpoints
 62
     0
100
AcDbPoint
 10
93.41625000000008
 20
42.90900745082266
 30
0.0
  0
POINT
  5
1CF
330
1C6
100
AcDbEntity
  8
Defpoints
 62
     0
100
AcDbPoint
 10
17.21625000000005
 20
44.45994244602381
 30
0.0
  0
POINT
  5
1D0
330
1C6
100
AcDbEntity
  8
Defpoints
 62
     0
100
AcDbPoint
 10
17.21625000000005
 20
65.24256688874681
 30
0.0
  0
ENDBLK
  5
1D1
330
1C6
100
AcDbEntity
  8
0
100
AcDbBlockEnd
  0
BLOCK
  5
1D4
330
1D3
100
AcDbEntity
  8
0
100
AcDbBlockBegin
  2
*D11
 70
     1
 10
0.0
 20
0.0
 30
0.0
  3
*D11
  1
*D11
  0
LINE
  5
1D5
330
1D3
100
AcDbEntity
  8
치수문자_일반주서
 62
     0
370
    -2
100
AcDbLine
 10
74.89352765272923
 20
45.25369244602381
 30
0.0
 11
112.4162500000001
 21
45.25369244602395
 31
0.0
  0
LINE
  5
1D6
330
1D3
100
AcDbEntity
  8
치수문자_일반주서
 62
     0
370
    -2
100
AcDbLine
 10
74.8935276527292
 20
37.3161924460238
 30
0.0
 11
112.4162500000002
 21
37.31619244602394
 31
0.0
  0
LINE
  5
1D7
330
1D3
100
AcDbEntity
  8
치수문자_일반주서
 62
     0
370
    -2
100
AcDbLine
 10
112.4162500000001
 20
45.25369244602395
 30
0.0
 11
112.41625
 21
79.85769244602395
 31
0.0
  0
LINE
  5
1D8
330
1D3
100
AcDbEntity
  8
치수문자_일반주서
 62
     0
370
    -2
100
AcDbLine
 10
112.4162500000001
 20
48.55569244602395
 30
0.0
 11
112.4162500000001
 21
51.85769244602395
 31
0.0
  0
LINE
  5
1D9
330
1D3
100
AcDbEntity
  8
치수문자_일반주서
 62
     0
370
    -2
100
AcDbLine
 10
112.4162500000002
 20
34.01419244602394
 30
0.0
 11
112.4162500000002
 21
30.71219244602394
 31
0.0
  0
SOLID
  5
1DA
330
1D3
100
AcDbEntity
  8
치수문자_일반주서
 62
     0
100
AcDbTrace
 10
111.8659166666668
 20
48.55569244602395
 30
0.0
 11
112.9665833333335
 21
48.55569244602395
 31
0.0
 12
112.4162500000001
 22
45.25369244602395
 32
0.0
 13
112.4162500000001
 23
45.25369244602395
 33
0.0
  0
SOLID
  5
1DB
330
1D3
100
AcDbEntity
  8
치수문자_일반주서
 62
     0
100
AcDbTrace
 10
112.9665833333335
 20
34.01419244602394
 30
0.0
 11
111.8659166666669
 21
34.01419244602394
 31
0.0
 12
112.4162500000002
 22
37.31619244602394
 32
0.0
 13
112.4162500000002
 23
37.31619244602394
 33
0.0
  0
MTEXT
  5
1DC
330
1D3
100
AcDbEntity
  8
치수문자_일반주서
 62
     0
100
AcDbMText
 10
108.0412500000001
 20
65.85769244602393
 30
0.0
 40
3.5
 41
0.0
 71
     2
 72
     1
  1
\A1;%%c7.94 [5/16]
  7
SLDTEXTSTYLE0
 11
-3.580687802255617E-15
 21
1.0
 31
0.0
 73
     1
 44
1.0
  0
POINT
  5
1DD
330
1D3
100
AcDbEntity
  8
Defpoints
 62
     0
100
AcDbPoint
 10
74.83102765272923
 20
45.25369244602381
 30
0.0
  0
POINT
  5
1DE
330
1D3
100
AcDbEntity
  8
Defpoints
 62
     0
100
AcDbPoint
 10
74.8310276527292
 20
37.3161924460238
 30
0.0
  0
POINT
  5
1DF
330
1D3
100
AcDbEntity
  8
Defpoints
 62
     0
100
AcDbPoint
 10
112.4162500000002
 20
37.31619244602394
 30
0.0
  0
ENDBLK
  5
1E0
330
1D3
100
AcDbEntity
  8
0
100
AcDbBlockEnd
  0
BLOCK
  5
1F3
330
1F2
100
AcDbEntity
  8
0
100
AcDbBlockBegin
  2
*D12
 70
     1
 10
0.0
 20
0.0
 30
0.0
  3
*D12
  1
*D12
  0
LINE
  5
1F4
330
1F2
100
AcDbEntity
  8
치수문자_일반주서
 62
     0
370
    -2
100
AcDbLine
 10
93.2602390209629
 20
34.21360656478739
 30
0.0
 11
103.3734706918947
 21
0.0000000000000071
 31
0.0
  0
MTEXT
  5
1F5
330
1F2
100
AcDbEntity
  8
치수문자_일반주서
 62
     0
100
AcDbMText
 10
101.9222689047355
 20
14.16984962421783
 30
0.0
 40
3.5
 41
0.0
 71
     5
 72
     1
  1
\A1;R1.52 [R0.06]
  7
SLDTEXTSTYLE0
 11
0.2834664257345572
 21
-0.9589821611903293
 31
0.0
 73
     1
 44
1.0
  0
SOLID
  5
1F6
330
1F2
100
AcDbEntity
  8
치수문자_일반주서
 62
     0
100
AcDbTrace
 10
93.78799887033797
 20
34.36960758774998
 30
0.0
 11
92.73247917158783
 21
34.05760554182481
 31
0.0
 12
92.32423288318739
 22
37.38016566103786
 32
0.0
 13
92.32423288318739
 23
37.38016566103786
 33
0.0
  0
LINE
  5
1F7
330
1F2
100
AcDbEntity
  8
치수문자_일반주서
 62
     0
100
AcDbLine
 10
91.80223005036792
 20
38.84165447469191
 30
0.0
 11
91.98223005036793
 21
38.84165447469191
 31
0.0
  0
LINE
  5
1F8
330
1F2
100
AcDbEntity
  8
치수문자_일반주서
 62
     0
100
AcDbLine
 10
91.89223005036793
 20
38.75165447469191
 30
0.0
 11
91.89223005036793
 21
38.93165447469192
 31
0.0
  0
POINT
  5
1F9
330
1F2
100
AcDbEntity
  8
Defpoints
 62
     0
100
AcDbPoint
 10
92.32423288318739
 20
37.38016566103786
 30
0.0
  0
POINT
  5
1FA
330
1F2
100
AcDbEntity
  8
Defpoints
 62
     0
100
AcDbPoint
 10
91.89223005036793
 20
38.84165447469191
 30
0.0
  0
ENDBLK
  5
1FB
330
1F2
100
AcDbEntity
  8
0
100
AcDbBlockEnd
  0
BLOCK
  5
23A
330
239
100
AcDbEntity
  8
0
100
AcDbBlockBegin
  2
*D13
 70
     1
 10
0.0
 20
0.0
 30
0.0
  3
*D13
  1
*D13
  0
LINE
  5
23C
330
239
100
AcDbEntity
  8
치수문자_일반주서
 62
     0
370
    -2
100
AcDbLine
 10
-37.36874999999999
 20
3.968749999999992
 30
0.0
 11
-50.94125000000002
 21
3.968749999999943
 31
0.0
  0
LINE
  5
23D
330
239
100
AcDbEntity
  8
치수문자_일반주서
 62
     0
370
    -2
100
AcDbLine
 10
-37.36874999999999
 20
-3.968749999999993
 30
0.0
 11
-50.94124999999999
 21
-3.968750000000043
 31
0.0
  0
LINE
  5
23E
330
239
100
AcDbEntity
  8
치수문자_일반주서
 62
     0
370
    -2
100
AcDbLine
 10
-50.94125
 20
0.6667499999999431
 30
0.0
 11
-50.94125
 21
-0.6667500000000435
 31
0.0
  0
SOLID
  5
23F
330
239
100
AcDbEntity
  8
치수문자_일반주서
 62
     0
100
AcDbTrace
 10
-50.39091666666667
 20
0.6667499999999451
 30
0.0
 11
-51.49158333333334
 21
0.6667499999999411
 31
0.0
 12
-50.94125000000002
 22
3.968749999999943
 32
0.0
 13
-50.94125000000002
 23
3.968749999999943
 33
0.0
  0
SOLID
  5
240
330
239
100
AcDbEntity
  8
치수문자_일반주서
 62
     0
100
AcDbTrace
 10
-51.49158333333334
 20
-0.6667500000000455
 30
0.0
 11
-50.39091666666667
 21
-0.6667500000000415
 31
0.0
 12
-50.94124999999999
 22
-3.968750000000043
 32
0.0
 13
-50.94124999999999
 23
-3.968750000000043
 33
0.0
  0
MTEXT
  5
241
330
239
100
AcDbEntity
  8
치수문자_일반주서
 62
     0
100
AcDbMText
 10
-55.31625
 20
-0.0000000000000226
 30
0.0
 40
3.5
 41
0.0
 71
     2
 72
     1
  1
\A1;%%c7.94 [5/16]
  7
SLDTEXTSTYLE0
 11
-3.580687802255629E-15
 21
1.0
 31
0.0
 73
     1
 44
1.0
  0
POINT
  5
242
330
239
100
AcDbEntity
  8
Defpoints
 62
     0
100
AcDbPoint
 10
-37.30624999999999
 20
3.968749999999993
 30
0.0
  0
POINT
  5
243
330
239
100
AcDbEntity
  8
Defpoints
 62
     0
100
AcDbPoint
 10
-37.30624999999999
 20
-3.968749999999993
 30
0.0
  0
POINT
  5
244
330
239
100
AcDbEntity
  8
Defpoints
 62
     0
100
AcDbPoint
 10
-50.94124999999999
 20
-3.968750000000044
 30
0.0
  0
ENDBLK
  5
23B
330
239
100
AcDbEntity
  8
0
100
AcDbBlockEnd
  0
BLOCK
  5
246
330
245
100
AcDbEntity
  8
0
100
AcDbBlockBegin
  2
*D14
 70
     1
 10
0.0
 20
0.0
 30
0.0
  3
*D14
  1
*D14
  0
LINE
  5
248
330
245
100
AcDbEntity
  8
치수문자_일반주서
 62
     0
370
    -2
100
AcDbLine
 10
38.10000000000003
 20
1.686565004798851
 30
0.0
 11
38.10000000000003
 21
12.17484838547433
 31
0.0
  0
LINE
  5
249
330
245
100
AcDbEntity
  8
치수문자_일반주서
 62
     0
370
    -2
100
AcDbLine
 10
9.525000000000006
 20
4.003865347998541
 30
0.0
 11
9.525000000000006
 21
12.17484838547433
 31
0.0
  0
LINE
  5
24A
330
245
100
AcDbEntity
  8
치수문자_일반주서
 62
     0
370
    -2
100
AcDbLine
 10
34.79800000000003
 20
12.17484838547433
 30
0.0
 11
12.82700000000001
 21
12.17484838547433
 31
0.0
  0
SOLID
  5
24B
330
245
100
AcDbEntity
  8
치수문자_일반주서
 62
     0
100
AcDbTrace
 10
34.79800000000003
 20
11.62451505214099
 30
0.0
 11
34.79800000000003
 21
12.72518171880766
 31
0.0
 12
38.10000000000003
 22
12.17484838547433
 32
0.0
 13
38.10000000000003
 23
12.17484838547433
 33
0.0
  0
SOLID
  5
24C
330
245
100
AcDbEntity
  8
치수문자_일반주서
 62
     0
100
AcDbTrace
 10
12.82700000000001
 20
12.72518171880766
 30
0.0
 11
12.82700000000001
 21
11.62451505214099
 31
0.0
 12
9.525000000000006
 22
12.17484838547433
 32
0.0
 13
9.525000000000006
 23
12.17484838547433
 33
0.0
  0
MTEXT
  5
24D
330
245
100
AcDbEntity
  8
치수문자_일반주서
 62
     0
100
AcDbMText
 10
23.8125
 20
16.54984838547433
 30
0.0
 40
3.5
 41
0.0
 71
     2
 72
     1
  1
\A1;28.58 [1 1/8]
  7
SLDTEXTSTYLE0
 73
     1
 44
1.0
  0
POINT
  5
24E
330
245
100
AcDbEntity
  8
Defpoints
 62
     0
100
AcDbPoint
 10
38.10000000000003
 20
1.624065004798851
 30
0.0
  0
POINT
  5
24F
330
245
100
AcDbEntity
  8
Defpoints
 62
     0
100
AcDbPoint
 10
9.525000000000006
 20
3.941365347998541
 30
0.0
  0
POINT
  5
250
330
245
100
AcDbEntity
  8
Defpoints
 62
     0
100
AcDbPoint
 10
9.525000000000006
 20
12.17484838547433
 30
0.0
  0
ENDBLK
  5
247
330
245
100
AcDbEntity
  8
0
100
AcDbBlockEnd
  0
BLOCK
  5
252
330
251
100
AcDbEntity
  8
0
100
AcDbBlockBegin
  2
*D15
 70
     1
 10
0.0
 20
0.0
 30
0.0
  3
*D15
  1
*D15
  0
LINE
  5
254
330
251
100
AcDbEntity
  8
치수문자_일반주서
 62
     0
370
    -2
100
AcDbLine
 10
38.10000000000003
 20
1.686565004798851
 30
0.0
 11
38.10000000000003
 21
23.957624442723
 31
0.0
  0
LINE
  5
255
330
251
100
AcDbEntity
  8
치수문자_일반주서
 62
     0
370
    -2
100
AcDbLine
 10
-38.1
 20
3.237500000000004
 30
0.0
 11
-38.1
 21
23.957624442723
 31
0.0
  0
LINE
  5
256
330
251
100
AcDbEntity
  8
치수문자_일반주서
 62
     0
370
    -2
100
AcDbLine
 10
34.79800000000003
 20
23.957624442723
 30
0.0
 11
-34.798
 21
23.957624442723
 31
0.0
  0
SOLID
  5
257
330
251
100
AcDbEntity
  8
치수문자_일반주서
 62
     0
100
AcDbTrace
 10
34.79800000000003
 20
23.40729110938967
 30
0.0
 11
34.79800000000003
 21
24.50795777605634
 31
0.0
 12
38.10000000000003
 22
23.957624442723
 32
0.0
 13
38.10000000000003
 23
23.957624442723
 33
0.0
  0
SOLID
  5
258
330
251
100
AcDbEntity
  8
치수문자_일반주서
 62
     0
100
AcDbTrace
 10
-34.798
 20
24.50795777605634
 30
0.0
 11
-34.798
 21
23.40729110938967
 31
0.0
 12
-38.1
 22
23.957624442723
 32
0.0
 13
-38.1
 23
23.957624442723
 33
0.0
  0
MTEXT
  5
259
330
251
100
AcDbEntity
  8
치수문자_일반주서
 62
     0
100
AcDbMText
 10
0.0000000000000071
 20
28.332624442723
 30
0.0
 40
3.5
 41
0.0
 71
     2
 72
     1
  1
\A1;76.20 [3]
  7
SLDTEXTSTYLE0
 73
     1
 44
1.0
  0
POINT
  5
25A
330
251
100
AcDbEntity
  8
Defpoints
 62
     0
100
AcDbPoint
 10
38.10000000000003
 20
1.624065004798851
 30
0.0
  0
POINT
  5
25B
330
251
100
AcDbEntity
  8
Defpoints
 62
     0
100
AcDbPoint
 10
-38.1
 20
3.175000000000004
 30
0.0
  0
POINT
  5
25C
330
251
100
AcDbEntity
  8
Defpoints
 62
     0
100
AcDbPoint
 10
-38.1
 20
23.957624442723
 30
0.0
  0
ENDBLK
  5
253
330
251
100
AcDbEntity
  8
0
100
AcDbBlockEnd
  0
BLOCK
  5
25E
330
25D
100
AcDbEntity
  8
0
100
AcDbBlockBegin
  2
*D16
 70
     1
 10
0.0
 20
0.0
 30
0.0
  3
*D16
  1
*D16
  0
LINE
  5
260
330
25D
100
AcDbEntity
  8
치수문자_일반주서
 62
     0
370
    -2
100
AcDbLine
 10
19.57727765272918
 20
3.968750000000008
 30
0.0
 11
57.1000000000001
 21
3.968750000000146
 31
0.0
  0
LINE
  5
261
330
25D
100
AcDbEntity
  8
치수문자_일반주서
 62
     0
370
    -2
100
AcDbLine
 10
19.57727765272915
 20
-3.968750000000007
 30
0.0
 11
57.10000000000013
 21
-3.968749999999869
 31
0.0
  0
LINE
  5
262
330
25D
100
AcDbEntity
  8
치수문자_일반주서
 62
     0
370
    -2
100
AcDbLine
 10
57.1000000000001
 20
3.968750000000146
 30
0.0
 11
57.09999999999998
 21
38.57275000000014
 31
0.0
  0
LINE
  5
263
330
25D
100
AcDbEntity
  8
치수문자_일반주서
 62
     0
370
    -2
100
AcDbLine
 10
57.10000000000009
 20
7.270750000000145
 30
0.0
 11
57.10000000000007
 21
10.57275000000014
 31
0.0
  0
LINE
  5
264
330
25D
100
AcDbEntity
  8
치수문자_일반주서
 62
     0
370
    -2
100
AcDbLine
 10
57.10000000000014
 20
-7.270749999999868
 30
0.0
 11
57.10000000000016
 21
-10.57274999999987
 31
0.0
  0
SOLID
  5
265
330
25D
100
AcDbEntity
  8
치수문자_일반주서
 62
     0
100
AcDbTrace
 10
56.54966666666675
 20
7.270750000000143
 30
0.0
 11
57.65033333333342
 21
7.270750000000147
 31
0.0
 12
57.1000000000001
 22
3.968750000000146
 32
0.0
 13
57.1000000000001
 23
3.968750000000146
 33
0.0
  0
SOLID
  5
266
330
25D
100
AcDbEntity
  8
치수문자_일반주서
 62
     0
100
AcDbTrace
 10
57.65033333333348
 20
-7.270749999999866
 30
0.0
 11
56.54966666666681
 21
-7.27074999999987
 31
0.0
 12
57.10000000000013
 22
-3.968749999999869
 32
0.0
 13
57.10000000000013
 23
-3.968749999999869
 33
0.0
  0
MTEXT
  5
267
330
25D
100
AcDbEntity
  8
치수문자_일반주서
 62
     0
100
AcDbMText
 10
52.72500000000003
 20
24.57275000000013
 30
0.0
 40
3.5
 41
0.0
 71
     2
 72
     1
  1
\A1;%%c7.94 [5/16]
  7
SLDTEXTSTYLE0
 11
-3.580687802255617E-15
 21
1.0
 31
0.0
 73
     1
 44
1.0
  0
POINT
  5
268
330
25D
100
AcDbEntity
  8
Defpoints
 62
     0
100
AcDbPoint
 10
19.51477765272918
 20
3.968750000000007
 30
0.0
  0
POINT
  5
269
330
25D
100
AcDbEntity
  8
Defpoints
 62
     0
100
AcDbPoint
 10
19.51477765272915
 20
-3.968750000000007
 30
0.0
  0
POINT
  5
26A
330
25D
100
AcDbEntity
  8
Defpoints
 62
     0
100
AcDbPoint
 10
57.10000000000013
 20
-3.968749999999867
 30
0.0
  0
ENDBLK
  5
25F
330
25D
100
AcDbEntity
  8
0
100
AcDbBlockEnd
  0
BLOCK
  5
26C
330
26B
100
AcDbEntity
  8
0
100
AcDbBlockBegin
  2
*D17
 70
     1
 10
0.0
 20
0.0
 30
0.0
  3
*D17
  1
*D17
  0
LINE
  5
26E
330
26B
100
AcDbEntity
  8
치수문자_일반주서
 62
     0
370
    -2
100
AcDbLine
 10
37.94398902096288
 20
-7.071335881236407
 30
0.0
 11
48.05722069189499
 21
-41.28494244602369
 31
0.0
  0
MTEXT
  5
26F
330
26B
100
AcDbEntity
  8
치수문자_일반주서
 62
     0
100
AcDbMText
 10
46.60601890473568
 20
-27.11509282180588
 30
0.0
 40
3.5
 41
0.0
 71
     5
 72
     1
  1
\A1;R1.52 [R0.06]
  7
SLDTEXTSTYLE0
 11
0.2834664257345658
 21
-0.9589821611903268
 31
0.0
 73
     1
 44
1.0
  0
SOLID
  5
270
330
26B
100
AcDbEntity
  8
치수문자_일반주서
 62
     0
100
AcDbTrace
 10
38.47174887033795
 20
-6.915334858273818
 30
0.0
 11
37.41622917158781
 21
-7.227336904198996
 31
0.0
 12
37.00798288318735
 22
-3.904776784985948
 32
0.0
 13
37.00798288318735
 23
-3.904776784985948
 33
0.0
  0
LINE
  5
271
330
26B
100
AcDbEntity
  8
치수문자_일반주서
 62
     0
100
AcDbLine
 10
36.48598005036786
 20
-2.443287971331891
 30
0.0
 11
36.66598005036787
 21
-2.443287971331891
 31
0.0
  0
LINE
  5
272
330
26B
100
AcDbEntity
  8
치수문자_일반주서
 62
     0
100
AcDbLine
 10
36.57598005036787
 20
-2.533287971331891
 30
0.0
 11
36.57598005036787
 21
-2.353287971331891
 31
0.0
  0
POINT
  5
273
330
26B
100
AcDbEntity
  8
Defpoints
 62
     0
100
AcDbPoint
 10
37.00798288318735
 20
-3.904776784985948
 30
0.0
  0
POINT
  5
274
330
26B
100
AcDbEntity
  8
Defpoints
 62
     0
100
AcDbPoint
 10
36.57598005036787
 20
-2.443287971331891
 30
0.0
  0
ENDBLK
  5
26D
330
26B
100
AcDbEntity
  8
0
100
AcDbBlockEnd
  0
BLOCK
  5
284
330
283
100
AcDbEntity
  8
0
100
AcDbBlockBegin
  2
*D18
 70
     1
 10
0.0
 20
0.0
 30
0.0
  3
*D18
  1
*D18
  0
LINE
  5
286
330
283
100
AcDbEntity
  8
치수문자_일반주서
 62
     0
370
    -2
100
AcDbLine
 10
39.01919494525843
 20
-6.905975061121318
 30
0.0
 11
53.50659238359892
 21
-38.78964244782678
 31
0.0
  0
MTEXT
  5
287
330
283
100
AcDbEntity
  8
치수문자_일반주서
 62
     0
100
AcDbMText
 10
50.4668955042312
 20
-25.75444038258965
 30
0.0
 40
3.5
 41
0.0
 71
     5
 72
     1
  1
\A1;R0.76 [R.03]
  7
SLDTEXTSTYLE0
 11
0.4136803877227212
 21
-0.9104221750449508
 31
0.0
 73
     1
 44
1.0
  0
SOLID
  5
288
330
283
100
AcDbEntity
  8
치수문자_일반주서
 62
     0
100
AcDbTrace
 10
39.5202306155915
 20
-6.678312954411247
 30
0.0
 11
38.51815927492535
 21
-7.133637167831388
 31
0.0
 12
37.653222304998
 22
-3.89976103912289
 32
0.0
 13
37.653222304998
 23
-3.89976103912289
 33
0.0
  0
LINE
  5
289
330
283
100
AcDbEntity
  8
치수문자_일반주서
 62
     0
100
AcDbLine
 10
37.24799784955329
 20
-3.206019341738637
 30
0.0
 11
37.42799784955329
 21
-3.206019341738637
 31
0.0
  0
LINE
  5
28A
330
283
100
AcDbEntity
  8
치수문자_일반주서
 62
     0
100
AcDbLine
 10
37.33799784955329
 20
-3.296019341738637
 30
0.0
 11
37.33799784955329
 21
-3.116019341738637
 31
0.0
  0
POINT
  5
28B
330
283
100
AcDbEntity
  8
Defpoints
 62
     0
100
AcDbPoint
 10
37.653222304998
 20
-3.89976103912289
 30
0.0
  0
POINT
  5
28C
330
283
100
AcDbEntity
  8
Defpoints
 62
     0
100
AcDbPoint
 10
37.33799784955329
 20
-3.206019341738637
 30
0.0
  0
ENDBLK
  5
285
330
283
100
AcDbEntity
  8
0
100
AcDbBlockEnd
  0
ENDSEC
  0
SECTION
  2
ENTITIES
  0
LINE
  5
C5
330
1F
100
AcDbEntity
  8
참조1
100
AcDbLine
 10
0.4750000000000032
 20
-0.0000000000000039
 30
0.0
 11
0.4750000000000084
 21
-40.00000000000001
 31
0.0
  0
LINE
  5
C6
330
1F
100
AcDbEntity
  8
참조1
100
AcDbLine
 10
0.4750000000000084
 20
-40.00000000000001
 30
0.0
 11
-14.68385681430865
 21
-40.0
 31
0.0
  0
INSERT
  5
C8
330
1F
100
AcDbEntity
  8
0
  6
Continuous
 62
     7
100
AcDbBlockReference
 66
     1
  2
블럭10
 10
-13.4652729321252
 20
-52.04717430164393
 30
0.0
  0
ATTRIB
  5
C9
330
C8
100
AcDbEntity
  8
FORMAT
 62
     2
100
AcDbText
 10
-23.60690894426183
 20
-49.97180738881174
 30
0.0
 40
4.233333333333333
  1
EM212902 [ 4 FLUTE ]
 41
0.75
  7
SLDTEXTSTYLE0
 11
-23.60690894426183
 21
-52.08847405547841
 31
0.0
100
AcDbAttribute
  2
AUTOATTR0
 70
     0
 74
     1
  0
SEQEND
  5
CA
330
C8
100
AcDbEntity
  8
0
  6
Continuous
 62
     7
  0
HATCH
  5
CB
330
1F
100
AcDbEntity
  8
중심선
100
AcDbHatch
 10
0.0
 20
0.0
 30
0.0
210
0.0
220
0.0
230
1.0
  2
SOLID
 70
     1
 71
     0
 91
        1
 92
        0
 93
        4
 72
     1
 10
-7.750363627744367
 20
-35.8
 11
-11.19663887158165
 21
-35.8
 72
     1
 10
-11.19663887158165
 20
-35.8
 11
-13.32486873078567
 21
-38.33632558057259
 72
     1
 10
-13.32486873078567
 20
-38.33632558057259
 11
-9.87856040183524
 21
-38.3362861512701
 72
     1
 10
-9.87856040183524
 20
-38.3362861512701
 11
-7.750363627744367
 21
-35.8
 97
        0
 75
     0
 76
     1
 98
        1
 10
0.0
 20
0.0
  0
HATCH
  5
CC
330
1F
100
AcDbEntity
  8
중심선
100
AcDbHatch
 10
0.0
 20
0.0
 30
0.0
210
0.0
220
0.0
230
1.0
  2
SOLID
 70
     1
 71
     0
 91
        1
 92
        0
 93
        4
 72
     1
 10
-2.737599636708415
 20
-35.8
 11
-6.183874880545698
 21
-35.8
 72
     1
 10
-6.183874880545698
 20
-35.8
 11
-10.71501288890309
 21
-41.20000000000002
 72
     1
 10
-10.71501288890309
 20
-41.20000000000002
 11
-7.268737645065803
 21
-41.20000000000002
 72
     1
 10
-7.268737645065803
 20
-41.20000000000002
 11
-2.737599636708415
 21
-35.8
 97
        0
 75
     0
 76
     1
 98
        1
 10
0.0
 20
0.0
  0
HATCH
  5
CD
330
1F
100
AcDbEntity
  8
중심선
100
AcDbHatch
 10
0.0
 20
0.0
 30
0.0
210
0.0
220
0.0
230
1.0
  2
SOLID
 70
     1
 71
     0
 91
        1
 92
        0
 93
        4
 72
     1
 10
2.275164354327508
 20
-35.8
 11
-1.171110889509608
 21
-35.8
 72
     1
 10
-1.171110889509608
 20
-35.8
 11
-8.219547791398885
 21
-44.20000000000002
 72
     1
 10
-8.219547791398885
 20
-44.20000000000002
 11
-4.773272547561602
 21
-44.20000000000002
 72
     1
 10
-4.773272547561602
 20
-44.20000000000002
 11
2.275164354327508
 21
-35.8
 97
        0
 75
     0
 76
     1
 98
        1
 10
0.0
 20
0.0
  0
HATCH
  5
CE
330
1F
100
AcDbEntity
  8
중심선
100
AcDbHatch
 10
0.0
 20
0.0
 30
0.0
210
0.0
220
0.0
230
1.0
  2
SOLID
 70
     1
 71
     0
 91
        1
 92
        0
 93
        6
 72
     3
 10
7.075054785339679
 20
-40.00000000005127
 11
3.960054785062284
 21
1.540850780301639E-10
 40
0.3939339440162633
 50
17.09539180608433
 51
320.0019657685081
 73
     0
 72
     1
 10
8.758054441040276
 20
-38.5878940046383
 11
11.06335631474134
 21
-36.65356729459038
 72
     3
 10
7.075054785286833
 20
-40.00000000000015
 11
6.600054785286829
 21
-1.249000902703301E-13
 40
0.6363583540795982
 50
39.99873849337387
 51
368.4976242363725
 73
     1
 72
     1
 10
13.50038727718744
 20
-39.03999999993002
 11
5.755122092122756
 21
-39.03999999992999
 72
     1
 10
5.755122092122756
 20
-39.03999999992999
 11
5.755097047676822
 21
-40.95999999992991
 72
     1
 10
5.755097047676822
 20
-40.95999999992991
 11
10.19647681714886
 21
-40.95999999992988
 97
        0
 75
     0
 76
     1
 98
        1
 10
0.0
 20
0.0
  0
LINE
  5
121
330
1F
100
AcDbEntity
  8
참조1
100
AcDbLine
 10
83.28848381534561
 20
7.440000000000002
 30
0.0
 11
83.28848381534561
 21
-7.440000000000002
 31
0.0
  0
LINE
  5
122
330
1F
100
AcDbEntity
  8
참조1
100
AcDbLine
 10
95.98848381534562
 20
5.440000000000002
 30
0.0
 11
83.28848381534561
 21
5.440000000000002
 31
0.0
  0
SOLID
  5
123
330
1F
100
AcDbEntity
  8
참조1
100
AcDbTrace
 10
83.28848381534561
 20
5.440000000000002
 30
0.0
 11
89.63848381534561
 21
4.424000000000002
 31
0.0
 12
89.63848381534561
 22
6.456000000000002
 32
0.0
 13
89.63848381534561
 23
6.456000000000002
 33
0.0
  0
LINE
  5
124
330
1F
100
AcDbEntity
  8
참조1
100
AcDbLine
 10
95.98848381534562
 20
-5.440000000000002
 30
0.0
 11
83.28848381534561
 21
-5.440000000000002
 31
0.0
  0
SOLID
  5
125
330
1F
100
AcDbEntity
  8
참조1
100
AcDbTrace
 10
83.28848381534561
 20
-5.440000000000002
 30
0.0
 11
89.63848381534561
 21
-6.456000000000002
 31
0.0
 12
89.63848381534561
 22
-4.424000000000002
 32
0.0
 13
89.63848381534561
 23
-4.424000000000002
 33
0.0
  0
MTEXT
  5
126
330
1F
100
AcDbEntity
  8
참조1
100
AcDbMText
 10
92.88859862590819
 20
11.06571756601608
 30
0.0
 40
3.5
 41
0.0
 71
     1
 72
     1
  1
A
  7
SLDTEXTSTYLE0
 73
     1
 44
1.0
  0
MTEXT
  5
127
330
1F
100
AcDbEntity
  8
참조1
100
AcDbMText
 10
92.88859862590819
 20
0.1857175660160727
 30
0.0
 40
3.5
 41
0.0
 71
     1
 72
     1
  1
A
  7
SLDTEXTSTYLE0
 73
     1
 44
1.0
  0
LINE
  5
1FF
330
1F
100
AcDbEntity
  8
외형선
  6
Continuous
 62
     1
370
    15
100
AcDbLine
 10
27.891927664196
 20
-3.968750000000007
 30
0.0
 11
30.3124931385735
 21
-3.968750000000007
 31
0.0
  0
LINE
  5
200
330
1F
100
AcDbEntity
  8
외형선
  6
Continuous
 62
     1
370
    15
100
AcDbLine
 10
19.51362786705556
 20
3.968750000000007
 30
0.0
 11
17.0941629222695
 21
3.968750000000007
 31
0.0
  0
LINE
  5
201
330
1F
100
AcDbEntity
  8
외형선
  6
Continuous
 62
     1
370
    15
100
AcDbLine
 10
17.09416292226953
 20
-3.968750000000007
 30
0.0
 11
19.51362786705553
 21
-3.968750000000007
 31
0.0
  0
LINE
  5
202
330
1F
100
AcDbEntity
  8
외형선
  6
Continuous
 62
     1
370
    15
100
AcDbLine
 10
30.3124931385735
 20
3.968750000000007
 30
0.0
 11
27.89192766419606
 21
3.968750000000007
 31
0.0
  0
LINE
  5
203
330
1F
100
AcDbEntity
  8
외형선
  6
Continuous
370
    15
100
AcDbLine
 10
-37.30625
 20
-3.96875
 30
0.0
 11
9.27511022002281
 21
-3.96875
 31
0.0
  0
LINE
  5
204
330
1F
100
AcDbEntity
  8
외형선
  6
Continuous
370
    15
100
AcDbLine
 10
9.27511022002281
 20
3.96875
 30
0.0
 11
-37.30625
 21
3.96875
 31
0.0
  0
LINE
  5
205
330
1F
100
AcDbEntity
  8
외형선
  6
Continuous
370
    15
100
AcDbLine
 10
-37.30625
 20
3.96875
 30
0.0
 11
-38.1
 21
3.175000000000004
 31
0.0
  0
LINE
  5
206
330
1F
100
AcDbEntity
  8
외형선
  6
Continuous
370
    15
100
AcDbLine
 10
-38.1
 20
-3.175000000000004
 30
0.0
 11
-37.30625
 21
-3.96875
 31
0.0
  0
SPLINE
  5
207
330
1F
100
AcDbEntity
  8
외형선
  6
Continuous
 62
     1
370
    15
100
AcDbSpline
210
0.0
220
0.0
230
1.0
 70
     8
 71
     3
 72
    18
 73
    14
 74
     0
 42
0.000000001
 43
0.00000001
 40
0.0
 40
0.0
 40
0.0
 40
0.0
 40
0.097034796567976
 40
0.1940374603239432
 40
0.2910524353621311
 40
0.3881240646589668
 40
0.4852774490606118
 40
0.5823684889283608
 40
0.6738344676077221
 40
0.7652835000202257
 40
0.8568072699611802
 40
0.9484354606848587
 40
1.0
 40
1.0
 40
1.0
 40
1.0
 10
9.525000000000006
 20
-0.4654199781877821
 30
0.0
 10
9.982877773404766
 20
-0.726194252914361
 30
0.0
 10
10.8984816952206
 20
-1.247656447667524
 30
0.0
 10
12.27171900384127
 20
-1.975451480765045
 30
0.0
 10
13.64518719704338
 20
-2.625916983029242
 30
0.0
 10
15.01949853373145
 20
-3.171567325715635
 30
0.0
 10
16.39454681765963
 20
-3.590722140319727
 30
0.0
 10
17.74288236915802
 20
-3.861901148309698
 30
0.0
 10
19.06392334487865
 20
-3.983501311251516
 30
0.0
 10
20.3586719821661
 20
-3.963079704286145
 30
0.0
 10
21.65435974565924
 20
-3.796765014305905
 30
0.0
 10
22.76236990550629
 20
-3.557378045510255
 30
0.0
 10
23.43799825697334
 20
-3.329474850328978
 30
0.0
 10
23.6812959766425
 20
-3.247405577225621
 30
0.0
  0
SPLINE
  5
208
330
1F
100
AcDbEntity
  8
외형선
  6
Continuous
370
    15
100
AcDbSpline
210
0.0
220
0.0
230
1.0
 70
    24
 71
     3
 72
    22
 73
    18
 74
     0
 42
0.000000001
 43
0.00000001
 40
0.0
 40
0.0
 40
0.0
 40
0.0
 40
0.0113126128546551
 40
0.0843243694988162
 40
0.1594534720318297
 40
0.232465228675931
 40
0.3075943312088793
 40
0.3806060878529807
 40
0.4557351903859294
 40
0.5287469470300759
 40
0.6038760495629774
 40
0.6768878062070571
 40
0.752016908739982
 40
0.8250286653841035
 40
0.9001577679170735
 40
0.9731695245611754
 40
1.0
 40
1.0
 40
1.0
 40
1.0
 10
9.525000000000006
 20
3.539188937482287
 30
0.0
 10
9.525000000000006
 20
3.524469522163223
 30
0.0
 10
9.525000000000034
 20
3.414750800934222
 30
0.0
 10
9.525000000000006
 20
3.186561635452904
 30
0.0
 10
9.525000000000006
 20
2.834039343336435
 30
0.0
 10
9.525000000000006
 20
2.450611643811513
 30
0.0
 10
9.525000000000063
 20
2.054442099642017
 30
0.0
 10
9.525000000000034
 20
1.649503402472263
 30
0.0
 10
9.525000000000006
 20
1.254577013822086
 30
0.0
 10
9.524999999999977
 20
0.8737174273654844
 30
0.0
 10
9.525000000000034
 20
0.5245915549189988
 30
0.0
 10
9.525000000000063
 20
0.2106856667721573
 30
0.0
 10
9.52499999999992
 20
-0.0530499264683826
 30
0.0
 10
9.525000000000006
 20
-0.2654502919983059
 30
0.0
 10
9.525000000000006
 20
-0.4108946947593637
 30
0.0
 10
9.525000000000034
 20
-0.4881867059861946
 30
0.0
 10
9.525000000000006
 20
-0.4924162566235069
 30
0.0
 10
9.525000000000006
 20
-0.493552858361312
 30
0.0
  0
SPLINE
  5
209
330
1F
100
AcDbEntity
  8
외형선
  6
Continuous
 62
     1
370
    15
100
AcDbSpline
210
0.0
220
0.0
230
1.0
 70
     8
 71
     3
 72
    22
 73
    18
 74
     0
 42
0.000000001
 43
0.00000001
 40
0.0
 40
0.0
 40
0.0
 40
0.0
 40
0.0175398083226873
 40
0.0880717522458881
 40
0.1586919122061264
 40
0.2292314239167379
 40
0.2997134483315055
 40
0.3702086489281649
 40
0.4407875151505007
 40
0.5113864708752117
 40
0.5818909770591681
 40
0.6523702429700003
 40
0.7228949685395389
 40
0.792258577066082
 40
0.861539174751312
 40
0.930758000093569
 40
0.9999999999999999
 40
0.9999999999999999
 40
0.9999999999999999
 40
0.9999999999999999
 10
27.891927664196
 20
-3.954541141180798
 30
0.0
 10
27.7845498686508
 20
-3.958887628538655
 30
0.0
 10
27.24537917579119
 20
-3.980712425633264
 30
0.0
 10
26.27391358310965
 20
-3.874507141952051
 30
0.0
 10
24.97735392085954
 20
-3.641055388632324
 30
0.0
 10
23.68165951829417
 20
-3.266315006621468
 30
0.0
 10
22.38691040456914
 20
-2.779143845188429
 30
0.0
 10
21.09190805545313
 20
-2.192577118960934
 30
0.0
 10
19.79576761290207
 20
-1.528837494671258
 30
0.0
 10
18.49942819064361
 20
-0.8111237067928272
 30
0.0
 10
17.20424720984738
 20
-0.0641370048353167
 30
0.0
 10
15.90954728461088
 20
0.6849626577376711
 30
0.0
 10
14.6217341200333
 20
1.405553817554001
 30
0.0
 10
13.34063166285023
 20
2.072726778520646
 30
0.0
 10
12.06807528634931
 20
2.663474260587989
 30
0.0
 10
10.79651486914304
 20
3.17182963443674
 30
0.0
 10
9.948885579719416
 20
3.416722173690566
 30
0.0
 10
9.525000000000063
 20
3.539188937482002
 30
0.0
  0
LINE
  5
20A
330
1F
100
AcDbEntity
  8
외형선
  6
Continuous
 62
     1
370
    15
100
AcDbLine
 10
38.10000000000003
 20
-1.186220103103693
 30
0.0
 11
38.10000000000003
 21
-0.4405228968937749
 31
0.0
  0
SPLINE
  5
20B
330
1F
100
AcDbEntity
  8
외형선
  6
Continuous
 62
     1
370
    15
100
AcDbSpline
210
0.0
220
0.0
230
1.0
 70
     8
 71
     3
 72
    24
 73
    20
 74
     0
 42
0.000000001
 43
0.00000001
 40
0.0
 40
0.0
 40
0.0
 40
0.0
 40
0.1249999999999999
 40
0.1249999999999999
 40
0.2499999999999997
 40
0.2499999999999997
 40
0.3749999999999996
 40
0.3749999999999996
 40
0.4999999999999994
 40
0.4999999999999994
 40
0.6249999999999993
 40
0.6249999999999993
 40
0.7499999999999991
 40
0.7499999999999991
 40
0.8124999999999991
 40
0.8124999999999991
 40
0.874999999999999
 40
0.874999999999999
 40
1.0
 40
1.0
 40
1.0
 40
1.0
 10
35.814
 20
-2.848007678682038
 30
0.0
 10
35.96385598147027
 20
-2.908144156887964
 30
0.0
 10
36.10900545727947
 20
-2.957253211147055
 30
0.0
 10
36.39360990415353
 20
-3.031018720088618
 30
0.0
 10
36.53459559767112
 20
-3.055808972160534
 30
0.0
 10
36.80623527469746
 20
-3.072620632560465
 30
0.0
 10
36.93645844279062
 20
-3.065201471524325
 30
0.0
 10
37.18935887813712
 20
-3.011555095900164
 30
0.0
 10
37.31277840579302
 20
-2.964377462586427
 30
0.0
 10
37.54018651362487
 20
-2.82438797533235
 30
0.0
 10
37.6472331057058
 20
-2.729378082045365
 30
0.0
 10
37.83079194188168
 20
-2.492766382413329
 30
0.0
 10
37.90856862605461
 20
-2.348602613688655
 30
0.0
 10
37.99355603531979
 20
-2.112050612327366
 30
0.0
 10
38.01722796742553
 20
-2.028338729559131
 30
0.0
 10
38.05404136630313
 20
-1.860333161727119
 30
0.0
 10
38.06752651156186
 20
-1.775310847838426
 30
0.0
 10
38.09654561443754
 20
-1.517835362529105
 30
0.0
 10
38.10000000000009
 20
-1.34964062311122
 30
0.0
 10
38.10000000000006
 20
-1.186220103103693
 30
0.0
  0
SPLINE
  5
20C
330
1F
100
AcDbEntity
  8
외형선
  6
Continuous
 62
     1
370
    15
100
AcDbSpline
210
0.0
220
0.0
230
1.0
 70
     8
 71
     3
 72
    20
 73
    16
 74
     0
 42
0.000000001
 43
0.00000001
 40
0.0
 40
0.0
 40
0.0
 40
0.0
 40
0.0518303824652063
 40
0.1313140193536778
 40
0.2108883402642675
 40
0.2903631204306041
 40
0.369779953742116
 40
0.4492184878897672
 40
0.5287580838725947
 40
0.6082974823873565
 40
0.6877359300100884
 40
0.7657316602330817
 40
0.8437986986598659
 40
0.9219566086937069
 40
1.0
 40
1.0
 40
1.0
 40
1.0
 10
19.51362786705556
 20
3.952795377546771
 30
0.0
 10
19.79519606858472
 20
3.953305952918491
 30
0.0
 10
20.5085585889135
 20
3.954599512816273
 30
0.0
 10
21.65437144136453
 20
3.796658981132005
 30
0.0
 10
22.95091606210434
 20
3.50484631815209
 30
0.0
 10
24.24651462115429
 20
3.082977619944373
 30
0.0
 10
25.54123257246599
 20
2.553479108108142
 30
0.0
 10
26.83632213685385
 20
1.932991312590488
 30
0.0
 10
28.13256820286708
 20
1.244556649654243
 30
0.0
 10
29.42880721886524
 20
0.512008507622312
 30
0.0
 10
30.71619081598737
 20
-0.2344854072280143
 30
0.0
 10
31.99548367849908
 20
-0.9686584445493978
 30
0.0
 10
33.26805220623422
 20
-1.663459821689813
 30
0.0
 10
34.5414398674678
 20
-2.307739750958554
 30
0.0
 10
35.39002066769598
 20
-2.668006412411259
 30
0.0
 10
35.814
 20
-2.848007678682023
 30
0.0
  0
SPLINE
  5
20D
330
1F
100
AcDbEntity
  8
외형선
  6
Continuous
 62
     1
370
    15
100
AcDbSpline
210
0.0
220
0.0
230
1.0
 70
     8
 71
     3
 72
    32
 73
    28
 74
     0
 42
0.000000001
 43
0.00000001
 40
0.0
 40
0.0
 40
0.0
 40
0.0
 40
0.0624999999999995
 40
0.0624999999999995
 40
0.124999999999999
 40
0.124999999999999
 40
0.1874999999999986
 40
0.1874999999999986
 40
0.2499999999999981
 40
0.2499999999999981
 40
0.3124999999999976
 40
0.3124999999999976
 40
0.3749999999999971
 40
0.3749999999999971
 40
0.4999999999999987
 40
0.4999999999999987
 40
0.6250000000000002
 40
0.6250000000000002
 40
0.7500000000000018
 40
0.7500000000000018
 40
0.8125000000000013
 40
0.8125000000000013
 40
0.8750000000000009
 40
0.8750000000000009
 40
0.9375000000000003
 40
0.9375000000000003
 40
1.0
 40
1.0
 40
1.0
 40
1.0
 10
35.81400000000003
 20
1.612530451917223
 30
0.0
 10
35.56051474992677
 20
1.745989980992974
 30
0.0
 10
35.3064039274434
 20
1.87627209041954
 30
0.0
 10
34.80155667544417
 20
2.128139160593264
 30
0.0
 10
34.55112788180207
 20
2.249698392510837
 30
0.0
 10
34.04480516986507
 20
2.484082007372351
 30
0.0
 10
33.79057472072611
 20
2.596618789705637
 30
0.0
 10
33.28460838793865
 20
2.810338779617169
 30
0.0
 10
33.03436855892062
 20
2.911346785934128
 30
0.0
 10
32.5290299268535
 20
3.101825049997061
 30
0.0
 10
32.27485037023408
 20
3.191139663666249
 30
0.0
 10
31.76810045810066
 20
3.356257132550688
 30
0.0
 10
31.51711231861066
 20
3.431920227791736
 30
0.0
 10
30.76108165720828
 20
3.637975387092702
 30
0.0
 10
30.25045081952743
 20
3.74729567933791
 30
0.0
 10
29.24570871733943
 20
3.902653123021366
 30
0.0
 10
28.73379734832307
 20
3.949543844763021
 30
0.0
 10
27.72778754073263
 20
3.978291087489183
 30
0.0
 10
27.21846968658261
 20
3.960393191817261
 30
0.0
 10
26.4616671455901
 20
3.885835403756474
 30
0.0
 10
26.21105741730779
 20
3.853139373757791
 30
0.0
 10
25.70455174489933
 20
3.772025653224645
 30
0.0
 10
25.45033412828414
 20
3.72365308520687
 30
0.0
 10
24.94460131200688
 20
3.612181115427759
 30
0.0
 10
24.69440137902808
 20
3.549228118925491
 30
0.0
 10
24.18880072776423
 20
3.408781583871225
 30
0.0
 10
23.93459382678606
 20
3.331351747267362
 30
0.0
 10
23.68129601618429
 20
3.24740738787802
 30
0.0
  0
SPLINE
  5
20E
330
1F
100
AcDbEntity
  8
외형선
  6
Continuous
 62
     1
370
    15
100
AcDbSpline
210
0.0
220
0.0
230
1.0
 70
     8
 71
     3
 72
    22
 73
    18
 74
     0
 42
0.000000001
 43
0.00000001
 40
0.0
 40
0.0
 40
0.0
 40
0.0
 40
0.1250000000000001
 40
0.1250000000000001
 40
0.2500000000000001
 40
0.2500000000000001
 40
0.3750000000000001
 40
0.3750000000000001
 40
0.5000000000000001
 40
0.5000000000000001
 40
0.6250000000000001
 40
0.6250000000000001
 40
0.7500000000000001
 40
0.7500000000000001
 40
0.8750000000000001
 40
0.8750000000000001
 40
1.0
 40
1.0
 40
1.0
 40
1.0
 10
38.10000000000003
 20
-0.4405228968937749
 30
0.0
 10
38.10000000000003
 20
-0.3093073554897785
 30
0.0
 10
38.09622722039718
 20
-0.1924006652210153
 30
0.0
 10
38.06138431853518
 20
0.0200771882568418
 30
0.0
 10
38.0295948396711
 20
0.1166066369855017
 30
0.0
 10
37.93210052512644
 20
0.2909598969222742
 30
0.0
 10
37.86692292947556
 20
0.3697059803606919
 30
0.0
 10
37.70226788053839
 20
0.5223798394558301
 30
0.0
 10
37.60390752407131
 20
0.5951344808258128
 30
0.0
 10
37.38313382133047
 20
0.7402219011919939
 30
0.0
 10
37.25828110430704
 20
0.8141404399964642
 30
0.0
 10
36.99275138101562
 20
0.9658375262289383
 30
0.0
 10
36.85326977852814
 20
1.043083502859872
 30
0.0
 10
36.56270661333659
 20
1.204056110349534
 30
0.0
 10
36.4119612258144
 20
1.287786906492222
 30
0.0
 10
36.11368078754357
 20
1.451924363021632
 30
0.0
 10
35.96334967744563
 20
1.533898114873026
 30
0.0
 10
35.81400000000009
 20
1.612530451917259
 30
0.0
  0
LINE
  5
20F
330
1F
100
AcDbEntity
  8
외형선
  6
Continuous
370
    15
100
AcDbLine
 10
9.525000000000006
 20
3.539188937482287
 30
0.0
 11
9.525000000000006
 21
3.941365347998548
 31
0.0
  0
SPLINE
  5
210
330
1F
100
AcDbEntity
  8
외형선
  6
Continuous
 62
     1
370
    15
100
AcDbSpline
210
0.0
220
0.0
230
1.0
 70
     8
 71
     3
 72
    13
 73
     9
 74
     0
 42
0.000000001
 43
0.00000001
 40
0.0
 40
0.0
 40
0.0
 40
0.0
 40
0.1564895715423591
 40
0.3276151448829787
 40
0.4959233117311446
 40
0.6640300559194067
 40
0.8319869118589373
 40
1.0
 40
1.0
 40
1.0
 40
1.0
 10
17.09416292226953
 20
-3.963287550453828
 30
0.0
 10
16.69938278751059
 20
-3.954139635999404
 30
0.0
 10
15.87289991219026
 20
-3.934988229999476
 30
0.0
 10
14.62173424449747
 20
-3.734128785831537
 30
0.0
 10
13.34063162978899
 20
-3.412078119014318
 30
0.0
 10
12.06807529515231
 20
-2.970675079122813
 30
0.0
 10
10.79651486694226
 20
-2.432954546094983
 30
0.0
 10
9.948885578985738
 20
-2.008249487717038
 30
0.0
 10
9.525000000000063
 20
-1.795861416508828
 30
0.0
  0
LINE
  5
211
330
1F
100
AcDbEntity
  8
외형선
  6
Continuous
370
    15
100
AcDbLine
 10
9.525000000000006
 20
-1.795861416509069
 30
0.0
 11
9.525000000000006
 21
-0.465419978187775
 31
0.0
  0
SPLINE
  5
212
330
1F
100
AcDbEntity
  8
외형선
  6
Continuous
 62
     1
370
    15
100
AcDbSpline
210
0.0
220
0.0
230
1.0
 70
     8
 71
     3
 72
    24
 73
    20
 74
     0
 42
0.000000001
 43
0.00000001
 40
0.0
 40
0.0
 40
0.0
 40
0.0
 40
0.1249999999999999
 40
0.1249999999999999
 40
0.2499999999999999
 40
0.2499999999999999
 40
0.3749999999999998
 40
0.3749999999999998
 40
0.4999999999999997
 40
0.4999999999999997
 40
0.6249999999999996
 40
0.6249999999999996
 40
0.7499999999999993
 40
0.7499999999999993
 40
0.8124999999999992
 40
0.8124999999999992
 40
0.8749999999999992
 40
0.8749999999999992
 40
1.0
 40
1.0
 40
1.0
 40
1.0
 10
35.814
 20
2.764024027512797
 30
0.0
 10
35.96385598147027
 20
2.702060328936163
 30
0.0
 10
36.10900545727947
 20
2.626580042803205
 30
0.0
 10
36.39360990415353
 20
2.453893927965296
 30
0.0
 10
36.53459559767109
 20
2.355314722521683
 30
0.0
 10
36.80623527469744
 20
2.147047023981116
 30
0.0
 10
36.93645844279065
 20
2.037825013826385
 30
0.0
 10
37.18935887813709
 20
1.81434551995256
 30
0.0
 10
37.31277840579299
 20
1.69918270880256
 30
0.0
 10
37.54018651362487
 20
1.484116786391326
 30
0.0
 10
37.64723310570572
 20
1.381435288829046
 30
0.0
 10
37.83079194188162
 20
1.213565128521573
 30
0.0
 10
37.90856862605461
 20
1.147527844459297
 30
0.0
 10
37.99355603531976
 20
1.091314164431317
 30
0.0
 10
38.01722796742548
 20
1.079257233360501
 30
0.0
 10
38.0540413663031
 20
1.069361843719363
 30
0.0
 10
38.06752651156186
 20
1.071226156364972
 30
0.0
 10
38.09654561443754
 20
1.095475564381452
 30
0.0
 10
38.10000000000009
 20
1.135397550054101
 30
0.0
 10
38.10000000000006
 20
1.193536522059055
 30
0.0
  0
LINE
  5
213
330
1F
100
AcDbEntity
  8
외형선
  6
Continuous
 62
     1
370
    15
100
AcDbLine
 10
38.10000000000003
 20
-0.4405228968937749
 30
0.0
 11
38.10000000000003
 21
1.193536522059055
 31
0.0
  0
SPLINE
  5
214
330
1F
100
AcDbEntity
  8
외형선
  6
Continuous
 62
     1
370
    15
100
AcDbSpline
210
0.0
220
0.0
230
1.0
 70
     8
 71
     3
 72
    10
 73
     6
 74
     0
 42
0.000000001
 43
0.00000001
 40
0.0
 40
0.0
 40
0.0
 40
0.0
 40
0.4070759784100064
 40
0.8140171547041718
 40
0.9999999999999999
 40
0.9999999999999999
 40
0.9999999999999999
 40
0.9999999999999999
 10
9.525000000000006
 20
-3.941365347998548
 30
0.0
 10
9.982878784493948
 20
-3.893804756257644
 30
0.0
 10
10.89848472815336
 20
-3.798699322337917
 30
0.0
 10
12.0231456006463
 20
-3.543413070445048
 30
0.0
 10
12.69002998958277
 20
-3.31256048746377
 30
0.0
 10
12.89921202913851
 20
-3.240148814697307
 30
0.0
  0
SPLINE
  5
215
330
1F
100
AcDbEntity
  8
외형선
  6
Continuous
 62
     1
370
    15
100
AcDbSpline
210
0.0
220
0.0
230
1.0
 70
     8
 71
     3
 72
    12
 73
     8
 74
     0
 42
0.000000001
 43
0.00000001
 40
0.0
 40
0.0
 40
0.0
 40
0.0
 40
0.0748083643091452
 40
0.3058980225725668
 40
0.5371989563557947
 40
0.768769129090437
 40
1.0
 40
1.0
 40
1.0
 40
1.0
 10
30.3124931385735
 20
3.953489606341172
 30
0.0
 10
30.44966834112023
 20
3.957788128113776
 30
0.0
 10
31.01058988502191
 20
3.975365164082525
 30
0.0
 10
31.99547269592031
 20
3.866426485393184
 30
0.0
 10
33.26805514000347
 20
3.628281499454722
 30
0.0
 10
34.54143913492419
 20
3.263662292417344
 30
0.0
 10
35.39002042363413
 20
2.930488693922129
 30
0.0
 10
35.81400000000003
 20
2.764024027512797
 30
0.0
  0
LINE
  5
216
330
1F
100
AcDbEntity
  8
외형선
  6
Continuous
 62
     1
370
    15
100
AcDbLine
 10
38.10000000000003
 20
1.193536522059055
 30
0.0
 11
38.0999900251142
 21
3.206018635030853
 31
0.0
  0
SPLINE
  5
217
330
1F
100
AcDbEntity
  8
외형선
  6
Continuous
370
    15
100
AcDbSpline
210
0.0
220
0.0
230
1.0
 70
    24
 71
     3
 72
    13
 73
     9
 74
     0
 42
0.000000001
 43
0.00000001
 40
0.0
 40
0.0
 40
0.0
 40
0.0
 40
0.1415398464979122
 40
0.3182047289010175
 40
0.4948696113041225
 40
0.6715344937071795
 40
0.8481993761102363
 40
1.0
 40
1.0
 40
1.0
 40
1.0
 10
9.525000000000006
 20
-1.848452432212135
 30
0.0
 10
9.524999999999977
 20
-1.927037153861413
 30
0.0
 10
9.524999999999949
 20
-2.103708463509463
 30
0.0
 10
9.524999999999977
 20
-2.429066981295854
 30
0.0
 10
9.525000000000006
 20
-2.802184395527441
 30
0.0
 10
9.525000000000006
 20
-3.196612037997539
 30
0.0
 10
9.525000000000006
 20
-3.580998374228891
 30
0.0
 10
9.525000000000006
 20
-3.82746197649346
 30
0.0
 10
9.525000000000006
 20
-3.941365347998548
 30
0.0
  0
LINE
  5
218
330
1F
100
AcDbEntity
  8
외형선
  6
Continuous
 62
     1
370
    15
100
AcDbLine
 10
38.09996783851621
 20
-3.212782175452115
 30
0.0
 11
38.10000000000003
 21
-1.186220103103693
 31
0.0
  0
LINE
  5
219
330
1F
100
AcDbEntity
  8
외형선
  6
Continuous
 62
     1
370
    15
100
AcDbLine
 10
38.10000000000003
 20
1.624065004798851
 30
0.0
 11
38.10000000000003
 21
1.682750000000006
 31
0.0
  0
LINE
  5
21A
330
1F
100
AcDbEntity
  8
외형선
  6
Continuous
370
    15
100
AcDbLine
 10
9.27511022002281
 20
3.955664639724304
 30
0.0
 11
9.27511022002281
 21
3.96875
 31
0.0
  0
SPLINE
  5
21B
330
1F
100
AcDbEntity
  8
외형선
  6
Continuous
370
    15
100
AcDbSpline
210
0.0
220
0.0
230
1.0
 70
     8
 71
     3
 72
     8
 73
     4
 74
     0
 42
0.000000001
 43
0.00000001
 40
0.0
 40
0.0
 40
0.0
 40
0.0
 40
1.0
 40
1.0
 40
1.0
 40
1.0
 10
9.525000000000006
 20
3.941365347998541
 30
0.0
 10
9.4418394018887
 20
3.946996777132419
 30
0.0
 10
9.35851544090184
 20
3.951766070134795
 30
0.0
 10
9.27511022002281
 20
3.955665966288478
 30
0.0
  0
SPLINE
  5
21C
330
1F
100
AcDbEntity
  8
외형선
  6
Continuous
370
    15
100
AcDbSpline
210
0.0
220
0.0
230
1.0
 70
     8
 71
     3
 72
     8
 73
     4
 74
     0
 42
0.000000001
 43
0.00000001
 40
0.0
 40
0.0
 40
0.0
 40
0.0
 40
1.0
 40
1.0
 40
1.0
 40
1.0
 10
9.525000000000006
 20
3.539188937482017
 30
0.0
 10
9.4418394018887
 20
3.560918271793575
 30
0.0
 10
9.35851544090184
 20
3.581884352485076
 30
0.0
 10
9.27511022002281
 20
3.602064156677862
 30
0.0
  0
SPLINE
  5
21D
330
1F
100
AcDbEntity
  8
외형선
  6
Continuous
370
    15
100
AcDbSpline
210
0.0
220
0.0
230
1.0
 70
     8
 71
     3
 72
     8
 73
     4
 74
     0
 42
0.000000001
 43
0.00000001
 40
0.0
 40
0.0
 40
0.0
 40
0.0
 40
1.0
 40
1.0
 40
1.0
 40
1.0
 10
9.525000000000006
 20
-0.4654199781877821
 30
0.0
 10
9.4418394018887
 20
-0.4177307497743996
 30
0.0
 10
9.35851544090184
 20
-0.3699080729112367
 30
0.0
 10
9.27511022002281
 20
-0.3219989528663234
 30
0.0
  0
SPLINE
  5
21E
330
1F
100
AcDbEntity
  8
외형선
  6
Continuous
370
    15
100
AcDbSpline
210
0.0
220
0.0
230
1.0
 70
     8
 71
     3
 72
     8
 73
     4
 74
     0
 42
0.000000001
 43
0.00000001
 40
0.0
 40
0.0
 40
0.0
 40
0.0
 40
1.0
 40
1.0
 40
1.0
 40
1.0
 10
9.525000000000006
 20
-1.795861416508792
 30
0.0
 10
9.4418394018887
 20
-1.753038390796803
 30
0.0
 10
9.35851544090184
 20
-1.709792835666384
 30
0.0
 10
9.27511022002281
 20
-1.666166370347405
 30
0.0
  0
LINE
  5
21F
330
1F
100
AcDbEntity
  8
외형선
  6
Continuous
370
    15
100
AcDbLine
 10
9.27511022002281
 20
-3.96875
 30
0.0
 11
9.27511022002281
 21
-1.666142451551799
 31
0.0
  0
SPLINE
  5
220
330
1F
100
AcDbEntity
  8
외형선
  6
Continuous
370
    15
100
AcDbSpline
210
0.0
220
0.0
230
1.0
 70
     8
 71
     3
 72
     8
 73
     4
 74
     0
 42
0.000000001
 43
0.00000001
 40
0.0
 40
0.0
 40
0.0
 40
0.0
 40
1.0
 40
1.0
 40
1.0
 40
1.0
 10
9.525000000000006
 20
-3.941365347998541
 30
0.0
 10
9.4418394018887
 20
-3.946996777132419
 30
0.0
 10
9.35851544090184
 20
-3.951766070134795
 30
0.0
 10
9.27511022002281
 20
-3.955665966288478
 30
0.0
  0
LINE
  5
221
330
1F
100
AcDbEntity
  8
외형선
  6
Continuous
370
    15
100
AcDbLine
 10
-37.30625
 20
0.0
 30
0.0
 11
-37.30625
 21
3.96875
 31
0.0
  0
LINE
  5
222
330
1F
100
AcDbEntity
  8
외형선
  6
Continuous
370
    15
100
AcDbLine
 10
-37.30625
 20
-3.96875
 30
0.0
 11
-37.30625
 21
0.0
 31
0.0
  0
LINE
  5
223
330
1F
100
AcDbEntity
  8
외형선
  6
Continuous
370
    15
100
AcDbLine
 10
9.27511022002281
 20
-0.3220152489165002
 30
0.0
 11
9.27511022002281
 21
3.602075220430166
 31
0.0
  0
LINE
  5
224
330
1F
100
AcDbEntity
  8
외형선
  6
Continuous
370
    15
100
AcDbLine
 10
-38.1
 20
0.0
 30
0.0
 11
-38.1
 21
3.175000000000004
 31
0.0
  0
LINE
  5
225
330
1F
100
AcDbEntity
  8
외형선
  6
Continuous
370
    15
100
AcDbLine
 10
-38.1
 20
-3.175000000000004
 30
0.0
 11
-38.1
 21
0.0
 31
0.0
  0
SPLINE
  5
226
330
1F
100
AcDbEntity
  8
외형선
  6
Continuous
370
    15
100
AcDbSpline
210
0.0
220
0.0
230
1.0
 70
    24
 71
     3
 72
    21
 73
    17
 74
     0
 42
0.000000001
 43
0.00000001
 40
0.0
 40
0.0
 40
0.0
 40
0.0
 40
0.0338422349060894
 40
0.1070601376210348
 40
0.1824013644748459
 40
0.255619267189817
 40
0.330960494043656
 40
0.4041783967586141
 40
0.4795196236124389
 40
0.5527375263273969
 40
0.6280787531812223
 40
0.701296655896176
 40
0.7766378827499961
 40
0.8498557854649614
 40
0.925197012318794
 40
1.0
 40
1.0
 40
1.0
 40
1.0
 10
9.525000000000006
 20
-0.4918301014058244
 30
0.0
 10
9.525000000000006
 20
-0.4892681672234858
 30
0.0
 10
9.525000000000006
 20
-0.4811634712157087
 30
0.0
 10
9.524999999999977
 20
-0.3952750125620668
 30
0.0
 10
9.525000000000006
 20
-0.241100389651109
 30
0.0
 10
9.524999999999977
 20
-0.0212501012404829
 30
0.0
 10
9.525000000000034
 20
0.2491442008396305
 30
0.0
 10
9.524999999999949
 20
0.5686246169776084
 30
0.0
 10
9.525000000000091
 20
0.9220443229641333
 30
0.0
 10
9.524999999999949
 20
1.305850205341109
 30
0.0
 10
9.525000000000006
 20
1.702267504832349
 30
0.0
 10
9.525000000000006
 20
2.107134412889977
 30
0.0
 10
9.52499999999992
 20
2.502011310947751
 30
0.0
 10
9.525000000000034
 20
2.881673913761439
 30
0.0
 10
9.524999999999977
 20
3.235354400354154
 30
0.0
 10
9.524999999999977
 20
3.438153090341096
 30
0.0
 10
9.524999999999977
 20
3.539188937482031
 30
0.0
  0
SPLINE
  5
227
330
1F
100
AcDbEntity
  8
외형선
  6
Continuous
370
    15
100
AcDbSpline
210
0.0
220
0.0
230
1.0
 70
    24
 71
     3
 72
    13
 73
     9
 74
     0
 42
0.000000001
 43
0.00000001
 40
0.0
 40
0.0
 40
0.0
 40
0.0
 40
0.1769050434881597
 40
0.3538100869763192
 40
0.5303247013829099
 40
0.7068393157895003
 40
0.8833539301961544
 40
1.0
 40
1.0
 40
1.0
 40
1.0
 10
9.525000000000006
 20
-3.941365347998541
 30
0.0
 10
9.525000000000006
 20
-3.808291707069358
 30
0.0
 10
9.525000000000006
 20
-3.542144425210985
 30
0.0
 10
9.525000000000006
 20
-3.138662950439944
 30
0.0
 10
9.525000000000006
 20
-2.746363344806994
 30
0.0
 10
9.524999999999977
 20
-2.376846687287092
 30
0.0
 10
9.525000000000006
 20
-2.071903085367182
 30
0.0
 10
9.525000000000006
 20
-1.912047550212272
 30
0.0
 10
9.525000000000006
 20
-1.848442432212131
 30
0.0
  0
LINE
  5
228
330
1F
100
AcDbEntity
  8
중심선
 62
     1
100
AcDbLine
 10
-41.10000000000001
 20
-0.0000000000000071
 30
0.0
 11
41.1
 21
0.0000000000000071
 31
0.0
  0
CIRCLE
  5
229
330
1F
100
AcDbEntity
  8
해칭선
100
AcDbCircle
 10
-0.4750000000000156
 20
-0.0010749287238951
 30
0.0
 40
3.000000000000002
  0
DIMENSION
  5
22A
330
1F
100
AcDbEntity
  8
치수문자_일반주서
100
AcDbDimension
  2
*D13
 10
-50.94124999999999
 20
-3.968750000000043
 30
0.0
 11
-50.94125
 21
-0.0000000000000071
 31
0.0
 70
   160
  1
%%c<>
 71
     2
 42
7.937499999999986
 52
-270.0
  3
SLDDIMSTYLE0
100
AcDbAlignedDimension
 13
-37.30624999999999
 23
3.968749999999993
 33
0.0
 14
-37.30624999999999
 24
-3.968749999999993
 34
0.0
 50
90.0000000000002
100
AcDbRotatedDimension
1001
ACAD
1000
DSTYLE
1002
{
1070
   171
1070
     6
1070
   273
1070
     7
1002
}
  0
DIMENSION
  5
22B
330
1F
100
AcDbEntity
  8
치수문자_일반주서
100
AcDbDimension
  2
*D14
 10
9.525000000000006
 20
12.17484838547433
 30
0.0
 11
23.8125
 21
12.17484838547433
 31
0.0
 70
   160
  1
<>
 71
     2
 42
28.57500000000002
  3
SLDDIMSTYLE0
100
AcDbAlignedDimension
 13
38.10000000000003
 23
1.624065004798851
 33
0.0
 14
9.525000000000006
 24
3.941365347998541
 34
0.0
100
AcDbRotatedDimension
1001
ACAD
1000
DSTYLE
1002
{
1070
   171
1070
     6
1070
   273
1070
     7
1002
}
  0
DIMENSION
  5
22C
330
1F
100
AcDbEntity
  8
치수문자_일반주서
100
AcDbDimension
  2
*D15
 10
-38.1
 20
23.957624442723
 30
0.0
 11
0.0000000000000071
 21
23.957624442723
 31
0.0
 70
   160
  1
<>
 71
     2
 42
76.20000000000003
  3
SLDDIMSTYLE1
100
AcDbAlignedDimension
 13
38.10000000000003
 23
1.624065004798851
 33
0.0
 14
-38.1
 24
3.175000000000004
 34
0.0
 50
0.0000000000000053
100
AcDbRotatedDimension
1001
ACAD
1000
DSTYLE
1002
{
1070
   171
1070
     6
1070
   273
1070
     7
1002
}
  0
DIMENSION
  5
22D
330
1F
100
AcDbEntity
  8
치수문자_일반주서
100
AcDbDimension
  2
*D16
 10
57.10000000000013
 20
-3.968749999999869
 30
0.0
 11
57.10000000000003
 21
24.57275000000014
 31
0.0
 70
   160
  1
%%c<>
 71
     2
 42
7.937500000000014
 52
-270.0
  3
SLDDIMSTYLE2
100
AcDbAlignedDimension
 13
19.51477765272918
 23
3.968750000000007
 33
0.0
 14
19.51477765272915
 24
-3.968750000000007
 34
0.0
 50
90.0000000000002
100
AcDbRotatedDimension
1001
ACAD
1000
DSTYLE
1002
{
1070
   171
1070
     6
1070
   273
1070
     7
1002
}
  0
INSERT
  5
22E
330
1F
100
AcDbEntity
  8
해칭선
100
AcDbBlockReference
  2
SW_DOWELSYMBOL_0
 10
-0.4750000000000156
 20
-0.0010749287238951
 30
0.0
  0
LINE
  5
22F
330
1F
100
AcDbEntity
  8
외형선
  6
Continuous
 62
     1
370
    15
100
AcDbLine
 10
37.33799002518395
 20
3.968018985665988
 30
0.0
 11
33.93642796644451
 21
3.431374992769975
 31
0.0
  0
SPLINE
  5
230
330
1F
100
AcDbEntity
  8
외형선
  6
Continuous
 62
     1
370
    15
100
AcDbSpline
210
0.0
220
0.0
230
1.0
 70
     8
 71
     3
 72
    20
 73
    16
 74
     0
 42
0.000000001
 43
0.00000001
 40
0.3456924208245601
 40
0.3456924208245601
 40
0.3456924208245601
 40
0.3456924208245601
 40
0.3597709970415338
 40
0.4163065356022719
 40
0.4729127845516112
 40
0.5294543891430464
 40
0.585949914255452
 40
0.6424560008595447
 40
0.6990291504275022
 40
0.7556184029237647
 40
0.8121319485082881
 40
0.8686252625160943
 40
0.9251550151380205
 40
0.9807540635469837
 40
1.0
 40
1.0
 40
1.0
 40
1.0
 10
27.89236957067189
 20
-0.0000000000003126
 30
0.0
 10
27.78484432122752
 20
0.062108572340172
 30
0.0
 10
27.24553023112793
 20
0.3736209962754629
 30
0.0
 10
26.27391238285423
 20
0.9316457011837898
 30
0.0
 10
24.97735424268802
 20
1.641954900094149
 30
0.0
 10
23.6816594304986
 20
2.294836724001357
 30
0.0
 10
22.38691043436367
 20
2.866307531322427
 30
0.0
 10
21.09190802402659
 20
3.336329879106756
 30
0.0
 10
19.79576770891342
 20
3.687955308320539
 30
0.0
 10
18.49942783816851
 20
3.909141876893329
 30
0.0
 10
17.20424852159459
 20
3.991454520730805
 30
0.0
 10
15.90954238991807
 20
3.934417692618091
 30
0.0
 10
14.62175227334549
 20
3.731435833753096
 30
0.0
 10
13.61784973011115
 20
3.494334038315166
 30
0.0
 10
13.0462066098309
 20
3.292141425596157
 30
0.0
 10
12.89921202913851
 20
3.240148814697307
 30
0.0
  0
SPLINE
  5
231
330
1F
100
AcDbEntity
  8
외형선
  6
Continuous
 62
     1
370
    15
100
AcDbSpline
210
0.0
220
0.0
230
1.0
 70
  1064
 71
     3
 72
    10
 73
     6
 74
     4
 42
0.000000001
 43
0.0000000001
 44
0.0
 40
0.0
 40
0.0
 40
0.0
 40
0.0
 40
3.530533475799239
 40
8.197955314751354
 40
10.34847035233994
 40
10.34847035233994
 40
10.34847035233994
 40
10.34847035233994
 10
37.33726754365355
 20
-3.968018991773525
 30
0.0
 10
36.16877076842192
 20
-3.779284199185856
 30
0.0
 10
33.45550252880798
 20
-3.341038985940196
 30
0.0
 10
30.38664427448807
 20
-1.638412978727654
 30
0.0
 10
28.49046334536035
 20
-0.3928695590133338
 30
0.0
 10
27.89236957067189
 20
-0.0000000000003126
 30
0.0
 11
37.33726754365355
 21
-3.968018991773525
 31
0.0
 11
33.884106944693
 21
-3.232934981931443
 31
0.0
 11
29.69915588177028
 21
-1.166292481722678
 31
0.0
 11
27.89236957067189
 21
-0.0000000000003126
 31
0.0
  0
SPLINE
  5
232
330
1F
100
AcDbEntity
  8
외형선
  6
Continuous
 62
     1
370
    15
100
AcDbSpline
210
0.0
220
0.0
230
1.0
 70
     8
 71
     3
 72
    26
 73
    22
 74
     0
 42
0.000000001
 43
0.00000001
 40
0.0
 40
0.0
 40
0.0
 40
0.0
 40
0.0549930958065933
 40
0.1099679807973573
 40
0.1649498430328481
 40
0.2199638132665402
 40
0.2750241170472739
 40
0.3300490879469503
 40
0.3818861351348043
 40
0.4337135782660738
 40
0.4855833778324341
 40
0.5375123563975844
 40
0.5893763762032298
 40
0.6412025807822092
 40
0.6930429469932551
 40
0.7449492646043573
 40
0.7968554533508373
 40
0.8486957630970509
 40
0.8995945776464567
 40
0.950539926833467
 40
0.9870497347764391
 40
0.9870497347764391
 40
0.9870497347764391
 40
0.9870497347764391
 10
9.525000000000006
 20
3.941365347998548
 30
0.0
 10
9.982877773496256
 20
3.895163675265081
 30
0.0
 10
10.89848169549509
 20
3.802775629357861
 30
0.0
 10
12.27171900274374
 20
3.470692470510784
 30
0.0
 10
13.64518720116078
 20
3.011663557969044
 30
0.0
 10
15.01949851834434
 20
2.429527709298824
 30
0.0
 10
16.39454687512367
 20
1.751825590703589
 30
0.0
 10
17.74288216010561
 20
1.018095711568265
 30
0.0
 10
19.06392407488491
 20
0.2613302260348291
 30
0.0
 10
20.3586692519354
 20
-0.4897721055769466
 30
0.0
 10
21.65436995072957
 20
-1.223605000281083
 30
0.0
 10
22.95091646193015
 20
-1.913423775722478
 30
0.0
 10
24.24651451131311
 20
-2.536201876277289
 30
0.0
 10
25.54123261253719
 20
-3.06898632144074
 30
0.0
 10
26.8363220863543
 20
-3.493138946753191
 30
0.0
 10
28.1325683649666
 20
-3.793393588819008
 30
0.0
 10
29.42880662137995
 20
-3.959239027865173
 30
0.0
 10
30.7161930236928
 20
-3.985394563702307
 30
0.0
 10
31.99547560267564
 20
-3.87079252277131
 30
0.0
 10
33.1473995275106
 20
-3.6557417504062
 30
0.0
 10
33.87572998878906
 20
-3.44323815344125
 30
0.0
 10
34.17979378718178
 20
-3.351030561866331
 30
0.0
  0
ARC
  5
233
330
1F
100
AcDbEntity
  8
외형선
  6
Continuous
 62
     1
370
    15
100
AcDbCircle
 10
35.814
 20
1.682750000000006
 30
0.0
 40
2.286000000000008
100
AcDbArc
 50
10.5648644452481
 51
10.85396879171827
  0
LINE
  5
27B
330
1F
100
AcDbEntity
  8
0
100
AcDbLine
 10
38.09999501255712
 20
2.199777578544954
 30
0.0
 11
38.10000000000003
 21
3.968750000000076
 31
0.0
  0
LINE
  5
27D
330
1F
100
AcDbEntity
  8
0
100
AcDbLine
 10
38.10000000000003
 20
3.968750000000076
 30
0.0
 11
30.69748982480232
 21
3.961655381447965
 31
0.0
  0
ARC
  5
27E
330
1F
100
AcDbEntity
  8
외형선
  6
Continuous
 62
     1
370
    15
100
AcDbCircle
 10
37.33799784955329
 20
3.20601934173865
 30
0.0
 40
0.762
100
AcDbArc
 50
359.7406344933175
 51
90.05491266694835
  0
ARC
  5
27F
102
{ACAD_REACTORS
102
}
330
1F
100
AcDbEntity
  8
외형선
  6
Continuous
 62
     1
370
    15
100
AcDbCircle
 10
37.33799784955329
 20
-3.206019341738637
 30
0.0
 40
0.762
100
AcDbArc
 50
269.9450873330516
 51
0.2593655066824195
  0
DIMENSION
  5
280
102
{ACAD_REACTORS
102
}
102
{ACAD_XDICTIONARY
360
281
102
}
330
1F
100
AcDbEntity
  8
치수문자_일반주서
100
AcDbDimension
  2
*D18
 10
37.33799784955329
 20
-3.206019341738637
 30
0.0
 11
48.0770372947382
 21
-26.8403514003618
 31
0.0
 70
   164
  1
<>
 71
     5
 42
0.7620000000000002
  3
SLDDIMSTYLE2
100
AcDbRadialDimension
 15
37.653222304998
 25
-3.89976103912289
 35
0.0
 40
0.0
1001
ACAD
1000
DSTYLE
1002
{
1070
   285
1070
     4
1070
    78
1070
     8
1070
   171
1070
     2
1070
   273
1070
     2
1002
}
1001
ACAD_DSTYLE_DIMRADIAL_EXTENSION
1070
   387
1070
     1
1070
   388
1040
4.71143057354539
1070
   390
1040
0.0045267820577116
  0
ENDSEC
  0
SECTION
  2
OBJECTS
  0
DICTIONARY
  5
C
330
0
100
AcDbDictionary
281
     1
  3
ACAD_GROUP
350
D
  3
ACAD_IMAGE_VARS
350
152
  3
ACAD_LAYOUT
350
1A
  3
ACAD_MLINESTYLE
350
17
  3
ACAD_PLOTSETTINGS
350
19
  3
ACAD_PLOTSTYLENAME
350
E
  3
ACAD_SCALELIST
350
47
  3
APPDATA
350
150
  3
DWGPROPS
350
28E
  0
DICTIONARY
  5
281
330
280
100
AcDbDictionary
280
     1
281
     1
  0
DICTIONARY
  5
D
102
{ACAD_REACTORS
330
C
102
}
330
C
100
AcDbDictionary
281
     1
  0
RASTERVARIABLES
  5
152
102
{ACAD_REACTORS
330
C
102
}
330
C
100
AcDbRasterVariables
 90
        0
 70
     1
 71
     1
 72
     1
  0
DICTIONARY
  5
1A
102
{ACAD_REACTORS
330
C
102
}
330
C
100
AcDbDictionary
281
     1
  3
Layout1
350
1E
  3
Layout2
350
26
  3
Model
350
22
  0
DICTIONARY
  5
17
102
{ACAD_REACTORS
330
C
102
}
330
C
100
AcDbDictionary
281
     1
  3
Standard
350
18
  0
DICTIONARY
  5
19
102
{ACAD_REACTORS
330
C
102
}
330
C
100
AcDbDictionary
281
     1
  0
ACDBDICTIONARYWDFLT
  5
E
102
{ACAD_REACTORS
330
C
102
}
330
C
100
AcDbDictionary
281
     1
  3
Normal
350
F
100
AcDbDictionaryWithDefault
340
F
  0
DICTIONARY
  5
47
102
{ACAD_REACTORS
330
C
102
}
330
C
100
AcDbDictionary
281
     1
  3
A0
350
48
  3
A1
350
49
  3
A2
350
4A
  3
A3
350
4B
  3
A4
350
4C
  3
A5
350
4D
  3
A6
350
4E
  3
A7
350
4F
  3
A8
350
50
  3
A9
350
51
  3
B0
350
52
  3
B1
350
53
  3
B2
350
54
  3
B3
350
55
  3
B4
350
56
  3
B5
350
57
  3
B6
350
58
  3
B7
350
59
  3
B8
350
5A
  3
B9
350
5B
  3
C0
350
5C
  3
C1
350
5D
  3
C2
350
5E
  3
C3
350
5F
  3
C4
350
60
  3
C5
350
61
  3
C6
350
62
  3
C7
350
63
  3
C8
350
64
  3
C9
350
65
  3
D0
350
66
  3
D1
350
67
  3
D2
350
68
  0
DICTIONARY
  5
150
102
{ACAD_REACTORS
330
C
102
}
330
C
100
AcDbDictionary
281
     1
  0
XRECORD
  5
28E
102
{ACAD_REACTORS
330
C
102
}
330
C
100
AcDbXrecord
280
     1
  1
DWGPROPS COOKIE
  2

  3

  4

  6

  7

  8
12016016
  9

300
=
301
=
302
=
303
=
304
=
305
=
306
=
307
=
308
=
309
=
 40
0.0
 41
2458304.074363414
 42
2458304.197893461
  1

 90
        0
  0
LAYOUT
  5
1E
102
{ACAD_REACTORS
330
1A
102
}
330
1A
100
AcDbPlotSettings
  1

  2
none_device
  4

  6

 40
0.0
 41
0.0
 42
0.0
 43
0.0
 44
0.0
 45
0.0
 46
0.0
 47
0.0
 48
0.0
 49
0.0
140
0.0
141
0.0
142
1.0
143
1.0
 70
   688
 72
     1
 73
     0
 74
     5
  7

 75
    16
147
1.0
148
0.0
149
0.0
100
AcDbLayout
  1
Layout1
 70
     1
 71
     1
 10
0.0
 20
0.0
 11
420.0
 21
297.0
 12
0.0
 22
0.0
 32
0.0
 14
1.000000000000000E+20
 24
1.000000000000000E+20
 34
1.000000000000000E+20
 15
-1.000000000000000E+20
 25
-1.000000000000000E+20
 35
-1.000000000000000E+20
146
0.0
 13
0.0
 23
0.0
 33
0.0
 16
1.0
 26
0.0
 36
0.0
 17
0.0
 27
1.0
 37
0.0
 76
     0
330
1B
  0
LAYOUT
  5
26
102
{ACAD_REACTORS
330
1A
102
}
330
1A
100
AcDbPlotSettings
  1

  2
none_device
  4

  6

 40
0.0
 41
0.0
 42
0.0
 43
0.0
 44
0.0
 45
0.0
 46
0.0
 47
0.0
 48
0.0
 49
0.0
140
0.0
141
0.0
142
1.0
143
1.0
 70
   688
 72
     1
 73
     0
 74
     5
  7

 75
    16
147
1.0
148
0.0
149
0.0
100
AcDbLayout
  1
Layout2
 70
     1
 71
     2
 10
0.0
 20
0.0
 11
0.0
 21
0.0
 12
0.0
 22
0.0
 32
0.0
 14
0.0
 24
0.0
 34
0.0
 15
0.0
 25
0.0
 35
0.0
146
0.0
 13
0.0
 23
0.0
 33
0.0
 16
1.0
 26
0.0
 36
0.0
 17
0.0
 27
1.0
 37
0.0
 76
     0
330
23
  0
LAYOUT
  5
22
102
{ACAD_REACTORS
330
1A
102
}
330
1A
100
AcDbPlotSettings
  1

  2
none_device
  4
ANSI_A_(11.00_x_8.50_Inches)
  6

 40
6.35
 41
19.05
 42
6.35000508
 43
19.05000254
 44
279.4
 45
215.9
 46
102.804710225224
 47
101.5700474066163
 48
0.0
 49
0.0
140
0.0
141
0.0
142
0.0692538323280726
143
1.0
 70
  1696
 72
     0
 73
     0
 74
     0
  7

 75
     0
147
0.0235690232323232
148
0.0
149
0.0
100
AcDbLayout
  1
Model
 70
     1
 71
     0
 10
0.0
 20
0.0
 11
420.0
 21
297.0
 12
0.0
 22
0.0
 32
0.0
 14
1.000000000000000E+20
 24
1.000000000000000E+20
 34
1.000000000000000E+20
 15
-1.000000000000000E+20
 25
-1.000000000000000E+20
 35
-1.000000000000000E+20
146
0.0
 13
0.0
 23
0.0
 33
0.0
 16
1.0
 26
0.0
 36
0.0
 17
0.0
 27
1.0
 37
0.0
 76
     0
330
1F
331
29
  0
MLINESTYLE
  5
18
102
{ACAD_REACTORS
330
17
102
}
330
17
100
AcDbMlineStyle
  2
Standard
 70
     0
  3

 62
   256
 51
90.0
 52
90.0
 71
     2
 49
0.5
 62
   256
  6
BYLAYER
 49
-0.5
 62
   256
  6
BYLAYER
  0
ACDBPLACEHOLDER
  5
F
102
{ACAD_REACTORS
330
E
102
}
330
E
  0
SCALE
  5
48
102
{ACAD_REACTORS
330
47
102
}
330
47
100
AcDbScale
 70
     0
300
1:1
140
1.0
141
1.0
290
     1
  0
SCALE
  5
49
102
{ACAD_REACTORS
330
47
102
}
330
47
100
AcDbScale
 70
     0
300
1:2
140
1.0
141
2.0
290
     0
  0
SCALE
  5
4A
102
{ACAD_REACTORS
330
47
102
}
330
47
100
AcDbScale
 70
     0
300
1:4
140
1.0
141
4.0
290
     0
  0
SCALE
  5
4B
102
{ACAD_REACTORS
330
47
102
}
330
47
100
AcDbScale
 70
     0
300
1:5
140
1.0
141
5.0
290
     0
  0
SCALE
  5
4C
102
{ACAD_REACTORS
330
47
102
}
330
47
100
AcDbScale
 70
     0
300
1:8
140
1.0
141
8.0
290
     0
  0
SCALE
  5
4D
102
{ACAD_REACTORS
330
47
102
}
330
47
100
AcDbScale
 70
     0
300
1:10
140
1.0
141
10.0
290
     0
  0
SCALE
  5
4E
102
{ACAD_REACTORS
330
47
102
}
330
47
100
AcDbScale
 70
     0
300
1:16
140
1.0
141
16.0
290
     0
  0
SCALE
  5
4F
102
{ACAD_REACTORS
330
47
102
}
330
47
100
AcDbScale
 70
     0
300
1:20
140
1.0
141
20.0
290
     0
  0
SCALE
  5
50
102
{ACAD_REACTORS
330
47
102
}
330
47
100
AcDbScale
 70
     0
300
1:30
140
1.0
141
30.0
290
     0
  0
SCALE
  5
51
102
{ACAD_REACTORS
330
47
102
}
330
47
100
AcDbScale
 70
     0
300
1:40
140
1.0
141
40.0
290
     0
  0
SCALE
  5
52
102
{ACAD_REACTORS
330
47
102
}
330
47
100
AcDbScale
 70
     0
300
1:50
140
1.0
141
50.0
290
     0
  0
SCALE
  5
53
102
{ACAD_REACTORS
330
47
102
}
330
47
100
AcDbScale
 70
     0
300
1:100
140
1.0
141
100.0
290
     0
  0
SCALE
  5
54
102
{ACAD_REACTORS
330
47
102
}
330
47
100
AcDbScale
 70
     0
300
2:1
140
2.0
141
1.0
290
     0
  0
SCALE
  5
55
102
{ACAD_REACTORS
330
47
102
}
330
47
100
AcDbScale
 70
     0
300
4:1
140
4.0
141
1.0
290
     0
  0
SCALE
  5
56
102
{ACAD_REACTORS
330
47
102
}
330
47
100
AcDbScale
 70
     0
300
8:1
140
8.0
141
1.0
290
     0
  0
SCALE
  5
57
102
{ACAD_REACTORS
330
47
102
}
330
47
100
AcDbScale
 70
     0
300
10:1
140
10.0
141
1.0
290
     0
  0
SCALE
  5
58
102
{ACAD_REACTORS
330
47
102
}
330
47
100
AcDbScale
 70
     0
300
100:1
140
100.0
141
1.0
290
     0
  0
SCALE
  5
59
102
{ACAD_REACTORS
330
47
102
}
330
47
100
AcDbScale
 70
     0
300
1/128" = 1'-0"
140
0.0078125
141
12.0
290
     0
  0
SCALE
  5
5A
102
{ACAD_REACTORS
330
47
102
}
330
47
100
AcDbScale
 70
     0
300
1/64" = 1'-0"
140
0.015625
141
12.0
290
     0
  0
SCALE
  5
5B
102
{ACAD_REACTORS
330
47
102
}
330
47
100
AcDbScale
 70
     0
300
1/32" = 1'-0"
140
0.03125
141
12.0
290
     0
  0
SCALE
  5
5C
102
{ACAD_REACTORS
330
47
102
}
330
47
100
AcDbScale
 70
     0
300
1/16" = 1'-0"
140
0.0625
141
12.0
290
     0
  0
SCALE
  5
5D
102
{ACAD_REACTORS
330
47
102
}
330
47
100
AcDbScale
 70
     0
300
3/32" = 1'-0"
140
0.09375
141
12.0
290
     0
  0
SCALE
  5
5E
102
{ACAD_REACTORS
330
47
102
}
330
47
100
AcDbScale
 70
     0
300
1/8" = 1'-0"
140
0.125
141
12.0
290
     0
  0
SCALE
  5
5F
102
{ACAD_REACTORS
330
47
102
}
330
47
100
AcDbScale
 70
     0
300
3/16" = 1'-0"
140
0.1875
141
12.0
290
     0
  0
SCALE
  5
60
102
{ACAD_REACTORS
330
47
102
}
330
47
100
AcDbScale
 70
     0
300
1/4" = 1'-0"
140
0.25
141
12.0
290
     0
  0
SCALE
  5
61
102
{ACAD_REACTORS
330
47
102
}
330
47
100
AcDbScale
 70
     0
300
3/8" = 1'-0"
140
0.375
141
12.0
290
     0
  0
SCALE
  5
62
102
{ACAD_REACTORS
330
47
102
}
330
47
100
AcDbScale
 70
     0
300
1/2" = 1'-0"
140
0.5
141
12.0
290
     0
  0
SCALE
  5
63
102
{ACAD_REACTORS
330
47
102
}
330
47
100
AcDbScale
 70
     0
300
3/4" = 1'-0"
140
0.75
141
12.0
290
     0
  0
SCALE
  5
64
102
{ACAD_REACTORS
330
47
102
}
330
47
100
AcDbScale
 70
     0
300
1" = 1'-0"
140
1.0
141
12.0
290
     0
  0
SCALE
  5
65
102
{ACAD_REACTORS
330
47
102
}
330
47
100
AcDbScale
 70
     0
300
1-1/2" = 1'-0"
140
1.5
141
12.0
290
     0
  0
SCALE
  5
66
102
{ACAD_REACTORS
330
47
102
}
330
47
100
AcDbScale
 70
     0
300
3" = 1'-0"
140
3.0
141
12.0
290
     0
  0
SCALE
  5
67
102
{ACAD_REACTORS
330
47
102
}
330
47
100
AcDbScale
 70
     0
300
6" = 1'-0"
140
6.0
141
12.0
290
     0
  0
SCALE
  5
68
102
{ACAD_REACTORS
330
47
102
}
330
47
100
AcDbScale
 70
     0
300
1'-0" = 1'-0"
140
12.0
141
12.0
290
     0
  0
ENDSEC
  0
EOF
