  0
SECTION
  2
HEADER
  9
$ACADVER
  1
AC1015
  9
$ACADMAINTVER
 70
     6
  9
$DWGCODEPAGE
  3
ANSI_949
  9
$INSBASE
 10
0.0
 20
0.0
 30
0.0
  9
$EXTMIN
 10
1.000000000000000E+20
 20
1.000000000000000E+20
 30
1.000000000000000E+20
  9
$EXTMAX
 10
-1.000000000000000E+20
 20
-1.000000000000000E+20
 30
-1.000000000000000E+20
  9
$LIMMIN
 10
0.0
 20
0.0
  9
$LIMMAX
 10
420.0
 20
297.0
  9
$ORTHOMODE
 70
     0
  9
$REGENMODE
 70
     1
  9
$FILLMODE
 70
     1
  9
$QTEXTMODE
 70
     0
  9
$MIRRTEXT
 70
     1
  9
$LTSCALE
 40
1.0
  9
$ATTMODE
 70
     1
  9
$TEXTSIZE
 40
3.5
  9
$TRACEWID
 40
1.0
  9
$TEXTSTYLE
  7
Standard
  9
$CLAYER
  8
0
  9
$CELTYPE
  6
ByLayer
  9
$CECOLOR
 62
   256
  9
$CELTSCALE
 40
1.0
  9
$DISPSILH
 70
     0
  9
$DIMSCALE
 40
1.0
  9
$DIMASZ
 40
3.302
  9
$DIMEXO
 40
1.0
  9
$DIMDLI
 40
3.75
  9
$DIMRND
 40
0.0
  9
$DIMDLE
 40
0.0
  9
$DIMEXE
 40
1.0
  9
$DIMTP
 40
0.0
  9
$DIMTM
 40
0.0
  9
$DIMTXT
 40
3.5
  9
$DIMCEN
 40
2.5
  9
$DIMTSZ
 40
0.0
  9
$DIMTOL
 70
     0
  9
$DIMLIM
 70
     0
  9
$DIMTIH
 70
     1
  9
$DIMTOH
 70
     1
  9
$DIMSE1
 70
     0
  9
$DIMSE2
 70
     0
  9
$DIMTAD
 70
     1
  9
$DIMZIN
 70
     0
  9
$DIMBLK
  1

  9
$DIMASO
 70
     1
  9
$DIMSHO
 70
     1
  9
$DIMPOST
  1

  9
$DIMAPOST
  1

  9
$DIMALT
 70
     0
  9
$DIMALTD
 70
     3
  9
$DIMALTF
 40
0.0393700787401575
  9
$DIMLFAC
 40
1.0
  9
$DIMTOFL
 70
     1
  9
$DIMTVP
 40
0.0
  9
$DIMTIX
 70
     0
  9
$DIMSOXD
 70
     0
  9
$DIMSAH
 70
     0
  9
$DIMBLK1
  1

  9
$DIMBLK2
  1

  9
$DIMSTYLE
  2
ISO-25
  9
$DIMCLRD
 70
     0
  9
$DIMCLRE
 70
     0
  9
$DIMCLRT
 70
     0
  9
$DIMTFAC
 40
1.0
  9
$DIMGAP
 40
1.524
  9
$DIMJUST
 70
     0
  9
$DIMSD1
 70
     0
  9
$DIMSD2
 70
     0
  9
$DIMTOLJ
 70
     0
  9
$DIMTZIN
 70
     0
  9
$DIMALTZ
 70
     0
  9
$DIMALTTZ
 70
     0
  9
$DIMUPT
 70
     0
  9
$DIMDEC
 70
     2
  9
$DIMTDEC
 70
     2
  9
$DIMALTU
 70
     2
  9
$DIMALTTD
 70
     3
  9
$DIMTXSTY
  7
Standard
  9
$DIMAUNIT
 70
     0
  9
$DIMADEC
 70
     2
  9
$DIMALTRND
 40
0.0
  9
$DIMAZIN
 70
     0
  9
$DIMDSEP
 70
    44
  9
$DIMATFIT
 70
     3
  9
$DIMFRAC
 70
     0
  9
$DIMLDRBLK
  1

  9
$DIMLUNIT
 70
     2
  9
$DIMLWD
 70
    -2
  9
$DIMLWE
 70
    -2
  9
$DIMTMOVE
 70
     0
  9
$LUNITS
 70
     2
  9
$LUPREC
 70
     2
  9
$SKETCHINC
 40
1.0
  9
$FILLETRAD
 40
10.0
  9
$AUNITS
 70
     0
  9
$AUPREC
 70
     2
  9
$MENU
  1
.
  9
$ELEVATION
 40
0.0
  9
$PELEVATION
 40
0.0
  9
$THICKNESS
 40
0.0
  9
$LIMCHECK
 70
     0
  9
$CHAMFERA
 40
0.0
  9
$CHAMFERB
 40
0.0
  9
$CHAMFERC
 40
0.0
  9
$CHAMFERD
 40
0.0
  9
$SKPOLY
 70
     0
  9
$TDCREATE
 40
2458304.449436725
  9
$TDUCREATE
 40
2458304.074436725
  9
$TDUPDATE
 40
2458304.571142222
  9
$TDUUPDATE
 40
2458304.196142222
  9
$TDINDWG
 40
0.0010706829
  9
$TDUSRTIMER
 40
2458304.195071771
  9
$USRTIMER
 70
     1
  9
$ANGBASE
 50
0.0
  9
$ANGDIR
 70
     0
  9
$PDMODE
 70
     0
  9
$PDSIZE
 40
-1.0
  9
$PLINEWID
 40
0.0
  9
$SPLFRAME
 70
     0
  9
$SPLINETYPE
 70
     6
  9
$SPLINESEGS
 70
     8
  9
$HANDSEED
  5
2BC
  9
$SURFTAB1
 70
     6
  9
$SURFTAB2
 70
     6
  9
$SURFTYPE
 70
     6
  9
$SURFU
 70
     6
  9
$SURFV
 70
     6
  9
$UCSBASE
  2

  9
$UCSNAME
  2

  9
$UCSORG
 10
0.0
 20
0.0
 30
0.0
  9
$UCSXDIR
 10
1.0
 20
0.0
 30
0.0
  9
$UCSYDIR
 10
0.0
 20
1.0
 30
0.0
  9
$UCSORTHOREF
  2

  9
$UCSORTHOVIEW
 70
     0
  9
$UCSORGTOP
 10
0.0
 20
0.0
 30
0.0
  9
$UCSORGBOTTOM
 10
0.0
 20
0.0
 30
0.0
  9
$UCSORGLEFT
 10
0.0
 20
0.0
 30
0.0
  9
$UCSORGRIGHT
 10
0.0
 20
0.0
 30
0.0
  9
$UCSORGFRONT
 10
0.0
 20
0.0
 30
0.0
  9
$UCSORGBACK
 10
0.0
 20
0.0
 30
0.0
  9
$PUCSBASE
  2

  9
$PUCSNAME
  2

  9
$PUCSORG
 10
0.0
 20
0.0
 30
0.0
  9
$PUCSXDIR
 10
1.0
 20
0.0
 30
0.0
  9
$PUCSYDIR
 10
0.0
 20
1.0
 30
0.0
  9
$PUCSORTHOREF
  2

  9
$PUCSORTHOVIEW
 70
     0
  9
$PUCSORGTOP
 10
0.0
 20
0.0
 30
0.0
  9
$PUCSORGBOTTOM
 10
0.0
 20
0.0
 30
0.0
  9
$PUCSORGLEFT
 10
0.0
 20
0.0
 30
0.0
  9
$PUCSORGRIGHT
 10
0.0
 20
0.0
 30
0.0
  9
$PUCSORGFRONT
 10
0.0
 20
0.0
 30
0.0
  9
$PUCSORGBACK
 10
0.0
 20
0.0
 30
0.0
  9
$USERI1
 70
     0
  9
$USERI2
 70
     0
  9
$USERI3
 70
     0
  9
$USERI4
 70
     0
  9
$USERI5
 70
     0
  9
$USERR1
 40
0.0
  9
$USERR2
 40
0.0
  9
$USERR3
 40
0.0
  9
$USERR4
 40
0.0
  9
$USERR5
 40
0.0
  9
$WORLDVIEW
 70
     1
  9
$SHADEDGE
 70
     3
  9
$SHADEDIF
 70
    70
  9
$TILEMODE
 70
     1
  9
$MAXACTVP
 70
    64
  9
$PINSBASE
 10
0.0
 20
0.0
 30
0.0
  9
$PLIMCHECK
 70
     0
  9
$PEXTMIN
 10
1.000000000000000E+20
 20
1.000000000000000E+20
 30
1.000000000000000E+20
  9
$PEXTMAX
 10
-1.000000000000000E+20
 20
-1.000000000000000E+20
 30
-1.000000000000000E+20
  9
$PLIMMIN
 10
0.0
 20
0.0
  9
$PLIMMAX
 10
0.0
 20
0.0
  9
$UNITMODE
 70
     0
  9
$VISRETAIN
 70
     1
  9
$PLINEGEN
 70
     0
  9
$PSLTSCALE
 70
     1
  9
$TREEDEPTH
 70
  3020
  9
$CMLSTYLE
  2
Standard
  9
$CMLJUST
 70
     0
  9
$CMLSCALE
 40
20.0
  9
$PROXYGRAPHICS
 70
     1
  9
$MEASUREMENT
 70
     1
  9
$CELWEIGHT
370
    -1
  9
$ENDCAPS
280
     0
  9
$JOINSTYLE
280
     0
  9
$LWDISPLAY
290
     1
  9
$INSUNITS
 70
     4
  9
$HYPERLINKBASE
  1

  9
$STYLESHEET
  1

  9
$XEDIT
290
     1
  9
$CEPSNTYPE
380
     0
  9
$PSTYLEMODE
290
     1
  9
$FINGERPRINTGUID
  2
{02C8EB95-5C60-4752-B6DD-D913FDED0C2D}
  9
$VERSIONGUID
  2
{FAEB1C32-E019-11D5-929B-00C0DF256EC4}
  9
$EXTNAMES
290
     1
  9
$PSVPSCALE
 40
0.0
  9
$OLESTARTUP
290
     0
  0
ENDSEC
  0
SECTION
  2
CLASSES
  0
CLASS
  1
ACDBDICTIONARYWDFLT
  2
AcDbDictionaryWithDefault
  3
ObjectDBX Classes
 90
        0
280
     0
281
     0
  0
CLASS
  1
VISUALSTYLE
  2
AcDbVisualStyle
  3
ObjectDBX Classes
 90
     4095
280
     0
281
     0
  0
CLASS
  1
MATERIAL
  2
AcDbMaterial
  3
ObjectDBX Classes
 90
     1153
280
     0
281
     0
  0
CLASS
  1
SCALE
  2
AcDbScale
  3
ObjectDBX Classes
 90
     1153
280
     0
281
     0
  0
CLASS
  1
SUN
  2
AcDbSun
  3
SCENEOE
 90
     1153
280
     0
281
     0
  0
CLASS
  1
ACDBPLACEHOLDER
  2
AcDbPlaceHolder
  3
ObjectDBX Classes
 90
        0
280
     0
281
     0
  0
CLASS
  1
LAYOUT
  2
AcDbLayout
  3
ObjectDBX Classes
 90
        0
280
     0
281
     0
  0
CLASS
  1
TABLESTYLE
  2
AcDbTableStyle
  3
ObjectDBX Classes
 90
     4095
280
     0
281
     0
  0
CLASS
  1
MLEADERSTYLE
  2
AcDbMLeaderStyle
  3
ACDB_MLEADERSTYLE_CLASS
 90
     4095
280
     0
281
     0
  0
CLASS
  1
RASTERVARIABLES
  2
AcDbRasterVariables
  3
ISM
 90
        0
280
     0
281
     0
  0
CLASS
  1
DIMASSOC
  2
AcDbDimAssoc
  3
"AcDbDimAssoc|Product Desc:     AcDim ARX App For Dimension|Company:          Autodesk, Inc.|WEB Address:      www.autodesk.com"
 90
        0
280
     0
281
     0
  0
ENDSEC
  0
SECTION
  2
TABLES
  0
TABLE
  2
VPORT
  5
8
330
0
100
AcDbSymbolTable
 70
     1
  0
VPORT
  5
29
330
8
100
AcDbSymbolTableRecord
100
AcDbViewportTableRecord
  2
*Active
 70
     0
 10
0.0
 20
0.0
 11
1.0
 21
1.0
 12
2.384169297029047
 22
-5.319463036373353
 13
0.0
 23
0.0
 14
10.0
 24
10.0
 15
10.0
 25
10.0
 16
0.0
 26
0.0
 36
1.0
 17
0.0
 27
0.0
 37
0.0
 40
129.5671212098786
 41
1.547388781431335
 42
50.0
 43
0.0
 44
0.0
 50
0.0
 51
0.0
 71
    16
 72
  2000
 73
     1
 74
     3
 75
     0
 76
     0
 77
     0
 78
     0
281
     0
 65
     1
110
0.0
120
0.0
130
0.0
111
1.0
121
0.0
131
0.0
112
0.0
122
1.0
132
0.0
 79
     0
146
0.0
  0
ENDTAB
  0
TABLE
  2
LTYPE
  5
5
330
0
100
AcDbSymbolTable
 70
     6
  0
LTYPE
  5
14
330
5
100
AcDbSymbolTableRecord
100
AcDbLinetypeTableRecord
  2
ByBlock
 70
     0
  3

 72
    65
 73
     0
 40
0.0
  0
LTYPE
  5
15
330
5
100
AcDbSymbolTableRecord
100
AcDbLinetypeTableRecord
  2
ByLayer
 70
     0
  3

 72
    65
 73
     0
 40
0.0
  0
LTYPE
  5
16
330
5
100
AcDbSymbolTableRecord
100
AcDbLinetypeTableRecord
  2
Continuous
 70
     0
  3
Solid line
 72
    65
 73
     0
 40
0.0
  0
LTYPE
  5
6A
330
5
100
AcDbSymbolTableRecord
100
AcDbLinetypeTableRecord
  2
HIDDEN
 70
     0
  3
Hidden __ __ __ __ __ __ __ __ __ __ __ __ __ __
 72
    65
 73
     2
 40
1.905
 49
1.27
 74
     0
 49
-0.635
 74
     0
  0
LTYPE
  5
6B
330
5
100
AcDbSymbolTableRecord
100
AcDbLinetypeTableRecord
  2
PHANTOM
 70
     0
  3
Phantom ______  __  __  ______  __  __  ______
 72
    65
 73
     6
 40
12.7
 49
6.35
 74
     0
 49
-1.27
 74
     0
 49
1.27
 74
     0
 49
-1.27
 74
     0
 49
1.27
 74
     0
 49
-1.27
 74
     0
  0
LTYPE
  5
6C
330
5
100
AcDbSymbolTableRecord
100
AcDbLinetypeTableRecord
  2
CENTER
 70
     0
  3
Center ____ _ ____ _ ____ _ ____ _ ____ _ ____
 72
    65
 73
     4
 40
10.16
 49
6.35
 74
     0
 49
-1.27
 74
     0
 49
1.27
 74
     0
 49
-1.27
 74
     0
  0
LTYPE
  5
6D
330
5
100
AcDbSymbolTableRecord
100
AcDbLinetypeTableRecord
  2
CENTERX2
 70
     0
  3
Center (2x) ________  __  ________  __  _____
 72
    65
 73
     4
 40
20.32
 49
12.7
 74
     0
 49
-2.54
 74
     0
 49
2.54
 74
     0
 49
-2.54
 74
     0
  0
LTYPE
  5
6E
330
5
100
AcDbSymbolTableRecord
100
AcDbLinetypeTableRecord
  2
DOT2
 70
     0
  3
Dot (.5x) ........................................
 72
    65
 73
     2
 40
0.635
 49
0.0
 74
     0
 49
-0.635
 74
     0
  0
ENDTAB
  0
TABLE
  2
LAYER
  5
2
330
0
100
AcDbSymbolTable
 70
    18
  0
LAYER
  5
10
330
2
100
AcDbSymbolTableRecord
100
AcDbLayerTableRecord
  2
0
 70
     0
 62
     7
  6
Continuous
370
    -3
390
F
  0
LAYER
  5
6F
330
2
100
AcDbSymbolTableRecord
100
AcDbLayerTableRecord
  2
FORMAT
 70
     0
 62
     2
  6
Continuous
370
    -3
390
F
  0
LAYER
  5
70
330
2
100
AcDbSymbolTableRecord
100
AcDbLayerTableRecord
  2
외형선
 70
     0
 62
     4
  6
Continuous
370
    30
390
F
  0
LAYER
  5
71
330
2
100
AcDbSymbolTableRecord
100
AcDbLayerTableRecord
  2
숨은선
 70
     0
 62
     2
  6
HIDDEN
370
    15
390
F
  0
LAYER
  5
72
330
2
100
AcDbSymbolTableRecord
100
AcDbLayerTableRecord
  2
중심선
 70
     0
 62
     1
  6
CENTERX2
370
    -3
390
F
  0
LAYER
  5
73
330
2
100
AcDbSymbolTableRecord
100
AcDbLayerTableRecord
  2
파단선
 70
     0
 62
     4
  6
Continuous
370
    -3
390
F
  0
LAYER
  5
74
330
2
100
AcDbSymbolTableRecord
100
AcDbLayerTableRecord
  2
해칭선
 70
     0
 62
   100
  6
Continuous
370
    -3
390
F
  0
LAYER
  5
75
330
2
100
AcDbSymbolTableRecord
100
AcDbLayerTableRecord
  2
가는실선
 70
     0
 62
     4
  6
Continuous
370
    -3
390
F
  0
LAYER
  5
76
330
2
100
AcDbSymbolTableRecord
100
AcDbLayerTableRecord
  2
치수_보조선
 70
     0
 62
     4
  6
Continuous
370
    -3
390
F
  0
LAYER
  5
77
330
2
100
AcDbSymbolTableRecord
100
AcDbLayerTableRecord
  2
치수문자_일반주서
 70
     0
 62
     7
  6
Continuous
370
    15
390
F
  0
LAYER
  5
78
330
2
100
AcDbSymbolTableRecord
100
AcDbLayerTableRecord
  2
개별주서
 70
     0
 62
   100
  6
Continuous
370
    30
390
F
  0
LAYER
  5
79
330
2
100
AcDbSymbolTableRecord
100
AcDbLayerTableRecord
  2
중간선
 70
     0
 62
     2
  6
Continuous
370
    15
390
F
  0
LAYER
  5
7A
330
2
100
AcDbSymbolTableRecord
100
AcDbLayerTableRecord
  2
윤곽선
 70
     0
 62
     3
  6
Continuous
370
    40
390
F
  0
LAYER
  5
7B
330
2
100
AcDbSymbolTableRecord
100
AcDbLayerTableRecord
  2
중심마크
 70
     0
 62
   100
  6
Continuous
370
    30
390
F
  0
LAYER
  5
7C
330
2
100
AcDbSymbolTableRecord
100
AcDbLayerTableRecord
  2
가상선
 70
     0
 62
     4
  6
PHANTOM
370
    -3
390
F
  0
LAYER
  5
7D
330
2
100
AcDbSymbolTableRecord
100
AcDbLayerTableRecord
  2
특수지정선
 70
     0
 62
     5
  6
CENTERX2
370
    60
390
F
  0
LAYER
  5
7E
330
2
100
AcDbSymbolTableRecord
100
AcDbLayerTableRecord
  2
참조1
 70
     0
 62
    -4
  6
Continuous
370
    -3
390
F
  0
LAYER
  5
152
330
2
100
AcDbSymbolTableRecord
100
AcDbLayerTableRecord
  2
Defpoints
 70
     0
 62
     7
  6
Continuous
290
     0
370
    -3
390
F
  0
ENDTAB
  0
TABLE
  2
STYLE
  5
3
330
0
100
AcDbSymbolTable
 70
     2
  0
STYLE
  5
11
330
3
100
AcDbSymbolTableRecord
100
AcDbTextStyleTableRecord
  2
Standard
 70
     0
 40
0.0
 41
1.0
 50
0.0
 71
     0
 42
3.5
  3
txt
  4

  0
STYLE
  5
94
330
3
100
AcDbSymbolTableRecord
100
AcDbTextStyleTableRecord
  2
SLDTEXTSTYLE0
 70
     0
 40
0.0
 41
0.75
 50
0.0
 71
     0
 42
3.5
  3
TXT
  4

  0
ENDTAB
  0
TABLE
  2
VIEW
  5
6
330
0
100
AcDbSymbolTable
 70
     0
  0
ENDTAB
  0
TABLE
  2
UCS
  5
7
330
0
100
AcDbSymbolTable
 70
     0
  0
ENDTAB
  0
TABLE
  2
APPID
  5
9
330
0
100
AcDbSymbolTable
 70
     2
  0
APPID
  5
12
330
9
100
AcDbSymbolTableRecord
100
AcDbRegAppTableRecord
  2
ACAD
 70
     0
  0
APPID
  5
160
330
9
100
AcDbSymbolTableRecord
100
AcDbRegAppTableRecord
  2
ACAD_DSTYLE_DIMRADIAL_EXTENSION
 70
     0
  0
ENDTAB
  0
TABLE
  2
DIMSTYLE
  5
A
330
0
100
AcDbSymbolTable
 70
     4
100
AcDbDimStyleTable
  0
DIMSTYLE
105
27
330
A
100
AcDbSymbolTableRecord
100
AcDbDimStyleTableRecord
  2
ISO-25
 70
     0
 41
2.5
 42
0.625
 43
3.75
 44
1.25
 73
     0
 74
     0
 77
     1
 78
     8
140
2.5
141
2.5
143
0.03937007874016
147
0.625
171
     3
172
     1
178
     0
271
     2
272
     2
274
     3
278
    44
283
     0
284
     8
340
11
  0
DIMSTYLE
105
CF
102
{ACAD_REACTORS
330
1AC
330
1B9
330
25E
330
25F
102
}
330
A
100
AcDbSymbolTableRecord
100
AcDbDimStyleTableRecord
  2
SLDDIMSTYLE0
 70
     0
 41
3.302
 44
0.0
 45
0.000000001
 73
     0
 74
     0
 77
     1
 78
    12
 79
     3
140
3.5
143
0.0393700787401575
147
0.875
148
0.000000001
170
     1
172
     1
173
     1
178
     0
271
     2
272
     2
276
     2
284
    12
289
     0
340
94
  0
DIMSTYLE
105
F9
102
{ACAD_REACTORS
330
1C6
330
260
102
}
330
A
100
AcDbSymbolTableRecord
100
AcDbDimStyleTableRecord
  2
SLDDIMSTYLE1
 70
     0
 41
3.302
 44
0.0
 45
0.000000001
 73
     0
 74
     0
 77
     1
 78
     4
 79
     1
140
3.5
143
0.0393700787401575
147
0.875
148
0.000000001
170
     1
173
     1
178
     0
271
     2
272
     2
276
     2
284
    12
340
94
  0
DIMSTYLE
105
10D
102
{ACAD_REACTORS
330
1D3
330
1EF
330
261
330
2AD
102
}
330
A
100
AcDbSymbolTableRecord
100
AcDbDimStyleTableRecord
  2
SLDDIMSTYLE2
 70
     0
 41
3.302
 44
0.0
 45
0.000000001
 73
     0
 74
     0
 77
     1
 78
    12
 79
     3
140
3.5
143
0.0393700787401575
147
0.875
148
0.000000001
170
     1
173
     1
178
     0
271
     2
272
     2
276
     2
284
    12
340
94
  0
ENDTAB
  0
TABLE
  2
BLOCK_RECORD
  5
1
330
0
100
AcDbSymbolTable
 70
    19
  0
BLOCK_RECORD
  5
1F
330
1
100
AcDbSymbolTableRecord
100
AcDbBlockTableRecord
  2
*Model_Space
340
22
  0
BLOCK_RECORD
  5
1B
330
1
100
AcDbSymbolTableRecord
100
AcDbBlockTableRecord
  2
*Paper_Space
340
1E
  0
BLOCK_RECORD
  5
23
330
1
100
AcDbSymbolTableRecord
100
AcDbBlockTableRecord
  2
*Paper_Space0
340
26
  0
BLOCK_RECORD
  5
7F
330
1
100
AcDbSymbolTableRecord
100
AcDbBlockTableRecord
  2
블럭10
340
0
102
{BLKREFS
331
C7
102
}
  0
BLOCK_RECORD
  5
D0
330
1
100
AcDbSymbolTableRecord
100
AcDbBlockTableRecord
  2
_D
340
0
  0
BLOCK_RECORD
  5
E4
330
1
100
AcDbSymbolTableRecord
100
AcDbBlockTableRecord
  2
_D_1
340
0
  0
BLOCK_RECORD
  5
FA
330
1
100
AcDbSymbolTableRecord
100
AcDbBlockTableRecord
  2
_D_2
340
0
  0
BLOCK_RECORD
  5
10E
330
1
100
AcDbSymbolTableRecord
100
AcDbBlockTableRecord
  2
_D_3
340
0
  0
BLOCK_RECORD
  5
127
330
1
100
AcDbSymbolTableRecord
100
AcDbBlockTableRecord
  2
SW_DOWELSYMBOL_0
340
0
102
{BLKREFS
331
0
331
1E2
331
262
102
}
  0
BLOCK_RECORD
  5
1F2
330
1
100
AcDbSymbolTableRecord
100
AcDbBlockTableRecord
  2
*D8
340
0
  0
BLOCK_RECORD
  5
1FE
330
1
100
AcDbSymbolTableRecord
100
AcDbBlockTableRecord
  2
*D9
340
0
  0
BLOCK_RECORD
  5
20A
330
1
100
AcDbSymbolTableRecord
100
AcDbBlockTableRecord
  2
*D10
340
0
  0
BLOCK_RECORD
  5
216
330
1
100
AcDbSymbolTableRecord
100
AcDbBlockTableRecord
  2
*D11
340
0
  0
BLOCK_RECORD
  5
222
330
1
100
AcDbSymbolTableRecord
100
AcDbBlockTableRecord
  2
*D12
340
0
  0
BLOCK_RECORD
  5
26C
330
1
100
AcDbSymbolTableRecord
100
AcDbBlockTableRecord
  2
*D13
340
0
  0
BLOCK_RECORD
  5
278
330
1
100
AcDbSymbolTableRecord
100
AcDbBlockTableRecord
  2
*D14
340
0
  0
BLOCK_RECORD
  5
284
330
1
100
AcDbSymbolTableRecord
100
AcDbBlockTableRecord
  2
*D15
340
0
  0
BLOCK_RECORD
  5
290
330
1
100
AcDbSymbolTableRecord
100
AcDbBlockTableRecord
  2
*D16
340
0
  0
BLOCK_RECORD
  5
29E
330
1
100
AcDbSymbolTableRecord
100
AcDbBlockTableRecord
  2
*D17
340
0
  0
BLOCK_RECORD
  5
2B0
330
1
100
AcDbSymbolTableRecord
100
AcDbBlockTableRecord
  2
*D18
340
0
  0
ENDTAB
  0
ENDSEC
  0
SECTION
  2
BLOCKS
  0
BLOCK
  5
20
330
1F
100
AcDbEntity
  8
0
100
AcDbBlockBegin
  2
*Model_Space
 70
     0
 10
0.0
 20
0.0
 30
0.0
  3
*Model_Space
  1
*Model_Space
  0
ENDBLK
  5
21
330
1F
100
AcDbEntity
  8
0
100
AcDbBlockEnd
  0
BLOCK
  5
1C
330
1B
100
AcDbEntity
 67
     1
  8
0
100
AcDbBlockBegin
  2
*Paper_Space
 70
     0
 10
0.0
 20
0.0
 30
0.0
  3
*Paper_Space
  1
*Paper_Space
  0
ENDBLK
  5
1D
330
1B
100
AcDbEntity
 67
     1
  8
0
100
AcDbBlockEnd
  0
BLOCK
  5
24
330
23
100
AcDbEntity
  8
0
100
AcDbBlockBegin
  2
*Paper_Space0
 70
     0
 10
0.0
 20
0.0
 30
0.0
  3
*Paper_Space0
  1
*Paper_Space0
  0
ENDBLK
  5
25
330
23
100
AcDbEntity
  8
0
100
AcDbBlockEnd
  0
BLOCK
  5
80
330
7F
100
AcDbEntity
  8
0
100
AcDbBlockBegin
  2
블럭10
 70
     2
 10
0.0
 20
0.0
 30
0.0
  3
블럭10
  1
블럭10
  0
ELLIPSE
  5
82
330
7F
100
AcDbEntity
  8
중심선
100
AcDbEllipse
 10
20.54032771741204
 20
12.0471743016438
 30
0.0
 11
6.600054785286829
 21
-1.261213355974178E-13
 31
0.0
210
0.0
220
0.0
230
1.0
 40
0.636358354079598
 41
0.9219305317359503
 42
6.513795318482858
  0
ELLIPSE
  5
83
330
7F
100
AcDbEntity
  8
중심선
100
AcDbEllipse
 10
20.54032771746488
 20
12.04717430159265
 30
0.0
 11
3.960054785062283
 21
1.540847449632565E-10
 31
0.0
210
0.0
220
0.0
230
1.0
 40
0.3939339440162632
 41
1.131841032648279
 42
5.62031148352944
  0
LINE
  5
84
330
7F
100
AcDbEntity
  8
중심선
100
AcDbLine
 10
2.268634060543552
 20
16.24717430164393
 30
0.0
 11
5.714909304380834
 21
16.24717430164393
 31
0.0
  0
LINE
  5
85
330
7F
100
AcDbEntity
  8
중심선
100
AcDbLine
 10
5.245725140726316
 20
7.84717430164391
 30
0.0
 11
8.692000384563599
 21
7.84717430164391
 31
0.0
  0
LINE
  5
86
330
7F
100
AcDbEntity
  8
중심선
100
AcDbLine
 10
15.74043728645272
 20
16.24717430164393
 30
0.0
 11
8.692000384563599
 21
7.84717430164391
 31
0.0
  0
LINE
  5
87
330
7F
100
AcDbEntity
  8
중심선
100
AcDbLine
 10
0.1404042013395286
 20
13.71084872107135
 30
0.0
 11
3.58671253028996
 21
13.71088815037384
 31
0.0
  0
LINE
  5
88
330
7F
100
AcDbEntity
  8
중심선
100
AcDbLine
 10
2.750260043222114
 20
10.84717430164391
 30
0.0
 11
6.196535287059397
 21
10.84717430164391
 31
0.0
  0
LINE
  5
89
330
7F
100
AcDbEntity
  8
중심선
100
AcDbLine
 10
12.29416204261559
 20
16.24717430164393
 30
0.0
 11
5.245725140726316
 21
7.84717430164391
 31
0.0
  0
LINE
  5
8A
330
7F
100
AcDbEntity
  8
중심선
100
AcDbLine
 10
10.72767329541681
 20
16.24717430164393
 30
0.0
 11
6.196535287059397
 21
10.84717430164391
 31
0.0
  0
LINE
  5
8B
330
7F
100
AcDbEntity
  8
중심선
100
AcDbLine
 10
7.28139805157953
 20
16.24717430164393
 30
0.0
 11
2.750260043222114
 21
10.84717430164391
 31
0.0
  0
LINE
  5
8C
330
7F
100
AcDbEntity
  8
중심선
100
AcDbLine
 10
5.714909304380834
 20
16.24717430164393
 30
0.0
 11
3.58671253028996
 21
13.71088815037384
 31
0.0
  0
LINE
  5
8D
330
7F
100
AcDbEntity
  8
중심선
100
AcDbLine
 10
2.268634060543552
 20
16.24717430164393
 30
0.0
 11
0.1404042013395286
 21
13.71084872107135
 31
0.0
  0
LINE
  5
8E
330
7F
100
AcDbEntity
  8
중심선
100
AcDbLine
 10
7.28139805157953
 20
16.24717430164393
 30
0.0
 11
10.72767329541681
 21
16.24717430164393
 31
0.0
  0
LINE
  5
8F
330
7F
100
AcDbEntity
  8
중심선
100
AcDbLine
 10
12.29416204261559
 20
16.24717430164393
 30
0.0
 11
15.74043728645272
 21
16.24717430164393
 31
0.0
  0
LINE
  5
90
330
7F
100
AcDbEntity
  8
중심선
100
AcDbLine
 10
19.22036997980202
 20
11.08717430171403
 30
0.0
 11
23.66174974927406
 21
11.08717430171406
 31
0.0
  0
LINE
  5
91
330
7F
100
AcDbEntity
  8
중심선
100
AcDbLine
 10
19.22039502424796
 20
13.00717430171391
 30
0.0
 11
19.22036997980202
 21
11.08717430171403
 31
0.0
  0
LINE
  5
92
330
7F
100
AcDbEntity
  8
중심선
100
AcDbLine
 10
19.22039502424796
 20
13.00717430171391
 30
0.0
 11
26.96566020931264
 21
13.00717430171391
 31
0.0
  0
LINE
  5
93
330
7F
100
AcDbEntity
  8
중심선
100
AcDbLine
 10
22.22332737316547
 20
13.45928029700563
 30
0.0
 11
24.52862924686651
 21
15.39360700705356
 31
0.0
  0
ATTDEF
  5
95
330
7F
100
AcDbEntity
  8
FORMAT
 62
     2
100
AcDbText
 10
3.448148490846466
 20
2.075366912832191
 30
0.0
 40
4.233333333333333
  1
EM212903
 41
0.75
  7
SLDTEXTSTYLE0
 11
3.448148490846466
 21
-0.0412997538344756
 31
0.0
100
AcDbAttributeDefinition
  3

  2
AUTOATTR0
 70
     0
 74
     1
  0
ENDBLK
  5
81
330
7F
100
AcDbEntity
  8
0
100
AcDbBlockEnd
  0
BLOCK
  5
D1
330
D0
100
AcDbEntity
  8
0
100
AcDbBlockBegin
  2
_D
 70
     0
 10
0.0
 20
0.0
 30
0.0
  3
_D
  1
_D
  0
SOLID
  5
D3
330
D0
100
AcDbEntity
  8
치수문자_일반주서
100
AcDbTrace
 10
-50.46624999999999
 20
3.968749999999992
 30
0.0
 11
-49.95824999999999
 21
7.270749999999992
 31
0.0
 12
-50.97424999999999
 22
7.270749999999992
 32
0.0
 13
-50.97424999999999
 23
7.270749999999992
 33
0.0
  0
SOLID
  5
D4
330
D0
100
AcDbEntity
  8
치수문자_일반주서
100
AcDbTrace
 10
-50.46624999999999
 20
-3.968749999999994
 30
0.0
 11
-50.97424999999999
 21
-7.270749999999993
 31
0.0
 12
-49.95824999999999
 22
-7.270749999999993
 32
0.0
 13
-49.95824999999999
 23
-7.270749999999993
 33
0.0
  0
LINE
  5
D5
330
D0
100
AcDbEntity
  8
치수문자_일반주서
100
AcDbLine
 10
-61.25913171604271
 20
-5.414366431068721
 30
0.0
 11
-61.2591317160427
 21
-6.125303916633221
 31
0.0
  0
LINE
  5
D6
330
D0
100
AcDbEntity
  8
치수문자_일반주서
100
AcDbLine
 10
-61.2591317160427
 20
-6.125303916633221
 30
0.0
 11
-55.7028817249834
 21
-6.125303916633182
 31
0.0
  0
LINE
  5
D7
330
D0
100
AcDbEntity
  8
치수문자_일반주서
100
AcDbLine
 10
-55.7028817249834
 20
-6.125303916633182
 30
0.0
 11
-55.70288172498341
 21
-5.414366431068682
 31
0.0
  0
LINE
  5
D8
330
D0
100
AcDbEntity
  8
치수문자_일반주서
100
AcDbLine
 10
-61.25913171604278
 20
5.414366431068537
 30
0.0
 11
-61.25913171604279
 21
6.125303916633037
 31
0.0
  0
LINE
  5
D9
330
D0
100
AcDbEntity
  8
치수문자_일반주서
100
AcDbLine
 10
-61.25913171604279
 20
6.125303916633037
 30
0.0
 11
-55.70288172498348
 21
6.125303916633076
 31
0.0
  0
LINE
  5
DA
330
D0
100
AcDbEntity
  8
치수문자_일반주서
100
AcDbLine
 10
-55.70288172498348
 20
6.125303916633076
 30
0.0
 11
-55.70288172498348
 21
5.414366431068576
 31
0.0
  0
LINE
  5
DB
330
D0
100
AcDbEntity
  8
치수문자_일반주서
100
AcDbLine
 10
-37.83124999999998
 20
3.968749999999993
 30
0.0
 11
-51.46624999999999
 21
3.968749999999992
 31
0.0
  0
LINE
  5
DC
330
D0
100
AcDbEntity
  8
치수문자_일반주서
100
AcDbLine
 10
-37.83124999999998
 20
-3.968749999999993
 30
0.0
 11
-51.46624999999999
 21
-3.968749999999994
 31
0.0
  0
LINE
  5
DD
330
D0
100
AcDbEntity
  8
치수문자_일반주서
100
AcDbLine
 10
-50.46624999999999
 20
3.968749999999992
 30
0.0
 11
-50.46624999999999
 21
10.31874999999999
 31
0.0
  0
LINE
  5
DE
330
D0
100
AcDbEntity
  8
치수문자_일반주서
100
AcDbLine
 10
-50.46624999999999
 20
3.968749999999992
 30
0.0
 11
-50.46624999999999
 21
-3.968749999999994
 31
0.0
  0
LINE
  5
DF
330
D0
100
AcDbEntity
  8
치수문자_일반주서
100
AcDbLine
 10
-50.46624999999999
 20
-3.968749999999994
 30
0.0
 11
-50.46624999999999
 21
-10.31874999999999
 31
0.0
  0
MTEXT
  5
E0
330
D0
100
AcDbEntity
  8
치수문자_일반주서
100
AcDbMText
 10
-60.2146186395623
 20
-4.525694530457343
 30
0.0
 40
3.5
 41
0.0
 71
     1
 72
     1
  1
0.31
  7
SLDTEXTSTYLE0
 11
-7.044195017643634E-15
 21
1.0
 31
0.0
 73
     1
 44
1.0
  0
MTEXT
  5
E1
330
D0
100
AcDbEntity
  8
치수문자_일반주서
100
AcDbMText
 10
-54.97798708920182
 20
-7.164913695305635
 30
0.0
 40
3.5
 41
0.0
 71
     1
 72
     1
  1
%%c
  7
SLDTEXTSTYLE0
 11
-7.044195017643634E-15
 21
1.0
 31
0.0
 73
     1
 44
1.0
  0
MTEXT
  5
E2
330
D0
100
AcDbEntity
  8
치수문자_일반주서
100
AcDbMText
 10
-54.97798708920185
 20
-1.886476296931553
 30
0.0
 40
3.5
 41
0.0
 71
     1
 72
     1
  1
7.94
  7
SLDTEXTSTYLE0
 11
-7.044195017643634E-15
 21
1.0
 31
0.0
 73
     1
 44
1.0
  0
ENDBLK
  5
D2
330
D0
100
AcDbEntity
  8
0
100
AcDbBlockEnd
  0
BLOCK
  5
E5
330
E4
100
AcDbEntity
  8
0
100
AcDbBlockBegin
  2
_D_1
 70
     0
 10
0.0
 20
0.0
 30
0.0
  3
_D_1
  1
_D_1
  0
SOLID
  5
E7
330
E4
100
AcDbEntity
  8
치수문자_일반주서
100
AcDbTrace
 10
38.57500000000002
 20
12.98909479848388
 30
0.0
 11
41.87700000000002
 21
12.48109479848388
 31
0.0
 12
41.87700000000002
 22
13.49709479848389
 32
0.0
 13
41.87700000000002
 23
13.49709479848389
 33
0.0
  0
SOLID
  5
E8
330
E4
100
AcDbEntity
  8
치수문자_일반주서
100
AcDbTrace
 10
10.00000000000003
 20
12.98909479848388
 30
0.0
 11
6.698000000000031
 21
13.49709479848388
 31
0.0
 12
6.698000000000031
 22
12.48109479848388
 32
0.0
 13
6.698000000000031
 23
12.48109479848388
 33
0.0
  0
LINE
  5
E9
330
E4
100
AcDbEntity
  8
치수문자_일반주서
100
AcDbLine
 10
18.87313391817736
 20
23.78197651452664
 30
0.0
 11
18.16219643261286
 21
23.78197651452664
 31
0.0
  0
LINE
  5
EA
330
E4
100
AcDbEntity
  8
치수문자_일반주서
100
AcDbLine
 10
18.16219643261286
 20
23.78197651452664
 30
0.0
 11
18.16219643261283
 21
18.22572652346734
 31
0.0
  0
LINE
  5
EB
330
E4
100
AcDbEntity
  8
치수문자_일반주서
100
AcDbLine
 10
18.16219643261283
 20
18.22572652346734
 30
0.0
 11
18.87313391817733
 21
18.22572652346734
 31
0.0
  0
LINE
  5
EC
330
E4
100
AcDbEntity
  8
치수문자_일반주서
100
AcDbLine
 10
29.70186678031462
 20
23.78197651452656
 30
0.0
 11
30.41280426587912
 21
23.78197651452655
 31
0.0
  0
LINE
  5
ED
330
E4
100
AcDbEntity
  8
치수문자_일반주서
100
AcDbLine
 10
30.41280426587912
 20
23.78197651452655
 30
0.0
 11
30.41280426587909
 21
18.22572652346725
 31
0.0
  0
LINE
  5
EE
330
E4
100
AcDbEntity
  8
치수문자_일반주서
100
AcDbLine
 10
30.41280426587909
 20
18.22572652346725
 30
0.0
 11
29.70186678031459
 21
18.22572652346726
 31
0.0
  0
LINE
  5
EF
330
E4
100
AcDbEntity
  8
치수문자_일반주서
100
AcDbLine
 10
38.57500000000002
 20
3.438311417808417
 30
0.0
 11
38.57500000000002
 21
13.98909479848388
 31
0.0
  0
LINE
  5
F0
330
E4
100
AcDbEntity
  8
치수문자_일반주서
100
AcDbLine
 10
10.00000000000003
 20
4.941365347998544
 30
0.0
 11
10.00000000000003
 21
13.98909479848388
 31
0.0
  0
LINE
  5
F1
330
E4
100
AcDbEntity
  8
치수문자_일반주서
100
AcDbLine
 10
38.57500000000002
 20
12.98909479848388
 30
0.0
 11
44.92500000000002
 21
12.98909479848388
 31
0.0
  0
LINE
  5
F2
330
E4
100
AcDbEntity
  8
치수문자_일반주서
100
AcDbLine
 10
38.57500000000002
 20
12.98909479848388
 30
0.0
 11
10.00000000000003
 21
12.98909479848388
 31
0.0
  0
LINE
  5
F3
330
E4
100
AcDbEntity
  8
치수문자_일반주서
100
AcDbLine
 10
10.00000000000003
 20
12.98909479848388
 30
0.0
 11
3.65000000000003
 21
12.98909479848388
 31
0.0
  0
MTEXT
  5
F4
330
E4
100
AcDbEntity
  8
치수문자_일반주서
100
AcDbMText
 10
17.64843770712612
 20
17.55430406434562
 30
0.0
 40
3.5
 41
0.0
 71
     1
 72
     1
  1

  7
SLDTEXTSTYLE0
 73
     1
 44
1.0
  0
MTEXT
  5
F5
330
E4
100
AcDbEntity
  8
치수문자_일반주서
100
AcDbMText
 10
19.76180581878873
 20
22.73746343804622
 30
0.0
 40
3.5
 41
0.0
 71
     1
 72
     1
  1
1.13
  7
SLDTEXTSTYLE0
 73
     1
 44
1.0
  0
MTEXT
  5
F6
330
E4
100
AcDbEntity
  8
치수문자_일반주서
100
AcDbMText
 10
18.46875010561197
 20
17.50083188768576
 30
0.0
 40
3.5
 41
0.0
 71
     1
 72
     1
  1
28.58
  7
SLDTEXTSTYLE0
 73
     1
 44
1.0
  0
MTEXT
  5
F7
330
E4
100
AcDbEntity
  8
치수문자_일반주서
100
AcDbMText
 10
32.25850751101969
 20
17.55430406434551
 30
0.0
 40
3.5
 41
0.0
 71
     1
 72
     1
  1

  7
SLDTEXTSTYLE0
 73
     1
 44
1.0
  0
ENDBLK
  5
E6
330
E4
100
AcDbEntity
  8
0
100
AcDbBlockEnd
  0
BLOCK
  5
FB
330
FA
100
AcDbEntity
  8
0
100
AcDbBlockBegin
  2
_D_2
 70
     0
 10
0.0
 20
0.0
 30
0.0
  3
_D_2
  1
_D_2
  0
SOLID
  5
FD
330
FA
100
AcDbEntity
  8
치수문자_일반주서
100
AcDbTrace
 10
38.57500000000002
 20
24.77187085573255
 30
0.0
 11
35.27300000000002
 21
25.27987085573255
 31
0.0
 12
35.27300000000002
 22
24.26387085573256
 32
0.0
 13
35.27300000000002
 23
24.26387085573256
 33
0.0
  0
SOLID
  5
FE
330
FA
100
AcDbEntity
  8
치수문자_일반주서
100
AcDbTrace
 10
-37.62499999999999
 20
24.77187085573255
 30
0.0
 11
-34.32299999999999
 21
24.26387085573255
 31
0.0
 12
-34.32299999999999
 22
25.27987085573255
 32
0.0
 13
-34.32299999999999
 23
25.27987085573255
 33
0.0
  0
LINE
  5
FF
330
FA
100
AcDbEntity
  8
치수문자_일반주서
100
AcDbLine
 10
-4.939366081822651
 20
35.56475257177529
 30
0.0
 11
-5.650303567387151
 21
35.56475257177529
 31
0.0
  0
LINE
  5
100
330
FA
100
AcDbEntity
  8
치수문자_일반주서
100
AcDbLine
 10
-5.650303567387151
 20
35.56475257177529
 30
0.0
 11
-5.650303567387191
 21
30.00850258071599
 31
0.0
  0
LINE
  5
101
330
FA
100
AcDbEntity
  8
치수문자_일반주서
100
AcDbLine
 10
-5.650303567387191
 20
30.00850258071599
 30
0.0
 11
-4.939366081822691
 21
30.00850258071598
 31
0.0
  0
LINE
  5
102
330
FA
100
AcDbEntity
  8
치수문자_일반주서
100
AcDbLine
 10
5.889366780314607
 20
35.56475257177521
 30
0.0
 11
6.600304265879108
 21
35.5647525717752
 31
0.0
  0
LINE
  5
103
330
FA
100
AcDbEntity
  8
치수문자_일반주서
100
AcDbLine
 10
6.600304265879108
 20
35.5647525717752
 30
0.0
 11
6.600304265879068
 21
30.0085025807159
 31
0.0
  0
LINE
  5
104
330
FA
100
AcDbEntity
  8
치수문자_일반주서
100
AcDbLine
 10
6.600304265879068
 20
30.0085025807159
 30
0.0
 11
5.889366780314568
 21
30.0085025807159
 31
0.0
  0
LINE
  5
105
330
FA
100
AcDbEntity
  8
치수문자_일반주서
100
AcDbLine
 10
38.57500000000002
 20
3.438311417808417
 30
0.0
 11
38.57500000000002
 21
25.77187085573255
 31
0.0
  0
LINE
  5
106
330
FA
100
AcDbEntity
  8
치수문자_일반주서
100
AcDbLine
 10
-37.62499999999999
 20
4.175000000000003
 30
0.0
 11
-37.62499999999999
 21
25.77187085573255
 31
0.0
  0
LINE
  5
107
330
FA
100
AcDbEntity
  8
치수문자_일반주서
100
AcDbLine
 10
38.57500000000002
 20
24.77187085573255
 30
0.0
 11
-37.62499999999999
 21
24.77187085573255
 31
0.0
  0
MTEXT
  5
108
330
FA
100
AcDbEntity
  8
치수문자_일반주서
100
AcDbMText
 10
-6.164062292873892
 20
29.33708012159427
 30
0.0
 40
3.5
 41
0.0
 71
     1
 72
     1
  1

  7
SLDTEXTSTYLE0
 73
     1
 44
1.0
  0
MTEXT
  5
109
330
FA
100
AcDbEntity
  8
치수문자_일반주서
100
AcDbMText
 10
-4.050694181211288
 20
34.52023949529487
 30
0.0
 40
3.5
 41
0.0
 71
     1
 72
     1
  1
3.00
  7
SLDTEXTSTYLE0
 73
     1
 44
1.0
  0
MTEXT
  5
10A
330
FA
100
AcDbEntity
  8
치수문자_일반주서
100
AcDbMText
 10
-5.343749894388052
 20
29.28360794493441
 30
0.0
 40
3.5
 41
0.0
 71
     1
 72
     1
  1
76.20
  7
SLDTEXTSTYLE0
 73
     1
 44
1.0
  0
MTEXT
  5
10B
330
FA
100
AcDbEntity
  8
치수문자_일반주서
100
AcDbMText
 10
8.446007511019674
 20
29.33708012159417
 30
0.0
 40
3.5
 41
0.0
 71
     1
 72
     1
  1

  7
SLDTEXTSTYLE0
 73
     1
 44
1.0
  0
ENDBLK
  5
FC
330
FA
100
AcDbEntity
  8
0
100
AcDbBlockEnd
  0
BLOCK
  5
10F
330
10E
100
AcDbEntity
  8
0
100
AcDbBlockBegin
  2
_D_3
 70
     0
 10
0.0
 20
0.0
 30
0.0
  3
_D_3
  1
_D_3
  0
SOLID
  5
111
330
10E
100
AcDbEntity
  8
치수문자_일반주서
100
AcDbTrace
 10
57.57500000000008
 20
3.968749999999998
 30
0.0
 11
57.06700000000008
 21
0.6667499999999986
 31
0.0
 12
58.08300000000008
 22
0.6667499999999986
 32
0.0
 13
58.08300000000008
 23
0.6667499999999986
 33
0.0
  0
SOLID
  5
112
330
10E
100
AcDbEntity
  8
치수문자_일반주서
100
AcDbTrace
 10
57.57500000000008
 20
-3.968750000000004
 30
0.0
 11
58.08300000000008
 21
-0.666750000000004
 31
0.0
 12
57.06700000000008
 22
-0.666750000000004
 32
0.0
 13
57.06700000000008
 23
-0.666750000000004
 33
0.0
  0
LINE
  5
113
330
10E
100
AcDbEntity
  8
치수문자_일반주서
100
AcDbLine
 10
46.78211828395735
 20
8.668699855104093
 30
0.0
 11
46.78211828395736
 21
7.957762369539592
 31
0.0
  0
LINE
  5
114
330
10E
100
AcDbEntity
  8
치수문자_일반주서
100
AcDbLine
 10
46.78211828395736
 20
7.957762369539592
 30
0.0
 11
52.33836827501666
 21
7.957762369539632
 31
0.0
  0
LINE
  5
115
330
10E
100
AcDbEntity
  8
치수문자_일반주서
100
AcDbLine
 10
52.33836827501666
 20
7.957762369539632
 30
0.0
 11
52.33836827501666
 21
8.668699855104132
 31
0.0
  0
LINE
  5
116
330
10E
100
AcDbEntity
  8
치수문자_일반주서
100
AcDbLine
 10
46.78211828395729
 20
19.49743271724135
 30
0.0
 11
46.78211828395728
 21
20.20837020280585
 31
0.0
  0
LINE
  5
117
330
10E
100
AcDbEntity
  8
치수문자_일반주서
100
AcDbLine
 10
46.78211828395728
 20
20.20837020280585
 30
0.0
 11
52.33836827501658
 21
20.20837020280589
 31
0.0
  0
LINE
  5
118
330
10E
100
AcDbEntity
  8
치수문자_일반주서
100
AcDbLine
 10
52.33836827501658
 20
20.20837020280589
 30
0.0
 11
52.33836827501659
 21
19.49743271724139
 31
0.0
  0
LINE
  5
119
330
10E
100
AcDbEntity
  8
치수문자_일반주서
100
AcDbLine
 10
20.98977765272919
 20
3.968750000000001
 30
0.0
 11
58.57500000000009
 21
3.968749999999998
 31
0.0
  0
LINE
  5
11A
330
10E
100
AcDbEntity
  8
치수문자_일반주서
100
AcDbLine
 10
20.98977765272913
 20
-3.968750000000001
 30
0.0
 11
58.57500000000009
 21
-3.968750000000004
 31
0.0
  0
LINE
  5
11B
330
10E
100
AcDbEntity
  8
치수문자_일반주서
100
AcDbLine
 10
57.57500000000008
 20
3.968749999999998
 30
0.0
 11
57.57500000000008
 21
21.24797998147838
 31
0.0
  0
LINE
  5
11C
330
10E
100
AcDbEntity
  8
치수문자_일반주서
100
AcDbLine
 10
57.57500000000008
 20
3.968749999999998
 30
0.0
 11
57.57500000000008
 21
-3.968750000000004
 31
0.0
  0
MTEXT
  5
11D
330
10E
100
AcDbEntity
  8
치수문자_일반주서
100
AcDbMText
 10
47.82663136043777
 20
9.557371755715472
 30
0.0
 40
3.5
 41
0.0
 71
     1
 72
     1
  1
0.31
  7
SLDTEXTSTYLE0
 11
-7.044195017643634E-15
 21
1.0
 31
0.0
 73
     1
 44
1.0
  0
MTEXT
  5
11E
330
10E
100
AcDbEntity
  8
치수문자_일반주서
100
AcDbMText
 10
53.06326291079825
 20
6.918152590867177
 30
0.0
 40
3.5
 41
0.0
 71
     1
 72
     1
  1
%%c
  7
SLDTEXTSTYLE0
 11
-7.044195017643634E-15
 21
1.0
 31
0.0
 73
     1
 44
1.0
  0
MTEXT
  5
11F
330
10E
100
AcDbEntity
  8
치수문자_일반주서
100
AcDbMText
 10
53.06326291079822
 20
12.19658998924126
 30
0.0
 40
3.5
 41
0.0
 71
     1
 72
     1
  1
7.94
  7
SLDTEXTSTYLE0
 11
-7.044195017643634E-15
 21
1.0
 31
0.0
 73
     1
 44
1.0
  0
ENDBLK
  5
110
330
10E
100
AcDbEntity
  8
0
100
AcDbBlockEnd
  0
BLOCK
  5
128
330
127
100
AcDbEntity
  8
0
100
AcDbBlockBegin
  2
SW_DOWELSYMBOL_0
 70
     0
 10
0.0
 20
0.0
 30
0.0
  3
SW_DOWELSYMBOL_0
  1
SW_DOWELSYMBOL_0
  0
CIRCLE
  5
12A
330
127
100
AcDbEntity
  8
해칭선
 62
     0
100
AcDbCircle
 10
0.0
 20
0.0
 30
0.0
 40
3.000000000000002
  0
HATCH
  5
12B
330
127
100
AcDbEntity
  8
0
  6
Continuous
 62
     0
370
     0
100
AcDbHatch
 10
0.0
 20
0.0
 30
0.0
210
0.0
220
0.0
230
1.0
  2
SOLID
 70
     1
 71
     0
 91
        1
 92
        0
 93
        3
 72
     2
 10
0.0
 20
0.0
 40
3.000000000000002
 50
0.0
 51
90.0
 73
     1
 72
     1
 10
0.0
 20
3.000000000000002
 11
0.0
 21
0.0
 72
     1
 10
0.0
 20
0.0
 11
3.000000000000002
 21
0.0
 97
        0
 75
     0
 76
     1
 98
        1
 10
0.0
 20
0.0
  0
HATCH
  5
12C
330
127
100
AcDbEntity
  8
0
  6
Continuous
 62
     0
370
     0
100
AcDbHatch
 10
0.0
 20
0.0
 30
0.0
210
0.0
220
0.0
230
1.0
  2
SOLID
 70
     1
 71
     0
 91
        1
 92
        0
 93
        3
 72
     2
 10
0.0
 20
0.0
 40
3.000000000000002
 50
180.0
 51
270.0000000000008
 73
     1
 72
     1
 10
0.0
 20
-3.000000000000002
 11
0.0
 21
0.0
 72
     1
 10
0.0
 20
0.0
 11
-3.000000000000002
 21
0.0
 97
        0
 75
     0
 76
     1
 98
        1
 10
0.0
 20
0.0
  0
ENDBLK
  5
129
330
127
100
AcDbEntity
  8
0
100
AcDbBlockEnd
  0
BLOCK
  5
1F3
330
1F2
100
AcDbEntity
  8
0
100
AcDbBlockBegin
  2
*D8
 70
     1
 10
0.0
 20
0.0
 30
0.0
  3
*D8
  1
*D8
  0
LINE
  5
1F4
330
1F2
100
AcDbEntity
  8
치수문자_일반주서
 62
     0
370
    -2
100
AcDbLine
 10
94.24599251270506
 20
36.95384507142214
 30
0.0
 11
119.0671097600974
 21
-0.0000000000000711
 31
0.0
  0
MTEXT
  5
1F5
330
1F2
100
AcDbEntity
  8
치수문자_일반주서
 62
     0
100
AcDbMText
 10
113.1961640534222
 20
13.44856972912996
 30
0.0
 40
3.5
 41
0.0
 71
     5
 72
     1
  1
\A1;R2.29 [R0.09]
  7
SLDTEXTSTYLE0
 11
0.5575774002693279
 21
-0.8301249560812503
 31
0.0
 73
     1
 44
1.0
  0
SOLID
  5
1F6
330
1F2
100
AcDbEntity
  8
치수문자_일반주서
 62
     0
100
AcDbTrace
 10
94.70283794686844
 20
37.2606985007037
 30
0.0
 11
93.78914707854167
 21
36.64699164214059
 31
0.0
 12
92.40487193701574
 22
39.69491767640243
 32
0.0
 13
92.40487193701574
 23
39.69491767640243
 33
0.0
  0
LINE
  5
1F7
330
1F2
100
AcDbEntity
  8
치수문자_일반주서
 62
     0
100
AcDbLine
 10
91.04025000000006
 20
41.59258332600417
 30
0.0
 11
91.22025000000006
 21
41.59258332600417
 31
0.0
  0
LINE
  5
1F8
330
1F2
100
AcDbEntity
  8
치수문자_일반주서
 62
     0
100
AcDbLine
 10
91.13025000000006
 20
41.50258332600416
 30
0.0
 11
91.13025000000006
 21
41.68258332600417
 31
0.0
  0
POINT
  5
1F9
330
1F2
100
AcDbEntity
  8
Defpoints
 62
     0
100
AcDbPoint
 10
92.40487193701574
 20
39.69491767640243
 30
0.0
  0
POINT
  5
1FA
330
1F2
100
AcDbEntity
  8
Defpoints
 62
     0
100
AcDbPoint
 10
91.13025000000006
 20
41.59258332600417
 30
0.0
  0
ENDBLK
  5
1FB
330
1F2
100
AcDbEntity
  8
0
100
AcDbBlockEnd
  0
BLOCK
  5
1FF
330
1FE
100
AcDbEntity
  8
0
100
AcDbBlockBegin
  2
*D9
 70
     1
 10
0.0
 20
0.0
 30
0.0
  3
*D9
  1
*D9
  0
LINE
  5
201
330
1FE
100
AcDbEntity
  8
치수문자_일반주서
 62
     0
370
    -2
100
AcDbLine
 10
17.94750000000005
 20
47.24189031169545
 30
0.0
 11
4.375000000000029
 21
47.2418903116954
 31
0.0
  0
LINE
  5
202
330
1FE
100
AcDbEntity
  8
치수문자_일반주서
 62
     0
370
    -2
100
AcDbLine
 10
17.94750000000005
 20
39.30439031169546
 30
0.0
 11
4.375000000000057
 21
39.30439031169541
 31
0.0
  0
LINE
  5
203
330
1FE
100
AcDbEntity
  8
치수문자_일반주서
 62
     0
370
    -2
100
AcDbLine
 10
4.375000000000041
 20
43.9398903116954
 30
0.0
 11
4.375000000000045
 21
42.60639031169541
 31
0.0
  0
SOLID
  5
204
330
1FE
100
AcDbEntity
  8
치수문자_일반주서
 62
     0
100
AcDbTrace
 10
4.925333333333374
 20
43.9398903116954
 30
0.0
 11
3.824666666666708
 21
43.9398903116954
 31
0.0
 12
4.375000000000029
 22
47.2418903116954
 32
0.0
 13
4.375000000000029
 23
47.2418903116954
 33
0.0
  0
SOLID
  5
205
330
1FE
100
AcDbEntity
  8
치수문자_일반주서
 62
     0
100
AcDbTrace
 10
3.824666666666712
 20
42.60639031169541
 30
0.0
 11
4.925333333333379
 21
42.60639031169541
 31
0.0
 12
4.375000000000057
 22
39.30439031169541
 32
0.0
 13
4.375000000000057
 23
39.30439031169541
 33
0.0
  0
MTEXT
  5
206
330
1FE
100
AcDbEntity
  8
치수문자_일반주서
 62
     0
100
AcDbMText
 10
0.0000000000000426
 20
43.27314031169544
 30
0.0
 40
3.5
 41
0.0
 71
     2
 72
     1
  1
\A1;%%c7.94 [5/16]
  7
SLDTEXTSTYLE0
 11
-3.468791308435141E-15
 21
1.0
 31
0.0
 73
     1
 44
1.0
  0
POINT
  5
207
330
1FE
100
AcDbEntity
  8
Defpoints
 62
     0
100
AcDbPoint
 10
18.01000000000005
 20
47.24189031169545
 30
0.0
  0
POINT
  5
208
330
1FE
100
AcDbEntity
  8
Defpoints
 62
     0
100
AcDbPoint
 10
18.01000000000005
 20
39.30439031169546
 30
0.0
  0
POINT
  5
209
330
1FE
100
AcDbEntity
  8
Defpoints
 62
     0
100
AcDbPoint
 10
4.375000000000057
 20
39.30439031169541
 30
0.0
  0
ENDBLK
  5
200
330
1FE
100
AcDbEntity
  8
0
100
AcDbBlockEnd
  0
BLOCK
  5
20B
330
20A
100
AcDbEntity
  8
0
100
AcDbBlockBegin
  2
*D10
 70
     1
 10
0.0
 20
0.0
 30
0.0
  3
*D10
  1
*D10
  0
LINE
  5
20D
330
20A
100
AcDbEntity
  8
치수문자_일반주서
 62
     0
370
    -2
100
AcDbLine
 10
93.41625000000006
 20
44.95970531649431
 30
0.0
 11
93.41625000000006
 21
55.44798869716978
 31
0.0
  0
LINE
  5
20E
330
20A
100
AcDbEntity
  8
치수문자_일반주서
 62
     0
370
    -2
100
AcDbLine
 10
64.84125000000004
 20
47.277005659694
 30
0.0
 11
64.84125000000004
 21
55.44798869716978
 31
0.0
  0
LINE
  5
20F
330
20A
100
AcDbEntity
  8
치수문자_일반주서
 62
     0
370
    -2
100
AcDbLine
 10
90.11425000000006
 20
55.44798869716978
 30
0.0
 11
68.14325000000005
 21
55.44798869716978
 31
0.0
  0
SOLID
  5
210
330
20A
100
AcDbEntity
  8
치수문자_일반주서
 62
     0
100
AcDbTrace
 10
90.11425000000006
 20
54.89765536383645
 30
0.0
 11
90.11425000000006
 21
55.99832203050312
 31
0.0
 12
93.41625000000006
 22
55.44798869716978
 32
0.0
 13
93.41625000000006
 23
55.44798869716978
 33
0.0
  0
SOLID
  5
211
330
20A
100
AcDbEntity
  8
치수문자_일반주서
 62
     0
100
AcDbTrace
 10
68.14325000000005
 20
55.99832203050312
 30
0.0
 11
68.14325000000005
 21
54.89765536383645
 31
0.0
 12
64.84125000000004
 22
55.44798869716978
 32
0.0
 13
64.84125000000004
 23
55.44798869716978
 33
0.0
  0
MTEXT
  5
212
330
20A
100
AcDbEntity
  8
치수문자_일반주서
 62
     0
100
AcDbMText
 10
79.12875000000005
 20
59.82298869716978
 30
0.0
 40
3.5
 41
0.0
 71
     2
 72
     1
  1
\A1;28.58 [1 1/8]
  7
SLDTEXTSTYLE0
 73
     1
 44
1.0
  0
POINT
  5
213
330
20A
100
AcDbEntity
  8
Defpoints
 62
     0
100
AcDbPoint
 10
93.41625000000006
 20
44.89720531649431
 30
0.0
  0
POINT
  5
214
330
20A
100
AcDbEntity
  8
Defpoints
 62
     0
100
AcDbPoint
 10
64.84125000000004
 20
47.214505659694
 30
0.0
  0
POINT
  5
215
330
20A
100
AcDbEntity
  8
Defpoints
 62
     0
100
AcDbPoint
 10
64.84125000000004
 20
55.44798869716978
 30
0.0
  0
ENDBLK
  5
20C
330
20A
100
AcDbEntity
  8
0
100
AcDbBlockEnd
  0
BLOCK
  5
217
330
216
100
AcDbEntity
  8
0
100
AcDbBlockBegin
  2
*D11
 70
     1
 10
0.0
 20
0.0
 30
0.0
  3
*D11
  1
*D11
  0
LINE
  5
219
330
216
100
AcDbEntity
  8
치수문자_일반주서
 62
     0
370
    -2
100
AcDbLine
 10
93.41625000000006
 20
44.95970531649431
 30
0.0
 11
93.41625000000006
 21
67.23076475441846
 31
0.0
  0
LINE
  5
21A
330
216
100
AcDbEntity
  8
치수문자_일반주서
 62
     0
370
    -2
100
AcDbLine
 10
17.21625000000004
 20
46.51064031169546
 30
0.0
 11
17.21625000000004
 21
67.23076475441846
 31
0.0
  0
LINE
  5
21B
330
216
100
AcDbEntity
  8
치수문자_일반주서
 62
     0
370
    -2
100
AcDbLine
 10
90.11425000000006
 20
67.23076475441846
 30
0.0
 11
20.51825000000004
 21
67.23076475441846
 31
0.0
  0
SOLID
  5
21C
330
216
100
AcDbEntity
  8
치수문자_일반주서
 62
     0
100
AcDbTrace
 10
90.11425000000006
 20
66.68043142108513
 30
0.0
 11
90.11425000000006
 21
67.78109808775179
 31
0.0
 12
93.41625000000006
 22
67.23076475441846
 32
0.0
 13
93.41625000000006
 23
67.23076475441846
 33
0.0
  0
SOLID
  5
21D
330
216
100
AcDbEntity
  8
치수문자_일반주서
 62
     0
100
AcDbTrace
 10
20.51825000000004
 20
67.78109808775179
 30
0.0
 11
20.51825000000004
 21
66.68043142108513
 31
0.0
 12
17.21625000000004
 22
67.23076475441846
 32
0.0
 13
17.21625000000004
 23
67.23076475441846
 33
0.0
  0
MTEXT
  5
21E
330
216
100
AcDbEntity
  8
치수문자_일반주서
 62
     0
100
AcDbMText
 10
55.31625000000005
 20
71.60576475441846
 30
0.0
 40
3.5
 41
0.0
 71
     2
 72
     1
  1
\A1;76.20 [3]
  7
SLDTEXTSTYLE0
 73
     1
 44
1.0
  0
POINT
  5
21F
330
216
100
AcDbEntity
  8
Defpoints
 62
     0
100
AcDbPoint
 10
93.41625000000006
 20
44.89720531649431
 30
0.0
  0
POINT
  5
220
330
216
100
AcDbEntity
  8
Defpoints
 62
     0
100
AcDbPoint
 10
17.21625000000004
 20
46.44814031169546
 30
0.0
  0
POINT
  5
221
330
216
100
AcDbEntity
  8
Defpoints
 62
     0
100
AcDbPoint
 10
17.21625000000004
 20
67.23076475441846
 30
0.0
  0
ENDBLK
  5
218
330
216
100
AcDbEntity
  8
0
100
AcDbBlockEnd
  0
BLOCK
  5
223
330
222
100
AcDbEntity
  8
0
100
AcDbBlockBegin
  2
*D12
 70
     1
 10
0.0
 20
0.0
 30
0.0
  3
*D12
  1
*D12
  0
LINE
  5
225
330
222
100
AcDbEntity
  8
치수문자_일반주서
 62
     0
370
    -2
100
AcDbLine
 10
74.89352765272922
 20
47.24189031169546
 30
0.0
 11
112.4162500000001
 21
47.24189031169561
 31
0.0
  0
LINE
  5
226
330
222
100
AcDbEntity
  8
치수문자_일반주서
 62
     0
370
    -2
100
AcDbLine
 10
74.8935276527292
 20
39.30439031169545
 30
0.0
 11
112.4162500000002
 21
39.30439031169559
 31
0.0
  0
LINE
  5
227
330
222
100
AcDbEntity
  8
치수문자_일반주서
 62
     0
370
    -2
100
AcDbLine
 10
112.4162500000001
 20
47.24189031169561
 30
0.0
 11
112.41625
 21
81.8458903116956
 31
0.0
  0
LINE
  5
228
330
222
100
AcDbEntity
  8
치수문자_일반주서
 62
     0
370
    -2
100
AcDbLine
 10
112.4162500000001
 20
50.54389031169561
 30
0.0
 11
112.4162500000001
 21
53.84589031169561
 31
0.0
  0
LINE
  5
229
330
222
100
AcDbEntity
  8
치수문자_일반주서
 62
     0
370
    -2
100
AcDbLine
 10
112.4162500000002
 20
36.00239031169559
 30
0.0
 11
112.4162500000002
 21
32.70039031169559
 31
0.0
  0
SOLID
  5
22A
330
222
100
AcDbEntity
  8
치수문자_일반주서
 62
     0
100
AcDbTrace
 10
111.8659166666668
 20
50.54389031169561
 30
0.0
 11
112.9665833333335
 21
50.54389031169561
 31
0.0
 12
112.4162500000001
 22
47.24189031169561
 32
0.0
 13
112.4162500000001
 23
47.24189031169561
 33
0.0
  0
SOLID
  5
22B
330
222
100
AcDbEntity
  8
치수문자_일반주서
 62
     0
100
AcDbTrace
 10
112.9665833333335
 20
36.00239031169559
 30
0.0
 11
111.8659166666669
 21
36.00239031169559
 31
0.0
 12
112.4162500000002
 22
39.30439031169559
 32
0.0
 13
112.4162500000002
 23
39.30439031169559
 33
0.0
  0
MTEXT
  5
22C
330
222
100
AcDbEntity
  8
치수문자_일반주서
 62
     0
100
AcDbMText
 10
108.0412500000001
 20
67.84589031169558
 30
0.0
 40
3.5
 41
0.0
 71
     2
 72
     1
  1
\A1;%%c7.94 [5/16]
  7
SLDTEXTSTYLE0
 11
-3.580687802255617E-15
 21
1.0
 31
0.0
 73
     1
 44
1.0
  0
POINT
  5
22D
330
222
100
AcDbEntity
  8
Defpoints
 62
     0
100
AcDbPoint
 10
74.83102765272922
 20
47.24189031169546
 30
0.0
  0
POINT
  5
22E
330
222
100
AcDbEntity
  8
Defpoints
 62
     0
100
AcDbPoint
 10
74.8310276527292
 20
39.30439031169545
 30
0.0
  0
POINT
  5
22F
330
222
100
AcDbEntity
  8
Defpoints
 62
     0
100
AcDbPoint
 10
112.4162500000002
 20
39.30439031169559
 30
0.0
  0
ENDBLK
  5
224
330
222
100
AcDbEntity
  8
0
100
AcDbBlockEnd
  0
BLOCK
  5
26D
330
26C
100
AcDbEntity
  8
0
100
AcDbBlockBegin
  2
*D13
 70
     1
 10
0.0
 20
0.0
 30
0.0
  3
*D13
  1
*D13
  0
LINE
  5
26F
330
26C
100
AcDbEntity
  8
치수문자_일반주서
 62
     0
370
    -2
100
AcDbLine
 10
-36.89374999999998
 20
3.969824928723888
 30
0.0
 11
-50.46625
 21
3.969824928723838
 31
0.0
  0
LINE
  5
270
330
26C
100
AcDbEntity
  8
치수문자_일반주서
 62
     0
370
    -2
100
AcDbLine
 10
-36.89374999999998
 20
-3.967675071276098
 30
0.0
 11
-50.46624999999997
 21
-3.967675071276148
 31
0.0
  0
LINE
  5
271
330
26C
100
AcDbEntity
  8
치수문자_일반주서
 62
     0
370
    -2
100
AcDbLine
 10
-50.46624999999999
 20
0.6678249287238383
 30
0.0
 11
-50.46624999999999
 21
-0.6656750712761483
 31
0.0
  0
SOLID
  5
272
330
26C
100
AcDbEntity
  8
치수문자_일반주서
 62
     0
100
AcDbTrace
 10
-49.91591666666665
 20
0.6678249287238402
 30
0.0
 11
-51.01658333333332
 21
0.6678249287238363
 31
0.0
 12
-50.46625
 22
3.969824928723838
 32
0.0
 13
-50.46625
 23
3.969824928723838
 33
0.0
  0
SOLID
  5
273
330
26C
100
AcDbEntity
  8
치수문자_일반주서
 62
     0
100
AcDbTrace
 10
-51.01658333333332
 20
-0.6656750712761503
 30
0.0
 11
-49.91591666666665
 21
-0.6656750712761463
 31
0.0
 12
-50.46624999999997
 22
-3.967675071276148
 32
0.0
 13
-50.46624999999997
 23
-3.967675071276148
 33
0.0
  0
MTEXT
  5
274
330
26C
100
AcDbEntity
  8
치수문자_일반주서
 62
     0
100
AcDbMText
 10
-54.84124999999999
 20
0.0010749287238725
 30
0.0
 40
3.5
 41
0.0
 71
     2
 72
     1
  1
\A1;%%c7.94 [5/16]
  7
SLDTEXTSTYLE0
 11
-3.580687802255629E-15
 21
1.0
 31
0.0
 73
     1
 44
1.0
  0
POINT
  5
275
330
26C
100
AcDbEntity
  8
Defpoints
 62
     0
100
AcDbPoint
 10
-36.83124999999998
 20
3.969824928723888
 30
0.0
  0
POINT
  5
276
330
26C
100
AcDbEntity
  8
Defpoints
 62
     0
100
AcDbPoint
 10
-36.83124999999998
 20
-3.967675071276098
 30
0.0
  0
POINT
  5
277
330
26C
100
AcDbEntity
  8
Defpoints
 62
     0
100
AcDbPoint
 10
-50.46624999999997
 20
-3.967675071276149
 30
0.0
  0
ENDBLK
  5
26E
330
26C
100
AcDbEntity
  8
0
100
AcDbBlockEnd
  0
BLOCK
  5
279
330
278
100
AcDbEntity
  8
0
100
AcDbBlockBegin
  2
*D14
 70
     1
 10
0.0
 20
0.0
 30
0.0
  3
*D14
  1
*D14
  0
LINE
  5
27B
330
278
100
AcDbEntity
  8
치수문자_일반주서
 62
     0
370
    -2
100
AcDbLine
 10
38.57500000000003
 20
1.687639933522746
 30
0.0
 11
38.57500000000003
 21
12.17592331419822
 31
0.0
  0
LINE
  5
27C
330
278
100
AcDbEntity
  8
치수문자_일반주서
 62
     0
370
    -2
100
AcDbLine
 10
10.00000000000001
 20
4.004940276722436
 30
0.0
 11
10.00000000000001
 21
12.17592331419822
 31
0.0
  0
LINE
  5
27D
330
278
100
AcDbEntity
  8
치수문자_일반주서
 62
     0
370
    -2
100
AcDbLine
 10
35.27300000000003
 20
12.17592331419822
 30
0.0
 11
13.30200000000001
 21
12.17592331419822
 31
0.0
  0
SOLID
  5
27E
330
278
100
AcDbEntity
  8
치수문자_일반주서
 62
     0
100
AcDbTrace
 10
35.27300000000003
 20
11.62558998086489
 30
0.0
 11
35.27300000000003
 21
12.72625664753155
 31
0.0
 12
38.57500000000003
 22
12.17592331419822
 32
0.0
 13
38.57500000000003
 23
12.17592331419822
 33
0.0
  0
SOLID
  5
27F
330
278
100
AcDbEntity
  8
치수문자_일반주서
 62
     0
100
AcDbTrace
 10
13.30200000000001
 20
12.72625664753155
 30
0.0
 11
13.30200000000001
 21
11.62558998086489
 31
0.0
 12
10.00000000000001
 22
12.17592331419822
 32
0.0
 13
10.00000000000001
 23
12.17592331419822
 33
0.0
  0
MTEXT
  5
280
330
278
100
AcDbEntity
  8
치수문자_일반주서
 62
     0
100
AcDbMText
 10
24.28750000000002
 20
16.55092331419822
 30
0.0
 40
3.5
 41
0.0
 71
     2
 72
     1
  1
\A1;28.58 [1 1/8]
  7
SLDTEXTSTYLE0
 73
     1
 44
1.0
  0
POINT
  5
281
330
278
100
AcDbEntity
  8
Defpoints
 62
     0
100
AcDbPoint
 10
38.57500000000003
 20
1.625139933522746
 30
0.0
  0
POINT
  5
282
330
278
100
AcDbEntity
  8
Defpoints
 62
     0
100
AcDbPoint
 10
10.00000000000001
 20
3.942440276722436
 30
0.0
  0
POINT
  5
283
330
278
100
AcDbEntity
  8
Defpoints
 62
     0
100
AcDbPoint
 10
10.00000000000001
 20
12.17592331419822
 30
0.0
  0
ENDBLK
  5
27A
330
278
100
AcDbEntity
  8
0
100
AcDbBlockEnd
  0
BLOCK
  5
285
330
284
100
AcDbEntity
  8
0
100
AcDbBlockBegin
  2
*D15
 70
     1
 10
0.0
 20
0.0
 30
0.0
  3
*D15
  1
*D15
  0
LINE
  5
287
330
284
100
AcDbEntity
  8
치수문자_일반주서
 62
     0
370
    -2
100
AcDbLine
 10
38.57500000000003
 20
1.687639933522746
 30
0.0
 11
38.57500000000003
 21
23.9586993714469
 31
0.0
  0
LINE
  5
288
330
284
100
AcDbEntity
  8
치수문자_일반주서
 62
     0
370
    -2
100
AcDbLine
 10
-37.62499999999999
 20
3.238574928723899
 30
0.0
 11
-37.62499999999999
 21
23.9586993714469
 31
0.0
  0
LINE
  5
289
330
284
100
AcDbEntity
  8
치수문자_일반주서
 62
     0
370
    -2
100
AcDbLine
 10
35.27300000000003
 20
23.9586993714469
 30
0.0
 11
-34.32299999999999
 21
23.9586993714469
 31
0.0
  0
SOLID
  5
28A
330
284
100
AcDbEntity
  8
치수문자_일반주서
 62
     0
100
AcDbTrace
 10
35.27300000000003
 20
23.40836603811356
 30
0.0
 11
35.27300000000003
 21
24.50903270478023
 31
0.0
 12
38.57500000000003
 22
23.9586993714469
 32
0.0
 13
38.57500000000003
 23
23.9586993714469
 33
0.0
  0
SOLID
  5
28B
330
284
100
AcDbEntity
  8
치수문자_일반주서
 62
     0
100
AcDbTrace
 10
-34.32299999999999
 20
24.50903270478023
 30
0.0
 11
-34.32299999999999
 21
23.40836603811356
 31
0.0
 12
-37.62499999999999
 22
23.9586993714469
 32
0.0
 13
-37.62499999999999
 23
23.9586993714469
 33
0.0
  0
MTEXT
  5
28C
330
284
100
AcDbEntity
  8
치수문자_일반주서
 62
     0
100
AcDbMText
 10
0.4750000000000227
 20
28.3336993714469
 30
0.0
 40
3.5
 41
0.0
 71
     2
 72
     1
  1
\A1;76.20 [3]
  7
SLDTEXTSTYLE0
 73
     1
 44
1.0
  0
POINT
  5
28D
330
284
100
AcDbEntity
  8
Defpoints
 62
     0
100
AcDbPoint
 10
38.57500000000003
 20
1.625139933522746
 30
0.0
  0
POINT
  5
28E
330
284
100
AcDbEntity
  8
Defpoints
 62
     0
100
AcDbPoint
 10
-37.62499999999999
 20
3.176074928723899
 30
0.0
  0
POINT
  5
28F
330
284
100
AcDbEntity
  8
Defpoints
 62
     0
100
AcDbPoint
 10
-37.62499999999999
 20
23.9586993714469
 30
0.0
  0
ENDBLK
  5
286
330
284
100
AcDbEntity
  8
0
100
AcDbBlockEnd
  0
BLOCK
  5
291
330
290
100
AcDbEntity
  8
0
100
AcDbBlockBegin
  2
*D16
 70
     1
 10
0.0
 20
0.0
 30
0.0
  3
*D16
  1
*D16
  0
LINE
  5
293
330
290
100
AcDbEntity
  8
치수문자_일반주서
 62
     0
370
    -2
100
AcDbLine
 10
20.05227765272919
 20
3.969824928723903
 30
0.0
 11
57.57500000000012
 21
3.969824928724041
 31
0.0
  0
LINE
  5
294
330
290
100
AcDbEntity
  8
치수문자_일반주서
 62
     0
370
    -2
100
AcDbLine
 10
20.05227765272917
 20
-3.967675071276112
 30
0.0
 11
57.57500000000014
 21
-3.967675071275973
 31
0.0
  0
LINE
  5
295
330
290
100
AcDbEntity
  8
치수문자_일반주서
 62
     0
370
    -2
100
AcDbLine
 10
57.57500000000012
 20
3.969824928724041
 30
0.0
 11
57.575
 21
38.57382492872404
 31
0.0
  0
LINE
  5
296
330
290
100
AcDbEntity
  8
치수문자_일반주서
 62
     0
370
    -2
100
AcDbLine
 10
57.5750000000001
 20
7.27182492872404
 30
0.0
 11
57.57500000000009
 21
10.57382492872404
 31
0.0
  0
LINE
  5
297
330
290
100
AcDbEntity
  8
치수문자_일반주서
 62
     0
370
    -2
100
AcDbLine
 10
57.57500000000016
 20
-7.269675071275973
 30
0.0
 11
57.57500000000017
 21
-10.57167507127597
 31
0.0
  0
SOLID
  5
298
330
290
100
AcDbEntity
  8
치수문자_일반주서
 62
     0
100
AcDbTrace
 10
57.02466666666677
 20
7.271824928724039
 30
0.0
 11
58.12533333333344
 21
7.271824928724042
 31
0.0
 12
57.57500000000012
 22
3.969824928724041
 32
0.0
 13
57.57500000000012
 23
3.969824928724041
 33
0.0
  0
SOLID
  5
299
330
290
100
AcDbEntity
  8
치수문자_일반주서
 62
     0
100
AcDbTrace
 10
58.12533333333349
 20
-7.269675071275971
 30
0.0
 11
57.02466666666682
 21
-7.269675071275975
 31
0.0
 12
57.57500000000014
 22
-3.967675071275973
 32
0.0
 13
57.57500000000014
 23
-3.967675071275973
 33
0.0
  0
MTEXT
  5
29A
330
290
100
AcDbEntity
  8
치수문자_일반주서
 62
     0
100
AcDbMText
 10
53.20000000000005
 20
24.57382492872402
 30
0.0
 40
3.5
 41
0.0
 71
     2
 72
     1
  1
\A1;%%c7.94 [5/16]
  7
SLDTEXTSTYLE0
 11
-3.580687802255617E-15
 21
1.0
 31
0.0
 73
     1
 44
1.0
  0
POINT
  5
29B
330
290
100
AcDbEntity
  8
Defpoints
 62
     0
100
AcDbPoint
 10
19.98977765272919
 20
3.969824928723902
 30
0.0
  0
POINT
  5
29C
330
290
100
AcDbEntity
  8
Defpoints
 62
     0
100
AcDbPoint
 10
19.98977765272917
 20
-3.967675071276112
 30
0.0
  0
POINT
  5
29D
330
290
100
AcDbEntity
  8
Defpoints
 62
     0
100
AcDbPoint
 10
57.57500000000014
 20
-3.967675071275972
 30
0.0
  0
ENDBLK
  5
292
330
290
100
AcDbEntity
  8
0
100
AcDbBlockEnd
  0
BLOCK
  5
29F
330
29E
100
AcDbEntity
  8
0
100
AcDbBlockBegin
  2
*D17
 70
     1
 10
0.0
 20
0.0
 30
0.0
  3
*D17
  1
*D17
  0
LINE
  5
2A1
330
29E
100
AcDbEntity
  8
치수문자_일반주서
 62
     0
370
    -2
100
AcDbLine
 10
39.40474251270503
 20
-6.318220311549416
 30
0.0
 11
64.22585976009735
 21
-43.27206538297163
 31
0.0
  0
MTEXT
  5
2A2
330
29E
100
AcDbEntity
  8
치수문자_일반주서
 62
     0
100
AcDbMText
 10
58.35491405342222
 20
-29.82349565384159
 30
0.0
 40
3.5
 41
0.0
 71
     5
 72
     1
  1
\A1;R2.29 [R0.09]
  7
SLDTEXTSTYLE0
 11
0.5575774002693279
 21
-0.8301249560812503
 31
0.0
 73
     1
 44
1.0
  0
SOLID
  5
2A3
330
29E
100
AcDbEntity
  8
치수문자_일반주서
 62
     0
100
AcDbTrace
 10
39.86158794686842
 20
-6.011366882267863
 30
0.0
 11
38.94789707854165
 21
-6.62507374083097
 31
0.0
 12
37.56362193701571
 22
-3.577147706569129
 32
0.0
 13
37.56362193701571
 23
-3.577147706569129
 33
0.0
  0
LINE
  5
2A4
330
29E
100
AcDbEntity
  8
치수문자_일반주서
 62
     0
100
AcDbLine
 10
36.19900000000003
 20
-1.679482056967394
 30
0.0
 11
36.37900000000003
 21
-1.679482056967394
 31
0.0
  0
LINE
  5
2A5
330
29E
100
AcDbEntity
  8
치수문자_일반주서
 62
     0
100
AcDbLine
 10
36.28900000000003
 20
-1.769482056967395
 30
0.0
 11
36.28900000000003
 21
-1.589482056967394
 31
0.0
  0
POINT
  5
2A6
330
29E
100
AcDbEntity
  8
Defpoints
 62
     0
100
AcDbPoint
 10
37.56362193701571
 20
-3.577147706569129
 30
0.0
  0
POINT
  5
2A7
330
29E
100
AcDbEntity
  8
Defpoints
 62
     0
100
AcDbPoint
 10
36.28900000000003
 20
-1.679482056967394
 30
0.0
  0
ENDBLK
  5
2A0
330
29E
100
AcDbEntity
  8
0
100
AcDbBlockEnd
  0
BLOCK
  5
2B1
330
2B0
100
AcDbEntity
  8
0
100
AcDbBlockBegin
  2
*D18
 70
     1
 10
0.0
 20
0.0
 30
0.0
  3
*D18
  1
*D18
  0
LINE
  5
2B3
330
2B0
100
AcDbEntity
  8
치수문자_일반주서
 62
     0
370
    -2
100
AcDbLine
 10
38.41898902096286
 20
-7.070260952512523
 30
0.0
 11
48.53222069189463
 21
-41.28386751729991
 31
0.0
  0
MTEXT
  5
2B4
330
2B0
100
AcDbEntity
  8
치수문자_일반주서
 62
     0
100
AcDbMText
 10
47.08101890473546
 20
-27.11401789308209
 30
0.0
 40
3.5
 41
0.0
 71
     5
 72
     1
  1
\A1;R1.52 [R0.06]
  7
SLDTEXTSTYLE0
 11
0.2834664257345564
 21
-0.9589821611903295
 31
0.0
 73
     1
 44
1.0
  0
SOLID
  5
2B5
330
2B0
100
AcDbEntity
  8
치수문자_일반주서
 62
     0
100
AcDbTrace
 10
38.94674887033794
 20
-6.914259929549939
 30
0.0
 11
37.89122917158778
 21
-7.226261975475108
 31
0.0
 12
37.48298288318735
 22
-3.903701856262055
 32
0.0
 13
37.48298288318735
 23
-3.903701856262055
 33
0.0
  0
LINE
  5
2B6
330
2B0
100
AcDbEntity
  8
치수문자_일반주서
 62
     0
100
AcDbLine
 10
36.96098005036789
 20
-2.442213042607994
 30
0.0
 11
37.14098005036789
 21
-2.442213042607994
 31
0.0
  0
LINE
  5
2B7
330
2B0
100
AcDbEntity
  8
치수문자_일반주서
 62
     0
100
AcDbLine
 10
37.05098005036789
 20
-2.532213042607994
 30
0.0
 11
37.05098005036789
 21
-2.352213042607994
 31
0.0
  0
POINT
  5
2B8
330
2B0
100
AcDbEntity
  8
Defpoints
 62
     0
100
AcDbPoint
 10
37.48298288318735
 20
-3.903701856262055
 30
0.0
  0
POINT
  5
2B9
330
2B0
100
AcDbEntity
  8
Defpoints
 62
     0
100
AcDbPoint
 10
37.05098005036789
 20
-2.442213042607994
 30
0.0
  0
ENDBLK
  5
2B2
330
2B0
100
AcDbEntity
  8
0
100
AcDbBlockEnd
  0
ENDSEC
  0
SECTION
  2
ENTITIES
  0
LINE
  5
C4
330
1F
100
AcDbEntity
  8
참조1
100
AcDbLine
 10
0.4750000000000032
 20
-0.0000000000000039
 30
0.0
 11
0.4750000000000084
 21
-40.00000000000001
 31
0.0
  0
LINE
  5
C5
330
1F
100
AcDbEntity
  8
참조1
100
AcDbLine
 10
0.4750000000000084
 20
-40.00000000000001
 30
0.0
 11
-14.68385681430865
 21
-40.0
 31
0.0
  0
INSERT
  5
C7
330
1F
100
AcDbEntity
  8
0
  6
Continuous
 62
     7
100
AcDbBlockReference
 66
     1
  2
블럭10
 10
-13.4652729321252
 20
-52.04717430164393
 30
0.0
  0
ATTRIB
  5
C8
330
C7
100
AcDbEntity
  8
FORMAT
 62
     2
100
AcDbText
 10
-23.60690894426183
 20
-49.97180738881174
 30
0.0
 40
4.233333333333333
  1
EM212903 [ 4 FLUTE ]
 41
0.75
  7
SLDTEXTSTYLE0
 11
-23.60690894426183
 21
-52.08847405547841
 31
0.0
100
AcDbAttribute
  2
AUTOATTR0
 70
     0
 74
     1
  0
SEQEND
  5
C9
330
C7
100
AcDbEntity
  8
0
  6
Continuous
 62
     7
  0
HATCH
  5
CA
330
1F
100
AcDbEntity
  8
중심선
100
AcDbHatch
 10
0.0
 20
0.0
 30
0.0
210
0.0
220
0.0
230
1.0
  2
SOLID
 70
     1
 71
     0
 91
        1
 92
        0
 93
        4
 72
     1
 10
-7.750363627744367
 20
-35.8
 11
-11.19663887158165
 21
-35.8
 72
     1
 10
-11.19663887158165
 20
-35.8
 11
-13.32486873078567
 21
-38.33632558057259
 72
     1
 10
-13.32486873078567
 20
-38.33632558057259
 11
-9.87856040183524
 21
-38.3362861512701
 72
     1
 10
-9.87856040183524
 20
-38.3362861512701
 11
-7.750363627744367
 21
-35.8
 97
        0
 75
     0
 76
     1
 98
        1
 10
0.0
 20
0.0
  0
HATCH
  5
CB
330
1F
100
AcDbEntity
  8
중심선
100
AcDbHatch
 10
0.0
 20
0.0
 30
0.0
210
0.0
220
0.0
230
1.0
  2
SOLID
 70
     1
 71
     0
 91
        1
 92
        0
 93
        4
 72
     1
 10
-2.737599636708415
 20
-35.8
 11
-6.183874880545698
 21
-35.8
 72
     1
 10
-6.183874880545698
 20
-35.8
 11
-10.71501288890309
 21
-41.20000000000002
 72
     1
 10
-10.71501288890309
 20
-41.20000000000002
 11
-7.268737645065803
 21
-41.20000000000002
 72
     1
 10
-7.268737645065803
 20
-41.20000000000002
 11
-2.737599636708415
 21
-35.8
 97
        0
 75
     0
 76
     1
 98
        1
 10
0.0
 20
0.0
  0
HATCH
  5
CC
330
1F
100
AcDbEntity
  8
중심선
100
AcDbHatch
 10
0.0
 20
0.0
 30
0.0
210
0.0
220
0.0
230
1.0
  2
SOLID
 70
     1
 71
     0
 91
        1
 92
        0
 93
        4
 72
     1
 10
2.275164354327508
 20
-35.8
 11
-1.171110889509608
 21
-35.8
 72
     1
 10
-1.171110889509608
 20
-35.8
 11
-8.219547791398885
 21
-44.20000000000002
 72
     1
 10
-8.219547791398885
 20
-44.20000000000002
 11
-4.773272547561602
 21
-44.20000000000002
 72
     1
 10
-4.773272547561602
 20
-44.20000000000002
 11
2.275164354327508
 21
-35.8
 97
        0
 75
     0
 76
     1
 98
        1
 10
0.0
 20
0.0
  0
HATCH
  5
CD
330
1F
100
AcDbEntity
  8
중심선
100
AcDbHatch
 10
0.0
 20
0.0
 30
0.0
210
0.0
220
0.0
230
1.0
  2
SOLID
 70
     1
 71
     0
 91
        1
 92
        0
 93
        6
 72
     3
 10
7.075054785339679
 20
-40.00000000005127
 11
3.960054785062284
 21
1.540850780301639E-10
 40
0.3939339440162633
 50
17.09539180608433
 51
320.0019657685081
 73
     0
 72
     1
 10
8.758054441040276
 20
-38.5878940046383
 11
11.06335631474134
 21
-36.65356729459038
 72
     3
 10
7.075054785286833
 20
-40.00000000000015
 11
6.600054785286829
 21
-1.249000902703301E-13
 40
0.6363583540795982
 50
39.99873849337387
 51
368.4976242363725
 73
     1
 72
     1
 10
13.50038727718744
 20
-39.03999999993002
 11
5.755122092122756
 21
-39.03999999992999
 72
     1
 10
5.755122092122756
 20
-39.03999999992999
 11
5.755097047676822
 21
-40.95999999992991
 72
     1
 10
5.755097047676822
 20
-40.95999999992991
 11
10.19647681714886
 21
-40.95999999992988
 97
        0
 75
     0
 76
     1
 98
        1
 10
0.0
 20
0.0
  0
LINE
  5
120
330
1F
100
AcDbEntity
  8
참조1
100
AcDbLine
 10
83.28848381534561
 20
7.440000000000002
 30
0.0
 11
83.28848381534561
 21
-7.440000000000002
 31
0.0
  0
LINE
  5
121
330
1F
100
AcDbEntity
  8
참조1
100
AcDbLine
 10
95.98848381534562
 20
5.440000000000002
 30
0.0
 11
83.28848381534561
 21
5.440000000000002
 31
0.0
  0
SOLID
  5
122
330
1F
100
AcDbEntity
  8
참조1
100
AcDbTrace
 10
83.28848381534561
 20
5.440000000000002
 30
0.0
 11
89.63848381534561
 21
4.424000000000002
 31
0.0
 12
89.63848381534561
 22
6.456000000000002
 32
0.0
 13
89.63848381534561
 23
6.456000000000002
 33
0.0
  0
LINE
  5
123
330
1F
100
AcDbEntity
  8
참조1
100
AcDbLine
 10
95.98848381534562
 20
-5.440000000000002
 30
0.0
 11
83.28848381534561
 21
-5.440000000000002
 31
0.0
  0
SOLID
  5
124
330
1F
100
AcDbEntity
  8
참조1
100
AcDbTrace
 10
83.28848381534561
 20
-5.440000000000002
 30
0.0
 11
89.63848381534561
 21
-6.456000000000002
 31
0.0
 12
89.63848381534561
 22
-4.424000000000002
 32
0.0
 13
89.63848381534561
 23
-4.424000000000002
 33
0.0
  0
MTEXT
  5
125
330
1F
100
AcDbEntity
  8
참조1
100
AcDbMText
 10
92.88859862590819
 20
11.06571756601608
 30
0.0
 40
3.5
 41
0.0
 71
     1
 72
     1
  1
A
  7
SLDTEXTSTYLE0
 73
     1
 44
1.0
  0
MTEXT
  5
126
330
1F
100
AcDbEntity
  8
참조1
100
AcDbMText
 10
92.88859862590819
 20
0.1857175660160727
 30
0.0
 40
3.5
 41
0.0
 71
     1
 72
     1
  1
A
  7
SLDTEXTSTYLE0
 73
     1
 44
1.0
  0
LINE
  5
231
330
1F
100
AcDbEntity
  8
외형선
  6
Continuous
 62
     1
370
    15
100
AcDbLine
 10
28.36692766419603
 20
-3.967675071276112
 30
0.0
 11
30.78749313857351
 21
-3.967675071276112
 31
0.0
  0
LINE
  5
232
330
1F
100
AcDbEntity
  8
외형선
  6
Continuous
 62
     1
370
    15
100
AcDbLine
 10
19.98862786705557
 20
3.969824928723902
 30
0.0
 11
17.56916292226953
 21
3.969824928723902
 31
0.0
  0
LINE
  5
233
330
1F
100
AcDbEntity
  8
외형선
  6
Continuous
 62
     1
370
    15
100
AcDbLine
 10
17.56916292226956
 20
-3.967675071276112
 30
0.0
 11
19.98862786705554
 21
-3.967675071276112
 31
0.0
  0
LINE
  5
234
330
1F
100
AcDbEntity
  8
외형선
  6
Continuous
 62
     1
370
    15
100
AcDbLine
 10
30.78749313857351
 20
3.969824928723902
 30
0.0
 11
28.36692766419608
 21
3.969824928723902
 31
0.0
  0
ARC
  5
236
330
1F
100
AcDbEntity
  8
외형선
  6
Continuous
 62
     1
370
    15
100
AcDbCircle
 10
36.28900000000002
 20
1.683824928723901
 30
0.0
 40
2.286000000000008
100
AcDbArc
 50
10.56486444524814
 51
10.8539687917182
  0
LINE
  5
237
330
1F
100
AcDbEntity
  8
외형선
  6
Continuous
370
    15
100
AcDbLine
 10
-36.83124999999998
 20
-3.967675071276105
 30
0.0
 11
9.750110220022833
 21
-3.967675071276105
 31
0.0
  0
LINE
  5
238
330
1F
100
AcDbEntity
  8
외형선
  6
Continuous
370
    15
100
AcDbLine
 10
9.750110220022833
 20
3.969824928723895
 30
0.0
 11
-36.83124999999998
 21
3.969824928723895
 31
0.0
  0
LINE
  5
239
330
1F
100
AcDbEntity
  8
외형선
  6
Continuous
370
    15
100
AcDbLine
 10
-36.83124999999998
 20
3.969824928723895
 30
0.0
 11
-37.62499999999999
 21
3.176074928723899
 31
0.0
  0
LINE
  5
23A
330
1F
100
AcDbEntity
  8
외형선
  6
Continuous
370
    15
100
AcDbLine
 10
-37.62499999999999
 20
-3.173925071276109
 30
0.0
 11
-36.83124999999998
 21
-3.967675071276105
 31
0.0
  0
SPLINE
  5
23B
330
1F
100
AcDbEntity
  8
외형선
  6
Continuous
 62
     1
370
    15
100
AcDbSpline
210
0.0
220
0.0
230
1.0
 70
     8
 71
     3
 72
    18
 73
    14
 74
     0
 42
0.000000001
 43
0.00000001
 40
0.0
 40
0.0
 40
0.0
 40
0.0
 40
0.097034796567976
 40
0.1940374603239432
 40
0.2910524353621311
 40
0.3881240646589668
 40
0.4852774490606118
 40
0.5823684889283608
 40
0.6738344676077221
 40
0.7652835000202257
 40
0.8568072699611802
 40
0.9484354606848587
 40
1.0
 40
1.0
 40
1.0
 40
1.0
 10
10.00000000000001
 20
-0.464345049463887
 30
0.0
 10
10.45787777340477
 20
-0.7251193241904659
 30
0.0
 10
11.37348169522062
 20
-1.246581518943628
 30
0.0
 10
12.74671900384129
 20
-1.97437655204115
 30
0.0
 10
14.12018719704339
 20
-2.624842054305347
 30
0.0
 10
15.49449853373147
 20
-3.17049239699174
 30
0.0
 10
16.86954681765965
 20
-3.589647211595832
 30
0.0
 10
18.21788236915803
 20
-3.860826219585803
 30
0.0
 10
19.53892334487867
 20
-3.98242638252762
 30
0.0
 10
20.83367198216612
 20
-3.962004775562249
 30
0.0
 10
22.12935974565926
 20
-3.795690085582009
 30
0.0
 10
23.2373699055063
 20
-3.55630311678636
 30
0.0
 10
23.91299825697335
 20
-3.328399921605083
 30
0.0
 10
24.15629597664253
 20
-3.246330648501726
 30
0.0
  0
SPLINE
  5
23C
330
1F
100
AcDbEntity
  8
외형선
  6
Continuous
370
    15
100
AcDbSpline
210
0.0
220
0.0
230
1.0
 70
    24
 71
     3
 72
    22
 73
    18
 74
     0
 42
0.000000001
 43
0.00000001
 40
0.0
 40
0.0
 40
0.0
 40
0.0
 40
0.0113126128546551
 40
0.0843243694988162
 40
0.1594534720318297
 40
0.232465228675931
 40
0.3075943312088793
 40
0.3806060878529807
 40
0.4557351903859294
 40
0.5287469470300759
 40
0.6038760495629774
 40
0.6768878062070571
 40
0.752016908739982
 40
0.8250286653841035
 40
0.9001577679170735
 40
0.9731695245611754
 40
1.0
 40
1.0
 40
1.0
 40
1.0
 10
10.00000000000001
 20
3.540263866206182
 30
0.0
 10
10.00000000000003
 20
3.525544450887118
 30
0.0
 10
10.00000000000004
 20
3.415825729658117
 30
0.0
 10
10.00000000000001
 20
3.187636564176799
 30
0.0
 10
10.00000000000003
 20
2.835114272060331
 30
0.0
 10
10.00000000000003
 20
2.451686572535408
 30
0.0
 10
10.00000000000009
 20
2.055517028365912
 30
0.0
 10
10.00000000000004
 20
1.650578331196158
 30
0.0
 10
10.00000000000003
 20
1.255651942545981
 30
0.0
 10
10.0
 20
0.8747923560893796
 30
0.0
 10
10.00000000000004
 20
0.5256664836428939
 30
0.0
 10
10.00000000000009
 20
0.2117605954960524
 30
0.0
 10
9.999999999999943
 20
-0.0519749977444874
 30
0.0
 10
10.00000000000003
 20
-0.2643753632744108
 30
0.0
 10
10.00000000000003
 20
-0.4098197660354685
 30
0.0
 10
10.00000000000006
 20
-0.4871117772622995
 30
0.0
 10
10.00000000000003
 20
-0.4913413278996117
 30
0.0
 10
10.00000000000003
 20
-0.4924779296374169
 30
0.0
  0
SPLINE
  5
23D
330
1F
100
AcDbEntity
  8
외형선
  6
Continuous
 62
     1
370
    15
100
AcDbSpline
210
0.0
220
0.0
230
1.0
 70
     8
 71
     3
 72
    22
 73
    18
 74
     0
 42
0.000000001
 43
0.00000001
 40
0.0
 40
0.0
 40
0.0
 40
0.0
 40
0.0175398083226873
 40
0.0880717522458881
 40
0.1586919122061264
 40
0.2292314239167379
 40
0.2997134483315055
 40
0.3702086489281649
 40
0.4407875151505007
 40
0.5113864708752117
 40
0.5818909770591681
 40
0.6523702429700003
 40
0.7228949685395389
 40
0.792258577066082
 40
0.861539174751312
 40
0.930758000093569
 40
0.9999999999999999
 40
0.9999999999999999
 40
0.9999999999999999
 40
0.9999999999999999
 10
28.36692766419603
 20
-3.953466212456902
 30
0.0
 10
28.25954986865082
 20
-3.95781269981476
 30
0.0
 10
27.72037917579121
 20
-3.979637496909369
 30
0.0
 10
26.74891358310967
 20
-3.873432213228156
 30
0.0
 10
25.45235392085957
 20
-3.639980459908429
 30
0.0
 10
24.15665951829419
 20
-3.265240077897573
 30
0.0
 10
22.86191040456914
 20
-2.778068916464534
 30
0.0
 10
21.56690805545314
 20
-2.191502190237038
 30
0.0
 10
20.27076761290209
 20
-1.527762565947363
 30
0.0
 10
18.97442819064364
 20
-0.810048778068932
 30
0.0
 10
17.6792472098474
 20
-0.0630620761114216
 30
0.0
 10
16.3845472846109
 20
0.6860375864615662
 30
0.0
 10
15.09673412003332
 20
1.406628746277896
 30
0.0
 10
13.81563166285024
 20
2.073801707244542
 30
0.0
 10
12.54307528634932
 20
2.664549189311884
 30
0.0
 10
11.27151486914305
 20
3.172904563160635
 30
0.0
 10
10.42388557971942
 20
3.417797102414461
 30
0.0
 10
10.00000000000007
 20
3.540263866205898
 30
0.0
  0
LINE
  5
23E
330
1F
100
AcDbEntity
  8
외형선
  6
Continuous
 62
     1
370
    15
100
AcDbLine
 10
38.57500000000003
 20
-1.185145174379798
 30
0.0
 11
38.57500000000003
 21
-0.4394479681698797
 31
0.0
  0
SPLINE
  5
23F
330
1F
100
AcDbEntity
  8
외형선
  6
Continuous
 62
     1
370
    15
100
AcDbSpline
210
0.0
220
0.0
230
1.0
 70
     8
 71
     3
 72
    24
 73
    20
 74
     0
 42
0.000000001
 43
0.00000001
 40
0.0
 40
0.0
 40
0.0
 40
0.0
 40
0.1249999999999999
 40
0.1249999999999999
 40
0.2499999999999997
 40
0.2499999999999997
 40
0.3749999999999996
 40
0.3749999999999996
 40
0.4999999999999994
 40
0.4999999999999994
 40
0.6249999999999993
 40
0.6249999999999993
 40
0.7499999999999991
 40
0.7499999999999991
 40
0.8124999999999991
 40
0.8124999999999991
 40
0.874999999999999
 40
0.874999999999999
 40
1.0
 40
1.0
 40
1.0
 40
1.0
 10
36.28900000000002
 20
-2.846932749958142
 30
0.0
 10
36.43885598147028
 20
-2.907069228164069
 30
0.0
 10
36.58400545727949
 20
-2.95617828242316
 30
0.0
 10
36.86860990415353
 20
-3.029943791364722
 30
0.0
 10
37.00959559767114
 20
-3.054734043436639
 30
0.0
 10
37.28123527469748
 20
-3.07154570383657
 30
0.0
 10
37.41145844279063
 20
-3.06412654280043
 30
0.0
 10
37.66435887813712
 20
-3.010480167176269
 30
0.0
 10
37.78777840579303
 20
-2.963302533862532
 30
0.0
 10
38.01518651362488
 20
-2.823313046608455
 30
0.0
 10
38.1222331057058
 20
-2.72830315332147
 30
0.0
 10
38.30579194188168
 20
-2.491691453689434
 30
0.0
 10
38.38356862605461
 20
-2.34752768496476
 30
0.0
 10
38.46855603531981
 20
-2.110975683603471
 30
0.0
 10
38.49222796742555
 20
-2.027263800835236
 30
0.0
 10
38.52904136630315
 20
-1.859258233003224
 30
0.0
 10
38.54252651156186
 20
-1.774235919114531
 30
0.0
 10
38.57154561443755
 20
-1.51676043380521
 30
0.0
 10
38.5750000000001
 20
-1.348565694387325
 30
0.0
 10
38.57500000000006
 20
-1.185145174379798
 30
0.0
  0
SPLINE
  5
240
330
1F
100
AcDbEntity
  8
외형선
  6
Continuous
 62
     1
370
    15
100
AcDbSpline
210
0.0
220
0.0
230
1.0
 70
     8
 71
     3
 72
    20
 73
    16
 74
     0
 42
0.000000001
 43
0.00000001
 40
0.0
 40
0.0
 40
0.0
 40
0.0
 40
0.0518303824652063
 40
0.1313140193536778
 40
0.2108883402642675
 40
0.2903631204306041
 40
0.369779953742116
 40
0.4492184878897672
 40
0.5287580838725947
 40
0.6082974823873565
 40
0.6877359300100884
 40
0.7657316602330817
 40
0.8437986986598659
 40
0.9219566086937069
 40
1.0
 40
1.0
 40
1.0
 40
1.0
 10
19.98862786705557
 20
3.953870306270666
 30
0.0
 10
20.27019606858474
 20
3.954380881642386
 30
0.0
 10
20.98355858891351
 20
3.955674441540168
 30
0.0
 10
22.12937144136454
 20
3.7977339098559
 30
0.0
 10
23.42591606210436
 20
3.505921246875985
 30
0.0
 10
24.7215146211543
 20
3.084052548668268
 30
0.0
 10
26.016232572466
 20
2.554554036832037
 30
0.0
 10
27.31132213685387
 20
1.934066241314383
 30
0.0
 10
28.6075682028671
 20
1.245631578378138
 30
0.0
 10
29.90380721886527
 20
0.5130834363462071
 30
0.0
 10
31.1911908159874
 20
-0.2334104785041191
 30
0.0
 10
32.47048367849909
 20
-0.9675835158255026
 30
0.0
 10
33.74305220623422
 20
-1.662384892965918
 30
0.0
 10
35.01643986746781
 20
-2.306664822234659
 30
0.0
 10
35.86502066769599
 20
-2.666931483687364
 30
0.0
 10
36.28900000000002
 20
-2.846932749958128
 30
0.0
  0
SPLINE
  5
241
330
1F
100
AcDbEntity
  8
외형선
  6
Continuous
 62
     1
370
    15
100
AcDbSpline
210
0.0
220
0.0
230
1.0
 70
     8
 71
     3
 72
    32
 73
    28
 74
     0
 42
0.000000001
 43
0.00000001
 40
0.0
 40
0.0
 40
0.0
 40
0.0
 40
0.0624999999999995
 40
0.0624999999999995
 40
0.124999999999999
 40
0.124999999999999
 40
0.1874999999999986
 40
0.1874999999999986
 40
0.2499999999999981
 40
0.2499999999999981
 40
0.3124999999999976
 40
0.3124999999999976
 40
0.3749999999999971
 40
0.3749999999999971
 40
0.4999999999999987
 40
0.4999999999999987
 40
0.6250000000000002
 40
0.6250000000000002
 40
0.7500000000000018
 40
0.7500000000000018
 40
0.8125000000000013
 40
0.8125000000000013
 40
0.8750000000000009
 40
0.8750000000000009
 40
0.9375000000000003
 40
0.9375000000000003
 40
1.0
 40
1.0
 40
1.0
 40
1.0
 10
36.28900000000004
 20
1.613605380641118
 30
0.0
 10
36.03551474992679
 20
1.747064909716869
 30
0.0
 10
35.78140392744341
 20
1.877347019143436
 30
0.0
 10
35.27655667544418
 20
2.129214089317159
 30
0.0
 10
35.0261278818021
 20
2.250773321234732
 30
0.0
 10
34.51980516986509
 20
2.485156936096246
 30
0.0
 10
34.26557472072614
 20
2.597693718429532
 30
0.0
 10
33.75960838793867
 20
2.811413708341064
 30
0.0
 10
33.50936855892064
 20
2.912421714658024
 30
0.0
 10
33.00402992685352
 20
3.102899978720956
 30
0.0
 10
32.7498503702341
 20
3.192214592390144
 30
0.0
 10
32.24310045810067
 20
3.357332061274583
 30
0.0
 10
31.99211231861067
 20
3.432995156515631
 30
0.0
 10
31.2360816572083
 20
3.639050315816597
 30
0.0
 10
30.72545081952744
 20
3.748370608061805
 30
0.0
 10
29.72070871733945
 20
3.903728051745261
 30
0.0
 10
29.20879734832309
 20
3.950618773486916
 30
0.0
 10
28.20278754073266
 20
3.979366016213078
 30
0.0
 10
27.69346968658262
 20
3.961468120541156
 30
0.0
 10
26.93666714559012
 20
3.886910332480369
 30
0.0
 10
26.68605741730781
 20
3.854214302481687
 30
0.0
 10
26.17955174489936
 20
3.77310058194854
 30
0.0
 10
25.92533412828415
 20
3.724728013930765
 30
0.0
 10
25.4196013120069
 20
3.613256044151655
 30
0.0
 10
25.16940137902809
 20
3.550303047649386
 30
0.0
 10
24.66380072776425
 20
3.40985651259512
 30
0.0
 10
24.40959382678608
 20
3.332426675991258
 30
0.0
 10
24.1562960161843
 20
3.248482316601915
 30
0.0
  0
SPLINE
  5
242
330
1F
100
AcDbEntity
  8
외형선
  6
Continuous
 62
     1
370
    15
100
AcDbSpline
210
0.0
220
0.0
230
1.0
 70
     8
 71
     3
 72
    22
 73
    18
 74
     0
 42
0.000000001
 43
0.00000001
 40
0.0
 40
0.0
 40
0.0
 40
0.0
 40
0.1250000000000001
 40
0.1250000000000001
 40
0.2500000000000001
 40
0.2500000000000001
 40
0.3750000000000001
 40
0.3750000000000001
 40
0.5000000000000001
 40
0.5000000000000001
 40
0.6250000000000001
 40
0.6250000000000001
 40
0.7500000000000001
 40
0.7500000000000001
 40
0.8750000000000001
 40
0.8750000000000001
 40
1.0
 40
1.0
 40
1.0
 40
1.0
 10
38.57500000000003
 20
-0.4394479681698797
 30
0.0
 10
38.57500000000005
 20
-0.3082324267658834
 30
0.0
 10
38.57122722039719
 20
-0.1913257364971201
 30
0.0
 10
38.5363843185352
 20
0.0211521169807369
 30
0.0
 10
38.50459483967111
 20
0.1176815657093968
 30
0.0
 10
38.40710052512645
 20
0.2920348256461693
 30
0.0
 10
38.34192292947557
 20
0.3707809090845871
 30
0.0
 10
38.17726788053841
 20
0.5234547681797252
 30
0.0
 10
38.07890752407133
 20
0.5962094095497079
 30
0.0
 10
37.85813382133048
 20
0.7412968299158891
 30
0.0
 10
37.73328110430705
 20
0.8152153687203594
 30
0.0
 10
37.46775138101563
 20
0.9669124549528334
 30
0.0
 10
37.32826977852815
 20
1.044158431583767
 30
0.0
 10
37.03770661333661
 20
1.205131039073429
 30
0.0
 10
36.88696122581442
 20
1.288861835216117
 30
0.0
 10
36.58868078754358
 20
1.452999291745527
 30
0.0
 10
36.43834967744564
 20
1.534973043596921
 30
0.0
 10
36.2890000000001
 20
1.613605380641154
 30
0.0
  0
LINE
  5
243
330
1F
100
AcDbEntity
  8
외형선
  6
Continuous
370
    15
100
AcDbLine
 10
10.00000000000001
 20
3.540263866206182
 30
0.0
 11
10.00000000000001
 21
3.942440276722444
 31
0.0
  0
SPLINE
  5
244
330
1F
100
AcDbEntity
  8
외형선
  6
Continuous
 62
     1
370
    15
100
AcDbSpline
210
0.0
220
0.0
230
1.0
 70
     8
 71
     3
 72
    13
 73
     9
 74
     0
 42
0.000000001
 43
0.00000001
 40
0.0
 40
0.0
 40
0.0
 40
0.0
 40
0.1564895715423591
 40
0.3276151448829787
 40
0.4959233117311446
 40
0.6640300559194067
 40
0.8319869118589373
 40
1.0
 40
1.0
 40
1.0
 40
1.0
 10
17.56916292226956
 20
-3.962212621729932
 30
0.0
 10
17.17438278751061
 20
-3.953064707275509
 30
0.0
 10
16.34789991219027
 20
-3.933913301275581
 30
0.0
 10
15.09673424449748
 20
-3.733053857107642
 30
0.0
 10
13.815631629789
 20
-3.411003190290423
 30
0.0
 10
12.54307529515233
 20
-2.969600150398918
 30
0.0
 10
11.27151486694227
 20
-2.431879617371088
 30
0.0
 10
10.42388557898575
 20
-2.007174558993142
 30
0.0
 10
10.00000000000007
 20
-1.794786487784933
 30
0.0
  0
LINE
  5
245
330
1F
100
AcDbEntity
  8
외형선
  6
Continuous
370
    15
100
AcDbLine
 10
10.00000000000001
 20
-1.794786487785174
 30
0.0
 11
10.00000000000001
 21
-0.4643450494638799
 31
0.0
  0
SPLINE
  5
246
330
1F
100
AcDbEntity
  8
외형선
  6
Continuous
 62
     1
370
    15
100
AcDbSpline
210
0.0
220
0.0
230
1.0
 70
     8
 71
     3
 72
    24
 73
    20
 74
     0
 42
0.000000001
 43
0.00000001
 40
0.0
 40
0.0
 40
0.0
 40
0.0
 40
0.1249999999999999
 40
0.1249999999999999
 40
0.2499999999999999
 40
0.2499999999999999
 40
0.3749999999999998
 40
0.3749999999999998
 40
0.4999999999999997
 40
0.4999999999999997
 40
0.6249999999999996
 40
0.6249999999999996
 40
0.7499999999999993
 40
0.7499999999999993
 40
0.8124999999999992
 40
0.8124999999999992
 40
0.8749999999999992
 40
0.8749999999999992
 40
1.0
 40
1.0
 40
1.0
 40
1.0
 10
36.28900000000002
 20
2.765098956236692
 30
0.0
 10
36.43885598147028
 20
2.703135257660058
 30
0.0
 10
36.58400545727949
 20
2.6276549715271
 30
0.0
 10
36.86860990415353
 20
2.454968856689192
 30
0.0
 10
37.00959559767111
 20
2.356389651245578
 30
0.0
 10
37.28123527469745
 20
2.148121952705011
 30
0.0
 10
37.41145844279066
 20
2.03889994255028
 30
0.0
 10
37.66435887813711
 20
1.815420448676456
 30
0.0
 10
37.78777840579301
 20
1.700257637526455
 30
0.0
 10
38.01518651362488
 20
1.485191715115221
 30
0.0
 10
38.12223310570572
 20
1.382510217552941
 30
0.0
 10
38.30579194188164
 20
1.214640057245468
 30
0.0
 10
38.38356862605461
 20
1.148602773183192
 30
0.0
 10
38.46855603531978
 20
1.092389093155212
 30
0.0
 10
38.49222796742549
 20
1.080332162084396
 30
0.0
 10
38.5290413663031
 20
1.070436772443259
 30
0.0
 10
38.54252651156186
 20
1.072301085088867
 30
0.0
 10
38.57154561443755
 20
1.096550493105347
 30
0.0
 10
38.57500000000009
 20
1.136472478777996
 30
0.0
 10
38.57500000000006
 20
1.194611450782951
 30
0.0
  0
LINE
  5
247
330
1F
100
AcDbEntity
  8
외형선
  6
Continuous
 62
     1
370
    15
100
AcDbLine
 10
38.57500000000003
 20
-0.4394479681698797
 30
0.0
 11
38.57500000000003
 21
1.194611450782951
 31
0.0
  0
SPLINE
  5
248
330
1F
100
AcDbEntity
  8
외형선
  6
Continuous
 62
     1
370
    15
100
AcDbSpline
210
0.0
220
0.0
230
1.0
 70
     8
 71
     3
 72
    10
 73
     6
 74
     0
 42
0.000000001
 43
0.00000001
 40
0.0
 40
0.0
 40
0.0
 40
0.0
 40
0.4070759784100064
 40
0.8140171547041718
 40
0.9999999999999999
 40
0.9999999999999999
 40
0.9999999999999999
 40
0.9999999999999999
 10
10.00000000000001
 20
-3.940290419274653
 30
0.0
 10
10.45787878449397
 20
-3.892729827533749
 30
0.0
 10
11.37348472815337
 20
-3.797624393614022
 30
0.0
 10
12.49814560064632
 20
-3.542338141721153
 30
0.0
 10
13.16502998958279
 20
-3.311485558739875
 30
0.0
 10
13.37421202913852
 20
-3.239073885973411
 30
0.0
  0
SPLINE
  5
249
330
1F
100
AcDbEntity
  8
외형선
  6
Continuous
 62
     1
370
    15
100
AcDbSpline
210
0.0
220
0.0
230
1.0
 70
     8
 71
     3
 72
    12
 73
     8
 74
     0
 42
0.000000001
 43
0.00000001
 40
0.0
 40
0.0
 40
0.0
 40
0.0
 40
0.0748083643091452
 40
0.3058980225725668
 40
0.5371989563557947
 40
0.768769129090437
 40
1.0
 40
1.0
 40
1.0
 40
1.0
 10
30.78749313857351
 20
3.954564535065067
 30
0.0
 10
30.92466834112025
 20
3.958863056837671
 30
0.0
 10
31.48558988502192
 20
3.976440092806421
 30
0.0
 10
32.47047269592034
 20
3.867501414117079
 30
0.0
 10
33.74305514000349
 20
3.629356428178617
 30
0.0
 10
35.01643913492421
 20
3.264737221141239
 30
0.0
 10
35.86502042363415
 20
2.931563622646024
 30
0.0
 10
36.28900000000004
 20
2.765098956236692
 30
0.0
  0
LINE
  5
24A
330
1F
100
AcDbEntity
  8
외형선
  6
Continuous
 62
     1
370
    15
100
AcDbLine
 10
38.57500000000003
 20
1.194611450782951
 30
0.0
 11
38.57498005036789
 21
2.444362900055797
 31
0.0
  0
SPLINE
  5
24B
330
1F
100
AcDbEntity
  8
외형선
  6
Continuous
370
    15
100
AcDbSpline
210
0.0
220
0.0
230
1.0
 70
    24
 71
     3
 72
    13
 73
     9
 74
     0
 42
0.000000001
 43
0.00000001
 40
0.0
 40
0.0
 40
0.0
 40
0.0
 40
0.1415398464979122
 40
0.3182047289010175
 40
0.4948696113041225
 40
0.6715344937071795
 40
0.8481993761102363
 40
1.0
 40
1.0
 40
1.0
 40
1.0
 10
10.00000000000001
 20
-1.847377503488239
 30
0.0
 10
10.0
 20
-1.925962225137518
 30
0.0
 10
9.999999999999972
 20
-2.102633534785568
 30
0.0
 10
9.999999999999986
 20
-2.427992052571959
 30
0.0
 10
10.00000000000003
 20
-2.801109466803545
 30
0.0
 10
10.00000000000001
 20
-3.195537109273644
 30
0.0
 10
10.00000000000001
 20
-3.579923445504996
 30
0.0
 10
10.00000000000001
 20
-3.826387047769565
 30
0.0
 10
10.00000000000001
 20
-3.940290419274653
 30
0.0
  0
LINE
  5
24C
330
1F
100
AcDbEntity
  8
외형선
  6
Continuous
 62
     1
370
    15
100
AcDbLine
 10
38.57498005036789
 20
-2.442213042607994
 30
0.0
 11
38.57500000000003
 21
-1.185145174379798
 31
0.0
  0
LINE
  5
24D
330
1F
100
AcDbEntity
  8
외형선
  6
Continuous
 62
     1
370
    15
100
AcDbLine
 10
38.57500000000003
 20
1.625139933522746
 30
0.0
 11
38.57500000000003
 21
1.683824928723901
 31
0.0
  0
LINE
  5
24E
330
1F
100
AcDbEntity
  8
외형선
  6
Continuous
370
    15
100
AcDbLine
 10
9.750110220022833
 20
3.956739568448199
 30
0.0
 11
9.750110220022833
 21
3.969824928723895
 31
0.0
  0
SPLINE
  5
24F
330
1F
100
AcDbEntity
  8
외형선
  6
Continuous
370
    15
100
AcDbSpline
210
0.0
220
0.0
230
1.0
 70
     8
 71
     3
 72
     8
 73
     4
 74
     0
 42
0.000000001
 43
0.00000001
 40
0.0
 40
0.0
 40
0.0
 40
0.0
 40
1.0
 40
1.0
 40
1.0
 40
1.0
 10
10.00000000000001
 20
3.942440276722436
 30
0.0
 10
9.916839401888708
 20
3.948071705856314
 30
0.0
 10
9.833515440901849
 20
3.95284099885869
 30
0.0
 10
9.750110220022833
 20
3.956740895012373
 30
0.0
  0
SPLINE
  5
250
330
1F
100
AcDbEntity
  8
외형선
  6
Continuous
370
    15
100
AcDbSpline
210
0.0
220
0.0
230
1.0
 70
     8
 71
     3
 72
     8
 73
     4
 74
     0
 42
0.000000001
 43
0.00000001
 40
0.0
 40
0.0
 40
0.0
 40
0.0
 40
1.0
 40
1.0
 40
1.0
 40
1.0
 10
10.00000000000001
 20
3.540263866205912
 30
0.0
 10
9.916839401888708
 20
3.56199320051747
 30
0.0
 10
9.833515440901849
 20
3.582959281208971
 30
0.0
 10
9.750110220022833
 20
3.603139085401757
 30
0.0
  0
SPLINE
  5
251
330
1F
100
AcDbEntity
  8
외형선
  6
Continuous
370
    15
100
AcDbSpline
210
0.0
220
0.0
230
1.0
 70
     8
 71
     3
 72
     8
 73
     4
 74
     0
 42
0.000000001
 43
0.00000001
 40
0.0
 40
0.0
 40
0.0
 40
0.0
 40
1.0
 40
1.0
 40
1.0
 40
1.0
 10
10.00000000000001
 20
-0.464345049463887
 30
0.0
 10
9.916839401888708
 20
-0.4166558210505045
 30
0.0
 10
9.833515440901849
 20
-0.3688331441873416
 30
0.0
 10
9.750110220022833
 20
-0.3209240241424283
 30
0.0
  0
SPLINE
  5
252
330
1F
100
AcDbEntity
  8
외형선
  6
Continuous
370
    15
100
AcDbSpline
210
0.0
220
0.0
230
1.0
 70
     8
 71
     3
 72
     8
 73
     4
 74
     0
 42
0.000000001
 43
0.00000001
 40
0.0
 40
0.0
 40
0.0
 40
0.0
 40
1.0
 40
1.0
 40
1.0
 40
1.0
 10
10.00000000000001
 20
-1.794786487784897
 30
0.0
 10
9.916839401888708
 20
-1.751963462072908
 30
0.0
 10
9.833515440901849
 20
-1.708717906942489
 30
0.0
 10
9.750110220022833
 20
-1.66509144162351
 30
0.0
  0
LINE
  5
253
330
1F
100
AcDbEntity
  8
외형선
  6
Continuous
370
    15
100
AcDbLine
 10
9.750110220022833
 20
-3.967675071276105
 30
0.0
 11
9.750110220022833
 21
-1.665067522827904
 31
0.0
  0
SPLINE
  5
254
330
1F
100
AcDbEntity
  8
외형선
  6
Continuous
370
    15
100
AcDbSpline
210
0.0
220
0.0
230
1.0
 70
     8
 71
     3
 72
     8
 73
     4
 74
     0
 42
0.000000001
 43
0.00000001
 40
0.0
 40
0.0
 40
0.0
 40
0.0
 40
1.0
 40
1.0
 40
1.0
 40
1.0
 10
10.00000000000001
 20
-3.940290419274646
 30
0.0
 10
9.916839401888708
 20
-3.945921848408524
 30
0.0
 10
9.833515440901849
 20
-3.9506911414109
 30
0.0
 10
9.750110220022833
 20
-3.954591037564583
 30
0.0
  0
LINE
  5
255
330
1F
100
AcDbEntity
  8
외형선
  6
Continuous
370
    15
100
AcDbLine
 10
-36.83124999999998
 20
0.0010749287238951
 30
0.0
 11
-36.83124999999998
 21
3.969824928723895
 31
0.0
  0
LINE
  5
256
330
1F
100
AcDbEntity
  8
외형선
  6
Continuous
370
    15
100
AcDbLine
 10
-36.83124999999998
 20
-3.967675071276105
 30
0.0
 11
-36.83124999999998
 21
0.0010749287238951
 31
0.0
  0
LINE
  5
257
330
1F
100
AcDbEntity
  8
외형선
  6
Continuous
370
    15
100
AcDbLine
 10
9.750110220022833
 20
-0.3209403201926051
 30
0.0
 11
9.750110220022833
 21
3.603150149154061
 31
0.0
  0
LINE
  5
258
330
1F
100
AcDbEntity
  8
외형선
  6
Continuous
370
    15
100
AcDbLine
 10
-37.62499999999999
 20
0.0010749287238951
 30
0.0
 11
-37.62499999999999
 21
3.176074928723899
 31
0.0
  0
LINE
  5
259
330
1F
100
AcDbEntity
  8
외형선
  6
Continuous
370
    15
100
AcDbLine
 10
-37.62499999999999
 20
-3.173925071276109
 30
0.0
 11
-37.62499999999999
 21
0.0010749287238951
 31
0.0
  0
SPLINE
  5
25A
330
1F
100
AcDbEntity
  8
외형선
  6
Continuous
370
    15
100
AcDbSpline
210
0.0
220
0.0
230
1.0
 70
    24
 71
     3
 72
    21
 73
    17
 74
     0
 42
0.000000001
 43
0.00000001
 40
0.0
 40
0.0
 40
0.0
 40
0.0
 40
0.0338422349060894
 40
0.1070601376210348
 40
0.1824013644748459
 40
0.255619267189817
 40
0.330960494043656
 40
0.4041783967586141
 40
0.4795196236124389
 40
0.5527375263273969
 40
0.6280787531812223
 40
0.701296655896176
 40
0.7766378827499961
 40
0.8498557854649614
 40
0.925197012318794
 40
1.0
 40
1.0
 40
1.0
 40
1.0
 10
10.00000000000003
 20
-0.4907551726819293
 30
0.0
 10
10.00000000000003
 20
-0.4881932384995906
 30
0.0
 10
10.00000000000001
 20
-0.4800885424918135
 30
0.0
 10
10.0
 20
-0.3942000838381716
 30
0.0
 10
10.00000000000001
 20
-0.2400254609272139
 30
0.0
 10
9.999999999999986
 20
-0.0201751725165877
 30
0.0
 10
10.00000000000004
 20
0.2502191295635257
 30
0.0
 10
9.999999999999972
 20
0.5696995457015035
 30
0.0
 10
10.00000000000011
 20
0.9231192516880284
 30
0.0
 10
9.999999999999957
 20
1.306925134065004
 30
0.0
 10
10.00000000000003
 20
1.703342433556244
 30
0.0
 10
10.00000000000003
 20
2.108209341613872
 30
0.0
 10
9.999999999999929
 20
2.503086239671646
 30
0.0
 10
10.00000000000006
 20
2.882748842485334
 30
0.0
 10
10.0
 20
3.236429329078049
 30
0.0
 10
10.0
 20
3.439228019064991
 30
0.0
 10
10.0
 20
3.540263866205926
 30
0.0
  0
SPLINE
  5
25B
330
1F
100
AcDbEntity
  8
외형선
  6
Continuous
370
    15
100
AcDbSpline
210
0.0
220
0.0
230
1.0
 70
    24
 71
     3
 72
    13
 73
     9
 74
     0
 42
0.000000001
 43
0.00000001
 40
0.0
 40
0.0
 40
0.0
 40
0.0
 40
0.1769050434881597
 40
0.3538100869763192
 40
0.5303247013829099
 40
0.7068393157895003
 40
0.8833539301961544
 40
1.0
 40
1.0
 40
1.0
 40
1.0
 10
10.00000000000001
 20
-3.940290419274646
 30
0.0
 10
10.00000000000001
 20
-3.807216778345463
 30
0.0
 10
10.00000000000003
 20
-3.54106949648709
 30
0.0
 10
10.00000000000001
 20
-3.137588021716049
 30
0.0
 10
10.00000000000001
 20
-2.745288416083099
 30
0.0
 10
10.0
 20
-2.375771758563197
 30
0.0
 10
10.00000000000003
 20
-2.070828156643287
 30
0.0
 10
10.00000000000001
 20
-1.910972621488376
 30
0.0
 10
10.00000000000001
 20
-1.847367503488236
 30
0.0
  0
LINE
  5
25C
330
1F
100
AcDbEntity
  8
중심선
 62
     1
100
AcDbLine
 10
-40.62499999999999
 20
0.001074928723888
 30
0.0
 11
41.575
 21
0.0010749287239022
 31
0.0
  0
CIRCLE
  5
25D
330
1F
100
AcDbEntity
  8
해칭선
100
AcDbCircle
 10
0.0
 20
0.0
 30
0.0
 40
3.000000000000002
  0
DIMENSION
  5
25E
330
1F
100
AcDbEntity
  8
치수문자_일반주서
100
AcDbDimension
  2
*D13
 10
-50.46624999999997
 20
-3.967675071276148
 30
0.0
 11
-50.46624999999999
 21
0.001074928723888
 31
0.0
 70
   160
  1
%%c<>
 71
     2
 42
7.937499999999986
 52
-270.0
  3
SLDDIMSTYLE0
100
AcDbAlignedDimension
 13
-36.83124999999998
 23
3.969824928723888
 33
0.0
 14
-36.83124999999998
 24
-3.967675071276098
 34
0.0
 50
90.0000000000002
100
AcDbRotatedDimension
1001
ACAD
1000
DSTYLE
1002
{
1070
   171
1070
     6
1070
   273
1070
     7
1002
}
  0
DIMENSION
  5
25F
330
1F
100
AcDbEntity
  8
치수문자_일반주서
100
AcDbDimension
  2
*D14
 10
10.00000000000001
 20
12.17592331419822
 30
0.0
 11
24.28750000000002
 21
12.17592331419822
 31
0.0
 70
   160
  1
<>
 71
     2
 42
28.57500000000002
  3
SLDDIMSTYLE0
100
AcDbAlignedDimension
 13
38.57500000000003
 23
1.625139933522746
 33
0.0
 14
10.00000000000001
 24
3.942440276722436
 34
0.0
100
AcDbRotatedDimension
1001
ACAD
1000
DSTYLE
1002
{
1070
   171
1070
     6
1070
   273
1070
     7
1002
}
  0
DIMENSION
  5
260
330
1F
100
AcDbEntity
  8
치수문자_일반주서
100
AcDbDimension
  2
*D15
 10
-37.62499999999999
 20
23.9586993714469
 30
0.0
 11
0.4750000000000227
 21
23.9586993714469
 31
0.0
 70
   160
  1
<>
 71
     2
 42
76.20000000000002
  3
SLDDIMSTYLE1
100
AcDbAlignedDimension
 13
38.57500000000003
 23
1.625139933522746
 33
0.0
 14
-37.62499999999999
 24
3.176074928723899
 34
0.0
 50
0.0000000000000053
100
AcDbRotatedDimension
1001
ACAD
1000
DSTYLE
1002
{
1070
   171
1070
     6
1070
   273
1070
     7
1002
}
  0
DIMENSION
  5
261
330
1F
100
AcDbEntity
  8
치수문자_일반주서
100
AcDbDimension
  2
*D16
 10
57.57500000000014
 20
-3.967675071275973
 30
0.0
 11
57.57500000000005
 21
24.57382492872404
 31
0.0
 70
   160
  1
%%c<>
 71
     2
 42
7.937500000000014
 52
-270.0
  3
SLDDIMSTYLE2
100
AcDbAlignedDimension
 13
19.98977765272919
 23
3.969824928723902
 33
0.0
 14
19.98977765272917
 24
-3.967675071276112
 34
0.0
 50
90.0000000000002
100
AcDbRotatedDimension
1001
ACAD
1000
DSTYLE
1002
{
1070
   171
1070
     6
1070
   273
1070
     7
1002
}
  0
INSERT
  5
262
330
1F
100
AcDbEntity
  8
해칭선
100
AcDbBlockReference
  2
SW_DOWELSYMBOL_0
 10
0.0
 20
0.0
 30
0.0
  0
LINE
  5
263
330
1F
100
AcDbEntity
  8
외형선
  6
Continuous
 62
     1
370
    15
100
AcDbLine
 10
37.05098005036789
 20
3.968362900055797
 30
0.0
 11
34.41142796644453
 21
3.43244992149387
 31
0.0
  0
SPLINE
  5
266
330
1F
100
AcDbEntity
  8
외형선
  6
Continuous
 62
     1
370
    15
100
AcDbSpline
210
0.0
220
0.0
230
1.0
 70
     8
 71
     3
 72
    20
 73
    16
 74
     0
 42
0.000000001
 43
0.00000001
 40
0.3456924208245601
 40
0.3456924208245601
 40
0.3456924208245601
 40
0.3456924208245601
 40
0.3597709970415338
 40
0.4163065356022719
 40
0.4729127845516112
 40
0.5294543891430464
 40
0.585949914255452
 40
0.6424560008595447
 40
0.6990291504275022
 40
0.7556184029237647
 40
0.8121319485082881
 40
0.8686252625160943
 40
0.9251550151380205
 40
0.9807540635469837
 40
1.0
 40
1.0
 40
1.0
 40
1.0
 10
28.3673695706719
 20
0.0010749287235825
 30
0.0
 10
28.25984432122755
 20
0.0631835010640671
 30
0.0
 10
27.72053023112795
 20
0.374695924999358
 30
0.0
 10
26.74891238285426
 20
0.9327206299076849
 30
0.0
 10
25.45235424268805
 20
1.643029828818044
 30
0.0
 10
24.15665943049862
 20
2.295911652725252
 30
0.0
 10
22.86191043436369
 20
2.867382460046322
 30
0.0
 10
21.5669080240266
 20
3.337404807830652
 30
0.0
 10
20.27076770891344
 20
3.689030237044435
 30
0.0
 10
18.97442783816854
 20
3.910216805617225
 30
0.0
 10
17.6792485215946
 20
3.9925294494547
 30
0.0
 10
16.38454238991808
 20
3.935492621341986
 30
0.0
 10
15.09675227334552
 20
3.732510762476991
 30
0.0
 10
14.09284973011115
 20
3.495408967039062
 30
0.0
 10
13.52120660983093
 20
3.293216354320052
 30
0.0
 10
13.37421202913852
 20
3.241223743421202
 30
0.0
  0
SPLINE
  5
267
330
1F
100
AcDbEntity
  8
외형선
  6
Continuous
 62
     1
370
    15
100
AcDbSpline
210
0.0
220
0.0
230
1.0
 70
  1064
 71
     3
 72
    10
 73
     6
 74
     4
 42
0.000000001
 43
0.0000000001
 44
0.0
 40
0.0
 40
0.0
 40
0.0
 40
0.0
 40
2.790242844287396
 40
7.457664683239524
 40
9.608179720828113
 40
9.608179720828113
 40
9.608179720828113
 40
9.608179720828113
 10
37.05098005036789
 20
-3.966213042607994
 30
0.0
 10
36.14418209061656
 20
-3.749785180180507
 30
0.0
 10
33.72052382978939
 20
-3.171324266142507
 30
0.0
 10
30.86046718589184
 20
-1.643107823078026
 30
0.0
 10
28.96518109522945
 20
-0.3931781448445127
 30
0.0
 10
28.3673695706719
 20
0.0010749287235825
 30
0.0
 11
37.05098005036789
 21
-3.966213042607994
 31
0.0
 11
34.35910694469302
 21
-3.231860053207548
 31
0.0
 11
30.17415588177029
 21
-1.165217552998783
 31
0.0
 11
28.3673695706719
 21
0.0010749287235825
 31
0.0
  0
SPLINE
  5
268
330
1F
100
AcDbEntity
  8
외형선
  6
Continuous
 62
     1
370
    15
100
AcDbSpline
210
0.0
220
0.0
230
1.0
 70
     8
 71
     3
 72
    26
 73
    22
 74
     0
 42
0.000000001
 43
0.00000001
 40
0.0
 40
0.0
 40
0.0
 40
0.0
 40
0.0549930958065933
 40
0.1099679807973573
 40
0.1649498430328481
 40
0.2199638132665402
 40
0.2750241170472739
 40
0.3300490879469503
 40
0.3818861351348043
 40
0.4337135782660738
 40
0.4855833778324341
 40
0.5375123563975844
 40
0.5893763762032298
 40
0.6412025807822092
 40
0.6930429469932551
 40
0.7449492646043573
 40
0.7968554533508373
 40
0.8486957630970509
 40
0.8995945776464567
 40
0.950539926833467
 40
0.9870497347764391
 40
0.9870497347764391
 40
0.9870497347764391
 40
0.9870497347764391
 10
10.00000000000001
 20
3.942440276722444
 30
0.0
 10
10.45787777349628
 20
3.896238603988976
 30
0.0
 10
11.3734816954951
 20
3.803850558081756
 30
0.0
 10
12.74671900274376
 20
3.471767399234679
 30
0.0
 10
14.1201872011608
 20
3.012738486692939
 30
0.0
 10
15.49449851834436
 20
2.430602638022719
 30
0.0
 10
16.86954687512369
 20
1.752900519427484
 30
0.0
 10
18.21788216010563
 20
1.01917064029216
 30
0.0
 10
19.53892407488492
 20
0.2624051547587243
 30
0.0
 10
20.8336692519354
 20
-0.4886971768530515
 30
0.0
 10
22.12936995072958
 20
-1.222530071557188
 30
0.0
 10
23.42591646193016
 20
-1.912348846998583
 30
0.0
 10
24.72151451131313
 20
-2.535126947553394
 30
0.0
 10
26.01623261253721
 20
-3.067911392716844
 30
0.0
 10
27.31132208635432
 20
-3.492064018029296
 30
0.0
 10
28.60756836496662
 20
-3.792318660095113
 30
0.0
 10
29.90380662137997
 20
-3.958164099141278
 30
0.0
 10
31.19119302369282
 20
-3.984319634978412
 30
0.0
 10
32.47047560267565
 20
-3.869717594047415
 30
0.0
 10
33.62239952751061
 20
-3.654666821682305
 30
0.0
 10
34.35072998878907
 20
-3.442163224717355
 30
0.0
 10
34.6547937871818
 20
-3.349955633142436
 30
0.0
  0
ARC
  5
2AA
330
1F
100
AcDbEntity
  8
외형선
  6
Continuous
 62
     1
370
    15
100
AcDbCircle
 10
37.05098005036789
 20
2.444362900055797
 30
0.0
 40
1.524
100
AcDbArc
 50
0.0
 51
90.0
  0
ARC
  5
2AC
102
{ACAD_REACTORS
102
}
330
1F
100
AcDbEntity
  8
외형선
  6
Continuous
 62
     1
370
    15
100
AcDbCircle
 10
37.05098005036789
 20
-2.442213042607994
 30
0.0
 40
1.524
100
AcDbArc
 50
270.0
 51
0.0
  0
DIMENSION
  5
2AD
102
{ACAD_REACTORS
102
}
102
{ACAD_XDICTIONARY
360
2AE
102
}
330
1F
100
AcDbEntity
  8
치수문자_일반주서
100
AcDbDimension
  2
*D18
 10
37.05098005036789
 20
-2.442213042607994
 30
0.0
 11
44.56369073161084
 21
-27.8581172606353
 31
0.0
 70
   164
  1
<>
 71
     5
 42
1.523999999999999
  3
SLDDIMSTYLE2
100
AcDbRadialDimension
 15
37.48298288318735
 25
-3.903701856262055
 35
0.0
 40
0.0
1001
ACAD
1000
DSTYLE
1002
{
1070
   171
1070
     2
1070
   273
1070
     2
1002
}
1001
ACAD_DSTYLE_DIMRADIAL_EXTENSION
1070
   387
1070
     1
1070
   388
1040
4.71238898038469
1070
   390
1040
0.0
  0
ENDSEC
  0
SECTION
  2
OBJECTS
  0
DICTIONARY
  5
C
330
0
100
AcDbDictionary
281
     1
  3
ACAD_GROUP
350
D
  3
ACAD_IMAGE_VARS
350
151
  3
ACAD_LAYOUT
350
1A
  3
ACAD_MLINESTYLE
350
17
  3
ACAD_PLOTSETTINGS
350
19
  3
ACAD_PLOTSTYLENAME
350
E
  3
ACAD_SCALELIST
350
47
  3
APPDATA
350
14F
  3
DWGPROPS
350
2BB
  0
DICTIONARY
  5
2AE
330
2AD
100
AcDbDictionary
280
     1
281
     1
  0
DICTIONARY
  5
D
102
{ACAD_REACTORS
330
C
102
}
330
C
100
AcDbDictionary
281
     1
  0
RASTERVARIABLES
  5
151
102
{ACAD_REACTORS
330
C
102
}
330
C
100
AcDbRasterVariables
 90
        0
 70
     1
 71
     1
 72
     1
  0
DICTIONARY
  5
1A
102
{ACAD_REACTORS
330
C
102
}
330
C
100
AcDbDictionary
281
     1
  3
Layout1
350
1E
  3
Layout2
350
26
  3
Model
350
22
  0
DICTIONARY
  5
17
102
{ACAD_REACTORS
330
C
102
}
330
C
100
AcDbDictionary
281
     1
  3
Standard
350
18
  0
DICTIONARY
  5
19
102
{ACAD_REACTORS
330
C
102
}
330
C
100
AcDbDictionary
281
     1
  0
ACDBDICTIONARYWDFLT
  5
E
102
{ACAD_REACTORS
330
C
102
}
330
C
100
AcDbDictionary
281
     1
  3
Normal
350
F
100
AcDbDictionaryWithDefault
340
F
  0
DICTIONARY
  5
47
102
{ACAD_REACTORS
330
C
102
}
330
C
100
AcDbDictionary
281
     1
  3
A0
350
48
  3
A1
350
49
  3
A2
350
4A
  3
A3
350
4B
  3
A4
350
4C
  3
A5
350
4D
  3
A6
350
4E
  3
A7
350
4F
  3
A8
350
50
  3
A9
350
51
  3
B0
350
52
  3
B1
350
53
  3
B2
350
54
  3
B3
350
55
  3
B4
350
56
  3
B5
350
57
  3
B6
350
58
  3
B7
350
59
  3
B8
350
5A
  3
B9
350
5B
  3
C0
350
5C
  3
C1
350
5D
  3
C2
350
5E
  3
C3
350
5F
  3
C4
350
60
  3
C5
350
61
  3
C6
350
62
  3
C7
350
63
  3
C8
350
64
  3
C9
350
65
  3
D0
350
66
  3
D1
350
67
  3
D2
350
68
  0
DICTIONARY
  5
14F
102
{ACAD_REACTORS
330
C
102
}
330
C
100
AcDbDictionary
281
     1
  0
XRECORD
  5
2BB
102
{ACAD_REACTORS
330
C
102
}
330
C
100
AcDbXrecord
280
     1
  1
DWGPROPS COOKIE
  2

  3

  4

  6

  7

  8
12016016
  9

300
=
301
=
302
=
303
=
304
=
305
=
306
=
307
=
308
=
309
=
 40
0.0
 41
2458304.074436725
 42
2458304.196142222
  1

 90
        0
  0
LAYOUT
  5
1E
102
{ACAD_REACTORS
330
1A
102
}
330
1A
100
AcDbPlotSettings
  1

  2
none_device
  4

  6

 40
0.0
 41
0.0
 42
0.0
 43
0.0
 44
0.0
 45
0.0
 46
0.0
 47
0.0
 48
0.0
 49
0.0
140
0.0
141
0.0
142
1.0
143
1.0
 70
   688
 72
     1
 73
     0
 74
     5
  7

 75
    16
147
1.0
148
0.0
149
0.0
100
AcDbLayout
  1
Layout1
 70
     1
 71
     1
 10
0.0
 20
0.0
 11
420.0
 21
297.0
 12
0.0
 22
0.0
 32
0.0
 14
1.000000000000000E+20
 24
1.000000000000000E+20
 34
1.000000000000000E+20
 15
-1.000000000000000E+20
 25
-1.000000000000000E+20
 35
-1.000000000000000E+20
146
0.0
 13
0.0
 23
0.0
 33
0.0
 16
1.0
 26
0.0
 36
0.0
 17
0.0
 27
1.0
 37
0.0
 76
     0
330
1B
  0
LAYOUT
  5
26
102
{ACAD_REACTORS
330
1A
102
}
330
1A
100
AcDbPlotSettings
  1

  2
none_device
  4

  6

 40
0.0
 41
0.0
 42
0.0
 43
0.0
 44
0.0
 45
0.0
 46
0.0
 47
0.0
 48
0.0
 49
0.0
140
0.0
141
0.0
142
1.0
143
1.0
 70
   688
 72
     1
 73
     0
 74
     5
  7

 75
    16
147
1.0
148
0.0
149
0.0
100
AcDbLayout
  1
Layout2
 70
     1
 71
     2
 10
0.0
 20
0.0
 11
0.0
 21
0.0
 12
0.0
 22
0.0
 32
0.0
 14
0.0
 24
0.0
 34
0.0
 15
0.0
 25
0.0
 35
0.0
146
0.0
 13
0.0
 23
0.0
 33
0.0
 16
1.0
 26
0.0
 36
0.0
 17
0.0
 27
1.0
 37
0.0
 76
     0
330
23
  0
LAYOUT
  5
22
102
{ACAD_REACTORS
330
1A
102
}
330
1A
100
AcDbPlotSettings
  1

  2
none_device
  4
ANSI_A_(11.00_x_8.50_Inches)
  6

 40
6.35
 41
19.05
 42
6.35000508
 43
19.05000254
 44
279.4
 45
215.9
 46
102.804710225224
 47
102.2256799412837
 48
0.0
 49
0.0
140
0.0
141
0.0
142
0.0692538323280726
143
1.0
 70
  1696
 72
     0
 73
     0
 74
     0
  7

 75
     0
147
0.0235690232323232
148
0.0
149
0.0
100
AcDbLayout
  1
Model
 70
     1
 71
     0
 10
0.0
 20
0.0
 11
420.0
 21
297.0
 12
0.0
 22
0.0
 32
0.0
 14
1.000000000000000E+20
 24
1.000000000000000E+20
 34
1.000000000000000E+20
 15
-1.000000000000000E+20
 25
-1.000000000000000E+20
 35
-1.000000000000000E+20
146
0.0
 13
0.0
 23
0.0
 33
0.0
 16
1.0
 26
0.0
 36
0.0
 17
0.0
 27
1.0
 37
0.0
 76
     0
330
1F
331
29
  0
MLINESTYLE
  5
18
102
{ACAD_REACTORS
330
17
102
}
330
17
100
AcDbMlineStyle
  2
Standard
 70
     0
  3

 62
   256
 51
90.0
 52
90.0
 71
     2
 49
0.5
 62
   256
  6
BYLAYER
 49
-0.5
 62
   256
  6
BYLAYER
  0
ACDBPLACEHOLDER
  5
F
102
{ACAD_REACTORS
330
E
102
}
330
E
  0
SCALE
  5
48
102
{ACAD_REACTORS
330
47
102
}
330
47
100
AcDbScale
 70
     0
300
1:1
140
1.0
141
1.0
290
     1
  0
SCALE
  5
49
102
{ACAD_REACTORS
330
47
102
}
330
47
100
AcDbScale
 70
     0
300
1:2
140
1.0
141
2.0
290
     0
  0
SCALE
  5
4A
102
{ACAD_REACTORS
330
47
102
}
330
47
100
AcDbScale
 70
     0
300
1:4
140
1.0
141
4.0
290
     0
  0
SCALE
  5
4B
102
{ACAD_REACTORS
330
47
102
}
330
47
100
AcDbScale
 70
     0
300
1:5
140
1.0
141
5.0
290
     0
  0
SCALE
  5
4C
102
{ACAD_REACTORS
330
47
102
}
330
47
100
AcDbScale
 70
     0
300
1:8
140
1.0
141
8.0
290
     0
  0
SCALE
  5
4D
102
{ACAD_REACTORS
330
47
102
}
330
47
100
AcDbScale
 70
     0
300
1:10
140
1.0
141
10.0
290
     0
  0
SCALE
  5
4E
102
{ACAD_REACTORS
330
47
102
}
330
47
100
AcDbScale
 70
     0
300
1:16
140
1.0
141
16.0
290
     0
  0
SCALE
  5
4F
102
{ACAD_REACTORS
330
47
102
}
330
47
100
AcDbScale
 70
     0
300
1:20
140
1.0
141
20.0
290
     0
  0
SCALE
  5
50
102
{ACAD_REACTORS
330
47
102
}
330
47
100
AcDbScale
 70
     0
300
1:30
140
1.0
141
30.0
290
     0
  0
SCALE
  5
51
102
{ACAD_REACTORS
330
47
102
}
330
47
100
AcDbScale
 70
     0
300
1:40
140
1.0
141
40.0
290
     0
  0
SCALE
  5
52
102
{ACAD_REACTORS
330
47
102
}
330
47
100
AcDbScale
 70
     0
300
1:50
140
1.0
141
50.0
290
     0
  0
SCALE
  5
53
102
{ACAD_REACTORS
330
47
102
}
330
47
100
AcDbScale
 70
     0
300
1:100
140
1.0
141
100.0
290
     0
  0
SCALE
  5
54
102
{ACAD_REACTORS
330
47
102
}
330
47
100
AcDbScale
 70
     0
300
2:1
140
2.0
141
1.0
290
     0
  0
SCALE
  5
55
102
{ACAD_REACTORS
330
47
102
}
330
47
100
AcDbScale
 70
     0
300
4:1
140
4.0
141
1.0
290
     0
  0
SCALE
  5
56
102
{ACAD_REACTORS
330
47
102
}
330
47
100
AcDbScale
 70
     0
300
8:1
140
8.0
141
1.0
290
     0
  0
SCALE
  5
57
102
{ACAD_REACTORS
330
47
102
}
330
47
100
AcDbScale
 70
     0
300
10:1
140
10.0
141
1.0
290
     0
  0
SCALE
  5
58
102
{ACAD_REACTORS
330
47
102
}
330
47
100
AcDbScale
 70
     0
300
100:1
140
100.0
141
1.0
290
     0
  0
SCALE
  5
59
102
{ACAD_REACTORS
330
47
102
}
330
47
100
AcDbScale
 70
     0
300
1/128" = 1'-0"
140
0.0078125
141
12.0
290
     0
  0
SCALE
  5
5A
102
{ACAD_REACTORS
330
47
102
}
330
47
100
AcDbScale
 70
     0
300
1/64" = 1'-0"
140
0.015625
141
12.0
290
     0
  0
SCALE
  5
5B
102
{ACAD_REACTORS
330
47
102
}
330
47
100
AcDbScale
 70
     0
300
1/32" = 1'-0"
140
0.03125
141
12.0
290
     0
  0
SCALE
  5
5C
102
{ACAD_REACTORS
330
47
102
}
330
47
100
AcDbScale
 70
     0
300
1/16" = 1'-0"
140
0.0625
141
12.0
290
     0
  0
SCALE
  5
5D
102
{ACAD_REACTORS
330
47
102
}
330
47
100
AcDbScale
 70
     0
300
3/32" = 1'-0"
140
0.09375
141
12.0
290
     0
  0
SCALE
  5
5E
102
{ACAD_REACTORS
330
47
102
}
330
47
100
AcDbScale
 70
     0
300
1/8" = 1'-0"
140
0.125
141
12.0
290
     0
  0
SCALE
  5
5F
102
{ACAD_REACTORS
330
47
102
}
330
47
100
AcDbScale
 70
     0
300
3/16" = 1'-0"
140
0.1875
141
12.0
290
     0
  0
SCALE
  5
60
102
{ACAD_REACTORS
330
47
102
}
330
47
100
AcDbScale
 70
     0
300
1/4" = 1'-0"
140
0.25
141
12.0
290
     0
  0
SCALE
  5
61
102
{ACAD_REACTORS
330
47
102
}
330
47
100
AcDbScale
 70
     0
300
3/8" = 1'-0"
140
0.375
141
12.0
290
     0
  0
SCALE
  5
62
102
{ACAD_REACTORS
330
47
102
}
330
47
100
AcDbScale
 70
     0
300
1/2" = 1'-0"
140
0.5
141
12.0
290
     0
  0
SCALE
  5
63
102
{ACAD_REACTORS
330
47
102
}
330
47
100
AcDbScale
 70
     0
300
3/4" = 1'-0"
140
0.75
141
12.0
290
     0
  0
SCALE
  5
64
102
{ACAD_REACTORS
330
47
102
}
330
47
100
AcDbScale
 70
     0
300
1" = 1'-0"
140
1.0
141
12.0
290
     0
  0
SCALE
  5
65
102
{ACAD_REACTORS
330
47
102
}
330
47
100
AcDbScale
 70
     0
300
1-1/2" = 1'-0"
140
1.5
141
12.0
290
     0
  0
SCALE
  5
66
102
{ACAD_REACTORS
330
47
102
}
330
47
100
AcDbScale
 70
     0
300
3" = 1'-0"
140
3.0
141
12.0
290
     0
  0
SCALE
  5
67
102
{ACAD_REACTORS
330
47
102
}
330
47
100
AcDbScale
 70
     0
300
6" = 1'-0"
140
6.0
141
12.0
290
     0
  0
SCALE
  5
68
102
{ACAD_REACTORS
330
47
102
}
330
47
100
AcDbScale
 70
     0
300
1'-0" = 1'-0"
140
12.0
141
12.0
290
     0
  0
ENDSEC
  0
EOF
