  0
SECTION
  2
HEADER
  9
$ACADVER
  1
AC1015
  9
$ACADMAINTVER
 70
     6
  9
$DWGCODEPAGE
  3
ANSI_949
  9
$INSBASE
 10
0.0
 20
0.0
 30
0.0
  9
$EXTMIN
 10
1.000000000000000E+20
 20
1.000000000000000E+20
 30
1.000000000000000E+20
  9
$EXTMAX
 10
-1.000000000000000E+20
 20
-1.000000000000000E+20
 30
-1.000000000000000E+20
  9
$LIMMIN
 10
0.0
 20
0.0
  9
$LIMMAX
 10
420.0
 20
297.0
  9
$ORTHOMODE
 70
     0
  9
$REGENMODE
 70
     1
  9
$FILLMODE
 70
     1
  9
$QTEXTMODE
 70
     0
  9
$MIRRTEXT
 70
     1
  9
$LTSCALE
 40
1.0
  9
$ATTMODE
 70
     1
  9
$TEXTSIZE
 40
3.5
  9
$TRACEWID
 40
1.0
  9
$TEXTSTYLE
  7
Standard
  9
$CLAYER
  8
0
  9
$CELTYPE
  6
ByLayer
  9
$CECOLOR
 62
   256
  9
$CELTSCALE
 40
1.0
  9
$DISPSILH
 70
     0
  9
$DIMSCALE
 40
1.0
  9
$DIMASZ
 40
3.302
  9
$DIMEXO
 40
1.0
  9
$DIMDLI
 40
3.75
  9
$DIMRND
 40
0.0
  9
$DIMDLE
 40
0.0
  9
$DIMEXE
 40
1.0
  9
$DIMTP
 40
0.0
  9
$DIMTM
 40
0.0
  9
$DIMTXT
 40
3.5
  9
$DIMCEN
 40
2.5
  9
$DIMTSZ
 40
0.0
  9
$DIMTOL
 70
     0
  9
$DIMLIM
 70
     0
  9
$DIMTIH
 70
     1
  9
$DIMTOH
 70
     1
  9
$DIMSE1
 70
     0
  9
$DIMSE2
 70
     0
  9
$DIMTAD
 70
     1
  9
$DIMZIN
 70
     0
  9
$DIMBLK
  1

  9
$DIMASO
 70
     1
  9
$DIMSHO
 70
     1
  9
$DIMPOST
  1

  9
$DIMAPOST
  1

  9
$DIMALT
 70
     0
  9
$DIMALTD
 70
     3
  9
$DIMALTF
 40
0.0393700787401575
  9
$DIMLFAC
 40
1.0
  9
$DIMTOFL
 70
     1
  9
$DIMTVP
 40
0.0
  9
$DIMTIX
 70
     0
  9
$DIMSOXD
 70
     0
  9
$DIMSAH
 70
     0
  9
$DIMBLK1
  1

  9
$DIMBLK2
  1

  9
$DIMSTYLE
  2
ISO-25
  9
$DIMCLRD
 70
     0
  9
$DIMCLRE
 70
     0
  9
$DIMCLRT
 70
     0
  9
$DIMTFAC
 40
1.0
  9
$DIMGAP
 40
1.524
  9
$DIMJUST
 70
     0
  9
$DIMSD1
 70
     0
  9
$DIMSD2
 70
     0
  9
$DIMTOLJ
 70
     0
  9
$DIMTZIN
 70
     0
  9
$DIMALTZ
 70
     0
  9
$DIMALTTZ
 70
     0
  9
$DIMUPT
 70
     0
  9
$DIMDEC
 70
     2
  9
$DIMTDEC
 70
     2
  9
$DIMALTU
 70
     2
  9
$DIMALTTD
 70
     3
  9
$DIMTXSTY
  7
Standard
  9
$DIMAUNIT
 70
     0
  9
$DIMADEC
 70
     2
  9
$DIMALTRND
 40
0.0
  9
$DIMAZIN
 70
     0
  9
$DIMDSEP
 70
    44
  9
$DIMATFIT
 70
     3
  9
$DIMFRAC
 70
     0
  9
$DIMLDRBLK
  1

  9
$DIMLUNIT
 70
     2
  9
$DIMLWD
 70
    -2
  9
$DIMLWE
 70
    -2
  9
$DIMTMOVE
 70
     0
  9
$LUNITS
 70
     2
  9
$LUPREC
 70
     2
  9
$SKETCHINC
 40
1.0
  9
$FILLETRAD
 40
10.0
  9
$AUNITS
 70
     0
  9
$AUPREC
 70
     2
  9
$MENU
  1
.
  9
$ELEVATION
 40
0.0
  9
$PELEVATION
 40
0.0
  9
$THICKNESS
 40
0.0
  9
$LIMCHECK
 70
     0
  9
$CHAMFERA
 40
0.0
  9
$CHAMFERB
 40
0.0
  9
$CHAMFERC
 40
0.0
  9
$CHAMFERD
 40
0.0
  9
$SKPOLY
 70
     0
  9
$TDCREATE
 40
2458304.450138727
  9
$TDUCREATE
 40
2458304.075138727
  9
$TDUPDATE
 40
2458304.562313275
  9
$TDUUPDATE
 40
2458304.187313275
  9
$TDINDWG
 40
0.0008716204
  9
$TDUSRTIMER
 40
2458304.186442002
  9
$USRTIMER
 70
     1
  9
$ANGBASE
 50
0.0
  9
$ANGDIR
 70
     0
  9
$PDMODE
 70
     0
  9
$PDSIZE
 40
-1.0
  9
$PLINEWID
 40
0.0
  9
$SPLFRAME
 70
     0
  9
$SPLINETYPE
 70
     6
  9
$SPLINESEGS
 70
     8
  9
$HANDSEED
  5
28B
  9
$SURFTAB1
 70
     6
  9
$SURFTAB2
 70
     6
  9
$SURFTYPE
 70
     6
  9
$SURFU
 70
     6
  9
$SURFV
 70
     6
  9
$UCSBASE
  2

  9
$UCSNAME
  2

  9
$UCSORG
 10
0.0
 20
0.0
 30
0.0
  9
$UCSXDIR
 10
1.0
 20
0.0
 30
0.0
  9
$UCSYDIR
 10
0.0
 20
1.0
 30
0.0
  9
$UCSORTHOREF
  2

  9
$UCSORTHOVIEW
 70
     0
  9
$UCSORGTOP
 10
0.0
 20
0.0
 30
0.0
  9
$UCSORGBOTTOM
 10
0.0
 20
0.0
 30
0.0
  9
$UCSORGLEFT
 10
0.0
 20
0.0
 30
0.0
  9
$UCSORGRIGHT
 10
0.0
 20
0.0
 30
0.0
  9
$UCSORGFRONT
 10
0.0
 20
0.0
 30
0.0
  9
$UCSORGBACK
 10
0.0
 20
0.0
 30
0.0
  9
$PUCSBASE
  2

  9
$PUCSNAME
  2

  9
$PUCSORG
 10
0.0
 20
0.0
 30
0.0
  9
$PUCSXDIR
 10
1.0
 20
0.0
 30
0.0
  9
$PUCSYDIR
 10
0.0
 20
1.0
 30
0.0
  9
$PUCSORTHOREF
  2

  9
$PUCSORTHOVIEW
 70
     0
  9
$PUCSORGTOP
 10
0.0
 20
0.0
 30
0.0
  9
$PUCSORGBOTTOM
 10
0.0
 20
0.0
 30
0.0
  9
$PUCSORGLEFT
 10
0.0
 20
0.0
 30
0.0
  9
$PUCSORGRIGHT
 10
0.0
 20
0.0
 30
0.0
  9
$PUCSORGFRONT
 10
0.0
 20
0.0
 30
0.0
  9
$PUCSORGBACK
 10
0.0
 20
0.0
 30
0.0
  9
$USERI1
 70
     0
  9
$USERI2
 70
     0
  9
$USERI3
 70
     0
  9
$USERI4
 70
     0
  9
$USERI5
 70
     0
  9
$USERR1
 40
0.0
  9
$USERR2
 40
0.0
  9
$USERR3
 40
0.0
  9
$USERR4
 40
0.0
  9
$USERR5
 40
0.0
  9
$WORLDVIEW
 70
     1
  9
$SHADEDGE
 70
     3
  9
$SHADEDIF
 70
    70
  9
$TILEMODE
 70
     1
  9
$MAXACTVP
 70
    64
  9
$PINSBASE
 10
0.0
 20
0.0
 30
0.0
  9
$PLIMCHECK
 70
     0
  9
$PEXTMIN
 10
1.000000000000000E+20
 20
1.000000000000000E+20
 30
1.000000000000000E+20
  9
$PEXTMAX
 10
-1.000000000000000E+20
 20
-1.000000000000000E+20
 30
-1.000000000000000E+20
  9
$PLIMMIN
 10
0.0
 20
0.0
  9
$PLIMMAX
 10
0.0
 20
0.0
  9
$UNITMODE
 70
     0
  9
$VISRETAIN
 70
     1
  9
$PLINEGEN
 70
     0
  9
$PSLTSCALE
 70
     1
  9
$TREEDEPTH
 70
  3020
  9
$CMLSTYLE
  2
Standard
  9
$CMLJUST
 70
     0
  9
$CMLSCALE
 40
20.0
  9
$PROXYGRAPHICS
 70
     1
  9
$MEASUREMENT
 70
     1
  9
$CELWEIGHT
370
    -1
  9
$ENDCAPS
280
     0
  9
$JOINSTYLE
280
     0
  9
$LWDISPLAY
290
     1
  9
$INSUNITS
 70
     4
  9
$HYPERLINKBASE
  1

  9
$STYLESHEET
  1

  9
$XEDIT
290
     1
  9
$CEPSNTYPE
380
     0
  9
$PSTYLEMODE
290
     1
  9
$FINGERPRINTGUID
  2
{4C8EB6CB-7F89-499B-8DBA-DA196C4B90C5}
  9
$VERSIONGUID
  2
{FAEB1C32-E019-11D5-929B-00C0DF256EC4}
  9
$EXTNAMES
290
     1
  9
$PSVPSCALE
 40
0.0
  9
$OLESTARTUP
290
     0
  0
ENDSEC
  0
SECTION
  2
CLASSES
  0
CLASS
  1
ACDBDICTIONARYWDFLT
  2
AcDbDictionaryWithDefault
  3
ObjectDBX Classes
 90
        0
280
     0
281
     0
  0
CLASS
  1
VISUALSTYLE
  2
AcDbVisualStyle
  3
ObjectDBX Classes
 90
     4095
280
     0
281
     0
  0
CLASS
  1
MATERIAL
  2
AcDbMaterial
  3
ObjectDBX Classes
 90
     1153
280
     0
281
     0
  0
CLASS
  1
SCALE
  2
AcDbScale
  3
ObjectDBX Classes
 90
     1153
280
     0
281
     0
  0
CLASS
  1
SUN
  2
AcDbSun
  3
SCENEOE
 90
     1153
280
     0
281
     0
  0
CLASS
  1
ACDBPLACEHOLDER
  2
AcDbPlaceHolder
  3
ObjectDBX Classes
 90
        0
280
     0
281
     0
  0
CLASS
  1
LAYOUT
  2
AcDbLayout
  3
ObjectDBX Classes
 90
        0
280
     0
281
     0
  0
CLASS
  1
TABLESTYLE
  2
AcDbTableStyle
  3
ObjectDBX Classes
 90
     4095
280
     0
281
     0
  0
CLASS
  1
MLEADERSTYLE
  2
AcDbMLeaderStyle
  3
ACDB_MLEADERSTYLE_CLASS
 90
     4095
280
     0
281
     0
  0
CLASS
  1
RASTERVARIABLES
  2
AcDbRasterVariables
  3
ISM
 90
        0
280
     0
281
     0
  0
CLASS
  1
DIMASSOC
  2
AcDbDimAssoc
  3
"AcDbDimAssoc|Product Desc:     AcDim ARX App For Dimension|Company:          Autodesk, Inc.|WEB Address:      www.autodesk.com"
 90
        0
280
     0
281
     0
  0
ENDSEC
  0
SECTION
  2
TABLES
  0
TABLE
  2
VPORT
  5
8
330
0
100
AcDbSymbolTable
 70
     1
  0
VPORT
  5
29
330
8
100
AcDbSymbolTableRecord
100
AcDbViewportTableRecord
  2
*Active
 70
     0
 10
0.0
 20
0.0
 11
1.0
 21
1.0
 12
27.86735285077094
 22
11.50503168137757
 13
0.0
 23
0.0
 14
10.0
 24
10.0
 15
10.0
 25
10.0
 16
0.0
 26
0.0
 36
1.0
 17
0.0
 27
0.0
 37
0.0
 40
195.0596860903809
 41
1.280912364945978
 42
50.0
 43
0.0
 44
0.0
 50
0.0
 51
0.0
 71
    16
 72
  2000
 73
     1
 74
     3
 75
     0
 76
     0
 77
     0
 78
     0
281
     0
 65
     1
110
0.0
120
0.0
130
0.0
111
1.0
121
0.0
131
0.0
112
0.0
122
1.0
132
0.0
 79
     0
146
0.0
  0
ENDTAB
  0
TABLE
  2
LTYPE
  5
5
330
0
100
AcDbSymbolTable
 70
     6
  0
LTYPE
  5
14
330
5
100
AcDbSymbolTableRecord
100
AcDbLinetypeTableRecord
  2
ByBlock
 70
     0
  3

 72
    65
 73
     0
 40
0.0
  0
LTYPE
  5
15
330
5
100
AcDbSymbolTableRecord
100
AcDbLinetypeTableRecord
  2
ByLayer
 70
     0
  3

 72
    65
 73
     0
 40
0.0
  0
LTYPE
  5
16
330
5
100
AcDbSymbolTableRecord
100
AcDbLinetypeTableRecord
  2
Continuous
 70
     0
  3
Solid line
 72
    65
 73
     0
 40
0.0
  0
LTYPE
  5
6A
330
5
100
AcDbSymbolTableRecord
100
AcDbLinetypeTableRecord
  2
HIDDEN
 70
     0
  3
Hidden __ __ __ __ __ __ __ __ __ __ __ __ __ __
 72
    65
 73
     2
 40
1.905
 49
1.27
 74
     0
 49
-0.635
 74
     0
  0
LTYPE
  5
6B
330
5
100
AcDbSymbolTableRecord
100
AcDbLinetypeTableRecord
  2
PHANTOM
 70
     0
  3
Phantom ______  __  __  ______  __  __  ______
 72
    65
 73
     6
 40
12.7
 49
6.35
 74
     0
 49
-1.27
 74
     0
 49
1.27
 74
     0
 49
-1.27
 74
     0
 49
1.27
 74
     0
 49
-1.27
 74
     0
  0
LTYPE
  5
6C
330
5
100
AcDbSymbolTableRecord
100
AcDbLinetypeTableRecord
  2
CENTER
 70
     0
  3
Center ____ _ ____ _ ____ _ ____ _ ____ _ ____
 72
    65
 73
     4
 40
10.16
 49
6.35
 74
     0
 49
-1.27
 74
     0
 49
1.27
 74
     0
 49
-1.27
 74
     0
  0
LTYPE
  5
6D
330
5
100
AcDbSymbolTableRecord
100
AcDbLinetypeTableRecord
  2
CENTERX2
 70
     0
  3
Center (2x) ________  __  ________  __  _____
 72
    65
 73
     4
 40
20.32
 49
12.7
 74
     0
 49
-2.54
 74
     0
 49
2.54
 74
     0
 49
-2.54
 74
     0
  0
LTYPE
  5
6E
330
5
100
AcDbSymbolTableRecord
100
AcDbLinetypeTableRecord
  2
DOT2
 70
     0
  3
Dot (.5x) ........................................
 72
    65
 73
     2
 40
0.635
 49
0.0
 74
     0
 49
-0.635
 74
     0
  0
ENDTAB
  0
TABLE
  2
LAYER
  5
2
330
0
100
AcDbSymbolTable
 70
    18
  0
LAYER
  5
10
330
2
100
AcDbSymbolTableRecord
100
AcDbLayerTableRecord
  2
0
 70
     0
 62
     7
  6
Continuous
370
    -3
390
F
  0
LAYER
  5
6F
330
2
100
AcDbSymbolTableRecord
100
AcDbLayerTableRecord
  2
FORMAT
 70
     0
 62
     2
  6
Continuous
370
    -3
390
F
  0
LAYER
  5
70
330
2
100
AcDbSymbolTableRecord
100
AcDbLayerTableRecord
  2
외형선
 70
     0
 62
     4
  6
Continuous
370
    30
390
F
  0
LAYER
  5
71
330
2
100
AcDbSymbolTableRecord
100
AcDbLayerTableRecord
  2
숨은선
 70
     0
 62
     2
  6
HIDDEN
370
    15
390
F
  0
LAYER
  5
72
330
2
100
AcDbSymbolTableRecord
100
AcDbLayerTableRecord
  2
중심선
 70
     0
 62
     1
  6
CENTERX2
370
    -3
390
F
  0
LAYER
  5
73
330
2
100
AcDbSymbolTableRecord
100
AcDbLayerTableRecord
  2
파단선
 70
     0
 62
     4
  6
Continuous
370
    -3
390
F
  0
LAYER
  5
74
330
2
100
AcDbSymbolTableRecord
100
AcDbLayerTableRecord
  2
해칭선
 70
     0
 62
   100
  6
Continuous
370
    -3
390
F
  0
LAYER
  5
75
330
2
100
AcDbSymbolTableRecord
100
AcDbLayerTableRecord
  2
가는실선
 70
     0
 62
     4
  6
Continuous
370
    -3
390
F
  0
LAYER
  5
76
330
2
100
AcDbSymbolTableRecord
100
AcDbLayerTableRecord
  2
치수_보조선
 70
     0
 62
     4
  6
Continuous
370
    -3
390
F
  0
LAYER
  5
77
330
2
100
AcDbSymbolTableRecord
100
AcDbLayerTableRecord
  2
치수문자_일반주서
 70
     0
 62
     7
  6
Continuous
370
    15
390
F
  0
LAYER
  5
78
330
2
100
AcDbSymbolTableRecord
100
AcDbLayerTableRecord
  2
개별주서
 70
     0
 62
   100
  6
Continuous
370
    30
390
F
  0
LAYER
  5
79
330
2
100
AcDbSymbolTableRecord
100
AcDbLayerTableRecord
  2
중간선
 70
     0
 62
     2
  6
Continuous
370
    15
390
F
  0
LAYER
  5
7A
330
2
100
AcDbSymbolTableRecord
100
AcDbLayerTableRecord
  2
윤곽선
 70
     0
 62
     3
  6
Continuous
370
    40
390
F
  0
LAYER
  5
7B
330
2
100
AcDbSymbolTableRecord
100
AcDbLayerTableRecord
  2
중심마크
 70
     0
 62
   100
  6
Continuous
370
    30
390
F
  0
LAYER
  5
7C
330
2
100
AcDbSymbolTableRecord
100
AcDbLayerTableRecord
  2
가상선
 70
     0
 62
     4
  6
PHANTOM
370
    -3
390
F
  0
LAYER
  5
7D
330
2
100
AcDbSymbolTableRecord
100
AcDbLayerTableRecord
  2
특수지정선
 70
     0
 62
     5
  6
CENTERX2
370
    60
390
F
  0
LAYER
  5
7E
330
2
100
AcDbSymbolTableRecord
100
AcDbLayerTableRecord
  2
참조1
 70
     0
 62
    -4
  6
Continuous
370
    -3
390
F
  0
LAYER
  5
155
330
2
100
AcDbSymbolTableRecord
100
AcDbLayerTableRecord
  2
Defpoints
 70
     0
 62
     7
  6
Continuous
290
     0
370
    -3
390
F
  0
ENDTAB
  0
TABLE
  2
STYLE
  5
3
330
0
100
AcDbSymbolTable
 70
     2
  0
STYLE
  5
11
330
3
100
AcDbSymbolTableRecord
100
AcDbTextStyleTableRecord
  2
Standard
 70
     0
 40
0.0
 41
1.0
 50
0.0
 71
     0
 42
3.5
  3
txt
  4

  0
STYLE
  5
94
330
3
100
AcDbSymbolTableRecord
100
AcDbTextStyleTableRecord
  2
SLDTEXTSTYLE0
 70
     0
 40
0.0
 41
0.75
 50
0.0
 71
     0
 42
3.5
  3
TXT
  4

  0
ENDTAB
  0
TABLE
  2
VIEW
  5
6
330
0
100
AcDbSymbolTable
 70
     0
  0
ENDTAB
  0
TABLE
  2
UCS
  5
7
330
0
100
AcDbSymbolTable
 70
     0
  0
ENDTAB
  0
TABLE
  2
APPID
  5
9
330
0
100
AcDbSymbolTable
 70
     2
  0
APPID
  5
12
330
9
100
AcDbSymbolTableRecord
100
AcDbRegAppTableRecord
  2
ACAD
 70
     0
  0
APPID
  5
162
330
9
100
AcDbSymbolTableRecord
100
AcDbRegAppTableRecord
  2
ACAD_DSTYLE_DIMRADIAL_EXTENSION
 70
     0
  0
ENDTAB
  0
TABLE
  2
DIMSTYLE
  5
A
330
0
100
AcDbSymbolTable
 70
     3
100
AcDbDimStyleTable
  0
DIMSTYLE
105
27
330
A
100
AcDbSymbolTableRecord
100
AcDbDimStyleTableRecord
  2
ISO-25
 70
     0
 41
2.5
 42
0.625
 43
3.75
 44
1.25
 73
     0
 74
     0
 77
     1
 78
     8
140
2.5
141
2.5
143
0.03937007874016
147
0.625
171
     3
172
     1
178
     0
271
     2
272
     2
274
     3
278
    44
283
     0
284
     8
340
11
  0
DIMSTYLE
105
D5
102
{ACAD_REACTORS
330
1AF
330
22F
102
}
330
A
100
AcDbSymbolTableRecord
100
AcDbDimStyleTableRecord
  2
SLDDIMSTYLE0
 70
     0
 41
3.302
 44
0.0
 45
0.000000001
 73
     0
 74
     0
 77
     1
 78
     4
 79
     1
140
3.5
143
0.0393700787401575
147
0.875
148
0.000000001
170
     1
172
     1
173
     1
178
     0
271
     2
272
     2
276
     2
284
    12
289
     0
340
94
  0
DIMSTYLE
105
EA
102
{ACAD_REACTORS
330
1BC
330
1C9
330
1D6
330
1F3
330
230
330
231
330
232
330
27C
102
}
330
A
100
AcDbSymbolTableRecord
100
AcDbDimStyleTableRecord
  2
SLDDIMSTYLE1
 70
     0
 41
3.302
 44
0.0
 45
0.000000001
 73
     0
 74
     0
 77
     1
 78
     4
 79
     1
140
3.5
143
0.0393700787401575
147
0.875
148
0.000000001
170
     1
173
     1
178
     0
271
     2
272
     2
276
     2
284
    12
340
94
  0
ENDTAB
  0
TABLE
  2
BLOCK_RECORD
  5
1
330
0
100
AcDbSymbolTable
 70
    19
  0
BLOCK_RECORD
  5
1F
330
1
100
AcDbSymbolTableRecord
100
AcDbBlockTableRecord
  2
*Model_Space
340
22
  0
BLOCK_RECORD
  5
1B
330
1
100
AcDbSymbolTableRecord
100
AcDbBlockTableRecord
  2
*Paper_Space
340
1E
  0
BLOCK_RECORD
  5
23
330
1
100
AcDbSymbolTableRecord
100
AcDbBlockTableRecord
  2
*Paper_Space0
340
26
  0
BLOCK_RECORD
  5
7F
330
1
100
AcDbSymbolTableRecord
100
AcDbBlockTableRecord
  2
블럭10
340
0
102
{BLKREFS
331
CD
102
}
  0
BLOCK_RECORD
  5
D6
330
1
100
AcDbSymbolTableRecord
100
AcDbBlockTableRecord
  2
_D
340
0
  0
BLOCK_RECORD
  5
EB
330
1
100
AcDbSymbolTableRecord
100
AcDbBlockTableRecord
  2
_D_1
340
0
  0
BLOCK_RECORD
  5
FE
330
1
100
AcDbSymbolTableRecord
100
AcDbBlockTableRecord
  2
_D_2
340
0
  0
BLOCK_RECORD
  5
111
330
1
100
AcDbSymbolTableRecord
100
AcDbBlockTableRecord
  2
_D_3
340
0
  0
BLOCK_RECORD
  5
12A
330
1
100
AcDbSymbolTableRecord
100
AcDbBlockTableRecord
  2
SW_DOWELSYMBOL_0
340
0
102
{BLKREFS
331
0
331
1E4
331
233
102
}
  0
BLOCK_RECORD
  5
1B0
330
1
100
AcDbSymbolTableRecord
100
AcDbBlockTableRecord
  2
*D8
340
0
  0
BLOCK_RECORD
  5
1BD
330
1
100
AcDbSymbolTableRecord
100
AcDbBlockTableRecord
  2
*D9
340
0
  0
BLOCK_RECORD
  5
1CA
330
1
100
AcDbSymbolTableRecord
100
AcDbBlockTableRecord
  2
*D10
340
0
  0
BLOCK_RECORD
  5
1D7
330
1
100
AcDbSymbolTableRecord
100
AcDbBlockTableRecord
  2
*D11
340
0
  0
BLOCK_RECORD
  5
1F4
330
1
100
AcDbSymbolTableRecord
100
AcDbBlockTableRecord
  2
*D12
340
0
  0
BLOCK_RECORD
  5
23D
330
1
100
AcDbSymbolTableRecord
100
AcDbBlockTableRecord
  2
*D13
340
0
  0
BLOCK_RECORD
  5
249
330
1
100
AcDbSymbolTableRecord
100
AcDbBlockTableRecord
  2
*D14
340
0
  0
BLOCK_RECORD
  5
255
330
1
100
AcDbSymbolTableRecord
100
AcDbBlockTableRecord
  2
*D15
340
0
  0
BLOCK_RECORD
  5
261
330
1
100
AcDbSymbolTableRecord
100
AcDbBlockTableRecord
  2
*D16
340
0
  0
BLOCK_RECORD
  5
26E
330
1
100
AcDbSymbolTableRecord
100
AcDbBlockTableRecord
  2
*D17
340
0
  0
BLOCK_RECORD
  5
27F
330
1
100
AcDbSymbolTableRecord
100
AcDbBlockTableRecord
  2
*D18
340
0
  0
ENDTAB
  0
ENDSEC
  0
SECTION
  2
BLOCKS
  0
BLOCK
  5
20
330
1F
100
AcDbEntity
  8
0
100
AcDbBlockBegin
  2
*Model_Space
 70
     0
 10
0.0
 20
0.0
 30
0.0
  3
*Model_Space
  1
*Model_Space
  0
ENDBLK
  5
21
330
1F
100
AcDbEntity
  8
0
100
AcDbBlockEnd
  0
BLOCK
  5
1C
330
1B
100
AcDbEntity
 67
     1
  8
0
100
AcDbBlockBegin
  2
*Paper_Space
 70
     0
 10
0.0
 20
0.0
 30
0.0
  3
*Paper_Space
  1
*Paper_Space
  0
ENDBLK
  5
1D
330
1B
100
AcDbEntity
 67
     1
  8
0
100
AcDbBlockEnd
  0
BLOCK
  5
24
330
23
100
AcDbEntity
  8
0
100
AcDbBlockBegin
  2
*Paper_Space0
 70
     0
 10
0.0
 20
0.0
 30
0.0
  3
*Paper_Space0
  1
*Paper_Space0
  0
ENDBLK
  5
25
330
23
100
AcDbEntity
  8
0
100
AcDbBlockEnd
  0
BLOCK
  5
80
330
7F
100
AcDbEntity
  8
0
100
AcDbBlockBegin
  2
블럭10
 70
     2
 10
0.0
 20
0.0
 30
0.0
  3
블럭10
  1
블럭10
  0
ELLIPSE
  5
82
330
7F
100
AcDbEntity
  8
중심선
100
AcDbEllipse
 10
20.54032771741204
 20
12.0471743016438
 30
0.0
 11
6.600054785286829
 21
-1.261213355974178E-13
 31
0.0
210
0.0
220
0.0
230
1.0
 40
0.636358354079598
 41
0.9219305317359503
 42
6.513795318482858
  0
ELLIPSE
  5
83
330
7F
100
AcDbEntity
  8
중심선
100
AcDbEllipse
 10
20.54032771746488
 20
12.04717430159265
 30
0.0
 11
3.960054785062283
 21
1.540847449632565E-10
 31
0.0
210
0.0
220
0.0
230
1.0
 40
0.3939339440162632
 41
1.131841032648279
 42
5.62031148352944
  0
LINE
  5
84
330
7F
100
AcDbEntity
  8
중심선
100
AcDbLine
 10
2.268634060543552
 20
16.24717430164393
 30
0.0
 11
5.714909304380834
 21
16.24717430164393
 31
0.0
  0
LINE
  5
85
330
7F
100
AcDbEntity
  8
중심선
100
AcDbLine
 10
5.245725140726316
 20
7.84717430164391
 30
0.0
 11
8.692000384563599
 21
7.84717430164391
 31
0.0
  0
LINE
  5
86
330
7F
100
AcDbEntity
  8
중심선
100
AcDbLine
 10
15.74043728645272
 20
16.24717430164393
 30
0.0
 11
8.692000384563599
 21
7.84717430164391
 31
0.0
  0
LINE
  5
87
330
7F
100
AcDbEntity
  8
중심선
100
AcDbLine
 10
0.1404042013395286
 20
13.71084872107135
 30
0.0
 11
3.58671253028996
 21
13.71088815037384
 31
0.0
  0
LINE
  5
88
330
7F
100
AcDbEntity
  8
중심선
100
AcDbLine
 10
2.750260043222114
 20
10.84717430164391
 30
0.0
 11
6.196535287059397
 21
10.84717430164391
 31
0.0
  0
LINE
  5
89
330
7F
100
AcDbEntity
  8
중심선
100
AcDbLine
 10
12.29416204261559
 20
16.24717430164393
 30
0.0
 11
5.245725140726316
 21
7.84717430164391
 31
0.0
  0
LINE
  5
8A
330
7F
100
AcDbEntity
  8
중심선
100
AcDbLine
 10
10.72767329541681
 20
16.24717430164393
 30
0.0
 11
6.196535287059397
 21
10.84717430164391
 31
0.0
  0
LINE
  5
8B
330
7F
100
AcDbEntity
  8
중심선
100
AcDbLine
 10
7.28139805157953
 20
16.24717430164393
 30
0.0
 11
2.750260043222114
 21
10.84717430164391
 31
0.0
  0
LINE
  5
8C
330
7F
100
AcDbEntity
  8
중심선
100
AcDbLine
 10
5.714909304380834
 20
16.24717430164393
 30
0.0
 11
3.58671253028996
 21
13.71088815037384
 31
0.0
  0
LINE
  5
8D
330
7F
100
AcDbEntity
  8
중심선
100
AcDbLine
 10
2.268634060543552
 20
16.24717430164393
 30
0.0
 11
0.1404042013395286
 21
13.71084872107135
 31
0.0
  0
LINE
  5
8E
330
7F
100
AcDbEntity
  8
중심선
100
AcDbLine
 10
7.28139805157953
 20
16.24717430164393
 30
0.0
 11
10.72767329541681
 21
16.24717430164393
 31
0.0
  0
LINE
  5
8F
330
7F
100
AcDbEntity
  8
중심선
100
AcDbLine
 10
12.29416204261559
 20
16.24717430164393
 30
0.0
 11
15.74043728645272
 21
16.24717430164393
 31
0.0
  0
LINE
  5
90
330
7F
100
AcDbEntity
  8
중심선
100
AcDbLine
 10
19.22036997980202
 20
11.08717430171403
 30
0.0
 11
23.66174974927406
 21
11.08717430171406
 31
0.0
  0
LINE
  5
91
330
7F
100
AcDbEntity
  8
중심선
100
AcDbLine
 10
19.22039502424796
 20
13.00717430171391
 30
0.0
 11
19.22036997980202
 21
11.08717430171403
 31
0.0
  0
LINE
  5
92
330
7F
100
AcDbEntity
  8
중심선
100
AcDbLine
 10
19.22039502424796
 20
13.00717430171391
 30
0.0
 11
26.96566020931264
 21
13.00717430171391
 31
0.0
  0
LINE
  5
93
330
7F
100
AcDbEntity
  8
중심선
100
AcDbLine
 10
22.22332737316547
 20
13.45928029700563
 30
0.0
 11
24.52862924686651
 21
15.39360700705356
 31
0.0
  0
ATTDEF
  5
95
330
7F
100
AcDbEntity
  8
FORMAT
 62
     2
100
AcDbText
 10
3.448148490846466
 20
2.075366912832191
 30
0.0
 40
4.233333333333333
  1
EM212908
 41
0.75
  7
SLDTEXTSTYLE0
 11
3.448148490846466
 21
-0.0412997538344756
 31
0.0
100
AcDbAttributeDefinition
  3

  2
AUTOATTR0
 70
     0
 74
     1
  0
ENDBLK
  5
81
330
7F
100
AcDbEntity
  8
0
100
AcDbBlockEnd
  0
BLOCK
  5
D7
330
D6
100
AcDbEntity
  8
0
100
AcDbBlockBegin
  2
_D
 70
     0
 10
0.0
 20
0.0
 30
0.0
  3
_D
  1
_D
  0
SOLID
  5
D9
330
D6
100
AcDbEntity
  8
치수문자_일반주서
100
AcDbTrace
 10
-49.99000000000002
 20
6.349999999999993
 30
0.0
 11
-49.48200000000002
 21
9.651999999999994
 31
0.0
 12
-50.49800000000003
 22
9.651999999999994
 32
0.0
 13
-50.49800000000003
 23
9.651999999999994
 33
0.0
  0
SOLID
  5
DA
330
D6
100
AcDbEntity
  8
치수문자_일반주서
100
AcDbTrace
 10
-49.99000000000002
 20
-6.349999999999995
 30
0.0
 11
-50.49800000000003
 21
-9.651999999999994
 31
0.0
 12
-49.48200000000002
 22
-9.651999999999994
 32
0.0
 13
-49.48200000000002
 23
-9.651999999999994
 33
0.0
  0
LINE
  5
DB
330
D6
100
AcDbEntity
  8
치수문자_일반주서
100
AcDbLine
 10
-60.78288171604275
 20
-5.414366431068721
 30
0.0
 11
-60.78288171604274
 21
-6.125303916633221
 31
0.0
  0
LINE
  5
DC
330
D6
100
AcDbEntity
  8
치수문자_일반주서
100
AcDbLine
 10
-60.78288171604274
 20
-6.125303916633221
 30
0.0
 11
-55.22663172498344
 21
-6.125303916633182
 31
0.0
  0
LINE
  5
DD
330
D6
100
AcDbEntity
  8
치수문자_일반주서
100
AcDbLine
 10
-55.22663172498344
 20
-6.125303916633182
 30
0.0
 11
-55.22663172498345
 21
-5.414366431068682
 31
0.0
  0
LINE
  5
DE
330
D6
100
AcDbEntity
  8
치수문자_일반주서
100
AcDbLine
 10
-60.78288171604282
 20
5.414366431068537
 30
0.0
 11
-60.78288171604282
 21
6.125303916633037
 31
0.0
  0
LINE
  5
DF
330
D6
100
AcDbEntity
  8
치수문자_일반주서
100
AcDbLine
 10
-60.78288171604282
 20
6.125303916633037
 30
0.0
 11
-55.22663172498352
 21
6.125303916633076
 31
0.0
  0
LINE
  5
E0
330
D6
100
AcDbEntity
  8
치수문자_일반주서
100
AcDbLine
 10
-55.22663172498352
 20
6.125303916633076
 30
0.0
 11
-55.22663172498351
 21
5.414366431068576
 31
0.0
  0
LINE
  5
E1
330
D6
100
AcDbEntity
  8
치수문자_일반주서
100
AcDbLine
 10
-37.35499999999999
 20
6.349999999999994
 30
0.0
 11
-50.99000000000002
 21
6.349999999999993
 31
0.0
  0
LINE
  5
E2
330
D6
100
AcDbEntity
  8
치수문자_일반주서
100
AcDbLine
 10
-37.35499999999999
 20
-6.349999999999994
 30
0.0
 11
-50.99000000000002
 21
-6.349999999999995
 31
0.0
  0
LINE
  5
E3
330
D6
100
AcDbEntity
  8
치수문자_일반주서
100
AcDbLine
 10
-49.99000000000002
 20
6.349999999999993
 30
0.0
 11
-49.99000000000002
 21
12.69999999999999
 31
0.0
  0
LINE
  5
E4
330
D6
100
AcDbEntity
  8
치수문자_일반주서
100
AcDbLine
 10
-49.99000000000002
 20
6.349999999999993
 30
0.0
 11
-49.99000000000002
 21
-6.349999999999995
 31
0.0
  0
LINE
  5
E5
330
D6
100
AcDbEntity
  8
치수문자_일반주서
100
AcDbLine
 10
-49.99000000000002
 20
-6.349999999999995
 30
0.0
 11
-49.99000000000002
 21
-12.7
 31
0.0
  0
MTEXT
  5
E6
330
D6
100
AcDbEntity
  8
치수문자_일반주서
100
AcDbMText
 10
-59.73836863956234
 20
-4.525694530457343
 30
0.0
 40
3.5
 41
0.0
 71
     1
 72
     1
  1
0.50
  7
SLDTEXTSTYLE0
 11
-7.044195017643634E-15
 21
1.0
 31
0.0
 73
     1
 44
1.0
  0
MTEXT
  5
E7
330
D6
100
AcDbEntity
  8
치수문자_일반주서
100
AcDbMText
 10
-54.50173708920184
 20
-8.457968942821074
 30
0.0
 40
3.5
 41
0.0
 71
     1
 72
     1
  1
%%c
  7
SLDTEXTSTYLE0
 11
-7.044195017643634E-15
 21
1.0
 31
0.0
 73
     1
 44
1.0
  0
MTEXT
  5
E8
330
D6
100
AcDbEntity
  8
치수문자_일반주서
100
AcDbMText
 10
-54.50173708920187
 20
-3.179531544446994
 30
0.0
 40
3.5
 41
0.0
 71
     1
 72
     1
  1
12.70
  7
SLDTEXTSTYLE0
 11
-7.044195017643634E-15
 21
1.0
 31
0.0
 73
     1
 44
1.0
  0
ENDBLK
  5
D8
330
D6
100
AcDbEntity
  8
0
100
AcDbBlockEnd
  0
BLOCK
  5
EC
330
EB
100
AcDbEntity
  8
0
100
AcDbBlockBegin
  2
_D_1
 70
     0
 10
0.0
 20
0.0
 30
0.0
  3
_D_1
  1
_D_1
  0
SOLID
  5
EE
330
EB
100
AcDbEntity
  8
치수문자_일반주서
100
AcDbTrace
 10
63.975
 20
16.10262809445484
 30
0.0
 11
60.673
 21
16.61062809445484
 31
0.0
 12
60.673
 22
15.59462809445484
 32
0.0
 13
60.673
 23
15.59462809445484
 33
0.0
  0
SOLID
  5
EF
330
EB
100
AcDbEntity
  8
치수문자_일반주서
100
AcDbTrace
 10
13.17500000000001
 20
16.10262809445484
 30
0.0
 11
16.47700000000001
 21
15.59462809445484
 31
0.0
 12
16.47700000000001
 22
16.61062809445484
 32
0.0
 13
16.47700000000001
 23
16.61062809445484
 33
0.0
  0
LINE
  5
F0
330
EB
100
AcDbEntity
  8
치수문자_일반주서
100
AcDbLine
 10
33.16063391817735
 20
26.89550981049759
 30
0.0
 11
32.44969643261285
 21
26.8955098104976
 31
0.0
  0
LINE
  5
F1
330
EB
100
AcDbEntity
  8
치수문자_일반주서
100
AcDbLine
 10
32.44969643261285
 20
26.8955098104976
 30
0.0
 11
32.44969643261281
 21
21.33925981943829
 31
0.0
  0
LINE
  5
F2
330
EB
100
AcDbEntity
  8
치수문자_일반주서
100
AcDbLine
 10
32.44969643261281
 20
21.33925981943829
 30
0.0
 11
33.16063391817731
 21
21.33925981943829
 31
0.0
  0
LINE
  5
F3
330
EB
100
AcDbEntity
  8
치수문자_일반주서
100
AcDbLine
 10
43.98936678031461
 20
26.89550981049751
 30
0.0
 11
44.70030426587911
 21
26.89550981049751
 31
0.0
  0
LINE
  5
F4
330
EB
100
AcDbEntity
  8
치수문자_일반주서
100
AcDbLine
 10
44.70030426587911
 20
26.89550981049751
 30
0.0
 11
44.70030426587907
 21
21.33925981943821
 31
0.0
  0
LINE
  5
F5
330
EB
100
AcDbEntity
  8
치수문자_일반주서
100
AcDbLine
 10
44.70030426587907
 20
21.33925981943821
 30
0.0
 11
43.98936678031457
 21
21.33925981943821
 31
0.0
  0
LINE
  5
F6
330
EB
100
AcDbEntity
  8
치수문자_일반주서
100
AcDbLine
 10
63.975
 20
6.551844713779376
 30
0.0
 11
63.975
 21
17.10262809445484
 31
0.0
  0
LINE
  5
F7
330
EB
100
AcDbEntity
  8
치수문자_일반주서
100
AcDbLine
 10
13.17500000000001
 20
7.349808527062113
 30
0.0
 11
13.17500000000001
 21
17.10262809445484
 31
0.0
  0
LINE
  5
F8
330
EB
100
AcDbEntity
  8
치수문자_일반주서
100
AcDbLine
 10
63.975
 20
16.10262809445484
 30
0.0
 11
13.17500000000001
 21
16.10262809445484
 31
0.0
  0
MTEXT
  5
F9
330
EB
100
AcDbEntity
  8
치수문자_일반주서
100
AcDbMText
 10
31.9359377071261
 20
20.66783736031657
 30
0.0
 40
3.5
 41
0.0
 71
     1
 72
     1
  1

  7
SLDTEXTSTYLE0
 73
     1
 44
1.0
  0
MTEXT
  5
FA
330
EB
100
AcDbEntity
  8
치수문자_일반주서
100
AcDbMText
 10
34.04930581878872
 20
25.85099673401718
 30
0.0
 40
3.5
 41
0.0
 71
     1
 72
     1
  1
2.00
  7
SLDTEXTSTYLE0
 73
     1
 44
1.0
  0
MTEXT
  5
FB
330
EB
100
AcDbEntity
  8
치수문자_일반주서
100
AcDbMText
 10
32.75625010561195
 20
20.61436518365671
 30
0.0
 40
3.5
 41
0.0
 71
     1
 72
     1
  1
50.80
  7
SLDTEXTSTYLE0
 73
     1
 44
1.0
  0
MTEXT
  5
FC
330
EB
100
AcDbEntity
  8
치수문자_일반주서
100
AcDbMText
 10
46.54600751101968
 20
20.66783736031647
 30
0.0
 40
3.5
 41
0.0
 71
     1
 72
     1
  1

  7
SLDTEXTSTYLE0
 73
     1
 44
1.0
  0
ENDBLK
  5
ED
330
EB
100
AcDbEntity
  8
0
100
AcDbBlockEnd
  0
BLOCK
  5
FF
330
FE
100
AcDbEntity
  8
0
100
AcDbBlockBegin
  2
_D_2
 70
     0
 10
0.0
 20
0.0
 30
0.0
  3
_D_2
  1
_D_2
  0
SOLID
  5
101
330
FE
100
AcDbEntity
  8
치수문자_일반주서
100
AcDbTrace
 10
63.975
 20
27.88540415170352
 30
0.0
 11
60.673
 21
28.39340415170352
 31
0.0
 12
60.673
 22
27.37740415170352
 32
0.0
 13
60.673
 23
27.37740415170352
 33
0.0
  0
SOLID
  5
102
330
FE
100
AcDbEntity
  8
치수문자_일반주서
100
AcDbTrace
 10
-37.62499999999999
 20
27.88540415170351
 30
0.0
 11
-34.32299999999999
 21
27.37740415170351
 31
0.0
 12
-34.32299999999999
 22
28.39340415170351
 32
0.0
 13
-34.32299999999999
 23
28.39340415170351
 33
0.0
  0
LINE
  5
103
330
FE
100
AcDbEntity
  8
치수문자_일반주서
100
AcDbLine
 10
7.760633918177352
 20
38.67828586774624
 30
0.0
 11
7.049696432612852
 21
38.67828586774625
 31
0.0
  0
LINE
  5
104
330
FE
100
AcDbEntity
  8
치수문자_일반주서
100
AcDbLine
 10
7.049696432612852
 20
38.67828586774625
 30
0.0
 11
7.049696432612812
 21
33.12203587668694
 31
0.0
  0
LINE
  5
105
330
FE
100
AcDbEntity
  8
치수문자_일반주서
100
AcDbLine
 10
7.049696432612812
 20
33.12203587668694
 30
0.0
 11
7.760633918177312
 21
33.12203587668694
 31
0.0
  0
LINE
  5
106
330
FE
100
AcDbEntity
  8
치수문자_일반주서
100
AcDbLine
 10
18.58936678031461
 20
38.67828586774617
 30
0.0
 11
19.30030426587911
 21
38.67828586774616
 31
0.0
  0
LINE
  5
107
330
FE
100
AcDbEntity
  8
치수문자_일반주서
100
AcDbLine
 10
19.30030426587911
 20
38.67828586774616
 30
0.0
 11
19.30030426587907
 21
33.12203587668686
 31
0.0
  0
LINE
  5
108
330
FE
100
AcDbEntity
  8
치수문자_일반주서
100
AcDbLine
 10
19.30030426587907
 20
33.12203587668686
 30
0.0
 11
18.58936678031457
 21
33.12203587668687
 31
0.0
  0
LINE
  5
109
330
FE
100
AcDbEntity
  8
치수문자_일반주서
100
AcDbLine
 10
63.975
 20
6.551844713779376
 30
0.0
 11
63.975
 21
28.88540415170352
 31
0.0
  0
LINE
  5
10A
330
FE
100
AcDbEntity
  8
치수문자_일반주서
100
AcDbLine
 10
-37.62499999999999
 20
6.080000000000004
 30
0.0
 11
-37.62499999999999
 21
28.88540415170351
 31
0.0
  0
LINE
  5
10B
330
FE
100
AcDbEntity
  8
치수문자_일반주서
100
AcDbLine
 10
63.975
 20
27.88540415170352
 30
0.0
 11
-37.62499999999999
 21
27.88540415170351
 31
0.0
  0
MTEXT
  5
10C
330
FE
100
AcDbEntity
  8
치수문자_일반주서
100
AcDbMText
 10
6.082638795673818
 20
32.45061341756524
 30
0.0
 40
3.5
 41
0.0
 71
     1
 72
     1
  1

  7
SLDTEXTSTYLE0
 73
     1
 44
1.0
  0
MTEXT
  5
10D
330
FE
100
AcDbEntity
  8
치수문자_일반주서
100
AcDbMText
 10
8.649305818788713
 20
37.63377279126583
 30
0.0
 40
3.5
 41
0.0
 71
     1
 72
     1
  1
4.00
  7
SLDTEXTSTYLE0
 73
     1
 44
1.0
  0
MTEXT
  5
10E
330
FE
100
AcDbEntity
  8
치수문자_일반주서
100
AcDbMText
 10
6.063194392435222
 20
32.39714124090538
 30
0.0
 40
3.5
 41
0.0
 71
     1
 72
     1
  1
101.60
  7
SLDTEXTSTYLE0
 73
     1
 44
1.0
  0
MTEXT
  5
10F
330
FE
100
AcDbEntity
  8
치수문자_일반주서
100
AcDbMText
 10
21.59930642247197
 20
32.45061341756512
 30
0.0
 40
3.5
 41
0.0
 71
     1
 72
     1
  1

  7
SLDTEXTSTYLE0
 73
     1
 44
1.0
  0
ENDBLK
  5
100
330
FE
100
AcDbEntity
  8
0
100
AcDbBlockEnd
  0
BLOCK
  5
112
330
111
100
AcDbEntity
  8
0
100
AcDbBlockBegin
  2
_D_3
 70
     0
 10
0.0
 20
0.0
 30
0.0
  3
_D_3
  1
_D_3
  0
SOLID
  5
114
330
111
100
AcDbEntity
  8
치수문자_일반주서
100
AcDbTrace
 10
71.8220646045958
 20
6.35
 30
0.0
 11
71.3140646045958
 21
3.048
 31
0.0
 12
72.33006460459579
 22
3.048
 32
0.0
 13
72.33006460459579
 23
3.048
 33
0.0
  0
SOLID
  5
115
330
111
100
AcDbEntity
  8
치수문자_일반주서
100
AcDbTrace
 10
71.8220646045958
 20
-6.350000000000005
 30
0.0
 11
72.33006460459579
 21
-3.048000000000005
 31
0.0
 12
71.3140646045958
 22
-3.048000000000005
 32
0.0
 13
71.3140646045958
 23
-3.048000000000005
 33
0.0
  0
LINE
  5
116
330
111
100
AcDbEntity
  8
치수문자_일반주서
100
AcDbLine
 10
61.02918288855307
 20
17.11853962680777
 30
0.0
 11
61.02918288855307
 21
16.40760214124327
 31
0.0
  0
LINE
  5
117
330
111
100
AcDbEntity
  8
치수문자_일반주서
100
AcDbLine
 10
61.02918288855307
 20
16.40760214124327
 30
0.0
 11
66.58543287961238
 21
16.40760214124331
 31
0.0
  0
LINE
  5
118
330
111
100
AcDbEntity
  8
치수문자_일반주서
100
AcDbLine
 10
66.58543287961238
 20
16.40760214124331
 30
0.0
 11
66.58543287961237
 21
17.11853962680781
 31
0.0
  0
LINE
  5
119
330
111
100
AcDbEntity
  8
치수문자_일반주서
100
AcDbLine
 10
61.029182888553
 20
27.94727248894502
 30
0.0
 11
61.02918288855299
 21
28.65820997450952
 31
0.0
  0
LINE
  5
11A
330
111
100
AcDbEntity
  8
치수문자_일반주서
100
AcDbLine
 10
61.02918288855299
 20
28.65820997450952
 30
0.0
 11
66.5854328796123
 21
28.65820997450956
 31
0.0
  0
LINE
  5
11B
330
111
100
AcDbEntity
  8
치수문자_일반주서
100
AcDbLine
 10
66.5854328796123
 20
28.65820997450956
 30
0.0
 11
66.5854328796123
 21
27.94727248894506
 31
0.0
  0
LINE
  5
11C
330
111
100
AcDbEntity
  8
치수문자_일반주서
100
AcDbLine
 10
35.23684225732489
 20
6.350000000000002
 30
0.0
 11
72.8220646045958
 21
6.35
 31
0.0
  0
LINE
  5
11D
330
111
100
AcDbEntity
  8
치수문자_일반주서
100
AcDbLine
 10
35.23684225732482
 20
-6.350000000000002
 30
0.0
 11
72.8220646045958
 21
-6.350000000000005
 31
0.0
  0
LINE
  5
11E
330
111
100
AcDbEntity
  8
치수문자_일반주서
100
AcDbLine
 10
71.8220646045958
 20
6.35
 30
0.0
 11
71.8220646045958
 21
30.9908750006975
 31
0.0
  0
LINE
  5
11F
330
111
100
AcDbEntity
  8
치수문자_일반주서
100
AcDbLine
 10
71.8220646045958
 20
6.35
 30
0.0
 11
71.8220646045958
 21
-6.350000000000005
 31
0.0
  0
MTEXT
  5
120
330
111
100
AcDbEntity
  8
치수문자_일반주서
100
AcDbMText
 10
62.07369596503347
 20
18.00721152741914
 30
0.0
 40
3.5
 41
0.0
 71
     1
 72
     1
  1
0.50
  7
SLDTEXTSTYLE0
 11
-7.044195017643634E-15
 21
1.0
 31
0.0
 73
     1
 44
1.0
  0
MTEXT
  5
121
330
111
100
AcDbEntity
  8
치수문자_일반주서
100
AcDbMText
 10
67.31032751539395
 20
14.07493711505541
 30
0.0
 40
3.5
 41
0.0
 71
     1
 72
     1
  1
%%c
  7
SLDTEXTSTYLE0
 11
-7.044195017643634E-15
 21
1.0
 31
0.0
 73
     1
 44
1.0
  0
MTEXT
  5
122
330
111
100
AcDbEntity
  8
치수문자_일반주서
100
AcDbMText
 10
67.31032751539391
 20
19.35337451342949
 30
0.0
 40
3.5
 41
0.0
 71
     1
 72
     1
  1
12.70
  7
SLDTEXTSTYLE0
 11
-7.044195017643634E-15
 21
1.0
 31
0.0
 73
     1
 44
1.0
  0
ENDBLK
  5
113
330
111
100
AcDbEntity
  8
0
100
AcDbBlockEnd
  0
BLOCK
  5
12B
330
12A
100
AcDbEntity
  8
0
100
AcDbBlockBegin
  2
SW_DOWELSYMBOL_0
 70
     0
 10
0.0
 20
0.0
 30
0.0
  3
SW_DOWELSYMBOL_0
  1
SW_DOWELSYMBOL_0
  0
CIRCLE
  5
12D
330
12A
100
AcDbEntity
  8
해칭선
 62
     0
100
AcDbCircle
 10
0.0
 20
0.0
 30
0.0
 40
3.000000000000001
  0
HATCH
  5
12E
330
12A
100
AcDbEntity
  8
0
  6
Continuous
 62
     0
370
     0
100
AcDbHatch
 10
0.0
 20
0.0
 30
0.0
210
0.0
220
0.0
230
1.0
  2
SOLID
 70
     1
 71
     0
 91
        1
 92
        0
 93
        3
 72
     2
 10
0.0
 20
0.0
 40
3.000000000000001
 50
0.0
 51
90.0
 73
     1
 72
     1
 10
0.0
 20
3.000000000000001
 11
0.0
 21
0.0
 72
     1
 10
0.0
 20
0.0
 11
3.000000000000001
 21
0.0
 97
        0
 75
     0
 76
     1
 98
        1
 10
0.0
 20
0.0
  0
HATCH
  5
12F
330
12A
100
AcDbEntity
  8
0
  6
Continuous
 62
     0
370
     0
100
AcDbHatch
 10
0.0
 20
0.0
 30
0.0
210
0.0
220
0.0
230
1.0
  2
SOLID
 70
     1
 71
     0
 91
        1
 92
        0
 93
        3
 72
     2
 10
0.0
 20
0.0
 40
3.000000000000001
 50
180.0
 51
270.0000000000008
 73
     1
 72
     1
 10
0.0
 20
-3.000000000000001
 11
0.0
 21
0.0
 72
     1
 10
0.0
 20
0.0
 11
-3.000000000000001
 21
0.0
 97
        0
 75
     0
 76
     1
 98
        1
 10
0.0
 20
0.0
  0
ENDBLK
  5
12C
330
12A
100
AcDbEntity
  8
0
100
AcDbBlockEnd
  0
BLOCK
  5
1B1
330
1B0
100
AcDbEntity
  8
0
100
AcDbBlockBegin
  2
*D8
 70
     1
 10
0.0
 20
0.0
 30
0.0
  3
*D8
  1
*D12
  0
LINE
  5
1B2
330
1B0
100
AcDbEntity
  8
치수문자_일반주서
 62
     0
370
    -2
100
AcDbLine
 10
17.94750000000006
 20
42.19554024129971
 30
0.0
 11
4.37500000000002
 21
42.19554024129966
 31
0.0
  0
LINE
  5
1B3
330
1B0
100
AcDbEntity
  8
치수문자_일반주서
 62
     0
370
    -2
100
AcDbLine
 10
17.94750000000006
 20
29.49554024129972
 30
0.0
 11
4.375000000000065
 21
29.49554024129967
 31
0.0
  0
LINE
  5
1B4
330
1B0
100
AcDbEntity
  8
치수문자_일반주서
 62
     0
370
    -2
100
AcDbLine
 10
4.375000000000032
 20
38.89354024129966
 30
0.0
 11
4.375000000000053
 21
32.79754024129967
 31
0.0
  0
SOLID
  5
1B5
330
1B0
100
AcDbEntity
  8
치수문자_일반주서
 62
     0
100
AcDbTrace
 10
4.925333333333366
 20
38.89354024129966
 30
0.0
 11
3.824666666666699
 21
38.89354024129966
 31
0.0
 12
4.37500000000002
 22
42.19554024129966
 32
0.0
 13
4.37500000000002
 23
42.19554024129966
 33
0.0
  0
SOLID
  5
1B6
330
1B0
100
AcDbEntity
  8
치수문자_일반주서
 62
     0
100
AcDbTrace
 10
3.82466666666672
 20
32.79754024129967
 30
0.0
 11
4.925333333333387
 21
32.79754024129967
 31
0.0
 12
4.375000000000065
 22
29.49554024129967
 32
0.0
 13
4.375000000000065
 23
29.49554024129967
 33
0.0
  0
MTEXT
  5
1B7
330
1B0
100
AcDbEntity
  8
치수문자_일반주서
 62
     0
100
AcDbMText
 10
0.0000000000000426
 20
35.84554024129969
 30
0.0
 40
3.5
 41
0.0
 71
     2
 72
     1
  1
\A1;%%c12.70 [1/2]
  7
SLDTEXTSTYLE0
 11
-3.496765431890260E-15
 21
1.0
 31
0.0
 73
     1
 44
1.0
  0
POINT
  5
1B8
330
1B0
100
AcDbEntity
  8
Defpoints
 62
     0
100
AcDbPoint
 10
18.01000000000006
 20
42.19554024129971
 30
0.0
  0
POINT
  5
1B9
330
1B0
100
AcDbEntity
  8
Defpoints
 62
     0
100
AcDbPoint
 10
18.01000000000006
 20
29.49554024129972
 30
0.0
  0
POINT
  5
1BA
330
1B0
100
AcDbEntity
  8
Defpoints
 62
     0
100
AcDbPoint
 10
4.375000000000057
 20
29.49554024129967
 30
0.0
  0
ENDBLK
  5
1BB
330
1B0
100
AcDbEntity
  8
0
100
AcDbBlockEnd
  0
BLOCK
  5
1BE
330
1BD
100
AcDbEntity
  8
0
100
AcDbBlockBegin
  2
*D9
 70
     1
 10
0.0
 20
0.0
 30
0.0
  3
*D9
  1
*D13
  0
LINE
  5
1BF
330
1BD
100
AcDbEntity
  8
치수문자_일반주서
 62
     0
370
    -2
100
AcDbLine
 10
118.3400000000001
 20
39.95709525327083
 30
0.0
 11
118.3400000000001
 21
50.44537863394631
 31
0.0
  0
LINE
  5
1C0
330
1BD
100
AcDbEntity
  8
치수문자_일반주서
 62
     0
370
    -2
100
AcDbLine
 10
67.54000000000006
 20
42.25784876836211
 30
0.0
 11
67.54000000000006
 21
50.44537863394631
 31
0.0
  0
LINE
  5
1C1
330
1BD
100
AcDbEntity
  8
치수문자_일반주서
 62
     0
370
    -2
100
AcDbLine
 10
115.0380000000001
 20
50.44537863394631
 30
0.0
 11
70.84200000000007
 21
50.44537863394631
 31
0.0
  0
SOLID
  5
1C2
330
1BD
100
AcDbEntity
  8
치수문자_일반주서
 62
     0
100
AcDbTrace
 10
115.0380000000001
 20
49.89504530061297
 30
0.0
 11
115.0380000000001
 21
50.99571196727964
 31
0.0
 12
118.3400000000001
 22
50.44537863394631
 32
0.0
 13
118.3400000000001
 23
50.44537863394631
 33
0.0
  0
SOLID
  5
1C3
330
1BD
100
AcDbEntity
  8
치수문자_일반주서
 62
     0
100
AcDbTrace
 10
70.84200000000007
 20
50.99571196727964
 30
0.0
 11
70.84200000000007
 21
49.89504530061297
 31
0.0
 12
67.54000000000006
 22
50.44537863394631
 32
0.0
 13
67.54000000000006
 23
50.44537863394631
 33
0.0
  0
MTEXT
  5
1C4
330
1BD
100
AcDbEntity
  8
치수문자_일반주서
 62
     0
100
AcDbMText
 10
92.94000000000005
 20
54.82037863394631
 30
0.0
 40
3.5
 41
0.0
 71
     2
 72
     1
  1
\A1;50.80 [2]
  7
SLDTEXTSTYLE0
 73
     1
 44
1.0
  0
POINT
  5
1C5
330
1BD
100
AcDbEntity
  8
Defpoints
 62
     0
100
AcDbPoint
 10
118.3400000000001
 20
39.89459525327083
 30
0.0
  0
POINT
  5
1C6
330
1BD
100
AcDbEntity
  8
Defpoints
 62
     0
100
AcDbPoint
 10
67.54000000000006
 20
42.19534876836211
 30
0.0
  0
POINT
  5
1C7
330
1BD
100
AcDbEntity
  8
Defpoints
 62
     0
100
AcDbPoint
 10
67.54000000000006
 20
50.44537863394631
 30
0.0
  0
ENDBLK
  5
1C8
330
1BD
100
AcDbEntity
  8
0
100
AcDbBlockEnd
  0
BLOCK
  5
1CB
330
1CA
100
AcDbEntity
  8
0
100
AcDbBlockBegin
  2
*D10
 70
     1
 10
0.0
 20
0.0
 30
0.0
  3
*D10
  1
*D14
  0
LINE
  5
1CC
330
1CA
100
AcDbEntity
  8
치수문자_일반주서
 62
     0
370
    -2
100
AcDbLine
 10
118.3400000000001
 20
39.95709525327083
 30
0.0
 11
118.3400000000001
 21
62.22815469119497
 31
0.0
  0
LINE
  5
1CD
330
1CA
100
AcDbEntity
  8
치수문자_일반주서
 62
     0
370
    -2
100
AcDbLine
 10
16.74000000000007
 20
40.98804024129971
 30
0.0
 11
16.74000000000007
 21
62.22815469119497
 31
0.0
  0
LINE
  5
1CE
330
1CA
100
AcDbEntity
  8
치수문자_일반주서
 62
     0
370
    -2
100
AcDbLine
 10
115.0380000000001
 20
62.22815469119497
 30
0.0
 11
20.04200000000007
 21
62.22815469119497
 31
0.0
  0
SOLID
  5
1CF
330
1CA
100
AcDbEntity
  8
치수문자_일반주서
 62
     0
100
AcDbTrace
 10
115.0380000000001
 20
61.67782135786164
 30
0.0
 11
115.0380000000001
 21
62.77848802452831
 31
0.0
 12
118.3400000000001
 22
62.22815469119497
 32
0.0
 13
118.3400000000001
 23
62.22815469119497
 33
0.0
  0
SOLID
  5
1D0
330
1CA
100
AcDbEntity
  8
치수문자_일반주서
 62
     0
100
AcDbTrace
 10
20.04200000000007
 20
62.77848802452831
 30
0.0
 11
20.04200000000007
 21
61.67782135786164
 31
0.0
 12
16.74000000000007
 22
62.22815469119497
 32
0.0
 13
16.74000000000007
 23
62.22815469119497
 33
0.0
  0
MTEXT
  5
1D1
330
1CA
100
AcDbEntity
  8
치수문자_일반주서
 62
     0
100
AcDbMText
 10
67.54000000000006
 20
66.60315469119497
 30
0.0
 40
3.5
 41
0.0
 71
     2
 72
     1
  1
\A1;101.60 [4]
  7
SLDTEXTSTYLE0
 73
     1
 44
1.0
  0
POINT
  5
1D2
330
1CA
100
AcDbEntity
  8
Defpoints
 62
     0
100
AcDbPoint
 10
118.3400000000001
 20
39.89459525327083
 30
0.0
  0
POINT
  5
1D3
330
1CA
100
AcDbEntity
  8
Defpoints
 62
     0
100
AcDbPoint
 10
16.74000000000007
 20
40.92554024129971
 30
0.0
  0
POINT
  5
1D4
330
1CA
100
AcDbEntity
  8
Defpoints
 62
     0
100
AcDbPoint
 10
16.74000000000007
 20
62.22815469119497
 30
0.0
  0
ENDBLK
  5
1D5
330
1CA
100
AcDbEntity
  8
0
100
AcDbBlockEnd
  0
BLOCK
  5
1D8
330
1D7
100
AcDbEntity
  8
0
100
AcDbBlockBegin
  2
*D11
 70
     1
 10
0.0
 20
0.0
 30
0.0
  3
*D11
  1
*D15
  0
LINE
  5
1D9
330
1D7
100
AcDbEntity
  8
치수문자_일반주서
 62
     0
370
    -2
100
AcDbLine
 10
88.66434225732495
 20
42.19554024129972
 30
0.0
 11
131.1804745971158
 21
42.19554024129988
 31
0.0
  0
LINE
  5
1DA
330
1D7
100
AcDbEntity
  8
치수문자_일반주서
 62
     0
370
    -2
100
AcDbLine
 10
88.66434225732488
 20
29.49554024129971
 30
0.0
 11
131.1804745971158
 21
29.49554024129987
 31
0.0
  0
LINE
  5
1DB
330
1D7
100
AcDbEntity
  8
치수문자_일반주서
 62
     0
370
    -2
100
AcDbLine
 10
131.1804745971158
 20
42.19554024129988
 30
0.0
 11
131.1804745971156
 21
72.18504024129987
 31
0.0
  0
LINE
  5
1DC
330
1D7
100
AcDbEntity
  8
치수문자_일반주서
 62
     0
370
    -2
100
AcDbLine
 10
131.1804745971158
 20
38.89354024129988
 30
0.0
 11
131.1804745971158
 21
32.79754024129987
 31
0.0
  0
SOLID
  5
1DD
330
1D7
100
AcDbEntity
  8
치수문자_일반주서
 62
     0
100
AcDbTrace
 10
131.7308079304491
 20
38.89354024129988
 30
0.0
 11
130.6301412637825
 21
38.89354024129988
 31
0.0
 12
131.1804745971158
 22
42.19554024129988
 32
0.0
 13
131.1804745971158
 23
42.19554024129988
 33
0.0
  0
SOLID
  5
1DE
330
1D7
100
AcDbEntity
  8
치수문자_일반주서
 62
     0
100
AcDbTrace
 10
130.6301412637825
 20
32.79754024129987
 30
0.0
 11
131.7308079304491
 21
32.79754024129987
 31
0.0
 12
131.1804745971158
 22
29.49554024129987
 32
0.0
 13
131.1804745971158
 23
29.49554024129987
 33
0.0
  0
MTEXT
  5
1DF
330
1D7
100
AcDbEntity
  8
치수문자_일반주서
 62
     0
100
AcDbMText
 10
126.8054745971157
 20
58.84129024129986
 30
0.0
 40
3.5
 41
0.0
 71
     2
 72
     1
  1
\A1;%%c12.70 [1/2]
  7
SLDTEXTSTYLE0
 11
-4.475859752819524E-15
 21
1.0
 31
0.0
 73
     1
 44
1.0
  0
POINT
  5
1E0
330
1D7
100
AcDbEntity
  8
Defpoints
 62
     0
100
AcDbPoint
 10
88.60184225732495
 20
42.19554024129972
 30
0.0
  0
POINT
  5
1E1
330
1D7
100
AcDbEntity
  8
Defpoints
 62
     0
100
AcDbPoint
 10
88.60184225732488
 20
29.49554024129971
 30
0.0
  0
POINT
  5
1E2
330
1D7
100
AcDbEntity
  8
Defpoints
 62
     0
100
AcDbPoint
 10
131.1804745971158
 20
29.49554024129987
 30
0.0
  0
ENDBLK
  5
1E3
330
1D7
100
AcDbEntity
  8
0
100
AcDbBlockEnd
  0
BLOCK
  5
1F5
330
1F4
100
AcDbEntity
  8
0
100
AcDbBlockBegin
  2
*D12
 70
     1
 10
0.0
 20
0.0
 30
0.0
  3
*D12
  1
*D16
  0
LINE
  5
1F6
330
1F4
100
AcDbEntity
  8
치수문자_일반주서
 62
     0
370
    -2
100
AcDbLine
 10
119.4833952253118
 20
26.99769008098981
 30
0.0
 11
137.3889627492225
 21
0.000000000000016
 31
0.0
  0
MTEXT
  5
1F7
330
1F4
100
AcDbEntity
  8
치수문자_일반주서
 62
     0
100
AcDbMText
 10
131.8385739213006
 20
13.11807184226706
 30
0.0
 40
3.5
 41
0.0
 71
     5
 72
     1
  1
\A1;R1.52 [R.060]
  7
SLDTEXTSTYLE0
 11
0.5527134739560183
 21
-0.8333713552237502
 31
0.0
 73
     1
 44
1.0
  0
SOLID
  5
1F8
330
1F4
100
AcDbEntity
  8
치수문자_일반주서
 62
     0
100
AcDbTrace
 10
119.9420272611366
 20
27.30186672949027
 30
0.0
 11
119.024763189487
 21
26.69351343248934
 31
0.0
 12
117.658335334309
 22
29.74948229593863
 32
0.0
 13
117.658335334309
 23
29.74948229593863
 33
0.0
  0
LINE
  5
1F9
330
1F4
100
AcDbEntity
  8
치수문자_일반주서
 62
     0
100
AcDbLine
 10
116.7260000000001
 20
31.01954024129962
 30
0.0
 11
116.9060000000001
 21
31.01954024129962
 31
0.0
  0
LINE
  5
1FA
330
1F4
100
AcDbEntity
  8
치수문자_일반주서
 62
     0
100
AcDbLine
 10
116.8160000000001
 20
30.92954024129962
 30
0.0
 11
116.8160000000001
 21
31.10954024129962
 31
0.0
  0
POINT
  5
1FB
330
1F4
100
AcDbEntity
  8
Defpoints
 62
     0
100
AcDbPoint
 10
117.658335334309
 20
29.74948229593863
 30
0.0
  0
POINT
  5
1FC
330
1F4
100
AcDbEntity
  8
Defpoints
 62
     0
100
AcDbPoint
 10
116.8160000000001
 20
31.01954024129962
 30
0.0
  0
ENDBLK
  5
1FD
330
1F4
100
AcDbEntity
  8
0
100
AcDbBlockEnd
  0
BLOCK
  5
23E
330
23D
100
AcDbEntity
  8
0
100
AcDbBlockBegin
  2
*D13
 70
     1
 10
0.0
 20
0.0
 30
0.0
  3
*D13
  1
*D13
  0
LINE
  5
240
330
23D
100
AcDbEntity
  8
치수문자_일반주서
 62
     0
370
    -2
100
AcDbLine
 10
-39.59250000000001
 20
6.351074928723889
 30
0.0
 11
-53.16500000000005
 21
6.351074928723837
 31
0.0
  0
LINE
  5
241
330
23D
100
AcDbEntity
  8
치수문자_일반주서
 62
     0
370
    -2
100
AcDbLine
 10
-39.59250000000001
 20
-6.348925071276099
 30
0.0
 11
-53.16500000000001
 21
-6.348925071276152
 31
0.0
  0
LINE
  5
242
330
23D
100
AcDbEntity
  8
치수문자_일반주서
 62
     0
370
    -2
100
AcDbLine
 10
-53.16500000000003
 20
3.049074928723837
 30
0.0
 11
-53.16500000000002
 21
-3.046925071276152
 31
0.0
  0
SOLID
  5
243
330
23D
100
AcDbEntity
  8
치수문자_일반주서
 62
     0
100
AcDbTrace
 10
-52.6146666666667
 20
3.049074928723839
 30
0.0
 11
-53.71533333333337
 21
3.049074928723836
 31
0.0
 12
-53.16500000000005
 22
6.351074928723837
 32
0.0
 13
-53.16500000000005
 23
6.351074928723837
 33
0.0
  0
SOLID
  5
244
330
23D
100
AcDbEntity
  8
치수문자_일반주서
 62
     0
100
AcDbTrace
 10
-53.71533333333335
 20
-3.046925071276154
 30
0.0
 11
-52.61466666666669
 21
-3.04692507127615
 31
0.0
 12
-53.16500000000001
 22
-6.348925071276152
 32
0.0
 13
-53.16500000000001
 23
-6.348925071276152
 33
0.0
  0
MTEXT
  5
245
330
23D
100
AcDbEntity
  8
치수문자_일반주서
 62
     0
100
AcDbMText
 10
-57.54000000000003
 20
0.0010749287238735
 30
0.0
 40
3.5
 41
0.0
 71
     2
 72
     1
  1
\A1;%%c12.70 [1/2]
  7
SLDTEXTSTYLE0
 11
-3.356894814614650E-15
 21
1.0
 31
0.0
 73
     1
 44
1.0
  0
POINT
  5
246
330
23D
100
AcDbEntity
  8
Defpoints
 62
     0
100
AcDbPoint
 10
-39.53000000000001
 20
6.351074928723889
 30
0.0
  0
POINT
  5
247
330
23D
100
AcDbEntity
  8
Defpoints
 62
     0
100
AcDbPoint
 10
-39.53000000000001
 20
-6.348925071276099
 30
0.0
  0
POINT
  5
248
330
23D
100
AcDbEntity
  8
Defpoints
 62
     0
100
AcDbPoint
 10
-53.16500000000001
 20
-6.34892507127615
 30
0.0
  0
ENDBLK
  5
23F
330
23D
100
AcDbEntity
  8
0
100
AcDbBlockEnd
  0
BLOCK
  5
24A
330
249
100
AcDbEntity
  8
0
100
AcDbBlockBegin
  2
*D14
 70
     1
 10
0.0
 20
0.0
 30
0.0
  3
*D14
  1
*D14
  0
LINE
  5
24C
330
249
100
AcDbEntity
  8
치수문자_일반주서
 62
     0
370
    -2
100
AcDbLine
 10
60.79999999999999
 20
4.112629940695008
 30
0.0
 11
60.79999999999999
 21
14.60091332137048
 31
0.0
  0
LINE
  5
24D
330
249
100
AcDbEntity
  8
치수문자_일반주서
 62
     0
370
    -2
100
AcDbLine
 10
9.999999999999993
 20
6.413383455786288
 30
0.0
 11
9.999999999999993
 21
14.60091332137048
 31
0.0
  0
LINE
  5
24E
330
249
100
AcDbEntity
  8
치수문자_일반주서
 62
     0
370
    -2
100
AcDbLine
 10
57.49799999999999
 20
14.60091332137048
 30
0.0
 11
13.30199999999999
 21
14.60091332137048
 31
0.0
  0
SOLID
  5
24F
330
249
100
AcDbEntity
  8
치수문자_일반주서
 62
     0
100
AcDbTrace
 10
57.49799999999999
 20
14.05057998803715
 30
0.0
 11
57.49799999999999
 21
15.15124665470382
 31
0.0
 12
60.79999999999999
 22
14.60091332137048
 32
0.0
 13
60.79999999999999
 23
14.60091332137048
 33
0.0
  0
SOLID
  5
250
330
249
100
AcDbEntity
  8
치수문자_일반주서
 62
     0
100
AcDbTrace
 10
13.30199999999999
 20
15.15124665470382
 30
0.0
 11
13.30199999999999
 21
14.05057998803715
 31
0.0
 12
9.999999999999993
 22
14.60091332137048
 32
0.0
 13
9.999999999999993
 23
14.60091332137048
 33
0.0
  0
MTEXT
  5
251
330
249
100
AcDbEntity
  8
치수문자_일반주서
 62
     0
100
AcDbMText
 10
35.39999999999998
 20
18.97591332137048
 30
0.0
 40
3.5
 41
0.0
 71
     2
 72
     1
  1
\A1;50.80 [2]
  7
SLDTEXTSTYLE0
 73
     1
 44
1.0
  0
POINT
  5
252
330
249
100
AcDbEntity
  8
Defpoints
 62
     0
100
AcDbPoint
 10
60.79999999999999
 20
4.050129940695008
 30
0.0
  0
POINT
  5
253
330
249
100
AcDbEntity
  8
Defpoints
 62
     0
100
AcDbPoint
 10
9.999999999999993
 20
6.350883455786288
 30
0.0
  0
POINT
  5
254
330
249
100
AcDbEntity
  8
Defpoints
 62
     0
100
AcDbPoint
 10
9.999999999999993
 20
14.60091332137048
 30
0.0
  0
ENDBLK
  5
24B
330
249
100
AcDbEntity
  8
0
100
AcDbBlockEnd
  0
BLOCK
  5
256
330
255
100
AcDbEntity
  8
0
100
AcDbBlockBegin
  2
*D15
 70
     1
 10
0.0
 20
0.0
 30
0.0
  3
*D15
  1
*D15
  0
LINE
  5
258
330
255
100
AcDbEntity
  8
치수문자_일반주서
 62
     0
370
    -2
100
AcDbLine
 10
60.79999999999999
 20
4.112629940695008
 30
0.0
 11
60.8
 21
26.38368937861915
 31
0.0
  0
LINE
  5
259
330
255
100
AcDbEntity
  8
치수문자_일반주서
 62
     0
370
    -2
100
AcDbLine
 10
-40.8
 20
5.143574928723893
 30
0.0
 11
-40.79999999999999
 21
26.38368937861915
 31
0.0
  0
LINE
  5
25A
330
255
100
AcDbEntity
  8
치수문자_일반주서
 62
     0
370
    -2
100
AcDbLine
 10
57.498
 20
26.38368937861915
 30
0.0
 11
-37.49799999999999
 21
26.38368937861915
 31
0.0
  0
SOLID
  5
25B
330
255
100
AcDbEntity
  8
치수문자_일반주서
 62
     0
100
AcDbTrace
 10
57.498
 20
25.83335604528582
 30
0.0
 11
57.498
 21
26.93402271195249
 31
0.0
 12
60.8
 22
26.38368937861915
 32
0.0
 13
60.8
 23
26.38368937861915
 33
0.0
  0
SOLID
  5
25C
330
255
100
AcDbEntity
  8
치수문자_일반주서
 62
     0
100
AcDbTrace
 10
-37.49799999999999
 20
26.93402271195249
 30
0.0
 11
-37.49799999999999
 21
25.83335604528582
 31
0.0
 12
-40.79999999999999
 22
26.38368937861915
 32
0.0
 13
-40.79999999999999
 23
26.38368937861915
 33
0.0
  0
MTEXT
  5
25D
330
255
100
AcDbEntity
  8
치수문자_일반주서
 62
     0
100
AcDbMText
 10
9.999999999999993
 20
30.75868937861915
 30
0.0
 40
3.5
 41
0.0
 71
     2
 72
     1
  1
\A1;101.60 [4]
  7
SLDTEXTSTYLE0
 73
     1
 44
1.0
  0
POINT
  5
25E
330
255
100
AcDbEntity
  8
Defpoints
 62
     0
100
AcDbPoint
 10
60.79999999999999
 20
4.050129940695008
 30
0.0
  0
POINT
  5
25F
330
255
100
AcDbEntity
  8
Defpoints
 62
     0
100
AcDbPoint
 10
-40.8
 20
5.081074928723893
 30
0.0
  0
POINT
  5
260
330
255
100
AcDbEntity
  8
Defpoints
 62
     0
100
AcDbPoint
 10
-40.8
 20
26.38368937861915
 30
0.0
  0
ENDBLK
  5
257
330
255
100
AcDbEntity
  8
0
100
AcDbBlockEnd
  0
BLOCK
  5
262
330
261
100
AcDbEntity
  8
0
100
AcDbBlockBegin
  2
*D16
 70
     1
 10
0.0
 20
0.0
 30
0.0
  3
*D16
  1
*D16
  0
LINE
  5
264
330
261
100
AcDbEntity
  8
치수문자_일반주서
 62
     0
370
    -2
100
AcDbLine
 10
31.12434225732488
 20
6.351074928723897
 30
0.0
 11
73.64047459711568
 21
6.351074928724056
 31
0.0
  0
LINE
  5
265
330
261
100
AcDbEntity
  8
치수문자_일반주서
 62
     0
370
    -2
100
AcDbLine
 10
31.12434225732481
 20
-6.348925071276113
 30
0.0
 11
73.64047459711573
 21
-6.348925071275954
 31
0.0
  0
LINE
  5
266
330
261
100
AcDbEntity
  8
치수문자_일반주서
 62
     0
370
    -2
100
AcDbLine
 10
73.64047459711568
 20
6.351074928724056
 30
0.0
 11
73.64047459711558
 21
36.34057492872406
 31
0.0
  0
LINE
  5
267
330
261
100
AcDbEntity
  8
치수문자_일반주서
 62
     0
370
    -2
100
AcDbLine
 10
73.6404745971157
 20
3.049074928724057
 30
0.0
 11
73.64047459711571
 21
-3.046925071275954
 31
0.0
  0
SOLID
  5
268
330
261
100
AcDbEntity
  8
치수문자_일반주서
 62
     0
100
AcDbTrace
 10
74.19080793044903
 20
3.049074928724059
 30
0.0
 11
73.09014126378237
 21
3.049074928724055
 31
0.0
 12
73.64047459711568
 22
6.351074928724056
 32
0.0
 13
73.64047459711568
 23
6.351074928724056
 33
0.0
  0
SOLID
  5
269
330
261
100
AcDbEntity
  8
치수문자_일반주서
 62
     0
100
AcDbTrace
 10
73.09014126378239
 20
-3.046925071275956
 30
0.0
 11
74.19080793044904
 21
-3.046925071275952
 31
0.0
 12
73.64047459711573
 22
-6.348925071275954
 32
0.0
 13
73.64047459711573
 23
-6.348925071275954
 33
0.0
  0
MTEXT
  5
26A
330
261
100
AcDbEntity
  8
치수문자_일반주서
 62
     0
100
AcDbMText
 10
69.26547459711563
 20
22.99682492872405
 30
0.0
 40
3.5
 41
0.0
 71
     2
 72
     1
  1
\A1;%%c12.70 [1/2]
  7
SLDTEXTSTYLE0
 11
-3.356894814614644E-15
 21
1.0
 31
0.0
 73
     1
 44
1.0
  0
POINT
  5
26B
330
261
100
AcDbEntity
  8
Defpoints
 62
     0
100
AcDbPoint
 10
31.06184225732488
 20
6.351074928723897
 30
0.0
  0
POINT
  5
26C
330
261
100
AcDbEntity
  8
Defpoints
 62
     0
100
AcDbPoint
 10
31.06184225732481
 20
-6.348925071276113
 30
0.0
  0
POINT
  5
26D
330
261
100
AcDbEntity
  8
Defpoints
 62
     0
100
AcDbPoint
 10
73.64047459711574
 20
-6.348925071275954
 30
0.0
  0
ENDBLK
  5
263
330
261
100
AcDbEntity
  8
0
100
AcDbBlockEnd
  0
BLOCK
  5
26F
330
26E
100
AcDbEntity
  8
0
100
AcDbBlockBegin
  2
*D17
 70
     1
 10
0.0
 20
0.0
 30
0.0
  3
*D17
  1
*D17
  0
LINE
  5
271
330
26E
100
AcDbEntity
  8
치수문자_일반주서
 62
     0
370
    -2
100
AcDbLine
 10
61.94339522531173
 20
-8.846775231586015
 30
0.0
 11
79.84896274922241
 21
-35.84446531257581
 31
0.0
  0
MTEXT
  5
272
330
26E
100
AcDbEntity
  8
치수문자_일반주서
 62
     0
100
AcDbMText
 10
74.2985739213005
 20
-22.72639347030876
 30
0.0
 40
3.5
 41
0.0
 71
     5
 72
     1
  1
\A1;R1.52 [R.060]
  7
SLDTEXTSTYLE0
 11
0.5527134739560183
 21
-0.8333713552237502
 31
0.0
 73
     1
 44
1.0
  0
SOLID
  5
273
330
26E
100
AcDbEntity
  8
치수문자_일반주서
 62
     0
100
AcDbTrace
 10
62.40202726113654
 20
-8.542598583085555
 30
0.0
 11
61.48476318948693
 21
-9.15095188008648
 31
0.0
 12
60.11833533430896
 22
-6.094983016637194
 32
0.0
 13
60.11833533430896
 23
-6.094983016637194
 33
0.0
  0
LINE
  5
274
330
26E
100
AcDbEntity
  8
치수문자_일반주서
 62
     0
100
AcDbLine
 10
59.18599999999999
 20
-4.824925071276201
 30
0.0
 11
59.36599999999999
 21
-4.824925071276201
 31
0.0
  0
LINE
  5
275
330
26E
100
AcDbEntity
  8
치수문자_일반주서
 62
     0
100
AcDbLine
 10
59.27599999999999
 20
-4.914925071276201
 30
0.0
 11
59.27599999999999
 21
-4.734925071276201
 31
0.0
  0
POINT
  5
276
330
26E
100
AcDbEntity
  8
Defpoints
 62
     0
100
AcDbPoint
 10
60.11833533430896
 20
-6.094983016637194
 30
0.0
  0
POINT
  5
277
330
26E
100
AcDbEntity
  8
Defpoints
 62
     0
100
AcDbPoint
 10
59.27599999999999
 20
-4.824925071276201
 30
0.0
  0
ENDBLK
  5
270
330
26E
100
AcDbEntity
  8
0
100
AcDbBlockEnd
  0
BLOCK
  5
280
330
27F
100
AcDbEntity
  8
0
100
AcDbBlockBegin
  2
*D18
 70
     1
 10
0.0
 20
0.0
 30
0.0
  3
*D18
  1
*D18
  0
LINE
  5
282
330
27F
100
AcDbEntity
  8
치수문자_일반주서
 62
     0
370
    -2
100
AcDbLine
 10
61.53194842093598
 20
-9.366371342303596
 30
0.0
 11
72.79749217607844
 21
-37.86636286797726
 31
0.0
  0
MTEXT
  5
283
330
27F
100
AcDbEntity
  8
치수문자_일반주서
 62
     0
100
AcDbMText
 10
70.41387343509962
 20
-24.69538675769392
 30
0.0
 40
3.5
 41
0.0
 71
     5
 72
     1
  1
\A1;R0.76 [R.03]
  7
SLDTEXTSTYLE0
 11
0.3676054185373979
 21
-0.9299818580283944
 31
0.0
 73
     1
 44
1.0
  0
SOLID
  5
284
330
27F
100
AcDbEntity
  8
치수문자_일반주서
 62
     0
100
AcDbTrace
 10
62.04374843680427
 20
-9.164065826968514
 30
0.0
 11
61.02014840506768
 21
-9.568676857638678
 31
0.0
 12
60.31811532892549
 22
-6.295571247093839
 32
0.0
 13
60.31811532892549
 23
-6.295571247093839
 33
0.0
  0
LINE
  5
285
330
27F
100
AcDbEntity
  8
치수문자_일반주서
 62
     0
100
AcDbLine
 10
59.94799999999999
 20
-5.586925071276203
 30
0.0
 11
60.12799999999999
 21
-5.586925071276203
 31
0.0
  0
LINE
  5
286
330
27F
100
AcDbEntity
  8
치수문자_일반주서
 62
     0
100
AcDbLine
 10
60.03799999999999
 20
-5.676925071276202
 30
0.0
 11
60.03799999999999
 21
-5.496925071276203
 31
0.0
  0
POINT
  5
287
330
27F
100
AcDbEntity
  8
Defpoints
 62
     0
100
AcDbPoint
 10
60.31811532892549
 20
-6.295571247093839
 30
0.0
  0
POINT
  5
288
330
27F
100
AcDbEntity
  8
Defpoints
 62
     0
100
AcDbPoint
 10
60.03799999999999
 20
-5.586925071276203
 30
0.0
  0
ENDBLK
  5
281
330
27F
100
AcDbEntity
  8
0
100
AcDbBlockEnd
  0
ENDSEC
  0
SECTION
  2
ENTITIES
  0
LINE
  5
CA
330
1F
100
AcDbEntity
  8
참조1
100
AcDbLine
 10
13.17500000000001
 20
-0.0000000000000039
 30
0.0
 11
13.17500000000001
 21
-40.00000000000001
 31
0.0
  0
LINE
  5
CB
330
1F
100
AcDbEntity
  8
참조1
100
AcDbLine
 10
13.17500000000001
 20
-40.00000000000001
 30
0.0
 11
-14.68385681430865
 21
-40.0
 31
0.0
  0
INSERT
  5
CD
330
1F
100
AcDbEntity
  8
0
  6
Continuous
 62
     7
100
AcDbBlockReference
 66
     1
  2
블럭10
 10
-0.7652729321251991
 20
-52.04717430164393
 30
0.0
  0
ATTRIB
  5
CE
330
CD
100
AcDbEntity
  8
FORMAT
 62
     2
100
AcDbText
 10
-10.90690894426183
 20
-49.97180738881174
 30
0.0
 40
4.233333333333333
  1
EM212908 [ 4 FLUTE ]
 41
0.75
  7
SLDTEXTSTYLE0
 11
-10.90690894426183
 21
-52.08847405547841
 31
0.0
100
AcDbAttribute
  2
AUTOATTR0
 70
     0
 74
     1
  0
SEQEND
  5
CF
330
CD
100
AcDbEntity
  8
0
  6
Continuous
 62
     7
  0
HATCH
  5
D0
330
1F
100
AcDbEntity
  8
중심선
100
AcDbHatch
 10
0.0
 20
0.0
 30
0.0
210
0.0
220
0.0
230
1.0
  2
SOLID
 70
     1
 71
     0
 91
        1
 92
        0
 93
        4
 72
     1
 10
4.94963637225565
 20
-35.8
 11
1.503361128418368
 21
-35.8
 72
     1
 10
1.503361128418368
 20
-35.8
 11
-0.6248687307856549
 21
-38.33632558057259
 72
     1
 10
-0.6248687307856549
 20
-38.33632558057259
 11
2.821439598164777
 21
-38.3362861512701
 72
     1
 10
2.821439598164777
 20
-38.3362861512701
 11
4.94963637225565
 21
-35.8
 97
        0
 75
     0
 76
     1
 98
        1
 10
0.0
 20
0.0
  0
HATCH
  5
D1
330
1F
100
AcDbEntity
  8
중심선
100
AcDbHatch
 10
0.0
 20
0.0
 30
0.0
210
0.0
220
0.0
230
1.0
  2
SOLID
 70
     1
 71
     0
 91
        1
 92
        0
 93
        4
 72
     1
 10
9.962400363291628
 20
-35.8
 11
6.516125119454347
 21
-35.8
 72
     1
 10
6.516125119454347
 20
-35.8
 11
1.984987111096931
 21
-41.20000000000002
 72
     1
 10
1.984987111096931
 20
-41.20000000000002
 11
5.431262354934213
 21
-41.20000000000002
 72
     1
 10
5.431262354934213
 20
-41.20000000000002
 11
9.962400363291628
 21
-35.8
 97
        0
 75
     0
 76
     1
 98
        1
 10
0.0
 20
0.0
  0
HATCH
  5
D2
330
1F
100
AcDbEntity
  8
중심선
100
AcDbHatch
 10
0.0
 20
0.0
 30
0.0
210
0.0
220
0.0
230
1.0
  2
SOLID
 70
     1
 71
     0
 91
        1
 92
        0
 93
        4
 72
     1
 10
14.97516435432755
 20
-35.79999999999997
 11
11.52888911049041
 21
-35.8
 72
     1
 10
11.52888911049041
 20
-35.8
 11
4.480452208601132
 21
-44.20000000000002
 72
     1
 10
4.480452208601132
 20
-44.20000000000002
 11
7.926727452438414
 21
-44.20000000000002
 72
     1
 10
7.926727452438414
 20
-44.20000000000002
 11
14.97516435432755
 21
-35.79999999999997
 97
        0
 75
     0
 76
     1
 98
        1
 10
0.0
 20
0.0
  0
HATCH
  5
D3
330
1F
100
AcDbEntity
  8
중심선
100
AcDbHatch
 10
0.0
 20
0.0
 30
0.0
210
0.0
220
0.0
230
1.0
  2
SOLID
 70
     1
 71
     0
 91
        1
 92
        0
 93
        6
 72
     3
 10
19.7750547853397
 20
-40.00000000005127
 11
3.960054785062284
 21
1.540850780301639E-10
 40
0.3939339440162633
 50
17.09539180608434
 51
320.0019657685081
 73
     0
 72
     1
 10
21.45805444104026
 20
-38.58789400463833
 11
23.76335631474133
 21
-36.65356729459038
 72
     3
 10
19.77505478528685
 20
-40.00000000000015
 11
6.600054785286829
 21
-1.249000902703301E-13
 40
0.6363583540795982
 50
39.99873849337406
 51
368.4976242363725
 73
     1
 72
     1
 10
26.20038727718746
 20
-39.03999999993002
 11
18.45512209212277
 21
-39.03999999993002
 72
     1
 10
18.45512209212277
 20
-39.03999999993002
 11
18.45509704767684
 21
-40.95999999992991
 72
     1
 10
18.45509704767684
 20
-40.95999999992991
 11
22.89647681714888
 21
-40.95999999992988
 97
        0
 75
     0
 76
     1
 98
        1
 10
0.0
 20
0.0
  0
LINE
  5
123
330
1F
100
AcDbEntity
  8
참조1
100
AcDbLine
 10
83.28848381534561
 20
7.440000000000002
 30
0.0
 11
83.28848381534561
 21
-7.440000000000002
 31
0.0
  0
LINE
  5
124
330
1F
100
AcDbEntity
  8
참조1
100
AcDbLine
 10
95.98848381534562
 20
5.440000000000002
 30
0.0
 11
83.28848381534561
 21
5.440000000000002
 31
0.0
  0
SOLID
  5
125
330
1F
100
AcDbEntity
  8
참조1
100
AcDbTrace
 10
83.28848381534561
 20
5.440000000000002
 30
0.0
 11
89.63848381534561
 21
4.424000000000002
 31
0.0
 12
89.63848381534561
 22
6.456000000000002
 32
0.0
 13
89.63848381534561
 23
6.456000000000002
 33
0.0
  0
LINE
  5
126
330
1F
100
AcDbEntity
  8
참조1
100
AcDbLine
 10
95.98848381534562
 20
-5.440000000000002
 30
0.0
 11
83.28848381534561
 21
-5.440000000000002
 31
0.0
  0
SOLID
  5
127
330
1F
100
AcDbEntity
  8
참조1
100
AcDbTrace
 10
83.28848381534561
 20
-5.440000000000002
 30
0.0
 11
89.63848381534561
 21
-6.456000000000002
 31
0.0
 12
89.63848381534561
 22
-4.424000000000002
 32
0.0
 13
89.63848381534561
 23
-4.424000000000002
 33
0.0
  0
MTEXT
  5
128
330
1F
100
AcDbEntity
  8
참조1
100
AcDbMText
 10
92.88859862590819
 20
11.06571756601608
 30
0.0
 40
3.5
 41
0.0
 71
     1
 72
     1
  1
A
  7
SLDTEXTSTYLE0
 73
     1
 44
1.0
  0
MTEXT
  5
129
330
1F
100
AcDbEntity
  8
참조1
100
AcDbMText
 10
92.88859862590819
 20
0.1857175660160727
 30
0.0
 40
3.5
 41
0.0
 71
     1
 72
     1
  1
A
  7
SLDTEXTSTYLE0
 73
     1
 44
1.0
  0
LINE
  5
201
330
1F
100
AcDbEntity
  8
외형선
  6
Continuous
 62
     1
370
    15
100
AcDbLine
 10
44.46692419371178
 20
-6.348925071276113
 30
0.0
 11
48.33807300104845
 21
-6.348925071276113
 31
0.0
  0
LINE
  5
202
330
1F
100
AcDbEntity
  8
외형선
  6
Continuous
 62
     1
370
    15
100
AcDbLine
 10
13.78735297837395
 20
6.351074928723897
 30
0.0
 11
9.999999999999993
 21
6.351074928723897
 31
0.0
  0
LINE
  5
203
330
1F
100
AcDbEntity
  8
외형선
  6
Continuous
 62
     1
370
    15
100
AcDbLine
 10
27.18921352884335
 20
-6.348925071276113
 30
0.0
 11
31.06181383101946
 21
-6.348925071276113
 31
0.0
  0
LINE
  5
204
330
1F
100
AcDbEntity
  8
외형선
  6
Continuous
 62
     1
370
    15
100
AcDbLine
 10
31.06181383101956
 20
6.351074928723897
 30
0.0
 11
27.18921352884332
 21
6.351074928723897
 31
0.0
  0
LINE
  5
205
330
1F
100
AcDbEntity
  8
외형선
  6
Continuous
 62
     1
370
    15
100
AcDbLine
 10
9.999999999999993
 20
-6.348925071276113
 30
0.0
 11
13.78735297837394
 21
-6.348925071276113
 31
0.0
  0
LINE
  5
206
330
1F
100
AcDbEntity
  8
외형선
  6
Continuous
 62
     1
370
    15
100
AcDbLine
 10
48.33807300104852
 20
6.351074928723897
 30
0.0
 11
44.46692419371184
 21
6.351074928723897
 31
0.0
  0
LINE
  5
207
330
1F
100
AcDbEntity
  8
외형선
  6
Continuous
370
    15
100
AcDbLine
 10
9.914723373643021
 20
-6.348925071276106
 30
0.0
 11
9.999999999999993
 21
-6.348925071276106
 31
0.0
  0
LINE
  5
208
330
1F
100
AcDbEntity
  8
외형선
  6
Continuous
370
    15
100
AcDbLine
 10
-39.53
 20
-6.348925071276106
 30
0.0
 11
9.750156423440181
 21
-6.348925071276106
 31
0.0
  0
LINE
  5
209
330
1F
100
AcDbEntity
  8
외형선
  6
Continuous
370
    15
100
AcDbLine
 10
9.750156423440181
 20
6.351074928723889
 30
0.0
 11
-39.53
 21
6.351074928723889
 31
0.0
  0
LINE
  5
20A
330
1F
100
AcDbEntity
  8
외형선
  6
Continuous
370
    15
100
AcDbLine
 10
9.999999999999993
 20
6.351074928723889
 30
0.0
 11
9.914723373642893
 21
6.351074928723889
 31
0.0
  0
LINE
  5
20B
330
1F
100
AcDbEntity
  8
외형선
  6
Continuous
370
    15
100
AcDbLine
 10
-39.53
 20
6.351074928723897
 30
0.0
 11
-40.8
 21
5.081074928723893
 31
0.0
  0
LINE
  5
20C
330
1F
100
AcDbEntity
  8
외형선
  6
Continuous
370
    15
100
AcDbLine
 10
-40.8
 20
-5.07892507127611
 30
0.0
 11
-39.53
 21
-6.348925071276106
 31
0.0
  0
SPLINE
  5
20D
330
1F
100
AcDbEntity
  8
외형선
  6
Continuous
 62
     1
370
    15
100
AcDbSpline
210
0.0
220
0.0
230
1.0
 70
     8
 71
     3
 72
    21
 73
    17
 74
     0
 42
0.000000001
 43
0.00000001
 40
0.0
 40
0.0
 40
0.0
 40
0.0
 40
0.075121151531085
 40
0.1502279475546658
 40
0.2253242301444098
 40
0.3004138610103588
 40
0.3755007143055857
 40
0.4505886693834543
 40
0.5271853242512513
 40
0.6037872814347369
 40
0.6803965806274909
 40
0.7570152525391058
 40
0.8336452709325519
 40
0.9102738973607017
 40
0.9868913675108694
 40
1.0
 40
1.0
 40
1.0
 40
1.0
 10
9.999999999999979
 20
2.144200944504398
 30
0.0
 10
10.69531866623313
 20
1.758958700829069
 30
0.0
 10
12.08582312464024
 20
0.9885478325298678
 30
0.0
 10
14.17130932172531
 20
-0.2231332056150848
 30
0.0
 10
16.25645302014926
 20
-1.421184320870694
 30
0.0
 10
18.34137174189073
 20
-2.569700182846134
 30
0.0
 10
20.42620408067371
 20
-3.625672087558442
 30
0.0
 10
22.52496894310757
 20
-4.557961847869024
 30
0.0
 10
24.63786439835631
 20
-5.329419031193609
 30
0.0
 10
26.76484493810738
 20
-5.907155178850847
 30
0.0
 10
28.89207836354448
 20
-6.264934356730098
 30
0.0
 10
31.01961526224441
 20
-6.387816945794413
 30
0.0
 10
33.14741893401584
 20
-6.277072916055232
 30
0.0
 10
35.2751935671266
 20
-5.914921324163647
 30
0.0
 10
36.81495760690702
 20
-5.539820323003159
 30
0.0
 10
37.64543056393571
 20
-5.236457797368722
 30
0.0
 10
37.76675941324074
 20
-5.192137719458923
 30
0.0
  0
SPLINE
  5
20E
330
1F
100
AcDbEntity
  8
외형선
  6
Continuous
 62
     1
370
    15
100
AcDbSpline
210
0.0
220
0.0
230
1.0
 70
     8
 71
     3
 72
    24
 73
    20
 74
     0
 42
0.000000001
 43
0.00000001
 40
0.0
 40
0.0
 40
0.0
 40
0.0
 40
0.0198239119658124
 40
0.0815300934949395
 40
0.1432403538593687
 40
0.2049563369610295
 40
0.2666796796979363
 40
0.3284120099773479
 40
0.3901454616296124
 40
0.4518697725103849
 40
0.5135865326910687
 40
0.5752973781194962
 40
0.6370039519810364
 40
0.6974951112114431
 40
0.7579853828413136
 40
0.8184778920933524
 40
0.878975760000888
 40
0.9394820975730936
 40
1.0
 40
1.0
 40
1.0
 40
1.0
 10
44.46692419371181
 20
-6.323060593768005
 30
0.0
 10
44.23917466148493
 20
-6.330304885942091
 30
0.0
 10
43.30250581994108
 20
-6.360098592616943
 30
0.0
 10
41.65685612689135
 20
-6.170571417840886
 30
0.0
 10
39.52989511723064
 20
-5.758192923349092
 30
0.0
 10
37.40269551016133
 20
-5.114250363936538
 30
0.0
 10
35.27519610967243
 20
-4.284013636992775
 30
0.0
 10
33.14741825268343
 20
-3.292780592493095
 30
0.0
 10
31.019615444779
 20
-2.179054192235199
 30
0.0
 10
28.89207831464388
 20
-0.9838957440271798
 30
0.0
 10
26.76484495120884
 20
0.2478988301640044
 30
0.0
 10
24.63786439484389
 20
1.470459591223523
 30
0.0
 10
22.52496894402807
 20
2.630516077286636
 30
0.0
 10
20.42620408042915
 20
3.686941513087
 30
0.0
 10
18.34137174195624
 20
4.603947397591092
 30
0.0
 10
16.25645302013174
 20
5.357180861430415
 30
0.0
 10
14.17130932173001
 20
5.914099395871389
 30
0.0
 10
12.0858231246391
 20
6.275439381613467
 30
0.0
 10
10.69531866623277
 20
6.325733829046662
 30
0.0
 10
10.00000000000004
 20
6.350883455785898
 30
0.0
  0
SPLINE
  5
20F
330
1F
100
AcDbEntity
  8
외형선
  6
Continuous
370
    15
100
AcDbSpline
210
0.0
220
0.0
230
1.0
 70
    24
 71
     3
 72
    15
 73
    11
 74
     0
 42
0.000000001
 43
0.00000001
 40
0.0
 40
0.0
 40
0.0
 40
0.0
 40
0.1426723630552141
 40
0.2897903523198704
 40
0.4276838704458734
 40
0.5695763099391006
 40
0.7074698280651023
 40
0.8493622675583289
 40
0.9872557856843316
 40
1.0
 40
1.0
 40
1.0
 40
1.0
 10
9.999999999999993
 20
6.350883455786288
 30
0.0
 10
9.999999999999979
 20
6.139622556143301
 30
0.0
 10
9.99999999999995
 20
5.710517933300117
 30
0.0
 10
10.00000000000005
 20
5.051749443885285
 30
0.0
 10
9.999999999999922
 20
4.400918381622098
 30
0.0
 10
10.00000000000004
 20
3.785870291407505
 30
0.0
 10
9.999999999999979
 20
3.202643002465258
 30
0.0
 10
10.00000000000004
 20
2.689886370583807
 30
0.0
 10
9.999999999999979
 20
2.355966706566882
 30
0.0
 10
10.00000000000002
 20
2.225669542572746
 30
0.0
 10
10.00000000000002
 20
2.214646175745926
 30
0.0
  0
LINE
  5
210
330
1F
100
AcDbEntity
  8
외형선
  6
Continuous
 62
     1
370
    15
100
AcDbLine
 10
60.79999999999999
 20
-3.679614074651461
 30
0.0
 11
60.79999999999999
 21
0.3492839320992971
 31
0.0
  0
SPLINE
  5
211
330
1F
100
AcDbEntity
  8
외형선
  6
Continuous
 62
     1
370
    15
100
AcDbSpline
210
0.0
220
0.0
230
1.0
 70
     8
 71
     3
 72
    20
 73
    16
 74
     0
 42
0.000000001
 43
0.00000001
 40
0.0
 40
0.0
 40
0.0
 40
0.0
 40
0.2499999999999998
 40
0.2499999999999998
 40
0.3749999999999998
 40
0.3749999999999998
 40
0.4999999999999999
 40
0.4999999999999999
 40
0.6249999999999999
 40
0.6249999999999999
 40
0.7499999999999999
 40
0.7499999999999999
 40
0.875
 40
0.875
 40
1.0
 40
1.0
 40
1.0
 40
1.0
 10
58.51400000000002
 20
-5.070716048724695
 30
0.0
 10
58.80006263157113
 20
-5.170443331507638
 30
0.0
 10
59.07176141678293
 20
-5.228474533388301
 30
0.0
 10
59.46308478252309
 20
-5.241598324519778
 30
0.0
 10
59.58764772449434
 20
-5.233262502760859
 30
0.0
 10
59.82714927354747
 20
-5.188402454891779
 30
0.0
 10
59.94321349601001
 20
-5.151382911774171
 30
0.0
 10
60.16097725967635
 20
-5.044236697282731
 30
0.0
 10
60.26154532343546
 20
-4.975137074882408
 30
0.0
 10
60.44553706125411
 20
-4.798885026257082
 30
0.0
 10
60.52706334341287
 20
-4.692847960478684
 30
0.0
 10
60.66129700200106
 20
-4.447164788322375
 30
0.0
 10
60.71402519393562
 20
-4.306344343675455
 30
0.0
 10
60.78296059582039
 20
-4.006636334605954
 30
0.0
 10
60.79999999999996
 20
-3.844225625658588
 30
0.0
 10
60.79999999999996
 20
-3.679614074651468
 30
0.0
  0
SPLINE
  5
212
330
1F
100
AcDbEntity
  8
외형선
  6
Continuous
 62
     1
370
    15
100
AcDbSpline
210
0.0
220
0.0
230
1.0
 70
     8
 71
     3
 72
    20
 73
    16
 74
     0
 42
0.000000001
 43
0.00000001
 40
0.0
 40
0.0
 40
0.0
 40
0.0
 40
0.0759679562173084
 40
0.1534748678019681
 40
0.2309704952400695
 40
0.3084568824211499
 40
0.385936084522926
 40
0.4634101655167553
 40
0.5408811956502081
 40
0.6183512489132624
 40
0.6946643447319311
 40
0.7709823768431632
 40
0.8473087438224585
 40
0.9236468300529119
 40
1.0
 40
1.0
 40
1.0
 40
1.0
 10
31.06181383101956
 20
6.348767920122441
 30
0.0
 10
31.75701832327542
 20
6.327687300396114
 30
0.0
 10
33.16151072845603
 20
6.285099010717417
 30
0.0
 10
35.27519714671279
 20
5.924895460689591
 30
0.0
 10
37.40269525302694
 20
5.359223818864571
 30
0.0
 10
39.52989510892846
 20
4.58899287293729
 30
0.0
 10
41.656856417159
 20
3.649004403876937
 30
0.0
 10
43.78365082038435
 20
2.572681428092807
 30
0.0
 10
45.91033970289278
 20
1.400606699298542
 30
0.0
 10
48.02641811916065
 20
0.1823716770838217
 30
0.0
 10
50.13188453307253
 20
-1.035957050303274
 30
0.0
 10
52.22693119704605
 20
-2.211601636056443
 30
0.0
 10
54.32224927389471
 20
-3.303701843529062
 30
0.0
 10
56.41794729400775
 20
-4.289453436114762
 30
0.0
 10
57.81526975283126
 20
-4.810278027842859
 30
0.0
 10
58.51400000000002
 20
-5.070716048724684
 30
0.0
  0
SPLINE
  5
213
330
1F
100
AcDbEntity
  8
외형선
  6
Continuous
 62
     1
370
    15
100
AcDbSpline
210
0.0
220
0.0
230
1.0
 70
     8
 71
     3
 72
    17
 73
    13
 74
     0
 42
0.000000001
 43
0.00000001
 40
0.0
 40
0.0
 40
0.0
 40
0.0
 40
0.1010269085051462
 40
0.2020338589488061
 40
0.3030253030328072
 40
0.40400571881302
 40
0.5049796031240427
 40
0.6074843188852757
 40
0.7099903271952839
 40
0.8125003722596601
 40
0.9150171933322135
 40
0.9999999999999999
 40
0.9999999999999999
 40
0.9999999999999999
 40
0.9999999999999999
 10
58.51399999999999
 20
1.838928782163741
 30
0.0
 10
57.81526975285451
 20
2.218521465461741
 30
0.0
 10
56.41794729407747
 20
2.977631842787808
 30
0.0
 10
54.32224927361569
 20
3.990831362411207
 30
0.0
 10
52.22693119809231
 20
4.864359342298236
 30
0.0
 10
50.1318845291669
 20
5.560572530276261
 30
0.0
 10
48.02641813382932
 20
6.058573939764564
 30
0.0
 10
45.91033964722318
 20
6.335602026091969
 30
0.0
 10
43.78365102804845
 20
6.379364314734367
 30
0.0
 10
41.65685564211856
 20
6.179754232587285
 30
0.0
 10
39.65122441780934
 20
5.793856512284393
 30
0.0
 10
38.35449317121067
 20
5.381283303915275
 30
0.0
 10
37.7667594132408
 20
5.194287576906703
 30
0.0
  0
SPLINE
  5
214
330
1F
100
AcDbEntity
  8
외형선
  6
Continuous
 62
     1
370
    15
100
AcDbSpline
210
0.0
220
0.0
230
1.0
 70
     8
 71
     3
 72
    20
 73
    16
 74
     0
 42
0.000000001
 43
0.00000001
 40
0.0
 40
0.0
 40
0.0
 40
0.0
 40
0.1249999999999979
 40
0.1249999999999979
 40
0.2499999999999959
 40
0.2499999999999959
 40
0.3749999999999938
 40
0.3749999999999938
 40
0.4999999999999918
 40
0.4999999999999918
 40
0.7499999999999958
 40
0.7499999999999958
 40
0.8749999999999978
 40
0.8749999999999978
 40
1.0
 40
1.0
 40
1.0
 40
1.0
 10
60.79999999999999
 20
0.3492839320992971
 30
0.0
 10
60.79999999999999
 20
0.410007528413054
 30
0.0
 10
60.78486358340113
 20
0.4654458484116333
 30
0.0
 10
60.72405187845286
 20
0.5720124107356952
 30
0.0
 10
60.67762967815326
 20
0.623675707156778
 30
0.0
 10
60.55610483899026
 20
0.7257665611958757
 30
0.0
 10
60.48159356305548
 20
0.7761092045574216
 30
0.0
 10
60.30607093348008
 20
0.881593575585562
 30
0.0
 10
60.20420682643329
 20
0.9371037244675833
 30
0.0
 10
59.87441602466114
 20
1.110992158702174
 30
0.0
 10
59.61319030971084
 20
1.242999455669327
 30
0.0
 10
59.2078084635017
 20
1.458028353989178
 30
0.0
 10
59.06815859734315
 20
1.533434452993568
 30
0.0
 10
58.79021244163338
 20
1.685664641881417
 30
0.0
 10
58.65198038661155
 20
1.762408107450646
 30
0.0
 10
58.51400000000002
 20
1.838928782163727
 30
0.0
  0
LINE
  5
215
330
1F
100
AcDbEntity
  8
외형선
  6
Continuous
370
    15
100
AcDbLine
 10
9.999999999999993
 20
6.350883455786288
 30
0.0
 11
9.999999999999993
 21
6.351074928723897
 31
0.0
  0
SPLINE
  5
216
330
1F
100
AcDbEntity
  8
외형선
  6
Continuous
 62
     1
370
    15
100
AcDbSpline
210
0.0
220
0.0
230
1.0
 70
     8
 71
     3
 72
    16
 73
    12
 74
     0
 42
0.000000001
 43
0.00000001
 40
0.0
 40
0.0
 40
0.0
 40
0.0
 40
0.0246906866873504
 40
0.1484273147287705
 40
0.2721553778367593
 40
0.3934464088949588
 40
0.5147356602222757
 40
0.6360293982134851
 40
0.7573338808632284
 40
0.8786553460666812
 40
1.0
 40
1.0
 40
1.0
 40
1.0
 10
27.18921352884335
 20
-6.329988066910921
 30
0.0
 10
27.04773717284214
 20
-6.335886516765552
 30
0.0
 10
26.19725634641669
 20
-6.371344869304359
 30
0.0
 10
24.63786696392936
 20
-6.204459703122822
 30
0.0
 10
22.52496827074132
 20
-5.825058183962405
 30
0.0
 10
20.42620425931319
 20
-5.215620595808566
 30
0.0
 10
18.3413716940241
 20
-4.428644653474777
 30
0.0
 10
16.25645303297211
 20
-3.481472021481224
 30
0.0
 10
14.17130931830527
 20
-2.409804594871041
 30
0.0
 10
12.08582312549553
 20
-1.251672228900077
 30
0.0
 10
10.69531866651827
 20
-0.4494076531633766
 30
0.0
 10
10.00000000000004
 20
-0.0482370338283218
 30
0.0
  0
LINE
  5
217
330
1F
100
AcDbEntity
  8
외형선
  6
Continuous
370
    15
100
AcDbLine
 10
9.999999999999993
 20
-0.0482370338284213
 30
0.0
 11
9.999999999999993
 21
2.144200944504398
 31
0.0
  0
LINE
  5
218
330
1F
100
AcDbEntity
  8
외형선
  6
Continuous
 62
     1
370
    15
100
AcDbLine
 10
60.79999999999999
 20
1.724044591959917
 30
0.0
 11
60.79999999999999
 21
5.589074928724006
 31
0.0
  0
SPLINE
  5
219
330
1F
100
AcDbEntity
  8
외형선
  6
Continuous
 62
     1
370
    15
100
AcDbSpline
210
0.0
220
0.0
230
1.0
 70
     8
 71
     3
 72
    20
 73
    16
 74
     0
 42
0.000000001
 43
0.00000001
 40
0.0
 40
0.0
 40
0.0
 40
0.0
 40
0.2499999999999998
 40
0.2499999999999998
 40
0.3749999999999998
 40
0.3749999999999998
 40
0.4999999999999999
 40
0.4999999999999999
 40
0.6249999999999999
 40
0.6249999999999999
 40
0.7499999999999999
 40
0.7499999999999999
 40
0.875
 40
0.875
 40
1.0
 40
1.0
 40
1.0
 40
1.0
 10
58.51400000000002
 20
3.821995796927112
 30
0.0
 10
58.80006263157113
 20
3.689620395689907
 30
0.0
 10
59.07176141678296
 20
3.515724251328272
 30
0.0
 10
59.46308478252312
 20
3.214221491113079
 30
0.0
 10
59.58764772449434
 20
3.109265371385121
 30
0.0
 10
59.82714927354747
 20
2.893360835126956
 30
0.0
 10
59.94321349600997
 20
2.781224227775205
 30
0.0
 10
60.16097725967635
 20
2.558852264306353
 30
0.0
 10
60.26154532343546
 20
2.449947659749284
 30
0.0
 10
60.44553706125411
 20
2.240739258974799
 30
0.0
 10
60.52706334341287
 20
2.14250158082541
 30
0.0
 10
60.66129700200106
 20
1.970636211004475
 30
0.0
 10
60.71402519393562
 20
1.896866179827761
 30
0.0
 10
60.78296059582039
 20
1.78528790199978
 30
0.0
 10
60.79999999999996
 20
1.746087977076989
 30
0.0
 10
60.79999999999996
 20
1.724044591959917
 30
0.0
  0
SPLINE
  5
21A
330
1F
100
AcDbEntity
  8
외형선
  6
Continuous
 62
     1
370
    15
100
AcDbSpline
210
0.0
220
0.0
230
1.0
 70
     8
 71
     3
 72
    13
 73
     9
 74
     0
 42
0.000000001
 43
0.00000001
 40
0.0
 40
0.0
 40
0.0
 40
0.0
 40
0.198866968020582
 40
0.3976959329462491
 40
0.5964970658343609
 40
0.7952805897253228
 40
0.9940567605997679
 40
1.0
 40
1.0
 40
1.0
 40
1.0
 10
9.999999999999979
 20
-5.976341811012841
 30
0.0
 10
10.69531865482721
 20
-6.091136765302174
 30
0.0
 10
12.08582309042473
 20
-6.32070473678597
 30
0.0
 10
14.1713094585488
 20
-6.37966767959486
 30
0.0
 10
16.25645250715726
 20
-6.230895007739733
 30
0.0
 10
18.34137365685191
 20
-5.833689313635645
 30
0.0
 10
19.75203540552841
 20
-5.477162054738354
 30
0.0
 10
20.46774726075392
 20
-5.210946744283468
 30
0.0
 10
20.48852519720595
 20
-5.203218208333126
 30
0.0
  0
SPLINE
  5
21B
330
1F
100
AcDbEntity
  8
외형선
  6
Continuous
370
    15
100
AcDbSpline
210
0.0
220
0.0
230
1.0
 70
    24
 71
     3
 72
    21
 73
    17
 74
     0
 42
0.000000001
 43
0.00000001
 40
0.0
 40
0.0
 40
0.0
 40
0.0
 40
0.0232292200335757
 40
0.0987139346395998
 40
0.1741986492456237
 40
0.2496833638516471
 40
0.3251680784576707
 40
0.4006527930636944
 40
0.4761375076697182
 40
0.551622222275742
 40
0.6271069368817659
 40
0.7025916514877899
 40
0.7780763660938139
 40
0.8535610806998374
 40
0.9290457953058608
 40
1.0
 40
1.0
 40
1.0
 40
1.0
 10
10.00000000000001
 20
0.1235577272814723
 30
0.0
 10
10.00000000000001
 20
0.1281059829291493
 30
0.0
 10
10.00000000000001
 20
0.1474340623945665
 30
0.0
 10
10.00000000000001
 20
0.0677605766581451
 30
0.0
 10
10.00000000000002
 20
-0.1090654906915134
 30
0.0
 10
9.999999999999979
 20
-0.3974099678138714
 30
0.0
 10
10.00000000000002
 20
-0.7746353092599563
 30
0.0
 10
9.999999999999979
 20
-1.236444545968482
 30
0.0
 10
9.99999999999995
 20
-1.76585969038085
 30
0.0
 10
9.999999999999979
 20
-2.350586309011732
 30
0.0
 10
10.00000000000001
 20
-2.972111447891535
 30
0.0
 10
10.00000000000001
 20
-3.613882915117536
 30
0.0
 10
10.00000000000001
 20
-4.257634241466903
 30
0.0
 10
9.999999999999979
 20
-4.883290984671852
 30
0.0
 10
9.999999999999993
 20
-5.467788459074896
 30
0.0
 10
9.999999999999979
 20
-5.810356806665411
 30
0.0
 10
9.999999999999993
 20
-5.976341811012841
 30
0.0
  0
LINE
  5
21C
330
1F
100
AcDbEntity
  8
외형선
  6
Continuous
 62
     1
370
    15
100
AcDbLine
 10
60.79999999999999
 20
0.3492839320992971
 30
0.0
 11
60.79999999999999
 21
1.724044591959917
 31
0.0
  0
LINE
  5
21D
330
1F
100
AcDbEntity
  8
외형선
  6
Continuous
370
    15
100
AcDbLine
 10
9.999999999999993
 20
-6.348925071276113
 30
0.0
 11
9.999999999999979
 21
-5.976341811012841
 31
0.0
  0
LINE
  5
21E
330
1F
100
AcDbEntity
  8
외형선
  6
Continuous
 62
     1
370
    15
100
AcDbLine
 10
60.79999999999999
 20
-5.586925071276203
 30
0.0
 11
60.79999999999999
 21
-3.679614074651461
 31
0.0
  0
LINE
  5
21F
330
1F
100
AcDbEntity
  8
외형선
  6
Continuous
370
    15
100
AcDbLine
 10
9.750156423440181
 20
-6.348925071276106
 30
0.0
 11
9.750156423440181
 21
-6.348211357538666
 31
0.0
  0
SPLINE
  5
220
330
1F
100
AcDbEntity
  8
외형선
  6
Continuous
370
    15
100
AcDbSpline
210
0.0
220
0.0
230
1.0
 70
     8
 71
     3
 72
     8
 73
     4
 74
     0
 42
0.000000001
 43
0.00000001
 40
0.0
 40
0.0
 40
0.0
 40
0.0
 40
1.0
 40
1.0
 40
1.0
 40
1.0
 10
10.00000000000001
 20
6.35088345578589
 30
0.0
 10
9.916841125809547
 20
6.351257252725041
 30
0.0
 10
9.833549247357446
 20
6.351083886500199
 30
0.0
 10
9.750156423440181
 20
6.350361887260718
 30
0.0
  0
LINE
  5
221
330
1F
100
AcDbEntity
  8
외형선
  6
Continuous
370
    15
100
AcDbLine
 10
9.750156423440181
 20
2.279586637536909
 30
0.0
 11
9.750156423440181
 21
6.351074928723889
 31
0.0
  0
SPLINE
  5
222
330
1F
100
AcDbEntity
  8
외형선
  6
Continuous
370
    15
100
AcDbSpline
210
0.0
220
0.0
230
1.0
 70
     8
 71
     3
 72
     8
 73
     4
 74
     0
 42
0.000000001
 43
0.00000001
 40
0.0
 40
0.0
 40
0.0
 40
0.0
 40
1.0
 40
1.0
 40
1.0
 40
1.0
 10
10.00000000000001
 20
2.144200944504384
 30
0.0
 10
9.916841125809533
 20
2.189511249868033
 30
0.0
 10
9.833549247357446
 20
2.234660939110384
 30
0.0
 10
9.750156423440181
 20
2.279631980399252
 30
0.0
  0
SPLINE
  5
223
330
1F
100
AcDbEntity
  8
외형선
  6
Continuous
370
    15
100
AcDbSpline
210
0.0
220
0.0
230
1.0
 70
     8
 71
     3
 72
     8
 73
     4
 74
     0
 42
0.000000001
 43
0.00000001
 40
0.0
 40
0.0
 40
0.0
 40
0.0
 40
1.0
 40
1.0
 40
1.0
 40
1.0
 10
10.00000000000001
 20
-0.0482370338283005
 30
0.0
 10
9.916841125809547
 20
-0.0001039061095653
 30
0.0
 10
9.833549247357446
 20
0.0480590995781895
 30
0.0
 10
9.750156423440181
 20
0.0962333132951301
 30
0.0
  0
LINE
  5
224
330
1F
100
AcDbEntity
  8
외형선
  6
Continuous
370
    15
100
AcDbLine
 10
9.750156423440181
 20
-5.926056282309155
 30
0.0
 11
9.750156423440181
 21
0.0962781591216313
 31
0.0
  0
SPLINE
  5
225
330
1F
100
AcDbEntity
  8
외형선
  6
Continuous
370
    15
100
AcDbSpline
210
0.0
220
0.0
230
1.0
 70
     8
 71
     3
 72
     8
 73
     4
 74
     0
 42
0.000000001
 43
0.00000001
 40
0.0
 40
0.0
 40
0.0
 40
0.0
 40
1.0
 40
1.0
 40
1.0
 40
1.0
 10
10.00000000000001
 20
-5.976341811012841
 30
0.0
 10
9.916841125809533
 20
-5.960096382856186
 30
0.0
 10
9.833549247357446
 20
-5.943327043750379
 30
0.0
 10
9.750156423440181
 20
-5.926038851376891
 30
0.0
  0
LINE
  5
226
330
1F
100
AcDbEntity
  8
외형선
  6
Continuous
370
    15
100
AcDbLine
 10
9.914723373643007
 20
-6.348555576534011
 30
0.0
 11
9.750156423440181
 21
-6.348212029812927
 31
0.0
  0
LINE
  5
227
330
1F
100
AcDbEntity
  8
외형선
  6
Continuous
370
    15
100
AcDbLine
 10
-39.53
 20
0.0010749287238951
 30
0.0
 11
-39.53
 21
6.351074928723889
 31
0.0
  0
LINE
  5
228
330
1F
100
AcDbEntity
  8
외형선
  6
Continuous
370
    15
100
AcDbLine
 10
-39.53
 20
-6.348925071276106
 30
0.0
 11
-39.53
 21
0.0010749287238951
 31
0.0
  0
SPLINE
  5
229
330
1F
100
AcDbEntity
  8
외형선
  6
Continuous
370
    15
100
AcDbSpline
210
0.0
220
0.0
230
1.0
 70
    24
 71
     3
 72
    20
 73
    16
 74
     0
 42
0.000000001
 43
0.00000001
 40
0.0
 40
0.0
 40
0.0
 40
0.0
 40
0.0976436841389441
 40
0.1740407117117007
 40
0.2526532582595697
 40
0.3290502858323266
 40
0.4076628323801961
 40
0.4840598599529135
 40
0.5626724065008221
 40
0.6390694340735782
 40
0.717681980621447
 40
0.794079008194203
 40
0.8726915547420718
 40
0.9490885823148295
 40
1.0
 40
1.0
 40
1.0
 40
1.0
 10
10.00000000000001
 20
-5.976341811012844
 30
0.0
 10
10.00000000000001
 20
-5.751219538803692
 30
0.0
 10
9.999999999999979
 20
-5.349960196502728
 30
0.0
 10
9.999999999999979
 20
-4.688171040999645
 30
0.0
 10
9.999999999999993
 20
-4.058115541744328
 30
0.0
 10
10.00000000000005
 20
-3.409986728677843
 30
0.0
 10
10.00000000000001
 20
-2.775521974270603
 30
0.0
 10
9.999999999999979
 20
-2.160789758642146
 30
0.0
 10
10.00000000000006
 20
-1.594406571882999
 30
0.0
 10
10.00000000000001
 20
-1.082069578536455
 30
0.0
 10
9.99999999999995
 20
-0.6479095570127527
 30
0.0
 10
10.00000000000002
 20
-0.2949063742704396
 30
0.0
 10
9.999999999999993
 20
-0.0449653902225577
 30
0.0
 10
9.999999999999993
 20
0.1005534528234477
 30
0.0
 10
10.00000000000001
 20
0.1144416668023283
 30
0.0
 10
10.00000000000001
 20
0.1199956476191346
 30
0.0
  0
LINE
  5
22A
330
1F
100
AcDbEntity
  8
외형선
  6
Continuous
370
    15
100
AcDbLine
 10
-40.8
 20
0.0010749287238951
 30
0.0
 11
-40.8
 21
5.081074928723893
 31
0.0
  0
LINE
  5
22B
330
1F
100
AcDbEntity
  8
외형선
  6
Continuous
370
    15
100
AcDbLine
 10
-40.8
 20
-5.07892507127611
 30
0.0
 11
-40.8
 21
0.0010749287238951
 31
0.0
  0
SPLINE
  5
22C
330
1F
100
AcDbEntity
  8
외형선
  6
Continuous
370
    15
100
AcDbSpline
210
0.0
220
0.0
230
1.0
 70
    24
 71
     3
 72
    15
 73
    11
 74
     0
 42
0.000000001
 43
0.00000001
 40
0.0
 40
0.0
 40
0.0
 40
0.0
 40
0.0578654504227581
 40
0.1974140922804734
 40
0.3369627341381886
 40
0.476511375995904
 40
0.6160600178536217
 40
0.7556086597113396
 40
0.8778043298556696
 40
1.0
 40
1.0
 40
1.0
 40
1.0
 10
10.00000000000002
 20
2.21465617574593
 30
0.0
 10
10.00000000000002
 20
2.267670597591163
 30
0.0
 10
10.00000000000001
 20
2.448534893814397
 30
0.0
 10
9.99999999999995
 20
2.842840852846571
 30
0.0
 10
10.00000000000001
 20
3.381221107919743
 30
0.0
 10
9.999999999999979
 20
3.97471594514456
 30
0.0
 10
9.999999999999993
 20
4.601885162591302
 30
0.0
 10
10.00000000000002
 20
5.218294936883929
 30
0.0
 10
9.999999999999993
 20
5.808066421940637
 30
0.0
 10
9.999999999999993
 20
6.169944444504218
 30
0.0
 10
9.999999999999993
 20
6.350883455786004
 30
0.0
  0
LINE
  5
22D
330
1F
100
AcDbEntity
  8
중심선
 62
     1
100
AcDbLine
 10
-43.80000000000001
 20
0.001074928723888
 30
0.0
 11
63.79999999999999
 21
0.0010749287239022
 31
0.0
  0
CIRCLE
  5
22E
330
1F
100
AcDbEntity
  8
해칭선
100
AcDbCircle
 10
0.0
 20
0.0
 30
0.0
 40
3.000000000000001
  0
DIMENSION
  5
22F
330
1F
100
AcDbEntity
  8
치수문자_일반주서
100
AcDbDimension
  2
*D13
 10
-53.16500000000001
 20
-6.348925071276152
 30
0.0
 11
-53.16500000000003
 21
0.001074928723888
 31
0.0
 70
   160
  1
%%c<>
 71
     2
 42
12.69999999999999
 52
-270.0
  3
SLDDIMSTYLE0
100
AcDbAlignedDimension
 13
-39.53000000000001
 23
6.351074928723889
 33
0.0
 14
-39.53000000000001
 24
-6.348925071276099
 34
0.0
 50
90.0000000000002
100
AcDbRotatedDimension
1001
ACAD
1000
DSTYLE
1002
{
1070
   273
1070
     7
1002
}
  0
DIMENSION
  5
230
330
1F
100
AcDbEntity
  8
치수문자_일반주서
100
AcDbDimension
  2
*D14
 10
9.999999999999993
 20
14.60091332137048
 30
0.0
 11
35.39999999999998
 21
14.60091332137048
 31
0.0
 70
   160
  1
<>
 71
     2
 42
50.8
  3
SLDDIMSTYLE1
100
AcDbAlignedDimension
 13
60.79999999999999
 23
4.050129940695008
 33
0.0
 14
9.999999999999993
 24
6.350883455786288
 34
0.0
 50
0.000000000000004
100
AcDbRotatedDimension
1001
ACAD
1000
DSTYLE
1002
{
1070
   273
1070
     7
1002
}
  0
DIMENSION
  5
231
330
1F
100
AcDbEntity
  8
치수문자_일반주서
100
AcDbDimension
  2
*D15
 10
-40.79999999999999
 20
26.38368937861915
 30
0.0
 11
9.999999999999993
 21
26.38368937861915
 31
0.0
 70
   160
  1
<>
 71
     2
 42
101.6
  3
SLDDIMSTYLE1
100
AcDbAlignedDimension
 13
60.79999999999999
 23
4.050129940695008
 33
0.0
 14
-40.8
 24
5.081074928723893
 34
0.0
 50
0.000000000000006
100
AcDbRotatedDimension
1001
ACAD
1000
DSTYLE
1002
{
1070
   273
1070
     7
1002
}
  0
DIMENSION
  5
232
330
1F
100
AcDbEntity
  8
치수문자_일반주서
100
AcDbDimension
  2
*D16
 10
73.64047459711573
 20
-6.348925071275954
 30
0.0
 11
73.64047459711563
 21
22.99682492872406
 31
0.0
 70
   160
  1
%%c<>
 71
     2
 42
12.70000000000001
 52
-270.0
  3
SLDDIMSTYLE1
100
AcDbAlignedDimension
 13
31.06184225732488
 23
6.351074928723897
 33
0.0
 14
31.06184225732481
 24
-6.348925071276113
 34
0.0
 50
90.0000000000002
100
AcDbRotatedDimension
1001
ACAD
1000
DSTYLE
1002
{
1070
   273
1070
     7
1002
}
  0
INSERT
  5
233
330
1F
100
AcDbEntity
  8
해칭선
100
AcDbBlockReference
  2
SW_DOWELSYMBOL_0
 10
0.0
 20
0.0
 30
0.0
  0
SPLINE
  5
234
330
1F
100
AcDbEntity
  8
외형선
  6
Continuous
 62
     1
370
    15
100
AcDbSpline
210
0.0
220
0.0
230
1.0
 70
     8
 71
     3
 72
     9
 73
     5
 74
     0
 42
0.000000001
 43
0.00000001
 40
0.0
 40
0.0
 40
0.0
 40
0.0
 40
0.6036144205427451
 40
0.9566543865034148
 40
0.9566543865034148
 40
0.9566543865034148
 40
0.9566543865034148
 10
60.03799999999999
 20
6.351074928724007
 30
0.0
 10
57.81526751400532
 20
6.218857856845624
 30
0.0
 10
56.70786272881447
 20
6.009310110008556
 30
0.0
 10
55.60052062800812
 20
5.645496666117516
 30
0.0
 10
54.60226965821995
 20
5.349325857234753
 30
0.0
  0
SPLINE
  5
235
330
1F
100
AcDbEntity
  8
외형선
  6
Continuous
 62
     1
370
    15
100
AcDbSpline
210
0.0
220
0.0
230
1.0
 70
     8
 71
     3
 72
    12
 73
     8
 74
     0
 42
0.000000001
 43
0.00000001
 40
0.0
 40
0.0
 40
0.0
 40
0.0
 40
0.176284132728751
 40
0.3821702548514587
 40
0.588078862271762
 40
0.7940190851715059
 40
1.0
 40
1.0
 40
1.0
 40
1.0
 10
48.33807300104852
 20
6.336922264489523
 30
0.0
 10
48.9359963572278
 20
6.326327295673892
 30
0.0
 10
50.2322475732365
 20
6.303358229373153
 30
0.0
 10
52.22693057741981
 20
5.991001774790817
 30
0.0
 10
54.32224943916328
 20
5.466439296604733
 30
0.0
 10
56.41794725267841
 20
4.747855749547533
 30
0.0
 10
57.81526973905392
 20
4.130636105297533
 30
0.0
 10
58.51399999999999
 20
3.821995796927119
 30
0.0
  0
SPLINE
  5
236
330
1F
100
AcDbEntity
  8
외형선
  6
Continuous
 62
     1
370
    15
100
AcDbSpline
210
0.0
220
0.0
230
1.0
 70
     8
 71
     3
 72
    25
 73
    21
 74
     0
 42
0.000000001
 43
0.00000001
 40
0.0
 40
0.0
 40
0.0
 40
0.0
 40
0.055122398168407
 40
0.1102339068002729
 40
0.1653369548373925
 40
0.2204339856008808
 40
0.2755274526579209
 40
0.331456173430786
 40
0.3873855994453464
 40
0.443317227997675
 40
0.4992525536820476
 40
0.5551930665616931
 40
0.6111402503513619
 40
0.6670955806164165
 40
0.7230519273146438
 40
0.7789999886478867
 40
0.8349412058863855
 40
0.8908770618836283
 40
0.9468090460533399
 40
0.9888337499513796
 40
0.9888337499513796
 40
0.9888337499513796
 40
0.9888337499513796
 10
60.03799999999999
 20
-6.348925071276203
 30
0.0
 10
57.81526975283067
 20
-6.210906758907942
 30
0.0
 10
56.41794729400591
 20
-5.934897399956778
 30
0.0
 10
54.32224927390198
 20
-5.256921491161304
 30
0.0
 10
52.22693119701893
 20
-4.414341342759606
 30
0.0
 10
50.13188453317353
 20
-3.417637398665427
 30
0.0
 10
48.02641811878113
 20
-2.302611787784855
 30
0.0
 10
45.91033970433316
 20
-1.10667046229139
 30
0.0
 10
43.78365081501121
 20
0.1263561455507514
 30
0.0
 10
41.65685643721248
 20
1.344618969647506
 30
0.0
 10
39.52989503407975
 20
2.502681170742648
 30
0.0
 10
37.40269553240811
 20
3.557371216673026
 30
0.0
 10
35.27519610384875
 20
4.469366482209139
 30
0.0
 10
33.14741825372666
 20
5.20455822611828
 30
0.0
 10
31.01961544643023
 20
5.735639920024276
 30
0.0
 10
28.89207830699765
 20
6.351074928723897
 30
0.0
 10
27.18921352884332
 20
6.351074928723897
 30
0.0
 10
24.63786428678723
 20
5.945259885250579
 30
0.0
 10
22.68728008298063
 20
5.590792460720699
 30
0.0
 10
21.44573653904775
 20
5.225601252540557
 30
0.0
 10
20.91310020319015
 20
5.063537037245396
 30
0.0
  0
SPLINE
  5
237
330
1F
100
AcDbEntity
  8
외형선
  6
Continuous
 62
     1
370
    15
100
AcDbSpline
210
0.0
220
0.0
230
1.0
 70
     8
 71
     3
 72
    28
 73
    24
 74
     0
 42
0.000000001
 43
0.00000001
 40
0.0
 40
0.0
 40
0.0
 40
0.0
 40
0.0093092356731308
 40
0.059853602014931
 40
0.1103934913419883
 40
0.160931511194988
 40
0.2114702726147277
 40
0.2630244807683428
 40
0.3145822577029599
 40
0.3661449762564342
 40
0.4177140032198509
 40
0.4692906670557542
 40
0.5208663940143389
 40
0.5724346121191974
 40
0.6239966814437292
 40
0.6755539695728708
 40
0.7271078499431457
 40
0.7786597001674819
 40
0.8302109003491327
 40
0.880992221818881
 40
0.9317768280650734
 40
0.9825669806150817
 40
0.9896686946674245
 40
0.9896686946674245
 40
0.9896686946674245
 40
0.9896686946674245
 10
13.78735297837395
 20
6.333953756122355
 30
0.0
 10
13.91536830702152
 20
6.339335757098375
 30
0.0
 10
14.73844109212646
 20
6.37393925794138
 30
0.0
 10
16.25644899052325
 20
6.216091705821377
 30
0.0
 10
18.34137282154965
 20
5.852565699117946
 30
0.0
 10
20.4262037913451
 20
5.258973099119068
 30
0.0
 10
22.52496902322071
 20
4.477215315721537
 30
0.0
 10
24.63786437345214
 20
3.524405610550794
 30
0.0
 10
26.76484495691339
 20
2.43431007533691
 30
0.0
 10
28.89207831322005
 20
1.253337327432213
 30
0.0
 10
31.0196154447688
 20
0.0256248607158938
 30
0.0
 10
33.14741825414865
 20
-1.202965852075515
 30
0.0
 10
35.27519610382242
 20
-2.386670862839303
 30
0.0
 10
37.40269553209161
 20
-3.481348570076477
 30
0.0
 10
39.529895035372
 20
-4.446102508847659
 30
0.0
 10
41.65685643236076
 20
-5.245019289714811
 30
0.0
 10
43.7836508331244
 20
-5.84824821362621
 30
0.0
 10
45.91033963673481
 20
-6.233636566487462
 30
0.0
 10
48.02641836946666
 20
-6.384882351568542
 30
0.0
 10
50.13188361311726
 20
-6.304823730605701
 30
0.0
 10
52.22693463284457
 20
-5.984290563274765
 30
0.0
 10
53.72136241631311
 20
-5.635060098249923
 30
0.0
 10
54.51747215923752
 20
-5.367608237531591
 30
0.0
 10
54.61513283613646
 20
-5.334073280848603
 30
0.0
  0
LINE
  5
238
330
1F
100
AcDbEntity
  8
0
100
AcDbLine
 10
60.79999999999999
 20
4.065074928724002
 30
0.0
 11
60.79999999999999
 21
6.35107492872401
 31
0.0
  0
LINE
  5
239
330
1F
100
AcDbEntity
  8
0
100
AcDbLine
 10
60.79999999999999
 20
6.35107492872401
 30
0.0
 11
58.51399999999996
 21
6.351074928724003
 31
0.0
  0
ARC
  5
27A
330
1F
100
AcDbEntity
  8
외형선
  6
Continuous
 62
     1
370
    15
100
AcDbCircle
 10
60.03799999999999
 20
5.589074928724006
 30
0.0
 40
0.7620000000000002
100
AcDbArc
 50
0.0
 51
90.0
  0
ARC
  5
27B
102
{ACAD_REACTORS
102
}
330
1F
100
AcDbEntity
  8
외형선
  6
Continuous
 62
     1
370
    15
100
AcDbCircle
 10
60.03799999999999
 20
-5.586925071276203
 30
0.0
 40
0.7620000000000002
100
AcDbArc
 50
270.0
 51
0.0
  0
DIMENSION
  5
27C
102
{ACAD_REACTORS
102
}
102
{ACAD_XDICTIONARY
360
27D
102
}
330
1F
100
AcDbEntity
  8
치수문자_일반주서
100
AcDbDimension
  2
*D18
 10
60.03799999999999
 20
-5.586925071276203
 30
0.0
 11
67.97267105777509
 21
-25.66035098135459
 31
0.0
 70
   164
  1
<>
 71
     5
 42
0.7619999999999993
  3
SLDDIMSTYLE1
100
AcDbRadialDimension
 15
60.31811532892549
 25
-6.295571247093839
 35
0.0
 40
0.0
1001
ACAD
1000
DSTYLE
1002
{
1070
   285
1070
     4
1070
    78
1070
     0
1070
   273
1070
     2
1002
}
1001
ACAD_DSTYLE_DIMRADIAL_EXTENSION
1070
   387
1070
     1
1070
   388
1040
4.71238898038469
1070
   390
1040
0.0
  0
ENDSEC
  0
SECTION
  2
OBJECTS
  0
DICTIONARY
  5
C
330
0
100
AcDbDictionary
281
     1
  3
ACAD_GROUP
350
D
  3
ACAD_IMAGE_VARS
350
154
  3
ACAD_LAYOUT
350
1A
  3
ACAD_MLINESTYLE
350
17
  3
ACAD_PLOTSETTINGS
350
19
  3
ACAD_PLOTSTYLENAME
350
E
  3
ACAD_SCALELIST
350
47
  3
APPDATA
350
152
  3
DWGPROPS
350
28A
  0
DICTIONARY
  5
27D
330
27C
100
AcDbDictionary
280
     1
281
     1
  0
DICTIONARY
  5
D
102
{ACAD_REACTORS
330
C
102
}
330
C
100
AcDbDictionary
281
     1
  0
RASTERVARIABLES
  5
154
102
{ACAD_REACTORS
330
C
102
}
330
C
100
AcDbRasterVariables
 90
        0
 70
     1
 71
     1
 72
     1
  0
DICTIONARY
  5
1A
102
{ACAD_REACTORS
330
C
102
}
330
C
100
AcDbDictionary
281
     1
  3
Layout1
350
1E
  3
Layout2
350
26
  3
Model
350
22
  0
DICTIONARY
  5
17
102
{ACAD_REACTORS
330
C
102
}
330
C
100
AcDbDictionary
281
     1
  3
Standard
350
18
  0
DICTIONARY
  5
19
102
{ACAD_REACTORS
330
C
102
}
330
C
100
AcDbDictionary
281
     1
  0
ACDBDICTIONARYWDFLT
  5
E
102
{ACAD_REACTORS
330
C
102
}
330
C
100
AcDbDictionary
281
     1
  3
Normal
350
F
100
AcDbDictionaryWithDefault
340
F
  0
DICTIONARY
  5
47
102
{ACAD_REACTORS
330
C
102
}
330
C
100
AcDbDictionary
281
     1
  3
A0
350
48
  3
A1
350
49
  3
A2
350
4A
  3
A3
350
4B
  3
A4
350
4C
  3
A5
350
4D
  3
A6
350
4E
  3
A7
350
4F
  3
A8
350
50
  3
A9
350
51
  3
B0
350
52
  3
B1
350
53
  3
B2
350
54
  3
B3
350
55
  3
B4
350
56
  3
B5
350
57
  3
B6
350
58
  3
B7
350
59
  3
B8
350
5A
  3
B9
350
5B
  3
C0
350
5C
  3
C1
350
5D
  3
C2
350
5E
  3
C3
350
5F
  3
C4
350
60
  3
C5
350
61
  3
C6
350
62
  3
C7
350
63
  3
C8
350
64
  3
C9
350
65
  3
D0
350
66
  3
D1
350
67
  3
D2
350
68
  0
DICTIONARY
  5
152
102
{ACAD_REACTORS
330
C
102
}
330
C
100
AcDbDictionary
281
     1
  0
XRECORD
  5
28A
102
{ACAD_REACTORS
330
C
102
}
330
C
100
AcDbXrecord
280
     1
  1
DWGPROPS COOKIE
  2

  3

  4

  6

  7

  8
12016016
  9

300
=
301
=
302
=
303
=
304
=
305
=
306
=
307
=
308
=
309
=
 40
0.0
 41
2458304.075138727
 42
2458304.187313275
  1

 90
        0
  0
LAYOUT
  5
1E
102
{ACAD_REACTORS
330
1A
102
}
330
1A
100
AcDbPlotSettings
  1

  2
none_device
  4

  6

 40
0.0
 41
0.0
 42
0.0
 43
0.0
 44
0.0
 45
0.0
 46
0.0
 47
0.0
 48
0.0
 49
0.0
140
0.0
141
0.0
142
1.0
143
1.0
 70
   688
 72
     1
 73
     0
 74
     5
  7

 75
    16
147
1.0
148
0.0
149
0.0
100
AcDbLayout
  1
Layout1
 70
     1
 71
     1
 10
0.0
 20
0.0
 11
420.0
 21
297.0
 12
0.0
 22
0.0
 32
0.0
 14
1.000000000000000E+20
 24
1.000000000000000E+20
 34
1.000000000000000E+20
 15
-1.000000000000000E+20
 25
-1.000000000000000E+20
 35
-1.000000000000000E+20
146
0.0
 13
0.0
 23
0.0
 33
0.0
 16
1.0
 26
0.0
 36
0.0
 17
0.0
 27
1.0
 37
0.0
 76
     0
330
1B
  0
LAYOUT
  5
26
102
{ACAD_REACTORS
330
1A
102
}
330
1A
100
AcDbPlotSettings
  1

  2
none_device
  4

  6

 40
0.0
 41
0.0
 42
0.0
 43
0.0
 44
0.0
 45
0.0
 46
0.0
 47
0.0
 48
0.0
 49
0.0
140
0.0
141
0.0
142
1.0
143
1.0
 70
   688
 72
     1
 73
     0
 74
     5
  7

 75
    16
147
1.0
148
0.0
149
0.0
100
AcDbLayout
  1
Layout2
 70
     1
 71
     2
 10
0.0
 20
0.0
 11
0.0
 21
0.0
 12
0.0
 22
0.0
 32
0.0
 14
0.0
 24
0.0
 34
0.0
 15
0.0
 25
0.0
 35
0.0
146
0.0
 13
0.0
 23
0.0
 33
0.0
 16
1.0
 26
0.0
 36
0.0
 17
0.0
 27
1.0
 37
0.0
 76
     0
330
23
  0
LAYOUT
  5
22
102
{ACAD_REACTORS
330
1A
102
}
330
1A
100
AcDbPlotSettings
  1

  2
none_device
  4
ANSI_A_(11.00_x_8.50_Inches)
  6

 40
6.35
 41
19.05
 42
6.35000508
 43
19.05000254
 44
279.4
 45
215.9
 46
102.2917721862972
 47
99.51941634322347
 48
0.0
 49
0.0
140
0.0
141
0.0
142
0.0694642160134762
143
1.0
 70
  1696
 72
     0
 73
     0
 74
     0
  7

 75
     0
147
0.0235690232323232
148
0.0
149
0.0
100
AcDbLayout
  1
Model
 70
     1
 71
     0
 10
0.0
 20
0.0
 11
420.0
 21
297.0
 12
0.0
 22
0.0
 32
0.0
 14
1.000000000000000E+20
 24
1.000000000000000E+20
 34
1.000000000000000E+20
 15
-1.000000000000000E+20
 25
-1.000000000000000E+20
 35
-1.000000000000000E+20
146
0.0
 13
0.0
 23
0.0
 33
0.0
 16
1.0
 26
0.0
 36
0.0
 17
0.0
 27
1.0
 37
0.0
 76
     0
330
1F
331
29
  0
MLINESTYLE
  5
18
102
{ACAD_REACTORS
330
17
102
}
330
17
100
AcDbMlineStyle
  2
Standard
 70
     0
  3

 62
   256
 51
90.0
 52
90.0
 71
     2
 49
0.5
 62
   256
  6
BYLAYER
 49
-0.5
 62
   256
  6
BYLAYER
  0
ACDBPLACEHOLDER
  5
F
102
{ACAD_REACTORS
330
E
102
}
330
E
  0
SCALE
  5
48
102
{ACAD_REACTORS
330
47
102
}
330
47
100
AcDbScale
 70
     0
300
1:1
140
1.0
141
1.0
290
     1
  0
SCALE
  5
49
102
{ACAD_REACTORS
330
47
102
}
330
47
100
AcDbScale
 70
     0
300
1:2
140
1.0
141
2.0
290
     0
  0
SCALE
  5
4A
102
{ACAD_REACTORS
330
47
102
}
330
47
100
AcDbScale
 70
     0
300
1:4
140
1.0
141
4.0
290
     0
  0
SCALE
  5
4B
102
{ACAD_REACTORS
330
47
102
}
330
47
100
AcDbScale
 70
     0
300
1:5
140
1.0
141
5.0
290
     0
  0
SCALE
  5
4C
102
{ACAD_REACTORS
330
47
102
}
330
47
100
AcDbScale
 70
     0
300
1:8
140
1.0
141
8.0
290
     0
  0
SCALE
  5
4D
102
{ACAD_REACTORS
330
47
102
}
330
47
100
AcDbScale
 70
     0
300
1:10
140
1.0
141
10.0
290
     0
  0
SCALE
  5
4E
102
{ACAD_REACTORS
330
47
102
}
330
47
100
AcDbScale
 70
     0
300
1:16
140
1.0
141
16.0
290
     0
  0
SCALE
  5
4F
102
{ACAD_REACTORS
330
47
102
}
330
47
100
AcDbScale
 70
     0
300
1:20
140
1.0
141
20.0
290
     0
  0
SCALE
  5
50
102
{ACAD_REACTORS
330
47
102
}
330
47
100
AcDbScale
 70
     0
300
1:30
140
1.0
141
30.0
290
     0
  0
SCALE
  5
51
102
{ACAD_REACTORS
330
47
102
}
330
47
100
AcDbScale
 70
     0
300
1:40
140
1.0
141
40.0
290
     0
  0
SCALE
  5
52
102
{ACAD_REACTORS
330
47
102
}
330
47
100
AcDbScale
 70
     0
300
1:50
140
1.0
141
50.0
290
     0
  0
SCALE
  5
53
102
{ACAD_REACTORS
330
47
102
}
330
47
100
AcDbScale
 70
     0
300
1:100
140
1.0
141
100.0
290
     0
  0
SCALE
  5
54
102
{ACAD_REACTORS
330
47
102
}
330
47
100
AcDbScale
 70
     0
300
2:1
140
2.0
141
1.0
290
     0
  0
SCALE
  5
55
102
{ACAD_REACTORS
330
47
102
}
330
47
100
AcDbScale
 70
     0
300
4:1
140
4.0
141
1.0
290
     0
  0
SCALE
  5
56
102
{ACAD_REACTORS
330
47
102
}
330
47
100
AcDbScale
 70
     0
300
8:1
140
8.0
141
1.0
290
     0
  0
SCALE
  5
57
102
{ACAD_REACTORS
330
47
102
}
330
47
100
AcDbScale
 70
     0
300
10:1
140
10.0
141
1.0
290
     0
  0
SCALE
  5
58
102
{ACAD_REACTORS
330
47
102
}
330
47
100
AcDbScale
 70
     0
300
100:1
140
100.0
141
1.0
290
     0
  0
SCALE
  5
59
102
{ACAD_REACTORS
330
47
102
}
330
47
100
AcDbScale
 70
     0
300
1/128" = 1'-0"
140
0.0078125
141
12.0
290
     0
  0
SCALE
  5
5A
102
{ACAD_REACTORS
330
47
102
}
330
47
100
AcDbScale
 70
     0
300
1/64" = 1'-0"
140
0.015625
141
12.0
290
     0
  0
SCALE
  5
5B
102
{ACAD_REACTORS
330
47
102
}
330
47
100
AcDbScale
 70
     0
300
1/32" = 1'-0"
140
0.03125
141
12.0
290
     0
  0
SCALE
  5
5C
102
{ACAD_REACTORS
330
47
102
}
330
47
100
AcDbScale
 70
     0
300
1/16" = 1'-0"
140
0.0625
141
12.0
290
     0
  0
SCALE
  5
5D
102
{ACAD_REACTORS
330
47
102
}
330
47
100
AcDbScale
 70
     0
300
3/32" = 1'-0"
140
0.09375
141
12.0
290
     0
  0
SCALE
  5
5E
102
{ACAD_REACTORS
330
47
102
}
330
47
100
AcDbScale
 70
     0
300
1/8" = 1'-0"
140
0.125
141
12.0
290
     0
  0
SCALE
  5
5F
102
{ACAD_REACTORS
330
47
102
}
330
47
100
AcDbScale
 70
     0
300
3/16" = 1'-0"
140
0.1875
141
12.0
290
     0
  0
SCALE
  5
60
102
{ACAD_REACTORS
330
47
102
}
330
47
100
AcDbScale
 70
     0
300
1/4" = 1'-0"
140
0.25
141
12.0
290
     0
  0
SCALE
  5
61
102
{ACAD_REACTORS
330
47
102
}
330
47
100
AcDbScale
 70
     0
300
3/8" = 1'-0"
140
0.375
141
12.0
290
     0
  0
SCALE
  5
62
102
{ACAD_REACTORS
330
47
102
}
330
47
100
AcDbScale
 70
     0
300
1/2" = 1'-0"
140
0.5
141
12.0
290
     0
  0
SCALE
  5
63
102
{ACAD_REACTORS
330
47
102
}
330
47
100
AcDbScale
 70
     0
300
3/4" = 1'-0"
140
0.75
141
12.0
290
     0
  0
SCALE
  5
64
102
{ACAD_REACTORS
330
47
102
}
330
47
100
AcDbScale
 70
     0
300
1" = 1'-0"
140
1.0
141
12.0
290
     0
  0
SCALE
  5
65
102
{ACAD_REACTORS
330
47
102
}
330
47
100
AcDbScale
 70
     0
300
1-1/2" = 1'-0"
140
1.5
141
12.0
290
     0
  0
SCALE
  5
66
102
{ACAD_REACTORS
330
47
102
}
330
47
100
AcDbScale
 70
     0
300
3" = 1'-0"
140
3.0
141
12.0
290
     0
  0
SCALE
  5
67
102
{ACAD_REACTORS
330
47
102
}
330
47
100
AcDbScale
 70
     0
300
6" = 1'-0"
140
6.0
141
12.0
290
     0
  0
SCALE
  5
68
102
{ACAD_REACTORS
330
47
102
}
330
47
100
AcDbScale
 70
     0
300
1'-0" = 1'-0"
140
12.0
141
12.0
290
     0
  0
ENDSEC
  0
EOF
