  0
SECTION
  2
HEADER
  9
$ACADVER
  1
AC1015
  9
$ACADMAINTVER
 70
     6
  9
$DWGCODEPAGE
  3
ANSI_949
  9
$INSBASE
 10
0.0
 20
0.0
 30
0.0
  9
$EXTMIN
 10
-45.46000000000009
 20
-50.28867796974447
 30
0.0
  9
$EXTMAX
 10
86.47629082238856
 20
41.99964524059784
 30
0.0
  9
$LIMMIN
 10
0.0
 20
0.0
  9
$LIMMAX
 10
420.0
 20
297.0
  9
$ORTHOMODE
 70
     1
  9
$REGENMODE
 70
     1
  9
$FILLMODE
 70
     1
  9
$QTEXTMODE
 70
     0
  9
$MIRRTEXT
 70
     1
  9
$LTSCALE
 40
1.0
  9
$ATTMODE
 70
     1
  9
$TEXTSIZE
 40
3.5
  9
$TRACEWID
 40
1.0
  9
$TEXTSTYLE
  7
Standard
  9
$CLAYER
  8
0
  9
$CELTYPE
  6
ByLayer
  9
$CECOLOR
 62
   256
  9
$CELTSCALE
 40
1.0
  9
$DISPSILH
 70
     0
  9
$DIMSCALE
 40
1.0
  9
$DIMASZ
 40
3.302
  9
$DIMEXO
 40
1.0
  9
$DIMDLI
 40
3.75
  9
$DIMRND
 40
0.0
  9
$DIMDLE
 40
0.0
  9
$DIMEXE
 40
1.0
  9
$DIMTP
 40
0.0
  9
$DIMTM
 40
0.0
  9
$DIMTXT
 40
3.5
  9
$DIMCEN
 40
2.5
  9
$DIMTSZ
 40
0.0
  9
$DIMTOL
 70
     0
  9
$DIMLIM
 70
     0
  9
$DIMTIH
 70
     1
  9
$DIMTOH
 70
     1
  9
$DIMSE1
 70
     0
  9
$DIMSE2
 70
     0
  9
$DIMTAD
 70
     1
  9
$DIMZIN
 70
     0
  9
$DIMBLK
  1

  9
$DIMASO
 70
     1
  9
$DIMSHO
 70
     1
  9
$DIMPOST
  1

  9
$DIMAPOST
  1

  9
$DIMALT
 70
     0
  9
$DIMALTD
 70
     3
  9
$DIMALTF
 40
0.0393700787401575
  9
$DIMLFAC
 40
1.0
  9
$DIMTOFL
 70
     1
  9
$DIMTVP
 40
0.0
  9
$DIMTIX
 70
     0
  9
$DIMSOXD
 70
     0
  9
$DIMSAH
 70
     0
  9
$DIMBLK1
  1

  9
$DIMBLK2
  1

  9
$DIMSTYLE
  2
ISO-25
  9
$DIMCLRD
 70
     0
  9
$DIMCLRE
 70
     0
  9
$DIMCLRT
 70
     0
  9
$DIMTFAC
 40
1.0
  9
$DIMGAP
 40
1.524
  9
$DIMJUST
 70
     0
  9
$DIMSD1
 70
     0
  9
$DIMSD2
 70
     0
  9
$DIMTOLJ
 70
     0
  9
$DIMTZIN
 70
     0
  9
$DIMALTZ
 70
     0
  9
$DIMALTTZ
 70
     0
  9
$DIMUPT
 70
     0
  9
$DIMDEC
 70
     2
  9
$DIMTDEC
 70
     2
  9
$DIMALTU
 70
     2
  9
$DIMALTTD
 70
     3
  9
$DIMTXSTY
  7
Standard
  9
$DIMAUNIT
 70
     0
  9
$DIMADEC
 70
     2
  9
$DIMALTRND
 40
0.0
  9
$DIMAZIN
 70
     0
  9
$DIMDSEP
 70
    44
  9
$DIMATFIT
 70
     3
  9
$DIMFRAC
 70
     0
  9
$DIMLDRBLK
  1

  9
$DIMLUNIT
 70
     2
  9
$DIMLWD
 70
    -2
  9
$DIMLWE
 70
    -2
  9
$DIMTMOVE
 70
     0
  9
$LUNITS
 70
     2
  9
$LUPREC
 70
     2
  9
$SKETCHINC
 40
1.0
  9
$FILLETRAD
 40
10.0
  9
$AUNITS
 70
     0
  9
$AUPREC
 70
     2
  9
$MENU
  1
.
  9
$ELEVATION
 40
0.0
  9
$PELEVATION
 40
0.0
  9
$THICKNESS
 40
0.0
  9
$LIMCHECK
 70
     0
  9
$CHAMFERA
 40
0.0
  9
$CHAMFERB
 40
0.0
  9
$CHAMFERC
 40
0.0
  9
$CHAMFERD
 40
0.0
  9
$SKPOLY
 70
     0
  9
$TDCREATE
 40
2458299.350895254
  9
$TDUCREATE
 40
2458298.975895254
  9
$TDUPDATE
 40
2458304.370823299
  9
$TDUUPDATE
 40
2458303.995823299
  9
$TDINDWG
 40
0.0143750347
  9
$TDUSRTIMER
 40
2458303.975189386
  9
$USRTIMER
 70
     1
  9
$ANGBASE
 50
0.0
  9
$ANGDIR
 70
     0
  9
$PDMODE
 70
     0
  9
$PDSIZE
 40
-1.0
  9
$PLINEWID
 40
0.0
  9
$SPLFRAME
 70
     0
  9
$SPLINETYPE
 70
     6
  9
$SPLINESEGS
 70
     8
  9
$HANDSEED
  5
281
  9
$SURFTAB1
 70
     6
  9
$SURFTAB2
 70
     6
  9
$SURFTYPE
 70
     6
  9
$SURFU
 70
     6
  9
$SURFV
 70
     6
  9
$UCSBASE
  2

  9
$UCSNAME
  2

  9
$UCSORG
 10
0.0
 20
0.0
 30
0.0
  9
$UCSXDIR
 10
1.0
 20
0.0
 30
0.0
  9
$UCSYDIR
 10
0.0
 20
1.0
 30
0.0
  9
$UCSORTHOREF
  2

  9
$UCSORTHOVIEW
 70
     0
  9
$UCSORGTOP
 10
0.0
 20
0.0
 30
0.0
  9
$UCSORGBOTTOM
 10
0.0
 20
0.0
 30
0.0
  9
$UCSORGLEFT
 10
0.0
 20
0.0
 30
0.0
  9
$UCSORGRIGHT
 10
0.0
 20
0.0
 30
0.0
  9
$UCSORGFRONT
 10
0.0
 20
0.0
 30
0.0
  9
$UCSORGBACK
 10
0.0
 20
0.0
 30
0.0
  9
$PUCSBASE
  2

  9
$PUCSNAME
  2

  9
$PUCSORG
 10
0.0
 20
0.0
 30
0.0
  9
$PUCSXDIR
 10
1.0
 20
0.0
 30
0.0
  9
$PUCSYDIR
 10
0.0
 20
1.0
 30
0.0
  9
$PUCSORTHOREF
  2

  9
$PUCSORTHOVIEW
 70
     0
  9
$PUCSORGTOP
 10
0.0
 20
0.0
 30
0.0
  9
$PUCSORGBOTTOM
 10
0.0
 20
0.0
 30
0.0
  9
$PUCSORGLEFT
 10
0.0
 20
0.0
 30
0.0
  9
$PUCSORGRIGHT
 10
0.0
 20
0.0
 30
0.0
  9
$PUCSORGFRONT
 10
0.0
 20
0.0
 30
0.0
  9
$PUCSORGBACK
 10
0.0
 20
0.0
 30
0.0
  9
$USERI1
 70
     0
  9
$USERI2
 70
     0
  9
$USERI3
 70
     0
  9
$USERI4
 70
     0
  9
$USERI5
 70
     0
  9
$USERR1
 40
0.0
  9
$USERR2
 40
0.0
  9
$USERR3
 40
0.0
  9
$USERR4
 40
0.0
  9
$USERR5
 40
0.0
  9
$WORLDVIEW
 70
     1
  9
$SHADEDGE
 70
     3
  9
$SHADEDIF
 70
    70
  9
$TILEMODE
 70
     1
  9
$MAXACTVP
 70
    64
  9
$PINSBASE
 10
0.0
 20
0.0
 30
0.0
  9
$PLIMCHECK
 70
     0
  9
$PEXTMIN
 10
1.000000000000000E+20
 20
1.000000000000000E+20
 30
1.000000000000000E+20
  9
$PEXTMAX
 10
-1.000000000000000E+20
 20
-1.000000000000000E+20
 30
-1.000000000000000E+20
  9
$PLIMMIN
 10
0.0
 20
0.0
  9
$PLIMMAX
 10
0.0
 20
0.0
  9
$UNITMODE
 70
     0
  9
$VISRETAIN
 70
     1
  9
$PLINEGEN
 70
     0
  9
$PSLTSCALE
 70
     1
  9
$TREEDEPTH
 70
  3020
  9
$CMLSTYLE
  2
Standard
  9
$CMLJUST
 70
     0
  9
$CMLSCALE
 40
20.0
  9
$PROXYGRAPHICS
 70
     1
  9
$MEASUREMENT
 70
     1
  9
$CELWEIGHT
370
    -1
  9
$ENDCAPS
280
     0
  9
$JOINSTYLE
280
     0
  9
$LWDISPLAY
290
     1
  9
$INSUNITS
 70
     4
  9
$HYPERLINKBASE
  1

  9
$STYLESHEET
  1

  9
$XEDIT
290
     1
  9
$CEPSNTYPE
380
     0
  9
$PSTYLEMODE
290
     1
  9
$FINGERPRINTGUID
  2
{5EF76DE8-C6DD-4A4F-9B81-46A72B4BA541}
  9
$VERSIONGUID
  2
{FAEB1C32-E019-11D5-929B-00C0DF256EC4}
  9
$EXTNAMES
290
     1
  9
$PSVPSCALE
 40
0.0
  9
$OLESTARTUP
290
     0
  0
ENDSEC
  0
SECTION
  2
CLASSES
  0
CLASS
  1
ACDBDICTIONARYWDFLT
  2
AcDbDictionaryWithDefault
  3
ObjectDBX Classes
 90
        0
280
     0
281
     0
  0
CLASS
  1
VISUALSTYLE
  2
AcDbVisualStyle
  3
ObjectDBX Classes
 90
     4095
280
     0
281
     0
  0
CLASS
  1
MATERIAL
  2
AcDbMaterial
  3
ObjectDBX Classes
 90
     1153
280
     0
281
     0
  0
CLASS
  1
SCALE
  2
AcDbScale
  3
ObjectDBX Classes
 90
     1153
280
     0
281
     0
  0
CLASS
  1
SUN
  2
AcDbSun
  3
SCENEOE
 90
     1153
280
     0
281
     0
  0
CLASS
  1
ACDBPLACEHOLDER
  2
AcDbPlaceHolder
  3
ObjectDBX Classes
 90
        0
280
     0
281
     0
  0
CLASS
  1
LAYOUT
  2
AcDbLayout
  3
ObjectDBX Classes
 90
        0
280
     0
281
     0
  0
CLASS
  1
TABLESTYLE
  2
AcDbTableStyle
  3
ObjectDBX Classes
 90
     4095
280
     0
281
     0
  0
CLASS
  1
MLEADERSTYLE
  2
AcDbMLeaderStyle
  3
ACDB_MLEADERSTYLE_CLASS
 90
     4095
280
     0
281
     0
  0
CLASS
  1
RASTERVARIABLES
  2
AcDbRasterVariables
  3
ISM
 90
        0
280
     0
281
     0
  0
CLASS
  1
DICTIONARYVAR
  2
AcDbDictionaryVar
  3
ObjectDBX Classes
 90
        0
280
     0
281
     0
  0
ENDSEC
  0
SECTION
  2
TABLES
  0
TABLE
  2
VPORT
  5
8
330
0
100
AcDbSymbolTable
 70
     1
  0
VPORT
  5
29
330
8
100
AcDbSymbolTableRecord
100
AcDbViewportTableRecord
  2
*Active
 70
     0
 10
0.0
 20
0.0
 11
1.0
 21
1.0
 12
31.44631539649147
 22
-8.805970454156625
 13
0.0
 23
0.0
 14
10.0
 24
10.0
 15
10.0
 25
10.0
 16
0.0
 26
0.0
 36
1.0
 17
0.0
 27
0.0
 37
0.0
 40
160.6864516014247
 41
2.22554347826087
 42
50.0
 43
0.0
 44
0.0
 50
0.0
 51
0.0
 71
    16
 72
  2000
 73
     1
 74
     3
 75
     0
 76
     0
 77
     0
 78
     0
281
     0
 65
     1
110
0.0
120
0.0
130
0.0
111
1.0
121
0.0
131
0.0
112
0.0
122
1.0
132
0.0
 79
     0
146
0.0
  0
ENDTAB
  0
TABLE
  2
LTYPE
  5
5
330
0
100
AcDbSymbolTable
 70
     6
  0
LTYPE
  5
14
330
5
100
AcDbSymbolTableRecord
100
AcDbLinetypeTableRecord
  2
ByBlock
 70
     0
  3

 72
    65
 73
     0
 40
0.0
  0
LTYPE
  5
15
330
5
100
AcDbSymbolTableRecord
100
AcDbLinetypeTableRecord
  2
ByLayer
 70
     0
  3

 72
    65
 73
     0
 40
0.0
  0
LTYPE
  5
16
330
5
100
AcDbSymbolTableRecord
100
AcDbLinetypeTableRecord
  2
Continuous
 70
     0
  3
Solid line
 72
    65
 73
     0
 40
0.0
  0
LTYPE
  5
6A
330
5
100
AcDbSymbolTableRecord
100
AcDbLinetypeTableRecord
  2
HIDDEN
 70
     0
  3
Hidden __ __ __ __ __ __ __ __ __ __ __ __ __ __
 72
    65
 73
     2
 40
1.905
 49
1.27
 74
     0
 49
-0.635
 74
     0
  0
LTYPE
  5
6B
330
5
100
AcDbSymbolTableRecord
100
AcDbLinetypeTableRecord
  2
PHANTOM
 70
     0
  3
Phantom ______  __  __  ______  __  __  ______
 72
    65
 73
     6
 40
12.7
 49
6.35
 74
     0
 49
-1.27
 74
     0
 49
1.27
 74
     0
 49
-1.27
 74
     0
 49
1.27
 74
     0
 49
-1.27
 74
     0
  0
LTYPE
  5
6C
330
5
100
AcDbSymbolTableRecord
100
AcDbLinetypeTableRecord
  2
CENTER
 70
     0
  3
Center ____ _ ____ _ ____ _ ____ _ ____ _ ____
 72
    65
 73
     4
 40
10.16
 49
6.35
 74
     0
 49
-1.27
 74
     0
 49
1.27
 74
     0
 49
-1.27
 74
     0
  0
LTYPE
  5
6D
330
5
100
AcDbSymbolTableRecord
100
AcDbLinetypeTableRecord
  2
CENTERX2
 70
     0
  3
Center (2x) ________  __  ________  __  _____
 72
    65
 73
     4
 40
20.32
 49
12.7
 74
     0
 49
-2.54
 74
     0
 49
2.54
 74
     0
 49
-2.54
 74
     0
  0
LTYPE
  5
6E
330
5
100
AcDbSymbolTableRecord
100
AcDbLinetypeTableRecord
  2
DOT2
 70
     0
  3
Dot (.5x) ........................................
 72
    65
 73
     2
 40
0.635
 49
0.0
 74
     0
 49
-0.635
 74
     0
  0
ENDTAB
  0
TABLE
  2
LAYER
  5
2
330
0
100
AcDbSymbolTable
 70
    18
  0
LAYER
  5
10
330
2
100
AcDbSymbolTableRecord
100
AcDbLayerTableRecord
  2
0
 70
     0
 62
     7
  6
Continuous
370
    -3
390
F
  0
LAYER
  5
6F
330
2
100
AcDbSymbolTableRecord
100
AcDbLayerTableRecord
  2
FORMAT
 70
     0
 62
     2
  6
Continuous
370
    -3
390
F
  0
LAYER
  5
70
330
2
100
AcDbSymbolTableRecord
100
AcDbLayerTableRecord
  2
외형선
 70
     0
 62
     4
  6
Continuous
370
    30
390
F
  0
LAYER
  5
71
330
2
100
AcDbSymbolTableRecord
100
AcDbLayerTableRecord
  2
숨은선
 70
     0
 62
     2
  6
HIDDEN
370
    15
390
F
  0
LAYER
  5
72
330
2
100
AcDbSymbolTableRecord
100
AcDbLayerTableRecord
  2
중심선
 70
     0
 62
     1
  6
CENTERX2
370
    -3
390
F
  0
LAYER
  5
73
330
2
100
AcDbSymbolTableRecord
100
AcDbLayerTableRecord
  2
파단선
 70
     0
 62
     4
  6
Continuous
370
    -3
390
F
  0
LAYER
  5
74
330
2
100
AcDbSymbolTableRecord
100
AcDbLayerTableRecord
  2
해칭선
 70
     0
 62
   100
  6
Continuous
370
    -3
390
F
  0
LAYER
  5
75
330
2
100
AcDbSymbolTableRecord
100
AcDbLayerTableRecord
  2
가는실선
 70
     0
 62
     4
  6
Continuous
370
    -3
390
F
  0
LAYER
  5
76
330
2
100
AcDbSymbolTableRecord
100
AcDbLayerTableRecord
  2
치수_보조선
 70
     0
 62
     4
  6
Continuous
370
    -3
390
F
  0
LAYER
  5
77
330
2
100
AcDbSymbolTableRecord
100
AcDbLayerTableRecord
  2
치수문자_일반주서
 70
     0
 62
     7
  6
Continuous
370
    15
390
F
  0
LAYER
  5
78
330
2
100
AcDbSymbolTableRecord
100
AcDbLayerTableRecord
  2
개별주서
 70
     0
 62
   100
  6
Continuous
370
    30
390
F
  0
LAYER
  5
79
330
2
100
AcDbSymbolTableRecord
100
AcDbLayerTableRecord
  2
중간선
 70
     0
 62
     2
  6
Continuous
370
    15
390
F
  0
LAYER
  5
7A
330
2
100
AcDbSymbolTableRecord
100
AcDbLayerTableRecord
  2
윤곽선
 70
     0
 62
     3
  6
Continuous
370
    40
390
F
  0
LAYER
  5
7B
330
2
100
AcDbSymbolTableRecord
100
AcDbLayerTableRecord
  2
중심마크
 70
     0
 62
   100
  6
Continuous
370
    30
390
F
  0
LAYER
  5
7C
330
2
100
AcDbSymbolTableRecord
100
AcDbLayerTableRecord
  2
가상선
 70
     0
 62
     4
  6
PHANTOM
370
    -3
390
F
  0
LAYER
  5
7D
330
2
100
AcDbSymbolTableRecord
100
AcDbLayerTableRecord
  2
특수지정선
 70
     0
 62
     5
  6
CENTERX2
370
    60
390
F
  0
LAYER
  5
7E
330
2
100
AcDbSymbolTableRecord
100
AcDbLayerTableRecord
  2
참조1
 70
     0
 62
    -4
  6
Continuous
370
    -3
390
F
  0
LAYER
  5
24B
330
2
100
AcDbSymbolTableRecord
100
AcDbLayerTableRecord
  2
Defpoints
 70
     0
 62
     7
  6
Continuous
290
     0
370
    -3
390
F
  0
ENDTAB
  0
TABLE
  2
STYLE
  5
3
330
0
100
AcDbSymbolTable
 70
     2
  0
STYLE
  5
11
330
3
100
AcDbSymbolTableRecord
100
AcDbTextStyleTableRecord
  2
Standard
 70
     0
 40
0.0
 41
1.0
 50
0.0
 71
     0
 42
3.5
  3
txt
  4

  0
STYLE
  5
94
330
3
100
AcDbSymbolTableRecord
100
AcDbTextStyleTableRecord
  2
SLDTEXTSTYLE0
 70
     0
 40
0.0
 41
0.75
 50
0.0
 71
     0
 42
3.5
  3
TXT
  4

  0
ENDTAB
  0
TABLE
  2
VIEW
  5
6
330
0
100
AcDbSymbolTable
 70
     0
  0
ENDTAB
  0
TABLE
  2
UCS
  5
7
330
0
100
AcDbSymbolTable
 70
     0
  0
ENDTAB
  0
TABLE
  2
APPID
  5
9
330
0
100
AcDbSymbolTable
 70
     1
  0
APPID
  5
12
330
9
100
AcDbSymbolTableRecord
100
AcDbRegAppTableRecord
  2
ACAD
 70
     0
  0
ENDTAB
  0
TABLE
  2
DIMSTYLE
  5
A
330
0
100
AcDbSymbolTable
 70
     4
100
AcDbDimStyleTable
  0
DIMSTYLE
105
27
330
A
100
AcDbSymbolTableRecord
100
AcDbDimStyleTableRecord
  2
ISO-25
 70
     0
 41
2.5
 42
0.625
 43
3.75
 44
1.25
 73
     0
 74
     0
 77
     1
 78
     8
140
2.5
141
2.5
143
0.03937007874016
147
0.625
171
     3
172
     1
178
     0
271
     2
272
     2
274
     3
278
    44
283
     0
284
     8
340
11
  0
DIMSTYLE
105
1CA
102
{ACAD_REACTORS
330
1C9
330
1F1
102
}
330
A
100
AcDbSymbolTableRecord
100
AcDbDimStyleTableRecord
  2
SLDDIMSTYLE0
 70
     0
 41
3.302
 44
0.0
 45
0.000000001
 73
     0
 74
     0
 77
     1
 78
    12
 79
     3
140
3.5
143
0.0393700787401575
147
0.875
148
0.000000001
170
     1
173
     1
178
     0
271
     2
272
     2
276
     2
284
    12
340
94
  0
DIMSTYLE
105
1DD
102
{ACAD_REACTORS
330
1DC
102
}
330
A
100
AcDbSymbolTableRecord
100
AcDbDimStyleTableRecord
  2
SLDDIMSTYLE1
 70
     0
 41
3.302
 44
0.0
 45
0.000000001
 73
     0
 74
     0
 77
     1
 78
    12
 79
     3
140
3.5
143
0.0393700787401575
147
0.875
148
0.000000001
170
     1
172
     1
173
     1
178
     0
271
     2
272
     2
276
     2
284
    12
289
     0
340
94
  0
DIMSTYLE
105
206
102
{ACAD_REACTORS
330
205
102
}
330
A
100
AcDbSymbolTableRecord
100
AcDbDimStyleTableRecord
  2
SLDDIMSTYLE2
 70
     0
 41
3.302
 44
0.0
 45
0.000000001
 73
     0
 74
     0
 77
     1
 78
     4
 79
     1
140
3.5
143
0.0393700787401575
147
0.875
148
0.000000001
170
     1
173
     1
178
     0
271
     2
272
     2
276
     2
284
    12
340
94
  0
ENDTAB
  0
TABLE
  2
BLOCK_RECORD
  5
1
330
0
100
AcDbSymbolTable
 70
     7
  0
BLOCK_RECORD
  5
1F
330
1
100
AcDbSymbolTableRecord
100
AcDbBlockTableRecord
  2
*Model_Space
340
22
  0
BLOCK_RECORD
  5
1B
330
1
100
AcDbSymbolTableRecord
100
AcDbBlockTableRecord
  2
*Paper_Space
340
1E
  0
BLOCK_RECORD
  5
23
330
1
100
AcDbSymbolTableRecord
100
AcDbBlockTableRecord
  2
*Paper_Space0
340
26
  0
BLOCK_RECORD
  5
7F
330
1
100
AcDbSymbolTableRecord
100
AcDbBlockTableRecord
  2
블럭10
340
0
102
{BLKREFS
331
1C1
102
}
  0
BLOCK_RECORD
  5
1CB
330
1
100
AcDbSymbolTableRecord
100
AcDbBlockTableRecord
  2
_D
340
0
  0
BLOCK_RECORD
  5
1DE
330
1
100
AcDbSymbolTableRecord
100
AcDbBlockTableRecord
  2
_D_1
340
0
  0
BLOCK_RECORD
  5
1F2
330
1
100
AcDbSymbolTableRecord
100
AcDbBlockTableRecord
  2
_D_2
340
0
  0
BLOCK_RECORD
  5
207
330
1
100
AcDbSymbolTableRecord
100
AcDbBlockTableRecord
  2
_D_3
340
0
  0
BLOCK_RECORD
  5
220
330
1
100
AcDbSymbolTableRecord
100
AcDbBlockTableRecord
  2
SW_DOWELSYMBOL_0
340
0
102
{BLKREFS
331
226
102
}
  0
ENDTAB
  0
ENDSEC
  0
SECTION
  2
BLOCKS
  0
BLOCK
  5
20
330
1F
100
AcDbEntity
  8
0
100
AcDbBlockBegin
  2
*Model_Space
 70
     0
 10
0.0
 20
0.0
 30
0.0
  3
*Model_Space
  1
*Model_Space
  0
ENDBLK
  5
21
330
1F
100
AcDbEntity
  8
0
100
AcDbBlockEnd
  0
BLOCK
  5
1C
330
1B
100
AcDbEntity
 67
     1
  8
0
100
AcDbBlockBegin
  2
*Paper_Space
 70
     0
 10
0.0
 20
0.0
 30
0.0
  3
*Paper_Space
  1
*Paper_Space
  0
ENDBLK
  5
1D
330
1B
100
AcDbEntity
 67
     1
  8
0
100
AcDbBlockEnd
  0
BLOCK
  5
24
330
23
100
AcDbEntity
  8
0
100
AcDbBlockBegin
  2
*Paper_Space0
 70
     0
 10
0.0
 20
0.0
 30
0.0
  3
*Paper_Space0
  1
*Paper_Space0
  0
ENDBLK
  5
25
330
23
100
AcDbEntity
  8
0
100
AcDbBlockEnd
  0
BLOCK
  5
80
330
7F
100
AcDbEntity
  8
0
100
AcDbBlockBegin
  2
블럭10
 70
     2
 10
0.0
 20
0.0
 30
0.0
  3
블럭10
  1
블럭10
  0
ELLIPSE
  5
82
330
7F
100
AcDbEntity
  8
중심선
100
AcDbEllipse
 10
20.54032771741204
 20
12.0471743016438
 30
0.0
 11
6.600054785286829
 21
-1.261213355974178E-13
 31
0.0
210
0.0
220
0.0
230
1.0
 40
0.636358354079598
 41
0.9219305317359503
 42
6.513795318482858
  0
ELLIPSE
  5
83
330
7F
100
AcDbEntity
  8
중심선
100
AcDbEllipse
 10
20.54032771746488
 20
12.04717430159265
 30
0.0
 11
3.960054785062283
 21
1.540847449632565E-10
 31
0.0
210
0.0
220
0.0
230
1.0
 40
0.3939339440162632
 41
1.131841032648279
 42
5.62031148352944
  0
LINE
  5
84
330
7F
100
AcDbEntity
  8
중심선
100
AcDbLine
 10
2.268634060543552
 20
16.24717430164393
 30
0.0
 11
5.714909304380834
 21
16.24717430164393
 31
0.0
  0
LINE
  5
85
330
7F
100
AcDbEntity
  8
중심선
100
AcDbLine
 10
5.245725140726316
 20
7.84717430164391
 30
0.0
 11
8.692000384563599
 21
7.84717430164391
 31
0.0
  0
LINE
  5
86
330
7F
100
AcDbEntity
  8
중심선
100
AcDbLine
 10
15.74043728645272
 20
16.24717430164393
 30
0.0
 11
8.692000384563599
 21
7.84717430164391
 31
0.0
  0
LINE
  5
87
330
7F
100
AcDbEntity
  8
중심선
100
AcDbLine
 10
0.1404042013395286
 20
13.71084872107135
 30
0.0
 11
3.58671253028996
 21
13.71088815037384
 31
0.0
  0
LINE
  5
88
330
7F
100
AcDbEntity
  8
중심선
100
AcDbLine
 10
2.750260043222114
 20
10.84717430164391
 30
0.0
 11
6.196535287059397
 21
10.84717430164391
 31
0.0
  0
LINE
  5
89
330
7F
100
AcDbEntity
  8
중심선
100
AcDbLine
 10
12.29416204261559
 20
16.24717430164393
 30
0.0
 11
5.245725140726316
 21
7.84717430164391
 31
0.0
  0
LINE
  5
8A
330
7F
100
AcDbEntity
  8
중심선
100
AcDbLine
 10
10.72767329541681
 20
16.24717430164393
 30
0.0
 11
6.196535287059397
 21
10.84717430164391
 31
0.0
  0
LINE
  5
8B
330
7F
100
AcDbEntity
  8
중심선
100
AcDbLine
 10
7.28139805157953
 20
16.24717430164393
 30
0.0
 11
2.750260043222114
 21
10.84717430164391
 31
0.0
  0
LINE
  5
8C
330
7F
100
AcDbEntity
  8
중심선
100
AcDbLine
 10
5.714909304380834
 20
16.24717430164393
 30
0.0
 11
3.58671253028996
 21
13.71088815037384
 31
0.0
  0
LINE
  5
8D
330
7F
100
AcDbEntity
  8
중심선
100
AcDbLine
 10
2.268634060543552
 20
16.24717430164393
 30
0.0
 11
0.1404042013395286
 21
13.71084872107135
 31
0.0
  0
LINE
  5
8E
330
7F
100
AcDbEntity
  8
중심선
100
AcDbLine
 10
7.28139805157953
 20
16.24717430164393
 30
0.0
 11
10.72767329541681
 21
16.24717430164393
 31
0.0
  0
LINE
  5
8F
330
7F
100
AcDbEntity
  8
중심선
100
AcDbLine
 10
12.29416204261559
 20
16.24717430164393
 30
0.0
 11
15.74043728645272
 21
16.24717430164393
 31
0.0
  0
LINE
  5
90
330
7F
100
AcDbEntity
  8
중심선
100
AcDbLine
 10
19.22036997980202
 20
11.08717430171403
 30
0.0
 11
23.66174974927406
 21
11.08717430171406
 31
0.0
  0
LINE
  5
91
330
7F
100
AcDbEntity
  8
중심선
100
AcDbLine
 10
19.22039502424796
 20
13.00717430171391
 30
0.0
 11
19.22036997980202
 21
11.08717430171403
 31
0.0
  0
LINE
  5
92
330
7F
100
AcDbEntity
  8
중심선
100
AcDbLine
 10
19.22039502424796
 20
13.00717430171391
 30
0.0
 11
26.96566020931264
 21
13.00717430171391
 31
0.0
  0
LINE
  5
93
330
7F
100
AcDbEntity
  8
중심선
100
AcDbLine
 10
22.22332737316547
 20
13.45928029700563
 30
0.0
 11
24.52862924686651
 21
15.39360700705356
 31
0.0
  0
ATTDEF
  5
95
330
7F
100
AcDbEntity
  8
FORMAT
 62
     2
100
AcDbText
 10
-10.14163601213663
 20
2.075366912832191
 30
0.0
 40
4.233333333333333
  1
EM156024 [ 3 FLUTE ]
 41
0.75
  7
SLDTEXTSTYLE0
 11
-10.14163601213663
 21
-0.0412997538344756
 31
0.0
100
AcDbAttributeDefinition
  3

  2
AUTOATTR0
 70
     0
 74
     1
  0
ENDBLK
  5
81
330
7F
100
AcDbEntity
  8
0
100
AcDbBlockEnd
  0
BLOCK
  5
1CC
330
1CB
100
AcDbEntity
  8
0
100
AcDbBlockBegin
  2
_D
 70
     0
 10
0.0
 20
0.0
 30
0.0
  3
_D
  1
_D
  0
LINE
  5
1CE
330
1CB
100
AcDbEntity
  8
치수문자_일반주서
 62
     0
370
    -2
100
AcDbLine
 10
32.28749999999999
 20
4.762500000000014
 30
0.0
 11
46.32001004574684
 21
4.762500000000067
 31
0.0
  0
LINE
  5
1CF
330
1CB
100
AcDbEntity
  8
치수문자_일반주서
 62
     0
370
    -2
100
AcDbLine
 10
22.28796134786837
 20
-4.762500000000002
 30
0.0
 11
46.32001004574688
 21
-4.76249999999991
 31
0.0
  0
LINE
  5
1D0
330
1CB
100
AcDbEntity
  8
치수문자_일반주서
 62
     0
370
    -2
100
AcDbLine
 10
46.32001004574684
 20
4.762500000000067
 30
0.0
 11
46.32001004574673
 21
34.53325000000014
 31
0.0
  0
LINE
  5
1D1
330
1CB
100
AcDbEntity
  8
치수문자_일반주서
 62
     0
370
    -2
100
AcDbLine
 10
46.32001004574686
 20
1.460500000000067
 30
0.0
 11
46.32001004574686
 21
-1.46049999999991
 31
0.0
  0
SOLID
  5
1D2
330
1CB
100
AcDbEntity
  8
치수문자_일반주서
 62
     0
100
AcDbTrace
 10
46.87034337908019
 20
1.460500000000069
 30
0.0
 11
45.76967671241352
 21
1.460500000000065
 31
0.0
 12
46.32001004574684
 22
4.762500000000067
 32
0.0
 13
46.32001004574684
 23
4.762500000000067
 33
0.0
  0
SOLID
  5
1D3
330
1CB
100
AcDbEntity
  8
치수문자_일반주서
 62
     0
100
AcDbTrace
 10
45.76967671241353
 20
-1.460499999999912
 30
0.0
 11
46.8703433790802
 21
-1.460499999999908
 31
0.0
 12
46.32001004574688
 22
-4.76249999999991
 32
0.0
 13
46.32001004574688
 23
-4.76249999999991
 33
0.0
  0
MTEXT
  5
1D4
330
1CB
100
AcDbEntity
  8
치수문자_일반주서
 62
     0
100
AcDbMText
 10
41.94501004574678
 20
21.40825000000012
 30
0.0
 40
3.5
 41
0.0
 71
     2
 72
     1
  1
\A1;%%c9.53 [3/8]
  7
SLDTEXTSTYLE0
 11
-3.729883127349615E-15
 21
1.0
 31
0.0
 73
     1
 44
1.0
  0
POINT
  5
1D5
330
1CB
100
AcDbEntity
  8
Defpoints
 62
     0
100
AcDbPoint
 10
32.22499999999999
 20
4.762500000000014
 30
0.0
  0
POINT
  5
1D6
330
1CB
100
AcDbEntity
  8
Defpoints
 62
     0
100
AcDbPoint
 10
22.22546134786837
 20
-4.762500000000002
 30
0.0
  0
POINT
  5
1D7
330
1CB
100
AcDbEntity
  8
Defpoints
 62
     0
100
AcDbPoint
 10
46.32001004574688
 20
-4.762499999999912
 30
0.0
  0
ENDBLK
  5
1CD
330
1CB
100
AcDbEntity
  8
0
100
AcDbBlockEnd
  0
BLOCK
  5
1DF
330
1DE
100
AcDbEntity
  8
0
100
AcDbBlockBegin
  2
_D_1
 70
     0
 10
0.0
 20
0.0
 30
0.0
  3
_D_1
  1
_D_1
  0
LINE
  5
1E1
330
1DE
100
AcDbEntity
  8
치수문자_일반주서
 62
     0
370
    -2
100
AcDbLine
 10
-30.33750000000001
 20
4.762500000000001
 30
0.0
 11
-41.08500000000006
 21
4.762499999999959
 31
0.0
  0
LINE
  5
1E2
330
1DE
100
AcDbEntity
  8
치수문자_일반주서
 62
     0
370
    -2
100
AcDbLine
 10
-30.33750000000001
 20
-4.762500000000005
 30
0.0
 11
-41.08500000000003
 21
-4.762500000000046
 31
0.0
  0
LINE
  5
1E3
330
1DE
100
AcDbEntity
  8
치수문자_일반주서
 62
     0
370
    -2
100
AcDbLine
 10
-41.08500000000005
 20
1.46049999999996
 30
0.0
 11
-41.08500000000004
 21
-1.460500000000047
 31
0.0
  0
SOLID
  5
1E4
330
1DE
100
AcDbEntity
  8
치수문자_일반주서
 62
     0
100
AcDbTrace
 10
-40.53466666666672
 20
1.460499999999962
 30
0.0
 11
-41.63533333333339
 21
1.460499999999958
 31
0.0
 12
-41.08500000000006
 22
4.762499999999959
 32
0.0
 13
-41.08500000000006
 23
4.762499999999959
 33
0.0
  0
SOLID
  5
1E5
330
1DE
100
AcDbEntity
  8
치수문자_일반주서
 62
     0
100
AcDbTrace
 10
-41.63533333333338
 20
-1.460500000000049
 30
0.0
 11
-40.53466666666671
 21
-1.460500000000045
 31
0.0
 12
-41.08500000000003
 22
-4.762500000000046
 32
0.0
 13
-41.08500000000003
 23
-4.762500000000046
 33
0.0
  0
MTEXT
  5
1E6
330
1DE
100
AcDbEntity
  8
치수문자_일반주서
 62
     0
100
AcDbMText
 10
-45.46000000000004
 20
-0.7630082607154781
 30
0.0
 40
3.5
 41
0.0
 71
     2
 72
     1
  1
\A1;%%c9.53 [3/8]
  7
SLDTEXTSTYLE0
 11
-3.729883127349606E-15
 21
1.0
 31
0.0
 73
     1
 44
1.0
  0
POINT
  5
1E7
330
1DE
100
AcDbEntity
  8
Defpoints
 62
     0
100
AcDbPoint
 10
-30.27500000000001
 20
4.762500000000001
 30
0.0
  0
POINT
  5
1E8
330
1DE
100
AcDbEntity
  8
Defpoints
 62
     0
100
AcDbPoint
 10
-30.27500000000001
 20
-4.762500000000005
 30
0.0
  0
POINT
  5
1E9
330
1DE
100
AcDbEntity
  8
Defpoints
 62
     0
100
AcDbPoint
 10
-41.08500000000003
 20
-4.762500000000045
 30
0.0
  0
ENDBLK
  5
1E0
330
1DE
100
AcDbEntity
  8
0
100
AcDbBlockEnd
  0
BLOCK
  5
1F3
330
1F2
100
AcDbEntity
  8
0
100
AcDbBlockBegin
  2
_D_2
 70
     0
 10
0.0
 20
0.0
 30
0.0
  3
_D_2
  1
_D_2
  0
LINE
  5
1F5
330
1F2
100
AcDbEntity
  8
치수문자_일반주서
 62
     0
370
    -2
100
AcDbLine
 10
32.22499999999999
 20
3.146237631391747
 30
0.0
 11
32.22499999999999
 21
20.4114527940199
 31
0.0
  0
LINE
  5
1F6
330
1F2
100
AcDbEntity
  8
치수문자_일반주서
 62
     0
370
    -2
100
AcDbLine
 10
9.999999999999988
 20
4.824999999999998
 30
0.0
 11
9.999999999999988
 21
20.4114527940199
 31
0.0
  0
LINE
  5
1F7
330
1F2
100
AcDbEntity
  8
치수문자_일반주서
 62
     0
370
    -2
100
AcDbLine
 10
28.92299999999999
 20
20.4114527940199
 30
0.0
 11
13.30199999999999
 21
20.4114527940199
 31
0.0
  0
SOLID
  5
1F8
330
1F2
100
AcDbEntity
  8
치수문자_일반주서
 62
     0
100
AcDbTrace
 10
28.92299999999999
 20
19.86111946068656
 30
0.0
 11
28.92299999999999
 21
20.96178612735323
 31
0.0
 12
32.22499999999999
 22
20.4114527940199
 32
0.0
 13
32.22499999999999
 23
20.4114527940199
 33
0.0
  0
SOLID
  5
1F9
330
1F2
100
AcDbEntity
  8
치수문자_일반주서
 62
     0
100
AcDbTrace
 10
13.30199999999999
 20
20.96178612735323
 30
0.0
 11
13.30199999999999
 21
19.86111946068656
 31
0.0
 12
9.999999999999988
 22
20.4114527940199
 32
0.0
 13
9.999999999999988
 23
20.4114527940199
 33
0.0
  0
MTEXT
  5
1FA
330
1F2
100
AcDbEntity
  8
치수문자_일반주서
 62
     0
100
AcDbMText
 10
21.11249999999999
 20
24.7864527940199
 30
0.0
 40
3.5
 41
0.0
 71
     2
 72
     1
  1
\A1;22.23 [7/8]
  7
SLDTEXTSTYLE0
 73
     1
 44
1.0
  0
POINT
  5
1FB
330
1F2
100
AcDbEntity
  8
Defpoints
 62
     0
100
AcDbPoint
 10
32.22499999999999
 20
3.083737631391747
 30
0.0
  0
POINT
  5
1FC
330
1F2
100
AcDbEntity
  8
Defpoints
 62
     0
100
AcDbPoint
 10
9.999999999999988
 20
4.762499999999998
 30
0.0
  0
POINT
  5
1FD
330
1F2
100
AcDbEntity
  8
Defpoints
 62
     0
100
AcDbPoint
 10
9.999999999999988
 20
20.4114527940199
 30
0.0
  0
ENDBLK
  5
1F4
330
1F2
100
AcDbEntity
  8
0
100
AcDbBlockEnd
  0
BLOCK
  5
208
330
207
100
AcDbEntity
  8
0
100
AcDbBlockBegin
  2
_D_3
 70
     0
 10
0.0
 20
0.0
 30
0.0
  3
_D_3
  1
_D_3
  0
LINE
  5
20A
330
207
100
AcDbEntity
  8
치수문자_일반주서
 62
     0
370
    -2
100
AcDbLine
 10
32.22499999999999
 20
3.689765076973852
 30
0.0
 11
32.22499999999999
 21
37.62464524059784
 31
0.0
  0
LINE
  5
20B
330
207
100
AcDbEntity
  8
치수문자_일반주서
 62
     0
370
    -2
100
AcDbLine
 10
-31.27500000000001
 20
3.824999999999993
 30
0.0
 11
-31.27500000000001
 21
37.62464524059784
 31
0.0
  0
LINE
  5
20C
330
207
100
AcDbEntity
  8
치수문자_일반주서
 62
     0
370
    -2
100
AcDbLine
 10
28.92299999999999
 20
37.62464524059784
 30
0.0
 11
-27.97300000000001
 21
37.62464524059784
 31
0.0
  0
SOLID
  5
20D
330
207
100
AcDbEntity
  8
치수문자_일반주서
 62
     0
100
AcDbTrace
 10
28.92299999999999
 20
37.07431190726451
 30
0.0
 11
28.92299999999999
 21
38.17497857393118
 31
0.0
 12
32.22499999999999
 22
37.62464524059784
 32
0.0
 13
32.22499999999999
 23
37.62464524059784
 33
0.0
  0
SOLID
  5
20E
330
207
100
AcDbEntity
  8
치수문자_일반주서
 62
     0
100
AcDbTrace
 10
-27.97300000000001
 20
38.17497857393118
 30
0.0
 11
-27.97300000000001
 21
37.07431190726451
 31
0.0
 12
-31.27500000000001
 22
37.62464524059784
 32
0.0
 13
-31.27500000000001
 23
37.62464524059784
 33
0.0
  0
MTEXT
  5
20F
330
207
100
AcDbEntity
  8
치수문자_일반주서
 62
     0
100
AcDbMText
 10
3.251286725697506
 20
41.99964524059784
 30
0.0
 40
3.5
 41
0.0
 71
     2
 72
     1
  1
\A1;63.50 [2 1/2]
  7
SLDTEXTSTYLE0
 73
     1
 44
1.0
  0
POINT
  5
210
330
207
100
AcDbEntity
  8
Defpoints
 62
     0
100
AcDbPoint
 10
32.22499999999999
 20
3.627265076973852
 30
0.0
  0
POINT
  5
211
330
207
100
AcDbEntity
  8
Defpoints
 62
     0
100
AcDbPoint
 10
-31.27500000000001
 20
3.762499999999993
 30
0.0
  0
POINT
  5
212
330
207
100
AcDbEntity
  8
Defpoints
 62
     0
100
AcDbPoint
 10
-31.27500000000001
 20
37.62464524059784
 30
0.0
  0
ENDBLK
  5
209
330
207
100
AcDbEntity
  8
0
100
AcDbBlockEnd
  0
BLOCK
  5
221
330
220
100
AcDbEntity
  8
0
100
AcDbBlockBegin
  2
SW_DOWELSYMBOL_0
 70
     0
 10
0.0
 20
0.0
 30
0.0
  3
SW_DOWELSYMBOL_0
  1
SW_DOWELSYMBOL_0
  0
CIRCLE
  5
223
330
220
100
AcDbEntity
  8
해칭선
 62
     0
100
AcDbCircle
 10
0.0
 20
0.0
 30
0.0
 40
3.000000000000004
  0
HATCH
  5
224
330
220
100
AcDbEntity
  8
0
  6
Continuous
 62
     0
370
     0
100
AcDbHatch
 10
0.0
 20
0.0
 30
0.0
210
0.0
220
0.0
230
1.0
  2
SOLID
 70
     1
 71
     0
 91
        1
 92
        0
 93
        3
 72
     2
 10
0.0000000000000104
 20
-0.0000000000000035
 40
3.000000000000004
 50
0.0
 51
90.0
 73
     1
 72
     1
 10
0.0000000000000104
 20
3.000000000000001
 11
0.0000000000000104
 21
-0.0000000000000036
 72
     1
 10
0.0000000000000104
 20
-0.0000000000000035
 11
3.000000000000015
 21
-0.0000000000000035
 97
        0
 75
     0
 76
     1
 98
        1
 10
0.0
 20
0.0
  0
HATCH
  5
225
330
220
100
AcDbEntity
  8
0
  6
Continuous
 62
     0
370
     0
100
AcDbHatch
 10
0.0
 20
0.0
 30
0.0
210
0.0
220
0.0
230
1.0
  2
SOLID
 70
     1
 71
     0
 91
        1
 92
        0
 93
        3
 72
     2
 10
0.0000000000000104
 20
-0.0000000000000035
 40
3.000000000000004
 50
180.0
 51
270.0000000000007
 73
     1
 72
     1
 10
0.0000000000000104
 20
-3.000000000000008
 11
0.0000000000000104
 21
-0.0000000000000036
 72
     1
 10
0.0000000000000104
 20
-0.0000000000000035
 11
-2.999999999999994
 21
-0.0000000000000035
 97
        0
 75
     0
 76
     1
 98
        1
 10
0.0
 20
0.0
  0
ENDBLK
  5
222
330
220
100
AcDbEntity
  8
0
100
AcDbBlockEnd
  0
ENDSEC
  0
SECTION
  2
ENTITIES
  0
LINE
  5
96
330
1F
100
AcDbEntity
  8
외형선
  6
Continuous
370
    15
100
AcDbLine
 10
9.999999999999988
 20
4.762499999999998
 30
0.0
 11
-30.275
 21
4.762499999999993
 31
0.0
  0
LINE
  5
97
330
1F
100
AcDbEntity
  8
외형선
  6
Continuous
370
    15
100
AcDbLine
 10
-30.275
 20
-4.762500000000007
 30
0.0
 11
6.979899219133116
 21
-4.762500000000002
 31
0.0
  0
LINE
  5
98
330
1F
100
AcDbEntity
  8
외형선
  6
Continuous
370
    15
100
AcDbLine
 10
-30.275
 20
4.762499999999991
 30
0.0
 11
-31.27500000000001
 21
3.762499999999993
 31
0.0
  0
LINE
  5
99
330
1F
100
AcDbEntity
  8
외형선
  6
Continuous
370
    15
100
AcDbLine
 10
-31.27500000000001
 20
-3.762500000000007
 30
0.0
 11
-30.275
 21
-4.762500000000007
 31
0.0
  0
SPLINE
  5
9A
330
1F
100
AcDbEntity
  8
외형선
  6
Continuous
 62
     1
370
    15
100
AcDbSpline
210
0.0
220
0.0
230
1.0
 70
     8
 71
     3
 72
     9
 73
     5
 74
     0
 42
0.000000001
 43
0.00000001
 40
0.0
 40
0.0
 40
0.0
 40
0.0
 40
0.2525306192613339
 40
0.9999999999999999
 40
0.9999999999999999
 40
0.9999999999999999
 40
0.9999999999999999
 10
17.36215977680137
 20
-4.627084101978346
 30
0.0
 10
17.37763206595264
 20
-4.630487184381813
 30
0.0
 10
17.43890102888686
 20
-4.643963104305589
 30
0.0
 10
17.48360681676055
 20
-4.677394440214073
 30
0.0
 10
17.51702302433793
 20
-4.702383340162855
 30
0.0
  0
LINE
  5
9B
330
1F
100
AcDbEntity
  8
외형선
  6
Continuous
 62
     1
370
    15
100
AcDbLine
 10
17.70204771732507
 20
-4.762500000000002
 30
0.0
 11
18.76235147547708
 21
-4.762500000000002
 31
0.0
  0
SPLINE
  5
9C
330
1F
100
AcDbEntity
  8
외형선
  6
Continuous
 62
     1
370
    15
100
AcDbSpline
210
0.0
220
0.0
230
1.0
 70
     8
 71
     3
 72
     9
 73
     5
 74
     0
 42
0.000000001
 43
0.00000001
 40
0.0
 40
0.0
 40
0.0
 40
0.0
 40
0.4985632956629031
 40
1.0
 40
1.0
 40
1.0
 40
1.0
 10
17.51702327363788
 20
-4.702383535533735
 30
0.0
 10
17.54344003392136
 20
-4.719723897951364
 30
0.0
 10
17.5964258042604
 20
-4.754504561847956
 30
0.0
 10
17.65783406432858
 20
-4.759829753465392
 30
0.0
 10
17.68862641987624
 20
-4.762500000000003
 30
0.0
  0
SPLINE
  5
9D
330
1F
100
AcDbEntity
  8
외형선
  6
Continuous
 62
     1
370
    15
100
AcDbSpline
210
0.0
220
0.0
230
1.0
 70
     8
 71
     3
 72
     9
 73
     5
 74
     0
 42
0.000000001
 43
0.00000001
 40
0.0
 40
0.0
 40
0.0
 40
0.0
 40
0.3387778426989599
 40
1.0
 40
1.0
 40
1.0
 40
1.0
 10
12.31825338241452
 20
4.630734206587805
 30
0.0
 10
12.27336982831352
 20
4.617731840379797
 30
0.0
 10
12.14088314103957
 20
4.579351626064652
 30
0.0
 10
12.02251015027588
 20
4.647037597004785
 30
0.0
 10
11.94423930595693
 20
4.691793060728838
 30
0.0
  0
SPLINE
  5
9E
330
1F
100
AcDbEntity
  8
외형선
  6
Continuous
 62
     1
370
    15
100
AcDbSpline
210
0.0
220
0.0
230
1.0
 70
     8
 71
     3
 72
     9
 73
     5
 74
     0
 42
0.000000001
 43
0.00000001
 40
0.0
 40
0.0
 40
0.0
 40
0.0
 40
0.4982034550349541
 40
1.0
 40
1.0
 40
1.0
 40
1.0
 10
11.93209490667022
 20
4.703836999028429
 30
0.0
 10
11.90656827394823
 20
4.72045851604409
 30
0.0
 10
11.85533090804078
 20
4.753821426011251
 30
0.0
 10
11.79570762176086
 20
4.759438961839813
 30
0.0
 10
11.76578886270613
 20
4.762257821909805
 30
0.0
  0
LINE
  5
9F
330
1F
100
AcDbEntity
  8
외형선
  6
Continuous
 62
     1
370
    15
100
AcDbLine
 10
11.76237633920036
 20
4.762499999999998
 30
0.0
 11
10.68859517748226
 21
4.762499999999998
 31
0.0
  0
SPLINE
  5
A0
330
1F
100
AcDbEntity
  8
외형선
  6
Continuous
 62
     1
370
    15
100
AcDbSpline
210
0.0
220
0.0
230
1.0
 70
     8
 71
     3
 72
     9
 73
     5
 74
     0
 42
0.000000001
 43
0.00000001
 40
0.0
 40
0.0
 40
0.0
 40
0.0
 40
0.5016424317447656
 40
1.0
 40
1.0
 40
1.0
 40
1.0
 10
18.7638494517369
 20
-4.762461391596565
 30
0.0
 10
18.79351191135235
 20
-4.759870094759187
 30
0.0
 10
18.85264259436154
 20
-4.754704469458383
 30
0.0
 10
18.90333907784989
 20
-4.722206349838655
 30
0.0
 10
18.92860405408023
 20
-4.706010665972098
 30
0.0
  0
SPLINE
  5
A1
330
1F
100
AcDbEntity
  8
외형선
  6
Continuous
 62
     1
370
    15
100
AcDbSpline
210
0.0
220
0.0
230
1.0
 70
     8
 71
     3
 72
    11
 73
     7
 74
     0
 42
0.000000001
 43
0.00000001
 40
0.0
 40
0.0
 40
0.0
 40
0.0
 40
0.2445955317804439
 40
0.4999465975032778
 40
0.7553203505911168
 40
1.0
 40
1.0
 40
1.0
 40
1.0
 10
18.92217142029797
 20
-4.708528973286271
 30
0.0
 10
18.96581566132639
 20
-4.679562484793366
 30
0.0
 10
19.05502329992855
 20
-4.620355772151354
 30
0.0
 10
19.22064517886325
 20
-4.59311206408923
 30
0.0
 10
19.38626287899958
 20
-4.61815699034482
 30
0.0
 10
19.47541656858574
 20
-4.675710902386482
 30
0.0
 10
19.51904009639804
 20
-4.70387243663493
 30
0.0
  0
SPLINE
  5
A2
330
1F
100
AcDbEntity
  8
외형선
  6
Continuous
 62
     1
370
    15
100
AcDbSpline
210
0.0
220
0.0
230
1.0
 70
     8
 71
     3
 72
     9
 73
     5
 74
     0
 42
0.000000001
 43
0.00000001
 40
0.0
 40
0.0
 40
0.0
 40
0.0
 40
0.5014253380596964
 40
1.0
 40
1.0
 40
1.0
 40
1.0
 10
10.68862492825791
 20
4.762499999948392
 30
0.0
 10
10.65758034908644
 20
4.759776958612282
 30
0.0
 10
10.5956676837002
 20
4.754346356826885
 30
0.0
 10
10.54217081258881
 20
4.718839312284395
 30
0.0
 10
10.51549862815958
 20
4.701136399555121
 30
0.0
  0
SPLINE
  5
A3
330
1F
100
AcDbEntity
  8
외형선
  6
Continuous
 62
     1
370
    15
100
AcDbSpline
210
0.0
220
0.0
230
1.0
 70
     8
 71
     3
 72
     9
 73
     5
 74
     0
 42
0.000000001
 43
0.00000001
 40
0.0
 40
0.0
 40
0.0
 40
0.0
 40
0.4985632191734577
 40
1.0
 40
1.0
 40
1.0
 40
1.0
 10
19.51705000201173
 20
-4.702404465737292
 30
0.0
 10
19.54346306567375
 20
-4.719739206066462
 30
0.0
 10
19.59644142959279
 20
-4.754508598718229
 30
0.0
 10
19.65784240341739
 20
-4.759831101053178
 30
0.0
 10
19.68863111007161
 20
-4.762499999489957
 30
0.0
  0
LINE
  5
A4
330
1F
100
AcDbEntity
  8
외형선
  6
Continuous
 62
     1
370
    15
100
AcDbLine
 10
19.68857240318974
 20
-4.762500000000002
 30
0.0
 11
20.76241216657872
 21
-4.762500000000002
 31
0.0
  0
SPLINE
  5
A5
330
1F
100
AcDbEntity
  8
외형선
  6
Continuous
 62
     1
370
    15
100
AcDbSpline
210
0.0
220
0.0
230
1.0
 70
     8
 71
     3
 72
    11
 73
     7
 74
     0
 42
0.000000001
 43
0.00000001
 40
0.0
 40
0.0
 40
0.0
 40
0.0
 40
0.2860682205903156
 40
0.5825280758647042
 40
0.8789128388406039
 40
1.0
 40
1.0
 40
1.0
 40
1.0
 10
10.52135764408461
 20
4.705356789054206
 30
0.0
 10
10.4783267238194
 20
4.677159130609185
 30
0.0
 10
10.39070175403752
 20
4.619739513414471
 30
0.0
 10
10.22686376371561
 20
4.594863006761968
 30
0.0
 10
10.09061429492071
 20
4.611405529053044
 30
0.0
 10
10.02678589210992
 20
4.650454709517985
 30
0.0
 10
10.00827255109014
 20
4.661780870954814
 30
0.0
  0
SPLINE
  5
A6
330
1F
100
AcDbEntity
  8
외형선
  6
Continuous
 62
     1
370
    15
100
AcDbSpline
210
0.0
220
0.0
230
1.0
 70
     8
 71
     3
 72
     9
 73
     5
 74
     0
 42
0.000000001
 43
0.00000001
 40
0.0
 40
0.0
 40
0.0
 40
0.0
 40
0.5021242565836328
 40
1.0
 40
1.0
 40
1.0
 40
1.0
 10
20.76255910084374
 20
-4.76249999999688
 30
0.0
 10
20.7932945068072
 20
-4.759848678385517
 30
0.0
 10
20.85450526402612
 20
-4.754568468205266
 30
0.0
 10
20.9074324921621
 20
-4.719860552274628
 30
0.0
 10
20.93378367521727
 20
-4.702580322828228
 30
0.0
  0
SPLINE
  5
A7
330
1F
100
AcDbEntity
  8
외형선
  6
Continuous
 62
     1
370
    15
100
AcDbSpline
210
0.0
220
0.0
230
1.0
 70
     8
 71
     3
 72
    11
 73
     7
 74
     0
 42
0.000000001
 43
0.00000001
 40
0.0
 40
0.0
 40
0.0
 40
0.0
 40
0.2165312519261956
 40
0.4577969990583248
 40
0.7219531014986543
 40
1.0
 40
1.0
 40
1.0
 40
1.0
 10
20.93653962018319
 20
-4.700240894060896
 30
0.0
 10
20.9688743805072
 20
-4.678630992487625
 30
0.0
 10
21.0372375202846
 20
-4.632942677280539
 30
0.0
 10
21.18659940061455
 20
-4.595210934971982
 30
0.0
 10
21.36364354643555
 20
-4.607997534951054
 30
0.0
 10
21.46494898393895
 20
-4.670324325197445
 30
0.0
 10
21.51689938378959
 20
-4.702286100937261
 30
0.0
  0
SPLINE
  5
A8
330
1F
100
AcDbEntity
  8
외형선
  6
Continuous
 62
     1
370
    15
100
AcDbSpline
210
0.0
220
0.0
230
1.0
 70
     8
 71
     3
 72
     9
 73
     5
 74
     0
 42
0.000000001
 43
0.00000001
 40
0.0
 40
0.0
 40
0.0
 40
0.0
 40
0.4985634289951677
 40
1.0
 40
1.0
 40
1.0
 40
1.0
 10
21.51702913275136
 20
-4.70238812638612
 30
0.0
 10
21.54344695837786
 20
-4.71972836568402
 30
0.0
 10
21.59643485137222
 20
-4.754508773330139
 30
0.0
 10
21.65784522265367
 20
-4.759831158150119
 30
0.0
 10
21.68863862865317
 20
-4.762499996543818
 30
0.0
  0
LINE
  5
A9
330
1F
100
AcDbEntity
  8
외형선
  6
Continuous
 62
     1
370
    15
100
AcDbLine
 10
21.68862585201951
 20
-4.762500000000002
 30
0.0
 11
22.76229684371723
 21
-4.762500000000002
 31
0.0
  0
SPLINE
  5
AA
330
1F
100
AcDbEntity
  8
외형선
  6
Continuous
 62
     1
370
    15
100
AcDbSpline
210
0.0
220
0.0
230
1.0
 70
     8
 71
     3
 72
     9
 73
     5
 74
     0
 42
0.000000001
 43
0.00000001
 40
0.0
 40
0.0
 40
0.0
 40
0.0
 40
0.5021235492446573
 40
1.0
 40
1.0
 40
1.0
 40
1.0
 10
22.76256517906642
 20
-4.762499999243658
 30
0.0
 10
22.79329840925714
 20
-4.759848299912114
 30
0.0
 10
22.85450491956113
 20
-4.754567330048157
 30
0.0
 10
22.90742769036531
 20
-4.719863844191679
 30
0.0
 10
22.93377669165744
 20
-4.702585795824619
 30
0.0
  0
SPLINE
  5
AB
330
1F
100
AcDbEntity
  8
외형선
  6
Continuous
 62
     1
370
    15
100
AcDbSpline
210
0.0
220
0.0
230
1.0
 70
     8
 71
     3
 72
    11
 73
     7
 74
     0
 42
0.000000001
 43
0.00000001
 40
0.0
 40
0.0
 40
0.0
 40
0.0
 40
0.2075981081028182
 40
0.4465939248728411
 40
0.7134321827231339
 40
1.0
 40
1.0
 40
1.0
 40
1.0
 10
22.93595648228069
 20
-4.700765826791757
 30
0.0
 10
22.9699880736224
 20
-4.67825144603338
 30
0.0
 10
23.0431982877513
 20
-4.629817547666703
 30
0.0
 10
23.19328732186841
 20
-4.594849976671678
 30
0.0
 10
23.36828762159574
 20
-4.610178073526442
 30
0.0
 10
23.4647125527019
 20
-4.669614010448206
 30
0.0
 10
23.51464384778539
 20
-4.700391458468745
 30
0.0
  0
SPLINE
  5
AC
330
1F
100
AcDbEntity
  8
외형선
  6
Continuous
 62
     1
370
    15
100
AcDbSpline
210
0.0
220
0.0
230
1.0
 70
     8
 71
     3
 72
     9
 73
     5
 74
     0
 42
0.000000001
 43
0.00000001
 40
0.0
 40
0.0
 40
0.0
 40
0.0
 40
0.4985635771069233
 40
0.9999999999999999
 40
0.9999999999999999
 40
0.9999999999999999
 40
0.9999999999999999
 10
23.51702107822753
 20
-4.702381814942826
 30
0.0
 10
23.5434415649084
 20
-4.719724665818221
 30
0.0
 10
23.59643477960367
 20
-4.754510301335426
 30
0.0
 10
23.65785040556914
 20
-4.759831665098416
 30
0.0
 10
23.68864643736299
 20
-4.762499990708643
 30
0.0
  0
LINE
  5
AD
330
1F
100
AcDbEntity
  8
외형선
  6
Continuous
 62
     1
370
    15
100
AcDbLine
 10
23.68856560097641
 20
-4.762500000000002
 30
0.0
 11
24.7625015973181
 21
-4.762500000000002
 31
0.0
  0
SPLINE
  5
AE
330
1F
100
AcDbEntity
  8
외형선
  6
Continuous
 62
     1
370
    15
100
AcDbSpline
210
0.0
220
0.0
230
1.0
 70
     8
 71
     3
 72
     9
 73
     5
 74
     0
 42
0.000000001
 43
0.00000001
 40
0.0
 40
0.0
 40
0.0
 40
0.0
 40
0.5022015739434694
 40
0.9999999999999999
 40
0.9999999999999999
 40
0.9999999999999999
 40
0.9999999999999999
 10
24.7608804991263
 20
-4.762434681792386
 30
0.0
 10
24.79189491818098
 20
-4.759968834892404
 30
0.0
 10
24.85365183146807
 20
-4.755058760874475
 30
0.0
 10
24.90714850434799
 20
-4.720024124033713
 30
0.0
 10
24.93377906390688
 20
-4.702583936956917
 30
0.0
  0
SPLINE
  5
AF
330
1F
100
AcDbEntity
  8
외형선
  6
Continuous
 62
     1
370
    15
100
AcDbSpline
210
0.0
220
0.0
230
1.0
 70
     8
 71
     3
 72
    11
 73
     7
 74
     0
 42
0.000000001
 43
0.00000001
 40
0.0
 40
0.0
 40
0.0
 40
0.0
 40
0.2442022635850489
 40
0.4999584286430276
 40
0.7557314892065103
 40
0.9999999999999999
 40
0.9999999999999999
 40
0.9999999999999999
 40
0.9999999999999999
 10
24.93644029612575
 20
-4.700331441131816
 30
0.0
 10
24.98040543064755
 20
-4.672323843361061
 30
0.0
 10
25.07041581485903
 20
-4.614983528959533
 30
0.0
 10
25.23656158984485
 20
-4.590963828381595
 30
0.0
 10
25.40270317711705
 20
-4.619126540962107
 30
0.0
 10
25.49266298515881
 20
-4.679533765992381
 30
0.0
 10
25.53660802813192
 20
-4.709042478356573
 30
0.0
  0
SPLINE
  5
B1
330
1F
100
AcDbEntity
  8
외형선
  6
Continuous
 62
     1
370
    15
100
AcDbSpline
210
0.0
220
0.0
230
1.0
 70
     8
 71
     3
 72
     9
 73
     5
 74
     0
 42
0.000000001
 43
0.00000001
 40
0.0
 40
0.0
 40
0.0
 40
0.0
 40
0.4988356904373358
 40
1.0
 40
1.0
 40
1.0
 40
1.0
 10
25.53021854862344
 20
-4.708788751822913
 30
0.0
 10
25.55505345275593
 20
-4.724341751225802
 30
0.0
 10
25.60483919304794
 20
-4.755520353120252
 30
0.0
 10
25.66319191043496
 20
-4.759945256699441
 30
0.0
 10
25.69243620975534
 20
-4.762162860446588
 30
0.0
  0
LINE
  5
B2
330
1F
100
AcDbEntity
  8
외형선
  6
Continuous
 62
     1
370
    15
100
AcDbLine
 10
25.68855964112857
 20
-4.762500000000002
 30
0.0
 11
26.19426478278745
 21
-4.762500000000002
 31
0.0
  0
LINE
  5
B3
330
1F
100
AcDbEntity
  8
외형선
  6
Continuous
370
    15
100
AcDbLine
 10
9.999999999999988
 20
4.762499999999998
 30
0.0
 11
9.999999999999988
 21
4.270459768833565
 31
0.0
  0
SPLINE
  5
B4
330
1F
100
AcDbEntity
  8
외형선
  6
Continuous
370
    15
100
AcDbSpline
210
0.0
220
0.0
230
1.0
 70
     8
 71
     3
 72
    10
 73
     6
 74
     0
 42
0.000000001
 43
0.00000001
 40
0.0
 40
0.0
 40
0.0
 40
0.0
 40
0.5000000000000001
 40
0.5000000000000001
 40
1.0
 40
1.0
 40
1.0
 40
1.0
 10
10.00000000000187
 20
4.27045976883326
 30
0.0
 10
9.495817124781658
 20
4.351598015950224
 30
0.0
 10
8.995641494878935
 20
4.42305313117653
 30
0.0
 10
7.988622146388162
 20
4.54636664004839
 30
0.0
 10
7.482865428869531
 20
4.598126005637776
 30
0.0
 10
6.979899219133116
 20
4.6394833257706
 30
0.0
  0
SPLINE
  5
B5
330
1F
100
AcDbEntity
  8
외형선
  6
Continuous
370
    15
100
AcDbSpline
210
0.0
220
0.0
230
1.0
 70
     8
 71
     3
 72
    10
 73
     6
 74
     0
 42
0.000000001
 43
0.00000001
 40
0.0
 40
0.0
 40
0.0
 40
0.0
 40
0.5
 40
0.5
 40
1.0
 40
1.0
 40
1.0
 40
1.0
 10
10.00000000000187
 20
-1.557874401534927
 30
0.0
 10
9.495817124781658
 20
-1.384665452058949
 30
0.0
 10
8.995641494878935
 20
-1.208461663228412
 30
0.0
 10
7.988622146388166
 20
-0.8507044001641131
 30
0.0
 10
7.482865428869535
 20
-0.6692681179023398
 30
0.0
 10
6.979899219133116
 20
-0.4870832503048113
 30
0.0
  0
LINE
  5
B6
330
1F
100
AcDbEntity
  8
외형선
  6
Continuous
370
    15
100
AcDbLine
 10
9.999999999999988
 20
-1.557874401534281
 30
0.0
 11
9.999999999999988
 21
-3.96099950558495
 31
0.0
  0
SPLINE
  5
B7
330
1F
100
AcDbEntity
  8
외형선
  6
Continuous
370
    15
100
AcDbSpline
210
0.0
220
0.0
230
1.0
 70
     8
 71
     3
 72
    10
 73
     6
 74
     0
 42
0.000000001
 43
0.00000001
 40
0.0
 40
0.0
 40
0.0
 40
0.0
 40
0.5
 40
0.5
 40
1.0
 40
1.0
 40
1.0
 40
1.0
 10
10.00000000000187
 20
-3.960999505585328
 30
0.0
 10
9.495817124781658
 20
-3.859232371596904
 30
0.0
 10
8.995641494878935
 20
-3.748953045254932
 30
0.0
 10
7.988622146388162
 20
-3.511788265912692
 30
0.0
 10
7.482865428869531
 20
-3.384944787577119
 30
0.0
 10
6.979899219133116
 20
-3.251111911455906
 30
0.0
  0
LINE
  5
B8
330
1F
100
AcDbEntity
  8
외형선
  6
Continuous
370
    15
100
AcDbLine
 10
6.979899219133116
 20
-3.251094885189866
 30
0.0
 11
6.979899219133116
 21
-4.762500000000002
 31
0.0
  0
LINE
  5
B9
330
1F
100
AcDbEntity
  8
외형선
  6
Continuous
370
    15
100
AcDbLine
 10
8.255984156738533
 20
-3.568809232292067
 30
0.0
 11
6.979899219133116
 21
-3.859276567011885
 31
0.0
  0
LINE
  5
BA
330
1F
100
AcDbEntity
  8
외형선
  6
Continuous
370
    15
100
AcDbLine
 10
-30.275
 20
4.762499999999992
 30
0.0
 11
-30.275
 21
-4.762499999999999
 31
0.0
  0
LINE
  5
BB
330
1F
100
AcDbEntity
  8
외형선
  6
Continuous
370
    15
100
AcDbLine
 10
6.979899219133116
 20
4.63948858719601
 30
0.0
 11
6.979899219133116
 21
-0.4871384567393322
 31
0.0
  0
LINE
  5
BC
330
1F
100
AcDbEntity
  8
외형선
  6
Continuous
370
    15
100
AcDbLine
 10
-31.27500000000001
 20
3.762499999999993
 30
0.0
 11
-31.27500000000001
 21
-3.762500000000007
 31
0.0
  0
SPLINE
  5
BD
330
1F
100
AcDbEntity
  8
외형선
  6
Continuous
370
    15
100
AcDbSpline
210
0.0
220
0.0
230
1.0
 70
    24
 71
     3
 72
    18
 73
    14
 74
     0
 42
0.000000001
 43
0.00000001
 40
0.0
 40
0.0
 40
0.0
 40
0.0
 40
0.25
 40
0.25
 40
0.5
 40
0.5
 40
0.625
 40
0.625
 40
0.75
 40
0.75
 40
0.875
 40
0.875
 40
1.0
 40
1.0
 40
1.0
 40
1.0
 10
9.999999999999988
 20
4.270459768833534
 30
0.0
 10
9.999999999999988
 20
3.908645553006741
 30
0.0
 10
9.999999999999988
 20
3.489170466631528
 30
0.0
 10
9.999999999999988
 20
2.534878769820888
 30
0.0
 10
9.999999999999988
 20
1.998347346451929
 30
0.0
 10
9.999999999999988
 20
1.155439072559712
 30
0.0
 10
9.999999999999988
 20
0.8688613065270915
 30
0.0
 10
9.999999999999988
 20
0.3023965244216109
 30
0.0
 10
9.999999999999988
 20
0.0226026929668233
 30
0.0
 10
9.999999999999988
 20
-0.5071975837963442
 30
0.0
 10
9.999999999999988
 20
-0.7570216120280235
 30
0.0
 10
9.999999999999988
 20
-1.202792199904092
 30
0.0
 10
9.999999999999988
 20
-1.398530542488776
 30
0.0
 10
9.999999999999988
 20
-1.557874401534283
 30
0.0
  0
SPLINE
  5
BE
330
1F
100
AcDbEntity
  8
외형선
  6
Continuous
 62
     1
370
    15
100
AcDbSpline
210
0.0
220
0.0
230
1.0
 70
     8
 71
     3
 72
     8
 73
     4
 74
     0
 42
0.000000001
 43
0.00000001
 40
0.0
 40
0.0
 40
0.0
 40
0.0
 40
1.0
 40
1.0
 40
1.0
 40
1.0
 10
30.56324394476561
 20
-2.093995096610341
 30
0.0
 10
30.51772308399675
 20
-2.090425573702322
 30
0.0
 10
30.46197815107474
 20
-2.078299626114531
 30
0.0
 10
30.40466952905175
 20
-2.059506688495615
 30
0.0
  0
SPLINE
  5
C0
330
1F
100
AcDbEntity
  8
외형선
  6
Continuous
 62
     1
370
    15
100
AcDbSpline
210
0.0
220
0.0
230
1.0
 70
     8
 71
     3
 72
     8
 73
     4
 74
     0
 42
0.000000001
 43
0.00000001
 40
0.0
 40
0.0
 40
0.0
 40
0.0
 40
1.0
 40
1.0
 40
1.0
 40
1.0
 10
30.19315491712923
 20
1.029487687406589
 30
0.0
 10
30.24882468532857
 20
1.009704193156592
 30
0.0
 10
30.30478347387164
 20
0.9880625223031848
 30
0.0
 10
30.35081570950534
 20
0.9693801274958419
 30
0.0
  0
SPLINE
  5
C2
330
1F
100
AcDbEntity
  8
외형선
  6
Continuous
 62
     1
370
    15
100
AcDbSpline
210
0.0
220
0.0
230
1.0
 70
     8
 71
     3
 72
     8
 73
     4
 74
     0
 42
0.000000001
 43
0.00000001
 40
0.0
 40
0.0
 40
0.0
 40
0.0
 40
1.0
 40
1.0
 40
1.0
 40
1.0
 10
30.98324442987704
 20
0.7458920304932369
 30
0.0
 10
31.02442845014435
 20
0.7319431914848972
 30
0.0
 10
31.07402818544944
 20
0.7146476086296748
 30
0.0
 10
31.12550581835397
 20
0.6962111306817783
 30
0.0
  0
SPLINE
  5
C5
330
1F
100
AcDbEntity
  8
외형선
  6
Continuous
 62
     1
370
    15
100
AcDbSpline
210
0.0
220
0.0
230
1.0
 70
     8
 71
     3
 72
     8
 73
     4
 74
     0
 42
0.000000001
 43
0.00000001
 40
0.0
 40
0.0
 40
0.0
 40
0.0
 40
1.0
 40
1.0
 40
1.0
 40
1.0
 10
29.30421459597726
 20
-1.6910246717819
 30
0.0
 10
29.24853240841304
 20
-1.672060903319426
 30
0.0
 10
29.19255774461297
 20
-1.648660092999293
 30
0.0
 10
29.14650780455657
 20
-1.625476138487702
 30
0.0
  0
SPLINE
  5
C7
330
1F
100
AcDbEntity
  8
외형선
  6
Continuous
 62
     1
370
    15
100
AcDbSpline
210
0.0
220
0.0
230
1.0
 70
     8
 71
     3
 72
     8
 73
     4
 74
     0
 42
0.000000001
 43
0.00000001
 40
0.0
 40
0.0
 40
0.0
 40
0.0
 40
1.0
 40
1.0
 40
1.0
 40
1.0
 10
28.93377498464047
 20
1.462294927471488
 30
0.0
 10
28.97934498965796
 20
1.452893770583303
 30
0.0
 10
29.0351316636486
 20
1.43700563614241
 30
0.0
 10
29.09247954178557
 20
1.417079922335381
 30
0.0
  0
SPLINE
  5
C9
330
1F
100
AcDbEntity
  8
외형선
  6
Continuous
 62
     1
370
    15
100
AcDbSpline
210
0.0
220
0.0
230
1.0
 70
     8
 71
     3
 72
    10
 73
     6
 74
     0
 42
0.000000001
 43
0.00000001
 40
0.0
 40
0.0
 40
0.0
 40
0.0
 40
0.5
 40
0.5
 40
1.0
 40
1.0
 40
1.0
 40
1.0
 10
31.18571758520648
 20
-2.289223333670038
 30
0.0
 10
31.09259578623568
 20
-2.235175900536285
 30
0.0
 10
30.98049487848315
 20
-2.190249934839064
 30
0.0
 10
30.75776396021533
 20
-2.122700682694425
 30
0.0
 10
30.65148095647617
 20
-2.100914210821188
 30
0.0
 10
30.56324394476562
 20
-2.093995096610342
 30
0.0
  0
SPLINE
  5
CA
330
1F
100
AcDbEntity
  8
외형선
  6
Continuous
 62
     1
370
    15
100
AcDbSpline
210
0.0
220
0.0
230
1.0
 70
     8
 71
     3
 72
    10
 73
     6
 74
     0
 42
0.000000001
 43
0.00000001
 40
0.0
 40
0.0
 40
0.0
 40
0.0
 40
0.5
 40
0.5
 40
1.0
 40
1.0
 40
1.0
 40
1.0
 10
30.35081570950463
 20
0.9693801274958428
 30
0.0
 10
30.44437720947516
 20
0.9314077618882591
 30
0.0
 10
30.5580414201793
 20
0.8918116783818796
 30
0.0
 10
30.78470484755459
 20
0.8136261991572821
 30
0.0
 10
30.89342707566158
 20
0.7763127569295277
 30
0.0
 10
30.98324442987679
 20
0.7458920304931426
 30
0.0
  0
SPLINE
  5
CC
330
1F
100
AcDbEntity
  8
외형선
  6
Continuous
 62
     1
370
    15
100
AcDbSpline
210
0.0
220
0.0
230
1.0
 70
     8
 71
     3
 72
     8
 73
     4
 74
     0
 42
0.000000001
 43
0.00000001
 40
0.0
 40
0.0
 40
0.0
 40
0.0
 40
0.9756232341503304
 40
0.9756232341503304
 40
0.9756232341503304
 40
0.9756232341503304
 10
31.1252529080109
 20
0.6963074821400862
 30
0.0
 10
31.48192434945953
 20
0.5604097487926762
 30
0.0
 10
31.83915554403824
 20
0.4908158716469305
 30
0.0
 10
32.19809181613797
 20
0.5055456467293139
 30
0.0
  0
SPLINE
  5
CE
330
1F
100
AcDbEntity
  8
외형선
  6
Continuous
 62
     1
370
    15
100
AcDbSpline
210
0.0
220
0.0
230
1.0
 70
     8
 71
     3
 72
     8
 73
     4
 74
     0
 42
0.000000001
 43
0.00000001
 40
0.5614439094920822
 40
0.5614439094920822
 40
0.5614439094920822
 40
0.5614439094920822
 40
1.0
 40
1.0
 40
1.0
 40
1.0
 10
31.64977527208877
 20
-2.268949546762487
 30
0.0
 10
31.49689241047429
 20
-2.274597317527387
 30
0.0
 10
31.34193209576173
 20
-2.281339558888297
 30
0.0
 10
31.18571758520648
 20
-2.289223333670035
 30
0.0
  0
SPLINE
  5
CF
330
1F
100
AcDbEntity
  8
외형선
  6
Continuous
 62
     1
370
    15
100
AcDbSpline
210
0.0
220
0.0
230
1.0
 70
     8
 71
     3
 72
     8
 73
     4
 74
     0
 42
0.000000001
 43
0.00000001
 40
0.0
 40
0.0
 40
0.0
 40
0.0
 40
1.0
 40
1.0
 40
1.0
 40
1.0
 10
28.51367905663019
 20
-1.410099750992002
 30
0.0
 10
28.46810894018213
 20
-1.400252872817362
 30
0.0
 10
28.41231919758728
 20
-1.384099263077983
 30
0.0
 10
28.35496593555985
 20
-1.364131123912706
 30
0.0
  0
SPLINE
  5
D1
330
1F
100
AcDbEntity
  8
외형선
  6
Continuous
 62
     1
370
    15
100
AcDbSpline
210
0.0
220
0.0
230
1.0
 70
     8
 71
     3
 72
     8
 73
     4
 74
     0
 42
0.000000001
 43
0.00000001
 40
0.0
 40
0.0
 40
0.0
 40
0.0
 40
1.0
 40
1.0
 40
1.0
 40
1.0
 10
28.14312327964604
 20
1.742560076873251
 30
0.0
 10
28.19882224249392
 20
1.723720519443255
 30
0.0
 10
28.25481006326682
 20
1.70023537987979
 30
0.0
 10
28.30086800760027
 20
1.676736335089103
 30
0.0
  0
SPLINE
  5
D3
330
1F
100
AcDbEntity
  8
외형선
  6
Continuous
 62
     1
370
    15
100
AcDbSpline
210
0.0
220
0.0
230
1.0
 70
     8
 71
     3
 72
     8
 73
     4
 74
     0
 42
0.000000001
 43
0.00000001
 40
0.0
 40
0.0
 40
0.0
 40
0.0
 40
1.0
 40
1.0
 40
1.0
 40
1.0
 10
27.25389439566999
 20
-0.9759383313241019
 30
0.0
 10
27.19818917849434
 20
-0.9560530286984743
 30
0.0
 10
27.14219488205643
 20
-0.9344963468433073
 30
0.0
 10
27.09612194713571
 20
-0.9161130262449942
 30
0.0
  0
SPLINE
  5
D4
330
1F
100
AcDbEntity
  8
외형선
  6
Continuous
 62
     1
370
    15
100
AcDbSpline
210
0.0
220
0.0
230
1.0
 70
     8
 71
     3
 72
    10
 73
     6
 74
     0
 42
0.000000001
 43
0.00000001
 40
0.0
 40
0.0
 40
0.0
 40
0.0
 40
0.5
 40
0.5
 40
1.0
 40
1.0
 40
1.0
 40
1.0
 10
27.09612194713141
 20
-0.9161130261661921
 30
0.0
 10
27.05981241868575
 20
-0.3977097486013969
 30
0.0
 10
27.02335477659508
 20
0.1386678662299666
 30
0.0
 10
26.95591554871892
 20
1.160270703158487
 30
0.0
 10
26.91952167691666
 20
1.672319987010307
 30
0.0
 10
26.88320929268704
 20
2.142941786937581
 30
0.0
  0
SPLINE
  5
D5
330
1F
100
AcDbEntity
  8
외형선
  6
Continuous
 62
     1
370
    15
100
AcDbSpline
210
0.0
220
0.0
230
1.0
 70
     8
 71
     3
 72
     8
 73
     4
 74
     0
 42
0.000000001
 43
0.00000001
 40
0.0
 40
0.0
 40
0.0
 40
0.0
 40
1.0
 40
1.0
 40
1.0
 40
1.0
 10
26.88320929268121
 20
2.142941787018488
 30
0.0
 10
26.92880280043807
 20
2.139778155474672
 30
0.0
 10
26.9846086979213
 20
2.127881888454391
 30
0.0
 10
27.04197188123628
 20
2.109108238738335
 30
0.0
  0
SPLINE
  5
D6
330
1F
100
AcDbEntity
  8
외형선
  6
Continuous
 62
     1
370
    15
100
AcDbSpline
210
0.0
220
0.0
230
1.0
 70
     8
 71
     3
 72
    10
 73
     6
 74
     0
 42
0.000000001
 43
0.00000001
 40
0.0
 40
0.0
 40
0.0
 40
0.0
 40
0.5
 40
0.5
 40
1.0
 40
1.0
 40
1.0
 40
1.0
 10
27.25389429151622
 20
-0.9759368302559934
 30
0.0
 10
27.21776478102584
 20
-0.455240712552744
 30
0.0
 10
27.18138753862473
 20
0.0849189394845792
 30
0.0
 10
27.11387826998154
 20
1.116916566181002
 30
0.0
 10
27.07812819907491
 20
1.6320165930373
 30
0.0
 10
27.04197183862998
 20
2.109108800945628
 30
0.0
  0
SPLINE
  5
D7
330
1F
100
AcDbEntity
  8
외형선
  6
Continuous
 62
     1
370
    15
100
AcDbSpline
210
0.0
220
0.0
230
1.0
 70
     8
 71
     3
 72
    10
 73
     6
 74
     0
 42
0.000000001
 43
0.00000001
 40
0.0
 40
0.0
 40
0.0
 40
0.0
 40
0.5
 40
0.5
 40
1.0
 40
1.0
 40
1.0
 40
1.0
 10
29.14650780455776
 20
-1.625476138487525
 30
0.0
 10
29.05288585837849
 20
-1.578341941594915
 30
0.0
 10
28.93915314756083
 20
-1.53503756848314
 30
0.0
 10
28.71236746683663
 20
-1.460083039236185
 30
0.0
 10
28.60358379995753
 20
-1.429526540385339
 30
0.0
 10
28.51367905663019
 20
-1.410099750992002
 30
0.0
  0
SPLINE
  5
D8
330
1F
100
AcDbEntity
  8
외형선
  6
Continuous
 62
     1
370
    15
100
AcDbSpline
210
0.0
220
0.0
230
1.0
 70
     8
 71
     3
 72
    10
 73
     6
 74
     0
 42
0.000000001
 43
0.00000001
 40
0.0
 40
0.0
 40
0.0
 40
0.0
 40
0.5
 40
0.5
 40
1.0
 40
1.0
 40
1.0
 40
1.0
 10
28.30086800759951
 20
1.676736335088587
 30
0.0
 10
28.39451159672455
 20
1.628958803393139
 30
0.0
 10
28.50826768222799
 20
1.585436335179236
 30
0.0
 10
28.73508415141478
 20
1.510838185008842
 30
0.0
 10
28.84387094349921
 20
1.480842259105832
 30
0.0
 10
28.93377498464008
 20
1.46229492747139
 30
0.0
  0
SPLINE
  5
D9
330
1F
100
AcDbEntity
  8
외형선
  6
Continuous
 62
     1
370
    15
100
AcDbSpline
210
0.0
220
0.0
230
1.0
 70
     8
 71
     3
 72
     8
 73
     4
 74
     0
 42
0.000000001
 43
0.00000001
 40
0.0
 40
0.0
 40
0.0
 40
0.0
 40
1.0
 40
1.0
 40
1.0
 40
1.0
 10
26.30432080437581
 20
-0.634979724234386
 30
0.0
 10
25.93755061517981
 20
-0.5027934356726869
 30
0.0
 10
25.56989373033851
 20
-0.3697525901858822
 30
0.0
 10
25.20329367571308
 20
-0.2365607218755044
 30
0.0
  0
SPLINE
  5
DA
330
1F
100
AcDbEntity
  8
외형선
  6
Continuous
 62
     1
370
    15
100
AcDbSpline
210
0.0
220
0.0
230
1.0
 70
     8
 71
     3
 72
    12
 73
     8
 74
     0
 42
0.000000001
 43
0.00000001
 40
0.0
 40
0.0
 40
0.0
 40
0.0
 40
0.2500000000000001
 40
0.2500000000000001
 40
0.5
 40
0.5
 40
1.0
 40
1.0
 40
1.0
 40
1.0
 10
25.20329448294901
 20
-0.2365597458181505
 30
0.0
 10
25.18542294072045
 20
0.0281899195718501
 30
0.0
 10
25.16783663830017
 20
0.2926119350605284
 30
0.0
 10
25.13391457920453
 20
0.8101777333158876
 30
0.0
 10
25.11692402225852
 20
1.066682806253506
 30
0.0
 10
25.06388447669723
 20
1.828004864176079
 30
0.0
 10
25.02697153191345
 20
2.317641896113071
 30
0.0
 10
24.9915113188791
 20
2.749388670635136
 30
0.0
  0
SPLINE
  5
DB
330
1F
100
AcDbEntity
  8
외형선
  6
Continuous
 62
     1
370
    15
100
AcDbSpline
210
0.0
220
0.0
230
1.0
 70
     8
 71
     3
 72
     8
 73
     4
 74
     0
 42
0.000000001
 43
0.00000001
 40
0.0
 40
0.0
 40
0.0
 40
0.0
 40
1.0
 40
1.0
 40
1.0
 40
1.0
 10
26.09243825317102
 20
2.413245550942017
 30
0.0
 10
25.72532722188869
 20
2.528282054150552
 30
0.0
 10
25.35770397083114
 20
2.640525067462934
 30
0.0
 10
24.99151131032976
 20
2.749388774368086
 30
0.0
  0
SPLINE
  5
DC
330
1F
100
AcDbEntity
  8
외형선
  6
Continuous
 62
     1
370
    15
100
AcDbSpline
210
0.0
220
0.0
230
1.0
 70
     8
 71
     3
 72
    12
 73
     8
 74
     0
 42
0.000000001
 43
0.00000001
 40
0.0
 40
0.0
 40
0.0
 40
0.0
 40
0.25
 40
0.25
 40
0.5
 40
0.5
 40
1.0
 40
1.0
 40
1.0
 40
1.0
 10
26.30432080565224
 20
-0.6349794132597317
 30
0.0
 10
26.28626576414123
 20
-0.371417635679174
 30
0.0
 10
26.26830609005879
 20
-0.105350906974487
 30
0.0
 10
26.23330745208249
 20
0.4207394492669784
 30
0.0
 10
26.21670959004588
 20
0.6785615046021838
 30
0.0
 10
26.16510219667629
 20
1.448395875409238
 30
0.0
 10
26.12843132583512
 20
1.955213396946696
 30
0.0
 10
26.09243908055794
 20
2.413247531192926
 30
0.0
  0
SPLINE
  5
DD
330
1F
100
AcDbEntity
  8
외형선
  6
Continuous
 62
     1
370
    15
100
AcDbSpline
210
0.0
220
0.0
230
1.0
 70
     8
 71
     3
 72
     8
 73
     4
 74
     0
 42
0.000000001
 43
0.00000001
 40
0.0
 40
0.0
 40
0.0
 40
0.0
 40
1.0
 40
1.0
 40
1.0
 40
1.0
 10
30.40466419341145
 20
-2.059504938804074
 30
0.0
 10
30.03671226658181
 20
-1.938844227898408
 30
0.0
 10
29.67122730338555
 20
-1.816018755356978
 30
0.0
 10
29.30421459591521
 20
-1.691024671760509
 30
0.0
  0
SPLINE
  5
DE
330
1F
100
AcDbEntity
  8
외형선
  6
Continuous
 62
     1
370
    15
100
AcDbSpline
210
0.0
220
0.0
230
1.0
 70
     8
 71
     3
 72
     8
 73
     4
 74
     0
 42
0.000000001
 43
0.00000001
 40
0.0
 40
0.0
 40
0.0
 40
0.0
 40
1.0
 40
1.0
 40
1.0
 40
1.0
 10
30.19315491690801
 20
1.029487687485213
 30
0.0
 10
29.82548014567791
 20
1.160149121109895
 30
0.0
 10
29.46021553288491
 20
1.289308811655218
 30
0.0
 10
29.09247939321335
 20
1.417079973956853
 30
0.0
  0
SPLINE
  5
DF
330
1F
100
AcDbEntity
  8
외형선
  6
Continuous
 62
     1
370
    15
100
AcDbSpline
210
0.0
220
0.0
230
1.0
 70
     8
 71
     3
 72
     8
 73
     4
 74
     0
 42
0.000000001
 43
0.00000001
 40
0.0
 40
0.0
 40
0.0
 40
0.0
 40
1.0
 40
1.0
 40
1.0
 40
1.0
 10
28.3549620617813
 20
-1.364129775215637
 30
0.0
 10
27.98726052887551
 20
-1.236110622122608
 30
0.0
 10
27.61959012036324
 20
-1.106482123128314
 30
0.0
 10
27.2538936711948
 20
-0.9759380727051739
 30
0.0
  0
SPLINE
  5
E0
330
1F
100
AcDbEntity
  8
외형선
  6
Continuous
 62
     1
370
    15
100
AcDbSpline
210
0.0
220
0.0
230
1.0
 70
     8
 71
     3
 72
     8
 73
     4
 74
     0
 42
0.000000001
 43
0.00000001
 40
0.0
 40
0.0
 40
0.0
 40
0.0
 40
1.0
 40
1.0
 40
1.0
 40
1.0
 10
28.14312325575598
 20
1.742560084953797
 30
0.0
 10
27.7750244006028
 20
1.867065446674149
 30
0.0
 10
27.40768049346776
 20
1.989420227327139
 30
0.0
 10
27.04197173583198
 20
2.109108286324961
 30
0.0
  0
SPLINE
  5
E1
330
1F
100
AcDbEntity
  8
외형선
  6
Continuous
 62
     1
370
    15
100
AcDbSpline
210
0.0
220
0.0
230
1.0
 70
     8
 71
     3
 72
     8
 73
     4
 74
     0
 42
0.000000001
 43
0.00000001
 40
0.0
 40
0.0
 40
0.0
 40
0.0
 40
1.0
 40
1.0
 40
1.0
 40
1.0
 10
24.2540260668254
 20
0.1093318000351315
 30
0.0
 10
23.88839990596966
 20
0.2425652651610314
 30
0.0
 10
23.52097235963463
 20
0.3758886311132308
 30
0.0
 10
23.15368271048652
 20
0.5085956581162655
 30
0.0
  0
SPLINE
  5
E2
330
1F
100
AcDbEntity
  8
외형선
  6
Continuous
 62
     1
370
    15
100
AcDbSpline
210
0.0
220
0.0
230
1.0
 70
     8
 71
     3
 72
    12
 73
     8
 74
     0
 42
0.000000001
 43
0.00000001
 40
0.0
 40
0.0
 40
0.0
 40
0.0
 40
0.2499999999999999
 40
0.2499999999999999
 40
0.4999999999999998
 40
0.4999999999999998
 40
1.0
 40
1.0
 40
1.0
 40
1.0
 10
23.15368306059396
 20
0.5085954297921336
 30
0.0
 10
23.1366396549214
 20
0.7682072696686516
 30
0.0
 10
23.11976723877867
 20
1.024726386038227
 30
0.0
 10
23.08446171255808
 20
1.533615364825175
 30
0.0
 10
23.0664019542044
 20
1.784061680424156
 30
0.0
 10
23.01211657320978
 20
2.507227578529021
 30
0.0
 10
22.97597243226602
 20
2.949783830450588
 30
0.0
 10
22.94232433521607
 20
3.322349494295135
 30
0.0
  0
SPLINE
  5
E3
330
1F
100
AcDbEntity
  8
외형선
  6
Continuous
 62
     1
370
    15
100
AcDbSpline
210
0.0
220
0.0
230
1.0
 70
     8
 71
     3
 72
     8
 73
     4
 74
     0
 42
0.000000001
 43
0.00000001
 40
0.0
 40
0.0
 40
0.0
 40
0.0
 40
1.0
 40
1.0
 40
1.0
 40
1.0
 10
24.04239644342682
 20
3.024423995558205
 30
0.0
 10
23.67648644223346
 20
3.127333360549729
 30
0.0
 10
23.30914957618714
 20
3.226820186710623
 30
0.0
 10
22.94232413390369
 20
3.322350012977316
 30
0.0
  0
SPLINE
  5
E4
330
1F
100
AcDbEntity
  8
외형선
  6
Continuous
 62
     1
370
    15
100
AcDbSpline
210
0.0
220
0.0
230
1.0
 70
     8
 71
     3
 72
    12
 73
     8
 74
     0
 42
0.000000001
 43
0.00000001
 40
0.0
 40
0.0
 40
0.0
 40
0.0
 40
0.2499999999999999
 40
0.2499999999999999
 40
0.4999999999999999
 40
0.4999999999999999
 40
1.0
 40
1.0
 40
1.0
 40
1.0
 10
24.25402691979777
 20
0.1093334438809075
 30
0.0
 10
24.23646215358501
 20
0.3728872069192956
 30
0.0
 10
24.2197744274227
 20
0.6315515307063461
 30
0.0
 10
24.18548513616352
 20
1.145416922115615
 30
0.0
 10
24.16776151826955
 20
1.401170718673006
 30
0.0
 10
24.11390096648333
 20
2.148453265766323
 30
0.0
 10
24.07710532882225
 20
2.618761836727678
 30
0.0
 10
24.04239681436685
 20
3.024423933258302
 30
0.0
  0
SPLINE
  5
E5
330
1F
100
AcDbEntity
  8
외형선
  6
Continuous
 62
     1
370
    15
100
AcDbSpline
210
0.0
220
0.0
230
1.0
 70
     8
 71
     3
 72
     8
 73
     4
 74
     0
 42
0.000000001
 43
0.00000001
 40
0.0
 40
0.0
 40
0.0
 40
0.0
 40
1.0
 40
1.0
 40
1.0
 40
1.0
 10
26.46306923406314
 20
-0.691360004813383
 30
0.0
 10
26.41748612366697
 20
-0.6754606908060032
 30
0.0
 10
26.36168616969724
 20
-0.6556545635640769
 30
0.0
 10
26.30432082752957
 20
-0.6349797325791705
 30
0.0
  0
SPLINE
  5
E6
330
1F
100
AcDbEntity
  8
외형선
  6
Continuous
 62
     1
370
    15
100
AcDbSpline
210
0.0
220
0.0
230
1.0
 70
     8
 71
     3
 72
     8
 73
     4
 74
     0
 42
0.000000001
 43
0.00000001
 40
0.0
 40
0.0
 40
0.0
 40
0.0
 40
1.0
 40
1.0
 40
1.0
 40
1.0
 10
26.09243926098149
 20
2.413245235138389
 30
0.0
 10
26.14814061153028
 20
2.395790872981653
 30
0.0
 10
26.20412898474694
 20
2.37101667610641
 30
0.0
 10
26.25018864997018
 20
2.343259858627887
 30
0.0
  0
SPLINE
  5
E7
330
1F
100
AcDbEntity
  8
외형선
  6
Continuous
 62
     1
370
    15
100
AcDbSpline
210
0.0
220
0.0
230
1.0
 70
     8
 71
     3
 72
    12
 73
     8
 74
     0
 42
0.000000001
 43
0.00000001
 40
0.0
 40
0.0
 40
0.0
 40
0.0
 40
0.2500000000000001
 40
0.2500000000000001
 40
0.5000000000000001
 40
0.5000000000000001
 40
1.0
 40
1.0
 40
1.0
 40
1.0
 10
26.46306923404492
 20
-0.6913600045509629
 30
0.0
 10
26.44491927096836
 20
-0.4300048445528437
 30
0.0
 10
26.42683409219433
 20
-0.1656935062134211
 30
0.0
 10
26.39153912742565
 20
0.3577275138063583
 30
0.0
 10
26.37476557263802
 20
0.6146690296277205
 30
0.0
 10
26.32316881350869
 20
1.379919473121481
 30
0.0
 10
26.28638665681759
 20
1.885316743893365
 30
0.0
 10
26.25018885314632
 20
2.343257288224552
 30
0.0
  0
SPLINE
  5
E8
330
1F
100
AcDbEntity
  8
외형선
  6
Continuous
 62
     1
370
    15
100
AcDbSpline
210
0.0
220
0.0
230
1.0
 70
     8
 71
     3
 72
     8
 73
     4
 74
     0
 42
0.000000001
 43
0.00000001
 40
0.0
 40
0.0
 40
0.0
 40
0.0
 40
1.0
 40
1.0
 40
1.0
 40
1.0
 10
25.20329457078744
 20
-0.2365610470711076
 30
0.0
 10
25.14759889187191
 20
-0.2163258851022127
 30
0.0
 10
25.09161691981174
 20
-0.1972544217362128
 30
0.0
 10
25.04556188916751
 20
-0.1842352810279088
 30
0.0
  0
SPLINE
  5
E9
330
1F
100
AcDbEntity
  8
외형선
  6
Continuous
 62
     1
370
    15
100
AcDbSpline
210
0.0
220
0.0
230
1.0
 70
     8
 71
     3
 72
    12
 73
     8
 74
     0
 42
0.000000001
 43
0.00000001
 40
0.0
 40
0.0
 40
0.0
 40
0.0
 40
0.2500000000000001
 40
0.2500000000000001
 40
0.5000000000000001
 40
0.5000000000000001
 40
1.0
 40
1.0
 40
1.0
 40
1.0
 10
25.04556188916406
 20
-0.1842352809604038
 30
0.0
 10
25.02764425883548
 20
0.0787109033695391
 30
0.0
 10
25.01003812596089
 20
0.3409760686015499
 30
0.0
 10
24.97613010172241
 20
0.8535771079497839
 30
0.0
 10
24.95886098859028
 20
1.108774196165256
 30
0.0
 10
24.90541204289989
 20
1.863145259111947
 30
0.0
 10
24.86832093610882
 20
2.346511179687812
 30
0.0
 10
24.83281895944948
 20
2.770749865455019
 30
0.0
  0
SPLINE
  5
EA
330
1F
100
AcDbEntity
  8
외형선
  6
Continuous
 62
     1
370
    15
100
AcDbSpline
210
0.0
220
0.0
230
1.0
 70
     8
 71
     3
 72
     8
 73
     4
 74
     0
 42
0.000000001
 43
0.00000001
 40
0.0
 40
0.0
 40
0.0
 40
0.0
 40
1.0
 40
1.0
 40
1.0
 40
1.0
 10
24.83281895933771
 20
2.770749866795776
 30
0.0
 10
24.87838156424765
 20
2.773959049680697
 30
0.0
 10
24.93416275978167
 20
2.766437657298112
 30
0.0
 10
24.99151131035947
 20
2.749388774360469
 30
0.0
  0
SPLINE
  5
EB
330
1F
100
AcDbEntity
  8
외형선
  6
Continuous
 62
     1
370
    15
100
AcDbSpline
210
0.0
220
0.0
230
1.0
 70
     8
 71
     3
 72
    10
 73
     6
 74
     0
 42
0.000000001
 43
0.00000001
 40
0.0
 40
0.0
 40
0.0
 40
0.0
 40
0.5
 40
0.5
 40
1.0
 40
1.0
 40
1.0
 40
1.0
 10
27.09612194713696
 20
-0.9161130262452741
 30
0.0
 10
27.00245562313777
 20
-0.8787397165938485
 30
0.0
 10
26.88869020725856
 20
-0.8393073470564385
 30
0.0
 10
26.66185291864274
 20
-0.7606670318487384
 30
0.0
 10
26.55301934802842
 20
-0.7227344567650698
 30
0.0
 10
26.46306923406314
 20
-0.6913600048133788
 30
0.0
  0
SPLINE
  5
EC
330
1F
100
AcDbEntity
  8
외형선
  6
Continuous
 62
     1
370
    15
100
AcDbSpline
210
0.0
220
0.0
230
1.0
 70
     8
 71
     3
 72
    10
 73
     6
 74
     0
 42
0.000000001
 43
0.00000001
 40
0.0
 40
0.0
 40
0.0
 40
0.0
 40
0.5
 40
0.5
 40
1.0
 40
1.0
 40
1.0
 40
1.0
 10
26.25018864996944
 20
2.343259858626831
 30
0.0
 10
26.34386043561172
 20
2.286810671591401
 30
0.0
 10
26.45764729096527
 20
2.240395238138972
 30
0.0
 10
26.68449879859516
 20
2.171151834875907
 30
0.0
 10
26.79328697921769
 20
2.149181295258708
 30
0.0
 10
26.8832092926808
 20
2.142941787018342
 30
0.0
  0
SPLINE
  5
F4
330
1F
100
AcDbEntity
  8
외형선
  6
Continuous
 62
     1
370
    15
100
AcDbSpline
210
0.0
220
0.0
230
1.0
 70
     8
 71
     3
 72
    10
 73
     6
 74
     0
 42
0.000000001
 43
0.00000001
 40
0.0
 40
0.0
 40
0.0
 40
0.0
 40
0.4999999999999966
 40
0.4999999999999966
 40
1.0
 40
1.0
 40
1.0
 40
1.0
 10
24.20007144901547
 20
2.951950352968876
 30
0.0
 10
24.29370224338193
 20
2.888208188887648
 30
0.0
 10
24.40743731967591
 20
2.840015415055526
 30
0.0
 10
24.63416780519644
 20
2.777775763086443
 30
0.0
 10
24.74292443403877
 20
2.764418183771342
 30
0.0
 10
24.8328189593373
 20
2.770749866795589
 30
0.0
  0
SPLINE
  5
F5
330
1F
100
AcDbEntity
  8
외형선
  6
Continuous
 62
     1
370
    15
100
AcDbSpline
210
0.0
220
0.0
230
1.0
 70
     8
 71
     3
 72
     8
 73
     4
 74
     0
 42
0.000000001
 43
0.00000001
 40
0.0
 40
0.0
 40
0.0
 40
0.0
 40
1.0
 40
1.0
 40
1.0
 40
1.0
 10
24.04239681805109
 20
3.024423890198021
 30
0.0
 10
24.09807372229509
 20
3.008765190007226
 30
0.0
 10
24.15403411342031
 20
2.983291744648747
 30
0.0
 10
24.20007144901619
 20
2.951950352970424
 30
0.0
  0
SPLINE
  5
F6
330
1F
100
AcDbEntity
  8
외형선
  6
Continuous
 62
     1
370
    15
100
AcDbSpline
210
0.0
220
0.0
230
1.0
 70
     8
 71
     3
 72
     8
 73
     4
 74
     0
 42
0.000000001
 43
0.00000001
 40
0.0
 40
0.0
 40
0.0
 40
0.0
 40
1.0
 40
1.0
 40
1.0
 40
1.0
 10
22.78378147543589
 20
3.330705887945005
 30
0.0
 10
22.82929097584613
 20
3.340225618909269
 30
0.0
 10
22.88502303041372
 20
3.337272545314795
 30
0.0
 10
22.94232429209155
 20
3.322349971783071
 30
0.0
  0
SPLINE
  5
F7
330
1F
100
AcDbEntity
  8
외형선
  6
Continuous
 62
     1
370
    15
100
AcDbSpline
210
0.0
220
0.0
230
1.0
 70
     8
 71
     3
 72
    10
 73
     6
 74
     0
 42
0.000000001
 43
0.00000001
 40
0.0
 40
0.0
 40
0.0
 40
0.0
 40
0.5
 40
0.5
 40
1.0
 40
1.0
 40
1.0
 40
1.0
 10
22.15133704997998
 20
3.487690900122448
 30
0.0
 10
22.24490273721822
 20
3.41829988911798
 30
0.0
 10
22.35856412664967
 20
3.369610300755491
 30
0.0
 10
22.58522021798184
 20
3.316239226756643
 30
0.0
 10
22.69395469695641
 20
3.311915816491243
 30
0.0
 10
22.78378147543548
 20
3.330705887944782
 30
0.0
  0
SPLINE
  5
F8
330
1F
100
AcDbEntity
  8
외형선
  6
Continuous
 62
     1
370
    15
100
AcDbSpline
210
0.0
220
0.0
230
1.0
 70
     8
 71
     3
 72
     8
 73
     4
 74
     0
 42
0.000000001
 43
0.00000001
 40
0.0
 40
0.0
 40
0.0
 40
0.0
 40
1.0
 40
1.0
 40
1.0
 40
1.0
 10
21.99366741943269
 20
3.560867598564521
 30
0.0
 10
22.04933459379256
 20
3.547374324696294
 30
0.0
 10
22.10529665646417
 20
3.521835783226671
 30
0.0
 10
22.15133704998072
 20
3.487690900124465
 30
0.0
  0
SPLINE
  5
F9
330
1F
100
AcDbEntity
  8
외형선
  6
Continuous
 62
     1
370
    15
100
AcDbSpline
210
0.0
220
0.0
230
1.0
 70
     8
 71
     3
 72
     8
 73
     4
 74
     0
 42
0.000000001
 43
0.00000001
 40
0.0
 40
0.0
 40
0.0
 40
0.0
 40
1.0
 40
1.0
 40
1.0
 40
1.0
 10
21.99366683626213
 20
3.560867739920349
 30
0.0
 10
21.62812244356972
 20
3.649472746928856
 30
0.0
 10
21.26095680433797
 20
3.734011334288643
 30
0.0
 10
20.89302793429065
 20
3.814090357212042
 30
0.0
  0
SPLINE
  5
FA
330
1F
100
AcDbEntity
  8
외형선
  6
Continuous
 62
     1
370
    15
100
AcDbSpline
210
0.0
220
0.0
230
1.0
 70
     8
 71
     3
 72
     8
 73
     4
 74
     0
 42
0.000000001
 43
0.00000001
 40
0.0
 40
0.0
 40
0.0
 40
0.0
 40
1.0
 40
1.0
 40
1.0
 40
1.0
 10
20.73432932503368
 20
3.809386420609727
 30
0.0
 10
20.77989555212433
 20
3.82494329395773
 30
0.0
 10
20.8356801477822
 20
3.826571994911443
 30
0.0
 10
20.8930282376374
 20
3.814090291191047
 30
0.0
  0
SPLINE
  5
FB
330
1F
100
AcDbEntity
  8
외형선
  6
Continuous
 62
     1
370
    15
100
AcDbSpline
210
0.0
220
0.0
230
1.0
 70
     8
 71
     3
 72
    10
 73
     6
 74
     0
 42
0.000000001
 43
0.00000001
 40
0.0
 40
0.0
 40
0.0
 40
0.0
 40
0.5
 40
0.5
 40
1.0
 40
1.0
 40
1.0
 40
1.0
 10
20.10142553210483
 20
3.9386245544577
 30
0.0
 10
20.19506390320171
 20
3.865265593179262
 30
0.0
 10
20.30881168147652
 20
3.817275532899503
 30
0.0
 10
20.53562178804535
 20
3.773944829437294
 30
0.0
 10
20.64441953335206
 20
3.778690106008599
 30
0.0
 10
20.73432932503347
 20
3.809386420609539
 30
0.0
  0
SPLINE
  5
FC
330
1F
100
AcDbEntity
  8
외형선
  6
Continuous
 62
     1
370
    15
100
AcDbSpline
210
0.0
220
0.0
230
1.0
 70
     8
 71
     3
 72
     8
 73
     4
 74
     0
 42
0.000000001
 43
0.00000001
 40
0.0
 40
0.0
 40
0.0
 40
0.0
 40
1.0
 40
1.0
 40
1.0
 40
1.0
 10
19.94367680821566
 20
4.010573790839106
 30
0.0
 10
19.99937394406144
 20
3.999642145236073
 30
0.0
 10
20.05536368230585
 20
3.974710716748688
 30
0.0
 10
20.10142553210558
 20
3.938624554460163
 30
0.0
  0
SPLINE
  5
FD
330
1F
100
AcDbEntity
  8
외형선
  6
Continuous
 62
     1
370
    15
100
AcDbSpline
210
0.0
220
0.0
230
1.0
 70
     8
 71
     3
 72
     8
 73
     4
 74
     0
 42
0.000000001
 43
0.00000001
 40
0.0
 40
0.0
 40
0.0
 40
0.0
 40
1.0
 40
1.0
 40
1.0
 40
1.0
 10
19.94367686580564
 20
4.010573779535949
 30
0.0
 10
19.57577022330341
 20
4.082782610320997
 30
0.0
 10
19.21033924828116
 20
4.150085759022194
 30
0.0
 10
18.84249939308203
 20
4.21254305183845
 30
0.0
  0
SPLINE
  5
FE
330
1F
100
AcDbEntity
  8
외형선
  6
Continuous
 62
     1
370
    15
100
AcDbSpline
210
0.0
220
0.0
230
1.0
 70
     8
 71
     3
 72
     8
 73
     4
 74
     0
 42
0.000000001
 43
0.00000001
 40
0.0
 40
0.0
 40
0.0
 40
0.0
 40
1.0
 40
1.0
 40
1.0
 40
1.0
 10
18.68374733141673
 20
4.194903714262738
 30
0.0
 10
18.72933417450013
 20
4.216116317307669
 30
0.0
 10
18.78513689425774
 20
4.222282905567851
 30
0.0
 10
18.84249939126599
 20
4.21254305214892
 30
0.0
  0
SPLINE
  5
FF
330
1F
100
AcDbEntity
  8
외형선
  6
Continuous
 62
     1
370
    15
100
AcDbSpline
210
0.0
220
0.0
230
1.0
 70
     8
 71
     3
 72
    10
 73
     6
 74
     0
 42
0.000000001
 43
0.00000001
 40
0.0
 40
0.0
 40
0.0
 40
0.0
 40
0.4999999999999999
 40
0.4999999999999999
 40
1.0
 40
1.0
 40
1.0
 40
1.0
 10
18.05074941284061
 20
4.293353786064902
 30
0.0
 10
18.14440636668613
 20
4.217798996382003
 30
0.0
 10
18.25817919940296
 20
4.171649593526197
 30
0.0
 10
18.48502504495649
 20
4.139374163553335
 30
0.0
 10
18.59382294209524
 20
4.153059834631262
 30
0.0
 10
18.68374733141632
 20
4.194903714262452
 30
0.0
  0
SPLINE
  5
100
330
1F
100
AcDbEntity
  8
외형선
  6
Continuous
 62
     1
370
    15
100
AcDbSpline
210
0.0
220
0.0
230
1.0
 70
     8
 71
     3
 72
     8
 73
     4
 74
     0
 42
0.000000001
 43
0.00000001
 40
0.0
 40
0.0
 40
0.0
 40
0.0
 40
1.0
 40
1.0
 40
1.0
 40
1.0
 10
17.89300099823796
 20
4.362369343903309
 30
0.0
 10
17.94870119593548
 20
4.354247488444562
 30
0.0
 10
18.00469009680456
 20
4.330510684655262
 30
0.0
 10
18.05074941284136
 20
4.293353786067704
 30
0.0
  0
SPLINE
  5
101
330
1F
100
AcDbEntity
  8
외형선
  6
Continuous
 62
     1
370
    15
100
AcDbSpline
210
0.0
220
0.0
230
1.0
 70
     8
 71
     3
 72
     8
 73
     4
 74
     0
 42
0.000000001
 43
0.00000001
 40
0.0
 40
0.0
 40
0.0
 40
0.0
 40
1.0
 40
1.0
 40
1.0
 40
1.0
 10
17.8930012286527
 20
4.362369310305661
 30
0.0
 10
17.52491050500299
 20
4.416042006202079
 30
0.0
 10
17.15732592542862
 20
4.464519240585838
 30
0.0
 10
16.79175092939336
 20
4.50759916850311
 30
0.0
  0
SPLINE
  5
102
330
1F
100
AcDbEntity
  8
외형선
  6
Continuous
 62
     1
370
    15
100
AcDbSpline
210
0.0
220
0.0
230
1.0
 70
     8
 71
     3
 72
     8
 73
     4
 74
     0
 42
0.000000001
 43
0.00000001
 40
0.0
 40
0.0
 40
0.0
 40
0.0
 40
1.0
 40
1.0
 40
1.0
 40
1.0
 10
16.63332652979611
 20
4.477423085740128
 30
0.0
 10
16.67889738777052
 20
4.503770756137255
 30
0.0
 10
16.73468331648109
 20
4.514324537715403
 30
0.0
 10
16.79202729033185
 20
4.507566600656152
 30
0.0
  0
SPLINE
  5
103
330
1F
100
AcDbEntity
  8
외형선
  6
Continuous
 62
     1
370
    15
100
AcDbSpline
210
0.0
220
0.0
230
1.0
 70
     8
 71
     3
 72
    10
 73
     6
 74
     0
 42
0.000000001
 43
0.00000001
 40
0.0
 40
0.0
 40
0.0
 40
0.0
 40
0.5
 40
0.5
 40
1.0
 40
1.0
 40
1.0
 40
1.0
 10
16.00060224008996
 20
4.542735929713672
 30
0.0
 10
16.0942234414251
 20
4.466832843026479
 30
0.0
 10
16.20795966353566
 20
4.423632589455629
 30
0.0
 10
16.43472221878117
 20
4.403176830985309
 30
0.0
 10
16.54345665808832
 20
4.425463086221441
 30
0.0
 10
16.63332652979577
 20
4.477423085739857
 30
0.0
  0
SPLINE
  5
104
330
1F
100
AcDbEntity
  8
외형선
  6
Continuous
 62
     1
370
    15
100
AcDbSpline
210
0.0
220
0.0
230
1.0
 70
     8
 71
     3
 72
     8
 73
     4
 74
     0
 42
0.000000001
 43
0.00000001
 40
0.0
 40
0.0
 40
0.0
 40
0.0
 40
1.0
 40
1.0
 40
1.0
 40
1.0
 10
15.84293344837489
 20
4.607160714424728
 30
0.0
 10
15.89860989404513
 20
4.602034051082635
 30
0.0
 10
15.95456946908167
 20
4.580056850175674
 30
0.0
 10
16.00060224009068
 20
4.54273592971669
 30
0.0
  0
SPLINE
  5
105
330
1F
100
AcDbEntity
  8
외형선
  6
Continuous
 62
     1
370
    15
100
AcDbSpline
210
0.0
220
0.0
230
1.0
 70
     8
 71
     3
 72
     8
 73
     4
 74
     0
 42
0.000000001
 43
0.00000001
 40
0.0
 40
0.0
 40
0.0
 40
0.0
 40
1.0
 40
1.0
 40
1.0
 40
1.0
 10
15.84293394184506
 20
4.607160668986186
 30
0.0
 10
15.47615293890769
 20
4.640933712000535
 30
0.0
 10
15.10881227386383
 20
4.66929853433273
 30
0.0
 10
14.74285033308793
 20
4.692117608297781
 30
0.0
  0
SPLINE
  5
106
330
1F
100
AcDbEntity
  8
외형선
  6
Continuous
 62
     1
370
    15
100
AcDbSpline
210
0.0
220
0.0
230
1.0
 70
     8
 71
     3
 72
     8
 73
     4
 74
     0
 42
0.000000001
 43
0.00000001
 40
0.0
 40
0.0
 40
0.0
 40
0.0
 40
1.0
 40
1.0
 40
1.0
 40
1.0
 10
14.58430289970154
 20
4.650124654677063
 30
0.0
 10
14.6298144059384
 20
4.680966979370849
 30
0.0
 10
14.6855466968461
 20
4.695690700718588
 30
0.0
 10
14.74285019635201
 20
4.692117616826205
 30
0.0
  0
SPLINE
  5
107
330
1F
100
AcDbEntity
  8
외형선
  6
Continuous
 62
     1
370
    15
100
AcDbSpline
210
0.0
220
0.0
230
1.0
 70
     8
 71
     3
 72
    10
 73
     6
 74
     0
 42
0.000000001
 43
0.00000001
 40
0.0
 40
0.0
 40
0.0
 40
0.0
 40
0.5
 40
0.5
 40
1.0
 40
1.0
 40
1.0
 40
1.0
 10
13.95183591039418
 20
4.680663759096103
 30
0.0
 10
14.04542587681402
 20
4.606286744893808
 30
0.0
 10
14.15910428703462
 20
4.567092285122625
 30
0.0
 10
14.38574870701007
 20
4.558915621890479
 30
0.0
 10
14.49447116835458
 20
4.58924731496395
 30
0.0
 10
14.58430289970112
 20
4.650124654676704
 30
0.0
  0
SPLINE
  5
108
330
1F
100
AcDbEntity
  8
외형선
  6
Continuous
 62
     1
370
    15
100
AcDbSpline
210
0.0
220
0.0
230
1.0
 70
     8
 71
     3
 72
     8
 73
     4
 74
     0
 42
0.000000001
 43
0.00000001
 40
0.0
 40
0.0
 40
0.0
 40
0.0
 40
1.0
 40
1.0
 40
1.0
 40
1.0
 10
13.79417338183795
 20
4.738938733942872
 30
0.0
 10
13.84984643551882
 20
4.736924721578996
 30
0.0
 10
13.90580303068635
 20
4.71724661385161
 30
0.0
 10
13.95183591039491
 20
4.68066375909933
 30
0.0
  0
SPLINE
  5
109
330
1F
100
AcDbEntity
  8
외형선
  6
Continuous
 62
     1
370
    15
100
AcDbSpline
210
0.0
220
0.0
230
1.0
 70
     8
 71
     3
 72
     8
 73
     4
 74
     0
 42
0.000000001
 43
0.00000001
 40
0.0
 40
0.0
 40
0.0
 40
0.0
 40
1.0
 40
1.0
 40
1.0
 40
1.0
 10
13.79417484690032
 20
4.738938680943146
 30
0.0
 10
13.42814396647749
 20
4.75218012365846
 30
0.0
 10
13.06063437789741
 20
4.759862117563443
 30
0.0
 10
12.6935870526487
 20
4.761928599967537
 30
0.0
  0
SPLINE
  5
10A
330
1F
100
AcDbEntity
  8
외형선
  6
Continuous
 62
     1
370
    15
100
AcDbSpline
210
0.0
220
0.0
230
1.0
 70
     8
 71
     3
 72
     8
 73
     4
 74
     0
 42
0.000000001
 43
0.00000001
 40
0.0
 40
0.0
 40
0.0
 40
0.0
 40
1.0
 40
1.0
 40
1.0
 40
1.0
 10
12.53488602684511
 20
4.709158297038497
 30
0.0
 10
12.5804515298278
 20
4.743746608325784
 30
0.0
 10
12.63623539550938
 20
4.762251487271842
 30
0.0
 10
12.69358487704677
 20
4.761928612218693
 30
0.0
  0
SPLINE
  5
10B
330
1F
100
AcDbEntity
  8
외형선
  6
Continuous
 62
     1
370
    15
100
AcDbSpline
210
0.0
220
0.0
230
1.0
 70
     8
 71
     3
 72
     9
 73
     5
 74
     0
 42
0.000000001
 43
0.00000001
 40
0.0
 40
0.0
 40
0.0
 40
0.0
 40
0.3628132677005568
 40
1.0
 40
1.0
 40
1.0
 40
1.0
 10
12.32045824374361
 20
4.619745919677612
 30
0.0
 10
12.34892551911757
 20
4.623849064904865
 30
0.0
 10
12.42738812759488
 20
4.63515831291903
 30
0.0
 10
12.49304826099875
 20
4.680357789960487
 30
0.0
 10
12.5348860268447
 20
4.709158297038176
 30
0.0
  0
SPLINE
  5
10C
330
1F
100
AcDbEntity
  8
외형선
  6
Continuous
 62
     1
370
    15
100
AcDbSpline
210
0.0
220
0.0
230
1.0
 70
     8
 71
     3
 72
     9
 73
     5
 74
     0
 42
0.000000001
 43
0.00000001
 40
0.0
 40
0.0
 40
0.0
 40
0.0
 40
0.7739542088407393
 40
1.0
 40
1.0
 40
1.0
 40
1.0
 10
22.31338548307626
 20
3.622086375998312
 30
0.0
 10
22.26339632184449
 20
3.587406519088315
 30
0.0
 10
22.19880702100377
 20
3.542597851451582
 30
0.0
 10
22.12473808257301
 20
3.52040889935044
 30
0.0
 10
22.1079951107851
 20
3.515393180117742
 30
0.0
  0
SPLINE
  5
10D
330
1F
100
AcDbEntity
  8
외형선
  6
Continuous
 62
     1
370
    15
100
AcDbSpline
210
0.0
220
0.0
230
1.0
 70
     8
 71
     3
 72
     8
 73
     4
 74
     0
 42
0.000000001
 43
0.00000001
 40
0.0
 40
0.0
 40
0.0
 40
0.0
 40
1.0
 40
1.0
 40
1.0
 40
1.0
 10
22.47113946197634
 20
3.69507204939383
 30
0.0
 10
22.41543782779341
 20
3.68228036636101
 30
0.0
 10
22.35944901498196
 20
3.65685774398007
 30
0.0
 10
22.31338548307541
 20
3.622086376000177
 30
0.0
  0
SPLINE
  5
10E
330
1F
100
AcDbEntity
  8
외형선
  6
Continuous
 62
     1
370
    15
100
AcDbSpline
210
0.0
220
0.0
230
1.0
 70
     8
 71
     3
 72
     8
 73
     4
 74
     0
 42
0.000000001
 43
0.00000001
 40
0.0
 40
0.0
 40
0.0
 40
0.0
 40
1.0
 40
1.0
 40
1.0
 40
1.0
 10
23.57203923203723
 20
3.934232848125873
 30
0.0
 10
23.2050233880406
 20
3.859048633459305
 30
0.0
 10
22.83740907902768
 20
3.779184573375161
 30
0.0
 10
22.4711390388901
 20
3.695071952233569
 30
0.0
  0
SPLINE
  5
10F
330
1F
100
AcDbEntity
  8
외형선
  6
Continuous
 62
     1
370
    15
100
AcDbSpline
210
0.0
220
0.0
230
1.0
 70
     8
 71
     3
 72
     8
 73
     4
 74
     0
 42
0.000000001
 43
0.00000001
 40
0.0
 40
0.0
 40
0.0
 40
0.0
 40
1.0
 40
1.0
 40
1.0
 40
1.0
 10
23.73071852427574
 20
3.925921107792513
 30
0.0
 10
23.68516110048195
 20
3.943086018477012
 30
0.0
 10
23.62938296503712
 20
3.945979871048167
 30
0.0
 10
23.57203923206491
 20
3.934232848133428
 30
0.0
  0
SPLINE
  5
110
330
1F
100
AcDbEntity
  8
외형선
  6
Continuous
 62
     1
370
    15
100
AcDbSpline
210
0.0
220
0.0
230
1.0
 70
     8
 71
     3
 72
    10
 73
     6
 74
     0
 42
0.000000001
 43
0.00000001
 40
0.0
 40
0.0
 40
0.0
 40
0.0
 40
0.5
 40
0.5
 40
1.0
 40
1.0
 40
1.0
 40
1.0
 10
24.36341467287281
 20
4.047083212391075
 30
0.0
 10
24.26981335555712
 20
3.972894459990951
 30
0.0
 10
24.1561072797374
 20
3.925250631488191
 30
0.0
 10
23.92937128521417
 20
3.884824705233504
 30
0.0
 10
23.82060432278617
 20
3.892054361721728
 30
0.0
 10
23.73071852427619
 20
3.925921107792226
 30
0.0
  0
SPLINE
  5
111
330
1F
100
AcDbEntity
  8
외형선
  6
Continuous
 62
     1
370
    15
100
AcDbSpline
210
0.0
220
0.0
230
1.0
 70
     8
 71
     3
 72
     8
 73
     4
 74
     0
 42
0.000000001
 43
0.00000001
 40
0.0
 40
0.0
 40
0.0
 40
0.0
 40
1.0
 40
1.0
 40
1.0
 40
1.0
 10
24.521090861223
 20
4.118476482402788
 30
0.0
 10
24.4654219993651
 20
4.108269186001341
 30
0.0
 10
24.40945854365139
 20
4.083577755704491
 30
0.0
 10
24.36341467287196
 20
4.047083212393273
 30
0.0
  0
SPLINE
  5
112
330
1F
100
AcDbEntity
  8
외형선
  6
Continuous
 62
     1
370
    15
100
AcDbSpline
210
0.0
220
0.0
230
1.0
 70
     8
 71
     3
 72
     8
 73
     4
 74
     0
 42
0.000000001
 43
0.00000001
 40
0.0
 40
0.0
 40
0.0
 40
0.0
 40
1.0
 40
1.0
 40
1.0
 40
1.0
 10
25.62115358702668
 20
4.304797837139136
 30
0.0
 10
25.25349690005148
 20
4.247643755815083
 30
0.0
 10
24.88616369122807
 20
4.185415278340322
 30
0.0
 10
24.52109086121635
 20
4.118476482401569
 30
0.0
  0
SPLINE
  5
113
330
1F
100
AcDbEntity
  8
외형선
  6
Continuous
 62
     1
370
    15
100
AcDbSpline
210
0.0
220
0.0
230
1.0
 70
     8
 71
     3
 72
     8
 73
     4
 74
     0
 42
0.000000001
 43
0.00000001
 40
0.0
 40
0.0
 40
0.0
 40
0.0
 40
1.0
 40
1.0
 40
1.0
 40
1.0
 10
25.77970522253519
 20
4.283571937440533
 30
0.0
 10
25.73419195567299
 20
4.30627410552461
 30
0.0
 10
25.67845627028069
 20
4.313705827481299
 30
0.0
 10
25.62115359209115
 20
4.304797837928532
 30
0.0
  0
SPLINE
  5
114
330
1F
100
AcDbEntity
  8
외형선
  6
Continuous
 62
     1
370
    15
100
AcDbSpline
210
0.0
220
0.0
230
1.0
 70
     8
 71
     3
 72
    10
 73
     6
 74
     0
 42
0.000000001
 43
0.00000001
 40
0.0
 40
0.0
 40
0.0
 40
0.0
 40
0.5
 40
0.5
 40
1.0
 40
1.0
 40
1.0
 40
1.0
 10
26.41215968453032
 20
4.372985458839203
 30
0.0
 10
26.31859404311313
 20
4.297181192727187
 30
0.0
 10
26.20492560394268
 20
4.251722785331076
 30
0.0
 10
25.97825465900489
 20
4.222642056642084
 30
0.0
 10
25.86952781671544
 20
4.238768130299404
 30
0.0
 10
25.77970522253564
 20
4.283571937440227
 30
0.0
  0
SPLINE
  5
115
330
1F
100
AcDbEntity
  8
외형선
  6
Continuous
 62
     1
370
    15
100
AcDbSpline
210
0.0
220
0.0
230
1.0
 70
     8
 71
     3
 72
     8
 73
     4
 74
     0
 42
0.000000001
 43
0.00000001
 40
0.0
 40
0.0
 40
0.0
 40
0.0
 40
1.0
 40
1.0
 40
1.0
 40
1.0
 10
26.56982571682614
 20
4.440916629092231
 30
0.0
 10
26.51415451097173
 20
4.433596283024623
 30
0.0
 10
26.45819386008405
 20
4.410281060529415
 30
0.0
 10
26.41215968452948
 20
4.372985458841729
 30
0.0
  0
SPLINE
  5
116
330
1F
100
AcDbEntity
  8
외형선
  6
Continuous
 62
     1
370
    15
100
AcDbSpline
210
0.0
220
0.0
230
1.0
 70
     8
 71
     3
 72
     8
 73
     4
 74
     0
 42
0.000000001
 43
0.00000001
 40
0.1887554722649316
 40
0.1887554722649316
 40
0.1887554722649316
 40
0.1887554722649316
 40
1.0
 40
1.0
 40
1.0
 40
1.0
 10
27.46249999999999
 20
4.762500000000003
 30
0.0
 10
27.16475901779869
 20
4.642718040070985
 30
0.0
 10
26.86806586890128
 20
4.560125560099958
 30
0.0
 10
26.56982567966009
 20
4.440916624205208
 30
0.0
  0
SPLINE
  5
11D
330
1F
100
AcDbEntity
  8
외형선
  6
Continuous
 62
     1
370
    15
100
AcDbSpline
210
0.0
220
0.0
230
1.0
 70
     8
 71
     3
 72
     9
 73
     5
 74
     0
 42
0.000000001
 43
0.00000001
 40
0.0
 40
0.0
 40
0.0
 40
0.0
 40
0.7221675798995931
 40
1.0
 40
1.0
 40
1.0
 40
1.0
 10
31.07916644384912
 20
-2.236901034178936
 30
0.0
 10
30.99474465866765
 20
-2.261922692050315
 30
0.0
 10
30.87784411157691
 20
-2.296570685906337
 30
0.0
 10
30.75433153316847
 20
-2.344920769693835
 30
0.0
 10
30.72001573459641
 20
-2.358353990484573
 30
0.0
  0
SPLINE
  5
11E
330
1F
100
AcDbEntity
  8
외형선
  6
Continuous
 62
     1
370
    15
100
AcDbSpline
210
0.0
220
0.0
230
1.0
 70
     8
 71
     3
 72
     8
 73
     4
 74
     0
 42
0.000000001
 43
0.00000001
 40
0.502764468944861
 40
0.502764468944861
 40
0.502764468944861
 40
0.502764468944861
 40
1.0
 40
1.0
 40
1.0
 40
1.0
 10
31.46601832561231
 20
-2.579388932768042
 30
0.0
 10
31.21660386958255
 20
-2.508690211760089
 30
0.0
 10
30.9679569993536
 20
-2.434929481542119
 30
0.0
 10
30.72001573459642
 20
-2.358353990484571
 30
0.0
  0
SPLINE
  5
12B
330
1F
100
AcDbEntity
  8
외형선
  6
Continuous
 62
     1
370
    15
100
AcDbSpline
210
0.0
220
0.0
230
1.0
 70
     8
 71
     3
 72
     8
 73
     4
 74
     0
 42
0.000000001
 43
0.00000001
 40
0.0
 40
0.0
 40
0.0
 40
0.0
 40
1.0
 40
1.0
 40
1.0
 40
1.0
 10
26.77676932687648
 20
-4.762499999999986
 30
0.0
 10
26.41089165201448
 20
-4.763715692341744
 30
0.0
 10
26.04329314201347
 20
-4.764054052570323
 30
0.0
 10
25.67591589797422
 20
-4.758774163848098
 30
0.0
  0
SPLINE
  5
12C
330
1F
100
AcDbEntity
  8
외형선
  6
Continuous
 62
     1
370
    15
100
AcDbSpline
210
0.0
220
0.0
230
1.0
 70
     8
 71
     3
 72
     8
 73
     4
 74
     0
 42
0.000000001
 43
0.00000001
 40
0.0
 40
0.0
 40
0.0
 40
0.0
 40
1.0
 40
1.0
 40
1.0
 40
1.0
 10
25.51718988211069
 20
-4.702513477011606
 30
0.0
 10
25.56276582909169
 20
-4.738220143678394
 30
0.0
 10
25.61855965250797
 20
-4.757949851822276
 30
0.0
 10
25.67591780270565
 20
-4.758774191225124
 30
0.0
  0
SPLINE
  5
12D
330
1F
100
AcDbEntity
  8
외형선
  6
Continuous
 62
     1
370
    15
100
AcDbSpline
210
0.0
220
0.0
230
1.0
 70
     8
 71
     3
 72
    10
 73
     6
 74
     0
 42
0.000000001
 43
0.00000001
 40
0.0
 40
0.0
 40
0.0
 40
0.0
 40
0.5
 40
0.5
 40
1.0
 40
1.0
 40
1.0
 40
1.0
 10
24.88419610127188
 20
-4.684921880951723
 30
0.0
 10
24.97784897799002
 20
-4.615472946472263
 30
0.0
 10
25.09160826515796
 20
-4.583230449918137
 30
0.0
 10
25.31843846234315
 20
-4.592028125880274
 30
0.0
 10
25.42725726988799
 20
-4.632055395066558
 30
0.0
 10
25.51718988211066
 20
-4.70251347701159
 30
0.0
  0
SPLINE
  5
12E
330
1F
100
AcDbEntity
  8
외형선
  6
Continuous
 62
     1
370
    15
100
AcDbSpline
210
0.0
220
0.0
230
1.0
 70
     8
 71
     3
 72
     8
 73
     4
 74
     0
 42
0.000000001
 43
0.00000001
 40
0.0
 40
0.0
 40
0.0
 40
0.0
 40
1.0
 40
1.0
 40
1.0
 40
1.0
 10
24.726429446023
 20
-4.732608738182708
 30
0.0
 10
24.78212857159539
 20
-4.734880542371497
 30
0.0
 10
24.83812474152525
 20
-4.719086414459846
 30
0.0
 10
24.88419610127306
 20
-4.684921880954934
 30
0.0
  0
SPLINE
  5
12F
330
1F
100
AcDbEntity
  8
외형선
  6
Continuous
 62
     1
370
    15
100
AcDbSpline
210
0.0
220
0.0
230
1.0
 70
     8
 71
     3
 72
     8
 73
     4
 74
     0
 42
0.000000001
 43
0.00000001
 40
0.0
 40
0.0
 40
0.0
 40
0.0
 40
1.0
 40
1.0
 40
1.0
 40
1.0
 10
24.72642888224236
 20
-4.73260871518784
 30
0.0
 10
24.35979863106692
 20
-4.717654935311852
 30
0.0
 10
23.99349133995103
 20
-4.697116765791967
 30
0.0
 10
23.62524657601436
 20
-4.671000560997522
 30
0.0
  0
SPLINE
  5
130
330
1F
100
AcDbEntity
  8
외형선
  6
Continuous
 62
     1
370
    15
100
AcDbSpline
210
0.0
220
0.0
230
1.0
 70
     8
 71
     3
 72
     8
 73
     4
 74
     0
 42
0.000000001
 43
0.00000001
 40
0.0
 40
0.0
 40
0.0
 40
0.0
 40
1.0
 40
1.0
 40
1.0
 40
1.0
 10
23.46650753206734
 20
-4.605763910195633
 30
0.0
 10
23.51208811956225
 20
-4.644052078249002
 30
0.0
 10
23.56788662525582
 20
-4.666932548804647
 30
0.0
 10
23.62524662939384
 20
-4.67100056478581
 30
0.0
  0
SPLINE
  5
131
330
1F
100
AcDbEntity
  8
외형선
  6
Continuous
 62
     1
370
    15
100
AcDbSpline
210
0.0
220
0.0
230
1.0
 70
     8
 71
     3
 72
    10
 73
     6
 74
     0
 42
0.000000001
 43
0.00000001
 40
0.0
 40
0.0
 40
0.0
 40
0.0
 40
0.5
 40
0.5
 40
1.0
 40
1.0
 40
1.0
 40
1.0
 10
22.83357064465842
 20
-4.553008700954511
 30
0.0
 10
22.92721247564144
 20
-4.489211453013828
 30
0.0
 10
23.04096891503376
 20
-4.463039201426051
 30
0.0
 10
23.26779370828713
 20
-4.484162422889578
 30
0.0
 10
23.37658876138953
 20
-4.530231206646112
 30
0.0
 10
23.46650753206803
 20
-4.6057639101962
 30
0.0
  0
SPLINE
  5
132
330
1F
100
AcDbEntity
  8
외형선
  6
Continuous
 62
     1
370
    15
100
AcDbSpline
210
0.0
220
0.0
230
1.0
 70
     8
 71
     3
 72
     8
 73
     4
 74
     0
 42
0.000000001
 43
0.00000001
 40
0.0
 40
0.0
 40
0.0
 40
0.0
 40
1.0
 40
1.0
 40
1.0
 40
1.0
 10
22.6758378676653
 20
-4.591484208656798
 30
0.0
 10
22.73153131632309
 20
-4.596863759759265
 30
0.0
 10
22.78751502185884
 20
-4.584385938630215
 30
0.0
 10
22.83357064465955
 20
-4.55300870095772
 30
0.0
  0
SPLINE
  5
133
330
1F
100
AcDbEntity
  8
외형선
  6
Continuous
 62
     1
370
    15
100
AcDbSpline
210
0.0
220
0.0
230
1.0
 70
     8
 71
     3
 72
     8
 73
     4
 74
     0
 42
0.000000001
 43
0.00000001
 40
0.0
 40
0.0
 40
0.0
 40
0.0
 40
1.0
 40
1.0
 40
1.0
 40
1.0
 10
22.67583779261206
 20
-4.591484201407483
 30
0.0
 10
22.30779357997743
 20
-4.555934011221017
 30
0.0
 10
21.94225757348182
 20
-4.515033942216413
 30
0.0
 10
21.57505161209381
 20
-4.468786391643332
 30
0.0
  0
SPLINE
  5
134
330
1F
100
AcDbEntity
  8
외형선
  6
Continuous
 62
     1
370
    15
100
AcDbSpline
210
0.0
220
0.0
230
1.0
 70
     8
 71
     3
 72
     8
 73
     4
 74
     0
 42
0.000000001
 43
0.00000001
 40
0.0
 40
0.0
 40
0.0
 40
0.0
 40
1.0
 40
1.0
 40
1.0
 40
1.0
 10
21.41640563881613
 20
-4.396154711074784
 30
0.0
 10
21.46195432001266
 20
-4.436087850054579
 30
0.0
 10
21.51772265327725
 20
-4.461566127902148
 30
0.0
 10
21.57505167330998
 20
-4.468786399355674
 30
0.0
  0
SPLINE
  5
135
330
1F
100
AcDbEntity
  8
외형선
  6
Continuous
 62
     1
370
    15
100
AcDbSpline
210
0.0
220
0.0
230
1.0
 70
     8
 71
     3
 72
    10
 73
     6
 74
     0
 42
0.000000001
 43
0.00000001
 40
0.0
 40
0.0
 40
0.0
 40
0.0
 40
0.5
 40
0.5
 40
1.0
 40
1.0
 40
1.0
 40
1.0
 10
20.78389145529335
 20
-4.309531440391391
 30
0.0
 10
20.87746818841687
 20
-4.252953729143453
 30
0.0
 10
20.99116034444281
 20
-4.2334794502011
 30
0.0
 10
21.21786125680571
 20
-4.266405534465732
 30
0.0
 10
21.32656943416132
 20
-4.317394106998863
 30
0.0
 10
21.41640563881612
 20
-4.396154711074771
 30
0.0
  0
SPLINE
  5
136
330
1F
100
AcDbEntity
  8
외형선
  6
Continuous
 62
     1
370
    15
100
AcDbSpline
210
0.0
220
0.0
230
1.0
 70
     8
 71
     3
 72
     8
 73
     4
 74
     0
 42
0.000000001
 43
0.00000001
 40
0.0
 40
0.0
 40
0.0
 40
0.0
 40
1.0
 40
1.0
 40
1.0
 40
1.0
 10
20.62627117429835
 20
-4.337870852713225
 30
0.0
 10
20.68193232078564
 20
-4.34621960096218
 30
0.0
 10
20.73787531952129
 20
-4.337353395228573
 30
0.0
 10
20.78389145529447
 20
-4.309531440394451
 30
0.0
  0
SPLINE
  5
137
330
1F
100
AcDbEntity
  8
외형선
  6
Continuous
 62
     1
370
    15
100
AcDbSpline
210
0.0
220
0.0
230
1.0
 70
     8
 71
     3
 72
     8
 73
     4
 74
     0
 42
0.000000001
 43
0.00000001
 40
0.0
 40
0.0
 40
0.0
 40
0.0
 40
1.0
 40
1.0
 40
1.0
 40
1.0
 10
20.62627131369236
 20
-4.337870873621644
 30
0.0
 10
20.25889615128225
 20
-4.282767397215604
 30
0.0
 10
19.89158941398884
 20
-4.222545812589032
 30
0.0
 10
19.52628812823044
 20
-4.157552590538439
 30
0.0
  0
SPLINE
  5
138
330
1F
100
AcDbEntity
  8
외형선
  6
Continuous
 62
     1
370
    15
100
AcDbSpline
210
0.0
220
0.0
230
1.0
 70
     8
 71
     3
 72
     8
 73
     4
 74
     0
 42
0.000000001
 43
0.00000001
 40
0.0
 40
0.0
 40
0.0
 40
0.0
 40
1.0
 40
1.0
 40
1.0
 40
1.0
 10
19.36766626250349
 20
-4.079264040789133
 30
0.0
 10
19.41320617765569
 20
-4.119879247386651
 30
0.0
 10
19.46896129466255
 20
-4.147353185907064
 30
0.0
 10
19.52628812258965
 20
-4.157552589537232
 30
0.0
  0
SPLINE
  5
139
330
1F
100
AcDbEntity
  8
외형선
  6
Continuous
 62
     1
370
    15
100
AcDbSpline
210
0.0
220
0.0
230
1.0
 70
     8
 71
     3
 72
    10
 73
     6
 74
     0
 42
0.000000001
 43
0.00000001
 40
0.0
 40
0.0
 40
0.0
 40
0.0
 40
0.5000000000000001
 40
0.5000000000000001
 40
1.0
 40
1.0
 40
1.0
 40
1.0
 10
18.73500449569925
 20
-3.960636078768093
 30
0.0
 10
18.82862636210276
 20
-3.9126808014736
 30
0.0
 10
18.94235450816877
 20
-3.90044486327442
 30
0.0
 10
19.16909182982691
 20
-3.944445060222354
 30
0.0
 10
19.27782001285535
 20
-3.999133808238713
 30
0.0
 10
19.36766626250347
 20
-4.079264040789121
 30
0.0
  0
SPLINE
  5
13A
330
1F
100
AcDbEntity
  8
외형선
  6
Continuous
 62
     1
370
    15
100
AcDbSpline
210
0.0
220
0.0
230
1.0
 70
     8
 71
     3
 72
     8
 73
     4
 74
     0
 42
0.000000001
 43
0.00000001
 40
0.0
 40
0.0
 40
0.0
 40
0.0
 40
1.0
 40
1.0
 40
1.0
 40
1.0
 10
18.57730761043385
 20
-3.978085175776276
 30
0.0
 10
18.63299253445475
 20
-3.989218089754756
 30
0.0
 10
18.68896219061826
 20
-3.9842200083837
 30
0.0
 10
18.73500449570041
 20
-3.960636078771129
 30
0.0
  0
SPLINE
  5
13B
330
1F
100
AcDbEntity
  8
외형선
  6
Continuous
 62
     1
370
    15
100
AcDbSpline
210
0.0
220
0.0
230
1.0
 70
     8
 71
     3
 72
     8
 73
     4
 74
     0
 42
0.000000001
 43
0.00000001
 40
0.0
 40
0.0
 40
0.0
 40
0.0
 40
1.0
 40
1.0
 40
1.0
 40
1.0
 10
18.57730761043315
 20
-3.978085175776644
 30
0.0
 10
18.21056789887544
 20
-3.904764043828949
 30
0.0
 10
17.84297604105668
 20
-3.826699222114077
 30
0.0
 10
17.47647452881711
 20
-3.744306191539203
 30
0.0
  0
SPLINE
  5
13C
330
1F
100
AcDbEntity
  8
외형선
  6
Continuous
 62
     1
370
    15
100
AcDbSpline
210
0.0
220
0.0
230
1.0
 70
     8
 71
     3
 72
     8
 73
     4
 74
     0
 42
0.000000001
 43
0.00000001
 40
0.0
 40
0.0
 40
0.0
 40
0.0
 40
1.0
 40
1.0
 40
1.0
 40
1.0
 10
17.31774100144674
 20
-3.662394821795007
 30
0.0
 10
17.36331859685994
 20
-3.702665435456737
 30
0.0
 10
17.41911281645172
 20
-3.731410730778886
 30
0.0
 10
17.47647337496409
 20
-3.744305932144254
 30
0.0
  0
SPLINE
  5
13D
330
1F
100
AcDbEntity
  8
외형선
  6
Continuous
 62
     1
370
    15
100
AcDbSpline
210
0.0
220
0.0
230
1.0
 70
     8
 71
     3
 72
    10
 73
     6
 74
     0
 42
0.000000001
 43
0.00000001
 40
0.0
 40
0.0
 40
0.0
 40
0.0
 40
0.5
 40
0.5
 40
1.0
 40
1.0
 40
1.0
 40
1.0
 10
16.68471280364632
 20
-3.514679669923343
 30
0.0
 10
16.77838468086793
 20
-3.476574604925397
 30
0.0
 10
16.8921415793198
 20
-3.471950490249188
 30
0.0
 10
17.11897112321639
 20
-3.525930100485371
 30
0.0
 10
17.22779623956159
 20
-3.582923083017339
 30
0.0
 10
17.31774100144668
 20
-3.662394821794565
 30
0.0
  0
SPLINE
  5
13E
330
1F
100
AcDbEntity
  8
외형선
  6
Continuous
 62
     1
370
    15
100
AcDbSpline
210
0.0
220
0.0
230
1.0
 70
     8
 71
     3
 72
     8
 73
     4
 74
     0
 42
0.000000001
 43
0.00000001
 40
0.0
 40
0.0
 40
0.0
 40
0.0
 40
1.0
 40
1.0
 40
1.0
 40
1.0
 10
16.52694428950679
 20
-3.520728237805728
 30
0.0
 10
16.58264910532637
 20
-3.534399824308605
 30
0.0
 10
16.63864247100103
 20
-3.533420759268989
 30
0.0
 10
16.68471280364747
 20
-3.514679669925984
 30
0.0
  0
SPLINE
  5
13F
330
1F
100
AcDbEntity
  8
외형선
  6
Continuous
 62
     1
370
    15
100
AcDbSpline
210
0.0
220
0.0
230
1.0
 70
     8
 71
     3
 72
     8
 73
     4
 74
     0
 42
0.000000001
 43
0.00000001
 40
0.0
 40
0.0
 40
0.0
 40
0.0
 40
1.0
 40
1.0
 40
1.0
 40
1.0
 10
16.52694514800346
 20
-3.520728448506365
 30
0.0
 10
16.16102154780414
 20
-3.430920130415763
 30
0.0
 10
15.7933284294403
 20
-3.336818795808769
 30
0.0
 10
15.42580932223958
 20
-3.23890513358426
 30
0.0
  0
SPLINE
  5
140
330
1F
100
AcDbEntity
  8
외형선
  6
Continuous
 62
     1
370
    15
100
AcDbSpline
210
0.0
220
0.0
230
1.0
 70
     8
 71
     3
 72
     8
 73
     4
 74
     0
 42
0.000000001
 43
0.00000001
 40
0.0
 40
0.0
 40
0.0
 40
0.0
 40
1.0
 40
1.0
 40
1.0
 40
1.0
 10
15.26706964227223
 20
-3.155367323687194
 30
0.0
 10
15.3126490865133
 20
-3.194304353210911
 30
0.0
 10
15.36844695248627
 20
-3.223622771574593
 30
0.0
 10
15.42580845919405
 20
-3.238904903655468
 30
0.0
  0
SPLINE
  5
141
330
1F
100
AcDbEntity
  8
외형선
  6
Continuous
 62
     1
370
    15
100
AcDbSpline
210
0.0
220
0.0
230
1.0
 70
     8
 71
     3
 72
    10
 73
     6
 74
     0
 42
0.000000001
 43
0.00000001
 40
0.0
 40
0.0
 40
0.0
 40
0.0
 40
0.5
 40
0.5
 40
1.0
 40
1.0
 40
1.0
 40
1.0
 10
14.63411513823305
 20
-2.982741125458439
 30
0.0
 10
14.72775918350036
 20
-2.955325097014822
 30
0.0
 10
14.84151233225602
 20
-2.958209099263732
 30
0.0
 10
15.06833285146825
 20
-3.020668173267561
 30
0.0
 10
15.17714115235552
 20
-3.078544353920568
 30
0.0
 10
15.26706964227221
 20
-3.155367323687188
 30
0.0
  0
SPLINE
  5
142
330
1F
100
AcDbEntity
  8
외형선
  6
Continuous
 62
     1
370
    15
100
AcDbSpline
210
0.0
220
0.0
230
1.0
 70
     8
 71
     3
 72
     8
 73
     4
 74
     0
 42
0.000000001
 43
0.00000001
 40
0.0
 40
0.0
 40
0.0
 40
0.0
 40
1.0
 40
1.0
 40
1.0
 40
1.0
 10
14.47637338052611
 20
-2.977373518341221
 30
0.0
 10
14.53206511651613
 20
-2.993219539740728
 30
0.0
 10
14.5880522728829
 20
-2.996226882329358
 30
0.0
 10
14.63411513823423
 20
-2.982741125461074
 30
0.0
  0
SPLINE
  5
143
330
1F
100
AcDbEntity
  8
외형선
  6
Continuous
 62
     1
370
    15
100
AcDbSpline
210
0.0
220
0.0
230
1.0
 70
     8
 71
     3
 72
     8
 73
     4
 74
     0
 42
0.000000001
 43
0.00000001
 40
0.0
 40
0.0
 40
0.0
 40
0.0
 40
1.0
 40
1.0
 40
1.0
 40
1.0
 10
14.47637494552691
 20
-2.977373963633057
 30
0.0
 10
14.10974623034225
 20
-2.873056765575454
 30
0.0
 10
13.74370220002496
 20
-2.76528070333717
 30
0.0
 10
13.37558646159854
 20
-2.654154872774865
 30
0.0
  0
SPLINE
  5
144
330
1F
100
AcDbEntity
  8
외형선
  6
Continuous
 62
     1
370
    15
100
AcDbSpline
210
0.0
220
0.0
230
1.0
 70
     8
 71
     3
 72
     8
 73
     4
 74
     0
 42
0.000000001
 43
0.00000001
 40
0.0
 40
0.0
 40
0.0
 40
0.0
 40
1.0
 40
1.0
 40
1.0
 40
1.0
 10
13.2169453565389
 20
-2.571011116769141
 30
0.0
 10
13.26249011266915
 20
-2.607664181640321
 30
0.0
 10
13.31825678966988
 20
-2.636848339140362
 30
0.0
 10
13.37558646141463
 20
-2.654154872721028
 30
0.0
  0
SPLINE
  5
145
330
1F
100
AcDbEntity
  8
외형선
  6
Continuous
 62
     1
370
    15
100
AcDbSpline
210
0.0
220
0.0
230
1.0
 70
     8
 71
     3
 72
    10
 73
     6
 74
     0
 42
0.000000001
 43
0.00000001
 40
0.0
 40
0.0
 40
0.0
 40
0.0
 40
0.4999999999999998
 40
0.4999999999999998
 40
1.0
 40
1.0
 40
1.0
 40
1.0
 10
12.58443281102095
 20
-2.377659299856732
 30
0.0
 10
12.67800225392693
 20
-2.3615701899701
 30
0.0
 10
12.79168555677181
 20
-2.371918865299416
 30
0.0
 10
13.01838303762212
 20
-2.441354875277334
 30
0.0
 10
13.12710313188881
 20
-2.498708766991366
 30
0.0
 10
13.21694535653891
 20
-2.571011116769138
 30
0.0
  0
SPLINE
  5
146
330
1F
100
AcDbEntity
  8
외형선
  6
Continuous
 62
     1
370
    15
100
AcDbSpline
210
0.0
220
0.0
230
1.0
 70
     8
 71
     3
 72
     8
 73
     4
 74
     0
 42
0.000000001
 43
0.00000001
 40
0.0
 40
0.0
 40
0.0
 40
0.0
 40
1.0
 40
1.0
 40
1.0
 40
1.0
 10
12.42680861268069
 20
-2.361117183302845
 30
0.0
 10
12.48246872523985
 20
-2.3786969188343
 30
0.0
 10
12.5384137479566
 20
-2.385572201117331
 30
0.0
 10
12.58443281102208
 20
-2.377659299858952
 30
0.0
  0
SPLINE
  5
147
330
1F
100
AcDbEntity
  8
외형선
  6
Continuous
 62
     1
370
    15
100
AcDbSpline
210
0.0
220
0.0
230
1.0
 70
     8
 71
     3
 72
     8
 73
     4
 74
     0
 42
0.000000001
 43
0.00000001
 40
0.0
 40
0.0
 40
0.0
 40
0.0
 40
1.0
 40
1.0
 40
1.0
 40
1.0
 10
12.42680861272194
 20
-2.361117183316673
 30
0.0
 10
12.05899411950979
 20
-2.24494635256839
 30
0.0
 10
11.69363012587042
 20
-2.126244635218052
 30
0.0
 10
11.32678691431391
 20
-2.005016149197145
 30
0.0
  0
SPLINE
  5
148
330
1F
100
AcDbEntity
  8
외형선
  6
Continuous
 62
     1
370
    15
100
AcDbSpline
210
0.0
220
0.0
230
1.0
 70
     8
 71
     3
 72
     8
 73
     4
 74
     0
 42
0.000000001
 43
0.00000001
 40
0.0
 40
0.0
 40
0.0
 40
0.0
 40
1.0
 40
1.0
 40
1.0
 40
1.0
 10
11.16817517006064
 20
-1.9242002171387
 30
0.0
 10
11.21371299402594
 20
-1.957704095272755
 30
0.0
 10
11.26946873432159
 20
-1.986074552385719
 30
0.0
 10
11.32678679539383
 20
-2.005016109899699
 30
0.0
  0
SPLINE
  5
149
330
1F
100
AcDbEntity
  8
외형선
  6
Continuous
 62
     1
370
    15
100
AcDbSpline
210
0.0
220
0.0
230
1.0
 70
     8
 71
     3
 72
    10
 73
     6
 74
     0
 42
0.000000001
 43
0.00000001
 40
0.0
 40
0.0
 40
0.0
 40
0.0
 40
0.5
 40
0.5
 40
1.0
 40
1.0
 40
1.0
 40
1.0
 10
10.53555126458652
 20
-1.714415242676997
 30
0.0
 10
10.62915337101773
 20
-1.710104104925493
 30
0.0
 10
10.74286397203848
 20
-1.727753020445749
 30
0.0
 10
10.96959351434588
 20
-1.802603428256664
 30
0.0
 10
11.07832964628593
 20
-1.858097509162734
 30
0.0
 10
11.16817517006062
 20
-1.924200217138685
 30
0.0
  0
SPLINE
  5
14A
330
1F
100
AcDbEntity
  8
외형선
  6
Continuous
 62
     1
370
    15
100
AcDbSpline
210
0.0
220
0.0
230
1.0
 70
     8
 71
     3
 72
     8
 73
     4
 74
     0
 42
0.000000001
 43
0.00000001
 40
0.0
 40
0.0
 40
0.0
 40
0.0
 40
1.0
 40
1.0
 40
1.0
 40
1.0
 10
10.37785908098979
 20
-1.686982718846174
 30
0.0
 10
10.43354251626994
 20
-1.70590531237843
 30
0.0
 10
10.48951151647454
 20
-1.716535747266933
 30
0.0
 10
10.53555126458767
 20
-1.714415242678867
 30
0.0
  0
SPLINE
  5
14B
330
1F
100
AcDbEntity
  8
외형선
  6
Continuous
 62
     1
370
    15
100
AcDbSpline
210
0.0
220
0.0
230
1.0
 70
     8
 71
     3
 72
     8
 73
     4
 74
     0
 42
0.000000001
 43
0.00000001
 40
0.0
 40
0.0
 40
0.0
 40
0.0
 40
1.0
 40
1.0
 40
1.0
 40
1.0
 10
10.37786278621418
 20
-1.686983977972857
 30
0.0
 10
10.25188049108903
 20
-1.644172116685132
 30
0.0
 10
10.12590005412297
 20
-1.601126596690818
 30
0.0
 10
10.00000000000188
 20
-1.55787440153493
 30
0.0
  0
SPLINE
  5
14C
330
1F
100
AcDbEntity
  8
외형선
  6
Continuous
370
    15
100
AcDbSpline
210
0.0
220
0.0
230
1.0
 70
     8
 71
     3
 72
     8
 73
     4
 74
     0
 42
0.000000001
 43
0.00000001
 40
0.0
 40
0.0
 40
0.0
 40
0.0
 40
1.0
 40
1.0
 40
1.0
 40
1.0
 10
10.06418940856472
 20
4.209226465145075
 30
0.0
 10
10.04444320727825
 20
4.226753003194841
 30
0.0
 10
10.02302841793384
 20
4.24155362993863
 30
0.0
 10
9.999999999999984
 20
4.253708890860348
 30
0.0
  0
SPLINE
  5
14D
330
1F
100
AcDbEntity
  8
외형선
  6
Continuous
 62
     1
370
    15
100
AcDbSpline
210
0.0
220
0.0
230
1.0
 70
     8
 71
     3
 72
    10
 73
     6
 74
     0
 42
0.000000001
 43
0.00000001
 40
0.0
 40
0.0
 40
0.0
 40
0.0
 40
0.5
 40
0.5
 40
1.0
 40
1.0
 40
1.0
 40
1.0
 10
10.69719740815999
 20
4.10235954065131
 30
0.0
 10
10.60354168582103
 20
4.05103780396276
 30
0.0
 10
10.48977173595988
 20
4.03605640523782
 30
0.0
 10
10.26292517931104
 20
4.075986935601761
 30
0.0
 10
10.15411820146303
 20
4.129406534838659
 30
0.0
 10
10.06418940856472
 20
4.209226465145071
 30
0.0
  0
SPLINE
  5
14E
330
1F
100
AcDbEntity
  8
외형선
  6
Continuous
 62
     1
370
    15
100
AcDbSpline
210
0.0
220
0.0
230
1.0
 70
     8
 71
     3
 72
     8
 73
     4
 74
     0
 42
0.000000001
 43
0.00000001
 40
0.0
 40
0.0
 40
0.0
 40
0.0
 40
1.0
 40
1.0
 40
1.0
 40
1.0
 10
10.85495455743164
 20
4.123917608103715
 30
0.0
 10
10.79925299724151
 20
4.134048542893396
 30
0.0
 10
10.74326062795631
 20
4.127601398582316
 30
0.0
 10
10.69719740815875
 20
4.10235954065408
 30
0.0
  0
SPLINE
  5
14F
330
1F
100
AcDbEntity
  8
외형선
  6
Continuous
 62
     1
370
    15
100
AcDbSpline
210
0.0
220
0.0
230
1.0
 70
     8
 71
     3
 72
     8
 73
     4
 74
     0
 42
0.000000001
 43
0.00000001
 40
0.0
 40
0.0
 40
0.0
 40
0.0
 40
1.0
 40
1.0
 40
1.0
 40
1.0
 10
11.95633907419332
 20
3.90877373179186
 30
0.0
 10
11.58929077596008
 20
3.985196703232652
 30
0.0
 10
11.22326416226915
 20
4.056929841807753
 30
0.0
 10
10.85495953831039
 20
4.123916702187135
 30
0.0
  0
SPLINE
  5
150
330
1F
100
AcDbEntity
  8
외형선
  6
Continuous
 62
     1
370
    15
100
AcDbSpline
210
0.0
220
0.0
230
1.0
 70
     8
 71
     3
 72
     8
 73
     4
 74
     0
 42
0.000000001
 43
0.00000001
 40
0.0
 40
0.0
 40
0.0
 40
0.0
 40
1.0
 40
1.0
 40
1.0
 40
1.0
 10
12.11478298646929
 20
3.828024100978049
 30
0.0
 10
12.06920639615955
 20
3.868539275870253
 30
0.0
 10
12.01341367192489
 20
3.896890597440436
 30
0.0
 10
11.95606196322633
 20
3.908831428119655
 30
0.0
  0
SPLINE
  5
151
330
1F
100
AcDbEntity
  8
외형선
  6
Continuous
 62
     1
370
    15
100
AcDbSpline
210
0.0
220
0.0
230
1.0
 70
     8
 71
     3
 72
    10
 73
     6
 74
     0
 42
0.000000001
 43
0.00000001
 40
0.0
 40
0.0
 40
0.0
 40
0.0
 40
0.5
 40
0.5
 40
1.0
 40
1.0
 40
1.0
 40
1.0
 10
12.74760617583762
 20
3.691053878741982
 30
0.0
 10
12.65397494507631
 20
3.64910055582566
 30
0.0
 10
12.54022739512394
 20
3.641525462474536
 30
0.0
 10
12.31343345904971
 20
3.691843383981572
 30
0.0
 10
12.20467397354403
 20
3.748115774404807
 30
0.0
 10
12.1147829864693
 20
3.828024100978044
 30
0.0
  0
SPLINE
  5
152
330
1F
100
AcDbEntity
  8
외형선
  6
Continuous
 62
     1
370
    15
100
AcDbSpline
210
0.0
220
0.0
230
1.0
 70
     8
 71
     3
 72
     8
 73
     4
 74
     0
 42
0.000000001
 43
0.00000001
 40
0.0
 40
0.0
 40
0.0
 40
0.0
 40
1.0
 40
1.0
 40
1.0
 40
1.0
 10
12.90530258849282
 20
3.701473908552011
 30
0.0
 10
12.84961775499626
 20
3.714206692535599
 30
0.0
 10
12.79364781907999
 20
3.7116837466942
 30
0.0
 10
12.74760617583643
 20
3.691053878744579
 30
0.0
  0
SPLINE
  5
153
330
1F
100
AcDbEntity
  8
외형선
  6
Continuous
 62
     1
370
    15
100
AcDbSpline
210
0.0
220
0.0
230
1.0
 70
     8
 71
     3
 72
     8
 73
     4
 74
     0
 42
0.000000001
 43
0.00000001
 40
0.0
 40
0.0
 40
0.0
 40
0.0
 40
1.0
 40
1.0
 40
1.0
 40
1.0
 10
14.0056865383545
 20
3.436837497441596
 30
0.0
 10
13.64009827178555
 20
3.529100739067504
 30
0.0
 10
13.27265810528156
 20
3.617475099524923
 30
0.0
 10
12.90530544215572
 20
3.701473256039179
 30
0.0
  0
SPLINE
  5
154
330
1F
100
AcDbEntity
  8
외형선
  6
Continuous
 62
     1
370
    15
100
AcDbSpline
210
0.0
220
0.0
230
1.0
 70
     8
 71
     3
 72
     8
 73
     4
 74
     0
 42
0.000000001
 43
0.00000001
 40
0.0
 40
0.0
 40
0.0
 40
0.0
 40
1.0
 40
1.0
 40
1.0
 40
1.0
 10
14.16426758047144
 20
3.353577965292755
 30
0.0
 10
14.11874452837444
 20
3.393150179705649
 30
0.0
 10
14.06300003785868
 20
3.422373333400738
 30
0.0
 10
14.00568523230636
 20
3.436837827049996
 30
0.0
  0
SPLINE
  5
155
330
1F
100
AcDbEntity
  8
외형선
  6
Continuous
 62
     1
370
    15
100
AcDbSpline
210
0.0
220
0.0
230
1.0
 70
     8
 71
     3
 72
    10
 73
     6
 74
     0
 42
0.000000001
 43
0.00000001
 40
0.0
 40
0.0
 40
0.0
 40
0.0
 40
0.5
 40
0.5
 40
1.0
 40
1.0
 40
1.0
 40
1.0
 10
14.79659969793551
 20
3.189690247431062
 30
0.0
 10
14.70303150311143
 20
3.158166722715258
 30
0.0
 10
14.58936016533217
 20
3.158201447924379
 30
0.0
 10
14.36272659510025
 20
3.217721238513432
 30
0.0
 10
14.25406785358759
 20
3.27551651074622
 30
0.0
 10
14.16426758047144
 20
3.353577965292751
 30
0.0
  0
SPLINE
  5
156
330
1F
100
AcDbEntity
  8
외형선
  6
Continuous
 62
     1
370
    15
100
AcDbSpline
210
0.0
220
0.0
230
1.0
 70
     8
 71
     3
 72
     8
 73
     4
 74
     0
 42
0.000000001
 43
0.00000001
 40
0.0
 40
0.0
 40
0.0
 40
0.0
 40
1.0
 40
1.0
 40
1.0
 40
1.0
 10
14.95422029920273
 20
3.188674278391712
 30
0.0
 10
14.8985591319292
 20
3.203712336720702
 30
0.0
 10
14.84261660773433
 20
3.205193541005866
 30
0.0
 10
14.79659969793433
 20
3.189690247433447
 30
0.0
  0
SPLINE
  5
157
330
1F
100
AcDbEntity
  8
외형선
  6
Continuous
 62
     1
370
    15
100
AcDbSpline
210
0.0
220
0.0
230
1.0
 70
     8
 71
     3
 72
     8
 73
     4
 74
     0
 42
0.000000001
 43
0.00000001
 40
0.0
 40
0.0
 40
0.0
 40
0.0
 40
1.0
 40
1.0
 40
1.0
 40
1.0
 10
16.05456075059204
 20
2.880699030729949
 30
0.0
 10
15.68806744574249
 20
2.98683878889912
 30
0.0
 10
15.32064081717348
 20
3.089677912379758
 30
0.0
 10
14.95422075849417
 20
3.188674154304488
 30
0.0
  0
SPLINE
  5
158
330
1F
100
AcDbEntity
  8
외형선
  6
Continuous
 62
     1
370
    15
100
AcDbSpline
210
0.0
220
0.0
230
1.0
 70
     8
 71
     3
 72
     8
 73
     4
 74
     0
 42
0.000000001
 43
0.00000001
 40
0.0
 40
0.0
 40
0.0
 40
0.0
 40
1.0
 40
1.0
 40
1.0
 40
1.0
 10
16.21322896970141
 20
2.797132326670139
 30
0.0
 10
16.16767338789202
 20
2.83475907109052
 30
0.0
 10
16.11189939749501
 20
2.864093245537753
 30
0.0
 10
16.05455800492988
 20
2.880699825900104
 30
0.0
  0
SPLINE
  5
159
330
1F
100
AcDbEntity
  8
외형선
  6
Continuous
 62
     1
370
    15
100
AcDbSpline
210
0.0
220
0.0
230
1.0
 70
     8
 71
     3
 72
    10
 73
     6
 74
     0
 42
0.000000001
 43
0.00000001
 40
0.0
 40
0.0
 40
0.0
 40
0.0
 40
0.5
 40
0.5
 40
1.0
 40
1.0
 40
1.0
 40
1.0
 10
16.84608391452828
 20
2.610433285124613
 30
0.0
 10
16.7524458320021
 20
2.590177235800635
 30
0.0
 10
16.63871741362944
 20
2.597905291167812
 30
0.0
 10
16.41194152726265
 20
2.66509853890365
 30
0.0
 10
16.30313861280768
 20
2.722871236640782
 30
0.0
 10
16.21322896970142
 20
2.797132326670144
 30
0.0
  0
SPLINE
  5
15A
330
1F
100
AcDbEntity
  8
외형선
  6
Continuous
 62
     1
370
    15
100
AcDbSpline
210
0.0
220
0.0
230
1.0
 70
     8
 71
     3
 72
     8
 73
     4
 74
     0
 42
0.000000001
 43
0.00000001
 40
0.0
 40
0.0
 40
0.0
 40
0.0
 40
1.0
 40
1.0
 40
1.0
 40
1.0
 10
17.00382789513918
 20
2.597864231125007
 30
0.0
 10
16.94813126116105
 20
2.614886315942847
 30
0.0
 10
16.8921467615632
 20
2.620397727759252
 30
0.0
 10
16.84608391452706
 20
2.610433285126823
 30
0.0
  0
SPLINE
  5
15B
330
1F
100
AcDbEntity
  8
외형선
  6
Continuous
 62
     1
370
    15
100
AcDbSpline
210
0.0
220
0.0
230
1.0
 70
     8
 71
     3
 72
     8
 73
     4
 74
     0
 42
0.000000001
 43
0.00000001
 40
0.0
 40
0.0
 40
0.0
 40
0.0
 40
1.0
 40
1.0
 40
1.0
 40
1.0
 10
18.10515855759512
 20
2.253264642238784
 30
0.0
 10
17.73741764792217
 20
2.370993603222011
 30
0.0
 10
17.36965986040659
 20
2.486058135671168
 30
0.0
 10
17.00382949617144
 20
2.597863741815445
 30
0.0
  0
SPLINE
  5
15C
330
1F
100
AcDbEntity
  8
외형선
  6
Continuous
 62
     1
370
    15
100
AcDbSpline
210
0.0
220
0.0
230
1.0
 70
     8
 71
     3
 72
     8
 73
     4
 74
     0
 42
0.000000001
 43
0.00000001
 40
0.0
 40
0.0
 40
0.0
 40
0.0
 40
1.0
 40
1.0
 40
1.0
 40
1.0
 10
18.26362628836482
 20
2.171471906628087
 30
0.0
 10
18.21804428085694
 20
2.206246216485213
 30
0.0
 10
18.16224456321724
 20
2.234989276764386
 30
0.0
 10
18.10488149154667
 20
2.25335334195165
 30
0.0
  0
SPLINE
  5
15D
330
1F
100
AcDbEntity
  8
외형선
  6
Continuous
 62
     1
370
    15
100
AcDbSpline
210
0.0
220
0.0
230
1.0
 70
     8
 71
     3
 72
    10
 73
     6
 74
     0
 42
0.000000001
 43
0.00000001
 40
0.0
 40
0.0
 40
0.0
 40
0.0
 40
0.5
 40
0.5
 40
1.0
 40
1.0
 40
1.0
 40
1.0
 10
18.89664530078309
 20
1.967026488374585
 30
0.0
 10
18.8029895266681
 20
1.958369678800986
 30
0.0
 10
18.68922439330654
 20
1.973409231874008
 30
0.0
 10
18.46238297543686
 20
2.046508792606076
 30
0.0
 10
18.35356353441927
 20
2.10285918347292
 30
0.0
 10
18.26362628836482
 20
2.171471906628085
 30
0.0
  0
SPLINE
  5
15E
330
1F
100
AcDbEntity
  8
외형선
  6
Continuous
 62
     1
370
    15
100
AcDbSpline
210
0.0
220
0.0
230
1.0
 70
     8
 71
     3
 72
     8
 73
     4
 74
     0
 42
0.000000001
 43
0.00000001
 40
0.0
 40
0.0
 40
0.0
 40
0.0
 40
1.0
 40
1.0
 40
1.0
 40
1.0
 10
19.05440991434975
 20
1.943442793783083
 30
0.0
 10
18.99871014807742
 20
1.961971137532282
 30
0.0
 10
18.94271480317352
 20
1.971284793997299
 30
0.0
 10
18.89664530078187
 20
1.967026488376492
 30
0.0
  0
SPLINE
  5
15F
330
1F
100
AcDbEntity
  8
외형선
  6
Continuous
 62
     1
370
    15
100
AcDbSpline
210
0.0
220
0.0
230
1.0
 70
     8
 71
     3
 72
     8
 73
     4
 74
     0
 42
0.000000001
 43
0.00000001
 40
0.0
 40
0.0
 40
0.0
 40
0.0
 40
1.0
 40
1.0
 40
1.0
 40
1.0
 10
20.1555230295863
 20
1.570641226968981
 30
0.0
 10
19.78732805581491
 20
1.697047563018036
 30
0.0
 10
19.42153624469593
 20
1.821319429462951
 30
0.0
 10
19.05440991781044
 20
1.943442792632145
 30
0.0
  0
SPLINE
  5
160
330
1F
100
AcDbEntity
  8
외형선
  6
Continuous
 62
     1
370
    15
100
AcDbSpline
210
0.0
220
0.0
230
1.0
 70
     8
 71
     3
 72
     8
 73
     4
 74
     0
 42
0.000000001
 43
0.00000001
 40
0.0
 40
0.0
 40
0.0
 40
0.0
 40
1.0
 40
1.0
 40
1.0
 40
1.0
 10
20.31423727165056
 20
1.492409882209276
 30
0.0
 10
20.26866546533956
 20
1.52348709401454
 30
0.0
 10
20.21287492115919
 20
1.550951543526114
 30
0.0
 10
20.15552302898798
 20
1.570641227175513
 30
0.0
  0
SPLINE
  5
161
330
1F
100
AcDbEntity
  8
외형선
  6
Continuous
 62
     1
370
    15
100
AcDbSpline
210
0.0
220
0.0
230
1.0
 70
     8
 71
     3
 72
    10
 73
     6
 74
     0
 42
0.000000001
 43
0.00000001
 40
0.0
 40
0.0
 40
0.0
 40
0.0
 40
0.5
 40
0.5
 40
1.0
 40
1.0
 40
1.0
 40
1.0
 10
20.94705209919123
 20
1.275072224659591
 30
0.0
 10
20.85343035005832
 20
1.278244043210275
 30
0.0
 10
20.73969322759996
 20
1.300265247208829
 30
0.0
 10
20.51290365091438
 20
1.377533161037471
 30
0.0
 10
20.40413301435912
 20
1.431106430301312
 30
0.0
 10
20.31423727165057
 20
1.492409882209264
 30
0.0
  0
SPLINE
  5
162
330
1F
100
AcDbEntity
  8
외형선
  6
Continuous
 62
     1
370
    15
100
AcDbSpline
210
0.0
220
0.0
230
1.0
 70
     8
 71
     3
 72
     8
 73
     4
 74
     0
 42
0.000000001
 43
0.00000001
 40
0.0
 40
0.0
 40
0.0
 40
0.0
 40
1.0
 40
1.0
 40
1.0
 40
1.0
 10
21.10475094276398
 20
1.241096256415562
 30
0.0
 10
21.04906722776385
 20
1.260642849436782
 30
0.0
 10
20.99309573163801
 20
1.273512308841246
 30
0.0
 10
20.94705209919003
 20
1.275072224661097
 30
0.0
  0
SPLINE
  5
163
330
1F
100
AcDbEntity
  8
외형선
  6
Continuous
 62
     1
370
    15
100
AcDbSpline
210
0.0
220
0.0
230
1.0
 70
     8
 71
     3
 72
     8
 73
     4
 74
     0
 42
0.000000001
 43
0.00000001
 40
0.0
 40
0.0
 40
0.0
 40
0.0
 40
1.0
 40
1.0
 40
1.0
 40
1.0
 10
22.20519014143919
 20
0.8500403275283234
 30
0.0
 10
21.83857896176247
 20
0.9815272132829663
 30
0.0
 10
21.47274809474903
 20
1.111918622320947
 30
0.0
 10
21.10475093355317
 20
1.24109625964908
 30
0.0
  0
SPLINE
  5
164
330
1F
100
AcDbEntity
  8
외형선
  6
Continuous
 62
     1
370
    15
100
AcDbSpline
210
0.0
220
0.0
230
1.0
 70
     8
 71
     3
 72
     8
 73
     4
 74
     0
 42
0.000000001
 43
0.00000001
 40
0.0
 40
0.0
 40
0.0
 40
0.0
 40
1.0
 40
1.0
 40
1.0
 40
1.0
 10
22.36377031137208
 20
0.7773183510498275
 30
0.0
 10
22.31824499852474
 20
0.8039518485779439
 30
0.0
 10
22.26249827511822
 20
0.8294864861637038
 30
0.0
 10
22.20519020726023
 20
0.8500403039220398
 30
0.0
  0
SPLINE
  5
165
330
1F
100
AcDbEntity
  8
외형선
  6
Continuous
 62
     1
370
    15
100
AcDbSpline
210
0.0
220
0.0
230
1.0
 70
     8
 71
     3
 72
    10
 73
     6
 74
     0
 42
0.000000001
 43
0.00000001
 40
0.0
 40
0.0
 40
0.0
 40
0.0
 40
0.5
 40
0.5
 40
1.0
 40
1.0
 40
1.0
 40
1.0
 10
22.99606857950319
 20
0.5521990649911162
 30
0.0
 10
22.90252023635549
 20
0.5671534653960085
 30
0.0
 10
22.78886519265332
 20
0.5956504660754238
 30
0.0
 10
22.56223502653438
 20
0.6752630206232508
 30
0.0
 10
22.45356253574217
 20
0.7247875536487417
 30
0.0
 10
22.36377031137209
 20
0.7773183510498277
 30
0.0
  0
SPLINE
  5
166
330
1F
100
AcDbEntity
  8
외형선
  6
Continuous
 62
     1
370
    15
100
AcDbSpline
210
0.0
220
0.0
230
1.0
 70
     8
 71
     3
 72
     8
 73
     4
 74
     0
 42
0.000000001
 43
0.00000001
 40
0.0
 40
0.0
 40
0.0
 40
0.0
 40
1.0
 40
1.0
 40
1.0
 40
1.0
 10
23.15368305374599
 20
0.5085955340914095
 30
0.0
 10
23.09802344179062
 20
0.5287061515930345
 30
0.0
 10
23.04208202003757
 20
0.5448434733202265
 30
0.0
 10
22.99606857950202
 20
0.5521990649922163
 30
0.0
  0
SPLINE
  5
167
330
1F
100
AcDbEntity
  8
외형선
  6
Continuous
 62
     1
370
    15
100
AcDbSpline
210
0.0
220
0.0
230
1.0
 70
     8
 71
     3
 72
     8
 73
     4
 74
     0
 42
0.000000001
 43
0.00000001
 40
0.0
 40
0.0
 40
0.0
 40
0.0
 40
1.0
 40
1.0
 40
1.0
 40
1.0
 10
24.41270632265366
 20
0.0438711019117067
 30
0.0
 10
24.36714685547491
 20
0.0654432003209962
 30
0.0
 10
24.31137162030177
 20
0.0884351912159638
 30
0.0
 10
24.25402705331343
 20
0.1093314405611716
 30
0.0
  0
SPLINE
  5
168
330
1F
100
AcDbEntity
  8
외형선
  6
Continuous
 62
     1
370
    15
100
AcDbSpline
210
0.0
220
0.0
230
1.0
 70
     8
 71
     3
 72
    10
 73
     6
 74
     0
 42
0.000000001
 43
0.00000001
 40
0.0
 40
0.0
 40
0.0
 40
0.0
 40
0.5
 40
0.5
 40
1.0
 40
1.0
 40
1.0
 40
1.0
 10
25.04556188916871
 20
-0.1842352810286176
 30
0.0
 10
24.95190585772172
 20
-0.1577599745414022
 30
0.0
 10
24.83814267989431
 20
-0.1233483906408751
 30
0.0
 10
24.61135101430671
 20
-0.0430945135480701
 30
0.0
 10
24.50260016482245
 20
0.001306977927418
 30
0.0
 10
24.41270632265367
 20
0.0438711019117045
 30
0.0
  0
SPLINE
  5
169
330
1F
100
AcDbEntity
  8
외형선
  6
Continuous
370
    15
100
AcDbSpline
210
0.0
220
0.0
230
1.0
 70
    24
 71
     3
 72
    18
 73
    14
 74
     0
 42
0.000000001
 43
0.00000001
 40
0.0
 40
0.0
 40
0.0
 40
0.0
 40
0.2500000000000001
 40
0.2500000000000001
 40
0.5000000000000001
 40
0.5000000000000001
 40
0.6250000000000001
 40
0.6250000000000001
 40
0.75
 40
0.75
 40
0.875
 40
0.875
 40
1.0
 40
1.0
 40
1.0
 40
1.0
 10
9.999999999999988
 20
4.253708890860288
 30
0.0
 10
9.999999999999988
 20
3.891565068998617
 30
0.0
 10
9.999999999999988
 20
3.472063028003381
 30
0.0
 10
9.999999999999988
 20
2.518885074458314
 30
0.0
 10
9.999999999999988
 20
1.983528183215803
 30
0.0
 10
9.999999999999988
 20
1.143377458733316
 30
0.0
 10
9.999999999999988
 20
0.8578773607176445
 30
0.0
 10
9.999999999999988
 20
0.2937610674179162
 30
0.0
 10
9.999999999999988
 20
0.0152373784631841
 30
0.0
 10
9.999999999999988
 20
-0.5120617563761003
 30
0.0
 10
9.999999999999988
 20
-0.7606577252720881
 30
0.0
 10
9.999999999999988
 20
-1.20430085799155
 30
0.0
 10
9.999999999999988
 20
-1.399143838414014
 30
0.0
 10
9.999999999999988
 20
-1.557874401534283
 30
0.0
  0
SPLINE
  5
16A
330
1F
100
AcDbEntity
  8
외형선
  6
Continuous
 62
     1
370
    15
100
AcDbSpline
210
0.0
220
0.0
230
1.0
 70
     8
 71
     3
 72
    12
 73
     8
 74
     0
 42
0.000000001
 43
0.00000001
 40
0.0
 40
0.0
 40
0.0
 40
0.0
 40
0.2499999999999999
 40
0.2499999999999999
 40
0.4999999999999998
 40
0.4999999999999998
 40
1.0
 40
1.0
 40
1.0
 40
1.0
 10
24.41270627466566
 20
0.0438718121770075
 30
0.0
 10
24.39499173061539
 20
0.3060629270163103
 30
0.0
 10
24.37808336217088
 20
0.5640545269249148
 30
0.0
 10
24.3438202325423
 20
1.074785162631598
 30
0.0
 10
24.32607949142748
 20
1.329395697590687
 30
0.0
 10
24.27207835383623
 20
2.07448982600891
 30
0.0
 10
24.23506684243818
 20
2.545028536004762
 30
0.0
 10
24.20007144901668
 20
2.951950352954719
 30
0.0
  0
SPLINE
  5
16B
330
1F
100
AcDbEntity
  8
외형선
  6
Continuous
 62
     1
370
    15
100
AcDbSpline
210
0.0
220
0.0
230
1.0
 70
     8
 71
     3
 72
    10
 73
     6
 74
     0
 42
0.000000001
 43
0.00000001
 40
0.0
 40
0.0
 40
0.0
 40
0.0
 40
0.5
 40
0.5
 40
1.0
 40
1.0
 40
1.0
 40
1.0
 10
21.10475093621531
 20
1.241096351180695
 30
0.0
 10
21.06955559217939
 20
1.750346281604925
 30
0.0
 10
21.03265366573446
 20
2.244070404149978
 30
0.0
 10
20.96144281800315
 20
3.119243030182017
 30
0.0
 10
20.92856108040651
 20
3.497208890047399
 30
0.0
 10
20.89302818120593
 20
3.814090794448674
 30
0.0
  0
SPLINE
  5
16C
330
1F
100
AcDbEntity
  8
외형선
  6
Continuous
 62
     1
370
    15
100
AcDbSpline
210
0.0
220
0.0
230
1.0
 70
     8
 71
     3
 72
    12
 73
     8
 74
     0
 42
0.000000001
 43
0.00000001
 40
0.0
 40
0.0
 40
0.0
 40
0.0
 40
0.5000000000000001
 40
0.5000000000000001
 40
0.75
 40
0.75
 40
1.0
 40
1.0
 40
1.0
 40
1.0
 10
22.20519021090861
 20
0.8500402489975895
 30
0.0
 10
22.17100724136559
 20
1.364261889621092
 30
0.0
 10
22.13440675408231
 20
1.874565993042532
 30
0.0
 10
22.08026858110132
 20
2.569910362389588
 30
0.0
 10
22.06236058822451
 20
2.79006217964953
 30
0.0
 10
22.02754349020434
 20
3.198915196423749
 30
0.0
 10
22.01100615419127
 20
3.386524538656476
 30
0.0
 10
21.99366729049159
 20
3.560868895083175
 30
0.0
  0
SPLINE
  5
16D
330
1F
100
AcDbEntity
  8
외형선
  6
Continuous
 62
     1
370
    15
100
AcDbSpline
210
0.0
220
0.0
230
1.0
 70
     8
 71
     3
 72
    14
 73
    10
 74
     0
 42
0.000000001
 43
0.00000001
 40
0.0
 40
0.0
 40
0.0
 40
0.0
 40
0.2500000000000001
 40
0.2500000000000001
 40
0.5000000000000002
 40
0.5000000000000002
 40
0.7500000000000001
 40
0.7500000000000001
 40
1.0
 40
1.0
 40
1.0
 40
1.0
 10
22.99606857950195
 20
0.5521990650100461
 30
0.0
 10
22.97902406984556
 20
0.8094134342348241
 30
0.0
 10
22.96191053362092
 20
1.064511988934052
 30
0.0
 10
22.92633057391761
 20
1.568931116346083
 30
0.0
 10
22.9081545569274
 20
1.81676691187502
 30
0.0
 10
22.87178840048138
 20
2.292934191158423
 30
0.0
 10
22.85360187962006
 20
2.521218190600582
 30
0.0
 10
22.8179813508527
 20
2.949054570267364
 30
0.0
 10
22.80079202020678
 20
3.147729543537527
 30
0.0
 10
22.78378147545094
 20
3.330705887778372
 30
0.0
  0
SPLINE
  5
16E
330
1F
100
AcDbEntity
  8
외형선
  6
Continuous
 62
     1
370
    15
100
AcDbSpline
210
0.0
220
0.0
230
1.0
 70
     8
 71
     3
 72
    12
 73
     8
 74
     0
 42
0.000000001
 43
0.00000001
 40
0.0
 40
0.0
 40
0.0
 40
0.0
 40
0.5
 40
0.5
 40
0.75
 40
0.75
 40
1.0
 40
1.0
 40
1.0
 40
1.0
 10
22.36377002407981
 20
0.7773226515015711
 30
0.0
 10
22.32962722515107
 20
1.288402972909258
 30
0.0
 10
22.29293475441888
 20
1.797427176591149
 30
0.0
 10
22.23848874404704
 20
2.493182442174577
 30
0.0
 10
22.22045106266412
 20
2.71384382613963
 30
0.0
 10
22.18533673621644
 20
3.124249666508761
 30
0.0
 10
22.16868930969644
 20
3.312660612912761
 30
0.0
 10
22.1513370499812
 20
3.487690900110095
 30
0.0
  0
SPLINE
  5
16F
330
1F
100
AcDbEntity
  8
외형선
  6
Continuous
 62
     1
370
    15
100
AcDbSpline
210
0.0
220
0.0
230
1.0
 70
     8
 71
     3
 72
    12
 73
     8
 74
     0
 42
0.000000001
 43
0.00000001
 40
0.0
 40
0.0
 40
0.0
 40
0.0
 40
0.5
 40
0.5
 40
0.75
 40
0.75
 40
1.0
 40
1.0
 40
1.0
 40
1.0
 10
20.94705199162366
 20
1.275073756161314
 30
0.0
 10
20.91159270752432
 20
1.779928075894396
 30
0.0
 10
20.87450529662899
 20
2.267826750973241
 30
0.0
 10
20.82100201489479
 20
2.913791647137026
 30
0.0
 10
20.80364823317779
 20
3.114534986918482
 30
0.0
 10
20.76980950093493
 20
3.483073242223107
 30
0.0
 10
20.75223003229858
 20
3.654732575876709
 30
0.0
 10
20.73432932503409
 20
3.8093864206025
 30
0.0
  0
SPLINE
  5
170
330
1F
100
AcDbEntity
  8
외형선
  6
Continuous
 62
     1
370
    15
100
AcDbSpline
210
0.0
220
0.0
230
1.0
 70
     8
 71
     3
 72
    12
 73
     8
 74
     0
 42
0.000000001
 43
0.00000001
 40
0.0
 40
0.0
 40
0.0
 40
0.0
 40
0.5
 40
0.5
 40
0.75
 40
0.75
 40
1.0
 40
1.0
 40
1.0
 40
1.0
 10
19.05440988205057
 20
1.943443228002264
 30
0.0
 10
19.01828511248844
 20
2.429080943963991
 30
0.0
 10
18.98189754832719
 20
2.878128872643915
 30
0.0
 10
18.93123149278521
 20
3.447388002914495
 30
0.0
 10
18.91409197834011
 20
3.623536966711624
 30
0.0
 10
18.87866011798316
 20
3.944465094748406
 30
0.0
 10
18.86057676152744
 20
4.088434247840688
 30
0.0
 10
18.84249935714027
 20
4.212543286438246
 30
0.0
  0
SPLINE
  5
171
330
1F
100
AcDbEntity
  8
외형선
  6
Continuous
 62
     1
370
    15
100
AcDbSpline
210
0.0
220
0.0
230
1.0
 70
     8
 71
     3
 72
    12
 73
     8
 74
     0
 42
0.000000001
 43
0.00000001
 40
0.0
 40
0.0
 40
0.0
 40
0.0
 40
0.5000000000000002
 40
0.5000000000000002
 40
0.7500000000000001
 40
0.7500000000000001
 40
1.0
 40
1.0
 40
1.0
 40
1.0
 10
20.15552299327165
 20
1.57064172682208
 30
0.0
 10
20.11973872530272
 20
2.071277363414391
 30
0.0
 10
20.0829021314715
 20
2.546461569031591
 30
0.0
 10
20.03054868748412
 20
3.164667645912124
 30
0.0
 10
20.01399675432203
 20
3.353923708704434
 30
0.0
 10
19.97947142423853
 20
3.705727681976332
 30
0.0
 10
19.96166747832279
 20
3.867316527441186
 30
0.0
 10
19.94367675746959
 20
4.010574194923244
 30
0.0
  0
SPLINE
  5
172
330
1F
100
AcDbEntity
  8
외형선
  6
Continuous
 62
     1
370
    15
100
AcDbSpline
210
0.0
220
0.0
230
1.0
 70
     8
 71
     3
 72
    12
 73
     8
 74
     0
 42
0.000000001
 43
0.00000001
 40
0.0
 40
0.0
 40
0.0
 40
0.0
 40
0.5000000000000001
 40
0.5000000000000001
 40
0.75
 40
0.75
 40
1.0
 40
1.0
 40
1.0
 40
1.0
 10
20.31423727161504
 20
1.492409882703909
 30
0.0
 10
20.27838005823556
 20
1.991610015413592
 30
0.0
 10
20.24133482978905
 20
2.467244361215877
 30
0.0
 10
20.18853892765684
 20
3.087915069159562
 30
0.0
 10
20.17184549373605
 20
3.278145939664577
 30
0.0
 10
20.13731042635169
 20
3.631395424721485
 30
0.0
 10
20.1194742813952
 20
3.794047256646839
 30
0.0
 10
20.10142553210482
 20
3.938624554457776
 30
0.0
  0
SPLINE
  5
173
330
1F
100
AcDbEntity
  8
외형선
  6
Continuous
 62
     1
370
    15
100
AcDbSpline
210
0.0
220
0.0
230
1.0
 70
     8
 71
     3
 72
     8
 73
     4
 74
     0
 42
0.000000001
 43
0.00000001
 40
0.0
 40
0.0
 40
0.0
 40
0.0
 40
1.0
 40
1.0
 40
1.0
 40
1.0
 10
10.58950203247105
 20
-4.075901846322441
 30
0.0
 10
10.39300451327575
 20
-4.038963261703396
 30
0.0
 10
10.19640443489486
 20
-4.000642891793055
 30
0.0
 10
10.00000000000099
 20
-3.96099950558515
 30
0.0
  0
SPLINE
  5
174
330
1F
100
AcDbEntity
  8
외형선
  6
Continuous
 62
     1
370
    15
100
AcDbSpline
210
0.0
220
0.0
230
1.0
 70
     8
 71
     3
 72
    12
 73
     8
 74
     0
 42
0.000000001
 43
0.00000001
 40
0.0
 40
0.0
 40
0.0
 40
0.0
 40
0.5000000000000001
 40
0.5000000000000001
 40
0.75
 40
0.75
 40
1.0
 40
1.0
 40
1.0
 40
1.0
 10
10.58950203551103
 20
-4.075902057144133
 30
0.0
 10
10.55467693941418
 20
-3.803987569496023
 30
0.0
 10
10.51784936318114
 20
-3.450407412658478
 30
0.0
 10
10.46408023320732
 20
-2.83785589002197
 30
0.0
 10
10.44640949070895
 20
-2.620389188616199
 30
0.0
 10
10.41226376286105
 20
-2.168929071823549
 30
0.0
 10
10.39547300833333
 20
-1.933725421899174
 30
0.0
 10
10.37785945217015
 20
-1.686987918520784
 30
0.0
  0
SPLINE
  5
175
330
1F
100
AcDbEntity
  8
외형선
  6
Continuous
 62
     1
370
    15
100
AcDbSpline
210
0.0
220
0.0
230
1.0
 70
     8
 71
     3
 72
     8
 73
     4
 74
     0
 42
0.000000001
 43
0.00000001
 40
0.0
 40
0.0
 40
0.0
 40
0.0
 40
1.0
 40
1.0
 40
1.0
 40
1.0
 10
10.74813002039155
 20
-4.063007404602424
 30
0.0
 10
10.70259126372004
 20
-4.082175436168779
 30
0.0
 10
10.64682959592511
 20
-4.086678567927802
 30
0.0
 10
10.5895020079197
 20
-4.07590184170912
 30
0.0
  0
SPLINE
  5
176
330
1F
100
AcDbEntity
  8
외형선
  6
Continuous
 62
     1
370
    15
100
AcDbSpline
210
0.0
220
0.0
230
1.0
 70
     8
 71
     3
 72
    12
 73
     8
 74
     0
 42
0.000000001
 43
0.00000001
 40
0.0
 40
0.0
 40
0.0
 40
0.0
 40
0.5
 40
0.5
 40
0.75
 40
0.75
 40
1.0
 40
1.0
 40
1.0
 40
1.0
 10
10.7481299878994
 20
-4.063007158626021
 30
0.0
 10
10.71330844539667
 20
-3.799396388508222
 30
0.0
 10
10.67634966914252
 20
-3.453679643082252
 30
0.0
 10
10.62222562701138
 20
-2.850963783357193
 30
0.0
 10
10.60441143918337
 20
-2.63646011470195
 30
0.0
 10
10.5699463016568
 20
-2.190237334666148
 30
0.0
 10
10.55319301175452
 20
-1.958292401655806
 30
0.0
 10
10.53555126459134
 20
-1.714415242743566
 30
0.0
  0
SPLINE
  5
177
330
1F
100
AcDbEntity
  8
외형선
  6
Continuous
 62
     1
370
    15
100
AcDbSpline
210
0.0
220
0.0
230
1.0
 70
     8
 71
     3
 72
    10
 73
     6
 74
     0
 42
0.000000001
 43
0.00000001
 40
0.0
 40
0.0
 40
0.0
 40
0.0
 40
0.5000000000000004
 40
0.5000000000000004
 40
1.0
 40
1.0
 40
1.0
 40
1.0
 10
11.38061196437026
 20
-4.173279712684976
 30
0.0
 10
11.28704816617356
 20
-4.098321580106506
 30
0.0
 10
11.17337798004385
 20
-4.051317392993321
 30
0.0
 10
10.94670246446416
 20
-4.014792793485902
 30
0.0
 10
10.83797497967233
 20
-4.025190144285142
 30
0.0
 10
10.74813002039155
 20
-4.063007404602426
 30
0.0
  0
SPLINE
  5
178
330
1F
100
AcDbEntity
  8
외형선
  6
Continuous
 62
     1
370
    15
100
AcDbSpline
210
0.0
220
0.0
230
1.0
 70
     8
 71
     3
 72
    12
 73
     8
 74
     0
 42
0.000000001
 43
0.00000001
 40
0.0
 40
0.0
 40
0.0
 40
0.0
 40
0.5000000000000002
 40
0.5000000000000002
 40
0.7500000000000001
 40
0.7500000000000001
 40
1.0
 40
1.0
 40
1.0
 40
1.0
 10
11.38061196436207
 20
-4.173279712627451
 30
0.0
 10
11.34644403519636
 20
-3.933150662052669
 30
0.0
 10
11.30974027190284
 20
-3.609204621718068
 30
0.0
 10
11.2553024318116
 20
-3.031056804609047
 30
0.0
 10
11.23727152212966
 20
-2.823419318311718
 30
0.0
 10
11.202177918715
 20
-2.387862621270543
 30
0.0
 10
11.18553826587411
 20
-2.161997328054497
 30
0.0
 10
11.16817517007027
 20
-1.924200217270877
 30
0.0
  0
SPLINE
  5
179
330
1F
100
AcDbEntity
  8
외형선
  6
Continuous
 62
     1
370
    15
100
AcDbSpline
210
0.0
220
0.0
230
1.0
 70
     8
 71
     3
 72
     8
 73
     4
 74
     0
 42
0.000000001
 43
0.00000001
 40
0.0
 40
0.0
 40
0.0
 40
0.0
 40
1.0
 40
1.0
 40
1.0
 40
1.0
 10
12.63828472128033
 20
-4.410289895320423
 30
0.0
 10
12.27036354865872
 20
-4.359815975417779
 30
0.0
 10
11.90391132159328
 20
-4.304192825083904
 30
0.0
 10
11.53795936011458
 20
-4.243595856828748
 30
0.0
  0
SPLINE
  5
17A
330
1F
100
AcDbEntity
  8
외형선
  6
Continuous
 62
     1
370
    15
100
AcDbSpline
210
0.0
220
0.0
230
1.0
 70
     8
 71
     3
 72
    12
 73
     8
 74
     0
 42
0.000000001
 43
0.00000001
 40
0.0
 40
0.0
 40
0.0
 40
0.0
 40
0.5
 40
0.5
 40
0.75
 40
0.75
 40
1.0
 40
1.0
 40
1.0
 40
1.0
 10
11.53822704499453
 20
-4.243590801890664
 30
0.0
 10
11.50437436504079
 20
-4.00710493484674
 30
0.0
 10
11.46792671222031
 20
-3.686367135254175
 30
0.0
 10
11.41369349795644
 20
-3.110947068279499
 30
0.0
 10
11.39570151181866
 20
-2.903872501146023
 30
0.0
 10
11.36062312314349
 20
-2.468594832508339
 30
0.0
 10
11.34398058141214
 20
-2.242522756618664
 30
0.0
 10
11.32678703019173
 20
-2.005019353266385
 30
0.0
  0
SPLINE
  5
17B
330
1F
100
AcDbEntity
  8
외형선
  6
Continuous
 62
     1
370
    15
100
AcDbSpline
210
0.0
220
0.0
230
1.0
 70
     8
 71
     3
 72
    12
 73
     8
 74
     0
 42
0.000000001
 43
0.00000001
 40
0.0
 40
0.0
 40
0.0
 40
0.0
 40
0.25
 40
0.25
 40
0.5
 40
0.5
 40
1.0
 40
1.0
 40
1.0
 40
1.0
 10
12.63828397798246
 20
-4.410290382326726
 30
0.0
 10
12.6210080846128
 20
-4.311321482861008
 30
0.0
 10
12.60444275580334
 20
-4.19399969728345
 30
0.0
 10
12.56951079127299
 20
-3.918145199978095
 30
0.0
 10
12.55156560922502
 20
-3.760254692925389
 30
0.0
 10
12.49738413312255
 20
-3.234708382699516
 30
0.0
 10
12.46084883559285
 20
-2.81435393966262
 30
0.0
 10
12.42680862676392
 20
-2.361117370851658
 30
0.0
  0
SPLINE
  5
17C
330
1F
100
AcDbEntity
  8
외형선
  6
Continuous
 62
     1
370
    15
100
AcDbSpline
210
0.0
220
0.0
230
1.0
 70
     8
 71
     3
 72
    10
 73
     6
 74
     0
 42
0.000000001
 43
0.00000001
 40
0.0
 40
0.0
 40
0.0
 40
0.0
 40
0.5
 40
0.5
 40
1.0
 40
1.0
 40
1.0
 40
1.0
 10
18.89664530077704
 20
1.96702648845464
 30
0.0
 10
18.8603401534209
 20
2.447172764484614
 30
0.0
 10
18.82387144185015
 20
2.889445425837911
 30
0.0
 10
18.75638490935857
 20
3.633606250935156
 30
0.0
 10
18.72005889227987
 20
3.954756931267124
 30
0.0
 10
18.6837473314162
 20
4.194903714263304
 30
0.0
  0
SPLINE
  5
17D
330
1F
100
AcDbEntity
  8
외형선
  6
Continuous
 62
     1
370
    15
100
AcDbSpline
210
0.0
220
0.0
230
1.0
 70
     8
 71
     3
 72
     8
 73
     4
 74
     0
 42
0.000000001
 43
0.00000001
 40
0.0
 40
0.0
 40
0.0
 40
0.0
 40
1.0
 40
1.0
 40
1.0
 40
1.0
 10
11.53823428533792
 20
-4.243641380033741
 30
0.0
 10
11.48258063778065
 20
-4.234426211048077
 30
0.0
 10
11.42663598408432
 20
-4.210151607993453
 30
0.0
 10
11.38061196436905
 20
-4.173279712686955
 30
0.0
  0
SPLINE
  5
17E
330
1F
100
AcDbEntity
  8
외형선
  6
Continuous
 62
     1
370
    15
100
AcDbSpline
210
0.0
220
0.0
230
1.0
 70
     8
 71
     3
 72
    12
 73
     8
 74
     0
 42
0.000000001
 43
0.00000001
 40
0.0
 40
0.0
 40
0.0
 40
0.0
 40
0.2500000000000001
 40
0.2500000000000001
 40
0.5000000000000001
 40
0.5000000000000001
 40
1.0
 40
1.0
 40
1.0
 40
1.0
 10
18.26362628834523
 20
2.171471906881238
 30
0.0
 10
18.24547552277717
 20
2.405922904784092
 30
0.0
 10
18.22738555189114
 20
2.629770258117334
 30
0.0
 10
18.19207368520994
 20
3.047552360065961
 30
0.0
 10
18.17528327729463
 20
3.240039555955819
 30
0.0
 10
18.12372374925202
 20
3.775435684173462
 30
0.0
 10
18.08695272012407
 20
4.076439435563558
 30
0.0
 10
18.05074953229123
 20
4.293353070369401
 30
0.0
  0
SPLINE
  5
17F
330
1F
100
AcDbEntity
  8
외형선
  6
Continuous
 62
     1
370
    15
100
AcDbSpline
210
0.0
220
0.0
230
1.0
 70
     8
 71
     3
 72
    12
 73
     8
 74
     0
 42
0.000000001
 43
0.00000001
 40
0.0
 40
0.0
 40
0.0
 40
0.0
 40
0.2499999999999999
 40
0.2499999999999999
 40
0.4999999999999998
 40
0.4999999999999998
 40
1.0
 40
1.0
 40
1.0
 40
1.0
 10
17.00382808403173
 20
2.597861883438356
 30
0.0
 10
16.9859492704681
 20
2.820073010041304
 30
0.0
 10
16.96835206808424
 20
3.028940966916925
 30
0.0
 10
16.93440236002101
 20
3.412898343882717
 30
0.0
 10
16.91743564175115
 20
3.590502616931671
 30
0.0
 10
16.86441357531122
 20
4.078282080272791
 30
0.0
 10
16.82749753180561
 20
4.336896423118708
 30
0.0
 10
16.79202017598025
 20
4.507600833440479
 30
0.0
  0
SPLINE
  5
180
330
1F
100
AcDbEntity
  8
외형선
  6
Continuous
 62
     1
370
    15
100
AcDbSpline
210
0.0
220
0.0
230
1.0
 70
     8
 71
     3
 72
    12
 73
     8
 74
     0
 42
0.000000001
 43
0.00000001
 40
0.0
 40
0.0
 40
0.0
 40
0.0
 40
0.2500000000000001
 40
0.2500000000000001
 40
0.5000000000000001
 40
0.5000000000000001
 40
1.0
 40
1.0
 40
1.0
 40
1.0
 10
18.10488148673486
 20
2.253353404350137
 30
0.0
 10
18.08682482773038
 20
2.487643753682951
 30
0.0
 10
18.06885956444976
 20
2.710909366432832
 30
0.0
 10
18.0338425638682
 20
3.12690400224068
 30
0.0
 10
18.01723328405189
 20
3.318186733975783
 30
0.0
 10
17.96566123170613
 20
3.851239772651438
 30
0.0
 10
17.92900000301378
 20
4.14919386932533
 30
0.0
 10
17.89300104865122
 20
4.36236904537092
 30
0.0
  0
SPLINE
  5
181
330
1F
100
AcDbEntity
  8
외형선
  6
Continuous
 62
     1
370
    15
100
AcDbSpline
210
0.0
220
0.0
230
1.0
 70
     8
 71
     3
 72
     8
 73
     4
 74
     0
 42
0.000000001
 43
0.00000001
 40
0.0
 40
0.0
 40
0.0
 40
0.0
 40
1.0
 40
1.0
 40
1.0
 40
1.0
 10
12.79690167623333
 20
-4.384662626840274
 30
0.0
 10
12.75136427749638
 20
-4.409178388214893
 30
0.0
 10
12.6956065486805
 20
-4.418153693343576
 30
0.0
 10
12.6382838726499
 20
-4.410289778901721
 30
0.0
  0
SPLINE
  5
182
330
1F
100
AcDbEntity
  8
외형선
  6
Continuous
 62
     1
370
    15
100
AcDbSpline
210
0.0
220
0.0
230
1.0
 70
     8
 71
     3
 72
    12
 73
     8
 74
     0
 42
0.000000001
 43
0.00000001
 40
0.0
 40
0.0
 40
0.0
 40
0.0
 40
0.2499999999999999
 40
0.2499999999999999
 40
0.4999999999999998
 40
0.4999999999999998
 40
1.0
 40
1.0
 40
1.0
 40
1.0
 10
12.79690166192776
 20
-4.384662548776936
 30
0.0
 10
12.77946073161976
 20
-4.289490052817707
 30
0.0
 10
12.76285302649632
 20
-4.176018181450087
 30
0.0
 10
12.72791501185127
 20
-3.908155141382933
 30
0.0
 10
12.70993575692458
 20
-3.754166914276162
 30
0.0
 10
12.65556397799399
 20
-3.239681925002672
 30
0.0
 10
12.6187816745122
 20
-2.825782673585154
 30
0.0
 10
12.58443281102463
 20
-2.377659299904735
 30
0.0
  0
SPLINE
  5
183
330
1F
100
AcDbEntity
  8
외형선
  6
Continuous
 62
     1
370
    15
100
AcDbSpline
210
0.0
220
0.0
230
1.0
 70
     8
 71
     3
 72
    10
 73
     6
 74
     0
 42
0.000000001
 43
0.00000001
 40
0.0
 40
0.0
 40
0.0
 40
0.0
 40
0.5
 40
0.5
 40
1.0
 40
1.0
 40
1.0
 40
1.0
 10
13.4295601801128
 20
-4.462460060583165
 30
0.0
 10
13.3359608458305
 20
-4.386493714378524
 30
0.0
 10
13.22225482431334
 20
-4.342062592161396
 30
0.0
 10
12.99551891432548
 20
-4.317132040856436
 30
0.0
 10
12.88676206857226
 20
-4.336284897836983
 30
0.0
 10
12.79690167623333
 20
-4.384662626840272
 30
0.0
  0
SPLINE
  5
184
330
1F
100
AcDbEntity
  8
외형선
  6
Continuous
 62
     1
370
    15
100
AcDbSpline
210
0.0
220
0.0
230
1.0
 70
     8
 71
     3
 72
    12
 73
     8
 74
     0
 42
0.000000001
 43
0.00000001
 40
0.0
 40
0.0
 40
0.0
 40
0.0
 40
0.25
 40
0.25
 40
0.5
 40
0.5
 40
1.0
 40
1.0
 40
1.0
 40
1.0
 10
13.4295601801038
 20
-4.46246006054061
 30
0.0
 10
13.41185493184085
 20
-4.378724097957795
 30
0.0
 10
13.39496824153192
 20
-4.275775518879036
 30
0.0
 10
13.36068371966868
 20
-4.031340984403054
 30
0.0
 10
13.34293549205153
 20
-3.888667189671177
 30
0.0
 10
13.28892305491723
 20
-3.405401676300754
 30
0.0
 10
13.25191942391065
 20
-3.008469425751331
 30
0.0
 10
13.21694535660783
 20
-2.571011117631608
 30
0.0
  0
SPLINE
  5
185
330
1F
100
AcDbEntity
  8
외형선
  6
Continuous
 62
     1
370
    15
100
AcDbSpline
210
0.0
220
0.0
230
1.0
 70
     8
 71
     3
 72
     8
 73
     4
 74
     0
 42
0.000000001
 43
0.00000001
 40
0.0
 40
0.0
 40
0.0
 40
0.0
 40
1.0
 40
1.0
 40
1.0
 40
1.0
 10
14.68821519555036
 20
-4.636745053481447
 30
0.0
 10
14.32069977086243
 20
-4.606195492989221
 30
0.0
 10
13.95526584482427
 20
-4.570224122570533
 30
0.0
 10
13.58726417716219
 20
-4.528799840857435
 30
0.0
  0
SPLINE
  5
186
330
1F
100
AcDbEntity
  8
외형선
  6
Continuous
 62
     1
370
    15
100
AcDbSpline
210
0.0
220
0.0
230
1.0
 70
     8
 71
     3
 72
    12
 73
     8
 74
     0
 42
0.000000001
 43
0.00000001
 40
0.0
 40
0.0
 40
0.0
 40
0.0
 40
0.2499999999999999
 40
0.2499999999999999
 40
0.4999999999999999
 40
0.4999999999999999
 40
1.0
 40
1.0
 40
1.0
 40
1.0
 10
13.58726402454224
 20
-4.528800005243558
 30
0.0
 10
13.56959017696106
 20
-4.447074008394146
 30
0.0
 10
13.55262874146159
 20
-4.345704925609861
 30
0.0
 10
13.51866831492723
 20
-4.105202909982765
 30
0.0
 10
13.50106649342184
 20
-3.964382351191362
 30
0.0
 10
13.44741928001827
 20
-3.485949140791129
 30
0.0
 10
13.410555670278
 20
-3.091222828869389
 30
0.0
 10
13.37558646028762
 20
-2.654154858618163
 30
0.0
  0
SPLINE
  5
187
330
1F
100
AcDbEntity
  8
외형선
  6
Continuous
 62
     1
370
    15
100
AcDbSpline
210
0.0
220
0.0
230
1.0
 70
     8
 71
     3
 72
    12
 73
     8
 74
     0
 42
0.000000001
 43
0.00000001
 40
0.0
 40
0.0
 40
0.0
 40
0.0
 40
0.25
 40
0.25
 40
0.5
 40
0.5
 40
1.0
 40
1.0
 40
1.0
 40
1.0
 10
14.68821518078971
 20
-4.636745003779446
 30
0.0
 10
14.67024593831022
 20
-4.576125960653838
 30
0.0
 10
14.652485522644
 20
-4.493982192402266
 30
0.0
 10
14.61808552473974
 20
-4.291798584137386
 30
0.0
 10
14.60147973640395
 20
-4.17228356240931
 30
0.0
 10
14.54895996704927
 20
-3.752017950284406
 30
0.0
 10
14.51209554612502
 20
-3.39104955739326
 30
0.0
 10
14.47637354865115
 20
-2.977375465322292
 30
0.0
  0
SPLINE
  5
188
330
1F
100
AcDbEntity
  8
외형선
  6
Continuous
 62
     1
370
    15
100
AcDbSpline
210
0.0
220
0.0
230
1.0
 70
     8
 71
     3
 72
    12
 73
     8
 74
     0
 42
0.000000001
 43
0.00000001
 40
0.0
 40
0.0
 40
0.0
 40
0.0
 40
0.25
 40
0.25
 40
0.5
 40
0.5
 40
1.0
 40
1.0
 40
1.0
 40
1.0
 10
16.84608391451829
 20
2.61043328524674
 30
0.0
 10
16.82815955905593
 20
2.829484161061315
 30
0.0
 10
16.81054310972476
 20
3.03494929815687
 30
0.0
 10
16.77660862290333
 20
3.411797683867072
 30
0.0
 10
16.75936885724269
 20
3.586692912298523
 30
0.0
 10
16.70593848172617
 20
4.06418095706814
 30
0.0
 10
16.66884502352598
 20
4.31483098952041
 30
0.0
 10
16.63332652985232
 20
4.477423085480626
 30
0.0
  0
SPLINE
  5
189
330
1F
100
AcDbEntity
  8
외형선
  6
Continuous
 62
     1
370
    15
100
AcDbSpline
210
0.0
220
0.0
230
1.0
 70
     8
 71
     3
 72
     8
 73
     4
 74
     0
 42
0.000000001
 43
0.00000001
 40
0.0
 40
0.0
 40
0.0
 40
0.0
 40
1.0
 40
1.0
 40
1.0
 40
1.0
 10
13.58726398429761
 20
-4.528799819147536
 30
0.0
 10
13.53158000239716
 20
-4.522531725117928
 30
0.0
 10
13.4756061292987
 20
-4.499831507124743
 30
0.0
 10
13.42956018011158
 20
-4.462460060585465
 30
0.0
  0
SPLINE
  5
18A
330
1F
100
AcDbEntity
  8
외형선
  6
Continuous
 62
     1
370
    15
100
AcDbSpline
210
0.0
220
0.0
230
1.0
 70
     8
 71
     3
 72
    12
 73
     8
 74
     0
 42
0.000000001
 43
0.00000001
 40
0.0
 40
0.0
 40
0.0
 40
0.0
 40
0.25
 40
0.25
 40
0.5
 40
0.5
 40
1.0
 40
1.0
 40
1.0
 40
1.0
 10
16.21322896970046
 20
2.79713232668152
 30
0.0
 10
16.19550758834934
 20
3.008086967190646
 30
0.0
 10
16.17857893309228
 20
3.203000675610511
 30
0.0
 10
16.14434214128043
 20
3.563646908161208
 30
0.0
 10
16.12661149827679
 20
3.73061267732816
 30
0.0
 10
16.07262944937252
 20
4.178691270191214
 30
0.0
 10
16.03561515226256
 20
4.405098539961781
 30
0.0
 10
16.00060224009139
 20
4.542735929707994
 30
0.0
  0
SPLINE
  5
18B
330
1F
100
AcDbEntity
  8
외형선
  6
Continuous
 62
     1
370
    15
100
AcDbSpline
210
0.0
220
0.0
230
1.0
 70
     8
 71
     3
 72
    12
 73
     8
 74
     0
 42
0.000000001
 43
0.00000001
 40
0.0
 40
0.0
 40
0.0
 40
0.0
 40
0.25
 40
0.25
 40
0.5
 40
0.5
 40
1.0
 40
1.0
 40
1.0
 40
1.0
 10
14.95422037951704
 20
3.188673364930037
 30
0.0
 10
14.93716397313801
 20
3.382667707213661
 30
0.0
 10
14.92031420109993
 20
3.561680683037955
 30
0.0
 10
14.88502497902001
 20
3.89065069674982
 30
0.0
 10
14.86696963308479
 20
4.039095430949772
 30
0.0
 10
14.81268536160238
 20
4.42567869601204
 30
0.0
 10
14.77647156158608
 20
4.60307248118135
 30
0.0
 10
14.74285022870595
 20
4.692117531136891
 30
0.0
  0
SPLINE
  5
18C
330
1F
100
AcDbEntity
  8
외형선
  6
Continuous
 62
     1
370
    15
100
AcDbSpline
210
0.0
220
0.0
230
1.0
 70
     8
 71
     3
 72
    12
 73
     8
 74
     0
 42
0.000000001
 43
0.00000001
 40
0.0
 40
0.0
 40
0.0
 40
0.0
 40
0.2500000000000001
 40
0.2500000000000001
 40
0.5000000000000002
 40
0.5000000000000002
 40
1.0
 40
1.0
 40
1.0
 40
1.0
 10
16.05455860031809
 20
2.880692712316609
 30
0.0
 10
16.03698603153737
 20
3.090645487956535
 30
0.0
 10
16.02028328969977
 20
3.284071470726091
 30
0.0
 10
15.98601923097948
 20
3.642977574460525
 30
0.0
 10
15.9683050439542
 20
3.808680577357217
 30
0.0
 10
15.91446137047386
 20
4.252056738253466
 30
0.0
 10
15.87766120323383
 20
4.474110679982894
 30
0.0
 10
15.84293358054998
 20
4.60716020803182
 30
0.0
  0
SPLINE
  5
18D
330
1F
100
AcDbEntity
  8
외형선
  6
Continuous
 62
     1
370
    15
100
AcDbSpline
210
0.0
220
0.0
230
1.0
 70
     8
 71
     3
 72
     8
 73
     4
 74
     0
 42
0.000000001
 43
0.00000001
 40
0.0
 40
0.0
 40
0.0
 40
0.0
 40
1.0
 40
1.0
 40
1.0
 40
1.0
 10
14.84695308995405
 20
-4.599040527191009
 30
0.0
 10
14.80137064753102
 20
-4.628302069594262
 30
0.0
 10
14.7455728583289
 20
-4.641512884358259
 30
0.0
 10
14.68821519552308
 20
-4.636745053481553
 30
0.0
  0
SPLINE
  5
18E
330
1F
100
AcDbEntity
  8
외형선
  6
Continuous
 62
     1
370
    15
100
AcDbSpline
210
0.0
220
0.0
230
1.0
 70
     8
 71
     3
 72
    12
 73
     8
 74
     0
 42
0.000000001
 43
0.00000001
 40
0.0
 40
0.0
 40
0.0
 40
0.0
 40
0.2499999999999999
 40
0.2499999999999999
 40
0.5
 40
0.5
 40
1.0
 40
1.0
 40
1.0
 40
1.0
 10
14.84695308994328
 20
-4.599040527157221
 30
0.0
 10
14.82887157442702
 20
-4.542300980224073
 30
0.0
 10
14.8109697427099
 20
-4.463943447404308
 30
0.0
 10
14.77624631934912
 20
-4.268909908495385
 30
0.0
 10
14.75962966674914
 20
-4.153118661302968
 30
0.0
 10
14.70707637427007
 20
-3.744201454219838
 30
0.0
 10
14.67006873503081
 20
-3.390393813495303
 30
0.0
 10
14.63411530620815
 20
-2.982743030011121
 30
0.0
  0
SPLINE
  5
18F
330
1F
100
AcDbEntity
  8
외형선
  6
Continuous
 62
     1
370
    15
100
AcDbSpline
210
0.0
220
0.0
230
1.0
 70
     8
 71
     3
 72
    10
 73
     6
 74
     0
 42
0.000000001
 43
0.00000001
 40
0.0
 40
0.0
 40
0.0
 40
0.0
 40
0.5
 40
0.5
 40
1.0
 40
1.0
 40
1.0
 40
1.0
 10
15.47994478202599
 20
-4.642576718068427
 30
0.0
 10
15.38628599558915
 20
-4.567410436238505
 30
0.0
 10
15.2725128489982
 20
-4.526624334224082
 30
0.0
 10
15.04566961651109
 20
-4.513884953579611
 30
0.0
 10
14.93687296770301
 20
-4.541316671781344
 30
0.0
 10
14.84695308995405
 20
-4.59904052719101
 30
0.0
  0
SPLINE
  5
190
330
1F
100
AcDbEntity
  8
외형선
  6
Continuous
 62
     1
370
    15
100
AcDbSpline
210
0.0
220
0.0
230
1.0
 70
     8
 71
     3
 72
    12
 73
     8
 74
     0
 42
0.000000001
 43
0.00000001
 40
0.0
 40
0.0
 40
0.0
 40
0.0
 40
0.25
 40
0.25
 40
0.5
 40
0.5
 40
1.0
 40
1.0
 40
1.0
 40
1.0
 10
15.4799447820166
 20
-4.64257671804552
 30
0.0
 10
15.46179631907992
 20
-4.598302377875993
 30
0.0
 10
15.44371623289696
 20
-4.53201596070753
 30
0.0
 10
15.40843794675704
 20
-4.359387790578799
 30
0.0
 10
15.39167946788481
 20
-4.254213945409087
 30
0.0
 10
15.34005158177001
 20
-3.879857994030914
 30
0.0
 10
15.30326113727468
 20
-3.547239576337212
 30
0.0
 10
15.26706964227188
 20
-3.15536732368366
 30
0.0
  0
SPLINE
  5
191
330
1F
100
AcDbEntity
  8
외형선
  6
Continuous
 62
     1
370
    15
100
AcDbSpline
210
0.0
220
0.0
230
1.0
 70
     8
 71
     3
 72
     8
 73
     4
 74
     0
 42
0.000000001
 43
0.00000001
 40
0.0
 40
0.0
 40
0.0
 40
0.0
 40
1.0
 40
1.0
 40
1.0
 40
1.0
 10
16.73885140972575
 20
-4.749581794992286
 30
0.0
 10
16.37329949571947
 20
-4.739762252978034
 30
0.0
 10
16.0056022177674
 20
-4.724323107108416
 30
0.0
 10
15.63770249529156
 20
-4.703310512630179
 30
0.0
  0
SPLINE
  5
192
330
1F
100
AcDbEntity
  8
외형선
  6
Continuous
 62
     1
370
    15
100
AcDbSpline
210
0.0
220
0.0
230
1.0
 70
     8
 71
     3
 72
    12
 73
     8
 74
     0
 42
0.000000001
 43
0.00000001
 40
0.0
 40
0.0
 40
0.0
 40
0.0
 40
0.2499999999999999
 40
0.2499999999999999
 40
0.4999999999999998
 40
0.4999999999999998
 40
1.0
 40
1.0
 40
1.0
 40
1.0
 10
15.63770093574526
 20
-4.703310776034398
 30
0.0
 10
15.6196285456763
 20
-4.661501755572043
 30
0.0
 10
15.60159968298095
 20
-4.597568226602498
 30
0.0
 10
15.56636836859275
 20
-4.429189244023658
 30
0.0
 10
15.54955742291157
 20
-4.325749123215464
 30
0.0
 10
15.49841823837285
 20
-3.957659154230472
 30
0.0
 10
15.46188043728734
 20
-3.628691035467204
 30
0.0
 10
15.42580853512106
 20
-3.238905724091653
 30
0.0
  0
SPLINE
  5
193
330
1F
100
AcDbEntity
  8
외형선
  6
Continuous
 62
     1
370
    15
100
AcDbSpline
210
0.0
220
0.0
230
1.0
 70
     8
 71
     3
 72
    12
 73
     8
 74
     0
 42
0.000000001
 43
0.00000001
 40
0.0
 40
0.0
 40
0.0
 40
0.0
 40
0.4999999999999998
 40
0.4999999999999998
 40
0.7499999999999999
 40
0.7499999999999999
 40
1.0
 40
1.0
 40
1.0
 40
1.0
 10
16.73885033051617
 20
-4.749581883452314
 30
0.0
 10
16.70281082824323
 20
-4.710457797657778
 30
0.0
 10
16.66620165400519
 20
-4.580028537953579
 30
0.0
 10
16.6148266938332
 20
-4.26951354440783
 30
0.0
 10
16.59813458318756
 20
-4.147391536405246
 30
0.0
 10
16.5630100777773
 20
-3.86216882306129
 30
0.0
 10
16.54501155373037
 20
-3.699862919177486
 30
0.0
 10
16.52694436624519
 20
-3.520728998682942
 30
0.0
  0
SPLINE
  5
194
330
1F
100
AcDbEntity
  8
외형선
  6
Continuous
 62
     1
370
    15
100
AcDbSpline
210
0.0
220
0.0
230
1.0
 70
     8
 71
     3
 72
    14
 73
    10
 74
     0
 42
0.000000001
 43
0.00000001
 40
0.0
 40
0.0
 40
0.0
 40
0.0
 40
0.2499999999999998
 40
0.2499999999999998
 40
0.4999999999999997
 40
0.4999999999999997
 40
0.7499999999999998
 40
0.7499999999999998
 40
1.0
 40
1.0
 40
1.0
 40
1.0
 10
14.79659969793484
 20
3.189690247438549
 30
0.0
 10
14.77954146030596
 20
3.380286077377565
 30
0.0
 10
14.76245514362946
 20
3.556618116827678
 30
0.0
 10
14.72688968342185
 20
3.879040175601678
 30
0.0
 10
14.70871712015447
 20
4.023951359030713
 30
0.0
 10
14.6723497932494
 20
4.274267066348389
 30
0.0
 10
14.65415864872758
 20
4.379646310943613
 30
0.0
 10
14.61852142238248
 20
4.547233438876836
 30
0.0
 10
14.60130105852615
 20
4.609275495484125
 30
0.0
 10
14.584302899716
 20
4.650124654640952
 30
0.0
  0
SPLINE
  5
195
330
1F
100
AcDbEntity
  8
외형선
  6
Continuous
 62
     1
370
    15
100
AcDbSpline
210
0.0
220
0.0
230
1.0
 70
     8
 71
     3
 72
     8
 73
     4
 74
     0
 42
0.000000001
 43
0.00000001
 40
0.0
 40
0.0
 40
0.0
 40
0.0
 40
1.0
 40
1.0
 40
1.0
 40
1.0
 10
15.63770077952645
 20
-4.703310414634204
 30
0.0
 10
15.58199792715329
 20
-4.700128943330358
 30
0.0
 10
15.52600635621387
 20
-4.679543642357709
 30
0.0
 10
15.47994478202476
 20
-4.642576718070974
 30
0.0
  0
SPLINE
  5
196
330
1F
100
AcDbEntity
  8
외형선
  6
Continuous
 62
     1
370
    15
100
AcDbSpline
210
0.0
220
0.0
230
1.0
 70
     8
 71
     3
 72
    12
 73
     8
 74
     0
 42
0.000000001
 43
0.00000001
 40
0.0
 40
0.0
 40
0.0
 40
0.0
 40
0.5
 40
0.5
 40
0.75
 40
0.75
 40
1.0
 40
1.0
 40
1.0
 40
1.0
 10
14.1642675748127
 20
3.353578025614834
 30
0.0
 10
14.13014786720568
 20
3.717293923349454
 30
0.0
 10
14.09346560932526
 20
4.02730880409399
 30
0.0
 10
14.03901164831951
 20
4.367504199717051
 30
0.0
 10
14.02096756537582
 20
4.460414927735502
 30
0.0
 10
13.98583379741835
 20
4.602720976079314
 30
0.0
 10
13.96917827945227
 20
4.652051739145842
 30
0.0
 10
13.95183591039779
 20
4.680663759090096
 30
0.0
  0
SPLINE
  5
197
330
1F
100
AcDbEntity
  8
외형선
  6
Continuous
 62
     1
370
    15
100
AcDbSpline
210
0.0
220
0.0
230
1.0
 70
     8
 71
     3
 72
    10
 73
     6
 74
     0
 42
0.000000001
 43
0.00000001
 40
0.0
 40
0.0
 40
0.0
 40
0.0
 40
0.5000000000000001
 40
0.5000000000000001
 40
1.0
 40
1.0
 40
1.0
 40
1.0
 10
12.90530288083085
 20
3.701471150752971
 30
0.0
 10
12.87012515337968
 20
4.0333247092414
 30
0.0
 10
12.83322559337338
 20
4.300414828796478
 30
0.0
 10
12.76198776628683
 20
4.659727383593315
 30
0.0
 10
12.72910363873885
 20
4.75373284128432
 30
0.0
 10
12.69358508089112
 20
4.761928565181216
 30
0.0
  0
SPLINE
  5
198
330
1F
100
AcDbEntity
  8
외형선
  6
Continuous
 62
     1
370
    15
100
AcDbSpline
210
0.0
220
0.0
230
1.0
 70
     8
 71
     3
 72
    12
 73
     8
 74
     0
 42
0.000000001
 43
0.00000001
 40
0.0
 40
0.0
 40
0.0
 40
0.0
 40
0.5000000000000002
 40
0.5000000000000002
 40
0.7500000000000001
 40
0.7500000000000001
 40
1.0
 40
1.0
 40
1.0
 40
1.0
 10
14.00568547407129
 20
3.436835267077812
 30
0.0
 10
13.97152600942508
 20
3.798534916694495
 30
0.0
 10
13.93493640273862
 20
4.10483054455155
 30
0.0
 10
13.88079150641761
 20
4.438240951001052
 30
0.0
 10
13.8628775556339
 20
4.528699273886722
 30
0.0
 10
13.82804191639635
 20
4.665986987703183
 30
0.0
 10
13.81150205813878
 20
4.712860089179618
 30
0.0
 10
13.7941736429919
 20
4.738938340923098
 30
0.0
  0
SPLINE
  5
199
330
1F
100
AcDbEntity
  8
외형선
  6
Continuous
 62
     1
370
    15
100
AcDbSpline
210
0.0
220
0.0
230
1.0
 70
     8
 71
     3
 72
     8
 73
     4
 74
     0
 42
0.000000001
 43
0.00000001
 40
0.0
 40
0.0
 40
0.0
 40
0.0
 40
1.0
 40
1.0
 40
1.0
 40
1.0
 10
16.89760348980861
 20
-4.70068961068083
 30
0.0
 10
16.85201382325983
 20
-4.733987666815814
 30
0.0
 10
16.79621559484087
 20
-4.751122727200189
 30
0.0
 10
16.73885021958222
 20
-4.749581763024845
 30
0.0
  0
SPLINE
  5
19A
330
1F
100
AcDbEntity
  8
외형선
  6
Continuous
 62
     1
370
    15
100
AcDbSpline
210
0.0
220
0.0
230
1.0
 70
     8
 71
     3
 72
    12
 73
     8
 74
     0
 42
0.000000001
 43
0.00000001
 40
0.0
 40
0.0
 40
0.0
 40
0.0
 40
0.4999999999999998
 40
0.4999999999999998
 40
0.75
 40
0.75
 40
1.0
 40
1.0
 40
1.0
 40
1.0
 10
16.8976034897762
 20
-4.700689610652451
 30
0.0
 10
16.8614520213406
 20
-4.669037649085944
 30
0.0
 10
16.82459663529818
 20
-4.546233606024644
 30
0.0
 10
16.7727386141737
 20
-4.245861639333187
 30
0.0
 10
16.75606513358331
 20
-4.127365434826138
 30
0.0
 10
16.72089995803718
 20
-3.849323430970337
 30
0.0
 10
16.70285328778036
 20
-3.690513371699967
 30
0.0
 10
16.68471280364626
 20
-3.514679669922697
 30
0.0
  0
SPLINE
  5
19B
330
1F
100
AcDbEntity
  8
외형선
  6
Continuous
 62
     1
370
    15
100
AcDbSpline
210
0.0
220
0.0
230
1.0
 70
     8
 71
     3
 72
    10
 73
     6
 74
     0
 42
0.000000001
 43
0.00000001
 40
0.0
 40
0.0
 40
0.0
 40
0.0
 40
0.3220431718731351
 40
0.6913998317752315
 40
1.0
 40
1.0
 40
1.0
 40
1.0
 10
17.36262535499985
 20
-4.624558345733729
 30
0.0
 10
17.31018301748525
 20
-4.613098648339172
 30
0.0
 10
17.19759369250564
 20
-4.588495633765981
 30
0.0
 10
17.03321557191164
 20
-4.619011301935608
 30
0.0
 10
16.94002365560245
 20
-4.675140210177563
 30
0.0
 10
16.89760348980861
 20
-4.700689610680834
 30
0.0
  0
SPLINE
  5
19C
330
1F
100
AcDbEntity
  8
외형선
  6
Continuous
 62
     1
370
    15
100
AcDbSpline
210
0.0
220
0.0
230
1.0
 70
     8
 71
     3
 72
    10
 73
     6
 74
     0
 42
0.000000001
 43
0.00000001
 40
0.0
 40
0.0
 40
0.0
 40
0.0
 40
0.5
 40
0.5
 40
1.0
 40
1.0
 40
1.0
 40
1.0
 10
12.7476060507019
 20
3.691055028451096
 30
0.0
 10
12.71216315652826
 20
4.016693529263911
 30
0.0
 10
12.67507653696933
 20
4.276591839986653
 30
0.0
 10
12.60370878319191
 20
4.621192715409608
 30
0.0
 10
12.57067470990817
 20
4.70816647929885
 30
0.0
 10
12.53488602684705
 20
4.709158297038113
 30
0.0
  0
SPLINE
  5
19D
330
1F
100
AcDbEntity
  8
외형선
  6
Continuous
 62
     1
370
    15
100
AcDbSpline
210
0.0
220
0.0
230
1.0
 70
     8
 71
     3
 72
    12
 73
     8
 74
     0
 42
0.000000001
 43
0.00000001
 40
0.0
 40
0.0
 40
0.0
 40
0.0
 40
0.5
 40
0.5
 40
0.75
 40
0.75
 40
1.0
 40
1.0
 40
1.0
 40
1.0
 10
17.68828992116046
 20
-4.762497374759408
 30
0.0
 10
17.65264772799249
 20
-4.761941281140063
 30
0.0
 10
17.61576156755097
 20
-4.670588338040064
 30
0.0
 10
17.56306521073119
 20
-4.410333335821739
 30
0.0
 10
17.54636867880231
 20
-4.304651050039176
 30
0.0
 10
17.51211982926258
 20
-4.054035081121979
 30
0.0
 10
17.49441356530996
 20
-3.908312924232142
 30
0.0
 10
17.47647344900212
 20
-3.744306608977524
 30
0.0
  0
SPLINE
  5
19E
330
1F
100
AcDbEntity
  8
외형선
  6
Continuous
 62
     1
370
    15
100
AcDbSpline
210
0.0
220
0.0
230
1.0
 70
     8
 71
     3
 72
     9
 73
     5
 74
     0
 42
0.000000001
 43
0.00000001
 40
0.0
 40
0.0
 40
0.0
 40
0.0
 40
0.5071317944816915
 40
0.9999999999999999
 40
0.9999999999999999
 40
0.9999999999999999
 40
0.9999999999999999
 10
11.94403703277297
 20
4.687609112739076
 30
0.0
 10
11.94187409031198
 20
4.692432049381286
 30
0.0
 10
11.93760904031013
 20
4.701942272748646
 30
0.0
 10
11.93319572365465
 20
4.700774044284631
 30
0.0
 10
11.93102054019429
 20
4.700198261617937
 30
0.0
  0
LINE
  5
19F
330
1F
100
AcDbEntity
  8
외형선
  6
Continuous
 62
     1
370
    15
100
AcDbLine
 10
11.76237633920036
 20
4.747670961106149
 30
0.0
 11
11.76577098548277
 21
4.746349626835088
 31
0.0
  0
SPLINE
  5
1A0
330
1F
100
AcDbEntity
  8
외형선
  6
Continuous
 62
     1
370
    15
100
AcDbSpline
210
0.0
220
0.0
230
1.0
 70
     8
 71
     3
 72
     8
 73
     4
 74
     0
 42
0.000000001
 43
0.00000001
 40
0.0
 40
0.0
 40
0.0
 40
0.0
 40
1.0
 40
1.0
 40
1.0
 40
1.0
 10
10.06418940854731
 20
4.209226465258721
 30
0.0
 10
10.04249961526399
 20
4.350793532479535
 30
0.0
 10
10.02089301471967
 20
4.463502804263149
 30
0.0
 10
9.999999999718431
 20
4.545095603564436
 30
0.0
  0
SPLINE
  5
1A1
330
1F
100
AcDbEntity
  8
외형선
  6
Continuous
370
    15
100
AcDbSpline
210
0.0
220
0.0
230
1.0
 70
    24
 71
     3
 72
     8
 73
     4
 74
     0
 42
0.000000001
 43
0.00000001
 40
0.0
 40
0.0
 40
0.0
 40
0.0
 40
1.0
 40
1.0
 40
1.0
 40
1.0
 10
9.999999999999991
 20
4.545095602464868
 30
0.0
 10
9.999999999999991
 20
4.480418174683518
 30
0.0
 10
9.999999999999988
 20
4.382037823894488
 30
0.0
 10
9.999999999999988
 20
4.253708890860352
 30
0.0
  0
LINE
  5
1A3
330
1F
100
AcDbEntity
  8
외형선
  6
Continuous
 62
     1
370
    15
100
AcDbLine
 10
23.51830532709671
 20
-4.690984232301812
 30
0.0
 11
23.51501751126809
 21
-4.685574953321843
 31
0.0
  0
LINE
  5
1A6
330
1F
100
AcDbEntity
  8
외형선
  6
Continuous
 62
     1
370
    15
100
AcDbLine
 10
25.69230005400889
 20
-4.755295155527199
 30
0.0
 11
25.68855964112857
 21
-4.756089445796674
 31
0.0
  0
SPLINE
  5
1A7
330
1F
100
AcDbEntity
  8
외형선
  6
Continuous
 62
     1
370
    15
100
AcDbSpline
210
0.0
220
0.0
230
1.0
 70
     8
 71
     3
 72
    12
 73
     8
 74
     0
 42
0.000000001
 43
0.00000001
 40
0.0
 40
0.0
 40
0.0
 40
0.0
 40
0.1746749290700481
 40
0.4145386416937408
 40
0.6513105532788476
 40
0.8884959728821082
 40
1.0
 40
1.0
 40
1.0
 40
1.0
 10
17.5172806477159
 20
-4.692046742808177
 30
0.0
 10
17.5055020366057
 20
-4.681748554508729
 30
0.0
 10
17.47754902997414
 20
-4.65730888813939
 30
0.0
 10
17.43339738967869
 20
-4.496376399151882
 30
0.0
 10
17.38699309803423
 20
-4.232620727175148
 30
0.0
 10
17.34869499308602
 20
-3.939362054811108
 30
0.0
 10
17.32524109634017
 20
-3.729503469823388
 30
0.0
 10
17.31774100144667
 20
-3.662394821794512
 30
0.0
  0
SPLINE
  5
1A8
330
1F
100
AcDbEntity
  8
외형선
  6
Continuous
 62
     1
370
    15
100
AcDbSpline
210
0.0
220
0.0
230
1.0
 70
     8
 71
     3
 72
    10
 73
     6
 74
     0
 42
0.000000001
 43
0.00000001
 40
0.0
 40
0.0
 40
0.0
 40
0.0
 40
0.2400236339217653
 40
0.6224568041668477
 40
0.9999999999999999
 40
0.9999999999999999
 40
0.9999999999999999
 40
0.9999999999999999
 10
18.76235147547708
 20
-4.734946988471143
 30
0.0
 10
18.74742258022702
 20
-4.736443392205044
 30
0.0
 10
18.70870725759292
 20
-4.740324037917841
 30
0.0
 10
18.64586139090236
 20
-4.494598678657733
 30
0.0
 10
18.60006063757886
 20
-4.149516213961555
 30
0.0
 10
18.57730761057282
 20
-3.978085176941695
 30
0.0
  0
SPLINE
  5
1A9
330
1F
100
AcDbEntity
  8
외형선
  6
Continuous
 62
     1
370
    15
100
AcDbSpline
210
0.0
220
0.0
230
1.0
 70
     8
 71
     3
 72
    11
 73
     7
 74
     0
 42
0.000000001
 43
0.00000001
 40
0.0
 40
0.0
 40
0.0
 40
0.0
 40
0.2793750887336364
 40
0.5583976049656393
 40
0.8339633240343756
 40
1.0
 40
1.0
 40
1.0
 40
1.0
 10
12.11478298645708
 20
3.828024101082486
 30
0.0
 10
12.09868301372397
 20
3.956832466553815
 30
0.0
 10
12.06650338648902
 20
4.214286640813803
 30
0.0
 10
12.01815056436517
 20
4.479624838059417
 30
0.0
 10
11.97799298464042
 20
4.636913575706338
 30
0.0
 10
11.95331545749316
 20
4.673756615661566
 30
0.0
 10
11.94403703277297
 20
4.687609112739077
 30
0.0
  0
SPLINE
  5
1AA
330
1F
100
AcDbEntity
  8
외형선
  6
Continuous
 62
     1
370
    15
100
AcDbSpline
210
0.0
220
0.0
230
1.0
 70
     8
 71
     3
 72
    11
 73
     7
 74
     0
 42
0.000000001
 43
0.00000001
 40
0.0
 40
0.0
 40
0.0
 40
0.0
 40
0.1650004991813804
 40
0.4433336661209207
 40
0.7216668330604605
 40
1.0
 40
1.0
 40
1.0
 40
1.0
 10
11.76577098548277
 20
4.746349626835088
 30
0.0
 10
11.77623702092217
 20
4.746481928748435
 30
0.0
 10
11.80435781985383
 20
4.746837405808016
 30
0.0
 10
11.85013338227774
 20
4.599130575187555
 30
0.0
 10
11.9030976727545
 20
4.330893613609064
 30
0.0
 10
11.938407199739
 20
4.049518823238389
 30
0.0
 10
11.95606196323125
 20
3.908831428053053
 30
0.0
  0
SPLINE
  5
1AB
330
1F
100
AcDbEntity
  8
외형선
  6
Continuous
 62
     1
370
    15
100
AcDbSpline
210
0.0
220
0.0
230
1.0
 70
     8
 71
     3
 72
    11
 73
     7
 74
     0
 42
0.000000001
 43
0.00000001
 40
0.0
 40
0.0
 40
0.0
 40
0.0
 40
0.3354691994550448
 40
0.6668227894153822
 40
0.9664413896127678
 40
1.0
 40
1.0
 40
1.0
 40
1.0
 10
10.85495483788408
 20
4.123915542339289
 30
0.0
 10
10.83594561461561
 20
4.251920210849277
 30
0.0
 10
10.79816037738639
 20
4.506359158605669
 30
0.0
 10
10.74520125330128
 20
4.697192092623165
 30
0.0
 10
10.70925524374052
 20
4.777613619411764
 30
0.0
 10
10.69048570214467
 20
4.758518572533444
 30
0.0
 10
10.68859517748226
 20
4.756595262000316
 30
0.0
  0
SPLINE
  5
1AC
330
1F
100
AcDbEntity
  8
외형선
  6
Continuous
 62
     1
370
    15
100
AcDbSpline
210
0.0
220
0.0
230
1.0
 70
     8
 71
     3
 72
    11
 73
     7
 74
     0
 42
0.000000001
 43
0.00000001
 40
0.0
 40
0.0
 40
0.0
 40
0.0
 40
0.1739477080764255
 40
0.4516705992602754
 40
0.727073861480117
 40
1.0
 40
1.0
 40
1.0
 40
1.0
 10
18.92780881701933
 20
-4.690975259709131
 30
0.0
 10
18.9166142368547
 20
-4.697752232304986
 30
0.0
 10
18.88754651996816
 20
-4.715349240666811
 30
0.0
 10
18.83961627981229
 20
-4.592392817325737
 30
0.0
 10
18.78662691550027
 20
-4.352781019348927
 30
0.0
 10
18.75216006668122
 20
-4.090956788051113
 30
0.0
 10
18.73500449570064
 20
-3.96063607877919
 30
0.0
  0
SPLINE
  5
1AD
330
1F
100
AcDbEntity
  8
외형선
  6
Continuous
 62
     1
370
    15
100
AcDbSpline
210
0.0
220
0.0
230
1.0
 70
     8
 71
     3
 72
    10
 73
     6
 74
     0
 42
0.000000001
 43
0.00000001
 40
0.0
 40
0.0
 40
0.0
 40
0.0
 40
0.3004579119746015
 40
0.6526208011631669
 40
1.0
 40
1.0
 40
1.0
 40
1.0
 10
19.51913101235254
 20
-4.695461798601837
 30
0.0
 10
19.503721189824
 20
-4.678710146391761
 30
0.0
 10
19.47024971071312
 20
-4.642324096131679
 30
0.0
 10
19.41909828068586
 20
-4.435715064292546
 30
0.0
 10
19.38473193257908
 20
-4.197538138916399
 30
0.0
 10
19.36766626251199
 20
-4.079264040853007
 30
0.0
  0
SPLINE
  5
1AE
330
1F
100
AcDbEntity
  8
외형선
  6
Continuous
 62
     1
370
    15
100
AcDbSpline
210
0.0
220
0.0
230
1.0
 70
     8
 71
     3
 72
    11
 73
     7
 74
     0
 42
0.000000001
 43
0.00000001
 40
0.0
 40
0.0
 40
0.0
 40
0.0
 40
0.3001016929476764
 40
0.5964973922006461
 40
0.8847297232354245
 40
1.0
 40
1.0
 40
1.0
 40
1.0
 10
10.69719740815549
 20
4.102359540683461
 30
0.0
 10
10.67876213868688
 20
4.222672581153793
 30
0.0
 10
10.64211925921981
 20
4.461812901167902
 30
0.0
 10
10.58967232226148
 20
4.651239570892549
 30
0.0
 10
10.54842515611587
 20
4.729581536523471
 30
0.0
 10
10.52370488198144
 20
4.696254588877278
 30
0.0
 10
10.5166429379293
 20
4.68673394042386
 30
0.0
  0
SPLINE
  5
1AF
330
1F
100
AcDbEntity
  8
외형선
  6
Continuous
 62
     1
370
    15
100
AcDbSpline
210
0.0
220
0.0
230
1.0
 70
     8
 71
     3
 72
    11
 73
     7
 74
     0
 42
0.000000001
 43
0.00000001
 40
0.0
 40
0.0
 40
0.0
 40
0.0
 40
0.0192853323874134
 40
0.3484278443612231
 40
0.6765174022024627
 40
1.0
 40
1.0
 40
1.0
 40
1.0
 10
19.68846081279388
 20
-4.75885982588153
 30
0.0
 10
19.68742728554729
 20
-4.760056364291128
 30
0.0
 10
19.66875456249609
 20
-4.781674207861412
 30
0.0
 10
19.63115197351337
 20
-4.698929336379574
 30
0.0
 10
19.57756891469455
 20
-4.511430614063837
 30
0.0
 10
19.5433009743867
 20
-4.274954732499108
 30
0.0
 10
19.52628815047146
 20
-4.15755279654617
 30
0.0
  0
SPLINE
  5
1B0
330
1F
100
AcDbEntity
  8
외형선
  6
Continuous
 62
     1
370
    15
100
AcDbSpline
210
0.0
220
0.0
230
1.0
 70
     8
 71
     3
 72
    10
 73
     6
 74
     0
 42
0.000000001
 43
0.00000001
 40
0.0
 40
0.0
 40
0.0
 40
0.0
 40
0.0575140665761511
 40
0.5307996590823129
 40
1.0
 40
1.0
 40
1.0
 40
1.0
 10
20.76241216657872
 20
-4.75235072373726
 30
0.0
 10
20.75984186829529
 20
-4.755613279485071
 30
0.0
 10
20.73612048092345
 20
-4.785723539144468
 30
0.0
 10
20.68933917976133
 20
-4.670700563355299
 30
0.0
 10
20.64723303147629
 20
-4.448493196368459
 30
0.0
 10
20.62627121291811
 20
-4.33787109725034
 30
0.0
  0
SPLINE
  5
1B1
330
1F
100
AcDbEntity
  8
외형선
  6
Continuous
 62
     1
370
    15
100
AcDbSpline
210
0.0
220
0.0
230
1.0
 70
     8
 71
     3
 72
    11
 73
     7
 74
     0
 42
0.000000001
 43
0.00000001
 40
0.0
 40
0.0
 40
0.0
 40
0.0
 40
0.0428781927558538
 40
0.3626169933827559
 40
0.6828290982614746
 40
1.0
 40
1.0
 40
1.0
 40
1.0
 10
20.93218086032441
 20
-4.697826789811757
 30
0.0
 10
20.93010582462207
 20
-4.701224009536608
 30
0.0
 10
20.91255743558831
 20
-4.729953989120875
 30
0.0
 10
20.8782174931454
 20
-4.685164509789868
 30
0.0
 10
20.83035428222846
 20
-4.563824241878838
 30
0.0
 10
20.7993297208419
 20
-4.394025649105195
 30
0.0
 10
20.78389145529535
 20
-4.309531440403627
 30
0.0
  0
SPLINE
  5
1B2
330
1F
100
AcDbEntity
  8
외형선
  6
Continuous
 62
     1
370
    15
100
AcDbSpline
210
0.0
220
0.0
230
1.0
 70
     8
 71
     3
 72
     9
 73
     5
 74
     0
 42
0.000000001
 43
0.00000001
 40
0.0
 40
0.0
 40
0.0
 40
0.0
 40
0.4241323341753077
 40
1.0
 40
1.0
 40
1.0
 40
1.0
 10
21.51717639636975
 20
-4.687466488258966
 30
0.0
 10
21.50283584950584
 20
-4.675469331530631
 30
0.0
 10
21.46902435788306
 20
-4.647182978990063
 30
0.0
 10
21.43563404213143
 20
-4.487887707753409
 30
0.0
 10
21.41640563893839
 20
-4.396154711729447
 30
0.0
  0
SPLINE
  5
1B3
330
1F
100
AcDbEntity
  8
외형선
  6
Continuous
 62
     1
370
    15
100
AcDbSpline
210
0.0
220
0.0
230
1.0
 70
     8
 71
     3
 72
    10
 73
     6
 74
     0
 42
0.000000001
 43
0.00000001
 40
0.0
 40
0.0
 40
0.0
 40
0.0
 40
0.0003451620145971
 40
0.5009964701480087
 40
1.0
 40
1.0
 40
1.0
 40
1.0
 10
21.68863610011075
 20
-4.762449487440567
 30
0.0
 10
21.68862330696878
 20
-4.762466328637244
 30
0.0
 10
21.67005429097262
 20
-4.786911023392573
 30
0.0
 10
21.63130550135355
 20
-4.709000211664498
 30
0.0
 10
21.59378234287104
 20
-4.548769686852594
 30
0.0
 10
21.57505168922694
 20
-4.468786482217373
 30
0.0
  0
SPLINE
  5
1B4
330
1F
100
AcDbEntity
  8
외형선
  6
Continuous
 62
     1
370
    15
100
AcDbSpline
210
0.0
220
0.0
230
1.0
 70
     8
 71
     3
 72
     9
 73
     5
 74
     0
 42
0.000000001
 43
0.00000001
 40
0.0
 40
0.0
 40
0.0
 40
0.0
 40
0.1708296289282653
 40
1.0
 40
1.0
 40
1.0
 40
1.0
 10
22.76229684371723
 20
-4.743452228380304
 30
0.0
 10
22.75746608749654
 20
-4.749495359103654
 30
0.0
 10
22.7291878769133
 20
-4.784870549937139
 30
0.0
 10
22.70002163765728
 20
-4.67914699930712
 30
0.0
 10
22.67583785623059
 20
-4.591484163600204
 30
0.0
  0
SPLINE
  5
1B5
330
1F
100
AcDbEntity
  8
외형선
  6
Continuous
 62
     1
370
    15
100
AcDbSpline
210
0.0
220
0.0
230
1.0
 70
     8
 71
     3
 72
    10
 73
     6
 74
     0
 42
0.000000001
 43
0.00000001
 40
0.0
 40
0.0
 40
0.0
 40
0.0
 40
0.0537857758871041
 40
0.5264373655462362
 40
1.0
 40
1.0
 40
1.0
 40
1.0
 10
22.93215738220799
 20
-4.69885271526088
 30
0.0
 10
22.93043628578893
 20
-4.701670207993335
 30
0.0
 10
22.91359076390587
 20
-4.729246893967581
 30
0.0
 10
22.88028876763779
 20
-4.694185984056956
 30
0.0
 10
22.84915349351644
 20
-4.600098547982181
 30
0.0
 10
22.83357086744551
 20
-4.553009534774477
 30
0.0
  0
LINE
  5
1B6
330
1F
100
AcDbEntity
  8
외형선
  6
Continuous
 62
     1
370
    15
100
AcDbLine
 10
23.51501751126809
 20
-4.685574953321843
 30
0.0
 11
23.46650753208451
 21
-4.60576391024787
 31
0.0
  0
SPLINE
  5
1B7
330
1F
100
AcDbEntity
  8
외형선
  6
Continuous
 62
     1
370
    15
100
AcDbSpline
210
0.0
220
0.0
230
1.0
 70
     8
 71
     3
 72
     9
 73
     5
 74
     0
 42
0.000000001
 43
0.00000001
 40
0.0
 40
0.0
 40
0.0
 40
0.0
 40
0.0480597481368499
 40
1.0
 40
1.0
 40
1.0
 40
1.0
 10
23.6884545443754
 20
-4.758586500205165
 30
0.0
 10
23.68746548927662
 20
-4.759881283263086
 30
0.0
 10
23.6668857913566
 20
-4.786822395277098
 30
0.0
 10
23.64555360005854
 20
-4.727485623594827
 30
0.0
 10
23.62524662850148
 20
-4.67100056221486
 30
0.0
  0
LINE
  5
1B8
330
1F
100
AcDbEntity
  8
외형선
  6
Continuous
 62
     1
370
    15
100
AcDbLine
 10
24.7625015973181
 20
-4.753944858647749
 30
0.0
 11
24.7264293695694
 21
-4.732608612274809
 31
0.0
  0
SPLINE
  5
1B9
330
1F
100
AcDbEntity
  8
외형선
  6
Continuous
 62
     1
370
    15
100
AcDbSpline
210
0.0
220
0.0
230
1.0
 70
     8
 71
     3
 72
     9
 73
     5
 74
     0
 42
0.000000001
 43
0.00000001
 40
0.0
 40
0.0
 40
0.0
 40
0.0
 40
0.0669520905646201
 40
1.0
 40
1.0
 40
1.0
 40
1.0
 10
24.93196296229088
 20
-4.700925158160334
 30
0.0
 10
24.93092196345609
 20
-4.702649934166612
 30
0.0
 10
24.915373549269
 20
-4.728411280701606
 30
0.0
 10
24.89924490194217
 20
-4.705913442165026
 30
0.0
 10
24.88419610127184
 20
-4.684921880951654
 30
0.0
  0
LINE
  5
1BA
330
1F
100
AcDbEntity
  8
외형선
  6
Continuous
 62
     1
370
    15
100
AcDbLine
 10
25.68855964112857
 20
-4.756089445796674
 30
0.0
 11
25.67591754547816
 21
-4.758774040755093
 31
0.0
  0
LINE
  5
1BB
330
1F
100
AcDbEntity
  8
중심선
100
AcDbLine
 10
-34.27499999999999
 20
-0.0000000000000042
 30
0.0
 11
35.22500000000002
 21
0.0000000000000043
 31
0.0
  0
LINE
  5
1BC
330
1F
100
AcDbEntity
  8
참조1
100
AcDbLine
 10
0.4750000000000065
 20
-0.3168705809327361
 30
0.0
 11
0.4750000000000134
 21
-40.31687058093273
 31
0.0
  0
LINE
  5
1BD
330
1F
100
AcDbEntity
  8
참조1
100
AcDbLine
 10
-19.72860765519648
 20
-4.762499999999995
 30
0.0
 11
48.41397268839599
 21
-4.762499999999995
 31
0.0
  0
LINE
  5
1BE
330
1F
100
AcDbEntity
  8
참조1
100
AcDbLine
 10
48.41397268839599
 20
-4.762499999999995
 30
0.0
 11
48.41397268839599
 21
-6.927248606176845
 31
0.0
  0
LINE
  5
1BF
330
1F
100
AcDbEntity
  8
참조1
100
AcDbLine
 10
0.4750000000000134
 20
-40.31687058093273
 30
0.0
 11
-24.1960498072657
 21
-40.31687058093273
 31
0.0
  0
CIRCLE
  5
1C0
330
1F
100
AcDbEntity
  8
해칭선
100
AcDbCircle
 10
0.0
 20
0.0
 30
0.0
 40
3.000000000000005
  0
INSERT
  5
1C1
330
1F
100
AcDbEntity
  8
0
  6
Continuous
 62
     7
100
AcDbBlockReference
 66
     1
  2
블럭10
 10
-13.4652729321252
 20
-52.36404488257666
 30
0.0
  0
ATTRIB
  5
1C2
330
1C1
100
AcDbEntity
  8
FORMAT
 62
     2
100
AcDbText
 10
-23.60690894426182
 20
-50.28867796974446
 30
0.0
 40
4.233333333333333
  1
EM662024 [ 3 FLUTE ]
 41
0.75
  7
SLDTEXTSTYLE0
 11
-23.60690894426182
 21
-52.40534463641113
 31
0.0
100
AcDbAttribute
  2
AUTOATTR0
 70
     0
 74
     1
  0
SEQEND
  5
1C3
330
1C1
100
AcDbEntity
  8
0
  6
Continuous
 62
     7
  0
HATCH
  5
1C4
330
1F
100
AcDbEntity
  8
중심선
100
AcDbHatch
 10
0.0
 20
0.0
 30
0.0
210
0.0
220
0.0
230
1.0
  2
SOLID
 70
     1
 71
     0
 91
        1
 92
        0
 93
        4
 72
     1
 10
-7.750363627744346
 20
-36.11687058093273
 11
-11.19663887158163
 21
-36.11687058093273
 72
     1
 10
-11.19663887158163
 20
-36.11687058093273
 11
-13.32486873078565
 21
-38.65319616150532
 72
     1
 10
-13.32486873078565
 20
-38.65319616150532
 11
-9.87856040183522
 21
-38.65315673220283
 72
     1
 10
-9.87856040183522
 20
-38.65315673220283
 11
-7.750363627744346
 21
-36.11687058093273
 97
        0
 75
     0
 76
     1
 98
        1
 10
-0.0000000000000071
 20
-0.3168705809327327
  0
HATCH
  5
1C5
330
1F
100
AcDbEntity
  8
중심선
100
AcDbHatch
 10
0.0
 20
0.0
 30
0.0
210
0.0
220
0.0
230
1.0
  2
SOLID
 70
     1
 71
     0
 91
        1
 92
        0
 93
        4
 72
     1
 10
-2.737599636708367
 20
-36.11687058093273
 11
-6.183874880545649
 21
-36.11687058093273
 72
     1
 10
-6.183874880545649
 20
-36.11687058093273
 11
-10.71501288890306
 21
-41.51687058093275
 72
     1
 10
-10.71501288890306
 20
-41.51687058093275
 11
-7.268737645065783
 21
-41.51687058093275
 72
     1
 10
-7.268737645065783
 20
-41.51687058093275
 11
-2.737599636708366
 21
-36.11687058093273
 97
        0
 75
     0
 76
     1
 98
        1
 10
-0.0000000000000071
 20
-0.3168705809327327
  0
HATCH
  5
1C6
330
1F
100
AcDbEntity
  8
중심선
100
AcDbHatch
 10
0.0
 20
0.0
 30
0.0
210
0.0
220
0.0
230
1.0
  2
SOLID
 70
     1
 71
     0
 91
        1
 92
        0
 93
        4
 72
     1
 10
2.275164354327556
 20
-36.1168705809327
 11
-1.171110889509615
 21
-36.11687058093273
 72
     1
 10
-1.171110889509615
 20
-36.11687058093273
 11
-8.219547791398863
 21
-44.51687058093275
 72
     1
 10
-8.219547791398863
 20
-44.51687058093275
 11
-4.773272547561581
 21
-44.51687058093275
 72
     1
 10
-4.773272547561581
 20
-44.51687058093275
 11
2.275164354327557
 21
-36.1168705809327
 97
        0
 75
     0
 76
     1
 98
        1
 10
-0.0000000000000071
 20
-0.3168705809327327
  0
HATCH
  5
1C7
330
1F
100
AcDbEntity
  8
중심선
100
AcDbHatch
 10
0.0
 20
0.0
 30
0.0
210
0.0
220
0.0
230
1.0
  2
SOLID
 70
     1
 71
     0
 91
        1
 92
        0
 93
        6
 72
     3
 10
7.075054785339701
 20
-40.316870580984
 11
3.960054785062283
 21
1.540882976769353E-10
 40
0.3939339440162628
 50
17.09539180608436
 51
320.0019657685082
 73
     0
 72
     1
 10
8.758054441040269
 20
-38.90476458557106
 11
11.06335631474136
 21
-36.97043787552311
 72
     3
 10
7.075054785286854
 20
-40.31687058093288
 11
6.600054785286829
 21
-1.278976924368180E-13
 40
0.636358354079598
 50
39.99873849337385
 51
368.4976242363724
 73
     1
 72
     1
 10
13.50038727718746
 20
-39.35687058086275
 11
5.755122092122776
 21
-39.35687058086275
 72
     1
 10
5.755122092122776
 20
-39.35687058086275
 11
5.755097047676842
 21
-41.27687058086264
 72
     1
 10
5.755097047676842
 20
-41.27687058086264
 11
10.19647681714888
 21
-41.27687058086261
 97
        0
 75
     0
 76
     1
 98
        1
 10
-0.0000000000000071
 20
-0.3168705809327327
  0
POINT
  5
1C8
330
1F
100
AcDbEntity
  8
치수문자_일반주서
100
AcDbPoint
 10
0.0000000000000033
 20
-0.3168705809327361
 30
0.0
  0
DIMENSION
  5
1C9
330
1F
100
AcDbEntity
  8
치수문자_일반주서
100
AcDbDimension
  2
_D
 10
46.32001004574688
 20
-4.76249999999991
 30
0.0
 11
46.32001004574678
 21
21.40825000000014
 31
0.0
 70
   160
  1
%%c<>
 71
     2
 42
9.52499999999998
 52
-270.0
  3
SLDDIMSTYLE0
100
AcDbAlignedDimension
 13
32.22499999999999
 23
4.762500000000014
 33
0.0
 14
22.22546134786837
 24
-4.762500000000002
 34
0.0
 50
90.0000000000002
100
AcDbRotatedDimension
1001
ACAD
1000
DSTYLE
1002
{
1070
   171
1070
     5
1070
   273
1070
     7
1002
}
  0
DIMENSION
  5
1DC
330
1F
100
AcDbEntity
  8
치수문자_일반주서
100
AcDbDimension
  2
_D_1
 10
-41.08500000000003
 20
-4.762500000000046
 30
0.0
 11
-41.08500000000004
 21
-0.7630082607154618
 31
0.0
 70
   160
  1
%%c<>
 71
     2
 42
9.525000000000006
 52
-270.0
  3
SLDDIMSTYLE1
100
AcDbAlignedDimension
 13
-30.27500000000001
 23
4.762500000000001
 33
0.0
 14
-30.27500000000001
 24
-4.762500000000005
 34
0.0
 50
90.0000000000002
100
AcDbRotatedDimension
1001
ACAD
1000
DSTYLE
1002
{
1070
   171
1070
     5
1070
   273
1070
     7
1002
}
  0
DIMENSION
  5
1F1
330
1F
100
AcDbEntity
  8
치수문자_일반주서
100
AcDbDimension
  2
_D_2
 10
9.999999999999988
 20
20.4114527940199
 30
0.0
 11
21.11249999999999
 21
20.4114527940199
 31
0.0
 70
   160
  1
<>
 71
     2
 42
22.22500000000001
  3
SLDDIMSTYLE0
100
AcDbAlignedDimension
 13
32.22499999999999
 23
3.083737631391747
 33
0.0
 14
9.999999999999988
 24
4.762499999999998
 34
0.0
 50
0.0000000000000092
100
AcDbRotatedDimension
1001
ACAD
1000
DSTYLE
1002
{
1070
   171
1070
     5
1070
   273
1070
     7
1002
}
  0
DIMENSION
  5
205
330
1F
100
AcDbEntity
  8
치수문자_일반주서
100
AcDbDimension
  2
_D_3
 10
-31.27500000000001
 20
37.62464524059784
 30
0.0
 11
3.251286725697506
 21
37.62464524059784
 31
0.0
 70
   160
  1
<>
 71
     2
 42
63.5
  3
SLDDIMSTYLE2
100
AcDbAlignedDimension
 13
32.22499999999999
 23
3.627265076973852
 33
0.0
 14
-31.27500000000001
 24
3.762499999999993
 34
0.0
100
AcDbRotatedDimension
1001
ACAD
1000
DSTYLE
1002
{
1070
   171
1070
     5
1070
   273
1070
     7
1002
}
  0
LINE
  5
219
330
1F
100
AcDbEntity
  8
참조1
100
AcDbLine
 10
73.77629082238857
 20
7.123129419067269
 30
0.0
 11
73.77629082238857
 21
-7.756870580932735
 31
0.0
  0
LINE
  5
21A
330
1F
100
AcDbEntity
  8
참조1
100
AcDbLine
 10
86.47629082238856
 20
5.123129419067269
 30
0.0
 11
73.77629082238857
 21
5.123129419067269
 31
0.0
  0
SOLID
  5
21B
330
1F
100
AcDbEntity
  8
참조1
100
AcDbTrace
 10
73.77629082238857
 20
5.123129419067269
 30
0.0
 11
80.12629082238857
 21
4.107129419067269
 31
0.0
 12
80.12629082238857
 22
6.139129419067269
 32
0.0
 13
80.12629082238857
 23
6.139129419067269
 33
0.0
  0
LINE
  5
21C
330
1F
100
AcDbEntity
  8
참조1
100
AcDbLine
 10
86.47629082238856
 20
-5.756870580932735
 30
0.0
 11
73.77629082238857
 21
-5.756870580932735
 31
0.0
  0
SOLID
  5
21D
330
1F
100
AcDbEntity
  8
참조1
100
AcDbTrace
 10
73.77629082238857
 20
-5.756870580932735
 30
0.0
 11
80.12629082238857
 21
-6.772870580932735
 31
0.0
 12
80.12629082238857
 22
-4.740870580932735
 32
0.0
 13
80.12629082238857
 23
-4.740870580932735
 33
0.0
  0
MTEXT
  5
21E
330
1F
100
AcDbEntity
  8
참조1
100
AcDbMText
 10
83.37640563295113
 20
10.74884698508335
 30
0.0
 40
3.5
 41
0.0
 71
     1
 72
     1
  1
A
  7
SLDTEXTSTYLE0
 73
     1
 44
1.0
  0
MTEXT
  5
21F
330
1F
100
AcDbEntity
  8
참조1
100
AcDbMText
 10
83.37640563295113
 20
-0.1311530149166591
 30
0.0
 40
3.5
 41
0.0
 71
     1
 72
     1
  1
A
  7
SLDTEXTSTYLE0
 73
     1
 44
1.0
  0
INSERT
  5
226
330
1F
100
AcDbEntity
  8
해칭선
100
AcDbBlockReference
  2
SW_DOWELSYMBOL_0
 10
0.0
 20
0.0
 30
0.0
  0
ARC
  5
272
330
1F
100
AcDbEntity
  8
외형선
  6
Continuous
 62
     1
370
    15
100
AcDbCircle
 10
27.46249999999999
 20
0.0000000000000036
 30
0.0
 40
4.762499999999999
100
AcDbArc
 50
270.0
 51
90.0
  0
LINE
  5
273
330
1F
100
AcDbEntity
  8
0
100
AcDbLine
 10
32.22499999999999
 20
4.762500000000015
 30
0.0
 11
32.22499999999999
 21
9.893187518313605
 31
0.0
  0
SPLINE
  5
275
330
1F
100
AcDbEntity
  8
외형선
  6
Continuous
 62
     1
370
    15
100
AcDbSpline
210
0.0
220
0.0
230
1.0
 70
     8
 71
     3
 72
     9
 73
     5
 74
     3
 42
0.000000001
 43
0.0000000001
 44
0.0
 40
0.0
 40
0.0
 40
0.0
 40
0.0
 40
1.886032322341557
 40
4.771094069921229
 40
4.771094069921229
 40
4.771094069921229
 40
4.771094069921229
 10
28.62167591682139
 20
1.548137260094039
 30
0.0
 10
29.32404195611983
 20
1.884495180129734
 30
0.0
 10
31.10081661968999
 20
2.735379472325188
 30
0.0
 10
29.31703432648625
 20
3.998622143862393
 30
0.0
 10
28.23838821624155
 20
4.762500000000014
 30
0.0
 11
28.62167591682139
 21
1.548137260094039
 31
0.0
 11
30.17238284937398
 21
2.621648289497288
 31
0.0
 11
28.23838821624155
 21
4.762500000000014
 31
0.0
  0
LINE
  5
278
330
1F
100
AcDbEntity
  8
0
100
AcDbLine
 10
32.22499999999999
 20
4.762500000000015
 30
0.0
 11
32.22499999999999
 21
-9.159097357516583
 31
0.0
  0
ENDSEC
  0
SECTION
  2
OBJECTS
  0
DICTIONARY
  5
C
330
0
100
AcDbDictionary
281
     1
  3
ACAD_DETAILVIEWSTYLE
350
27E
  3
ACAD_GROUP
350
D
  3
ACAD_IMAGE_VARS
350
24A
  3
ACAD_LAYOUT
350
1A
  3
ACAD_MLINESTYLE
350
17
  3
ACAD_PLOTSETTINGS
350
19
  3
ACAD_PLOTSTYLENAME
350
E
  3
ACAD_SCALELIST
350
47
  3
ACAD_SECTIONVIEWSTYLE
350
27F
  3
AcDbVariableDictionary
350
279
  3
APPDATA
350
248
  3
DWGPROPS
350
280
  0
DICTIONARY
  5
27E
102
{ACAD_REACTORS
330
C
102
}
330
C
100
AcDbDictionary
281
     1
  0
DICTIONARY
  5
D
102
{ACAD_REACTORS
330
C
102
}
330
C
100
AcDbDictionary
281
     1
  0
RASTERVARIABLES
  5
24A
102
{ACAD_REACTORS
330
C
102
}
330
C
100
AcDbRasterVariables
 90
        0
 70
     1
 71
     1
 72
     1
  0
DICTIONARY
  5
1A
102
{ACAD_REACTORS
330
C
102
}
330
C
100
AcDbDictionary
281
     1
  3
Layout1
350
1E
  3
Layout2
350
26
  3
Model
350
22
  0
DICTIONARY
  5
17
102
{ACAD_REACTORS
330
C
102
}
330
C
100
AcDbDictionary
281
     1
  3
Standard
350
18
  0
DICTIONARY
  5
19
102
{ACAD_REACTORS
330
C
102
}
330
C
100
AcDbDictionary
281
     1
  0
ACDBDICTIONARYWDFLT
  5
E
102
{ACAD_REACTORS
330
C
102
}
330
C
100
AcDbDictionary
281
     1
  3
Normal
350
F
100
AcDbDictionaryWithDefault
340
F
  0
DICTIONARY
  5
47
102
{ACAD_REACTORS
330
C
102
}
330
C
100
AcDbDictionary
281
     1
  3
A0
350
48
  3
A1
350
49
  3
A2
350
4A
  3
A3
350
4B
  3
A4
350
4C
  3
A5
350
4D
  3
A6
350
4E
  3
A7
350
4F
  3
A8
350
50
  3
A9
350
51
  3
B0
350
52
  3
B1
350
53
  3
B2
350
54
  3
B3
350
55
  3
B4
350
56
  3
B5
350
57
  3
B6
350
58
  3
B7
350
59
  3
B8
350
5A
  3
B9
350
5B
  3
C0
350
5C
  3
C1
350
5D
  3
C2
350
5E
  3
C3
350
5F
  3
C4
350
60
  3
C5
350
61
  3
C6
350
62
  3
C7
350
63
  3
C8
350
64
  3
C9
350
65
  3
D0
350
66
  3
D1
350
67
  3
D2
350
68
  0
DICTIONARY
  5
27F
102
{ACAD_REACTORS
330
C
102
}
330
C
100
AcDbDictionary
281
     1
  0
DICTIONARY
  5
279
102
{ACAD_REACTORS
330
C
102
}
330
C
100
AcDbDictionary
281
     1
  0
DICTIONARY
  5
248
102
{ACAD_REACTORS
330
C
102
}
330
C
100
AcDbDictionary
281
     1
  0
XRECORD
  5
280
102
{ACAD_REACTORS
330
C
102
}
330
C
100
AcDbXrecord
280
     1
  1
DWGPROPS COOKIE
  2

  3

  4

  6

  7

  8
12015048
  9

300
=
301
=
302
=
303
=
304
=
305
=
306
=
307
=
308
=
309
=
 40
0.0
 41
2458298.975895254
 42
2458303.995823299
  1

 90
        0
  0
LAYOUT
  5
1E
102
{ACAD_REACTORS
330
1A
102
}
330
1A
100
AcDbPlotSettings
  1

  2
none_device
  4

  6

 40
0.0
 41
0.0
 42
0.0
 43
0.0
 44
0.0
 45
0.0
 46
0.0
 47
0.0
 48
0.0
 49
0.0
140
0.0
141
0.0
142
1.0
143
1.0
 70
   688
 72
     1
 73
     0
 74
     5
  7

 75
    16
147
1.0
148
0.0
149
0.0
100
AcDbLayout
  1
Layout1
 70
     1
 71
     1
 10
0.0
 20
0.0
 11
420.0
 21
297.0
 12
0.0
 22
0.0
 32
0.0
 14
1.000000000000000E+20
 24
1.000000000000000E+20
 34
1.000000000000000E+20
 15
-1.000000000000000E+20
 25
-1.000000000000000E+20
 35
-1.000000000000000E+20
146
0.0
 13
0.0
 23
0.0
 33
0.0
 16
1.0
 26
0.0
 36
0.0
 17
0.0
 27
1.0
 37
0.0
 76
     0
330
1B
  0
LAYOUT
  5
26
102
{ACAD_REACTORS
330
1A
102
}
330
1A
100
AcDbPlotSettings
  1

  2
none_device
  4

  6

 40
0.0
 41
0.0
 42
0.0
 43
0.0
 44
0.0
 45
0.0
 46
0.0
 47
0.0
 48
0.0
 49
0.0
140
0.0
141
0.0
142
1.0
143
1.0
 70
   688
 72
     1
 73
     0
 74
     5
  7

 75
    16
147
1.0
148
0.0
149
0.0
100
AcDbLayout
  1
Layout2
 70
     1
 71
     2
 10
0.0
 20
0.0
 11
0.0
 21
0.0
 12
0.0
 22
0.0
 32
0.0
 14
0.0
 24
0.0
 34
0.0
 15
0.0
 25
0.0
 35
0.0
146
0.0
 13
0.0
 23
0.0
 33
0.0
 16
1.0
 26
0.0
 36
0.0
 17
0.0
 27
1.0
 37
0.0
 76
     0
330
23
  0
LAYOUT
  5
22
102
{ACAD_REACTORS
330
1A
102
}
330
1A
100
AcDbPlotSettings
  1

  2
none_device
  4
ANSI_A_(11.00_x_8.50_Inches)
  6

 40
6.35
 41
19.05
 42
6.35000508
 43
19.05000254
 44
279.4
 45
215.9
 46
98.76438513735204
 47
90.88064147516121
 48
0.0
 49
0.0
140
0.0
141
0.0
142
0.0787110341538491
143
1.0
 70
  1696
 72
     0
 73
     0
 74
     0
  7

 75
     0
147
0.0235690232323232
148
0.0
149
0.0
100
AcDbLayout
  1
Model
 70
     1
 71
     0
 10
0.0
 20
0.0
 11
420.0
 21
297.0
 12
0.0
 22
0.0
 32
0.0
 14
-45.46000000000009
 24
-50.28867796974447
 34
0.0
 15
86.47629082238856
 25
41.99964524059784
 35
0.0
146
0.0
 13
0.0
 23
0.0
 33
0.0
 16
1.0
 26
0.0
 36
0.0
 17
0.0
 27
1.0
 37
0.0
 76
     0
330
1F
331
29
  0
MLINESTYLE
  5
18
102
{ACAD_REACTORS
330
17
102
}
330
17
100
AcDbMlineStyle
  2
Standard
 70
     0
  3

 62
   256
 51
90.0
 52
90.0
 71
     2
 49
0.5
 62
   256
  6
BYLAYER
 49
-0.5
 62
   256
  6
BYLAYER
  0
ACDBPLACEHOLDER
  5
F
102
{ACAD_REACTORS
330
E
102
}
330
E
  0
SCALE
  5
48
102
{ACAD_REACTORS
330
47
102
}
330
47
100
AcDbScale
 70
     0
300
1:1
140
1.0
141
1.0
290
     1
  0
SCALE
  5
49
102
{ACAD_REACTORS
330
47
102
}
330
47
100
AcDbScale
 70
     0
300
1:2
140
1.0
141
2.0
290
     0
  0
SCALE
  5
4A
102
{ACAD_REACTORS
330
47
102
}
330
47
100
AcDbScale
 70
     0
300
1:4
140
1.0
141
4.0
290
     0
  0
SCALE
  5
4B
102
{ACAD_REACTORS
330
47
102
}
330
47
100
AcDbScale
 70
     0
300
1:5
140
1.0
141
5.0
290
     0
  0
SCALE
  5
4C
102
{ACAD_REACTORS
330
47
102
}
330
47
100
AcDbScale
 70
     0
300
1:8
140
1.0
141
8.0
290
     0
  0
SCALE
  5
4D
102
{ACAD_REACTORS
330
47
102
}
330
47
100
AcDbScale
 70
     0
300
1:10
140
1.0
141
10.0
290
     0
  0
SCALE
  5
4E
102
{ACAD_REACTORS
330
47
102
}
330
47
100
AcDbScale
 70
     0
300
1:16
140
1.0
141
16.0
290
     0
  0
SCALE
  5
4F
102
{ACAD_REACTORS
330
47
102
}
330
47
100
AcDbScale
 70
     0
300
1:20
140
1.0
141
20.0
290
     0
  0
SCALE
  5
50
102
{ACAD_REACTORS
330
47
102
}
330
47
100
AcDbScale
 70
     0
300
1:30
140
1.0
141
30.0
290
     0
  0
SCALE
  5
51
102
{ACAD_REACTORS
330
47
102
}
330
47
100
AcDbScale
 70
     0
300
1:40
140
1.0
141
40.0
290
     0
  0
SCALE
  5
52
102
{ACAD_REACTORS
330
47
102
}
330
47
100
AcDbScale
 70
     0
300
1:50
140
1.0
141
50.0
290
     0
  0
SCALE
  5
53
102
{ACAD_REACTORS
330
47
102
}
330
47
100
AcDbScale
 70
     0
300
1:100
140
1.0
141
100.0
290
     0
  0
SCALE
  5
54
102
{ACAD_REACTORS
330
47
102
}
330
47
100
AcDbScale
 70
     0
300
2:1
140
2.0
141
1.0
290
     0
  0
SCALE
  5
55
102
{ACAD_REACTORS
330
47
102
}
330
47
100
AcDbScale
 70
     0
300
4:1
140
4.0
141
1.0
290
     0
  0
SCALE
  5
56
102
{ACAD_REACTORS
330
47
102
}
330
47
100
AcDbScale
 70
     0
300
8:1
140
8.0
141
1.0
290
     0
  0
SCALE
  5
57
102
{ACAD_REACTORS
330
47
102
}
330
47
100
AcDbScale
 70
     0
300
10:1
140
10.0
141
1.0
290
     0
  0
SCALE
  5
58
102
{ACAD_REACTORS
330
47
102
}
330
47
100
AcDbScale
 70
     0
300
100:1
140
100.0
141
1.0
290
     0
  0
SCALE
  5
59
102
{ACAD_REACTORS
330
47
102
}
330
47
100
AcDbScale
 70
     0
300
1/128" = 1'-0"
140
0.0078125
141
12.0
290
     0
  0
SCALE
  5
5A
102
{ACAD_REACTORS
330
47
102
}
330
47
100
AcDbScale
 70
     0
300
1/64" = 1'-0"
140
0.015625
141
12.0
290
     0
  0
SCALE
  5
5B
102
{ACAD_REACTORS
330
47
102
}
330
47
100
AcDbScale
 70
     0
300
1/32" = 1'-0"
140
0.03125
141
12.0
290
     0
  0
SCALE
  5
5C
102
{ACAD_REACTORS
330
47
102
}
330
47
100
AcDbScale
 70
     0
300
1/16" = 1'-0"
140
0.0625
141
12.0
290
     0
  0
SCALE
  5
5D
102
{ACAD_REACTORS
330
47
102
}
330
47
100
AcDbScale
 70
     0
300
3/32" = 1'-0"
140
0.09375
141
12.0
290
     0
  0
SCALE
  5
5E
102
{ACAD_REACTORS
330
47
102
}
330
47
100
AcDbScale
 70
     0
300
1/8" = 1'-0"
140
0.125
141
12.0
290
     0
  0
SCALE
  5
5F
102
{ACAD_REACTORS
330
47
102
}
330
47
100
AcDbScale
 70
     0
300
3/16" = 1'-0"
140
0.1875
141
12.0
290
     0
  0
SCALE
  5
60
102
{ACAD_REACTORS
330
47
102
}
330
47
100
AcDbScale
 70
     0
300
1/4" = 1'-0"
140
0.25
141
12.0
290
     0
  0
SCALE
  5
61
102
{ACAD_REACTORS
330
47
102
}
330
47
100
AcDbScale
 70
     0
300
3/8" = 1'-0"
140
0.375
141
12.0
290
     0
  0
SCALE
  5
62
102
{ACAD_REACTORS
330
47
102
}
330
47
100
AcDbScale
 70
     0
300
1/2" = 1'-0"
140
0.5
141
12.0
290
     0
  0
SCALE
  5
63
102
{ACAD_REACTORS
330
47
102
}
330
47
100
AcDbScale
 70
     0
300
3/4" = 1'-0"
140
0.75
141
12.0
290
     0
  0
SCALE
  5
64
102
{ACAD_REACTORS
330
47
102
}
330
47
100
AcDbScale
 70
     0
300
1" = 1'-0"
140
1.0
141
12.0
290
     0
  0
SCALE
  5
65
102
{ACAD_REACTORS
330
47
102
}
330
47
100
AcDbScale
 70
     0
300
1-1/2" = 1'-0"
140
1.5
141
12.0
290
     0
  0
SCALE
  5
66
102
{ACAD_REACTORS
330
47
102
}
330
47
100
AcDbScale
 70
     0
300
3" = 1'-0"
140
3.0
141
12.0
290
     0
  0
SCALE
  5
67
102
{ACAD_REACTORS
330
47
102
}
330
47
100
AcDbScale
 70
     0
300
6" = 1'-0"
140
6.0
141
12.0
290
     0
  0
SCALE
  5
68
102
{ACAD_REACTORS
330
47
102
}
330
47
100
AcDbScale
 70
     0
300
1'-0" = 1'-0"
140
12.0
141
12.0
290
     0
  0
ENDSEC
  0
EOF
