  0
SECTION
  2
HEADER
  9
$ACADVER
  1
AC1015
  9
$ACADMAINTVER
 70
     6
  9
$DWGCODEPAGE
  3
ANSI_949
  9
$INSBASE
 10
0.0
 20
0.0
 30
0.0
  9
$EXTMIN
 10
-54.98500000000006
 20
-49.97180738881174
 30
0.0
  9
$EXTMAX
 10
86.47629082238858
 20
44.41050443146835
 30
0.0
  9
$LIMMIN
 10
0.0
 20
0.0
  9
$LIMMAX
 10
420.0
 20
297.0
  9
$ORTHOMODE
 70
     1
  9
$REGENMODE
 70
     1
  9
$FILLMODE
 70
     1
  9
$QTEXTMODE
 70
     0
  9
$MIRRTEXT
 70
     1
  9
$LTSCALE
 40
1.0
  9
$ATTMODE
 70
     1
  9
$TEXTSIZE
 40
3.5
  9
$TRACEWID
 40
1.0
  9
$TEXTSTYLE
  7
Standard
  9
$CLAYER
  8
0
  9
$CELTYPE
  6
ByLayer
  9
$CECOLOR
 62
   256
  9
$CELTSCALE
 40
1.0
  9
$DISPSILH
 70
     0
  9
$DIMSCALE
 40
1.0
  9
$DIMASZ
 40
3.302
  9
$DIMEXO
 40
1.0
  9
$DIMDLI
 40
3.75
  9
$DIMRND
 40
0.0
  9
$DIMDLE
 40
0.0
  9
$DIMEXE
 40
1.0
  9
$DIMTP
 40
0.0
  9
$DIMTM
 40
0.0
  9
$DIMTXT
 40
3.5
  9
$DIMCEN
 40
2.5
  9
$DIMTSZ
 40
0.0
  9
$DIMTOL
 70
     0
  9
$DIMLIM
 70
     0
  9
$DIMTIH
 70
     1
  9
$DIMTOH
 70
     1
  9
$DIMSE1
 70
     0
  9
$DIMSE2
 70
     0
  9
$DIMTAD
 70
     1
  9
$DIMZIN
 70
     0
  9
$DIMBLK
  1

  9
$DIMASO
 70
     1
  9
$DIMSHO
 70
     1
  9
$DIMPOST
  1

  9
$DIMAPOST
  1

  9
$DIMALT
 70
     0
  9
$DIMALTD
 70
     3
  9
$DIMALTF
 40
0.0393700787401575
  9
$DIMLFAC
 40
1.0
  9
$DIMTOFL
 70
     1
  9
$DIMTVP
 40
0.0
  9
$DIMTIX
 70
     0
  9
$DIMSOXD
 70
     0
  9
$DIMSAH
 70
     0
  9
$DIMBLK1
  1

  9
$DIMBLK2
  1

  9
$DIMSTYLE
  2
ISO-25
  9
$DIMCLRD
 70
     0
  9
$DIMCLRE
 70
     0
  9
$DIMCLRT
 70
     0
  9
$DIMTFAC
 40
1.0
  9
$DIMGAP
 40
1.524
  9
$DIMJUST
 70
     0
  9
$DIMSD1
 70
     0
  9
$DIMSD2
 70
     0
  9
$DIMTOLJ
 70
     0
  9
$DIMTZIN
 70
     0
  9
$DIMALTZ
 70
     0
  9
$DIMALTTZ
 70
     0
  9
$DIMUPT
 70
     0
  9
$DIMDEC
 70
     2
  9
$DIMTDEC
 70
     2
  9
$DIMALTU
 70
     2
  9
$DIMALTTD
 70
     3
  9
$DIMTXSTY
  7
Standard
  9
$DIMAUNIT
 70
     0
  9
$DIMADEC
 70
     2
  9
$DIMALTRND
 40
0.0
  9
$DIMAZIN
 70
     0
  9
$DIMDSEP
 70
    44
  9
$DIMATFIT
 70
     3
  9
$DIMFRAC
 70
     0
  9
$DIMLDRBLK
  1

  9
$DIMLUNIT
 70
     2
  9
$DIMLWD
 70
    -2
  9
$DIMLWE
 70
    -2
  9
$DIMTMOVE
 70
     0
  9
$LUNITS
 70
     2
  9
$LUPREC
 70
     2
  9
$SKETCHINC
 40
1.0
  9
$FILLETRAD
 40
10.0
  9
$AUNITS
 70
     0
  9
$AUPREC
 70
     2
  9
$MENU
  1
.
  9
$ELEVATION
 40
0.0
  9
$PELEVATION
 40
0.0
  9
$THICKNESS
 40
0.0
  9
$LIMCHECK
 70
     0
  9
$CHAMFERA
 40
0.0
  9
$CHAMFERB
 40
0.0
  9
$CHAMFERC
 40
0.0
  9
$CHAMFERD
 40
0.0
  9
$SKPOLY
 70
     0
  9
$TDCREATE
 40
2458299.351303125
  9
$TDUCREATE
 40
2458298.976303125
  9
$TDUPDATE
 40
2458304.381265903
  9
$TDUUPDATE
 40
2458304.006265903
  9
$TDINDWG
 40
0.0052957176
  9
$TDUSRTIMER
 40
2458303.975428611
  9
$USRTIMER
 70
     1
  9
$ANGBASE
 50
0.0
  9
$ANGDIR
 70
     0
  9
$PDMODE
 70
     0
  9
$PDSIZE
 40
-1.0
  9
$PLINEWID
 40
0.0
  9
$SPLFRAME
 70
     0
  9
$SPLINETYPE
 70
     6
  9
$SPLINESEGS
 70
     8
  9
$HANDSEED
  5
392
  9
$SURFTAB1
 70
     6
  9
$SURFTAB2
 70
     6
  9
$SURFTYPE
 70
     6
  9
$SURFU
 70
     6
  9
$SURFV
 70
     6
  9
$UCSBASE
  2

  9
$UCSNAME
  2

  9
$UCSORG
 10
0.0
 20
0.0
 30
0.0
  9
$UCSXDIR
 10
1.0
 20
0.0
 30
0.0
  9
$UCSYDIR
 10
0.0
 20
1.0
 30
0.0
  9
$UCSORTHOREF
  2

  9
$UCSORTHOVIEW
 70
     0
  9
$UCSORGTOP
 10
0.0
 20
0.0
 30
0.0
  9
$UCSORGBOTTOM
 10
0.0
 20
0.0
 30
0.0
  9
$UCSORGLEFT
 10
0.0
 20
0.0
 30
0.0
  9
$UCSORGRIGHT
 10
0.0
 20
0.0
 30
0.0
  9
$UCSORGFRONT
 10
0.0
 20
0.0
 30
0.0
  9
$UCSORGBACK
 10
0.0
 20
0.0
 30
0.0
  9
$PUCSBASE
  2

  9
$PUCSNAME
  2

  9
$PUCSORG
 10
0.0
 20
0.0
 30
0.0
  9
$PUCSXDIR
 10
1.0
 20
0.0
 30
0.0
  9
$PUCSYDIR
 10
0.0
 20
1.0
 30
0.0
  9
$PUCSORTHOREF
  2

  9
$PUCSORTHOVIEW
 70
     0
  9
$PUCSORGTOP
 10
0.0
 20
0.0
 30
0.0
  9
$PUCSORGBOTTOM
 10
0.0
 20
0.0
 30
0.0
  9
$PUCSORGLEFT
 10
0.0
 20
0.0
 30
0.0
  9
$PUCSORGRIGHT
 10
0.0
 20
0.0
 30
0.0
  9
$PUCSORGFRONT
 10
0.0
 20
0.0
 30
0.0
  9
$PUCSORGBACK
 10
0.0
 20
0.0
 30
0.0
  9
$USERI1
 70
     0
  9
$USERI2
 70
     0
  9
$USERI3
 70
     0
  9
$USERI4
 70
     0
  9
$USERI5
 70
     0
  9
$USERR1
 40
0.0
  9
$USERR2
 40
0.0
  9
$USERR3
 40
0.0
  9
$USERR4
 40
0.0
  9
$USERR5
 40
0.0
  9
$WORLDVIEW
 70
     1
  9
$SHADEDGE
 70
     3
  9
$SHADEDIF
 70
    70
  9
$TILEMODE
 70
     1
  9
$MAXACTVP
 70
    64
  9
$PINSBASE
 10
0.0
 20
0.0
 30
0.0
  9
$PLIMCHECK
 70
     0
  9
$PEXTMIN
 10
1.000000000000000E+20
 20
1.000000000000000E+20
 30
1.000000000000000E+20
  9
$PEXTMAX
 10
-1.000000000000000E+20
 20
-1.000000000000000E+20
 30
-1.000000000000000E+20
  9
$PLIMMIN
 10
0.0
 20
0.0
  9
$PLIMMAX
 10
0.0
 20
0.0
  9
$UNITMODE
 70
     0
  9
$VISRETAIN
 70
     1
  9
$PLINEGEN
 70
     0
  9
$PSLTSCALE
 70
     1
  9
$TREEDEPTH
 70
  3020
  9
$CMLSTYLE
  2
Standard
  9
$CMLJUST
 70
     0
  9
$CMLSCALE
 40
20.0
  9
$PROXYGRAPHICS
 70
     1
  9
$MEASUREMENT
 70
     1
  9
$CELWEIGHT
370
    -1
  9
$ENDCAPS
280
     0
  9
$JOINSTYLE
280
     0
  9
$LWDISPLAY
290
     1
  9
$INSUNITS
 70
     4
  9
$HYPERLINKBASE
  1

  9
$STYLESHEET
  1

  9
$XEDIT
290
     1
  9
$CEPSNTYPE
380
     0
  9
$PSTYLEMODE
290
     1
  9
$FINGERPRINTGUID
  2
{31817D36-1354-41E5-8D95-F204AADB574E}
  9
$VERSIONGUID
  2
{FAEB1C32-E019-11D5-929B-00C0DF256EC4}
  9
$EXTNAMES
290
     1
  9
$PSVPSCALE
 40
0.0
  9
$OLESTARTUP
290
     0
  0
ENDSEC
  0
SECTION
  2
CLASSES
  0
CLASS
  1
ACDBDICTIONARYWDFLT
  2
AcDbDictionaryWithDefault
  3
ObjectDBX Classes
 90
        0
280
     0
281
     0
  0
CLASS
  1
VISUALSTYLE
  2
AcDbVisualStyle
  3
ObjectDBX Classes
 90
     4095
280
     0
281
     0
  0
CLASS
  1
MATERIAL
  2
AcDbMaterial
  3
ObjectDBX Classes
 90
     1153
280
     0
281
     0
  0
CLASS
  1
SCALE
  2
AcDbScale
  3
ObjectDBX Classes
 90
     1153
280
     0
281
     0
  0
CLASS
  1
SUN
  2
AcDbSun
  3
SCENEOE
 90
     1153
280
     0
281
     0
  0
CLASS
  1
ACDBPLACEHOLDER
  2
AcDbPlaceHolder
  3
ObjectDBX Classes
 90
        0
280
     0
281
     0
  0
CLASS
  1
LAYOUT
  2
AcDbLayout
  3
ObjectDBX Classes
 90
        0
280
     0
281
     0
  0
CLASS
  1
TABLESTYLE
  2
AcDbTableStyle
  3
ObjectDBX Classes
 90
     4095
280
     0
281
     0
  0
CLASS
  1
MLEADERSTYLE
  2
AcDbMLeaderStyle
  3
ACDB_MLEADERSTYLE_CLASS
 90
     4095
280
     0
281
     0
  0
CLASS
  1
RASTERVARIABLES
  2
AcDbRasterVariables
  3
ISM
 90
        0
280
     0
281
     0
  0
CLASS
  1
DICTIONARYVAR
  2
AcDbDictionaryVar
  3
ObjectDBX Classes
 90
        0
280
     0
281
     0
  0
ENDSEC
  0
SECTION
  2
TABLES
  0
TABLE
  2
VPORT
  5
8
330
0
100
AcDbSymbolTable
 70
     1
  0
VPORT
  5
29
330
8
100
AcDbSymbolTableRecord
100
AcDbViewportTableRecord
  2
*Active
 70
     0
 10
0.0
 20
0.0
 11
1.0
 21
1.0
 12
-18.34904902781395
 22
8.654786257535743
 13
0.0
 23
0.0
 14
10.0
 24
10.0
 15
10.0
 25
10.0
 16
0.0
 26
0.0
 36
1.0
 17
0.0
 27
0.0
 37
0.0
 40
131.218996758811
 41
2.22554347826087
 42
50.0
 43
0.0
 44
0.0
 50
0.0
 51
0.0
 71
    16
 72
  2000
 73
     1
 74
     3
 75
     0
 76
     0
 77
     0
 78
     0
281
     0
 65
     1
110
0.0
120
0.0
130
0.0
111
1.0
121
0.0
131
0.0
112
0.0
122
1.0
132
0.0
 79
     0
146
0.0
  0
ENDTAB
  0
TABLE
  2
LTYPE
  5
5
330
0
100
AcDbSymbolTable
 70
     6
  0
LTYPE
  5
14
330
5
100
AcDbSymbolTableRecord
100
AcDbLinetypeTableRecord
  2
ByBlock
 70
     0
  3

 72
    65
 73
     0
 40
0.0
  0
LTYPE
  5
15
330
5
100
AcDbSymbolTableRecord
100
AcDbLinetypeTableRecord
  2
ByLayer
 70
     0
  3

 72
    65
 73
     0
 40
0.0
  0
LTYPE
  5
16
330
5
100
AcDbSymbolTableRecord
100
AcDbLinetypeTableRecord
  2
Continuous
 70
     0
  3
Solid line
 72
    65
 73
     0
 40
0.0
  0
LTYPE
  5
6A
330
5
100
AcDbSymbolTableRecord
100
AcDbLinetypeTableRecord
  2
HIDDEN
 70
     0
  3
Hidden __ __ __ __ __ __ __ __ __ __ __ __ __ __
 72
    65
 73
     2
 40
1.905
 49
1.27
 74
     0
 49
-0.635
 74
     0
  0
LTYPE
  5
6B
330
5
100
AcDbSymbolTableRecord
100
AcDbLinetypeTableRecord
  2
PHANTOM
 70
     0
  3
Phantom ______  __  __  ______  __  __  ______
 72
    65
 73
     6
 40
12.7
 49
6.35
 74
     0
 49
-1.27
 74
     0
 49
1.27
 74
     0
 49
-1.27
 74
     0
 49
1.27
 74
     0
 49
-1.27
 74
     0
  0
LTYPE
  5
6C
330
5
100
AcDbSymbolTableRecord
100
AcDbLinetypeTableRecord
  2
CENTER
 70
     0
  3
Center ____ _ ____ _ ____ _ ____ _ ____ _ ____
 72
    65
 73
     4
 40
10.16
 49
6.35
 74
     0
 49
-1.27
 74
     0
 49
1.27
 74
     0
 49
-1.27
 74
     0
  0
LTYPE
  5
6D
330
5
100
AcDbSymbolTableRecord
100
AcDbLinetypeTableRecord
  2
CENTERX2
 70
     0
  3
Center (2x) ________  __  ________  __  _____
 72
    65
 73
     4
 40
20.32
 49
12.7
 74
     0
 49
-2.54
 74
     0
 49
2.54
 74
     0
 49
-2.54
 74
     0
  0
LTYPE
  5
6E
330
5
100
AcDbSymbolTableRecord
100
AcDbLinetypeTableRecord
  2
DOT2
 70
     0
  3
Dot (.5x) ........................................
 72
    65
 73
     2
 40
0.635
 49
0.0
 74
     0
 49
-0.635
 74
     0
  0
ENDTAB
  0
TABLE
  2
LAYER
  5
2
330
0
100
AcDbSymbolTable
 70
    18
  0
LAYER
  5
10
330
2
100
AcDbSymbolTableRecord
100
AcDbLayerTableRecord
  2
0
 70
     0
 62
     7
  6
Continuous
370
    -3
390
F
  0
LAYER
  5
6F
330
2
100
AcDbSymbolTableRecord
100
AcDbLayerTableRecord
  2
FORMAT
 70
     0
 62
     2
  6
Continuous
370
    -3
390
F
  0
LAYER
  5
70
330
2
100
AcDbSymbolTableRecord
100
AcDbLayerTableRecord
  2
외형선
 70
     0
 62
     4
  6
Continuous
370
    30
390
F
  0
LAYER
  5
71
330
2
100
AcDbSymbolTableRecord
100
AcDbLayerTableRecord
  2
숨은선
 70
     0
 62
     2
  6
HIDDEN
370
    15
390
F
  0
LAYER
  5
72
330
2
100
AcDbSymbolTableRecord
100
AcDbLayerTableRecord
  2
중심선
 70
     0
 62
     1
  6
CENTERX2
370
    -3
390
F
  0
LAYER
  5
73
330
2
100
AcDbSymbolTableRecord
100
AcDbLayerTableRecord
  2
파단선
 70
     0
 62
     4
  6
Continuous
370
    -3
390
F
  0
LAYER
  5
74
330
2
100
AcDbSymbolTableRecord
100
AcDbLayerTableRecord
  2
해칭선
 70
     0
 62
   100
  6
Continuous
370
    -3
390
F
  0
LAYER
  5
75
330
2
100
AcDbSymbolTableRecord
100
AcDbLayerTableRecord
  2
가는실선
 70
     0
 62
     4
  6
Continuous
370
    -3
390
F
  0
LAYER
  5
76
330
2
100
AcDbSymbolTableRecord
100
AcDbLayerTableRecord
  2
치수_보조선
 70
     0
 62
     4
  6
Continuous
370
    -3
390
F
  0
LAYER
  5
77
330
2
100
AcDbSymbolTableRecord
100
AcDbLayerTableRecord
  2
치수문자_일반주서
 70
     0
 62
     7
  6
Continuous
370
    15
390
F
  0
LAYER
  5
78
330
2
100
AcDbSymbolTableRecord
100
AcDbLayerTableRecord
  2
개별주서
 70
     0
 62
   100
  6
Continuous
370
    30
390
F
  0
LAYER
  5
79
330
2
100
AcDbSymbolTableRecord
100
AcDbLayerTableRecord
  2
중간선
 70
     0
 62
     2
  6
Continuous
370
    15
390
F
  0
LAYER
  5
7A
330
2
100
AcDbSymbolTableRecord
100
AcDbLayerTableRecord
  2
윤곽선
 70
     0
 62
     3
  6
Continuous
370
    40
390
F
  0
LAYER
  5
7B
330
2
100
AcDbSymbolTableRecord
100
AcDbLayerTableRecord
  2
중심마크
 70
     0
 62
   100
  6
Continuous
370
    30
390
F
  0
LAYER
  5
7C
330
2
100
AcDbSymbolTableRecord
100
AcDbLayerTableRecord
  2
가상선
 70
     0
 62
     4
  6
PHANTOM
370
    -3
390
F
  0
LAYER
  5
7D
330
2
100
AcDbSymbolTableRecord
100
AcDbLayerTableRecord
  2
특수지정선
 70
     0
 62
     5
  6
CENTERX2
370
    60
390
F
  0
LAYER
  5
7E
330
2
100
AcDbSymbolTableRecord
100
AcDbLayerTableRecord
  2
참조1
 70
     0
 62
    -4
  6
Continuous
370
    -3
390
F
  0
LAYER
  5
35A
330
2
100
AcDbSymbolTableRecord
100
AcDbLayerTableRecord
  2
Defpoints
 70
     0
 62
     7
  6
Continuous
290
     0
370
    -3
390
F
  0
ENDTAB
  0
TABLE
  2
STYLE
  5
3
330
0
100
AcDbSymbolTable
 70
     2
  0
STYLE
  5
11
330
3
100
AcDbSymbolTableRecord
100
AcDbTextStyleTableRecord
  2
Standard
 70
     0
 40
0.0
 41
1.0
 50
0.0
 71
     0
 42
3.5
  3
txt
  4

  0
STYLE
  5
94
330
3
100
AcDbSymbolTableRecord
100
AcDbTextStyleTableRecord
  2
SLDTEXTSTYLE0
 70
     0
 40
0.0
 41
0.75
 50
0.0
 71
     0
 42
3.5
  3
TXT
  4

  0
ENDTAB
  0
TABLE
  2
VIEW
  5
6
330
0
100
AcDbSymbolTable
 70
     0
  0
ENDTAB
  0
TABLE
  2
UCS
  5
7
330
0
100
AcDbSymbolTable
 70
     0
  0
ENDTAB
  0
TABLE
  2
APPID
  5
9
330
0
100
AcDbSymbolTable
 70
     1
  0
APPID
  5
12
330
9
100
AcDbSymbolTableRecord
100
AcDbRegAppTableRecord
  2
ACAD
 70
     0
  0
ENDTAB
  0
TABLE
  2
DIMSTYLE
  5
A
330
0
100
AcDbSymbolTable
 70
     3
100
AcDbDimStyleTable
  0
DIMSTYLE
105
27
330
A
100
AcDbSymbolTableRecord
100
AcDbDimStyleTableRecord
  2
ISO-25
 70
     0
 41
2.5
 42
0.625
 43
3.75
 44
1.25
 73
     0
 74
     0
 77
     1
 78
     8
140
2.5
141
2.5
143
0.03937007874016
147
0.625
171
     3
172
     1
178
     0
271
     2
272
     2
274
     3
278
    44
283
     0
284
     8
340
11
  0
DIMSTYLE
105
2DA
102
{ACAD_REACTORS
330
2D9
330
301
330
315
102
}
330
A
100
AcDbSymbolTableRecord
100
AcDbDimStyleTableRecord
  2
SLDDIMSTYLE0
 70
     0
 41
3.302
 44
0.0
 45
0.000000001
 73
     0
 74
     0
 77
     1
 78
     4
 79
     1
140
3.5
143
0.0393700787401575
147
0.875
148
0.000000001
170
     1
173
     1
178
     0
271
     2
272
     2
276
     2
284
    12
340
94
  0
DIMSTYLE
105
2ED
102
{ACAD_REACTORS
330
2EC
102
}
330
A
100
AcDbSymbolTableRecord
100
AcDbDimStyleTableRecord
  2
SLDDIMSTYLE1
 70
     0
 41
3.302
 44
0.0
 45
0.000000001
 73
     0
 74
     0
 77
     1
 78
     4
 79
     1
140
3.5
143
0.0393700787401575
147
0.875
148
0.000000001
170
     1
172
     1
173
     1
178
     0
271
     2
272
     2
276
     2
284
    12
289
     0
340
94
  0
ENDTAB
  0
TABLE
  2
BLOCK_RECORD
  5
1
330
0
100
AcDbSymbolTable
 70
     7
  0
BLOCK_RECORD
  5
1F
330
1
100
AcDbSymbolTableRecord
100
AcDbBlockTableRecord
  2
*Model_Space
340
22
  0
BLOCK_RECORD
  5
1B
330
1
100
AcDbSymbolTableRecord
100
AcDbBlockTableRecord
  2
*Paper_Space
340
1E
  0
BLOCK_RECORD
  5
23
330
1
100
AcDbSymbolTableRecord
100
AcDbBlockTableRecord
  2
*Paper_Space0
340
26
  0
BLOCK_RECORD
  5
7F
330
1
100
AcDbSymbolTableRecord
100
AcDbBlockTableRecord
  2
블럭10
340
0
102
{BLKREFS
331
2D1
102
}
  0
BLOCK_RECORD
  5
2DB
330
1
100
AcDbSymbolTableRecord
100
AcDbBlockTableRecord
  2
_D
340
0
  0
BLOCK_RECORD
  5
2EE
330
1
100
AcDbSymbolTableRecord
100
AcDbBlockTableRecord
  2
_D_1
340
0
  0
BLOCK_RECORD
  5
302
330
1
100
AcDbSymbolTableRecord
100
AcDbBlockTableRecord
  2
_D_2
340
0
  0
BLOCK_RECORD
  5
316
330
1
100
AcDbSymbolTableRecord
100
AcDbBlockTableRecord
  2
_D_3
340
0
  0
BLOCK_RECORD
  5
32F
330
1
100
AcDbSymbolTableRecord
100
AcDbBlockTableRecord
  2
SW_DOWELSYMBOL_0
340
0
102
{BLKREFS
331
335
102
}
  0
ENDTAB
  0
ENDSEC
  0
SECTION
  2
BLOCKS
  0
BLOCK
  5
20
330
1F
100
AcDbEntity
  8
0
100
AcDbBlockBegin
  2
*Model_Space
 70
     0
 10
0.0
 20
0.0
 30
0.0
  3
*Model_Space
  1
*Model_Space
  0
ENDBLK
  5
21
330
1F
100
AcDbEntity
  8
0
100
AcDbBlockEnd
  0
BLOCK
  5
1C
330
1B
100
AcDbEntity
 67
     1
  8
0
100
AcDbBlockBegin
  2
*Paper_Space
 70
     0
 10
0.0
 20
0.0
 30
0.0
  3
*Paper_Space
  1
*Paper_Space
  0
ENDBLK
  5
1D
330
1B
100
AcDbEntity
 67
     1
  8
0
100
AcDbBlockEnd
  0
BLOCK
  5
24
330
23
100
AcDbEntity
  8
0
100
AcDbBlockBegin
  2
*Paper_Space0
 70
     0
 10
0.0
 20
0.0
 30
0.0
  3
*Paper_Space0
  1
*Paper_Space0
  0
ENDBLK
  5
25
330
23
100
AcDbEntity
  8
0
100
AcDbBlockEnd
  0
BLOCK
  5
80
330
7F
100
AcDbEntity
  8
0
100
AcDbBlockBegin
  2
블럭10
 70
     2
 10
0.0
 20
0.0
 30
0.0
  3
블럭10
  1
블럭10
  0
ELLIPSE
  5
82
330
7F
100
AcDbEntity
  8
중심선
100
AcDbEllipse
 10
20.54032771741204
 20
12.0471743016438
 30
0.0
 11
6.600054785286829
 21
-1.261213355974178E-13
 31
0.0
210
0.0
220
0.0
230
1.0
 40
0.636358354079598
 41
0.9219305317359503
 42
6.513795318482858
  0
ELLIPSE
  5
83
330
7F
100
AcDbEntity
  8
중심선
100
AcDbEllipse
 10
20.54032771746488
 20
12.04717430159265
 30
0.0
 11
3.960054785062283
 21
1.540847449632565E-10
 31
0.0
210
0.0
220
0.0
230
1.0
 40
0.3939339440162632
 41
1.131841032648279
 42
5.62031148352944
  0
LINE
  5
84
330
7F
100
AcDbEntity
  8
중심선
100
AcDbLine
 10
2.268634060543552
 20
16.24717430164393
 30
0.0
 11
5.714909304380834
 21
16.24717430164393
 31
0.0
  0
LINE
  5
85
330
7F
100
AcDbEntity
  8
중심선
100
AcDbLine
 10
5.245725140726316
 20
7.84717430164391
 30
0.0
 11
8.692000384563599
 21
7.84717430164391
 31
0.0
  0
LINE
  5
86
330
7F
100
AcDbEntity
  8
중심선
100
AcDbLine
 10
15.74043728645272
 20
16.24717430164393
 30
0.0
 11
8.692000384563599
 21
7.84717430164391
 31
0.0
  0
LINE
  5
87
330
7F
100
AcDbEntity
  8
중심선
100
AcDbLine
 10
0.1404042013395286
 20
13.71084872107135
 30
0.0
 11
3.58671253028996
 21
13.71088815037384
 31
0.0
  0
LINE
  5
88
330
7F
100
AcDbEntity
  8
중심선
100
AcDbLine
 10
2.750260043222114
 20
10.84717430164391
 30
0.0
 11
6.196535287059397
 21
10.84717430164391
 31
0.0
  0
LINE
  5
89
330
7F
100
AcDbEntity
  8
중심선
100
AcDbLine
 10
12.29416204261559
 20
16.24717430164393
 30
0.0
 11
5.245725140726316
 21
7.84717430164391
 31
0.0
  0
LINE
  5
8A
330
7F
100
AcDbEntity
  8
중심선
100
AcDbLine
 10
10.72767329541681
 20
16.24717430164393
 30
0.0
 11
6.196535287059397
 21
10.84717430164391
 31
0.0
  0
LINE
  5
8B
330
7F
100
AcDbEntity
  8
중심선
100
AcDbLine
 10
7.28139805157953
 20
16.24717430164393
 30
0.0
 11
2.750260043222114
 21
10.84717430164391
 31
0.0
  0
LINE
  5
8C
330
7F
100
AcDbEntity
  8
중심선
100
AcDbLine
 10
5.714909304380834
 20
16.24717430164393
 30
0.0
 11
3.58671253028996
 21
13.71088815037384
 31
0.0
  0
LINE
  5
8D
330
7F
100
AcDbEntity
  8
중심선
100
AcDbLine
 10
2.268634060543552
 20
16.24717430164393
 30
0.0
 11
0.1404042013395286
 21
13.71084872107135
 31
0.0
  0
LINE
  5
8E
330
7F
100
AcDbEntity
  8
중심선
100
AcDbLine
 10
7.28139805157953
 20
16.24717430164393
 30
0.0
 11
10.72767329541681
 21
16.24717430164393
 31
0.0
  0
LINE
  5
8F
330
7F
100
AcDbEntity
  8
중심선
100
AcDbLine
 10
12.29416204261559
 20
16.24717430164393
 30
0.0
 11
15.74043728645272
 21
16.24717430164393
 31
0.0
  0
LINE
  5
90
330
7F
100
AcDbEntity
  8
중심선
100
AcDbLine
 10
19.22036997980202
 20
11.08717430171403
 30
0.0
 11
23.66174974927406
 21
11.08717430171406
 31
0.0
  0
LINE
  5
91
330
7F
100
AcDbEntity
  8
중심선
100
AcDbLine
 10
19.22039502424796
 20
13.00717430171391
 30
0.0
 11
19.22036997980202
 21
11.08717430171403
 31
0.0
  0
LINE
  5
92
330
7F
100
AcDbEntity
  8
중심선
100
AcDbLine
 10
19.22039502424796
 20
13.00717430171391
 30
0.0
 11
26.96566020931264
 21
13.00717430171391
 31
0.0
  0
LINE
  5
93
330
7F
100
AcDbEntity
  8
중심선
100
AcDbLine
 10
22.22332737316547
 20
13.45928029700563
 30
0.0
 11
24.52862924686651
 21
15.39360700705356
 31
0.0
  0
ATTDEF
  5
95
330
7F
100
AcDbEntity
  8
FORMAT
 62
     2
100
AcDbText
 10
-10.14163601213663
 20
2.075366912832191
 30
0.0
 40
4.233333333333333
  1
EM156032 [ 4 FLUTE ]
 41
0.75
  7
SLDTEXTSTYLE0
 11
-10.14163601213663
 21
-0.0412997538344756
 31
0.0
100
AcDbAttributeDefinition
  3

  2
AUTOATTR0
 70
     0
 74
     1
  0
ENDBLK
  5
81
330
7F
100
AcDbEntity
  8
0
100
AcDbBlockEnd
  0
BLOCK
  5
2DC
330
2DB
100
AcDbEntity
  8
0
100
AcDbBlockBegin
  2
_D
 70
     0
 10
0.0
 20
0.0
 30
0.0
  3
_D
  1
_D
  0
LINE
  5
2DE
330
2DB
100
AcDbEntity
  8
치수문자_일반주서
 62
     0
370
    -2
100
AcDbLine
 10
35.46249999999999
 20
6.666870580932827
 30
0.0
 11
46.32001004574684
 21
6.666870580932862
 31
0.0
  0
LINE
  5
2DF
330
2DB
100
AcDbEntity
  8
치수문자_일반주서
 62
     0
370
    -2
100
AcDbLine
 10
35.4625
 20
-6.033129419067261
 30
0.0
 11
46.32001004574688
 21
-6.033129419067226
 31
0.0
  0
LINE
  5
2E0
330
2DB
100
AcDbEntity
  8
치수문자_일반주서
 62
     0
370
    -2
100
AcDbLine
 10
46.32001004574684
 20
6.666870580932862
 30
0.0
 11
46.32001004574673
 21
39.50012058093286
 31
0.0
  0
LINE
  5
2E1
330
2DB
100
AcDbEntity
  8
치수문자_일반주서
 62
     0
370
    -2
100
AcDbLine
 10
46.32001004574686
 20
3.364870580932862
 30
0.0
 11
46.32001004574687
 21
-2.731129419067226
 31
0.0
  0
SOLID
  5
2E2
330
2DB
100
AcDbEntity
  8
치수문자_일반주서
 62
     0
100
AcDbTrace
 10
46.87034337908019
 20
3.364870580932864
 30
0.0
 11
45.76967671241352
 21
3.36487058093286
 31
0.0
 12
46.32001004574684
 22
6.666870580932862
 32
0.0
 13
46.32001004574684
 23
6.666870580932862
 33
0.0
  0
SOLID
  5
2E3
330
2DB
100
AcDbEntity
  8
치수문자_일반주서
 62
     0
100
AcDbTrace
 10
45.76967671241353
 20
-2.731129419067228
 30
0.0
 11
46.8703433790802
 21
-2.731129419067224
 31
0.0
 12
46.32001004574688
 22
-6.033129419067226
 32
0.0
 13
46.32001004574688
 23
-6.033129419067226
 33
0.0
  0
MTEXT
  5
2E4
330
2DB
100
AcDbEntity
  8
치수문자_일반주서
 62
     0
100
AcDbMText
 10
41.94501004574678
 20
26.15637058093285
 30
0.0
 40
3.5
 41
0.0
 71
     2
 72
     1
  1
\A1;%%c12.70 [1/2]
  7
SLDTEXTSTYLE0
 11
-3.356894814614624E-15
 21
1.0
 31
0.0
 73
     1
 44
1.0
  0
POINT
  5
2E5
330
2DB
100
AcDbEntity
  8
Defpoints
 62
     0
100
AcDbPoint
 10
35.39999999999999
 20
6.666870580932827
 30
0.0
  0
POINT
  5
2E6
330
2DB
100
AcDbEntity
  8
Defpoints
 62
     0
100
AcDbPoint
 10
35.4
 20
-6.033129419067261
 30
0.0
  0
POINT
  5
35C
330
2DB
100
AcDbEntity
  8
Defpoints
 62
     0
100
AcDbPoint
 10
46.32001004574688
 20
-6.033129419067222
 30
0.0
  0
ENDBLK
  5
2DD
330
2DB
100
AcDbEntity
  8
0
100
AcDbBlockEnd
  0
BLOCK
  5
2EF
330
2EE
100
AcDbEntity
  8
0
100
AcDbBlockBegin
  2
_D_1
 70
     0
 10
0.0
 20
0.0
 30
0.0
  3
_D_1
  1
_D_1
  0
LINE
  5
2F1
330
2EE
100
AcDbEntity
  8
치수문자_일반주서
 62
     0
370
    -2
100
AcDbLine
 10
-39.86249999999999
 20
6.666870580932725
 30
0.0
 11
-50.61000000000003
 21
6.666870580932688
 31
0.0
  0
LINE
  5
2F2
330
2EE
100
AcDbEntity
  8
치수문자_일반주서
 62
     0
370
    -2
100
AcDbLine
 10
-39.86249999999999
 20
-6.033129419067263
 30
0.0
 11
-50.60999999999999
 21
-6.033129419067301
 31
0.0
  0
LINE
  5
2F3
330
2EE
100
AcDbEntity
  8
치수문자_일반주서
 62
     0
370
    -2
100
AcDbLine
 10
-50.61000000000002
 20
3.364870580932688
 30
0.0
 11
-50.61000000000001
 21
-2.731129419067301
 31
0.0
  0
SOLID
  5
2F4
330
2EE
100
AcDbEntity
  8
치수문자_일반주서
 62
     0
100
AcDbTrace
 10
-50.05966666666669
 20
3.36487058093269
 30
0.0
 11
-51.16033333333336
 21
3.364870580932687
 31
0.0
 12
-50.61000000000003
 22
6.666870580932688
 32
0.0
 13
-50.61000000000003
 23
6.666870580932688
 33
0.0
  0
SOLID
  5
2F5
330
2EE
100
AcDbEntity
  8
치수문자_일반주서
 62
     0
100
AcDbTrace
 10
-51.16033333333334
 20
-2.731129419067303
 30
0.0
 11
-50.05966666666667
 21
-2.731129419067299
 31
0.0
 12
-50.60999999999999
 22
-6.033129419067301
 32
0.0
 13
-50.60999999999999
 23
-6.033129419067301
 33
0.0
  0
MTEXT
  5
2F6
330
2EE
100
AcDbEntity
  8
치수문자_일반주서
 62
     0
100
AcDbMText
 10
-54.98500000000001
 20
-0.7004737666879064
 30
0.0
 40
3.5
 41
0.0
 71
     2
 72
     1
  1
\A1;%%c12.70 [1/2]
  7
SLDTEXTSTYLE0
 11
-3.356894814614650E-15
 21
1.0
 31
0.0
 73
     1
 44
1.0
  0
POINT
  5
2F7
330
2EE
100
AcDbEntity
  8
Defpoints
 62
     0
100
AcDbPoint
 10
-39.79999999999999
 20
6.666870580932725
 30
0.0
  0
POINT
  5
2F8
330
2EE
100
AcDbEntity
  8
Defpoints
 62
     0
100
AcDbPoint
 10
-39.79999999999999
 20
-6.033129419067263
 30
0.0
  0
POINT
  5
2F9
330
2EE
100
AcDbEntity
  8
Defpoints
 62
     0
100
AcDbPoint
 10
-50.60999999999999
 20
-6.033129419067301
 30
0.0
  0
ENDBLK
  5
2F0
330
2EE
100
AcDbEntity
  8
0
100
AcDbBlockEnd
  0
BLOCK
  5
303
330
302
100
AcDbEntity
  8
0
100
AcDbBlockBegin
  2
_D_2
 70
     0
 10
0.0
 20
0.0
 30
0.0
  3
_D_2
  1
_D_2
  0
LINE
  5
305
330
302
100
AcDbEntity
  8
치수문자_일반주서
 62
     0
370
    -2
100
AcDbLine
 10
35.4
 20
6.729370580932827
 30
0.0
 11
35.4
 21
23.36583943047251
 31
0.0
  0
LINE
  5
306
330
302
100
AcDbEntity
  8
치수문자_일반주서
 62
     0
370
    -2
100
AcDbLine
 10
9.999999999999995
 20
6.729370580932731
 30
0.0
 11
9.999999999999995
 21
23.36583943047251
 31
0.0
  0
LINE
  5
307
330
302
100
AcDbEntity
  8
치수문자_일반주서
 62
     0
370
    -2
100
AcDbLine
 10
32.098
 20
23.36583943047251
 30
0.0
 11
13.30199999999999
 21
23.36583943047251
 31
0.0
  0
SOLID
  5
308
330
302
100
AcDbEntity
  8
치수문자_일반주서
 62
     0
100
AcDbTrace
 10
32.098
 20
22.81550609713917
 30
0.0
 11
32.098
 21
23.91617276380584
 31
0.0
 12
35.4
 22
23.36583943047251
 32
0.0
 13
35.4
 23
23.36583943047251
 33
0.0
  0
SOLID
  5
309
330
302
100
AcDbEntity
  8
치수문자_일반주서
 62
     0
100
AcDbTrace
 10
13.30199999999999
 20
23.91617276380584
 30
0.0
 11
13.30199999999999
 21
22.81550609713917
 31
0.0
 12
9.999999999999995
 22
23.36583943047251
 32
0.0
 13
9.999999999999995
 23
23.36583943047251
 33
0.0
  0
MTEXT
  5
30A
330
302
100
AcDbEntity
  8
치수문자_일반주서
 62
     0
100
AcDbMText
 10
22.69999999999999
 20
27.74083943047251
 30
0.0
 40
3.5
 41
0.0
 71
     2
 72
     1
  1
\A1;25.40 [1]
  7
SLDTEXTSTYLE0
 73
     1
 44
1.0
  0
POINT
  5
30B
330
302
100
AcDbEntity
  8
Defpoints
 62
     0
100
AcDbPoint
 10
35.4
 20
6.666870580932827
 30
0.0
  0
POINT
  5
30C
330
302
100
AcDbEntity
  8
Defpoints
 62
     0
100
AcDbPoint
 10
9.999999999999995
 20
6.666870580932731
 30
0.0
  0
POINT
  5
30D
330
302
100
AcDbEntity
  8
Defpoints
 62
     0
100
AcDbPoint
 10
9.999999999999995
 20
23.36583943047251
 30
0.0
  0
ENDBLK
  5
304
330
302
100
AcDbEntity
  8
0
100
AcDbBlockEnd
  0
BLOCK
  5
317
330
316
100
AcDbEntity
  8
0
100
AcDbBlockBegin
  2
_D_3
 70
     0
 10
0.0
 20
0.0
 30
0.0
  3
_D_3
  1
_D_3
  0
LINE
  5
319
330
316
100
AcDbEntity
  8
치수문자_일반주서
 62
     0
370
    -2
100
AcDbLine
 10
35.4
 20
6.729370580932827
 30
0.0
 11
35.39999999999999
 21
40.03550443146835
 31
0.0
  0
LINE
  5
31A
330
316
100
AcDbEntity
  8
치수문자_일반주서
 62
     0
370
    -2
100
AcDbLine
 10
-40.8
 20
5.729370580932724
 30
0.0
 11
-40.8
 21
40.03550443146835
 31
0.0
  0
LINE
  5
31B
330
316
100
AcDbEntity
  8
치수문자_일반주서
 62
     0
370
    -2
100
AcDbLine
 10
32.09799999999999
 20
40.03550443146835
 30
0.0
 11
-37.498
 21
40.03550443146835
 31
0.0
  0
SOLID
  5
31C
330
316
100
AcDbEntity
  8
치수문자_일반주서
 62
     0
100
AcDbTrace
 10
32.09799999999999
 20
39.48517109813501
 30
0.0
 11
32.09799999999999
 21
40.58583776480168
 31
0.0
 12
35.39999999999999
 22
40.03550443146835
 32
0.0
 13
35.39999999999999
 23
40.03550443146835
 33
0.0
  0
SOLID
  5
31D
330
316
100
AcDbEntity
  8
치수문자_일반주서
 62
     0
100
AcDbTrace
 10
-37.498
 20
40.58583776480168
 30
0.0
 11
-37.498
 21
39.48517109813501
 31
0.0
 12
-40.8
 22
40.03550443146835
 32
0.0
 13
-40.8
 23
40.03550443146835
 33
0.0
  0
MTEXT
  5
31E
330
316
100
AcDbEntity
  8
치수문자_일반주서
 62
     0
100
AcDbMText
 10
0.6315440708370094
 20
44.41050443146835
 30
0.0
 40
3.5
 41
0.0
 71
     2
 72
     1
  1
\A1;76.20 [3]
  7
SLDTEXTSTYLE0
 73
     1
 44
1.0
  0
POINT
  5
31F
330
316
100
AcDbEntity
  8
Defpoints
 62
     0
100
AcDbPoint
 10
35.4
 20
6.666870580932827
 30
0.0
  0
POINT
  5
320
330
316
100
AcDbEntity
  8
Defpoints
 62
     0
100
AcDbPoint
 10
-40.8
 20
5.666870580932724
 30
0.0
  0
POINT
  5
321
330
316
100
AcDbEntity
  8
Defpoints
 62
     0
100
AcDbPoint
 10
-40.8
 20
40.03550443146835
 30
0.0
  0
ENDBLK
  5
318
330
316
100
AcDbEntity
  8
0
100
AcDbBlockEnd
  0
BLOCK
  5
330
330
32F
100
AcDbEntity
  8
0
100
AcDbBlockBegin
  2
SW_DOWELSYMBOL_0
 70
     0
 10
0.0
 20
0.0
 30
0.0
  3
SW_DOWELSYMBOL_0
  1
SW_DOWELSYMBOL_0
  0
CIRCLE
  5
332
330
32F
100
AcDbEntity
  8
해칭선
 62
     0
100
AcDbCircle
 10
0.0
 20
0.0
 30
0.0
 40
3.000000000000004
  0
HATCH
  5
333
330
32F
100
AcDbEntity
  8
0
  6
Continuous
 62
     0
370
     0
100
AcDbHatch
 10
0.0
 20
0.0
 30
0.0
210
0.0
220
0.0
230
1.0
  2
SOLID
 70
     1
 71
     0
 91
        1
 92
        0
 93
        3
 72
     2
 10
0.0000000000000104
 20
-0.0000000000000035
 40
3.000000000000004
 50
0.0
 51
90.0
 73
     1
 72
     1
 10
0.0000000000000104
 20
3.000000000000001
 11
0.0000000000000104
 21
-0.0000000000000036
 72
     1
 10
0.0000000000000104
 20
-0.0000000000000035
 11
3.000000000000015
 21
-0.0000000000000035
 97
        0
 75
     0
 76
     1
 98
        1
 10
0.0
 20
0.0
  0
HATCH
  5
334
330
32F
100
AcDbEntity
  8
0
  6
Continuous
 62
     0
370
     0
100
AcDbHatch
 10
0.0
 20
0.0
 30
0.0
210
0.0
220
0.0
230
1.0
  2
SOLID
 70
     1
 71
     0
 91
        1
 92
        0
 93
        3
 72
     2
 10
0.0000000000000104
 20
-0.0000000000000035
 40
3.000000000000004
 50
180.0
 51
270.0000000000007
 73
     1
 72
     1
 10
0.0000000000000104
 20
-3.000000000000008
 11
0.0000000000000104
 21
-0.0000000000000036
 72
     1
 10
0.0000000000000104
 20
-0.0000000000000035
 11
-2.999999999999994
 21
-0.0000000000000035
 97
        0
 75
     0
 76
     1
 98
        1
 10
0.0
 20
0.0
  0
ENDBLK
  5
331
330
32F
100
AcDbEntity
  8
0
100
AcDbBlockEnd
  0
ENDSEC
  0
SECTION
  2
ENTITIES
  0
LINE
  5
96
330
1F
100
AcDbEntity
  8
외형선
  6
Continuous
370
    15
100
AcDbLine
 10
-39.79999905824662
 20
6.666870504191751
 30
0.0
 11
-40.80000108480454
 21
5.666870805940265
 31
0.0
  0
LINE
  5
97
330
1F
100
AcDbEntity
  8
외형선
  6
Continuous
370
    15
100
AcDbLine
 10
-40.80000108480454
 20
-5.033129644074803
 30
0.0
 11
-39.79999905824662
 21
-6.033129342326289
 31
0.0
  0
LINE
  5
98
330
1F
100
AcDbEntity
  8
외형선
  6
Continuous
370
    15
100
AcDbLine
 10
10.00000004749745
 20
6.666870504191751
 30
0.0
 11
-39.79999905824662
 21
6.666870504191751
 31
0.0
  0
LINE
  5
99
330
1F
100
AcDbEntity
  8
외형선
  6
Continuous
370
    15
100
AcDbLine
 10
-39.79999905824662
 20
-6.033129342326289
 30
0.0
 11
10.00000004749745
 21
-6.033129342326289
 31
0.0
  0
SPLINE
  5
9B
330
1F
100
AcDbEntity
  8
외형선
  6
Continuous
 62
     1
370
    15
100
AcDbSpline
210
0.0
220
0.0
230
1.0
 70
     8
 71
     3
 72
    11
 73
     7
 74
     0
 42
0.000000001
 43
0.00000001
 40
0.0
 40
0.0
 40
0.0
 40
0.0
 40
0.2435579863165019
 40
0.500017713467289
 40
0.7564699584320815
 40
0.9999999999999999
 40
0.9999999999999999
 40
0.9999999999999999
 40
0.9999999999999999
 10
11.71452637389302
 20
6.612211182287568
 30
0.0
 10
11.66960157383237
 20
6.582605361474344
 30
0.0
 10
11.57737221956636
 20
6.521825441865738
 30
0.0
 10
11.40912828011615
 20
6.494402546830059
 30
0.0
 10
11.24088365026205
 20
6.518976800174265
 30
0.0
 10
11.14863803584576
 20
6.577652491685442
 30
0.0
 10
11.10370728746056
 20
6.606232091358537
 30
0.0
  0
SPLINE
  5
9E
330
1F
100
AcDbEntity
  8
외형선
  6
Continuous
 62
     1
370
    15
100
AcDbSpline
210
0.0
220
0.0
230
1.0
 70
     8
 71
     3
 72
     9
 73
     5
 74
     0
 42
0.000000001
 43
0.00000001
 40
0.0
 40
0.0
 40
0.0
 40
0.0
 40
0.4992454775020379
 40
1.0
 40
1.0
 40
1.0
 40
1.0
 10
11.10215151309967
 20
6.608090545556183
 30
0.0
 10
11.07804497357375
 20
6.624080806445432
 30
0.0
 10
11.02975902885867
 20
6.65610966120693
 30
0.0
 10
10.97275139168255
 20
6.661804235352315
 30
0.0
 10
10.94420455954969
 20
6.664655819109315
 30
0.0
  0
LINE
  5
9F
330
1F
100
AcDbEntity
  8
외형선
  6
Continuous
 62
     1
370
    15
100
AcDbLine
 10
10.93781685084104
 20
6.666870504191751
 30
0.0
 11
10.3634191127494
 21
6.666870504191751
 31
0.0
  0
SPLINE
  5
A2
330
1F
100
AcDbEntity
  8
외형선
  6
Continuous
 62
     1
370
    15
100
AcDbSpline
210
0.0
220
0.0
230
1.0
 70
     8
 71
     3
 72
     9
 73
     5
 74
     0
 42
0.000000001
 43
0.00000001
 40
0.0
 40
0.0
 40
0.0
 40
0.0
 40
0.5006638931616457
 40
1.0
 40
1.0
 40
1.0
 40
1.0
 10
10.36545894201845
 20
6.666748035273189
 30
0.0
 10
10.33685700392333
 20
6.664421727002058
 30
0.0
 10
10.2797289815399
 20
6.659775279948642
 30
0.0
 10
10.23134023914995
 20
6.628716167882221
 30
0.0
 10
10.20717799291014
 20
6.61320723178112
 30
0.0
  0
SPLINE
  5
A3
330
1F
100
AcDbEntity
  8
외형선
  6
Continuous
 62
     1
370
    15
100
AcDbSpline
210
0.0
220
0.0
230
1.0
 70
     8
 71
     3
 72
     9
 73
     5
 74
     0
 42
0.000000001
 43
0.00000001
 40
0.0
 40
0.0
 40
0.0
 40
0.0
 40
0.6538181123246745
 40
1.0
 40
1.0
 40
1.0
 40
1.0
 10
10.20583723764866
 20
6.612748555413122
 30
0.0
 10
10.16409077677242
 20
6.583187553262071
 30
0.0
 10
10.10024051002497
 20
6.537974669749339
 30
0.0
 10
10.02274406398575
 20
6.526647656513285
 30
0.0
 10
9.99591619800776
 20
6.522726449689502
 30
0.0
  0
LINE
  5
AF
330
1F
100
AcDbEntity
  8
외형선
  6
Continuous
 62
     1
370
    15
100
AcDbLine
 10
10.00000004749745
 20
-6.033129342326289
 30
0.0
 11
10.18781835772097
 21
-6.033129342326289
 31
0.0
  0
SPLINE
  5
B0
330
1F
100
AcDbEntity
  8
외형선
  6
Continuous
 62
     1
370
    15
100
AcDbSpline
210
0.0
220
0.0
230
1.0
 70
     8
 71
     3
 72
     9
 73
     5
 74
     0
 42
0.000000001
 43
0.00000001
 40
0.0
 40
0.0
 40
0.0
 40
0.0
 40
0.5009527390219457
 40
0.9999999999999999
 40
0.9999999999999999
 40
0.9999999999999999
 40
0.9999999999999999
 10
10.18939497042447
 20
-6.03300640774644
 30
0.0
 10
10.21811463411212
 20
-6.030432873324574
 30
0.0
 10
10.275444720267
 20
-6.025295593454839
 30
0.0
 10
10.3241148302271
 20
-5.993545530119069
 30
0.0
 10
10.34840351529419
 20
-5.977700747975474
 30
0.0
  0
SPLINE
  5
B1
330
1F
100
AcDbEntity
  8
외형선
  6
Continuous
 62
     1
370
    15
100
AcDbSpline
210
0.0
220
0.0
230
1.0
 70
     8
 71
     3
 72
    11
 73
     7
 74
     0
 42
0.000000001
 43
0.00000001
 40
0.0
 40
0.0
 40
0.0
 40
0.0
 40
0.2437495377263669
 40
0.4999694773812081
 40
0.756202928940464
 40
0.9999999999999999
 40
0.9999999999999999
 40
0.9999999999999999
 40
0.9999999999999999
 10
10.34944135788828
 20
-5.976931009867554
 30
0.0
 10
10.39423188730341
 20
-5.948149632563411
 30
0.0
 10
10.48610446188218
 20
-5.88911440196036
 30
0.0
 10
10.65417660094402
 20
-5.863733371197685
 30
0.0
 10
10.82224830271511
 20
-5.890470819562477
 30
0.0
 10
10.91409685928434
 20
-5.950497939183023
 30
0.0
 10
10.95887894369662
 20
-5.979765024462109
 30
0.0
  0
SPLINE
  5
B4
330
1F
100
AcDbEntity
  8
외형선
  6
Continuous
 62
     1
370
    15
100
AcDbSpline
210
0.0
220
0.0
230
1.0
 70
     8
 71
     3
 72
     9
 73
     5
 74
     0
 42
0.000000001
 43
0.00000001
 40
0.0
 40
0.0
 40
0.0
 40
0.0
 40
0.4994271878000793
 40
1.0
 40
1.0
 40
1.0
 40
1.0
 10
10.96267059072852
 20
-5.979285393336182
 30
0.0
 10
10.98671585818257
 20
-5.994443557280683
 30
0.0
 10
11.03486154996992
 20
-6.024794656129091
 30
0.0
 10
11.09177718189181
 20
-6.028874961351677
 30
0.0
 10
11.12026759982109
 20
-6.030917451211577
 30
0.0
  0
LINE
  5
B5
330
1F
100
AcDbEntity
  8
외형선
  6
Continuous
 62
     1
370
    15
100
AcDbLine
 10
11.11373227648437
 20
-6.033129342326289
 30
0.0
 11
11.68787681125104
 21
-6.033129342326289
 31
0.0
  0
SPLINE
  5
B7
330
1F
100
AcDbEntity
  8
외형선
  6
Continuous
 62
     1
370
    15
100
AcDbSpline
210
0.0
220
0.0
230
1.0
 70
     8
 71
     3
 72
     9
 73
     5
 74
     0
 42
0.000000001
 43
0.00000001
 40
0.0
 40
0.0
 40
0.0
 40
0.0
 40
0.501316818902731
 40
1.0
 40
1.0
 40
1.0
 40
1.0
 10
11.68790661357343
 20
-6.033129342326289
 30
0.0
 10
11.71701797721884
 20
-6.030625998632672
 30
0.0
 10
11.77508776970882
 20
-6.025632462411213
 30
0.0
 10
11.82460927430803
 20
-5.993208385236059
 30
0.0
 10
11.84930481575429
 20
-5.97703904328621
 30
0.0
  0
SPLINE
  5
B8
330
1F
100
AcDbEntity
  8
외형선
  6
Continuous
 62
     1
370
    15
100
AcDbSpline
210
0.0
220
0.0
230
1.0
 70
     8
 71
     3
 72
     9
 73
     5
 74
     0
 42
0.000000001
 43
0.00000001
 40
0.0
 40
0.0
 40
0.0
 40
0.0
 40
0.8282491102524058
 40
1.0
 40
1.0
 40
1.0
 40
1.0
 10
11.84930481575429
 20
-5.97703904328621
 30
0.0
 10
11.90479214692351
 20
-5.936370506980321
 30
0.0
 10
11.97178567638509
 20
-5.887268689903217
 30
0.0
 10
12.0573847685817
 20
-5.887162727834836
 30
0.0
 10
12.07208648882806
 20
-5.887144528755313
 30
0.0
  0
LINE
  5
B9
330
1F
100
AcDbEntity
  8
외형선
  6
Continuous
370
    15
100
AcDbLine
 10
-39.79999905824662
 20
6.666870504191751
 30
0.0
 11
-39.79999905824662
 21
-6.033129342326289
 31
0.0
  0
LINE
  5
BA
330
1F
100
AcDbEntity
  8
외형선
  6
Continuous
370
    15
100
AcDbLine
 10
-40.80000108480454
 20
5.666870805940265
 30
0.0
 11
-40.80000108480454
 21
-5.033129644074803
 31
0.0
  0
LINE
  5
BB
330
1F
100
AcDbEntity
  8
외형선
  6
Continuous
370
    15
100
AcDbLine
 10
7.99724102579057
 20
-1.088663520717388
 30
0.0
 11
6.469975845888254
 21
-1.624691932888096
 31
0.0
  0
SPLINE
  5
BC
330
1F
100
AcDbEntity
  8
외형선
  6
Continuous
370
    15
100
AcDbSpline
210
0.0
220
0.0
230
1.0
 70
     8
 71
     3
 72
    10
 73
     6
 74
     0
 42
0.000000001
 43
0.00000001
 40
0.0
 40
0.0
 40
0.0
 40
0.0
 40
0.5000000000000001
 40
0.5000000000000001
 40
1.0
 40
1.0
 40
1.0
 40
1.0
 10
9.999999999999995
 20
6.306982742383777
 30
0.0
 10
9.412430755479317
 20
6.378028189606707
 30
0.0
 10
8.82585960925145
 20
6.438828585432764
 30
0.0
 10
7.646579950179692
 20
6.539524271981871
 30
0.0
 10
7.056327256806286
 20
6.579314938086164
 30
0.0
 10
6.46997579046019
 20
6.608303036803632
 30
0.0
  0
LINE
  5
BD
330
1F
100
AcDbEntity
  8
외형선
  6
Continuous
370
    15
100
AcDbLine
 10
6.469975845888254
 20
6.608303352764482
 30
0.0
 11
6.469975845888254
 21
2.258431697769696
 31
0.0
  0
SPLINE
  5
BE
330
1F
100
AcDbEntity
  8
외형선
  6
Continuous
370
    15
100
AcDbSpline
210
0.0
220
0.0
230
1.0
 70
     8
 71
     3
 72
    10
 73
     6
 74
     0
 42
0.000000001
 43
0.00000001
 40
0.0
 40
0.0
 40
0.0
 40
0.0
 40
0.5
 40
0.5
 40
1.0
 40
1.0
 40
1.0
 40
1.0
 10
9.999999999999995
 20
1.003676052410195
 30
0.0
 10
9.412430755479317
 20
1.216495654032041
 30
0.0
 10
8.82585960925145
 20
1.428025450554469
 30
0.0
 10
7.646579950179696
 20
1.84730339811031
 30
0.0
 10
7.056327256806286
 20
2.054750669977214
 30
0.0
 10
6.469975790460193
 20
2.258433121285895
 30
0.0
  0
SPLINE
  5
BF
330
1F
100
AcDbEntity
  8
외형선
  6
Continuous
370
    15
100
AcDbSpline
210
0.0
220
0.0
230
1.0
 70
     8
 71
     3
 72
    10
 73
     6
 74
     0
 42
0.000000001
 43
0.00000001
 40
0.0
 40
0.0
 40
0.0
 40
0.0
 40
0.5
 40
0.5
 40
1.0
 40
1.0
 40
1.0
 40
1.0
 10
9.999999999999995
 20
-1.790510802024788
 30
0.0
 10
9.412430755479317
 20
-1.588568144247032
 30
0.0
 10
8.82585960925145
 20
-1.383148842640112
 30
0.0
 10
7.646579950179696
 20
-0.9664909778882876
 30
0.0
 10
7.056327256806286
 20
-0.755535913289668
 30
0.0
 10
6.469975790460191
 20
-0.5435814242447553
 30
0.0
  0
LINE
  5
C0
330
1F
100
AcDbEntity
  8
외형선
  6
Continuous
370
    15
100
AcDbLine
 10
6.469975845888254
 20
-0.5435779383008831
 30
0.0
 11
6.469975845888254
 21
-5.729024116375809
 31
0.0
  0
SPLINE
  5
C1
330
1F
100
AcDbEntity
  8
외형선
  6
Continuous
370
    15
100
AcDbSpline
210
0.0
220
0.0
230
1.0
 70
     8
 71
     3
 72
    10
 73
     6
 74
     0
 42
0.000000001
 43
0.00000001
 40
0.0
 40
0.0
 40
0.0
 40
0.0
 40
0.5
 40
0.5
 40
1.0
 40
1.0
 40
1.0
 40
1.0
 10
9.999999999999995
 20
-5.995878285001079
 30
0.0
 10
9.412430755479317
 20
-5.972724240711385
 30
0.0
 10
8.82585960925145
 20
-5.938828477134494
 30
0.0
 10
7.646579950179696
 20
-5.8496690679703
 30
0.0
 10
7.05632725680629
 20
-5.794433519780653
 30
0.0
 10
6.469975790460193
 20
-5.729023472215846
 30
0.0
  0
LINE
  5
C2
330
1F
100
AcDbEntity
  8
외형선
  6
Continuous
370
    15
100
AcDbLine
 10
10.00000004749745
 20
1.003676043397421
 30
0.0
 11
10.00000004749745
 21
-1.790510774084693
 31
0.0
  0
LINE
  5
C3
330
1F
100
AcDbEntity
  8
외형선
  6
Continuous
370
    15
100
AcDbLine
 10
10.00000004749745
 20
6.666870504191751
 30
0.0
 11
10.00000004749745
 21
6.306982781312103
 31
0.0
  0
SPLINE
  5
C4
330
1F
100
AcDbEntity
  8
외형선
  6
Continuous
370
    15
100
AcDbSpline
210
0.0
220
0.0
230
1.0
 70
    24
 71
     3
 72
    24
 73
    20
 74
     0
 42
0.000000001
 43
0.00000001
 40
0.0
 40
0.0
 40
0.0
 40
0.0
 40
0.0624999999999999
 40
0.0624999999999999
 40
0.1249999999999997
 40
0.1249999999999997
 40
0.2499999999999998
 40
0.2499999999999998
 40
0.3749999999999998
 40
0.3749999999999998
 40
0.4999999999999999
 40
0.4999999999999999
 40
0.625
 40
0.625
 40
0.75
 40
0.75
 40
0.875
 40
0.875
 40
1.0
 40
1.0
 40
1.0
 40
1.0
 10
9.999999999999998
 20
6.306982742383844
 30
0.0
 10
9.999999999999998
 20
6.197399564244092
 30
0.0
 10
9.999999999999995
 20
6.090825615192347
 30
0.0
 10
9.999999999999998
 20
5.884026320772185
 30
0.0
 10
9.999999999999998
 20
5.779330814212808
 30
0.0
 10
9.999999999999998
 20
5.449387355977938
 30
0.0
 10
9.999999999999998
 20
5.213055321728945
 30
0.0
 10
9.999999999999998
 20
4.710374640132631
 30
0.0
 10
9.999999999999998
 20
4.443906624494497
 30
0.0
 10
9.999999999999998
 20
3.890895011347688
 30
0.0
 10
9.999999999999998
 20
3.604261242163914
 30
0.0
 10
9.999999999999998
 20
3.031682811090517
 30
0.0
 10
9.999999999999998
 20
2.745792790382806
 30
0.0
 10
9.999999999999998
 20
2.207322548536401
 30
0.0
 10
9.999999999999998
 20
1.955057293888208
 30
0.0
 10
9.999999999999998
 20
1.523128481658783
 30
0.0
 10
9.999999999999998
 20
1.343978963547643
 30
0.0
 10
9.999999999999998
 20
1.091285308549453
 30
0.0
 10
9.999999999999998
 20
1.018121431253607
 30
0.0
 10
9.999999999999998
 20
1.003676052410193
 30
0.0
  0
LINE
  5
C5
330
1F
100
AcDbEntity
  8
외형선
  6
Continuous
370
    15
100
AcDbLine
 10
10.00000004749745
 20
-1.710197939032083
 30
0.0
 11
10.00000004749745
 21
-1.785768246704107
 31
0.0
  0
SPLINE
  5
C6
330
1F
100
AcDbEntity
  8
외형선
  6
Continuous
370
    15
100
AcDbSpline
210
0.0
220
0.0
230
1.0
 70
    24
 71
     3
 72
    16
 73
    12
 74
     0
 42
0.000000001
 43
0.00000001
 40
0.0
 40
0.0
 40
0.0
 40
0.0
 40
0.018334043023656
 40
0.143220397056588
 40
0.2681067574016328
 40
0.3929930720025507
 40
0.5178794179345121
 40
0.6427657676766839
 40
0.7676521299603366
 40
0.8925384180298771
 40
1.0
 40
1.0
 40
1.0
 40
1.0
 10
10.00000004749745
 20
-1.790510774084693
 30
0.0
 10
10.00000004749745
 20
-1.794778498943459
 30
0.0
 10
10.00000004749745
 20
-1.828116767431866
 30
0.0
 10
10.00000004749745
 20
-2.008505110887878
 30
0.0
 10
10.00000004749745
 20
-2.33631540203294
 30
0.0
 10
10.00000004749745
 20
-2.782061539222204
 30
0.0
 10
10.00000004749745
 20
-3.322243873420493
 30
0.0
 10
10.00000004749745
 20
-3.941920888207788
 30
0.0
 10
10.00000004749745
 20
-4.625426006861282
 30
0.0
 10
10.00000004749745
 20
-5.317485353355861
 30
0.0
 10
10.00000004749745
 20
-5.781342835047663
 30
0.0
 10
10.00000004749745
 20
-5.99587830198682
 30
0.0
  0
SPLINE
  5
C7
330
1F
100
AcDbEntity
  8
외형선
  6
Continuous
 62
     1
370
    15
100
AcDbSpline
210
0.0
220
0.0
230
1.0
 70
     8
 71
     3
 72
    17
 73
    13
 74
     0
 42
0.000000001
 43
0.00000001
 40
0.0
 40
0.0
 40
0.0
 40
0.0
 40
0.0000438686829613
 40
0.0000438686829613
 40
0.0000438686829613
 40
0.0000877532682569
 40
0.0000877532682569
 40
0.0000877532682569
 40
0.0001306942666861
 40
0.0001306942666861
 40
0.0001306942666861
 40
0.0001749191703083
 40
0.0001749191703083
 40
0.0001749191703083
 40
0.0001749191703083
 10
34.78273311719589
 20
-0.869269991739878
 30
0.0
 10
34.76899241323868
 20
-0.8643558260742604
 30
0.0
 10
34.75515777133491
 20
-0.8593569477270294
 30
0.0
 10
34.74147593831258
 20
-0.8543715346935432
 30
0.0
 10
34.72779120583068
 20
-0.8493850651493154
 30
0.0
 10
34.71417368326225
 20
-0.844380900828213
 30
0.0
 10
34.70088998718199
 20
-0.8394705791056084
 30
0.0
 10
34.68789255748084
 20
-0.8346660758247475
 30
0.0
 10
34.67512980771298
 20
-0.8299201453802576
 30
0.0
 10
34.66287103054466
 20
-0.8253491553584305
 30
0.0
 10
34.65025143959233
 20
-0.8206436269414773
 30
0.0
 10
34.63807310507286
 20
-0.8160890526522366
 30
0.0
 10
34.6266456294252
 20
-0.8118213789228969
 30
0.0
  0
SPLINE
  5
C9
330
1F
100
AcDbEntity
  8
외형선
  6
Continuous
 62
     1
370
    15
100
AcDbSpline
210
0.0
220
0.0
230
1.0
 70
     8
 71
     3
 72
     8
 73
     4
 74
     0
 42
0.000000001
 43
0.00000001
 40
0.0
 40
0.0
 40
0.0
 40
0.0
 40
1.0
 40
1.0
 40
1.0
 40
1.0
 10
34.51763465115499
 20
2.028083257967605
 30
0.0
 10
34.56244800995312
 20
2.016656310040777
 30
0.0
 10
34.61759177301947
 20
1.999755992185597
 30
0.0
 10
34.67448990629052
 20
1.97977215974406
 30
0.0
  0
SPLINE
  5
CB
330
1F
100
AcDbEntity
  8
외형선
  6
Continuous
 62
     1
370
    15
100
AcDbSpline
210
0.0
220
0.0
230
1.0
 70
     8
 71
     3
 72
     8
 73
     4
 74
     0
 42
0.000000001
 43
0.00000001
 40
0.0
 40
0.0
 40
0.0
 40
0.0
 40
1.0
 40
1.0
 40
1.0
 40
1.0
 10
34.0011171402759
 20
-0.589243315219058
 30
0.0
 10
33.95636389155126
 20
-0.5728494141646288
 30
0.0
 10
33.90127256900559
 20
-0.5529747887827772
 30
0.0
 10
33.84442166730956
 20
-0.5324977529027707
 30
0.0
  0
SPLINE
  5
CD
330
1F
100
AcDbEntity
  8
외형선
  6
Continuous
 62
     1
370
    15
100
AcDbSpline
210
0.0
220
0.0
230
1.0
 70
     8
 71
     3
 72
    17
 73
    13
 74
     0
 42
0.000000001
 43
0.00000001
 40
0.0
 40
0.0
 40
0.0
 40
0.0
 40
0.0000438682908848
 40
0.0000438682908848
 40
0.0000438682908848
 40
0.0000877524940598
 40
0.0000877524940598
 40
0.0000877524940598
 40
0.0001307452788585
 40
0.0001307452788585
 40
0.0001307452788585
 40
0.0001750244996538
 40
0.0001750244996538
 40
0.0001750244996538
 40
0.0001750244996538
 10
33.73528554360914
 20
2.30678641553736
 30
0.0
 10
33.74902872459602
 20
2.302042996466949
 30
0.0
 10
33.76286548485638
 20
2.297069754607231
 30
0.0
 10
33.77654976018319
 20
2.291959534556615
 30
0.0
 10
33.79023693680591
 20
2.286848231053627
 30
0.0
 10
33.80385700934514
 20
2.28156790990505
 30
0.0
 10
33.81714398582113
 20
2.276228904248145
 30
0.0
 10
33.83016029633872
 20
2.270998658254175
 30
0.0
 10
33.84294194118106
 20
2.265677916439677
 30
0.0
 10
33.85521902342879
 20
2.260387854010523
 30
0.0
 10
33.86785770242491
 20
2.254941983439459
 30
0.0
 10
33.8800547050669
 20
2.249488346806521
 30
0.0
 10
33.89149927296219
 20
2.244176787417989
 30
0.0
  0
SPLINE
  5
CF
330
1F
100
AcDbEntity
  8
외형선
  6
Continuous
 62
     1
370
    15
100
AcDbSpline
210
0.0
220
0.0
230
1.0
 70
     8
 71
     3
 72
    17
 73
    13
 74
     0
 42
0.000000001
 43
0.00000001
 40
0.0
 40
0.0
 40
0.0
 40
0.0
 40
0.0000438685814622
 40
0.0000438685814622
 40
0.0000438685814622
 40
0.0000877530189057
 40
0.0000877530189057
 40
0.0000877530189057
 40
0.0001307088784372
 40
0.0001307088784372
 40
0.0001307088784372
 40
0.0001749489920158
 40
0.0001749489920158
 40
0.0001749489920158
 40
0.0001749489920158
 10
33.262787558966
 20
-0.3225404102232159
 30
0.0
 10
33.24904500470357
 20
-0.3175687839772589
 30
0.0
 10
33.23520877323331
 20
-0.3126096385427036
 30
0.0
 10
33.22152544280775
 20
-0.3077633324285103
 30
0.0
 10
33.20783922150665
 20
-0.3029160024358205
 30
0.0
 10
33.19422036390264
 20
-0.2981513690660014
 30
0.0
 10
33.18093525294524
 20
-0.2935802919965135
 30
0.0
 10
33.16793192771392
 20
-0.2891061704041065
 30
0.0
 10
33.15516341624046
 20
-0.2847884714964135
 30
0.0
 10
33.14289909289666
 20
-0.2807393757699232
 30
0.0
 10
33.13027382771233
 20
-0.2765711142302833
 30
0.0
 10
33.11809000110887
 20
-0.2726572508246625
 30
0.0
 10
33.10665745363915
 20
-0.269123597875543
 30
0.0
  0
SPLINE
  5
D1
330
1F
100
AcDbEntity
  8
외형선
  6
Continuous
 62
     1
370
    15
100
AcDbSpline
210
0.0
220
0.0
230
1.0
 70
     8
 71
     3
 72
     8
 73
     4
 74
     0
 42
0.000000001
 43
0.00000001
 40
0.0
 40
0.0
 40
0.0
 40
0.0
 40
1.0
 40
1.0
 40
1.0
 40
1.0
 10
32.99641208595419
 20
2.548711824595771
 30
0.0
 10
33.04121567309038
 20
2.540728850524577
 30
0.0
 10
33.09635149692869
 20
2.526004028891377
 30
0.0
 10
33.15324565585842
 20
2.506581231404491
 30
0.0
  0
SPLINE
  5
D3
330
1F
100
AcDbEntity
  8
외형선
  6
Continuous
 62
     1
370
    15
100
AcDbSpline
210
0.0
220
0.0
230
1.0
 70
     8
 71
     3
 72
    10
 73
     6
 74
     0
 42
0.000000001
 43
0.00000001
 40
0.0
 40
0.0
 40
0.0
 40
0.0
 40
0.5
 40
0.5
 40
1.0
 40
1.0
 40
1.0
 40
1.0
 10
34.62664562942519
 20
-0.8118213789228947
 30
0.0
 10
34.53395765775736
 20
-0.7772063831085437
 30
0.0
 10
34.42121420556375
 20
-0.7389342398939306
 30
0.0
 10
34.1964087335496
 20
-0.6602837716150345
 30
0.0
 10
34.08938894881172
 20
-0.6215788290927783
 30
0.0
 10
34.00111714027599
 20
-0.5892433152190457
 30
0.0
  0
SPLINE
  5
D4
330
1F
100
AcDbEntity
  8
외형선
  6
Continuous
 62
     1
370
    15
100
AcDbSpline
210
0.0
220
0.0
230
1.0
 70
     8
 71
     3
 72
    10
 73
     6
 74
     0
 42
0.000000001
 43
0.00000001
 40
0.0
 40
0.0
 40
0.0
 40
0.0
 40
0.5
 40
0.5
 40
1.0
 40
1.0
 40
1.0
 40
1.0
 10
33.89149927296117
 20
2.244176787418241
 30
0.0
 10
33.9842917943792
 20
2.201110680175575
 30
0.0
 10
34.09714911213599
 20
2.159309920239555
 30
0.0
 10
34.32214582247041
 20
2.08332280341617
 30
0.0
 10
34.42925742276498
 20
2.050618546859331
 30
0.0
 10
34.51763465115479
 20
2.028083257967566
 30
0.0
  0
SPLINE
  5
D5
330
1F
100
AcDbEntity
  8
외형선
  6
Continuous
 62
     1
370
    15
100
AcDbSpline
210
0.0
220
0.0
230
1.0
 70
     8
 71
     3
 72
     8
 73
     4
 74
     0
 42
0.000000001
 43
0.00000001
 40
0.0
 40
0.0
 40
0.0
 40
0.0
 40
1.0
 40
1.0
 40
1.0
 40
1.0
 10
33.73528554360911
 20
2.306786415536198
 30
0.0
 10
33.54111300459343
 20
2.373804504390357
 30
0.0
 10
33.34695513817738
 20
2.440452111970104
 30
0.0
 10
33.15297365663498
 20
2.506674087547669
 30
0.0
  0
SPLINE
  5
D6
330
1F
100
AcDbEntity
  8
외형선
  6
Continuous
 62
     1
370
    15
100
AcDbSpline
210
0.0
220
0.0
230
1.0
 70
     8
 71
     3
 72
     8
 73
     4
 74
     0
 42
0.000000001
 43
0.00000001
 40
0.0
 40
0.0
 40
0.0
 40
0.0
 40
1.0
 40
1.0
 40
1.0
 40
1.0
 10
33.84442166730896
 20
-0.5324977529025577
 30
0.0
 10
33.6504154239388
 20
-0.4626189526035405
 30
0.0
 10
33.4563935354763
 20
-0.3925811386154593
 30
0.0
 10
33.26251738321311
 20
-0.3224426689880361
 30
0.0
  0
SPLINE
  5
E3
330
1F
100
AcDbEntity
  8
외형선
  6
Continuous
 62
     1
370
    15
100
AcDbSpline
210
0.0
220
0.0
230
1.0
 70
     8
 71
     3
 72
     8
 73
     4
 74
     0
 42
0.000000001
 43
0.00000001
 40
0.0
 40
0.0
 40
0.0
 40
0.0
 40
1.0
 40
1.0
 40
1.0
 40
1.0
 10
28.81484934384161
 20
-4.872615496987517
 30
0.0
 10
28.85960294455951
 20
-4.913314093047957
 30
0.0
 10
28.91468893101362
 20
-4.941686339646798
 30
0.0
 10
28.97153347011699
 20
-4.95325984988637
 30
0.0
  0
SPLINE
  5
E4
330
1F
100
AcDbEntity
  8
외형선
  6
Continuous
 62
     1
370
    15
100
AcDbSpline
210
0.0
220
0.0
230
1.0
 70
     8
 71
     3
 72
    10
 73
     6
 74
     0
 42
0.000000001
 43
0.00000001
 40
0.0
 40
0.0
 40
0.0
 40
0.0
 40
0.5
 40
0.5
 40
1.0
 40
1.0
 40
1.0
 40
1.0
 10
28.18931218419719
 20
-4.741331290593466
 30
0.0
 10
28.28202144607824
 20
-4.696521453844219
 30
0.0
 10
28.39478632421499
 20
-4.686997097620992
 30
0.0
 10
28.61959041445414
 20
-4.735881337587519
 30
0.0
 10
28.72659258216283
 20
-4.792355445605072
 30
0.0
 10
28.8148493438416
 20
-4.872615496987508
 30
0.0
  0
SPLINE
  5
E5
330
1F
100
AcDbEntity
  8
외형선
  6
Continuous
 62
     1
370
    15
100
AcDbSpline
210
0.0
220
0.0
230
1.0
 70
     8
 71
     3
 72
    17
 73
    13
 74
     0
 42
0.000000001
 43
0.00000001
 40
0.0
 40
0.0
 40
0.0
 40
0.0
 40
0.0000438686565989
 40
0.0000438686565989
 40
0.0000438686565989
 40
0.000087753179696
 40
0.000087753179696
 40
0.000087753179696
 40
0.0001306978134838
 40
0.0001306978134838
 40
0.0001306978134838
 40
0.0001749261713518
 40
0.0001749261713518
 40
0.0001749261713518
 40
0.0001749261713518
 10
28.03321072216977
 20
-4.755025259954548
 30
0.0
 10
28.0469527599973
 20
-4.758032857469963
 30
0.0
 10
28.06078850806602
 20
-4.760074337994685
 30
0.0
 10
28.07447125587261
 20
-4.761078384921546
 30
0.0
 10
28.088156896568
 20
-4.762082644130043
 30
0.0
 10
28.10177511772214
 20
-4.762054469424367
 30
0.0
 10
28.11505940463241
 20
-4.760945873848519
 30
0.0
 10
28.12805852543887
 20
-4.759861075852716
 30
0.0
 10
28.14082280057545
 20
-4.757733661226447
 30
0.0
 10
28.15308299081917
 20
-4.75455141028874
 30
0.0
 10
28.16570395375557
 20
-4.751275517309861
 30
0.0
 10
28.17788354186634
 20
-4.746855178789352
 30
0.0
 10
28.18931218419798
 20
-4.741331290595783
 30
0.0
  0
SPLINE
  5
E6
330
1F
100
AcDbEntity
  8
외형선
  6
Continuous
 62
     1
370
    15
100
AcDbSpline
210
0.0
220
0.0
230
1.0
 70
     8
 71
     3
 72
     8
 73
     4
 74
     0
 42
0.000000001
 43
0.00000001
 40
0.0
 40
0.0
 40
0.0
 40
0.0
 40
1.0
 40
1.0
 40
1.0
 40
1.0
 10
28.03321072216862
 20
-4.755025259952959
 30
0.0
 10
27.83947584256308
 20
-4.712624231090753
 30
0.0
 10
27.64554877217616
 20
-4.669271988252611
 30
0.0
 10
27.4515906417601
 20
-4.62500350589804
 30
0.0
  0
SPLINE
  5
E7
330
1F
100
AcDbEntity
  8
외형선
  6
Continuous
 62
     1
370
    15
100
AcDbSpline
210
0.0
220
0.0
230
1.0
 70
     8
 71
     3
 72
     8
 73
     4
 74
     0
 42
0.000000001
 43
0.00000001
 40
0.0
 40
0.0
 40
0.0
 40
0.0
 40
1.0
 40
1.0
 40
1.0
 40
1.0
 10
27.29486319107878
 20
-4.542728256811263
 30
0.0
 10
27.3396290936731
 20
-4.583086126528944
 30
0.0
 10
27.39473027778445
 20
-4.61202584925977
 30
0.0
 10
27.45159064176944
 20
-4.625003505903379
 30
0.0
  0
SPLINE
  5
E8
330
1F
100
AcDbEntity
  8
외형선
  6
Continuous
 62
     1
370
    15
100
AcDbSpline
210
0.0
220
0.0
230
1.0
 70
     8
 71
     3
 72
    10
 73
     6
 74
     0
 42
0.000000001
 43
0.00000001
 40
0.0
 40
0.0
 40
0.0
 40
0.0
 40
0.5
 40
0.5
 40
1.0
 40
1.0
 40
1.0
 40
1.0
 10
26.66909183967417
 20
-4.396190047651116
 30
0.0
 10
26.76182205653414
 20
-4.356820813276261
 30
0.0
 10
26.87460908160198
 20
-4.351431043063962
 30
0.0
 10
27.09948898779189
 20
-4.405577079965486
 30
0.0
 10
27.20655298544189
 20
-4.463113827808604
 30
0.0
 10
27.29486319107877
 20
-4.542728256811261
 30
0.0
  0
SPLINE
  5
E9
330
1F
100
AcDbEntity
  8
외형선
  6
Continuous
 62
     1
370
    15
100
AcDbSpline
210
0.0
220
0.0
230
1.0
 70
     8
 71
     3
 72
    17
 73
    13
 74
     0
 42
0.000000001
 43
0.00000001
 40
0.0
 40
0.0
 40
0.0
 40
0.0
 40
0.0000438684605301
 40
0.0000438684605301
 40
0.0000438684605301
 40
0.0000877528428362
 40
0.0000877528428362
 40
0.0000877528428362
 40
0.0001307228487983
 40
0.0001307228487983
 40
0.0001307228487983
 40
0.0001749782852694
 40
0.0001749782852694
 40
0.0001749782852694
 40
0.0001749782852694
 10
26.51293864784845
 20
-4.403669841590721
 30
0.0
 10
26.5266800899244
 20
-4.407014096360948
 30
0.0
 10
26.54051532136192
 20
-4.409446009583987
 30
0.0
 10
26.55419799184612
 20
-4.410888006775148
 30
0.0
 10
26.56788356532075
 20
-4.412330309908342
 30
0.0
 10
26.58150205265558
 20
-4.412790478307438
 30
0.0
 10
26.59478717868692
 20
-4.412211792606414
 30
0.0
 10
26.60779478004963
 20
-4.411645195579374
 30
0.0
 10
26.62056776512269
 20
-4.410078018111672
 30
0.0
 10
26.63283648383494
 20
-4.407487084908824
 30
0.0
 10
26.64546647583781
 20
-4.40481985727084
 30
0.0
 10
26.65765501695031
 20
-4.401045627307886
 30
0.0
 10
26.66909183967497
 20
-4.396190047653369
 30
0.0
  0
SPLINE
  5
EA
330
1F
100
AcDbEntity
  8
외형선
  6
Continuous
 62
     1
370
    15
100
AcDbSpline
210
0.0
220
0.0
230
1.0
 70
     8
 71
     3
 72
     8
 73
     4
 74
     0
 42
0.000000001
 43
0.00000001
 40
0.0
 40
0.0
 40
0.0
 40
0.0
 40
1.0
 40
1.0
 40
1.0
 40
1.0
 10
26.51293864784832
 20
-4.40366984158941
 30
0.0
 10
26.31861539813937
 20
-4.356377392135183
 30
0.0
 10
26.12452289430001
 20
-4.308225504422215
 30
0.0
 10
25.93082253280796
 20
-4.25925715426771
 30
0.0
  0
SPLINE
  5
EB
330
1F
100
AcDbEntity
  8
외형선
  6
Continuous
 62
     1
370
    15
100
AcDbSpline
210
0.0
220
0.0
230
1.0
 70
     8
 71
     3
 72
     8
 73
     4
 74
     0
 42
0.000000001
 43
0.00000001
 40
0.0
 40
0.0
 40
0.0
 40
0.0
 40
1.0
 40
1.0
 40
1.0
 40
1.0
 10
25.77429730837344
 20
-4.175764578869672
 30
0.0
 10
25.81908877080317
 20
-4.215563704134711
 30
0.0
 10
25.87421017278145
 20
-4.24494553665033
 30
0.0
 10
25.93109305170745
 20
-4.25932554210865
 30
0.0
  0
SPLINE
  5
EC
330
1F
100
AcDbEntity
  8
외형선
  6
Continuous
 62
     1
370
    15
100
AcDbSpline
210
0.0
220
0.0
230
1.0
 70
     8
 71
     3
 72
    10
 73
     6
 74
     0
 42
0.000000001
 43
0.00000001
 40
0.0
 40
0.0
 40
0.0
 40
0.0
 40
0.5
 40
0.5
 40
1.0
 40
1.0
 40
1.0
 40
1.0
 10
25.14830790215612
 20
-4.014347434329649
 30
0.0
 10
25.24109510499503
 20
-3.980750399329288
 30
0.0
 10
25.35394084926121
 20
-3.979644431221905
 30
0.0
 10
25.5788831431902
 20
-4.038934870184963
 30
0.0
 10
25.68595370981072
 20
-4.097267522626449
 30
0.0
 10
25.77429730837344
 20
-4.17576457886967
 30
0.0
  0
SPLINE
  5
ED
330
1F
100
AcDbEntity
  8
외형선
  6
Continuous
 62
     1
370
    15
100
AcDbSpline
210
0.0
220
0.0
230
1.0
 70
     8
 71
     3
 72
    17
 73
    13
 74
     0
 42
0.000000001
 43
0.00000001
 40
0.0
 40
0.0
 40
0.0
 40
0.0
 40
0.0000438682830362
 40
0.0000438682830362
 40
0.0000438682830362
 40
0.0000877524648541
 40
0.0000877524648541
 40
0.0000877524648541
 40
0.0001307463798639
 40
0.0001307463798639
 40
0.0001307463798639
 40
0.0001750266201916
 40
0.0001750266201916
 40
0.0001750266201916
 40
0.0001750266201916
 10
24.99211537620785
 20
-4.015515372640446
 30
0.0
 10
25.00585653950141
 20
-4.019171302383594
 30
0.0
 10
25.01969121903358
 20
-4.021976068290296
 30
0.0
 10
25.03337341543141
 20
-4.023846587870623
 30
0.0
 10
25.0470585101677
 20
-4.025717503688419
 30
0.0
 10
25.06067648174357
 20
-4.026664687032231
 30
0.0
 10
25.0739614363585
 20
-4.026623201700801
 30
0.0
 10
25.08697611343336
 20
-4.026582560373257
 30
0.0
 10
25.09975616553895
 20
-4.025591864914417
 30
0.0
 10
25.11203178961389
 20
-4.023617063845068
 30
0.0
 10
25.12466892739807
 20
-4.021584105434371
 30
0.0
 10
25.13686451467667
 20
-4.018490935568355
 30
0.0
 10
25.14830790215693
 20
-4.014347434331899
 30
0.0
  0
SPLINE
  5
EE
330
1F
100
AcDbEntity
  8
외형선
  6
Continuous
 62
     1
370
    15
100
AcDbSpline
210
0.0
220
0.0
230
1.0
 70
     8
 71
     3
 72
     8
 73
     4
 74
     0
 42
0.000000001
 43
0.00000001
 40
0.0
 40
0.0
 40
0.0
 40
0.0
 40
1.0
 40
1.0
 40
1.0
 40
1.0
 10
24.99211537620775
 20
-4.015515372639209
 30
0.0
 10
24.79821999246078
 20
-3.963928190000038
 30
0.0
 10
24.60408107729955
 20
-3.91151678419603
 30
0.0
 10
24.40986026578148
 20
-3.85832351926048
 30
0.0
  0
SPLINE
  5
EF
330
1F
100
AcDbEntity
  8
외형선
  6
Continuous
 62
     1
370
    15
100
AcDbSpline
210
0.0
220
0.0
230
1.0
 70
     8
 71
     3
 72
     8
 73
     4
 74
     0
 42
0.000000001
 43
0.00000001
 40
0.0
 40
0.0
 40
0.0
 40
0.0
 40
1.0
 40
1.0
 40
1.0
 40
1.0
 10
24.25330111786762
 20
-3.774474774935308
 30
0.0
 10
24.29810413687978
 20
-3.813317321989315
 30
0.0
 10
24.35323923248444
 20
-3.842816336544213
 30
0.0
 10
24.41013079096876
 20
-3.858397610306848
 30
0.0
  0
SPLINE
  5
F0
330
1F
100
AcDbEntity
  8
외형선
  6
Continuous
 62
     1
370
    15
100
AcDbSpline
210
0.0
220
0.0
230
1.0
 70
     8
 71
     3
 72
    10
 73
     6
 74
     0
 42
0.000000001
 43
0.00000001
 40
0.0
 40
0.0
 40
0.0
 40
0.0
 40
0.5000000000000002
 40
0.5000000000000002
 40
1.0
 40
1.0
 40
1.0
 40
1.0
 10
23.62720913273962
 20
-3.6003465905228
 30
0.0
 10
23.71999133013147
 20
-3.57272642840861
 30
0.0
 10
23.83283598127113
 20
-3.575764885589337
 30
0.0
 10
24.05781600457283
 20
-3.639381137314708
 30
0.0
 10
24.16492968882375
 20
-3.697860040782436
 30
0.0
 10
24.25330111786768
 20
-3.77447477493544
 30
0.0
  0
SPLINE
  5
F1
330
1F
100
AcDbEntity
  8
외형선
  6
Continuous
 62
     1
370
    15
100
AcDbSpline
210
0.0
220
0.0
230
1.0
 70
     8
 71
     3
 72
    17
 73
    13
 74
     0
 42
0.000000001
 43
0.00000001
 40
0.0
 40
0.0
 40
0.0
 40
0.0
 40
0.0000438682540103
 40
0.0000438682540103
 40
0.0000438682540103
 40
0.0000877524443127
 40
0.0000877524443127
 40
0.0000877524443127
 40
0.0001307496444713
 40
0.0001307496444713
 40
0.0001307496444713
 40
0.0001750336852821
 40
0.0001750336852821
 40
0.0001750336852821
 40
0.0001750336852821
 10
23.47099492657396
 20
-3.595274109227862
 30
0.0
 10
23.48473701034306
 20
-3.599210928133342
 30
0.0
 10
23.49857274333258
 20
-3.602362972994836
 30
0.0
 10
23.51225614541848
 20
-3.604642206899112
 30
0.0
 10
23.52594245309403
 20
-3.606921924785253
 30
0.0
 10
23.53956178836671
 20
-3.608341965675259
 30
0.0
 10
23.55284820016373
 20
-3.608829797297306
 30
0.0
 10
23.56586528621848
 20
-3.609307740198776
 30
0.0
 10
23.57864781707197
 20
-3.608893114024248
 30
0.0
 10
23.59092581396856
 20
-3.607541645556865
 30
0.0
 10
23.60356550817651
 20
-3.606150364201829
 30
0.0
 10
23.61576357648857
 20
-3.603753797167732
 30
0.0
 10
23.62720913274008
 20
-3.600346590526498
 30
0.0
  0
SPLINE
  5
F2
330
1F
100
AcDbEntity
  8
외형선
  6
Continuous
 62
     1
370
    15
100
AcDbSpline
210
0.0
220
0.0
230
1.0
 70
     8
 71
     3
 72
     8
 73
     4
 74
     0
 42
0.000000001
 43
0.00000001
 40
0.0
 40
0.0
 40
0.0
 40
0.0
 40
1.0
 40
1.0
 40
1.0
 40
1.0
 10
23.47099492657394
 20
-3.595274109226772
 30
0.0
 10
23.27664413419399
 20
-3.539596681655255
 30
0.0
 10
23.08247316328166
 20
-3.483209091497168
 30
0.0
 10
22.88864365709056
 20
-3.426160323453234
 30
0.0
  0
SPLINE
  5
F3
330
1F
100
AcDbEntity
  8
외형선
  6
Continuous
 62
     1
370
    15
100
AcDbSpline
210
0.0
220
0.0
230
1.0
 70
     8
 71
     3
 72
     8
 73
     4
 74
     0
 42
0.000000001
 43
0.00000001
 40
0.0
 40
0.0
 40
0.0
 40
0.0
 40
1.0
 40
1.0
 40
1.0
 40
1.0
 10
22.732056093269
 20
-3.342326527488919
 30
0.0
 10
22.77686962195937
 20
-3.380004975300482
 30
0.0
 10
22.83201221651692
 20
-3.409492511950839
 30
0.0
 10
22.88891434443085
 20
-3.426239992870716
 30
0.0
  0
SPLINE
  5
F4
330
1F
100
AcDbEntity
  8
외형선
  6
Continuous
 62
     1
370
    15
100
AcDbSpline
210
0.0
220
0.0
230
1.0
 70
     8
 71
     3
 72
    10
 73
     6
 74
     0
 42
0.000000001
 43
0.00000001
 40
0.0
 40
0.0
 40
0.0
 40
0.0
 40
0.5
 40
0.5
 40
1.0
 40
1.0
 40
1.0
 40
1.0
 10
22.10587340639259
 20
-3.155708550165273
 30
0.0
 10
22.19869189045863
 20
-3.134365169915749
 30
0.0
 10
22.31156747245315
 20
-3.141705516890451
 30
0.0
 10
22.53655703425214
 20
-3.209603226564526
 30
0.0
 10
22.64366378137199
 20
-3.26800778473234
 30
0.0
 10
22.73205609326899
 20
-3.342326527488921
 30
0.0
  0
SPLINE
  5
F5
330
1F
100
AcDbEntity
  8
외형선
  6
Continuous
 62
     1
370
    15
100
AcDbSpline
210
0.0
220
0.0
230
1.0
 70
     8
 71
     3
 72
    17
 73
    13
 74
     0
 42
0.000000001
 43
0.00000001
 40
0.0
 40
0.0
 40
0.0
 40
0.0
 40
0.0000438681192727
 40
0.0000438681192727
 40
0.0000438681192727
 40
0.0000877521444623
 40
0.0000877521444623
 40
0.0000877521444623
 40
0.000130768160566
 40
0.000130768160566
 40
0.000130768160566
 40
0.0001750716229524
 40
0.0001750716229524
 40
0.0001750716229524
 40
0.0001750716229524
 10
21.94964622559406
 20
-3.144307009437129
 30
0.0
 10
21.96338640936995
 20
-3.148501560029576
 30
0.0
 10
21.97722002507981
 20
-3.15198481448936
 30
0.0
 10
21.99090140013515
 20
-3.15466447707092
 30
0.0
 10
22.00458567447006
 20
-3.157344707511404
 30
0.0
 10
22.018202966271
 20
-3.159237048264567
 30
0.0
 10
22.0314876805682
 20
-3.160261781877734
 30
0.0
 10
22.04450880731997
 20
-3.161266183324792
 30
0.0
 10
22.0572954311374
 20
-3.161442784836682
 30
0.0
 10
22.06957752253613
 20
-3.160737012120269
 30
0.0
 10
22.08222143400787
 20
-3.16001044793378
 30
0.0
 10
22.09442376350957
 20
-3.158341367156662
 30
0.0
 10
22.10587340639341
 20
-3.155708550167196
 30
0.0
  0
SPLINE
  5
F6
330
1F
100
AcDbEntity
  8
외형선
  6
Continuous
 62
     1
370
    15
100
AcDbSpline
210
0.0
220
0.0
230
1.0
 70
     8
 71
     3
 72
     8
 73
     4
 74
     0
 42
0.000000001
 43
0.00000001
 40
0.0
 40
0.0
 40
0.0
 40
0.0
 40
1.0
 40
1.0
 40
1.0
 40
1.0
 10
21.94964622559412
 20
-3.144307009436148
 30
0.0
 10
21.75576211271161
 20
-3.085118811241587
 30
0.0
 10
21.56158371751668
 20
-3.025258785270363
 30
0.0
 10
21.36727274069496
 20
-2.964775500969063
 30
0.0
  0
SPLINE
  5
F7
330
1F
100
AcDbEntity
  8
외형선
  6
Continuous
 62
     1
370
    15
100
AcDbSpline
210
0.0
220
0.0
230
1.0
 70
     8
 71
     3
 72
     8
 73
     4
 74
     0
 42
0.000000001
 43
0.00000001
 40
0.0
 40
0.0
 40
0.0
 40
0.0
 40
1.0
 40
1.0
 40
1.0
 40
1.0
 10
21.21068756851623
 20
-2.88184369504884
 30
0.0
 10
21.25550015148247
 20
-2.9179864426643
 30
0.0
 10
21.3106440921574
 20
-2.947148828301343
 30
0.0
 10
21.36754335863463
 20
-2.964859735989733
 30
0.0
  0
SPLINE
  5
F8
330
1F
100
AcDbEntity
  8
외형선
  6
Continuous
 62
     1
370
    15
100
AcDbSpline
210
0.0
220
0.0
230
1.0
 70
     8
 71
     3
 72
    10
 73
     6
 74
     0
 42
0.000000001
 43
0.00000001
 40
0.0
 40
0.0
 40
0.0
 40
0.0
 40
0.5
 40
0.5
 40
1.0
 40
1.0
 40
1.0
 40
1.0
 10
20.58454186721568
 20
-2.685444544500002
 30
0.0
 10
20.67733268651014
 20
-2.670418266378911
 30
0.0
 10
20.79018839824634
 20
-2.681777757456646
 30
0.0
 10
21.01518686672654
 20
-2.752916803649613
 30
0.0
 10
21.12230554082801
 20
-2.81056082963389
 30
0.0
 10
21.21068756851622
 20
-2.881843695048835
 30
0.0
  0
SPLINE
  5
F9
330
1F
100
AcDbEntity
  8
외형선
  6
Continuous
 62
     1
370
    15
100
AcDbSpline
210
0.0
220
0.0
230
1.0
 70
     8
 71
     3
 72
    17
 73
    13
 74
     0
 42
0.000000001
 43
0.00000001
 40
0.0
 40
0.0
 40
0.0
 40
0.0
 40
0.0000438682596679
 40
0.0000438682596679
 40
0.0000438682596679
 40
0.0000877524450654
 40
0.0000877524450654
 40
0.0000877524450654
 40
0.0001307492602066
 40
0.0001307492602066
 40
0.0001307492602066
 40
0.0001750328248345
 40
0.0001750328248345
 40
0.0001750328248345
 40
0.0001750328248345
 10
20.42832391497839
 20
-2.667983156696899
 30
0.0
 10
20.44206652949257
 20
-2.672393290600559
 30
0.0
 10
20.45590276437242
 20
-2.676169311420392
 30
0.0
 10
20.46958662103863
 20
-2.679215377047526
 30
0.0
 10
20.48327338139785
 20
-2.682262089045031
 30
0.0
 10
20.4968931260315
 20
-2.684596938756905
 30
0.0
 10
20.51017990166557
 20
-2.686133908176275
 30
0.0
 10
20.52319723063513
 20
-2.687639708913724
 30
0.0
 10
20.53597996511506
 20
-2.688388726551088
 30
0.0
 10
20.54825813972812
 20
-2.688317222755671
 30
0.0
 10
20.56089799478326
 20
-2.688243612659835
 30
0.0
 10
20.57309619457238
 20
-2.68729802377628
 30
0.0
 10
20.58454186721649
 20
-2.685444544501757
 30
0.0
  0
SPLINE
  5
FA
330
1F
100
AcDbEntity
  8
외형선
  6
Continuous
 62
     1
370
    15
100
AcDbSpline
210
0.0
220
0.0
230
1.0
 70
     8
 71
     3
 72
     8
 73
     4
 74
     0
 42
0.000000001
 43
0.00000001
 40
0.0
 40
0.0
 40
0.0
 40
0.0
 40
1.0
 40
1.0
 40
1.0
 40
1.0
 10
20.42832391497858
 20
-2.667983156696026
 30
0.0
 10
20.23402892407293
 20
-2.605632071622642
 30
0.0
 10
20.03986300141148
 20
-2.542740545591761
 30
0.0
 10
19.84598781910583
 20
-2.479362202434505
 30
0.0
  0
SPLINE
  5
FB
330
1F
100
AcDbEntity
  8
외형선
  6
Continuous
 62
     1
370
    15
100
AcDbSpline
210
0.0
220
0.0
230
1.0
 70
     8
 71
     3
 72
     8
 73
     4
 74
     0
 42
0.000000001
 43
0.00000001
 40
0.0
 40
0.0
 40
0.0
 40
0.0
 40
1.0
 40
1.0
 40
1.0
 40
1.0
 10
19.68941440919394
 20
-2.39775423545806
 30
0.0
 10
19.73422210859928
 20
-2.432158809603226
 30
0.0
 10
19.78936050240128
 20
-2.460850731386413
 30
0.0
 10
19.84625808404866
 20
-2.47945055243085
 30
0.0
  0
SPLINE
  5
FC
330
1F
100
AcDbEntity
  8
외형선
  6
Continuous
 62
     1
370
    15
100
AcDbSpline
210
0.0
220
0.0
230
1.0
 70
     8
 71
     3
 72
    10
 73
     6
 74
     0
 42
0.000000001
 43
0.00000001
 40
0.0
 40
0.0
 40
0.0
 40
0.0
 40
0.5
 40
0.5
 40
1.0
 40
1.0
 40
1.0
 40
1.0
 10
19.06331315880575
 20
-2.19174358885323
 30
0.0
 10
19.15611272604209
 20
-2.183307452998102
 30
0.0
 10
19.26895634437879
 20
-2.198876339996317
 30
0.0
 10
19.49391856882423
 20
-2.27323497959735
 30
0.0
 10
19.60103065555718
 20
-2.3298907779367
 30
0.0
 10
19.68941440919395
 20
-2.397754235458078
 30
0.0
  0
SPLINE
  5
FD
330
1F
100
AcDbEntity
  8
외형선
  6
Continuous
 62
     1
370
    15
100
AcDbSpline
210
0.0
220
0.0
230
1.0
 70
     8
 71
     3
 72
    17
 73
    13
 74
     0
 42
0.000000001
 43
0.00000001
 40
0.0
 40
0.0
 40
0.0
 40
0.0
 40
0.0000438681687248
 40
0.0000438681687248
 40
0.0000438681687248
 40
0.0000877522255522
 40
0.0000877522255522
 40
0.0000877522255522
 40
0.0001307625656559
 40
0.0001307625656559
 40
0.0001307625656559
 40
0.000175059963122
 40
0.000175059963122
 40
0.000175059963122
 40
0.000175059963122
 10
18.90710898358964
 20
-2.168122903232085
 30
0.0
 10
18.9208480782378
 20
-2.172729777236376
 30
0.0
 10
18.93468063205088
 20
-2.176786161257106
 30
0.0
 10
18.94836090861759
 20
-2.180193287037691
 30
0.0
 10
18.9620440809341
 20
-2.183601134015964
 30
0.0
 10
18.97566025323224
 20
-2.186380153572012
 30
0.0
 10
18.98894380105203
 20
-2.188438333713596
 30
0.0
 10
19.00196207154935
 20
-2.190455411242797
 30
0.0
 10
19.01474585979803
 20
-2.19179262025373
 30
0.0
 10
19.02702525374598
 20
-2.192376786343582
 30
0.0
 10
19.03966633073498
 20
-2.192978158736021
 30
0.0
 10
19.05186594005731
 20
-2.19278422185993
 30
0.0
 10
19.06331315880619
 20
-2.191743588854858
 30
0.0
  0
SPLINE
  5
FE
330
1F
100
AcDbEntity
  8
외형선
  6
Continuous
 62
     1
370
    15
100
AcDbSpline
210
0.0
220
0.0
230
1.0
 70
     8
 71
     3
 72
     8
 73
     4
 74
     0
 42
0.000000001
 43
0.00000001
 40
0.0
 40
0.0
 40
0.0
 40
0.0
 40
1.0
 40
1.0
 40
1.0
 40
1.0
 10
18.90710898358974
 20
-2.168122903231308
 30
0.0
 10
18.71331961610678
 20
-2.103143134023251
 30
0.0
 10
18.51918536715694
 20
-2.037663803597058
 30
0.0
 10
18.32486778509045
 20
-1.971738356681489
 30
0.0
  0
SPLINE
  5
FF
330
1F
100
AcDbEntity
  8
외형선
  6
Continuous
 62
     1
370
    15
100
AcDbSpline
210
0.0
220
0.0
230
1.0
 70
     8
 71
     3
 72
     8
 73
     4
 74
     0
 42
0.000000001
 43
0.00000001
 40
0.0
 40
0.0
 40
0.0
 40
0.0
 40
1.0
 40
1.0
 40
1.0
 40
1.0
 10
18.16833338253292
 20
-1.892256084830315
 30
0.0
 10
18.21312765572857
 20
-1.924594881773845
 30
0.0
 10
18.26825506847246
 20
-1.952531662195708
 30
0.0
 10
18.3251382687083
 20
-1.971830122467108
 30
0.0
  0
SPLINE
  5
100
330
1F
100
AcDbEntity
  8
외형선
  6
Continuous
 62
     1
370
    15
100
AcDbSpline
210
0.0
220
0.0
230
1.0
 70
     8
 71
     3
 72
    10
 73
     6
 74
     0
 42
0.000000001
 43
0.00000001
 40
0.0
 40
0.0
 40
0.0
 40
0.0
 40
0.5
 40
0.5
 40
1.0
 40
1.0
 40
1.0
 40
1.0
 10
17.54240270632264
 20
-1.679613801038502
 30
0.0
 10
17.63515852936303
 20
-1.677630635491314
 30
0.0
 10
17.74797936239148
 20
-1.696948534082363
 30
0.0
 10
17.9729121383363
 20
-1.773426407086564
 30
0.0
 10
18.07999179520878
 20
-1.828478721112288
 30
0.0
 10
18.16833338253353
 20
-1.892256084832102
 30
0.0
  0
SPLINE
  5
101
330
1F
100
AcDbEntity
  8
외형선
  6
Continuous
 62
     1
370
    15
100
AcDbSpline
210
0.0
220
0.0
230
1.0
 70
     8
 71
     3
 72
    17
 73
    13
 74
     0
 42
0.000000001
 43
0.00000001
 40
0.0
 40
0.0
 40
0.0
 40
0.0
 40
0.0000438684779345
 40
0.0000438684779345
 40
0.0000438684779345
 40
0.0000877528460282
 40
0.0000877528460282
 40
0.0000877528460282
 40
0.0001307216301679
 40
0.0001307216301679
 40
0.0001307216301679
 40
0.0001749755686096
 40
0.0001749755686096
 40
0.0001749755686096
 40
0.0001749755686096
 10
17.38623837570614
 20
-1.650311607274382
 30
0.0
 10
17.39998141482355
 20
-1.655061434839022
 30
0.0
 10
17.41381815667932
 20
-1.659346655494015
 30
0.0
 10
17.42750219462803
 20
-1.663066424693753
 30
0.0
 10
17.44118912989189
 20
-1.666786981478538
 30
0.0
 10
17.45480884833237
 20
-1.669964617912167
 30
0.0
 10
17.46809506722265
 20
-1.672502423922161
 30
0.0
 10
17.48110337776305
 20
-1.674987146546549
 30
0.0
 10
17.49387695364984
 20
-1.676874135871602
 30
0.0
 10
17.50614618553189
 20
-1.678082365871638
 30
0.0
 10
17.51877663934049
 20
-1.679326167712889
 30
0.0
 10
17.53096555401561
 20
-1.679858333034423
 30
0.0
 10
17.54240270632345
 20
-1.679613801039908
 30
0.0
  0
SPLINE
  5
102
330
1F
100
AcDbEntity
  8
외형선
  6
Continuous
 62
     1
370
    15
100
AcDbSpline
210
0.0
220
0.0
230
1.0
 70
     8
 71
     3
 72
     8
 73
     4
 74
     0
 42
0.000000001
 43
0.00000001
 40
0.0
 40
0.0
 40
0.0
 40
0.0
 40
1.0
 40
1.0
 40
1.0
 40
1.0
 10
17.3862383757063
 20
-1.650311607273776
 30
0.0
 10
17.19208219969499
 20
-1.58320793764256
 30
0.0
 10
16.99800424359311
 20
-1.515748687118538
 30
0.0
 10
16.80416599235016
 20
-1.44799061245843
 30
0.0
  0
SPLINE
  5
103
330
1F
100
AcDbEntity
  8
외형선
  6
Continuous
 62
     1
370
    15
100
AcDbSpline
210
0.0
220
0.0
230
1.0
 70
     8
 71
     3
 72
     8
 73
     4
 74
     0
 42
0.000000001
 43
0.00000001
 40
0.0
 40
0.0
 40
0.0
 40
0.0
 40
1.0
 40
1.0
 40
1.0
 40
1.0
 10
16.64768374883679
 20
-1.371110562736683
 30
0.0
 10
16.69245793376374
 20
-1.40118812505875
 30
0.0
 10
16.74756691801631
 20
-1.42820595126924
 30
0.0
 10
16.804436336849
 20
-1.448085113800882
 30
0.0
  0
SPLINE
  5
104
330
1F
100
AcDbEntity
  8
외형선
  6
Continuous
 62
     1
370
    15
100
AcDbSpline
210
0.0
220
0.0
230
1.0
 70
     8
 71
     3
 72
    10
 73
     6
 74
     0
 42
0.000000001
 43
0.00000001
 40
0.0
 40
0.0
 40
0.0
 40
0.0
 40
0.5
 40
0.5
 40
1.0
 40
1.0
 40
1.0
 40
1.0
 10
16.02193574375461
 20
-1.152158784135886
 30
0.0
 10
16.11466740100243
 20
-1.156874007598323
 30
0.0
 10
16.2274450871173
 20
-1.180112226319286
 30
0.0
 10
16.45230303177684
 20
-1.258591894970169
 30
0.0
 10
16.55936450050398
 20
-1.311781114298885
 30
0.0
 10
16.64768374883678
 20
-1.371110562736675
 30
0.0
  0
SPLINE
  5
105
330
1F
100
AcDbEntity
  8
외형선
  6
Continuous
 62
     1
370
    15
100
AcDbSpline
210
0.0
220
0.0
230
1.0
 70
     8
 71
     3
 72
    17
 73
    13
 74
     0
 42
0.000000001
 43
0.00000001
 40
0.0
 40
0.0
 40
0.0
 40
0.0
 40
0.0000438684284041
 40
0.0000438684284041
 40
0.0000438684284041
 40
0.0000877527026133
 40
0.0000877527026133
 40
0.0000877527026133
 40
0.0001307299941544
 40
0.0001307299941544
 40
0.0001307299941544
 40
0.0001749924682586
 40
0.0001749924682586
 40
0.0001749924682586
 40
0.0001749924682586
 10
15.86581152141488
 20
-1.117049495907153
 30
0.0
 10
15.8795494053617
 20
-1.121929798033593
 30
0.0
 10
15.89338088581573
 20
-1.126436817037195
 30
0.0
 10
15.90705977777857
 20
-1.130468163398739
 30
0.0
 10
15.9207415575744
 20
-1.134500360842012
 30
0.0
 10
15.93435616439124
 20
-1.138081463280146
 30
0.0
 10
15.94763762082411
 20
-1.141109879285437
 30
0.0
 10
15.96064385516721
 20
-1.144075539599292
 30
0.0
 10
15.97341552882625
 20
-1.146530006924872
 30
0.0
 10
15.98568318583844
 20
-1.148383929773533
 30
0.0
 10
15.99831195226124
 20
-1.15029242449248
 30
0.0
 10
16.01049950963109
 20
-1.151577273991923
 30
0.0
 10
16.0219357437554
 20
-1.152158784137095
 30
0.0
  0
SPLINE
  5
106
330
1F
100
AcDbEntity
  8
외형선
  6
Continuous
 62
     1
370
    15
100
AcDbSpline
210
0.0
220
0.0
230
1.0
 70
     8
 71
     3
 72
     8
 73
     4
 74
     0
 42
0.000000001
 43
0.00000001
 40
0.0
 40
0.0
 40
0.0
 40
0.0
 40
1.0
 40
1.0
 40
1.0
 40
1.0
 10
15.86581152141509
 20
-1.117049495906662
 30
0.0
 10
15.672289011617
 20
-1.048301767381842
 30
0.0
 10
15.47837126770875
 20
-0.9792415516310699
 30
0.0
 10
15.28421924656702
 20
-0.9099256124123947
 30
0.0
  0
SPLINE
  5
107
330
1F
100
AcDbEntity
  8
외형선
  6
Continuous
 62
     1
370
    15
100
AcDbSpline
210
0.0
220
0.0
230
1.0
 70
     8
 71
     3
 72
     8
 73
     4
 74
     0
 42
0.000000001
 43
0.00000001
 40
0.0
 40
0.0
 40
0.0
 40
0.0
 40
1.0
 40
1.0
 40
1.0
 40
1.0
 10
15.12754037197067
 20
-0.8362246075450724
 30
0.0
 10
15.17228909719039
 20
-0.863772552076673
 30
0.0
 10
15.22737516283951
 20
-0.8896312006635443
 30
0.0
 10
15.28421905155597
 20
-0.909925542790997
 30
0.0
  0
SPLINE
  5
108
330
1F
100
AcDbEntity
  8
외형선
  6
Continuous
 62
     1
370
    15
100
AcDbSpline
210
0.0
220
0.0
230
1.0
 70
     8
 71
     3
 72
    10
 73
     6
 74
     0
 42
0.000000001
 43
0.00000001
 40
0.0
 40
0.0
 40
0.0
 40
0.0
 40
0.5
 40
0.5
 40
1.0
 40
1.0
 40
1.0
 40
1.0
 10
14.5020210995569
 20
-0.6138459027366714
 30
0.0
 10
14.59471402630021
 20
-0.624952380421373
 30
0.0
 10
14.70746356123631
 20
-0.6516292002204058
 30
0.0
 10
14.9322698560999
 20
-0.7311050617372847
 30
0.0
 10
15.03928076381433
 20
-0.7818907515987191
 30
0.0
 10
15.12754037197066
 20
-0.8362246075450779
 30
0.0
  0
SPLINE
  5
109
330
1F
100
AcDbEntity
  8
외형선
  6
Continuous
 62
     1
370
    15
100
AcDbSpline
210
0.0
220
0.0
230
1.0
 70
     8
 71
     3
 72
    17
 73
    13
 74
     0
 42
0.000000001
 43
0.00000001
 40
0.0000000000000001
 40
0.0000000000000001
 40
0.0000000000000001
 40
0.0000000000000001
 40
0.0000438687208186
 40
0.0000438687208186
 40
0.0000438687208186
 40
0.000087753320793
 40
0.000087753320793
 40
0.000087753320793
 40
0.0001306890637112
 40
0.0001306890637112
 40
0.0001306890637112
 40
0.0001749082327482
 40
0.0001749082327482
 40
0.0001749082327482
 40
0.0001749082327482
 10
14.34592228012739
 20
-0.57359902688803
 30
0.0
 10
14.35966557816348
 20
-0.5785447831880305
 30
0.0
 10
14.37350267979746
 20
-0.5832097305559194
 30
0.0
 10
14.38718672078625
 20
-0.5874909720495806
 30
0.0
 10
14.40087365739613
 20
-0.5917731194783472
 30
0.0
 10
14.41449316358479
 20
-0.5956978663327576
 30
0.0
 10
14.42777854998896
 20
-0.5991602055677778
 30
0.0
 10
14.44077605193943
 20
-0.602547518483737
 30
0.0
 10
14.45353866448322
 20
-0.6055139221458369
 30
0.0
 10
14.4657971675412
 20
-0.6079635248119805
 30
0.0
 10
14.47841638917518
 20
-0.6104852094592054
 30
0.0
 10
14.49059419139686
 20
-0.6124767292207954
 30
0.0
 10
14.50202109955769
 20
-0.6138459027376436
 30
0.0
  0
SPLINE
  5
10A
330
1F
100
AcDbEntity
  8
외형선
  6
Continuous
 62
     1
370
    15
100
AcDbSpline
210
0.0
220
0.0
230
1.0
 70
     8
 71
     3
 72
     8
 73
     4
 74
     0
 42
0.000000001
 43
0.00000001
 40
0.0
 40
0.0
 40
0.0
 40
0.0
 40
1.0
 40
1.0
 40
1.0
 40
1.0
 10
14.34592228012764
 20
-0.5735990268876573
 30
0.0
 10
14.15187900680074
 20
-0.5037693004995993
 30
0.0
 10
13.95786281274976
 20
-0.4337780185582699
 30
0.0
 10
13.76403505237075
 20
-0.3636835798152508
 30
0.0
  0
SPLINE
  5
10B
330
1F
100
AcDbEntity
  8
외형선
  6
Continuous
 62
     1
370
    15
100
AcDbSpline
210
0.0
220
0.0
230
1.0
 70
     8
 71
     3
 72
     8
 73
     4
 74
     0
 42
0.000000001
 43
0.00000001
 40
0.0
 40
0.0
 40
0.0
 40
0.0
 40
1.0
 40
1.0
 40
1.0
 40
1.0
 10
13.60757620068624
 20
-0.293834281749717
 30
0.0
 10
13.6523423661991
 20
-0.3186849987036521
 30
0.0
 10
13.70744309889903
 20
-0.3432181305344355
 30
0.0
 10
13.76430490150355
 20
-0.363781165951545
 30
0.0
  0
SPLINE
  5
10C
330
1F
100
AcDbEntity
  8
외형선
  6
Continuous
 62
     1
370
    15
100
AcDbSpline
210
0.0
220
0.0
230
1.0
 70
     8
 71
     3
 72
    10
 73
     6
 74
     0
 42
0.000000001
 43
0.00000001
 40
0.0
 40
0.0
 40
0.0
 40
0.0
 40
0.5
 40
0.5
 40
1.0
 40
1.0
 40
1.0
 40
1.0
 10
12.98179047726433
 20
-0.0685203640876503
 30
0.0
 10
13.07452746436854
 20
-0.0862035035102505
 30
0.0
 10
13.18731340788722
 20
-0.1164099634370767
 30
0.0
 10
13.41218364680401
 20
-0.1966775928641442
 30
0.0
 10
13.51925726474405
 20
-0.2448064310587517
 30
0.0
 10
13.60757620068623
 20
-0.2938342817497223
 30
0.0
  0
SPLINE
  5
10D
330
1F
100
AcDbEntity
  8
외형선
  6
Continuous
 62
     1
370
    15
100
AcDbSpline
210
0.0
220
0.0
230
1.0
 70
     8
 71
     3
 72
    17
 73
    13
 74
     0
 42
0.000000001
 43
0.00000001
 40
0.0000005740893222
 40
0.0000005740893222
 40
0.0000005740893222
 40
0.0000005740893222
 40
0.0000438682572771
 40
0.0000438682572771
 40
0.0000438682572771
 40
0.0000877524805008
 40
0.0000877524805008
 40
0.0000877524805008
 40
0.0001307489587705
 40
0.0001307489587705
 40
0.0001307489587705
 40
0.000175032461437
 40
0.000175032461437
 40
0.000175032461437
 40
0.000175032461437
 10
12.82617222463079
 20
-0.0231814798873767
 30
0.0
 10
12.8397301108088
 20
-0.0281173603331854
 30
0.0
 10
12.85337673916619
 20
-0.032872304360004
 30
0.0
 10
12.86687588306951
 20
-0.0373468671806723
 30
0.0
 10
12.88055693226379
 20
-0.0418817261695782
 30
0.0
 10
12.89417132048865
 20
-0.0461566503286713
 30
0.0
 10
12.90745316052808
 20
-0.0500636096794106
 30
0.0
 10
12.92046553996971
 20
-0.0538913050426988
 30
0.0
 10
12.93324371759285
 20
-0.0573904419150989
 30
0.0
 10
12.94551777979382
 20
-0.06045789820897
 30
0.0
 10
12.95815348218251
 20
-0.0636157333400827
 30
0.0
 10
12.97034798032632
 20
-0.0663385025138551
 30
0.0
 10
12.98179047726517
 20
-0.0685203640885382
 30
0.0
  0
LWPOLYLINE
  5
10E
330
1F
100
AcDbEntity
  8
외형선
  6
Continuous
 62
     1
370
    15
100
AcDbPolyline
 90
        3
 70
   128
 43
0.0
 10
12.82617209106684
 20
-0.0231815718182826
 10
12.82586941123009
 20
-0.0230711809893602
 10
12.82563122548163
 20
-0.0229844515745991
  0
SPLINE
  5
10F
330
1F
100
AcDbEntity
  8
외형선
  6
Continuous
 62
     1
370
    15
100
AcDbSpline
210
0.0
220
0.0
230
1.0
 70
     8
 71
     3
 72
     8
 73
     4
 74
     0
 42
0.000000001
 43
0.00000001
 40
0.0
 40
0.0
 40
0.0
 40
0.0
 40
1.0
 40
1.0
 40
1.0
 40
1.0
 10
12.82563133934977
 20
-0.0229844528807508
 30
0.0
 10
12.63198498345221
 20
0.0475949005222253
 30
0.0
 10
12.43789096109461
 20
0.1182917547377829
 30
0.0
 10
12.24351060619026
 20
0.1890471730011629
 30
0.0
  0
SPLINE
  5
110
330
1F
100
AcDbEntity
  8
외형선
  6
Continuous
 62
     1
370
    15
100
AcDbSpline
210
0.0
220
0.0
230
1.0
 70
     8
 71
     3
 72
     8
 73
     4
 74
     0
 42
0.000000001
 43
0.00000001
 40
0.0
 40
0.0
 40
0.0
 40
0.0
 40
1.0
 40
1.0
 40
1.0
 40
1.0
 10
12.08699050257309
 20
0.2546355172258744
 30
0.0
 10
12.13178118916271
 20
0.2326787031118991
 30
0.0
 10
12.18690328610751
 20
0.2096525320859533
 30
0.0
 10
12.24378106351933
 20
0.188948725154956
 30
0.0
  0
SPLINE
  5
111
330
1F
100
AcDbEntity
  8
외형선
  6
Continuous
 62
     1
370
    15
100
AcDbSpline
210
0.0
220
0.0
230
1.0
 70
     8
 71
     3
 72
    10
 73
     6
 74
     0
 42
0.000000001
 43
0.00000001
 40
0.0
 40
0.0
 40
0.0
 40
0.0
 40
0.5
 40
0.5
 40
1.0
 40
1.0
 40
1.0
 40
1.0
 10
11.46102406995431
 20
0.4803403314993014
 30
0.0
 10
11.55379217069995
 20
0.4564406972804109
 30
0.0
 10
11.66662160883308
 20
0.4231471457291877
 30
0.0
 10
11.89156624454348
 20
0.3429688272902504
 30
0.0
 10
11.9986492473471
 20
0.2979412280171804
 30
0.0
 10
12.08699050257306
 20
0.2546355172259211
 30
0.0
  0
SPLINE
  5
112
330
1F
100
AcDbEntity
  8
외형선
  6
Continuous
 62
     1
370
    15
100
AcDbSpline
210
0.0
220
0.0
230
1.0
 70
     8
 71
     3
 72
    17
 73
    13
 74
     0
 42
0.000000001
 43
0.00000001
 40
0.0000000000000003
 40
0.0000000000000003
 40
0.0000000000000003
 40
0.0000000000000003
 40
0.0000438683773508
 40
0.0000438683773508
 40
0.0000438683773508
 40
0.0000877526638589
 40
0.0000877526638589
 40
0.0000877526638589
 40
0.0001307335247374
 40
0.0001307335247374
 40
0.0001307335247374
 40
0.0001750001937195
 40
0.0001750001937195
 40
0.0001750001937195
 40
0.0001750001937195
 10
11.30483503416324
 20
0.5303757742210948
 30
0.0
 10
11.31857823027515
 20
0.5253835389430648
 30
0.0
 10
11.33241503545955
 20
0.5204792096837189
 30
0.0
 10
11.3460992242835
 20
0.5157642658645604
 30
0.0
 10
11.35978631393501
 20
0.5110483225532769
 30
0.0
 10
11.37340621861441
 20
0.5064925754217579
 30
0.0
 10
11.38669280341007
 20
0.5022067543229325
 30
0.0
 10
11.39970512346442
 20
0.4980094021296268
 30
0.0
 10
11.41248272061759
 20
0.4940438177193596
 30
0.0
 10
11.42475584282992
 20
0.4904184313918458
 30
0.0
 10
11.4373903764257
 20
0.4866862869089475
 30
0.0
 10
11.44958327911492
 20
0.4832877963498463
 30
0.0
 10
11.46102406995512
 20
0.4803403314986812
 30
0.0
  0
SPLINE
  5
113
330
1F
100
AcDbEntity
  8
외형선
  6
Continuous
 62
     1
370
    15
100
AcDbSpline
210
0.0
220
0.0
230
1.0
 70
     8
 71
     3
 72
     8
 73
     4
 74
     0
 42
0.000000001
 43
0.00000001
 40
0.0
 40
0.0
 40
0.0
 40
0.0
 40
1.0
 40
1.0
 40
1.0
 40
1.0
 10
11.30483503416364
 20
0.5303757742211254
 30
0.0
 10
11.11081185613712
 20
0.6008549659762652
 30
0.0
 10
10.91676494330158
 20
0.6712975173862072
 30
0.0
 10
10.72285574106142
 20
0.7416448474148326
 30
0.0
  0
SPLINE
  5
114
330
1F
100
AcDbEntity
  8
외형선
  6
Continuous
 62
     1
370
    15
100
AcDbSpline
210
0.0
220
0.0
230
1.0
 70
     8
 71
     3
 72
     8
 73
     4
 74
     0
 42
0.000000001
 43
0.00000001
 40
0.0
 40
0.0
 40
0.0
 40
0.0
 40
1.0
 40
1.0
 40
1.0
 40
1.0
 10
10.56602538426588
 20
0.8024911115119076
 30
0.0
 10
10.61082813262088
 20
0.7836045158225873
 30
0.0
 10
10.66596276487233
 20
0.7622847599408895
 30
0.0
 10
10.72285574104816
 20
0.7416448474193589
 30
0.0
  0
SPLINE
  5
115
330
1F
100
AcDbEntity
  8
외형선
  6
Continuous
 62
     1
370
    15
100
AcDbSpline
210
0.0
220
0.0
230
1.0
 70
     8
 71
     3
 72
    10
 73
     6
 74
     0
 42
0.000000001
 43
0.00000001
 40
0.0
 40
0.0
 40
0.0
 40
0.0
 40
0.5
 40
0.5
 40
1.0
 40
1.0
 40
1.0
 40
1.0
 10
9.999999999999616
 20
1.007990776882412
 30
0.0
 10
10.09077037193482
 20
0.9785509179225944
 30
0.0
 10
10.19332645218256
 20
0.9446252065943451
 30
0.0
 10
10.39161559847928
 20
0.8731905579108136
 30
0.0
 10
10.48685243607281
 20
0.8358664627344783
 30
0.0
 10
10.56602538426843
 20
0.8024911115115483
 30
0.0
  0
SPLINE
  5
116
330
1F
100
AcDbEntity
  8
외형선
  6
Continuous
 62
     1
370
    15
100
AcDbSpline
210
0.0
220
0.0
230
1.0
 70
     8
 71
     3
 72
     8
 73
     4
 74
     0
 42
0.000000001
 43
0.00000001
 40
0.0
 40
0.0
 40
0.0
 40
0.0
 40
1.0
 40
1.0
 40
1.0
 40
1.0
 10
10.29282665674432
 20
6.217949414265735
 30
0.0
 10
10.20713636748363
 20
6.16260949699537
 30
0.0
 10
10.10413722095739
 20
6.139248995493523
 30
0.0
 10
9.999999999999375
 20
6.147709703409589
 30
0.0
  0
SPLINE
  5
117
330
1F
100
AcDbEntity
  8
외형선
  6
Continuous
 62
     1
370
    15
100
AcDbSpline
210
0.0
220
0.0
230
1.0
 70
     8
 71
     3
 72
    17
 73
    13
 74
     0
 42
0.000000001
 43
0.00000001
 40
0.0
 40
0.0
 40
0.0
 40
0.0
 40
0.0000438683308468
 40
0.0000438683308468
 40
0.0000438683308468
 40
0.0000877525587365
 40
0.0000877525587365
 40
0.0000877525587365
 40
0.0001307400416771
 40
0.0001307400416771
 40
0.0001307400416771
 40
0.0001750135310679
 40
0.0001750135310679
 40
0.0001750135310679
 40
0.0001750135310679
 10
10.4490111904357
 20
6.250755149683604
 30
0.0
 10
10.43526955070529
 20
6.252535107664312
 30
0.0
 10
10.42143436836255
 20
6.25322977346587
 30
0.0
 10
10.40775174255428
 20
6.25279118754232
 30
0.0
 10
10.39406621858054
 20
6.252352508720332
 30
0.0
 10
10.38044786015293
 20
6.250776446161219
 30
0.0
 10
10.36716265421073
 20
6.24804454469835
 30
0.0
 10
10.35414967674744
 20
6.245368622900603
 30
0.0
 10
10.34137136550825
 20
6.241565193725941
 30
0.0
 10
10.32909746494584
 20
6.236656462100247
 30
0.0
 10
10.31646213318032
 20
6.231603182393184
 30
0.0
 10
10.30426835502039
 20
6.225338613689556
 30
0.0
 10
10.2928266567443
 20
6.217949414265743
 30
0.0
  0
SPLINE
  5
118
330
1F
100
AcDbEntity
  8
외형선
  6
Continuous
 62
     1
370
    15
100
AcDbSpline
210
0.0
220
0.0
230
1.0
 70
     8
 71
     3
 72
     8
 73
     4
 74
     0
 42
0.000000001
 43
0.00000001
 40
0.0
 40
0.0
 40
0.0
 40
0.0
 40
1.0
 40
1.0
 40
1.0
 40
1.0
 10
11.0309657967118
 20
6.17213552000799
 30
0.0
 10
10.83687479071667
 20
6.199435640465739
 30
0.0
 10
10.64283612201471
 20
6.225648958530265
 30
0.0
 10
10.44901119057865
 20
6.250755149665062
 30
0.0
  0
SPLINE
  5
119
330
1F
100
AcDbEntity
  8
외형선
  6
Continuous
 62
     1
370
    15
100
AcDbSpline
210
0.0
220
0.0
230
1.0
 70
     8
 71
     3
 72
     8
 73
     4
 74
     0
 42
0.000000001
 43
0.00000001
 40
0.0
 40
0.0
 40
0.0
 40
0.0
 40
1.0
 40
1.0
 40
1.0
 40
1.0
 10
11.18778765584861
 20
6.097673643739551
 30
0.0
 10
11.14298759875869
 20
6.137917071221464
 30
0.0
 10
11.08785514421639
 20
6.164133675555331
 30
0.0
 10
11.03096579671176
 20
6.172135520008021
 30
0.0
  0
SPLINE
  5
11A
330
1F
100
AcDbEntity
  8
외형선
  6
Continuous
 62
     1
370
    15
100
AcDbSpline
210
0.0
220
0.0
230
1.0
 70
     8
 71
     3
 72
    10
 73
     6
 74
     0
 42
0.000000001
 43
0.00000001
 40
0.0
 40
0.0
 40
0.0
 40
0.0
 40
0.5
 40
0.5
 40
1.0
 40
1.0
 40
1.0
 40
1.0
 10
11.81385743529598
 20
6.004519707849126
 30
0.0
 10
11.72107899985936
 20
5.948815378775927
 30
0.0
 10
11.60823904529514
 20
5.930312926235841
 30
0.0
 10
11.3832668968505
 20
5.965910622613897
 30
0.0
 10
11.27615546875048
 20
6.018293752255985
 30
0.0
 10
11.18778765584876
 20
6.097673643739452
 30
0.0
  0
SPLINE
  5
11B
330
1F
100
AcDbEntity
  8
외형선
  6
Continuous
 62
     1
370
    15
100
AcDbSpline
210
0.0
220
0.0
230
1.0
 70
     8
 71
     3
 72
    17
 73
    13
 74
     0
 42
0.000000001
 43
0.00000001
 40
0.0
 40
0.0
 40
0.0
 40
0.0
 40
0.0000438682548899
 40
0.0000438682548899
 40
0.0000438682548899
 40
0.0000877524486899
 40
0.0000877524486899
 40
0.0000877524486899
 40
0.0001307495542274
 40
0.0001307495542274
 40
0.0001307495542274
 40
0.0001750335208393
 40
0.0001750335208393
 40
0.0001750335208393
 40
0.0001750335208393
 10
11.97006801990997
 20
6.031622516696981
 30
0.0
 10
11.95632632624574
 20
6.033801964823064
 30
0.0
 10
11.94249096289914
 20
6.034924758048511
 30
0.0
 10
11.92880790435243
 20
6.034935125088863
 30
0.0
 10
11.91512193979429
 20
6.034945494330969
 30
0.0
 10
11.90150292255647
 20
6.033842127699448
 30
0.0
 10
11.88821680229311
 20
6.031596985763892
 30
0.0
 10
11.8752000314812
 20
6.029397359579872
 30
0.0
 10
11.86241778971808
 20
6.026086343442755
 30
0.0
 10
11.85014005426496
 20
6.021675333551693
 30
0.0
 10
11.8375006225978
 20
6.017134377419013
 30
0.0
 10
11.8253027886213
 20
6.011391517284095
 30
0.0
 10
11.81385743529597
 20
6.004519707849146
 30
0.0
  0
SPLINE
  5
11C
330
1F
100
AcDbEntity
  8
외형선
  6
Continuous
 62
     1
370
    15
100
AcDbSpline
210
0.0
220
0.0
230
1.0
 70
     8
 71
     3
 72
     8
 73
     4
 74
     0
 42
0.000000001
 43
0.00000001
 40
0.0
 40
0.0
 40
0.0
 40
0.0
 40
1.0
 40
1.0
 40
1.0
 40
1.0
 10
12.55213694011507
 20
5.936056588106837
 30
0.0
 10
12.3584309443712
 20
5.968943291406671
 30
0.0
 10
12.16435417787078
 20
6.000808512742424
 30
0.0
 10
11.97006802030305
 20
6.03162251663463
 30
0.0
  0
SPLINE
  5
11D
330
1F
100
AcDbEntity
  8
외형선
  6
Continuous
 62
     1
370
    15
100
AcDbSpline
210
0.0
220
0.0
230
1.0
 70
     8
 71
     3
 72
     8
 73
     4
 74
     0
 42
0.000000001
 43
0.00000001
 40
0.0
 40
0.0
 40
0.0
 40
0.0
 40
1.0
 40
1.0
 40
1.0
 40
1.0
 10
12.70899286932236
 20
5.858411292139445
 30
0.0
 10
12.66417994291089
 20
5.899069097950331
 30
0.0
 10
12.60903838168894
 20
5.926396067175716
 30
0.0
 10
12.55213694011505
 20
5.936056588106868
 30
0.0
  0
SPLINE
  5
11E
330
1F
100
AcDbEntity
  8
외형선
  6
Continuous
 62
     1
370
    15
100
AcDbSpline
210
0.0
220
0.0
230
1.0
 70
     8
 71
     3
 72
    10
 73
     6
 74
     0
 42
0.000000001
 43
0.00000001
 40
0.0
 40
0.0
 40
0.0
 40
0.0
 40
0.5
 40
0.5
 40
1.0
 40
1.0
 40
1.0
 40
1.0
 10
13.33516597099505
 20
5.747346904257043
 30
0.0
 10
13.24234859486608
 20
5.696298542131896
 30
0.0
 10
13.12947110324172
 20
5.68182073991381
 30
0.0
 10
12.90447580581781
 20
5.723698523258528
 30
0.0
 10
12.7973778755317
 20
5.7782214740039
 30
0.0
 10
12.70899286932246
 20
5.85841129213938
 30
0.0
  0
SPLINE
  5
11F
330
1F
100
AcDbEntity
  8
외형선
  6
Continuous
 62
     1
370
    15
100
AcDbSpline
210
0.0
220
0.0
230
1.0
 70
     8
 71
     3
 72
    17
 73
    13
 74
     0
 42
0.000000001
 43
0.00000001
 40
0.0
 40
0.0
 40
0.0
 40
0.0
 40
0.0000438681466751
 40
0.0000438681466751
 40
0.0000438681466751
 40
0.0000877522000921
 40
0.0000877522000921
 40
0.0000877522000921
 40
0.0001307644081177
 40
0.0001307644081177
 40
0.0001307644081177
 40
0.000175063887192
 40
0.000175063887192
 40
0.000175063887192
 40
0.000175063887192
 10
13.49139145653276
 20
5.768490296776887
 30
0.0
 10
13.47765070024048
 20
5.771054964745009
 30
0.0
 10
13.46381649804059
 20
5.772600078918807
 30
0.0
 10
13.45013458677198
 20
5.773062617477377
 30
0.0
 10
13.43644977591912
 20
5.773525254060959
 30
0.0
 10
13.42283197790707
 20
5.772906863518622
 30
0.0
 10
13.40954685167181
 20
5.771170061618337
 30
0.0
 10
13.39652647362915
 20
5.769467870993539
 30
0.0
 10
13.38374063445087
 20
5.766679227126839
 30
0.0
 10
13.37145933971891
 20
5.762804472393329
 30
0.0
 10
13.35881626347279
 20
5.758815575408118
 30
0.0
 10
13.34661479243136
 20
5.753643608677704
 30
0.0
 10
13.33516597099506
 20
5.747346904257032
 30
0.0
  0
SPLINE
  5
120
330
1F
100
AcDbEntity
  8
외형선
  6
Continuous
 62
     1
370
    15
100
AcDbSpline
210
0.0
220
0.0
230
1.0
 70
     8
 71
     3
 72
     8
 73
     4
 74
     0
 42
0.000000001
 43
0.00000001
 40
0.0
 40
0.0
 40
0.0
 40
0.0
 40
1.0
 40
1.0
 40
1.0
 40
1.0
 10
14.07349188077112
 20
5.656911750666483
 30
0.0
 10
13.87930165280048
 20
5.695111326526664
 30
0.0
 10
13.68521434701604
 20
5.732313877650993
 30
0.0
 10
13.49139145707944
 20
5.768490296674879
 30
0.0
  0
SPLINE
  5
121
330
1F
100
AcDbEntity
  8
외형선
  6
Continuous
 62
     1
370
    15
100
AcDbSpline
210
0.0
220
0.0
230
1.0
 70
     8
 71
     3
 72
     8
 73
     4
 74
     0
 42
0.000000001
 43
0.00000001
 40
0.0
 40
0.0
 40
0.0
 40
0.0
 40
1.0
 40
1.0
 40
1.0
 40
1.0
 10
14.23034837285856
 20
5.576844499416137
 30
0.0
 10
14.18553570471649
 20
5.617549229778563
 30
0.0
 10
14.13039158152263
 20
5.645718888605455
 30
0.0
 10
14.07349188077114
 20
5.656911750666504
 30
0.0
  0
SPLINE
  5
122
330
1F
100
AcDbEntity
  8
외형선
  6
Continuous
 62
     1
370
    15
100
AcDbSpline
210
0.0
220
0.0
230
1.0
 70
     8
 71
     3
 72
    10
 73
     6
 74
     0
 42
0.000000001
 43
0.00000001
 40
0.0
 40
0.0
 40
0.0
 40
0.0
 40
0.5
 40
0.5
 40
1.0
 40
1.0
 40
1.0
 40
1.0
 10
14.85650162032984
 20
5.449434621087506
 30
0.0
 10
14.76370996057191
 20
5.40339472430314
 30
0.0
 10
14.65085384242782
 20
5.392919942265222
 30
0.0
 10
14.42585390981028
 20
5.440460568460829
 30
0.0
 10
14.31873242926235
 20
5.496562531539279
 30
0.0
 10
14.23034837285869
 20
5.576844499416035
 30
0.0
  0
SPLINE
  5
123
330
1F
100
AcDbEntity
  8
외형선
  6
Continuous
 62
     1
370
    15
100
AcDbSpline
210
0.0
220
0.0
230
1.0
 70
     8
 71
     3
 72
    17
 73
    13
 74
     0
 42
0.000000001
 43
0.00000001
 40
0.0
 40
0.0
 40
0.0
 40
0.0
 40
0.0000438682399586
 40
0.0000438682399586
 40
0.0000438682399586
 40
0.0000877524107878
 40
0.0000877524107878
 40
0.0000877524107878
 40
0.0001307517889284
 40
0.0001307517889284
 40
0.0001307517889284
 40
0.0001750380820276
 40
0.0001750380820276
 40
0.0001750380820276
 40
0.0001750380820276
 10
15.01272230407414
 20
5.464542338807981
 30
0.0
 10
14.99897998417458
 20
5.467468385626947
 30
0.0
 10
14.9851440360553
 20
5.469418483161874
 30
0.0
 10
14.97146041678182
 20
5.470322777436493
 30
0.0
 10
14.95777389292358
 20
5.471227263663207
 30
0.0
 10
14.94415434760883
 20
5.471090293625075
 30
0.0
 10
14.93086770311253
 20
5.469865603035696
 30
0.0
 10
14.91784972862323
 20
5.468665676985577
 30
0.0
 10
14.90506631703025
 20
5.466412709512428
 30
0.0
 10
14.89278746717289
 20
5.463096430124406
 30
0.0
 10
14.8801468936398
 20
5.459682456181611
 30
0.0
 10
14.86794796732797
 20
5.455113888337675
 30
0.0
 10
14.85650162032984
 20
5.449434621087507
 30
0.0
  0
SPLINE
  5
124
330
1F
100
AcDbEntity
  8
외형선
  6
Continuous
 62
     1
370
    15
100
AcDbSpline
210
0.0
220
0.0
230
1.0
 70
     8
 71
     3
 72
     8
 73
     4
 74
     0
 42
0.000000001
 43
0.00000001
 40
0.0
 40
0.0
 40
0.0
 40
0.0
 40
1.0
 40
1.0
 40
1.0
 40
1.0
 10
15.59480417863631
 20
5.337672799177572
 30
0.0
 10
15.40104311839515
 20
5.380881987258964
 30
0.0
 10
15.20696201450952
 20
5.42318436642757
 30
0.0
 10
15.01272230434405
 20
5.464542338750498
 30
0.0
  0
SPLINE
  5
125
330
1F
100
AcDbEntity
  8
외형선
  6
Continuous
 62
     1
370
    15
100
AcDbSpline
210
0.0
220
0.0
230
1.0
 70
     8
 71
     3
 72
     8
 73
     4
 74
     0
 42
0.000000001
 43
0.00000001
 40
0.0
 40
0.0
 40
0.0
 40
0.0
 40
1.0
 40
1.0
 40
1.0
 40
1.0
 10
15.75165407529402
 20
5.255630434909366
 30
0.0
 10
15.70684392230534
 20
5.296127477157253
 30
0.0
 10
15.65170372735168
 20
5.324984061310814
 30
0.0
 10
15.59480417863634
 20
5.337672799177589
 30
0.0
  0
SPLINE
  5
126
330
1F
100
AcDbEntity
  8
외형선
  6
Continuous
 62
     1
370
    15
100
AcDbSpline
210
0.0
220
0.0
230
1.0
 70
     8
 71
     3
 72
    10
 73
     6
 74
     0
 42
0.000000001
 43
0.00000001
 40
0.0
 40
0.0
 40
0.0
 40
0.0
 40
0.5
 40
0.5
 40
1.0
 40
1.0
 40
1.0
 40
1.0
 10
16.37777847081385
 20
5.111997733339162
 30
0.0
 10
16.28497188943101
 20
5.071386161332642
 30
0.0
 10
16.17211013632556
 20
5.065154611006688
 30
0.0
 10
15.94714889512798
 20
5.118355499002361
 30
0.0
 10
15.84003977549295
 20
5.175752121707141
 30
0.0
 10
15.75165407529415
 20
5.255630434909273
 30
0.0
  0
SPLINE
  5
127
330
1F
100
AcDbEntity
  8
외형선
  6
Continuous
 62
     1
370
    15
100
AcDbSpline
210
0.0
220
0.0
230
1.0
 70
     8
 71
     3
 72
    17
 73
    13
 74
     0
 42
0.000000001
 43
0.00000001
 40
0.0
 40
0.0
 40
0.0
 40
0.0
 40
0.0000438681756468
 40
0.0000438681756468
 40
0.0000438681756468
 40
0.0000877522427276
 40
0.0000877522427276
 40
0.0000877522427276
 40
0.0001307614227337
 40
0.0001307614227337
 40
0.0001307614227337
 40
0.0001750576293392
 40
0.0001750576293392
 40
0.0001750576293392
 40
0.0001750576293392
 10
16.53398730758337
 20
5.120832584404968
 30
0.0
 10
16.52024754301127
 20
5.124105190884892
 30
0.0
 10
16.50641431775136
 20
5.126454036858415
 30
0.0
 10
16.49273339684297
 20
5.127802980456228
 30
0.0
 10
16.47904957941293
 20
5.129152209652091
 30
0.0
 10
16.46543278022678
 20
5.129508711908994
 30
0.0
 10
16.45214865835349
 20
5.128817493192781
 30
0.0
 10
16.43913017710052
 20
5.128140096675002
 30
0.0
 10
16.42634620861753
 20
5.126451043094745
 30
0.0
 10
16.41406667593161
 20
5.123729066285965
 30
0.0
 10
16.4014254545502
 20
5.120926914745274
 30
0.0
 10
16.38922574420561
 20
5.1170069876474
 30
0.0
 10
16.37777847081385
 20
5.111997733339135
 30
0.0
  0
SPLINE
  5
128
330
1F
100
AcDbEntity
  8
외형선
  6
Continuous
 62
     1
370
    15
100
AcDbSpline
210
0.0
220
0.0
230
1.0
 70
     8
 71
     3
 72
     8
 73
     4
 74
     0
 42
0.000000001
 43
0.00000001
 40
0.0
 40
0.0
 40
0.0
 40
0.0
 40
1.0
 40
1.0
 40
1.0
 40
1.0
 10
17.11598320455722
 20
4.979688417678096
 30
0.0
 10
16.92177723294921
 20
5.027626783107504
 30
0.0
 10
16.72772481063601
 20
5.074687208000025
 30
0.0
 10
16.53398730758815
 20
5.120832584403805
 30
0.0
  0
SPLINE
  5
129
330
1F
100
AcDbEntity
  8
외형선
  6
Continuous
 62
     1
370
    15
100
AcDbSpline
210
0.0
220
0.0
230
1.0
 70
     8
 71
     3
 72
     8
 73
     4
 74
     0
 42
0.000000001
 43
0.00000001
 40
0.0
 40
0.0
 40
0.0
 40
0.0
 40
1.0
 40
1.0
 40
1.0
 40
1.0
 10
17.27279728568044
 20
4.896454382258447
 30
0.0
 10
17.22799989014005
 20
4.93637985193488
 30
0.0
 10
17.17286947781686
 20
4.965646444957819
 30
0.0
 10
17.11598320455724
 20
4.979688417678114
 30
0.0
  0
SPLINE
  5
12A
330
1F
100
AcDbEntity
  8
외형선
  6
Continuous
 62
     1
370
    15
100
AcDbSpline
210
0.0
220
0.0
230
1.0
 70
     8
 71
     3
 72
    10
 73
     6
 74
     0
 42
0.000000001
 43
0.00000001
 40
0.0
 40
0.0
 40
0.0
 40
0.0
 40
0.5
 40
0.5
 40
1.0
 40
1.0
 40
1.0
 40
1.0
 10
17.89876500624746
 20
4.73870599387804
 30
0.0
 10
17.80600378884613
 20
4.703728082004519
 30
0.0
 10
17.69317826033414
 20
4.701579869664579
 30
0.0
 10
17.46823321708039
 20
4.759598817384687
 30
0.0
 10
17.36114650726345
 20
4.817713550906536
 30
0.0
 10
17.27279728568055
 20
4.896454382258404
 30
0.0
  0
SPLINE
  5
12B
330
1F
100
AcDbEntity
  8
외형선
  6
Continuous
 62
     1
370
    15
100
AcDbSpline
210
0.0
220
0.0
230
1.0
 70
     8
 71
     3
 72
    17
 73
    13
 74
     0
 42
0.000000001
 43
0.00000001
 40
0.0
 40
0.0
 40
0.0
 40
0.0
 40
0.0000438684379162
 40
0.0000438684379162
 40
0.0000438684379162
 40
0.0000877527736407
 40
0.0000877527736407
 40
0.0000877527736407
 40
0.0001307267332767
 40
0.0001307267332767
 40
0.0001307267332767
 40
0.000174986155221
 40
0.000174986155221
 40
0.000174986155221
 40
0.000174986155221
 10
18.05493832896822
 20
4.741376709933899
 30
0.0
 10
18.04119548923511
 20
4.74496037216476
 30
0.0
 10
18.02735895133013
 20
4.747677658584466
 30
0.0
 10
18.01367504502171
 20
4.749446741123578
 30
0.0
 10
17.99998824003924
 20
4.751216198409022
 30
0.0
 10
17.98636860275696
 20
4.752047327059149
 30
0.0
 10
17.97308235579489
 20
4.751877169930721
 30
0.0
 10
17.96007245384876
 20
4.751710551956315
 30
0.0
 10
17.94729724973298
 20
4.75058183609951
 30
0.0
 10
17.93502642067627
 20
4.748459696299109
 30
0.0
 10
17.92239428286019
 20
4.746275071095732
 30
0.0
 10
17.91020369613599
 20
4.743019234886312
 30
0.0
 10
17.89876500624744
 20
4.738705993878065
 30
0.0
  0
SPLINE
  5
12C
330
1F
100
AcDbEntity
  8
외형선
  6
Continuous
 62
     1
370
    15
100
AcDbSpline
210
0.0
220
0.0
230
1.0
 70
     8
 71
     3
 72
     8
 73
     4
 74
     0
 42
0.000000001
 43
0.00000001
 40
0.0
 40
0.0
 40
0.0
 40
0.0
 40
1.0
 40
1.0
 40
1.0
 40
1.0
 10
18.63678357159964
 20
4.587137993854634
 30
0.0
 10
18.44296058896114
 20
4.639355989797667
 30
0.0
 10
18.2488683288417
 20
4.690807180864025
 30
0.0
 10
18.05466829414347
 20
4.741447125232993
 30
0.0
  0
SPLINE
  5
12D
330
1F
100
AcDbEntity
  8
외형선
  6
Continuous
 62
     1
370
    15
100
AcDbSpline
210
0.0
220
0.0
230
1.0
 70
     8
 71
     3
 72
     8
 73
     4
 74
     0
 42
0.000000001
 43
0.00000001
 40
0.0
 40
0.0
 40
0.0
 40
0.0
 40
1.0
 40
1.0
 40
1.0
 40
1.0
 10
18.79355071346568
 20
4.50321629752342
 30
0.0
 10
18.74877109575672
 20
4.542313228689465
 30
0.0
 10
18.69365754490791
 20
4.571815533808651
 30
0.0
 10
18.63678357159965
 20
4.587137993854652
 30
0.0
  0
SPLINE
  5
12E
330
1F
100
AcDbEntity
  8
외형선
  6
Continuous
 62
     1
370
    15
100
AcDbSpline
210
0.0
220
0.0
230
1.0
 70
     8
 71
     3
 72
    10
 73
     6
 74
     0
 42
0.000000001
 43
0.00000001
 40
0.0
 40
0.0
 40
0.0
 40
0.0
 40
0.5
 40
0.5
 40
1.0
 40
1.0
 40
1.0
 40
1.0
 10
19.41935368954299
 20
4.331521764568764
 30
0.0
 10
19.32660739088077
 20
4.302581917313768
 30
0.0
 10
19.21382092276651
 20
4.304777602416198
 30
0.0
 10
18.98894631125349
 20
4.367574325100184
 30
0.0
 10
18.88188029518702
 20
4.426096041630838
 30
0.0
 10
18.79355071346581
 20
4.503216297523358
 30
0.0
  0
SPLINE
  5
12F
330
1F
100
AcDbEntity
  8
외형선
  6
Continuous
 62
     1
370
    15
100
AcDbSpline
210
0.0
220
0.0
230
1.0
 70
     8
 71
     3
 72
    17
 73
    13
 74
     0
 42
0.000000001
 43
0.00000001
 40
0.0
 40
0.0
 40
0.0
 40
0.0
 40
0.0000438684155032
 40
0.0000438684155032
 40
0.0000438684155032
 40
0.0000877526825477
 40
0.0000877526825477
 40
0.0000877526825477
 40
0.0001307313752158
 40
0.0001307313752158
 40
0.0001307313752158
 40
0.0001749953589913
 40
0.0001749953589913
 40
0.0001749953589913
 40
0.0001749953589913
 10
19.57548877893885
 20
4.327787625517134
 30
0.0
 10
19.56175012480375
 20
4.33166980581257
 30
0.0
 10
19.54791788478798
 20
4.334751373989439
 30
0.0
 10
19.53423823819329
 20
4.336945314882445
 30
0.0
 10
19.52055570254479
 20
4.339139719121729
 30
0.0
 10
19.506940346621
 20
4.340459098411194
 30
0.0
 10
19.49365815415495
 20
4.340832580518939
 30
0.0
 10
19.48065077659312
 20
4.341198335103543
 30
0.0
 10
19.46787798530904
 20
4.340658424152639
 30
0.0
 10
19.45560928098813
 20
4.339170888386942
 30
0.0
 10
19.4429794188517
 20
4.337639563549994
 30
0.0
 10
19.43079082894852
 20
4.335090522268044
 30
0.0
 10
19.41935368954299
 20
4.331521764568765
 30
0.0
  0
SPLINE
  5
130
330
1F
100
AcDbEntity
  8
외형선
  6
Continuous
 62
     1
370
    15
100
AcDbSpline
210
0.0
220
0.0
230
1.0
 70
     8
 71
     3
 72
     8
 73
     4
 74
     0
 42
0.000000001
 43
0.00000001
 40
0.0
 40
0.0
 40
0.0
 40
0.0
 40
1.0
 40
1.0
 40
1.0
 40
1.0
 10
20.15713322160172
 20
4.161406720902216
 30
0.0
 10
19.96290322329899
 20
4.217641128402278
 30
0.0
 10
19.768877901718
 20
4.273141601315174
 30
0.0
 10
19.57521851296334
 20
4.327863995095843
 30
0.0
  0
SPLINE
  5
131
330
1F
100
AcDbEntity
  8
외형선
  6
Continuous
 62
     1
370
    15
100
AcDbSpline
210
0.0
220
0.0
230
1.0
 70
     8
 71
     3
 72
     8
 73
     4
 74
     0
 42
0.000000001
 43
0.00000001
 40
0.0
 40
0.0
 40
0.0
 40
0.0
 40
1.0
 40
1.0
 40
1.0
 40
1.0
 10
20.31382928146126
 20
4.077548265362623
 30
0.0
 10
20.26907451056331
 20
4.115476184071676
 30
0.0
 10
20.21398272757413
 20
4.144947377273723
 30
0.0
 10
20.15713322160171
 20
4.161406720902239
 30
0.0
  0
SPLINE
  5
132
330
1F
100
AcDbEntity
  8
외형선
  6
Continuous
 62
     1
370
    15
100
AcDbSpline
210
0.0
220
0.0
230
1.0
 70
     8
 71
     3
 72
    10
 73
     6
 74
     0
 42
0.000000001
 43
0.00000001
 40
0.0
 40
0.0
 40
0.0
 40
0.0
 40
0.5
 40
0.5
 40
1.0
 40
1.0
 40
1.0
 40
1.0
 10
20.93935300704889
 20
3.894331149297996
 30
0.0
 10
20.8466628022019
 20
3.871465261422334
 30
0.0
 10
20.73391119148361
 20
3.877685428969444
 30
0.0
 10
20.50910629541971
 20
3.944390347999708
 30
0.0
 10
20.40209417722287
 20
4.00274721680077
 30
0.0
 10
20.31382928146135
 20
4.077548265362595
 30
0.0
  0
SPLINE
  5
133
330
1F
100
AcDbEntity
  8
외형선
  6
Continuous
 62
     1
370
    15
100
AcDbSpline
210
0.0
220
0.0
230
1.0
 70
     8
 71
     3
 72
    17
 73
    13
 74
     0
 42
0.000000001
 43
0.00000001
 40
0.0
 40
0.0
 40
0.0
 40
0.0
 40
0.0000438687703496
 40
0.0000438687703496
 40
0.0000438687703496
 40
0.0000877534170584
 40
0.0000877534170584
 40
0.0000877534170584
 40
0.0001306826785032
 40
0.0001306826785032
 40
0.0001306826785032
 40
0.0001748950403018
 40
0.0001748950403018
 40
0.0001748950403018
 40
0.0001748950403018
 10
21.09543835546604
 20
3.884505173398001
 30
0.0
 10
21.08169512620633
 20
3.888637584208298
 30
0.0
 10
21.06785805477434
 20
3.89203923763132
 30
0.0
 10
21.05417409643053
 20
3.894618668969058
 30
0.0
 10
21.0404872429424
 20
3.897198646042599
 30
0.0
 10
21.02686784367838
 20
3.898971526520162
 30
0.0
 10
21.01358266986779
 20
3.899859496116819
 30
0.0
 10
21.00058733657373
 20
3.900728093022519
 30
0.0
 10
20.98782690702355
 20
3.90075481940339
 30
0.0
 10
20.97557052869049
 20
3.899888420088957
 30
0.0
 10
20.9629535274589
 20
3.898996528461578
 30
0.0
 10
20.95077790863415
 20
3.897149575679403
 30
0.0
 10
20.9393530070489
 20
3.894331149297994
 30
0.0
  0
SPLINE
  5
134
330
1F
100
AcDbEntity
  8
외형선
  6
Continuous
 62
     1
370
    15
100
AcDbSpline
210
0.0
220
0.0
230
1.0
 70
     8
 71
     3
 72
     8
 73
     4
 74
     0
 42
0.000000001
 43
0.00000001
 40
0.0
 40
0.0
 40
0.0
 40
0.0
 40
1.0
 40
1.0
 40
1.0
 40
1.0
 10
21.67700122539273
 20
3.70762470460999
 30
0.0
 10
21.48331092432618
 20
3.767205734618022
 30
0.0
 10
21.28940294364617
 20
3.826182537147951
 30
0.0
 10
21.09543835559857
 20
3.884505173358141
 30
0.0
  0
LWPOLYLINE
  5
135
330
1F
100
AcDbEntity
  8
외형선
  6
Continuous
 62
     1
370
    15
100
AcDbPolyline
 90
        3
 70
   128
 43
0.0
 10
21.67700083553791
 20
3.707624688318605
 10
21.67730351537466
 20
3.707531556061143
 10
21.67754193395376
 20
3.707458447239036
  0
SPLINE
  5
136
330
1F
100
AcDbEntity
  8
외형선
  6
Continuous
 62
     1
370
    15
100
AcDbSpline
210
0.0
220
0.0
230
1.0
 70
     8
 71
     3
 72
     8
 73
     4
 74
     0
 42
0.000000001
 43
0.00000001
 40
0.0
 40
0.0
 40
0.0
 40
0.0
 40
1.0
 40
1.0
 40
1.0
 40
1.0
 10
21.83371438916631
 20
3.624369280254489
 30
0.0
 10
21.78909557341619
 20
3.660766054698542
 30
0.0
 10
21.73420384276499
 20
3.689949650303771
 30
0.0
 10
21.67754158916803
 20
3.707458108666158
 30
0.0
  0
SPLINE
  5
137
330
1F
100
AcDbEntity
  8
외형선
  6
Continuous
 62
     1
370
    15
100
AcDbSpline
210
0.0
220
0.0
230
1.0
 70
     8
 71
     3
 72
    10
 73
     6
 74
     0
 42
0.000000001
 43
0.00000001
 40
0.0
 40
0.0
 40
0.0
 40
0.0
 40
0.5
 40
0.5
 40
1.0
 40
1.0
 40
1.0
 40
1.0
 10
22.45945103600878
 20
3.429872745698639
 30
0.0
 10
22.36672071260674
 20
3.413471382465671
 30
0.0
 10
22.25394360531538
 20
3.423967608478493
 30
0.0
 10
22.0290909894385
 20
3.494459856449318
 30
0.0
 10
21.92202464659204
 20
3.552332215473935
 30
0.0
 10
21.83371438916641
 20
3.624369280254456
 30
0.0
  0
SPLINE
  5
138
330
1F
100
AcDbEntity
  8
외형선
  6
Continuous
 62
     1
370
    15
100
AcDbSpline
210
0.0
220
0.0
230
1.0
 70
     8
 71
     3
 72
    17
 73
    13
 74
     0
 42
0.000000001
 43
0.00000001
 40
0.0
 40
0.0
 40
0.0
 40
0.0
 40
0.0000438682990793
 40
0.0000438682990793
 40
0.0000438682990793
 40
0.0000877524788593
 40
0.0000877524788593
 40
0.0000877524788593
 40
0.0001307446358937
 40
0.0001307446358937
 40
0.0001307446358937
 40
0.0001750232506224
 40
0.0001750232506224
 40
0.0001750232506224
 40
0.0001750232506224
 10
22.6155999486517
 20
3.413655012919958
 30
0.0
 10
22.60186270833474
 20
3.418030017698261
 30
0.0
 10
22.58803193112857
 20
3.421752974541179
 30
0.0
 10
22.57435355519105
 20
3.42472859016135
 30
0.0
 10
22.56067228508447
 20
3.427704835383657
 30
0.0
 10
22.54705807441099
 20
3.429951377124094
 30
0.0
 10
22.53377671460075
 20
3.43138336741705
 30
0.0
 10
22.52076608579775
 20
3.432786167613517
 30
0.0
 10
22.50798997625143
 20
3.433415889791134
 30
0.0
 10
22.49571785651492
 20
3.433209869908364
 30
0.0
 10
22.48308428736397
 20
3.432997782144283
 30
0.0
 10
22.47089178773029
 20
3.431896290077197
 30
0.0
 10
22.45945103600878
 20
3.429872745698633
 30
0.0
  0
SPLINE
  5
139
330
1F
100
AcDbEntity
  8
외형선
  6
Continuous
 62
     1
370
    15
100
AcDbSpline
210
0.0
220
0.0
230
1.0
 70
     8
 71
     3
 72
     8
 73
     4
 74
     0
 42
0.000000001
 43
0.00000001
 40
0.0
 40
0.0
 40
0.0
 40
0.0
 40
1.0
 40
1.0
 40
1.0
 40
1.0
 10
23.19740428475914
 20
3.226904145558572
 30
0.0
 10
23.00315962837359
 20
3.289739936756501
 30
0.0
 10
22.80917114715635
 20
3.352006901736627
 30
0.0
 10
22.61559994918887
 20
3.413655012748891
 30
0.0
  0
LWPOLYLINE
  5
13A
330
1F
100
AcDbEntity
  8
외형선
  6
Continuous
 62
     1
370
    15
100
AcDbPolyline
 90
        3
 70
   128
 43
0.0
 10
23.19740449637174
 20
3.226904147809977
 10
23.19770717620849
 20
3.226806126108999
 10
23.19794466346502
 20
3.226729291996593
  0
SPLINE
  5
13B
330
1F
100
AcDbEntity
  8
외형선
  6
Continuous
 62
     1
370
    15
100
AcDbSpline
210
0.0
220
0.0
230
1.0
 70
     8
 71
     3
 72
     8
 73
     4
 74
     0
 42
0.000000001
 43
0.00000001
 40
0.0
 40
0.0
 40
0.0
 40
0.0
 40
1.0
 40
1.0
 40
1.0
 40
1.0
 10
23.35418218480743
 20
3.144896863529048
 30
0.0
 10
23.30953836512823
 20
3.179593353345394
 30
0.0
 10
23.254624256292
 20
3.208323609748833
 30
0.0
 10
23.19794507233485
 20
3.226728872277009
 30
0.0
  0
SPLINE
  5
13C
330
1F
100
AcDbEntity
  8
외형선
  6
Continuous
 62
     1
370
    15
100
AcDbSpline
210
0.0
220
0.0
230
1.0
 70
     8
 71
     3
 72
    10
 73
     6
 74
     0
 42
0.000000001
 43
0.00000001
 40
0.0
 40
0.0
 40
0.0
 40
0.0
 40
0.5
 40
0.5
 40
1.0
 40
1.0
 40
1.0
 40
1.0
 10
23.98010912206
 20
2.941495023944239
 30
0.0
 10
23.88734876843309
 20
2.931449311853774
 30
0.0
 10
23.77452777218014
 20
2.945918173427495
 30
0.0
 10
23.54959455535355
 20
3.019382969725702
 30
0.0
 10
23.44251654568382
 20
3.076244757266481
 30
0.0
 10
23.35418218480752
 20
3.144896863529009
 30
0.0
  0
SPLINE
  5
13D
330
1F
100
AcDbEntity
  8
외형선
  6
Continuous
 62
     1
370
    15
100
AcDbSpline
210
0.0
220
0.0
230
1.0
 70
     8
 71
     3
 72
    17
 73
    13
 74
     0
 42
0.000000001
 43
0.00000001
 40
0.0
 40
0.0
 40
0.0
 40
0.0
 40
0.000043868407223
 40
0.000043868407223
 40
0.000043868407223
 40
0.0000877527233346
 40
0.0000877527233346
 40
0.0000877527233346
 40
0.000130729610299
 40
0.000130729610299
 40
0.000130729610299
 40
0.0001749921170081
 40
0.0001749921170081
 40
0.0001749921170081
 40
0.0001749921170081
 10
24.1362907431161
 20
2.919410302842083
 30
0.0
 10
24.12254751951728
 20
2.92396652140666
 30
0.0
 10
24.10871066038755
 20
2.927951717832954
 30
0.0
 10
24.09502644806642
 20
2.931267765381706
 30
0.0
 10
24.08133933492316
 20
2.93458451587659
 30
0.0
 10
24.06771941915698
 20
2.937251989621751
 30
0.0
 10
24.05443288964345
 20
2.939179673424636
 30
0.0
 10
24.04142182639701
 20
2.941067391045174
 30
0.0
 10
24.02864549564154
 20
2.942257294330259
 30
0.0
 10
24.01637361011511
 20
2.942678826622304
 30
0.0
 10
24.00374036677683
 20
2.943112771349777
 30
0.0
 10
23.99154873708736
 20
2.942733905368228
 30
0.0
 10
23.98010912206
 20
2.941495023944244
 30
0.0
  0
SPLINE
  5
13E
330
1F
100
AcDbEntity
  8
외형선
  6
Continuous
 62
     1
370
    15
100
AcDbSpline
210
0.0
220
0.0
230
1.0
 70
     8
 71
     3
 72
     8
 73
     4
 74
     0
 42
0.000000001
 43
0.00000001
 40
0.0
 40
0.0
 40
0.0
 40
0.0
 40
1.0
 40
1.0
 40
1.0
 40
1.0
 10
24.71824216269631
 20
2.725031014864042
 30
0.0
 10
24.52437172951991
 20
2.790268913343858
 30
0.0
 10
24.33033411801609
 20
2.855080124358464
 30
0.0
 10
24.13629074311616
 20
2.919410302842064
 30
0.0
  0
SPLINE
  5
13F
330
1F
100
AcDbEntity
  8
외형선
  6
Continuous
 62
     1
370
    15
100
AcDbSpline
210
0.0
220
0.0
230
1.0
 70
     8
 71
     3
 72
     8
 73
     4
 74
     0
 42
0.000000001
 43
0.00000001
 40
0.0
 40
0.0
 40
0.0
 40
0.0
 40
1.0
 40
1.0
 40
1.0
 40
1.0
 10
24.87506526450306
 20
2.644913830951386
 30
0.0
 10
24.83026508526647
 20
2.677755978227691
 30
0.0
 10
24.77513301186617
 20
2.705887098064752
 30
0.0
 10
24.71824216269627
 20
2.725031014864068
 30
0.0
  0
SPLINE
  5
140
330
1F
100
AcDbEntity
  8
외형선
  6
Continuous
 62
     1
370
    15
100
AcDbSpline
210
0.0
220
0.0
230
1.0
 70
     8
 71
     3
 72
    10
 73
     6
 74
     0
 42
0.000000001
 43
0.00000001
 40
0.0
 40
0.0
 40
0.0
 40
0.0
 40
0.5
 40
0.5
 40
1.0
 40
1.0
 40
1.0
 40
1.0
 10
25.5011494339083
 20
2.433399068328766
 30
0.0
 10
25.40836509357279
 20
2.430001781833615
 30
0.0
 10
25.29552655960544
 20
2.448528042671075
 30
0.0
 10
25.07056316278322
 20
2.524641339439299
 30
0.0
 10
24.96344178504106
 20
2.580126708383193
 30
0.0
 10
24.87506526450314
 20
2.644913830951371
 30
0.0
  0
SPLINE
  5
141
330
1F
100
AcDbEntity
  8
외형선
  6
Continuous
 62
     1
370
    15
100
AcDbSpline
210
0.0
220
0.0
230
1.0
 70
     8
 71
     3
 72
    17
 73
    13
 74
     0
 42
0.000000001
 43
0.00000001
 40
0.0
 40
0.0
 40
0.0
 40
0.0
 40
0.0000438680716584
 40
0.0000438680716584
 40
0.0000438680716584
 40
0.0000877521162988
 40
0.0000877521162988
 40
0.0000877521162988
 40
0.0001307741275492
 40
0.0001307741275492
 40
0.0001307741275492
 40
0.000175084509152
 40
0.000175084509152
 40
0.000175084509152
 40
0.000175084509152
 10
25.65736596799605
 20
2.405227275749671
 30
0.0
 10
25.64362913658256
 20
2.409960701302169
 30
0.0
 10
25.6297985388247
 20
2.414209679084074
 30
0.0
 10
25.6161197134001
 20
2.417873623055386
 30
0.0
 10
25.60243797669841
 20
2.421538346827283
 30
0.0
 10
25.58882278356195
 20
2.424640132269664
 30
0.0
 10
25.57553972181334
 20
2.427082879121058
 30
0.0
 10
25.56251842469089
 20
2.429477487619379
 30
0.0
 10
25.54973126430235
 20
2.431253765965822
 30
0.0
 10
25.53744846940653
 20
2.432331869204468
 30
0.0
 10
25.52480362949268
 20
2.433441750382075
 30
0.0
 10
25.51260015579645
 20
2.433818335014142
 30
0.0
 10
25.50114943390831
 20
2.433399068328734
 30
0.0
  0
SPLINE
  5
142
330
1F
100
AcDbEntity
  8
외형선
  6
Continuous
 62
     1
370
    15
100
AcDbSpline
210
0.0
220
0.0
230
1.0
 70
     8
 71
     3
 72
     8
 73
     4
 74
     0
 42
0.000000001
 43
0.00000001
 40
0.0
 40
0.0
 40
0.0
 40
0.0
 40
1.0
 40
1.0
 40
1.0
 40
1.0
 10
26.23944540717179
 20
2.203671318953873
 30
0.0
 10
26.04507062292423
 20
2.27126082616727
 30
0.0
 10
25.85118155642457
 20
2.338442467002585
 30
0.0
 10
25.65736596799162
 20
2.405227275751196
 30
0.0
  0
LWPOLYLINE
  5
143
330
1F
100
AcDbEntity
  8
외형선
  6
Continuous
 62
     1
370
    15
100
AcDbPolyline
 90
        3
 70
   128
 43
0.0
 10
26.23944582045078
 20
2.203671327366168
 10
26.2397494316101
 20
2.203565855084593
 10
26.23998598754405
 20
2.203483083790774
  0
SPLINE
  5
144
330
1F
100
AcDbEntity
  8
외형선
  6
Continuous
 62
     1
370
    15
100
AcDbSpline
210
0.0
220
0.0
230
1.0
 70
     8
 71
     3
 72
     8
 73
     4
 74
     0
 42
0.000000001
 43
0.00000001
 40
0.0
 40
0.0
 40
0.0
 40
0.0
 40
1.0
 40
1.0
 40
1.0
 40
1.0
 10
26.39629770097648
 20
2.125990668326018
 30
0.0
 10
26.35162669471866
 20
2.156525843947958
 30
0.0
 10
26.29668816384816
 20
2.183714116188818
 30
0.0
 10
26.23998669371828
 20
2.203482850111772
 30
0.0
  0
SPLINE
  5
145
330
1F
100
AcDbEntity
  8
외형선
  6
Continuous
 62
     1
370
    15
100
AcDbSpline
210
0.0
220
0.0
230
1.0
 70
     8
 71
     3
 72
    10
 73
     6
 74
     0
 42
0.000000001
 43
0.00000001
 40
0.0
 40
0.0
 40
0.0
 40
0.0
 40
0.5
 40
0.5
 40
1.0
 40
1.0
 40
1.0
 40
1.0
 10
27.02244774383104
 20
1.908571606505231
 30
0.0
 10
26.92964927246009
 20
1.911661272742194
 30
0.0
 10
26.81678638487111
 20
1.933934677306635
 30
0.0
 10
26.59178591513808
 20
2.011933397131355
 30
0.0
 10
26.48467479533863
 20
2.06557989356684
 30
0.0
 10
26.39629770097659
 20
2.125990668325969
 30
0.0
  0
SPLINE
  5
146
330
1F
100
AcDbEntity
  8
외형선
  6
Continuous
 62
     1
370
    15
100
AcDbSpline
210
0.0
220
0.0
230
1.0
 70
     8
 71
     3
 72
    17
 73
    13
 74
     0
 42
0.000000001
 43
0.00000001
 40
0.0
 40
0.0
 40
0.0
 40
0.0
 40
0.000043868252914
 40
0.000043868252914
 40
0.000043868252914
 40
0.0000877524221043
 40
0.0000877524221043
 40
0.0000877524221043
 40
0.0001307499144318
 40
0.0001307499144318
 40
0.0001307499144318
 40
0.0001750340734954
 40
0.0001750340734954
 40
0.0001750340734954
 40
0.0001750340734954
 10
27.17866951145903
 20
1.874900685891666
 30
0.0
 10
27.16492640323887
 20
1.879743174498764
 30
0.0
 10
27.15108975670069
 20
1.884190980948506
 30
0.0
 10
27.1374055636733
 20
1.888142269839762
 30
0.0
 10
27.12371846865473
 20
1.892094396676339
 30
0.0
 10
27.11009846887357
 20
1.89557403007899
 30
0.0
 10
27.09681149110603
 20
1.898480828444041
 30
0.0
 10
27.08379375509815
 20
1.901328724662909
 30
0.0
 10
27.07101067805515
 20
1.903644799514701
 30
0.0
 10
27.05873220219532
 20
1.905341628405558
 30
0.0
 10
27.04609206603472
 20
1.907088437086578
 30
0.0
 10
27.03389363067508
 20
1.908190522963553
 30
0.0
 10
27.02244774383104
 20
1.908571606505251
 30
0.0
  0
SPLINE
  5
147
330
1F
100
AcDbEntity
  8
외형선
  6
Continuous
 62
     1
370
    15
100
AcDbSpline
210
0.0
220
0.0
230
1.0
 70
     8
 71
     3
 72
     8
 73
     4
 74
     0
 42
0.000000001
 43
0.00000001
 40
0.0
 40
0.0
 40
0.0
 40
0.0
 40
1.0
 40
1.0
 40
1.0
 40
1.0
 10
27.76076413888233
 20
1.668961944279738
 30
0.0
 10
27.56679559490886
 20
1.737863640851569
 30
0.0
 10
27.37271020417792
 20
1.806528973412087
 30
0.0
 10
27.17866951145013
 20
1.874900685894784
 30
0.0
  0
SPLINE
  5
148
330
1F
100
AcDbEntity
  8
외형선
  6
Continuous
 62
     1
370
    15
100
AcDbSpline
210
0.0
220
0.0
230
1.0
 70
     8
 71
     3
 72
     8
 73
     4
 74
     0
 42
0.000000001
 43
0.00000001
 40
0.0
 40
0.0
 40
0.0
 40
0.0
 40
1.0
 40
1.0
 40
1.0
 40
1.0
 10
27.91762125438249
 20
1.594433417241551
 30
0.0
 10
27.87280901371649
 20
1.622599001748554
 30
0.0
 10
27.81766530201393
 20
1.648749457263225
 30
0.0
 10
27.76076413888234
 20
1.668961944279746
 30
0.0
  0
SPLINE
  5
149
330
1F
100
AcDbEntity
  8
외형선
  6
Continuous
 62
     1
370
    15
100
AcDbSpline
210
0.0
220
0.0
230
1.0
 70
     8
 71
     3
 72
    10
 73
     6
 74
     0
 42
0.000000001
 43
0.00000001
 40
0.0
 40
0.0
 40
0.0
 40
0.0
 40
0.5
 40
0.5
 40
1.0
 40
1.0
 40
1.0
 40
1.0
 10
28.54378621449859
 20
1.372382437797657
 30
0.0
 10
28.45099119435243
 20
1.382093922060384
 30
0.0
 10
28.33813775182309
 20
1.408071649223606
 30
0.0
 10
28.11314520367254
 20
1.487471492113147
 30
0.0
 10
28.00601348068092
 20
1.538876750523478
 30
0.0
 10
27.91762125438258
 20
1.59443341724153
 30
0.0
  0
SPLINE
  5
14A
330
1F
100
AcDbEntity
  8
외형선
  6
Continuous
 62
     1
370
    15
100
AcDbSpline
210
0.0
220
0.0
230
1.0
 70
     8
 71
     3
 72
    17
 73
    13
 74
     0
 42
0.000000001
 43
0.00000001
 40
0.0
 40
0.0
 40
0.0
 40
0.0
 40
0.0000438680868529
 40
0.0000438680868529
 40
0.0000438680868529
 40
0.0000877521360298
 40
0.0000877521360298
 40
0.0000877521360298
 40
0.0001307722930364
 40
0.0001307722930364
 40
0.0001307722930364
 40
0.0001750806532218
 40
0.0001750806532218
 40
0.0001750806532218
 40
0.0001750806532218
 10
28.70001210847076
 20
1.33314576849268
 30
0.0
 10
28.68627387145941
 20
1.338089610199649
 30
0.0
 10
28.67244191091629
 20
1.34273144158172
 30
0.0
 10
28.65876182055523
 20
1.346968530236221
 30
0.0
 10
28.64507882064689
 20
1.351206520055069
 30
0.0
 10
28.63146244744987
 20
1.355065657822983
 30
0.0
 10
28.61817832741454
 20
1.358441633375087
 30
0.0
 10
28.60515655059541
 20
1.361750938023752
 30
0.0
 10
28.59236899935363
 20
1.364617102507726
 30
0.0
 10
28.58008589158907
 20
1.366944986526102
 30
0.0
 10
28.56744075998276
 20
1.369341480991576
 30
0.0
 10
28.55523708018458
 20
1.371184044804907
 30
0.0
 10
28.5437862144986
 20
1.372382437797644
 30
0.0
  0
SPLINE
  5
14B
330
1F
100
AcDbEntity
  8
외형선
  6
Continuous
 62
     1
370
    15
100
AcDbSpline
210
0.0
220
0.0
230
1.0
 70
     8
 71
     3
 72
     8
 73
     4
 74
     0
 42
0.000000001
 43
0.00000001
 40
0.0
 40
0.0
 40
0.0
 40
0.0
 40
1.0
 40
1.0
 40
1.0
 40
1.0
 10
29.28211331195627
 20
1.123038029077436
 30
0.0
 10
29.08783580132418
 20
1.193266571851772
 30
0.0
 10
28.89419007896991
 20
1.263268887759312
 30
0.0
 10
28.70001210846665
 20
1.333145768494149
 30
0.0
  0
LWPOLYLINE
  5
14C
330
1F
100
AcDbEntity
  8
외형선
  6
Continuous
 62
     1
370
    15
100
AcDbPolyline
 90
        3
 70
   128
 43
0.0
 10
29.28211392462253
 20
1.123038011642778
 10
29.2824156731367
 20
1.122928464824939
 10
29.28265409171581
 20
1.122842317486787
  0
SPLINE
  5
14D
330
1F
100
AcDbEntity
  8
외형선
  6
Continuous
 62
     1
370
    15
100
AcDbSpline
210
0.0
220
0.0
230
1.0
 70
     8
 71
     3
 72
     8
 73
     4
 74
     0
 42
0.000000001
 43
0.00000001
 40
0.0
 40
0.0
 40
0.0
 40
0.0
 40
1.0
 40
1.0
 40
1.0
 40
1.0
 10
29.43896316400671
 20
1.052056644545958
 30
0.0
 10
29.39429263394307
 20
1.077496017893528
 30
0.0
 10
29.3393548411281
 20
1.102313609456789
 30
0.0
 10
29.28265464463747
 20
1.122842190997133
 30
0.0
  0
SPLINE
  5
14E
330
1F
100
AcDbEntity
  8
외형선
  6
Continuous
 62
     1
370
    15
100
AcDbSpline
210
0.0
220
0.0
230
1.0
 70
     8
 71
     3
 72
    10
 73
     6
 74
     0
 42
0.000000001
 43
0.00000001
 40
0.0
 40
0.0
 40
0.0
 40
0.0
 40
0.5
 40
0.5
 40
1.0
 40
1.0
 40
1.0
 40
1.0
 10
30.06506752463327
 20
0.8272726177662253
 30
0.0
 10
29.97227458296283
 20
0.8434025136476342
 30
0.0
 10
29.85941553034341
 20
0.8727903845690818
 30
0.0
 10
29.63443239388212
 20
0.9529349663663877
 30
0.0
 10
29.52733198304691
 20
1.001731578408518
 30
0.0
 10
29.43896316400681
 20
1.05205664454595
 30
0.0
  0
SPLINE
  5
14F
330
1F
100
AcDbEntity
  8
외형선
  6
Continuous
 62
     1
370
    15
100
AcDbSpline
210
0.0
220
0.0
230
1.0
 70
     8
 71
     3
 72
    17
 73
    13
 74
     0
 42
0.000000001
 43
0.00000001
 40
0.0
 40
0.0
 40
0.0
 40
0.0
 40
0.0000438683116999
 40
0.0000438683116999
 40
0.0000438683116999
 40
0.0000877525219425
 40
0.0000877525219425
 40
0.0000877525219425
 40
0.0001307429042015
 40
0.0001307429042015
 40
0.0001307429042015
 40
0.0001750194920413
 40
0.0001750194920413
 40
0.0001750194920413
 40
0.0001750194920413
 10
30.22127192862387
 20
0.7830492210777311
 30
0.0
 10
30.20752904220647
 20
0.7880315875276248
 30
0.0
 10
30.19369260318478
 20
0.79280722110036
 30
0.0
 10
30.18000870336239
 20
0.797273558682141
 30
0.0
 10
30.16632190488221
 20
0.8017408423673278
 30
0.0
 10
30.15270225760894
 20
0.8059263069437413
 30
0.0
 10
30.13941575414762
 20
0.8097228076498596
 30
0.0
 10
30.12640062985811
 20
0.8134417641608184
 30
0.0
 10
30.11362019212373
 20
0.8168113761170036
 30
0.0
 10
30.10134426908831
 20
0.819730238354189
 30
0.0
 10
30.08870682610756
 20
0.822735059660468
 30
0.0
 10
30.07651102516921
 20
0.825283431209128
 30
0.0
 10
30.06506752463329
 20
0.8272726177662143
 30
0.0
  0
SPLINE
  5
150
330
1F
100
AcDbEntity
  8
외형선
  6
Continuous
 62
     1
370
    15
100
AcDbSpline
210
0.0
220
0.0
230
1.0
 70
     8
 71
     3
 72
     8
 73
     4
 74
     0
 42
0.000000001
 43
0.00000001
 40
0.0
 40
0.0
 40
0.0
 40
0.0
 40
1.0
 40
1.0
 40
1.0
 40
1.0
 10
30.80325955869809
 20
0.5718648247022917
 30
0.0
 10
30.60918611085642
 20
0.6423510361819841
 30
0.0
 10
30.41504618307763
 20
0.7127980738949229
 30
0.0
 10
30.22100145815281
 20
0.7831472778029598
 30
0.0
  0
LWPOLYLINE
  5
151
330
1F
100
AcDbEntity
  8
외형선
  6
Continuous
 62
     1
370
    15
100
AcDbPolyline
 90
        3
 70
   128
 43
0.0
 10
30.80325984954833
 20
0.5718648392172999
 10
30.80356159806251
 20
0.571754797634343
 10
30.80380001664161
 20
0.5716683592578865
  0
SPLINE
  5
152
330
1F
100
AcDbEntity
  8
외형선
  6
Continuous
 62
     1
370
    15
100
AcDbSpline
210
0.0
220
0.0
230
1.0
 70
     8
 71
     3
 72
     8
 73
     4
 74
     0
 42
0.000000001
 43
0.00000001
 40
0.0
 40
0.0
 40
0.0
 40
0.0
 40
1.0
 40
1.0
 40
1.0
 40
1.0
 10
30.9600736304271
 20
0.5052083200490404
 30
0.0
 10
30.91541922674049
 20
0.5277620768622479
 30
0.0
 10
30.86049316077374
 20
0.5510558218948134
 30
0.0
 10
30.80380050893376
 20
0.5716682500110487
 30
0.0
  0
SPLINE
  5
153
330
1F
100
AcDbEntity
  8
외형선
  6
Continuous
 62
     1
370
    15
100
AcDbSpline
210
0.0
220
0.0
230
1.0
 70
     8
 71
     3
 72
    10
 73
     6
 74
     0
 42
0.000000001
 43
0.00000001
 40
0.0
 40
0.0
 40
0.0
 40
0.0
 40
0.5
 40
0.5
 40
1.0
 40
1.0
 40
1.0
 40
1.0
 10
31.58605011409795
 20
0.2794364964675243
 30
0.0
 10
31.49328813962617
 20
0.3019513600028372
 30
0.0
 10
31.38046676132303
 20
0.3345765690389475
 30
0.0
 10
31.15552746590672
 20
0.4148280297221915
 30
0.0
 10
31.04843044722104
 20
0.4605816316546839
 30
0.0
 10
30.9600736304272
 20
0.5052083200490378
 30
0.0
  0
SPLINE
  5
154
330
1F
100
AcDbEntity
  8
외형선
  6
Continuous
 62
     1
370
    15
100
AcDbSpline
210
0.0
220
0.0
230
1.0
 70
     8
 71
     3
 72
    17
 73
    13
 74
     0
 42
0.000000001
 43
0.00000001
 40
0.0
 40
0.0
 40
0.0
 40
0.0
 40
0.0000438683150579
 40
0.0000438683150579
 40
0.0000438683150579
 40
0.0000877525569064
 40
0.0000877525569064
 40
0.0000877525569064
 40
0.0001307431161397
 40
0.0001307431161397
 40
0.0001307431161397
 40
0.0001750202026033
 40
0.0001750202026033
 40
0.0001750202026033
 40
0.0001750202026033
 10
31.74222778367919
 20
0.2303430377844338
 30
0.0
 10
31.72848825048306
 20
0.2353476384641728
 30
0.0
 10
31.71465492488982
 20
0.2402417571003564
 30
0.0
 10
31.70097384589614
 20
0.2449234758610407
 30
0.0
 10
31.68728986354207
 20
0.2496061881630072
 30
0.0
 10
31.67367274876728
 20
0.2541054427699027
 30
0.0
 10
31.66038849477602
 20
0.2583117678008967
 30
0.0
 10
31.64737553211586
 20
0.2624321911683544
 30
0.0
 10
31.63459698526939
 20
0.2662981349395553
 30
0.0
 10
31.62232271769791
 20
0.2698022209485038
 30
0.0
 10
31.60968689050736
 20
0.273409525825314
 30
0.0
 10
31.59749245518459
 20
0.2766592512702682
 30
0.0
 10
31.58605011409796
 20
0.2794364964675284
 30
0.0
  0
SPLINE
  5
155
330
1F
100
AcDbEntity
  8
외형선
  6
Continuous
 62
     1
370
    15
100
AcDbSpline
210
0.0
220
0.0
230
1.0
 70
     8
 71
     3
 72
     8
 73
     4
 74
     0
 42
0.000000001
 43
0.00000001
 40
0.0
 40
0.0
 40
0.0
 40
0.0
 40
1.0
 40
1.0
 40
1.0
 40
1.0
 10
32.32409557691185
 20
0.0182499703987188
 30
0.0
 10
32.13008664911238
 20
0.0889335343084215
 30
0.0
 10
31.9363283991211
 20
0.1596422909556155
 30
0.0
 10
31.74195735590595
 20
0.2304415405815648
 30
0.0
  0
LWPOLYLINE
  5
156
330
1F
100
AcDbEntity
  8
외형선
  6
Continuous
 62
     1
370
    15
100
AcDbPolyline
 90
        3
 70
   128
 43
0.0
 10
32.32409471273422
 20
0.018249971831823
 10
32.32439832389354
 20
0.0181396101067311
 10
32.32463674247264
 20
0.01805288069197
  0
SPLINE
  5
157
330
1F
100
AcDbEntity
  8
외형선
  6
Continuous
 62
     1
370
    15
100
AcDbSpline
210
0.0
220
0.0
230
1.0
 70
     8
 71
     3
 72
     8
 73
     4
 74
     0
 42
0.000000001
 43
0.00000001
 40
0.0
 40
0.0
 40
0.0
 40
0.0
 40
1.0
 40
1.0
 40
1.0
 40
1.0
 10
32.4808661690187
 20
-0.0438617692469668
 30
0.0
 10
32.43622375588055
 20
-0.024296378030568
 30
0.0
 10
32.38131186506964
 20
-0.0026072829009343
 30
0.0
 10
32.32463650265385
 20
0.0180528392148557
 30
0.0
  0
SPLINE
  5
158
330
1F
100
AcDbEntity
  8
외형선
  6
Continuous
 62
     1
370
    15
100
AcDbSpline
210
0.0
220
0.0
230
1.0
 70
     8
 71
     3
 72
    10
 73
     6
 74
     0
 42
0.000000001
 43
0.00000001
 40
0.0
 40
0.0
 40
0.0
 40
0.0
 40
0.5
 40
0.5
 40
1.0
 40
1.0
 40
1.0
 40
1.0
 10
33.10665745363915
 20
-0.2691235978755386
 30
0.0
 10
33.01391340375671
 20
-0.2404576084056973
 30
0.0
 10
32.9011036963788
 20
-0.2048604396969148
 30
0.0
 10
32.67622201256252
 20
-0.1250230336303257
 30
0.0
 10
32.56917590474144
 20
-0.0825651995988195
 30
0.0
 10
32.4808661690188
 20
-0.0438617692469657
 30
0.0
  0
SPLINE
  5
159
330
1F
100
AcDbEntity
  8
외형선
  6
Continuous
 62
     1
370
    15
100
AcDbSpline
210
0.0
220
0.0
230
1.0
 70
     8
 71
     3
 72
     8
 73
     4
 74
     0
 42
0.000000001
 43
0.00000001
 40
0.0
 40
0.0
 40
0.0
 40
0.0
 40
1.0
 40
1.0
 40
1.0
 40
1.0
 10
34.85000000000004
 20
-0.8933208515664103
 30
0.0
 10
34.82749157625644
 20
-0.8852751702358708
 30
0.0
 10
34.80497917288464
 20
-0.8772259909431931
 30
0.0
 10
34.78246304196017
 20
-0.8691734031064096
 30
0.0
  0
SPLINE
  5
15A
330
1F
100
AcDbEntity
  8
외형선
  6
Continuous
 62
     1
370
    15
100
AcDbSpline
210
0.0
220
0.0
230
1.0
 70
     8
 71
     3
 72
     8
 73
     4
 74
     0
 42
0.000000001
 43
0.00000001
 40
0.0
 40
0.0
 40
0.0
 40
0.0
 40
1.0
 40
1.0
 40
1.0
 40
1.0
 10
34.97545781168468
 20
-0.9328970596036551
 30
0.0
 10
34.93376544268231
 20
-0.9194556894370014
 30
0.0
 10
34.89194372325818
 20
-0.9062631220017228
 30
0.0
 10
34.85000000000001
 20
-0.8933208515664014
 30
0.0
  0
SPLINE
  5
162
330
1F
100
AcDbEntity
  8
외형선
  6
Continuous
370
    15
100
AcDbSpline
210
0.0
220
0.0
230
1.0
 70
    24
 71
     3
 72
    24
 73
    20
 74
     0
 42
0.000000001
 43
0.00000001
 40
0.0
 40
0.0
 40
0.0
 40
0.0
 40
0.0625
 40
0.0625
 40
0.125
 40
0.125
 40
0.2500000000000001
 40
0.2500000000000001
 40
0.3750000000000001
 40
0.3750000000000001
 40
0.5000000000000001
 40
0.5000000000000001
 40
0.6250000000000002
 40
0.6250000000000002
 40
0.7500000000000002
 40
0.7500000000000002
 40
0.8750000000000001
 40
0.8750000000000001
 40
1.0
 40
1.0
 40
1.0
 40
1.0
 10
9.999999999999998
 20
6.147709703409527
 30
0.0
 10
9.999999999999998
 20
6.045411098104755
 30
0.0
 10
9.999999999999998
 20
5.948168843180986
 30
0.0
 10
9.999999999999998
 20
5.745560066037419
 30
0.0
 10
9.999999999999998
 20
5.64053942280782
 30
0.0
 10
9.999999999999998
 20
5.314340721801643
 30
0.0
 10
9.999999999999998
 20
5.081850845372067
 30
0.0
 10
9.999999999999998
 20
4.590208702406031
 30
0.0
 10
9.999999999999998
 20
4.330958585817055
 30
0.0
 10
9.999999999999998
 20
3.795812327950214
 30
0.0
 10
9.999999999999998
 20
3.519851053360402
 30
0.0
 10
9.999999999999998
 20
2.97077385441034
 30
0.0
 10
9.999999999999998
 20
2.697717191774017
 30
0.0
 10
9.999999999999998
 20
2.183890691639695
 30
0.0
 10
9.999999999999998
 20
1.943387476333966
 30
0.0
 10
9.999999999999998
 20
1.529417652938818
 30
0.0
 10
9.999999999999998
 20
1.356371001311701
 30
0.0
 10
9.999999999999998
 20
1.106652524328711
 30
0.0
 10
9.999999999999998
 20
1.030301238167349
 30
0.0
 10
9.999999999999998
 20
1.007990776882318
 30
0.0
  0
SPLINE
  5
164
330
1F
100
AcDbEntity
  8
외형선
  6
Continuous
 62
     1
370
    15
100
AcDbSpline
210
0.0
220
0.0
230
1.0
 70
     8
 71
     3
 72
    17
 73
    13
 74
     0
 42
0.000000001
 43
0.00000001
 40
0.0
 40
0.0
 40
0.0
 40
0.0
 40
0.000043868136956
 40
0.000043868136956
 40
0.000043868136956
 40
0.0000877522287671
 40
0.0000877522287671
 40
0.0000877522287671
 40
0.0001307665340483
 40
0.0001307665340483
 40
0.0001307665340483
 40
0.0001750687407198
 40
0.0001750687407198
 40
0.0001750687407198
 40
0.0001750687407198
 10
32.21415475409746
 20
2.824310943878822
 30
0.0
 10
32.22789133965759
 20
2.819705342311704
 30
0.0
 10
32.24172173286724
 20
2.814775767495282
 30
0.0
 10
32.2554002828216
 20
2.809611058923862
 30
0.0
 10
32.26908174064594
 20
2.804445252407044
 30
0.0
 10
32.28269661774824
 20
2.799011841775732
 30
0.0
 10
32.29597924643073
 20
2.793419701013613
 30
0.0
 10
32.30899779178534
 20
2.787938742396058
 30
0.0
 10
32.32178218664029
 20
2.782269387539616
 30
0.0
 10
32.33406231326657
 20
2.776535077829107
 30
0.0
 10
32.34670434420975
 20
2.770631773815696
 30
0.0
 10
32.3589050785077
 20
2.764615713186218
 30
0.0
 10
32.37035331807488
 20
2.758644731405786
 30
0.0
  0
SPLINE
  5
166
330
1F
100
AcDbEntity
  8
외형선
  6
Continuous
 62
     1
370
    15
100
AcDbSpline
210
0.0
220
0.0
230
1.0
 70
     8
 71
     3
 72
    10
 73
     6
 74
     0
 42
0.000000001
 43
0.00000001
 40
0.0
 40
0.0
 40
0.0
 40
0.0
 40
0.5
 40
0.5
 40
1.0
 40
1.0
 40
1.0
 40
1.0
 10
32.37035331807429
 20
2.758644731405342
 30
0.0
 10
32.46313213813861
 20
2.710254702443646
 30
0.0
 10
32.57596641269547
 20
2.666414992479117
 30
0.0
 10
32.80092261108361
 20
2.592847723170397
 30
0.0
 10
32.90803706726268
 20
2.564458230806604
 30
0.0
 10
32.99641208595399
 20
2.548711824595718
 30
0.0
  0
SPLINE
  5
168
330
1F
100
AcDbEntity
  8
외형선
  6
Continuous
 62
     1
370
    15
100
AcDbSpline
210
0.0
220
0.0
230
1.0
 70
     8
 71
     3
 72
     8
 73
     4
 74
     0
 42
0.000000001
 43
0.00000001
 40
0.0
 40
0.0
 40
0.0
 40
0.0
 40
1.0
 40
1.0
 40
1.0
 40
1.0
 10
32.2141547540971
 20
2.824310943878549
 30
0.0
 10
32.02037411747433
 20
2.889281703882894
 30
0.0
 10
31.82635827212142
 20
2.953812309459227
 30
0.0
 10
31.63193699684815
 20
3.017883912540166
 30
0.0
  0
SPLINE
  5
169
330
1F
100
AcDbEntity
  8
외형선
  6
Continuous
 62
     1
370
    15
100
AcDbSpline
210
0.0
220
0.0
230
1.0
 70
     8
 71
     3
 72
    12
 73
     8
 74
     0
 42
0.000000001
 43
0.00000001
 40
0.0
 40
0.0
 40
0.0
 40
0.0
 40
0.5
 40
0.5
 40
0.7500000000000001
 40
0.7500000000000001
 40
1.0
 40
1.0
 40
1.0
 40
1.0
 10
12.35037893672797
 20
-2.575455661503083
 30
0.0
 10
12.33164805611028
 20
-2.141302256310406
 30
0.0
 10
12.31323569523724
 20
-1.68384416541205
 30
0.0
 10
12.28710033360074
 20
-0.9908779387448282
 30
0.0
 10
12.27882052227496
 20
-0.7604735322490114
 30
0.0
 10
12.26165597361687
 20
-0.2908189564874653
 30
0.0
 10
12.25281127398654
 20
-0.0518772342475042
 30
0.0
 10
12.24377903054627
 20
0.1890029424151145
 30
0.0
  0
SPLINE
  5
16A
330
1F
100
AcDbEntity
  8
외형선
  6
Continuous
 62
     1
370
    15
100
AcDbSpline
210
0.0
220
0.0
230
1.0
 70
     8
 71
     3
 72
    10
 73
     6
 74
     0
 42
0.000000001
 43
0.00000001
 40
0.0
 40
0.0
 40
0.0
 40
0.0
 40
0.5000000000000001
 40
0.5000000000000001
 40
1.0
 40
1.0
 40
1.0
 40
1.0
 10
12.93247582171332
 20
-2.762766646036254
 30
0.0
 10
12.91369137138098
 20
-2.336169869178075
 30
0.0
 10
12.89511526165616
 20
-1.883673485759587
 30
0.0
 10
12.85976114734138
 20
-0.9641126679754981
 30
0.0
 10
12.84344407884493
 20
-0.5015970487247936
 30
0.0
 10
12.82563133934948
 20
-0.0229844528816589
 30
0.0
  0
SPLINE
  5
16B
330
1F
100
AcDbEntity
  8
외형선
  6
Continuous
 62
     1
370
    15
100
AcDbSpline
210
0.0
220
0.0
230
1.0
 70
     8
 71
     3
 72
     8
 73
     4
 74
     0
 42
0.000000001
 43
0.00000001
 40
0.0
 40
0.0
 40
0.0
 40
0.0
 40
1.0
 40
1.0
 40
1.0
 40
1.0
 10
12.93247582171333
 20
-2.76276664603628
 30
0.0
 10
12.73858170240165
 20
-2.700906057080087
 30
0.0
 10
12.54475412813048
 20
-2.638479630190388
 30
0.0
 10
12.3503789126072
 20
-2.57545509241425
 30
0.0
  0
SPLINE
  5
16D
330
1F
100
AcDbEntity
  8
외형선
  6
Continuous
 62
     1
370
    15
100
AcDbSpline
210
0.0
220
0.0
230
1.0
 70
     8
 71
     3
 72
     8
 73
     4
 74
     0
 42
0.000000001
 43
0.00000001
 40
0.0
 40
0.0
 40
0.0
 40
0.0
 40
1.0
 40
1.0
 40
1.0
 40
1.0
 10
34.85000000000152
 20
1.918029361623519
 30
0.0
 10
34.79152196515948
 20
1.938634696815515
 30
0.0
 10
34.7330170674529
 20
1.95921617818621
 30
0.0
 10
34.67448973129615
 20
1.979772221205338
 30
0.0
  0
SPLINE
  5
16E
330
1F
100
AcDbEntity
  8
외형선
  6
Continuous
 62
     1
370
    15
100
AcDbSpline
210
0.0
220
0.0
230
1.0
 70
     8
 71
     3
 72
    12
 73
     8
 74
     0
 42
0.000000001
 43
0.00000001
 40
0.0
 40
0.0
 40
0.0
 40
0.0
 40
0.2500000000000001
 40
0.2500000000000001
 40
0.5000000000000001
 40
0.5000000000000001
 40
1.0
 40
1.0
 40
1.0
 40
1.0
 10
10.82924743479707
 20
-2.072664884820258
 30
0.0
 10
10.82004237285964
 20
-1.847915512118729
 30
0.0
 10
10.81098298830613
 20
-1.619106764196018
 30
0.0
 10
10.79331851237644
 20
-1.158104472182145
 30
0.0
 10
10.78483430667051
 20
-0.9270062774694796
 30
0.0
 10
10.75945412201725
 20
-0.2281819402584201
 30
0.0
 10
10.74140599034217
 20
0.2563522637632256
 30
0.0
 10
10.72285574129819
 20
0.7416448408918606
 30
0.0
  0
SPLINE
  5
16F
330
1F
100
AcDbEntity
  8
외형선
  6
Continuous
 62
     1
370
    15
100
AcDbSpline
210
0.0
220
0.0
230
1.0
 70
     8
 71
     3
 72
    12
 73
     8
 74
     0
 42
0.000000001
 43
0.00000001
 40
0.0
 40
0.0
 40
0.0
 40
0.0
 40
0.5000000000000001
 40
0.5000000000000001
 40
0.75
 40
0.75
 40
1.0
 40
1.0
 40
1.0
 40
1.0
 10
11.41123057121664
 20
-2.267290104052536
 30
0.0
 10
11.39266761309233
 20
-1.822910816529844
 30
0.0
 10
11.37459684798543
 20
-1.35959053738138
 30
0.0
 10
11.34917190663793
 20
-0.6643851801885277
 30
0.0
 10
11.34071996550472
 20
-0.430342768767021
 30
0.0
 10
11.32308072193892
 20
0.0464740598520364
 30
0.0
 10
11.31403190560885
 20
0.2880081073335035
 30
0.0
 10
11.30483503416326
 20
0.5303757742204691
 30
0.0
  0
SPLINE
  5
170
330
1F
100
AcDbEntity
  8
외형선
  6
Continuous
 62
     1
370
    15
100
AcDbSpline
210
0.0
220
0.0
230
1.0
 70
     8
 71
     3
 72
     8
 73
     4
 74
     0
 42
0.000000001
 43
0.00000001
 40
0.0
 40
0.0
 40
0.0
 40
0.0
 40
1.0
 40
1.0
 40
1.0
 40
1.0
 10
11.41123057121664
 20
-2.267290104052423
 30
0.0
 10
11.21723563049091
 20
-2.202880832492167
 30
0.0
 10
11.02318742839103
 20
-2.137987577874699
 30
0.0
 10
10.82924741781944
 20
-2.072664464946707
 30
0.0
  0
SPLINE
  5
172
330
1F
100
AcDbEntity
  8
외형선
  6
Continuous
 62
     1
370
    15
100
AcDbSpline
210
0.0
220
0.0
230
1.0
 70
     8
 71
     3
 72
     8
 73
     4
 74
     0
 42
0.000000001
 43
0.00000001
 40
0.0
 40
0.0
 40
0.0
 40
0.0
 40
1.0
 40
1.0
 40
1.0
 40
1.0
 10
30.69337171599136
 20
3.322777976282873
 30
0.0
 10
30.49943811999695
 20
3.384867892885451
 30
0.0
 10
30.30546862746492
 20
3.446405903731241
 30
0.0
 10
30.111624492869
 20
3.507341109609126
 30
0.0
  0
SPLINE
  5
174
330
1F
100
AcDbEntity
  8
외형선
  6
Continuous
 62
     1
370
    15
100
AcDbSpline
210
0.0
220
0.0
230
1.0
 70
     8
 71
     3
 72
    17
 73
    13
 74
     0
 42
0.000000001
 43
0.00000001
 40
0.0
 40
0.0
 40
0.0
 40
0.0
 40
0.0000438683532658
 40
0.0000438683532658
 40
0.0000438683532658
 40
0.0000877526107057
 40
0.0000877526107057
 40
0.0000877526107057
 40
0.0001307368079309
 40
0.0001307368079309
 40
0.0001307368079309
 40
0.0001750069226642
 40
0.0001750069226642
 40
0.0001750069226642
 40
0.0001750069226642
 10
10.82924741759722
 20
-2.072664464871841
 30
0.0
 10
10.81550460946216
 20
-2.068035595330616
 30
0.0
 10
10.80166822988382
 20
-2.063103709085543
 30
0.0
 10
10.78798444839051
 20
-2.057958579781205
 30
0.0
 10
10.77429776712238
 20
-2.052812360155719
 30
0.0
 10
10.76067827068538
 20
-2.047420533130367
 30
0.0
 10
10.7473920299328
 20
-2.041892375054184
 30
0.0
 10
10.73437903543501
 20
-2.036477909670942
 30
0.0
 10
10.72160075213927
 20
-2.030897210302411
 30
0.0
 10
10.7093269403983
 20
-2.025273060204646
 30
0.0
 10
10.69669169600077
 20
-2.019483293136899
 30
0.0
 10
10.68449807163371
 20
-2.013604494066317
 30
0.0
 10
10.67305658583316
 20
-2.007792438381698
 30
0.0
  0
SPLINE
  5
175
330
1F
100
AcDbEntity
  8
외형선
  6
Continuous
 62
     1
370
    15
100
AcDbSpline
210
0.0
220
0.0
230
1.0
 70
     8
 71
     3
 72
    12
 73
     8
 74
     0
 42
0.000000001
 43
0.00000001
 40
0.0
 40
0.0
 40
0.0
 40
0.0
 40
0.25
 40
0.25
 40
0.5
 40
0.5
 40
1.0
 40
1.0
 40
1.0
 40
1.0
 10
10.67305658583179
 20
-2.007792438355572
 30
0.0
 10
10.66382006842898
 20
-1.783156727535233
 30
0.0
 10
10.65473675555142
 20
-1.554610091163322
 30
0.0
 10
10.63704052060372
 20
-1.094465094676053
 30
0.0
 10
10.62859334462071
 20
-0.8643572368737037
 30
0.0
 10
10.6029420929364
 20
-0.1654357165363111
 30
0.0
 10
10.58472127496509
 20
0.3185862762838196
 30
0.0
 10
10.56602538426633
 20
0.8024911115001694
 30
0.0
  0
SPLINE
  5
176
330
1F
100
AcDbEntity
  8
외형선
  6
Continuous
 62
     1
370
    15
100
AcDbSpline
210
0.0
220
0.0
230
1.0
 70
     8
 71
     3
 72
    12
 73
     8
 74
     0
 42
0.000000001
 43
0.00000001
 40
0.0
 40
0.0
 40
0.0
 40
0.0
 40
0.4999999999999998
 40
0.4999999999999998
 40
0.7499999999999999
 40
0.7499999999999999
 40
1.0
 40
1.0
 40
1.0
 40
1.0
 10
13.87172872822494
 20
-3.057264026231778
 30
0.0
 10
13.8529409422334
 20
-2.644704332672675
 30
0.0
 10
13.83418278131649
 20
-2.202311692343939
 30
0.0
 10
13.80716097620164
 20
-1.521084355279536
 30
0.0
 10
13.7983382375693
 20
-1.291111953354225
 30
0.0
 10
13.78121057729463
 20
-0.8299967842594772
 30
0.0
 10
13.77296992903283
 20
-0.5994692739605237
 30
0.0
 10
13.76430294878989
 20
-0.3637280522189485
 30
0.0
  0
SPLINE
  5
177
330
1F
100
AcDbEntity
  8
외형선
  6
Continuous
 62
     1
370
    15
100
AcDbSpline
210
0.0
220
0.0
230
1.0
 70
     8
 71
     3
 72
    12
 73
     8
 74
     0
 42
0.000000001
 43
0.00000001
 40
0.0
 40
0.0
 40
0.0
 40
0.0
 40
0.5
 40
0.5
 40
0.75
 40
0.75
 40
1.0
 40
1.0
 40
1.0
 40
1.0
 10
14.45382449895864
 20
-3.234614565696065
 30
0.0
 10
14.43508571887154
 20
-2.831828916316547
 30
0.0
 10
14.41626660720196
 20
-2.39695865677233
 30
0.0
 10
14.38900064696224
 20
-1.722893682514864
 30
0.0
 10
14.38007152008649
 20
-1.494632740170713
 30
0.0
 10
14.3626877330078
 20
-1.035596733746828
 30
0.0
 10
14.35441974924317
 20
-0.8065192739163836
 30
0.0
 10
14.3459222801274
 20
-0.5735990268884359
 30
0.0
  0
SPLINE
  5
178
330
1F
100
AcDbEntity
  8
외형선
  6
Continuous
 62
     1
370
    15
100
AcDbSpline
210
0.0
220
0.0
230
1.0
 70
     8
 71
     3
 72
     8
 73
     4
 74
     0
 42
0.000000001
 43
0.00000001
 40
0.0
 40
0.0
 40
0.0
 40
0.0
 40
1.0
 40
1.0
 40
1.0
 40
1.0
 10
14.45382449895875
 20
-3.234614565698133
 30
0.0
 10
14.2597416084587
 20
-3.176138883881895
 30
0.0
 10
14.06565583414195
 20
-3.117005344746549
 30
0.0
 10
13.8717287135429
 20
-3.057263692214101
 30
0.0
  0
SPLINE
  5
17A
330
1F
100
AcDbEntity
  8
외형선
  6
Continuous
 62
     1
370
    15
100
AcDbSpline
210
0.0
220
0.0
230
1.0
 70
     8
 71
     3
 72
     8
 73
     4
 74
     0
 42
0.000000001
 43
0.00000001
 40
0.0
 40
0.0
 40
0.0
 40
0.0
 40
1.0
 40
1.0
 40
1.0
 40
1.0
 10
31.47541262023482
 20
3.053459442800445
 30
0.0
 10
31.52020440281161
 20
3.048986981902242
 30
0.0
 10
31.57532842894484
 20
3.036539441094412
 30
0.0
 10
31.63220748995669
 20
3.017794771070152
 30
0.0
  0
SPLINE
  5
17B
330
1F
100
AcDbEntity
  8
외형선
  6
Continuous
 62
     1
370
    15
100
AcDbSpline
210
0.0
220
0.0
230
1.0
 70
     8
 71
     3
 72
     8
 73
     4
 74
     0
 42
0.000000001
 43
0.00000001
 40
0.0
 40
0.0
 40
0.0
 40
0.0
 40
1.0
 40
1.0
 40
1.0
 40
1.0
 10
11.5680611461155
 20
-2.304420649401463
 30
0.0
 10
11.52325828987792
 20
-2.299143022042414
 30
0.0
 10
11.46812322827414
 20
-2.286179331701767
 30
0.0
 10
11.41123057121774
 20
-2.267290104052798
 30
0.0
  0
SPLINE
  5
17C
330
1F
100
AcDbEntity
  8
외형선
  6
Continuous
 62
     1
370
    15
100
AcDbSpline
210
0.0
220
0.0
230
1.0
 70
     8
 71
     3
 72
    12
 73
     8
 74
     0
 42
0.000000001
 43
0.00000001
 40
0.0
 40
0.0
 40
0.0
 40
0.0
 40
0.5
 40
0.5
 40
0.75
 40
0.75
 40
1.0
 40
1.0
 40
1.0
 40
1.0
 10
11.56806114587908
 20
-2.304420643823581
 30
0.0
 10
11.54935359149497
 20
-1.863044940644566
 30
0.0
 10
11.53111100301555
 20
-1.401827279613767
 30
0.0
 10
11.50541592516758
 20
-0.7086952551822461
 30
0.0
 10
11.4969942872004
 20
-0.4762845278579655
 30
0.0
 10
11.47932420261787
 20
-0.0017626531949155
 30
0.0
 10
11.47025192953335
 20
0.2387907081930361
 30
0.0
 10
11.46102406995801
 20
0.4803403314025746
 30
0.0
  0
SPLINE
  5
17D
330
1F
100
AcDbEntity
  8
외형선
  6
Continuous
 62
     1
370
    15
100
AcDbSpline
210
0.0
220
0.0
230
1.0
 70
     8
 71
     3
 72
    10
 73
     6
 74
     0
 42
0.000000001
 43
0.00000001
 40
0.0
 40
0.0
 40
0.0
 40
0.0
 40
0.5
 40
0.5
 40
1.0
 40
1.0
 40
1.0
 40
1.0
 10
10.67305658583287
 20
-2.007792438381558
 30
0.0
 10
10.58028169166329
 20
-1.960664568763206
 30
0.0
 10
10.4674455088013
 20
-1.917315842712211
 30
0.0
 10
10.24250005774521
 20
-1.84317583469745
 30
0.0
 10
10.13541950230535
 20
-1.813761911249513
 30
0.0
 10
10.04707824519762
 20
-1.796411777680645
 30
0.0
  0
SPLINE
  5
17E
330
1F
100
AcDbEntity
  8
외형선
  6
Continuous
370
    15
100
AcDbSpline
210
0.0
220
0.0
230
1.0
 70
     8
 71
     3
 72
    10
 73
     6
 74
     0
 42
0.000000001
 43
0.00000001
 40
0.0
 40
0.0
 40
0.0
 40
0.0
 40
0.5
 40
0.5
 40
1.0
 40
1.0
 40
1.0
 40
1.0
 10
10.04707823937599
 20
-1.79641163308412
 30
0.0
 10
10.03889740794859
 20
-1.593218407752933
 30
0.0
 10
10.03086096025928
 20
-1.38748739624963
 30
0.0
 10
10.01518987199803
 20
-0.9743616296573486
 30
0.0
 10
10.00770938431294
 20
-0.7683567431252217
 30
0.0
 10
10.0
 20
-0.5588700473526419
 30
0.0
  0
SPLINE
  5
17F
330
1F
100
AcDbEntity
  8
외형선
  6
Continuous
370
    15
100
AcDbSpline
210
0.0
220
0.0
230
1.0
 70
    24
 71
     3
 72
     8
 73
     4
 74
     0
 42
0.000000001
 43
0.00000001
 40
0.0
 40
0.0
 40
0.0
 40
0.0
 40
1.0
 40
1.0
 40
1.0
 40
1.0
 10
10.00000000000509
 20
1.007990776882667
 30
0.0
 10
10.00000000000509
 20
0.4904081404984211
 30
0.0
 10
9.999999999999995
 20
-0.0318106277394148
 30
0.0
 10
9.999999999999995
 20
-0.5588700473524989
 30
0.0
  0
SPLINE
  5
180
330
1F
100
AcDbEntity
  8
외형선
  6
Continuous
 62
     1
370
    15
100
AcDbSpline
210
0.0
220
0.0
230
1.0
 70
     8
 71
     3
 72
    17
 73
    13
 74
     0
 42
0.000000001
 43
0.00000001
 40
0.0
 40
0.0
 40
0.0
 40
0.0
 40
0.0000438681666611
 40
0.0000438681666611
 40
0.0000438681666611
 40
0.0000877522883407
 40
0.0000877522883407
 40
0.0000877522883407
 40
0.0001307613267983
 40
0.0001307613267983
 40
0.0001307613267983
 40
0.0001750579476361
 40
0.0001750579476361
 40
0.0001750579476361
 40
0.0001750579476361
 10
12.35037891216937
 20
-2.575455092272291
 30
0.0
 10
12.3366391365985
 20
-2.571000084970147
 30
0.0
 10
12.32280565405913
 20
-2.566149991498626
 30
0.0
 10
12.30912423813699
 20
-2.560989851959625
 30
0.0
 10
12.29543991364182
 20
-2.555828615411162
 30
0.0
 10
12.28182235787071
 20
-2.550324791674291
 30
0.0
 10
12.26853735545383
 20
-2.544585335991103
 30
0.0
 10
12.25551807478415
 20
-2.538960678796031
 30
0.0
 10
12.24273315568799
 20
-2.533072796511785
 30
0.0
 10
12.2304527048116
 20
-2.527045828392843
 30
0.0
 10
12.21781038261846
 20
-2.520841261999121
 30
0.0
 10
12.20560957619363
 20
-2.514442980444962
 30
0.0
 10
12.19416142046631
 20
-2.508013642554575
 30
0.0
  0
SPLINE
  5
181
330
1F
100
AcDbEntity
  8
외형선
  6
Continuous
 62
     1
370
    15
100
AcDbSpline
210
0.0
220
0.0
230
1.0
 70
     8
 71
     3
 72
    12
 73
     8
 74
     0
 42
0.000000001
 43
0.00000001
 40
0.0
 40
0.0
 40
0.0
 40
0.0
 40
0.5
 40
0.5
 40
0.75
 40
0.75
 40
1.0
 40
1.0
 40
1.0
 40
1.0
 10
12.19416142046597
 20
-2.508013642553437
 30
0.0
 10
12.17534264016395
 20
-2.073470456140043
 30
0.0
 10
12.15687158430207
 20
-1.616168763594273
 30
0.0
 10
12.13070021755909
 20
-0.9245266069951776
 30
0.0
 10
12.12239647452373
 20
-0.6945522038965186
 30
0.0
 10
12.10504428561637
 20
-0.2247804839316159
 30
0.0
 10
12.09610852363302
 20
0.0140596046073892
 30
0.0
 10
12.08699050257327
 20
0.2546355172206891
 30
0.0
  0
SPLINE
  5
182
330
1F
100
AcDbEntity
  8
외형선
  6
Continuous
 62
     1
370
    15
100
AcDbSpline
210
0.0
220
0.0
230
1.0
 70
     8
 71
     3
 72
    17
 73
    13
 74
     0
 42
0.000000001
 43
0.00000001
 40
0.0
 40
0.0
 40
0.0
 40
0.0
 40
0.0000438685214115
 40
0.0000438685214115
 40
0.0000438685214115
 40
0.000087752917606
 40
0.000087752917606
 40
0.000087752917606
 40
0.0001307161838439
 40
0.0001307161838439
 40
0.0001307161838439
 40
0.0001749642081409
 40
0.0001749642081409
 40
0.0001749642081409
 40
0.0001749642081409
 10
30.69337171599165
 20
3.322777976283306
 30
0.0
 10
30.70711493241316
 20
3.318377938440005
 30
0.0
 10
30.72095182496869
 20
3.3135608465082
 30
0.0
 10
30.73463590727559
 20
3.308410740443573
 30
0.0
 10
30.74832288407364
 20
3.303259545015692
 30
0.0
 10
30.76194256069511
 20
3.297742757637789
 30
0.0
 10
30.77522860644762
 20
3.291966935051446
 30
0.0
 10
30.78823508256466
 20
3.286312649350116
 30
0.0
 10
30.80100676664621
 20
3.280372980913806
 30
0.0
 10
30.81327414533363
 20
3.27427203006519
 30
0.0
 10
30.82590263011731
 20
3.267991489868224
 30
0.0
 10
30.83808959042447
 20
3.261493169403566
 30
0.0
 10
30.84952496134965
 20
3.254940680867945
 30
0.0
  0
SPLINE
  5
184
330
1F
100
AcDbEntity
  8
외형선
  6
Continuous
 62
     1
370
    15
100
AcDbSpline
210
0.0
220
0.0
230
1.0
 70
     8
 71
     3
 72
    10
 73
     6
 74
     0
 42
0.000000001
 43
0.00000001
 40
0.0
 40
0.0
 40
0.0
 40
0.0
 40
0.5
 40
0.5
 40
1.0
 40
1.0
 40
1.0
 40
1.0
 10
13.08933562988071
 20
-2.793365026257968
 30
0.0
 10
13.07043534616913
 20
-2.37043516548288
 30
0.0
 10
13.05171146201606
 20
-1.920749793389954
 30
0.0
 10
13.01603178607792
 20
-1.005269841752118
 30
0.0
 10
12.99963964563012
 20
-0.5449092366686453
 30
0.0
 10
12.98179047726631
 20
-0.0685203641397959
 30
0.0
  0
SPLINE
  5
185
330
1F
100
AcDbEntity
  8
외형선
  6
Continuous
 62
     1
370
    15
100
AcDbSpline
210
0.0
220
0.0
230
1.0
 70
     8
 71
     3
 72
     8
 73
     4
 74
     0
 42
0.000000001
 43
0.00000001
 40
0.0
 40
0.0
 40
0.0
 40
0.0
 40
1.0
 40
1.0
 40
1.0
 40
1.0
 10
13.08933569050847
 20
-2.793366382919536
 30
0.0
 10
13.04451823668242
 20
-2.791584312110435
 30
0.0
 10
12.98937351173726
 20
-2.780919463809234
 30
0.0
 10
12.93247582171444
 20
-2.762766646036645
 30
0.0
  0
SPLINE
  5
187
330
1F
100
AcDbEntity
  8
외형선
  6
Continuous
 62
     1
370
    15
100
AcDbSpline
210
0.0
220
0.0
230
1.0
 70
     8
 71
     3
 72
     8
 73
     4
 74
     0
 42
0.000000001
 43
0.00000001
 40
0.0
 40
0.0
 40
0.0
 40
0.0
 40
1.0
 40
1.0
 40
1.0
 40
1.0
 10
29.95489218339746
 20
3.536181246095146
 30
0.0
 10
29.99965909560845
 20
3.535262130256386
 30
0.0
 10
30.05476239795524
 20
3.525215798351264
 30
0.0
 10
30.11162549075108
 20
3.507340795924728
 30
0.0
  0
SPLINE
  5
188
330
1F
100
AcDbEntity
  8
외형선
  6
Continuous
 62
     1
370
    15
100
AcDbSpline
210
0.0
220
0.0
230
1.0
 70
     8
 71
     3
 72
    10
 73
     6
 74
     0
 42
0.000000001
 43
0.00000001
 40
0.0
 40
0.0
 40
0.0
 40
0.0
 40
0.5
 40
0.5
 40
1.0
 40
1.0
 40
1.0
 40
1.0
 10
28.70001211690157
 20
1.333145552423049
 30
0.0
 10
28.68135289189441
 20
1.811355058349619
 30
0.0
 10
28.66251188804699
 20
2.282048391702638
 30
0.0
 10
28.62591715724769
 20
3.172617847708442
 30
0.0
 10
28.60822889953905
 20
3.591849246153686
 30
0.0
 10
28.59157721104967
 20
3.973371860221434
 30
0.0
  0
SPLINE
  5
189
330
1F
100
AcDbEntity
  8
외형선
  6
Continuous
 62
     1
370
    15
100
AcDbSpline
210
0.0
220
0.0
230
1.0
 70
     8
 71
     3
 72
     8
 73
     4
 74
     0
 42
0.000000001
 43
0.00000001
 40
0.0
 40
0.0
 40
0.0
 40
0.0
 40
1.0
 40
1.0
 40
1.0
 40
1.0
 10
29.17311364984603
 20
3.797953168638059
 30
0.0
 10
28.97917120400262
 20
3.85709391984748
 30
0.0
 10
28.78569560152683
 20
3.915540508690963
 30
0.0
 10
28.59157724308514
 20
3.973371124959499
 30
0.0
  0
SPLINE
  5
18B
330
1F
100
AcDbEntity
  8
외형선
  6
Continuous
 62
     1
370
    15
100
AcDbSpline
210
0.0
220
0.0
230
1.0
 70
     8
 71
     3
 72
     8
 73
     4
 74
     0
 42
0.000000001
 43
0.00000001
 40
0.0
 40
0.0
 40
0.0
 40
0.0
 40
0.6971013706980326
 40
0.6971013706980326
 40
0.6971013706980326
 40
0.6971013706980326
 10
34.85000000000001
 20
1.918029361624433
 30
0.0
 10
34.97709628165861
 20
1.858950240638359
 30
0.0
 10
35.10461654189633
 20
1.807676676764536
 30
0.0
 10
35.23270282513069
 20
1.764864288143175
 30
0.0
  0
SPLINE
  5
18D
330
1F
100
AcDbEntity
  8
외형선
  6
Continuous
 62
     1
370
    15
100
AcDbSpline
210
0.0
220
0.0
230
1.0
 70
    24
 71
     3
 72
     8
 73
     4
 74
     0
 42
0.000000001
 43
0.00000001
 40
0.000000302994245
 40
0.000000302994245
 40
0.000000302994245
 40
0.000000302994245
 40
0.0006409124934347
 40
0.0006409124934347
 40
0.0006409124934347
 40
0.0006409124934347
 10
35.4
 20
-0.6356294190672871
 30
0.0
 10
35.25905213913641
 20
-0.734322173738503
 30
0.0
 10
35.1175033328543
 20
-0.8334357149218251
 30
0.0
 10
34.97545781168701
 20
-0.9328970596120911
 30
0.0
  0
SPLINE
  5
18E
330
1F
100
AcDbEntity
  8
외형선
  6
Continuous
 62
     1
370
    15
100
AcDbSpline
210
0.0
220
0.0
230
1.0
 70
     8
 71
     3
 72
    17
 73
    13
 74
     0
 42
0.000000001
 43
0.00000001
 40
0.0
 40
0.0
 40
0.0
 40
0.0
 40
0.0000438682114854
 40
0.0000438682114854
 40
0.0000438682114854
 40
0.0000877523324824
 40
0.0000877523324824
 40
0.0000877523324824
 40
0.0001307556184103
 40
0.0001307556184103
 40
0.0001307556184103
 40
0.0001750457833201
 40
0.0001750457833201
 40
0.0001750457833201
 40
0.0001750457833201
 10
13.8717287130064
 20
-3.057263692048847
 30
0.0
 10
13.85798640869165
 20
-3.053030204917973
 30
0.0
 10
13.84415061563885
 20
-3.048311275220352
 30
0.0
 10
13.83046722747812
 20
-3.043186566750995
 30
0.0
 10
13.81678093882116
 20
-3.038060771986532
 30
0.0
 10
13.80316172819527
 20
-3.032496755627351
 30
0.0
 10
13.7898754139233
 20
-3.02659840644616
 30
0.0
 10
13.77685657247459
 20
-3.020818799609592
 30
0.0
 10
13.76407235524384
 20
-3.014680164788494
 30
0.0
 10
13.75179272387086
 20
-3.008306873046751
 30
0.0
 10
13.73915139029147
 20
-3.001745853056899
 30
0.0
 10
13.72695172799119
 20
-2.994886998853772
 30
0.0
 10
13.71550465624319
 20
-2.987898338075914
 30
0.0
  0
SPLINE
  5
18F
330
1F
100
AcDbEntity
  8
외형선
  6
Continuous
 62
     1
370
    15
100
AcDbSpline
210
0.0
220
0.0
230
1.0
 70
     8
 71
     3
 72
    12
 73
     8
 74
     0
 42
0.000000001
 43
0.00000001
 40
0.0
 40
0.0
 40
0.0
 40
0.0
 40
0.5
 40
0.5
 40
0.75
 40
0.75
 40
1.0
 40
1.0
 40
1.0
 40
1.0
 10
13.71550461069088
 20
-2.987897341376768
 30
0.0
 10
13.69660322329957
 20
-2.574326013062451
 30
0.0
 10
13.67775765607172
 20
-2.131371221987719
 30
0.0
 10
13.65065811729776
 20
-1.450366405054426
 30
0.0
 10
13.64181821870199
 20
-1.220643618113652
 30
0.0
 10
13.62467422027839
 20
-0.7604098987730656
 30
0.0
 10
13.61634087990541
 20
-0.5296759719970884
 30
0.0
 10
13.60757620068655
 20
-0.2938342817580603
 30
0.0
  0
SPLINE
  5
190
330
1F
100
AcDbEntity
  8
외형선
  6
Continuous
 62
     1
370
    15
100
AcDbSpline
210
0.0
220
0.0
230
1.0
 70
     8
 71
     3
 72
    10
 73
     6
 74
     0
 42
0.000000001
 43
0.00000001
 40
0.0
 40
0.0
 40
0.0
 40
0.0
 40
0.5
 40
0.5
 40
1.0
 40
1.0
 40
1.0
 40
1.0
 10
12.19416142046602
 20
-2.508013642554424
 30
0.0
 10
12.10137754154082
 20
-2.455905781463086
 30
0.0
 10
11.98853454599727
 20
-2.410846128545693
 30
0.0
 10
11.76355815413962
 20
-2.339696616405364
 30
0.0
 10
11.65643782567804
 20
-2.314831128132719
 30
0.0
 10
11.56806114611551
 20
-2.304420649401457
 30
0.0
  0
SPLINE
  5
191
330
1F
100
AcDbEntity
  8
외형선
  6
Continuous
 62
     1
370
    15
100
AcDbSpline
210
0.0
220
0.0
230
1.0
 70
     8
 71
     3
 72
    10
 73
     6
 74
     0
 42
0.000000001
 43
0.00000001
 40
0.0
 40
0.0
 40
0.0
 40
0.0
 40
0.5
 40
0.5
 40
1.0
 40
1.0
 40
1.0
 40
1.0
 10
30.84952496135032
 20
3.254940680866578
 30
0.0
 10
30.94227823038866
 20
3.201792887410897
 30
0.0
 10
31.05509789318173
 20
3.156424426002684
 30
0.0
 10
31.2800141727727
 20
3.08607154620142
 30
0.0
 10
31.38708204727592
 20
3.062279253286669
 30
0.0
 10
31.47541262023462
 20
3.053459442800385
 30
0.0
  0
SPLINE
  5
192
330
1F
100
AcDbEntity
  8
외형선
  6
Continuous
 62
     1
370
    15
100
AcDbSpline
210
0.0
220
0.0
230
1.0
 70
     8
 71
     3
 72
    17
 73
    13
 74
     0
 42
0.000000001
 43
0.00000001
 40
0.0
 40
0.0
 40
0.0
 40
0.0
 40
0.0000438685356122
 40
0.0000438685356122
 40
0.0000438685356122
 40
0.0000877529709682
 40
0.0000877529709682
 40
0.0000877529709682
 40
0.0001307154397362
 40
0.0001307154397362
 40
0.0001307154397362
 40
0.0001749629263358
 40
0.0001749629263358
 40
0.0001749629263358
 40
0.0001749629263358
 10
29.17311364984627
 20
3.797953168638637
 30
0.0
 10
29.18685180473678
 20
3.793763859810839
 30
0.0
 10
29.20068391759353
 20
3.789068774238064
 30
0.0
 10
29.21436357220693
 20
3.783946680988102
 30
0.0
 10
29.22804612507269
 20
3.778823502541233
 30
0.0
 10
29.24166171659889
 20
3.77324079111058
 30
0.0
 10
29.25494404115077
 20
3.767302086230559
 30
0.0
 10
29.26794662178882
 20
3.761488458594332
 30
0.0
 10
29.28071476244479
 20
3.755295401742548
 30
0.0
 10
29.29297896680136
 20
3.748847280507295
 30
0.0
 10
29.30560426405195
 20
3.742209308329402
 30
0.0
 10
29.31778841534555
 20
3.735251299710856
 30
0.0
 10
29.32922138196951
 20
3.728142179096106
 30
0.0
  0
SPLINE
  5
194
330
1F
100
AcDbEntity
  8
외형선
  6
Continuous
 62
     1
370
    15
100
AcDbSpline
210
0.0
220
0.0
230
1.0
 70
     8
 71
     3
 72
    10
 73
     6
 74
     0
 42
0.000000001
 43
0.00000001
 40
0.0
 40
0.0
 40
0.0
 40
0.0
 40
0.5
 40
0.5
 40
1.0
 40
1.0
 40
1.0
 40
1.0
 10
15.39304745294043
 20
-3.512464382007625
 30
0.0
 10
15.37446491546409
 20
-3.126999207193706
 30
0.0
 10
15.35562791612286
 20
-2.70614053225592
 30
0.0
 10
15.31889564979429
 20
-1.826728415591901
 30
0.0
 10
15.30101144777007
 20
-1.368489594777288
 30
0.0
 10
15.28421903749364
 20
-0.9099251587642958
 30
0.0
  0
SPLINE
  5
195
330
1F
100
AcDbEntity
  8
외형선
  6
Continuous
 62
     1
370
    15
100
AcDbSpline
210
0.0
220
0.0
230
1.0
 70
     8
 71
     3
 72
    10
 73
     6
 74
     0
 42
0.000000001
 43
0.00000001
 40
0.0
 40
0.0
 40
0.0
 40
0.0
 40
0.5
 40
0.5
 40
1.0
 40
1.0
 40
1.0
 40
1.0
 10
15.97512465844042
 20
-3.679492780035112
 30
0.0
 10
15.95667106957394
 20
-3.305368468792172
 30
0.0
 10
15.93785752654801
 20
-2.893956368058308
 30
0.0
 10
15.90095629909914
 20
-2.02818177312933
 30
0.0
 10
15.88288010316313
 20
-1.574127097041228
 30
0.0
 10
15.86581152141489
 20
-1.117049495907479
 30
0.0
  0
SPLINE
  5
196
330
1F
100
AcDbEntity
  8
외형선
  6
Continuous
 62
     1
370
    15
100
AcDbSpline
210
0.0
220
0.0
230
1.0
 70
     8
 71
     3
 72
     8
 73
     4
 74
     0
 42
0.000000001
 43
0.00000001
 40
0.0
 40
0.0
 40
0.0
 40
0.0
 40
1.0
 40
1.0
 40
1.0
 40
1.0
 10
15.97512465844042
 20
-3.679492780035116
 30
0.0
 10
15.78147174451709
 20
-3.62458457946188
 30
0.0
 10
15.58739223099647
 20
-3.568893725449689
 30
0.0
 10
15.39304744206422
 20
-3.51246415363341
 30
0.0
  0
SPLINE
  5
197
330
1F
100
AcDbEntity
  8
외형선
  6
Continuous
 62
     1
370
    15
100
AcDbSpline
210
0.0
220
0.0
230
1.0
 70
     8
 71
     3
 72
     8
 73
     4
 74
     0
 42
0.000000001
 43
0.00000001
 40
0.0
 40
0.0
 40
0.0
 40
0.0
 40
1.0
 40
1.0
 40
1.0
 40
1.0
 10
14.61067956998088
 20
-3.258118987027307
 30
0.0
 10
14.56586793806132
 20
-3.259926552610399
 30
0.0
 10
14.51072445870102
 20
-3.251758085833549
 30
0.0
 10
14.45382449895987
 20
-3.234614565698486
 30
0.0
  0
SPLINE
  5
198
330
1F
100
AcDbEntity
  8
외형선
  6
Continuous
 62
     1
370
    15
100
AcDbSpline
210
0.0
220
0.0
230
1.0
 70
     8
 71
     3
 72
    12
 73
     8
 74
     0
 42
0.000000001
 43
0.00000001
 40
0.0
 40
0.0
 40
0.0
 40
0.0
 40
0.5
 40
0.5
 40
0.75
 40
0.75
 40
1.0
 40
1.0
 40
1.0
 40
1.0
 10
14.61067956997709
 20
-3.258118986946719
 30
0.0
 10
14.59185445213448
 20
-2.859544280318962
 30
0.0
 10
14.57291417742282
 20
-2.428115732283009
 30
0.0
 10
14.54543524700184
 20
-1.758043335698103
 30
0.0
 10
14.53643003947463
 20
-1.530922150207701
 30
0.0
 10
14.51888817880686
 20
-1.073820656697167
 30
0.0
 10
14.5105251043622
 20
-0.8454020722470025
 30
0.0
 10
14.50202109597958
 20
-0.6138458053299165
 30
0.0
  0
SPLINE
  5
199
330
1F
100
AcDbEntity
  8
외형선
  6
Continuous
 62
     1
370
    15
100
AcDbSpline
210
0.0
220
0.0
230
1.0
 70
     8
 71
     3
 72
    10
 73
     6
 74
     0
 42
0.000000001
 43
0.00000001
 40
0.0
 40
0.0
 40
0.0
 40
0.0
 40
0.5
 40
0.5
 40
1.0
 40
1.0
 40
1.0
 40
1.0
 10
13.71550465624287
 20
-2.98789833807573
 30
0.0
 10
13.62269585952541
 20
-2.931236755817924
 30
0.0
 10
13.50982312416086
 20
-2.884814887080003
 30
0.0
 10
13.2848212340785
 20
-2.817101600419203
 30
0.0
 10
13.17771350920419
 20
-2.796880539066831
 30
0.0
 10
13.08933569050845
 20
-2.793366382919519
 30
0.0
  0
SPLINE
  5
19A
330
1F
100
AcDbEntity
  8
외형선
  6
Continuous
 62
     1
370
    15
100
AcDbSpline
210
0.0
220
0.0
230
1.0
 70
     8
 71
     3
 72
    10
 73
     6
 74
     0
 42
0.000000001
 43
0.00000001
 40
0.0
 40
0.0
 40
0.0
 40
0.0
 40
0.5
 40
0.5
 40
1.0
 40
1.0
 40
1.0
 40
1.0
 10
29.32922138196895
 20
3.72814217909522
 30
0.0
 10
29.42193384591518
 20
3.670492742132271
 30
0.0
 10
29.53470091455512
 20
3.623805671986
 30
0.0
 10
29.75954379965461
 20
3.557038613458834
 30
0.0
 10
29.86659050753063
 20
3.537994180355341
 30
0.0
 10
29.95489218339727
 20
3.536181246095073
 30
0.0
  0
SPLINE
  5
19B
330
1F
100
AcDbEntity
  8
외형선
  6
Continuous
 62
     1
370
    15
100
AcDbSpline
210
0.0
220
0.0
230
1.0
 70
     8
 71
     3
 72
    10
 73
     6
 74
     0
 42
0.000000001
 43
0.00000001
 40
0.0
 40
0.0
 40
0.0
 40
0.0
 40
0.5
 40
0.5
 40
1.0
 40
1.0
 40
1.0
 40
1.0
 10
28.54378618738836
 20
1.372383125595254
 30
0.0
 10
28.52499494541778
 20
1.849124803110905
 30
0.0
 10
28.50604506200535
 20
2.317660774245414
 30
0.0
 10
28.46930318618253
 20
3.202381621443446
 30
0.0
 10
28.45176502001366
 20
3.616558931505128
 30
0.0
 10
28.43490240016411
 20
3.995302419610299
 30
0.0
  0
SPLINE
  5
19C
330
1F
100
AcDbEntity
  8
외형선
  6
Continuous
 62
     1
370
    15
100
AcDbSpline
210
0.0
220
0.0
230
1.0
 70
     8
 71
     3
 72
     8
 73
     4
 74
     0
 42
0.000000001
 43
0.00000001
 40
0.0
 40
0.0
 40
0.0
 40
0.0
 40
1.0
 40
1.0
 40
1.0
 40
1.0
 10
28.4349024001642
 20
3.995302419612726
 30
0.0
 10
28.47965208581282
 20
3.997918877336913
 30
0.0
 10
28.53473580670706
 20
3.990304996243192
 30
0.0
 10
28.59157724314062
 20
3.973371124944657
 30
0.0
  0
SPLINE
  5
19D
330
1F
100
AcDbEntity
  8
외형선
  6
Continuous
370
    15
100
AcDbSpline
210
0.0
220
0.0
230
1.0
 70
     8
 71
     3
 72
     8
 73
     4
 74
     0
 42
0.000000001
 43
0.00000001
 40
0.0
 40
0.0
 40
0.0
 40
0.0
 40
0.0000592058525822
 40
0.0000592058525822
 40
0.0000592058525822
 40
0.0000592058525822
 10
10.04707824519764
 20
-1.796411777680669
 30
0.0
 10
10.03247685164003
 20
-1.793544078750291
 30
0.0
 10
10.01661587448235
 20
-1.789964138943198
 30
0.0
 10
9.999999999974328
 20
-1.785768149292121
 30
0.0
  0
SPLINE
  5
19E
330
1F
100
AcDbEntity
  8
외형선
  6
Continuous
370
    15
100
AcDbSpline
210
0.0
220
0.0
230
1.0
 70
    24
 71
     3
 72
     8
 73
     4
 74
     0
 42
0.000000001
 43
0.00000001
 40
0.0
 40
0.0
 40
0.0
 40
0.0
 40
1.0
 40
1.0
 40
1.0
 40
1.0
 10
9.999999999999995
 20
-0.5588700473524988
 30
0.0
 10
9.999999999999995
 20
-0.9773527745145266
 30
0.0
 10
9.999999999999954
 20
-1.388691730136629
 30
0.0
 10
9.999999999999954
 20
-1.785768149298589
 30
0.0
  0
SPLINE
  5
1A5
330
1F
100
AcDbEntity
  8
외형선
  6
Continuous
 62
     1
370
    15
100
AcDbSpline
210
0.0
220
0.0
230
1.0
 70
     8
 71
     3
 72
    10
 73
     6
 74
     0
 42
0.000000001
 43
0.00000001
 40
0.0
 40
0.0
 40
0.0
 40
0.0
 40
0.5
 40
0.5
 40
1.0
 40
1.0
 40
1.0
 40
1.0
 10
27.80931206318932
 20
4.176083786925317
 30
0.0
 10
27.90202272882254
 20
4.114474268653064
 30
0.0
 10
28.01479059042414
 20
4.066910681783516
 30
0.0
 10
28.23961622624367
 20
4.004308794297133
 30
0.0
 10
28.34663572572926
 20
3.990141578396191
 30
0.0
 10
28.43490240016401
 20
3.995302419612641
 30
0.0
  0
SPLINE
  5
1A6
330
1F
100
AcDbEntity
  8
외형선
  6
Continuous
 62
     1
370
    15
100
AcDbSpline
210
0.0
220
0.0
230
1.0
 70
     8
 71
     3
 72
    17
 73
    13
 74
     0
 42
0.000000001
 43
0.00000001
 40
0.0
 40
0.0
 40
0.0
 40
0.0
 40
0.000043868649001
 40
0.000043868649001
 40
0.000043868649001
 40
0.0000877531748915
 40
0.0000877531748915
 40
0.0000877531748915
 40
0.0001306984760643
 40
0.0001306984760643
 40
0.0001306984760643
 40
0.0001749276253819
 40
0.0001749276253819
 40
0.0001749276253819
 40
0.0001749276253819
 10
27.65319787624357
 20
4.247104054442175
 30
0.0
 10
27.66694091854403
 20
4.243180180946868
 30
0.0
 10
27.68077768786091
 20
4.238664693033422
 30
0.0
 10
27.69446146217899
 20
4.233630192069586
 30
0.0
 10
27.7081481315416
 20
4.228594625968007
 30
0.0
 10
27.72176739077606
 20
4.223007933391105
 30
0.0
 10
27.73505269198827
 20
4.216969631108252
 30
0.0
 10
27.74805300409022
 20
4.211060859226516
 30
0.0
 10
27.76081844871571
 20
4.204680669529822
 30
0.0
 10
27.77307972635742
 20
4.197952447572307
 30
0.0
 10
27.78570183699279
 20
4.191026223045912
 30
0.0
 10
27.79788249866164
 20
4.183679137038857
 30
0.0
 10
27.80931206318986
 20
4.176083786926418
 30
0.0
  0
SPLINE
  5
1A7
330
1F
100
AcDbEntity
  8
외형선
  6
Continuous
 62
     1
370
    15
100
AcDbSpline
210
0.0
220
0.0
230
1.0
 70
     8
 71
     3
 72
     8
 73
     4
 74
     0
 42
0.000000001
 43
0.00000001
 40
0.0
 40
0.0
 40
0.0
 40
0.0
 40
1.0
 40
1.0
 40
1.0
 40
1.0
 10
27.65319787624339
 20
4.24710405444146
 30
0.0
 10
27.4592488078739
 20
4.302479828755196
 30
0.0
 10
27.26521279164454
 20
4.357136943944883
 30
0.0
 10
27.07125125128616
 20
4.411029881527167
 30
0.0
  0
SPLINE
  5
1A8
330
1F
100
AcDbEntity
  8
외형선
  6
Continuous
 62
     1
370
    15
100
AcDbSpline
210
0.0
220
0.0
230
1.0
 70
     8
 71
     3
 72
     8
 73
     4
 74
     0
 42
0.000000001
 43
0.00000001
 40
0.0
 40
0.0
 40
0.0
 40
0.0
 40
1.0
 40
1.0
 40
1.0
 40
1.0
 10
26.91477683528319
 20
4.425682839837169
 30
0.0
 10
26.95954869366722
 20
4.431835893921016
 30
0.0
 10
27.01465524970629
 20
4.426755493652168
 30
0.0
 10
27.07152151457212
 20
4.410954787385859
 30
0.0
  0
SPLINE
  5
1A9
330
1F
100
AcDbEntity
  8
외형선
  6
Continuous
 62
     1
370
    15
100
AcDbSpline
210
0.0
220
0.0
230
1.0
 70
     8
 71
     3
 72
    10
 73
     6
 74
     0
 42
0.000000001
 43
0.00000001
 40
0.0
 40
0.0
 40
0.0
 40
0.0
 40
0.5
 40
0.5
 40
1.0
 40
1.0
 40
1.0
 40
1.0
 10
26.28894506362796
 20
4.594079014674994
 30
0.0
 10
26.3816860588116
 20
4.528874829249397
 30
0.0
 10
26.49448153093999
 20
4.480724675646727
 30
0.0
 10
26.71937434598604
 20
4.422711748044341
 30
0.0
 10
26.82645208116623
 20
4.413544255274259
 30
0.0
 10
26.91477683528299
 20
4.425682839837082
 30
0.0
  0
SPLINE
  5
1AA
330
1F
100
AcDbEntity
  8
외형선
  6
Continuous
 62
     1
370
    15
100
AcDbSpline
210
0.0
220
0.0
230
1.0
 70
     8
 71
     3
 72
    17
 73
    13
 74
     0
 42
0.000000001
 43
0.00000001
 40
0.0
 40
0.0
 40
0.0
 40
0.0
 40
0.0000438683420855
 40
0.0000438683420855
 40
0.0000438683420855
 40
0.0000877526255242
 40
0.0000877526255242
 40
0.0000877526255242
 40
0.0001307385113241
 40
0.0001307385113241
 40
0.0001307385113241
 40
0.0001750107633742
 40
0.0001750107633742
 40
0.0001750107633742
 40
0.0001750107633742
 10
26.13277852121629
 20
4.665978846822695
 30
0.0
 10
26.14651788224169
 20
4.662331602099083
 30
0.0
 10
26.16035105796215
 20
4.65801320055631
 30
0.0
 10
26.17403195821266
 20
4.653089455025036
 30
0.0
 10
26.1877157646004
 20
4.648164663577201
 30
0.0
 10
26.20133269255151
 20
4.642603058562635
 30
0.0
 10
26.21461668263993
 20
4.63649913077945
 30
0.0
 10
26.2276279697781
 20
4.630520508653938
 30
0.0
 10
26.2404048312699
 20
4.623982073970819
 30
0.0
 10
26.2526774427226
 20
4.617005490846038
 30
0.0
 10
26.26531156191471
 20
4.609823402250473
 30
0.0
 10
26.27750430389615
 20
4.602122765096686
 30
0.0
 10
26.28894506362851
 20
4.59407901467632
 30
0.0
  0
SPLINE
  5
1AB
330
1F
100
AcDbEntity
  8
외형선
  6
Continuous
 62
     1
370
    15
100
AcDbSpline
210
0.0
220
0.0
230
1.0
 70
     8
 71
     3
 72
     8
 73
     4
 74
     0
 42
0.000000001
 43
0.00000001
 40
0.0
 40
0.0
 40
0.0
 40
0.0
 40
1.0
 40
1.0
 40
1.0
 40
1.0
 10
26.13277852121616
 20
4.665978846821847
 30
0.0
 10
25.93850384401193
 20
4.717550917026161
 30
0.0
 10
25.7448639005418
 20
4.76825717844328
 30
0.0
 10
25.55087843632613
 20
4.818155858549599
 30
0.0
  0
SPLINE
  5
1AC
330
1F
100
AcDbEntity
  8
외형선
  6
Continuous
 62
     1
370
    15
100
AcDbSpline
210
0.0
220
0.0
230
1.0
 70
     8
 71
     3
 72
     8
 73
     4
 74
     0
 42
0.000000001
 43
0.00000001
 40
0.0
 40
0.0
 40
0.0
 40
0.0
 40
1.0
 40
1.0
 40
1.0
 40
1.0
 10
25.39407177427029
 20
4.825758910098861
 30
0.0
 10
25.43886980310221
 20
4.835363714017814
 30
0.0
 10
25.4939969228697
 20
4.832787431362657
 30
0.0
 10
25.55087843634943
 20
4.818155858545861
 30
0.0
  0
SPLINE
  5
1AD
330
1F
100
AcDbEntity
  8
외형선
  6
Continuous
 62
     1
370
    15
100
AcDbSpline
210
0.0
220
0.0
230
1.0
 70
     8
 71
     3
 72
    10
 73
     6
 74
     0
 42
0.000000001
 43
0.00000001
 40
0.0
 40
0.0
 40
0.0
 40
0.0
 40
0.5
 40
0.5
 40
1.0
 40
1.0
 40
1.0
 40
1.0
 10
24.7680565047016
 20
4.980556353769334
 30
0.0
 10
24.86083937847389
 20
4.912295493711005
 30
0.0
 10
24.97368367773239
 20
4.863958374173849
 30
0.0
 10
25.19863937925858
 20
4.810961629493065
 30
0.0
 10
25.30572411585383
 20
4.806816962028249
 30
0.0
 10
25.39407177427011
 20
4.825758910098741
 30
0.0
  0
SPLINE
  5
1AE
330
1F
100
AcDbEntity
  8
외형선
  6
Continuous
 62
     1
370
    15
100
AcDbSpline
210
0.0
220
0.0
230
1.0
 70
     8
 71
     3
 72
    17
 73
    13
 74
     0
 42
0.000000001
 43
0.00000001
 40
0.0
 40
0.0
 40
0.0
 40
0.0
 40
0.0000438683172145
 40
0.0000438683172145
 40
0.0000438683172145
 40
0.0000877525392749
 40
0.0000877525392749
 40
0.0000877525392749
 40
0.0001307415781562
 40
0.0001307415781562
 40
0.0001307415781562
 40
0.0001750167685296
 40
0.0001750167685296
 40
0.0001750167685296
 40
0.0001750167685296
 10
24.6118587715061
 20
5.05264275994281
 30
0.0
 10
24.62560132076527
 20
5.049314004328698
 30
0.0
 10
24.63943741666704
 20
5.045238159391078
 30
0.0
 10
24.65312096303415
 20
5.040473834194426
 30
0.0
 10
24.6668074092047
 20
5.035708499346757
 30
0.0
 10
24.68042669611505
 20
5.030224117552159
 30
0.0
 10
24.6937128223008
 20
5.024109612318711
 30
0.0
 10
24.70672716962443
 20
5.018120184421696
 30
0.0
 10
24.7195068301554
 20
5.011486477547778
 30
0.0
 10
24.73178199917067
 20
5.00432736472162
 30
0.0
 10
24.74441866301219
 20
4.996957421214117
 30
0.0
 10
24.75661370205725
 20
4.988974885319365
 30
0.0
 10
24.76805650470215
 20
4.980556353770856
 30
0.0
  0
SPLINE
  5
1AF
330
1F
100
AcDbEntity
  8
외형선
  6
Continuous
 62
     1
370
    15
100
AcDbSpline
210
0.0
220
0.0
230
1.0
 70
     8
 71
     3
 72
     8
 73
     4
 74
     0
 42
0.000000001
 43
0.00000001
 40
0.0
 40
0.0
 40
0.0
 40
0.0
 40
1.0
 40
1.0
 40
1.0
 40
1.0
 10
24.61185877150603
 20
5.052642759941834
 30
0.0
 10
24.41793977029712
 20
5.099614318986898
 30
0.0
 10
24.22388308920707
 20
5.14572091628475
 30
0.0
 10
24.02985019801999
 20
5.190923660644398
 30
0.0
  0
SPLINE
  5
1B0
330
1F
100
AcDbEntity
  8
외형선
  6
Continuous
 62
     1
370
    15
100
AcDbSpline
210
0.0
220
0.0
230
1.0
 70
     8
 71
     3
 72
     8
 73
     4
 74
     0
 42
0.000000001
 43
0.00000001
 40
0.0
 40
0.0
 40
0.0
 40
0.0
 40
1.0
 40
1.0
 40
1.0
 40
1.0
 10
23.87301317336548
 20
5.191110438663484
 30
0.0
 10
23.9178184049313
 20
5.204146755716983
 30
0.0
 10
23.97295570755448
 20
5.204178048046011
 30
0.0
 10
24.02985019802569
 20
5.190923660645574
 30
0.0
  0
SPLINE
  5
1B1
330
1F
100
AcDbEntity
  8
외형선
  6
Continuous
 62
     1
370
    15
100
AcDbSpline
210
0.0
220
0.0
230
1.0
 70
     8
 71
     3
 72
    10
 73
     6
 74
     0
 42
0.000000001
 43
0.00000001
 40
0.0
 40
0.0
 40
0.0
 40
0.0
 40
0.5
 40
0.5
 40
1.0
 40
1.0
 40
1.0
 40
1.0
 10
23.24689562510365
 20
5.330879578943931
 30
0.0
 10
23.33968186409178
 20
5.260073812576652
 30
0.0
 10
23.4525284699933
 20
5.211913811203309
 30
0.0
 10
23.67751184712032
 20
5.16440877143029
 30
0.0
 10
23.78463381938532
 20
5.165396002219003
 30
0.0
 10
23.87301317336529
 20
5.191110438663366
 30
0.0
  0
SPLINE
  5
1B2
330
1F
100
AcDbEntity
  8
외형선
  6
Continuous
 62
     1
370
    15
100
AcDbSpline
210
0.0
220
0.0
230
1.0
 70
     8
 71
     3
 72
    17
 73
    13
 74
     0
 42
0.000000001
 43
0.00000001
 40
0.0
 40
0.0
 40
0.0
 40
0.0
 40
0.0000438681776058
 40
0.0000438681776058
 40
0.0000438681776058
 40
0.0000877523064948
 40
0.0000877523064948
 40
0.0000877523064948
 40
0.0001307598415652
 40
0.0001307598415652
 40
0.0001307598415652
 40
0.0001750548527301
 40
0.0001750548527301
 40
0.0001750548527301
 40
0.0001750548527301
 10
23.09067561366397
 20
5.402697546077449
 30
0.0
 10
23.10441599822381
 20
5.399702120335605
 30
0.0
 10
23.11825007064952
 20
5.395890532091284
 30
0.0
 10
23.13193202515944
 20
5.391313720702605
 30
0.0
 10
23.14561688766734
 20
5.386735936546598
 30
0.0
 10
23.15923493924043
 20
5.381363458961061
 30
0.0
 10
23.17252037004759
 20
5.375278883725112
 30
0.0
 10
23.18553961697896
 20
5.369316217657357
 30
0.0
 10
23.19832445905421
 20
5.362630117136757
 30
0.0
 10
23.21060480261634
 20
5.355335786187321
 30
0.0
 10
23.22324699798079
 20
5.347826520957963
 30
0.0
 10
23.23544764140811
 20
5.339615607777058
 30
0.0
 10
23.24689562510419
 20
5.330879578945682
 30
0.0
  0
SPLINE
  5
1B3
330
1F
100
AcDbEntity
  8
외형선
  6
Continuous
 62
     1
370
    15
100
AcDbSpline
210
0.0
220
0.0
230
1.0
 70
     8
 71
     3
 72
     8
 73
     4
 74
     0
 42
0.000000001
 43
0.00000001
 40
0.0
 40
0.0
 40
0.0
 40
0.0
 40
1.0
 40
1.0
 40
1.0
 40
1.0
 10
23.09067561366395
 20
5.402697546076371
 30
0.0
 10
22.89620982650731
 20
5.445091397734588
 30
0.0
 10
22.70203081774684
 20
5.486515761886244
 30
0.0
 10
22.5083001329078
 20
5.52693960503533
 30
0.0
  0
SPLINE
  5
1B4
330
1F
100
AcDbEntity
  8
외형선
  6
Continuous
 62
     1
370
    15
100
AcDbSpline
210
0.0
220
0.0
230
1.0
 70
     8
 71
     3
 72
     8
 73
     4
 74
     0
 42
0.000000001
 43
0.00000001
 40
0.0
 40
0.0
 40
0.0
 40
0.0
 40
1.0
 40
1.0
 40
1.0
 40
1.0
 10
22.35170757374593
 20
5.519886077936035
 30
0.0
 10
22.39652673154707
 20
5.536202934711566
 30
0.0
 10
22.45167214188114
 20
5.538755848734187
 30
0.0
 10
22.50857089956686
 20
5.52688310627877
 30
0.0
  0
SPLINE
  5
1B5
330
1F
100
AcDbEntity
  8
외형선
  6
Continuous
 62
     1
370
    15
100
AcDbSpline
210
0.0
220
0.0
230
1.0
 70
     8
 71
     3
 72
    10
 73
     6
 74
     0
 42
0.000000001
 43
0.00000001
 40
0.0
 40
0.0
 40
0.0
 40
0.0
 40
0.5
 40
0.5
 40
1.0
 40
1.0
 40
1.0
 40
1.0
 10
21.72553121113193
 20
5.643886466841154
 30
0.0
 10
21.81834342838516
 20
5.571061061789211
 30
0.0
 10
21.93121929984206
 20
5.523430640206923
 30
0.0
 10
22.15622201323454
 20
5.481683642497038
 30
0.0
 10
22.26332895924979
 20
5.487710971006021
 30
0.0
 10
22.35170757374575
 20
5.519886077935914
 30
0.0
  0
SPLINE
  5
1B6
330
1F
100
AcDbEntity
  8
외형선
  6
Continuous
 62
     1
370
    15
100
AcDbSpline
210
0.0
220
0.0
230
1.0
 70
     8
 71
     3
 72
    17
 73
    13
 74
     0
 42
0.000000001
 43
0.00000001
 40
0.0
 40
0.0
 40
0.0
 40
0.0
 40
0.0000438681959322
 40
0.0000438681959322
 40
0.0000438681959322
 40
0.0000877522994929
 40
0.0000877522994929
 40
0.0000877522994929
 40
0.000130757787746
 40
0.000130757787746
 40
0.000130757787746
 40
0.0001750502446196
 40
0.0001750502446196
 40
0.0001750502446196
 40
0.0001750502446196
 10
21.56930657007291
 20
5.714833174885052
 30
0.0
 10
21.58304852030189
 20
5.712200739785708
 30
0.0
 10
21.59688394693835
 20
5.708687986702835
 30
0.0
 10
21.61056699399715
 20
5.70433794054039
 30
0.0
 10
21.62425294110496
 20
5.699986972408807
 30
0.0
 10
21.63787182362133
 20
5.694770568543213
 30
0.0
 10
21.65115786324685
 20
5.688764580088714
 30
0.0
 10
21.66417710256647
 20
5.68287919940011
 30
0.0
 10
21.67696173666514
 20
5.676196482503512
 30
0.0
 10
21.68924179436064
 20
5.668827123225535
 30
0.0
 10
21.70188357230336
 20
5.661240692780148
 30
0.0
 10
21.71408369431972
 20
5.652868797762356
 30
0.0
 10
21.72553121113249
 20
5.64388646684306
 30
0.0
  0
SPLINE
  5
1B7
330
1F
100
AcDbEntity
  8
외형선
  6
Continuous
 62
     1
370
    15
100
AcDbSpline
210
0.0
220
0.0
230
1.0
 70
     8
 71
     3
 72
     8
 73
     4
 74
     0
 42
0.000000001
 43
0.00000001
 40
0.0
 40
0.0
 40
0.0
 40
0.0
 40
1.0
 40
1.0
 40
1.0
 40
1.0
 10
21.56930657007293
 20
5.714833174883864
 30
0.0
 10
21.37531956950552
 20
5.751993707457557
 30
0.0
 10
21.18114425277761
 20
5.788166287415272
 30
0.0
 10
20.98694237159645
 20
5.823319649553748
 30
0.0
  0
SPLINE
  5
1B8
330
1F
100
AcDbEntity
  8
외형선
  6
Continuous
 62
     1
370
    15
100
AcDbSpline
210
0.0
220
0.0
230
1.0
 70
     8
 71
     3
 72
     8
 73
     4
 74
     0
 42
0.000000001
 43
0.00000001
 40
0.0
 40
0.0
 40
0.0
 40
0.0
 40
1.0
 40
1.0
 40
1.0
 40
1.0
 10
20.83035998018754
 20
5.808888810709957
 30
0.0
 10
20.87517093471557
 20
5.828420708185669
 30
0.0
 10
20.93031382620353
 20
5.833570517018082
 30
0.0
 10
20.98721296970821
 20
5.82327066670429
 30
0.0
  0
SPLINE
  5
1B9
330
1F
100
AcDbEntity
  8
외형선
  6
Continuous
 62
     1
370
    15
100
AcDbSpline
210
0.0
220
0.0
230
1.0
 70
     8
 71
     3
 72
    10
 73
     6
 74
     0
 42
0.000000001
 43
0.00000001
 40
0.0
 40
0.0
 40
0.0
 40
0.0
 40
0.5
 40
0.5
 40
1.0
 40
1.0
 40
1.0
 40
1.0
 10
20.20422447844742
 20
5.91574482169411
 30
0.0
 10
20.29701245452086
 20
5.841495827169286
 30
0.0
 10
20.40986347481418
 20
5.794786398793819
 30
0.0
 10
20.63485545882999
 20
5.759240552967617
 30
0.0
 10
20.74197682274528
 20
5.770364954480243
 30
0.0
 10
20.83035998018733
 20
5.808888810709799
 30
0.0
  0
SPLINE
  5
1BA
330
1F
100
AcDbEntity
  8
외형선
  6
Continuous
 62
     1
370
    15
100
AcDbSpline
210
0.0
220
0.0
230
1.0
 70
     8
 71
     3
 72
    17
 73
    13
 74
     0
 42
0.000000001
 43
0.00000001
 40
0.0
 40
0.0
 40
0.0
 40
0.0
 40
0.0000438682257147
 40
0.0000438682257147
 40
0.0000438682257147
 40
0.0000877523876545
 40
0.0000877523876545
 40
0.0000877523876545
 40
0.0001307539064593
 40
0.0001307539064593
 40
0.0001307539064593
 40
0.0001750425057661
 40
0.0001750425057661
 40
0.0001750425057661
 40
0.0001750425057661
 10
20.04800845803744
 20
5.985300037404067
 30
0.0
 10
20.06174975286791
 20
5.983046381120873
 30
0.0
 10
20.075584720348
 20
5.979855653151149
 30
0.0
 10
20.08926744973296
 20
5.97576257459299
 30
0.0
 10
20.10295308449747
 20
5.971668626913879
 30
0.0
 10
20.11657181864292
 20
5.966645697164628
 30
0.0
 10
20.12985776481254
 20
5.960762263280681
 30
0.0
 10
20.14287570051163
 20
5.954997512843397
 30
0.0
 10
20.15565915136889
 20
5.948368191641304
 30
0.0
 10
20.16793809739022
 20
5.940979616761353
 30
0.0
 10
20.18057879715609
 20
5.933373364840965
 30
0.0
 10
20.19277791602939
 20
5.924904367860475
 30
0.0
 10
20.20422447844808
 20
5.915744821696074
 30
0.0
  0
SPLINE
  5
1BB
330
1F
100
AcDbEntity
  8
외형선
  6
Continuous
 62
     1
370
    15
100
AcDbSpline
210
0.0
220
0.0
230
1.0
 70
     8
 71
     3
 72
     8
 73
     4
 74
     0
 42
0.000000001
 43
0.00000001
 40
0.0
 40
0.0
 40
0.0
 40
0.0
 40
1.0
 40
1.0
 40
1.0
 40
1.0
 10
20.04800845803815
 20
5.985300037402408
 30
0.0
 10
19.8536099170125
 20
6.017182585505148
 30
0.0
 10
19.65944699145594
 20
6.047996837654878
 30
0.0
 10
19.46568124828948
 20
6.077720504987038
 30
0.0
  0
SPLINE
  5
1BC
330
1F
100
AcDbEntity
  8
외형선
  6
Continuous
 62
     1
370
    15
100
AcDbSpline
210
0.0
220
0.0
230
1.0
 70
     8
 71
     3
 72
     8
 73
     4
 74
     0
 42
0.000000001
 43
0.00000001
 40
0.0
 40
0.0
 40
0.0
 40
0.0
 40
1.0
 40
1.0
 40
1.0
 40
1.0
 10
19.30911166488897
 20
6.05623643823729
 30
0.0
 10
19.35391882089063
 20
6.078778906909416
 30
0.0
 10
19.40905525267076
 20
6.08640721421185
 30
0.0
 10
19.46595191749623
 20
6.07767898366109
 30
0.0
  0
SPLINE
  5
1BD
330
1F
100
AcDbEntity
  8
외형선
  6
Continuous
 62
     1
370
    15
100
AcDbSpline
210
0.0
220
0.0
230
1.0
 70
     8
 71
     3
 72
    10
 73
     6
 74
     0
 42
0.000000001
 43
0.00000001
 40
0.0
 40
0.0
 40
0.0
 40
0.0
 40
0.5
 40
0.5
 40
1.0
 40
1.0
 40
1.0
 40
1.0
 10
18.68304389659476
 20
6.145591291297196
 30
0.0
 10
18.77584160031599
 20
6.070431687779084
 30
0.0
 10
18.88870303391166
 20
6.024959627359734
 30
0.0
 10
19.11366772963966
 20
5.995752498858208
 30
0.0
 10
19.2207507206839
 20
6.011782069910016
 30
0.0
 10
19.30911166488879
 20
6.056236438237138
 30
0.0
  0
SPLINE
  5
1BE
330
1F
100
AcDbEntity
  8
외형선
  6
Continuous
 62
     1
370
    15
100
AcDbSpline
210
0.0
220
0.0
230
1.0
 70
     8
 71
     3
 72
    17
 73
    13
 74
     0
 42
0.000000001
 43
0.00000001
 40
0.0
 40
0.0
 40
0.0
 40
0.0
 40
0.0000438682878242
 40
0.0000438682878242
 40
0.0000438682878242
 40
0.0000877524610517
 40
0.0000877524610517
 40
0.0000877524610517
 40
0.0001307466462382
 40
0.0001307466462382
 40
0.0001307466462382
 40
0.0001750271080676
 40
0.0001750271080676
 40
0.0001750271080676
 40
0.0001750271080676
 10
18.52684994893954
 20
6.213231140122092
 30
0.0
 10
18.5405911918774
 20
6.211375110157233
 30
0.0
 10
18.55442595249054
 20
6.20853152886517
 30
0.0
 10
18.56810822440247
 20
6.204726705976616
 30
0.0
 10
18.58179339212752
 20
6.200921077808342
 30
0.0
 10
18.59541143178468
 20
6.196129298339716
 30
0.0
 10
18.60869646004871
 20
6.190412119076149
 30
0.0
 10
18.62171129382292
 20
6.184811217347234
 30
0.0
 10
18.6344915026998
 20
6.17828476062222
 30
0.0
 10
18.64676729277219
 20
6.170931994097987
 30
0.0
 10
18.65940458535439
 20
6.163362700284111
 30
0.0
 10
18.67160033671511
 20
6.154859768739396
 30
0.0
 10
18.68304389659534
 20
6.145591291299378
 30
0.0
  0
SPLINE
  5
1BF
330
1F
100
AcDbEntity
  8
외형선
  6
Continuous
 62
     1
370
    15
100
AcDbSpline
210
0.0
220
0.0
230
1.0
 70
     8
 71
     3
 72
     8
 73
     4
 74
     0
 42
0.000000001
 43
0.00000001
 40
0.0
 40
0.0
 40
0.0
 40
0.0
 40
1.0
 40
1.0
 40
1.0
 40
1.0
 10
18.52684994893965
 20
6.213231140120757
 30
0.0
 10
18.33296852541597
 20
6.239418707964278
 30
0.0
 10
18.13884836718329
 20
6.26452490616692
 30
0.0
 10
17.94465106510224
 20
6.288527024448275
 30
0.0
  0
SPLINE
  5
1C0
330
1F
100
AcDbEntity
  8
외형선
  6
Continuous
 62
     1
370
    15
100
AcDbSpline
210
0.0
220
0.0
230
1.0
 70
     8
 71
     3
 72
     8
 73
     4
 74
     0
 42
0.000000001
 43
0.00000001
 40
0.0
 40
0.0
 40
0.0
 40
0.0
 40
1.0
 40
1.0
 40
1.0
 40
1.0
 10
17.78812946182688
 20
6.259972971785981
 30
0.0
 10
17.83291830041022
 20
6.285408713745865
 30
0.0
 10
17.88804143893318
 20
6.295524081449264
 30
0.0
 10
17.9449214914735
 20
6.28849359996303
 30
0.0
  0
SPLINE
  5
1C1
330
1F
100
AcDbEntity
  8
외형선
  6
Continuous
 62
     1
370
    15
100
AcDbSpline
210
0.0
220
0.0
230
1.0
 70
     8
 71
     3
 72
    10
 73
     6
 74
     0
 42
0.000000001
 43
0.00000001
 40
0.0
 40
0.0
 40
0.0
 40
0.0
 40
0.5
 40
0.5
 40
1.0
 40
1.0
 40
1.0
 40
1.0
 10
17.1622443339576
 20
6.330674438300607
 30
0.0
 10
17.25499049592333
 20
6.255245750151794
 30
0.0
 10
17.36779911764238
 20
6.211393736173086
 30
0.0
 10
17.59271758987714
 20
6.188878367275377
 30
0.0
 10
17.69979346659762
 20
6.209806643488529
 30
0.0
 10
17.7881294618267
 20
6.259972971785841
 30
0.0
  0
SPLINE
  5
1C2
330
1F
100
AcDbEntity
  8
외형선
  6
Continuous
 62
     1
370
    15
100
AcDbSpline
210
0.0
220
0.0
230
1.0
 70
     8
 71
     3
 72
    17
 73
    13
 74
     0
 42
0.000000001
 43
0.00000001
 40
0.0000005735420135
 40
0.0000005735420135
 40
0.0000005735420135
 40
0.0000005735420135
 40
0.0000438684860974
 40
0.0000438684860974
 40
0.0000438684860974
 40
0.000087752868412
 40
0.000087752868412
 40
0.000087752868412
 40
0.0001307207713752
 40
0.0001307207713752
 40
0.0001307207713752
 40
0.0001749738578456
 40
0.0001749738578456
 40
0.0001749738578456
 40
0.0001749738578456
 10
17.0066301713398
 20
6.395805510011846
 30
0.0
 10
17.02019390980028
 20
6.394353382406246
 30
0.0
 10
17.03384643133229
 20
6.391897615210637
 30
0.0
 10
17.0473507733548
 20
6.388455337314261
 30
0.0
 10
17.06103690300571
 20
6.384966721467167
 30
0.0
 10
17.07465588485973
 20
6.380442247604556
 30
0.0
 10
17.08794142727819
 20
6.374934511275271
 30
0.0
 10
17.10094880617923
 20
6.369542092127785
 30
0.0
 10
17.11372151952565
 20
6.363171042594039
 30
0.0
 10
17.12598996302973
 20
6.355913810054915
 30
0.0
 10
17.13861962134645
 20
6.348442905757753
 30
0.0
 10
17.15080781503049
 20
6.339975541458132
 30
0.0
 10
17.16224433395816
 20
6.330674438302902
 30
0.0
  0
LWPOLYLINE
  5
1C3
330
1F
100
AcDbEntity
  8
외형선
  6
Continuous
 62
     1
370
    15
100
AcDbPolyline
 90
        3
 70
   128
 43
0.0
 10
17.00663046538829
 20
6.395805809220905
 10
17.00632778555154
 20
6.395837939849729
 10
17.00608936697244
 20
6.395863085559244
  0
SPLINE
  5
1C4
330
1F
100
AcDbEntity
  8
외형선
  6
Continuous
 62
     1
370
    15
100
AcDbSpline
210
0.0
220
0.0
230
1.0
 70
     8
 71
     3
 72
     8
 73
     4
 74
     0
 42
0.000000001
 43
0.00000001
 40
0.0
 40
0.0
 40
0.0
 40
0.0
 40
1.0
 40
1.0
 40
1.0
 40
1.0
 10
17.00608957541664
 20
6.395862862274714
 30
0.0
 10
16.81184143365479
 20
6.416282640272547
 30
0.0
 10
16.61777758832958
 20
6.435566869633824
 30
0.0
 10
16.42405941120222
 20
6.453702560399192
 30
0.0
  0
SPLINE
  5
1C5
330
1F
100
AcDbEntity
  8
외형선
  6
Continuous
 62
     1
370
    15
100
AcDbSpline
210
0.0
220
0.0
230
1.0
 70
     8
 71
     3
 72
     8
 73
     4
 74
     0
 42
0.000000001
 43
0.00000001
 40
0.0
 40
0.0
 40
0.0
 40
0.0
 40
1.0
 40
1.0
 40
1.0
 40
1.0
 10
16.26759066288377
 20
6.418432488937765
 30
0.0
 10
16.31236049373238
 20
6.446525545974169
 30
0.0
 10
16.36746429075805
 20
6.459001239724104
 30
0.0
 10
16.42432975837239
 20
6.453677250062196
 30
0.0
  0
SPLINE
  5
1C6
330
1F
100
AcDbEntity
  8
외형선
  6
Continuous
 62
     1
370
    15
100
AcDbSpline
210
0.0
220
0.0
230
1.0
 70
     8
 71
     3
 72
    10
 73
     6
 74
     0
 42
0.000000001
 43
0.00000001
 40
0.0
 40
0.0
 40
0.0
 40
0.0
 40
0.5
 40
0.5
 40
1.0
 40
1.0
 40
1.0
 40
1.0
 10
15.64190080704982
 20
6.470371421536226
 30
0.0
 10
15.7346365324912
 20
6.395180161975654
 30
0.0
 10
15.84743130644112
 20
6.353243369980718
 30
0.0
 10
16.07226526639868
 20
6.337462993995498
 30
0.0
 10
16.17928889676647
 20
6.363023154014217
 30
0.0
 10
16.26759066288358
 20
6.418432488937618
 30
0.0
  0
SPLINE
  5
1C7
330
1F
100
AcDbEntity
  8
외형선
  6
Continuous
 62
     1
370
    15
100
AcDbSpline
210
0.0
220
0.0
230
1.0
 70
     8
 71
     3
 72
    17
 73
    13
 74
     0
 42
0.000000001
 43
0.00000001
 40
0.0
 40
0.0
 40
0.0
 40
0.0
 40
0.0000438685891608
 40
0.0000438685891608
 40
0.0000438685891608
 40
0.0000877530169271
 40
0.0000877530169271
 40
0.0000877530169271
 40
0.0001307086825663
 40
0.0001307086825663
 40
0.0001307086825663
 40
0.0001749484544444
 40
0.0001749484544444
 40
0.0001749484544444
 40
0.0001749484544444
 10
15.48579415416226
 20
6.532647064085524
 30
0.0
 10
15.49953457202481
 20
6.531623871580385
 30
0.0
 10
15.51336865844032
 20
6.529534940854083
 30
0.0
 10
15.52704987321442
 20
6.526389201272716
 30
0.0
 10
15.54073397516257
 20
6.523242797839649
 30
0.0
 10
15.55435073046486
 20
6.519018631939878
 30
0.0
 10
15.56763382875502
 20
6.513760794608099
 30
0.0
 10
15.5806351301447
 20
6.508614500700222
 30
0.0
 10
15.59340168847928
 20
6.50244338934125
 30
0.0
 10
15.60566422420585
 20
6.495332468705116
 30
0.0
 10
15.61828761032797
 20
6.488012294568605
 30
0.0
 10
15.63046971388497
 20
6.4796398915825
 30
0.0
 10
15.64190080705037
 20
6.470371421538605
 30
0.0
  0
SPLINE
  5
1C8
330
1F
100
AcDbEntity
  8
외형선
  6
Continuous
 62
     1
370
    15
100
AcDbSpline
210
0.0
220
0.0
230
1.0
 70
     8
 71
     3
 72
     8
 73
     4
 74
     0
 42
0.000000001
 43
0.00000001
 40
0.0
 40
0.0
 40
0.0
 40
0.0
 40
1.0
 40
1.0
 40
1.0
 40
1.0
 10
15.48579415416246
 20
6.532647064084074
 30
0.0
 10
15.29218996058219
 20
6.54706397351262
 30
0.0
 10
15.0982967025243
 20
6.560338754742895
 30
0.0
 10
14.90427537284095
 20
6.572457883635031
 30
0.0
  0
SPLINE
  5
1C9
330
1F
100
AcDbEntity
  8
외형선
  6
Continuous
 62
     1
370
    15
100
AcDbSpline
210
0.0
220
0.0
230
1.0
 70
     8
 71
     3
 72
     8
 73
     4
 74
     0
 42
0.000000001
 43
0.00000001
 40
0.0
 40
0.0
 40
0.0
 40
0.0
 40
1.0
 40
1.0
 40
1.0
 40
1.0
 10
14.74760529796153
 20
6.530674117848692
 30
0.0
 10
14.79235090649619
 20
6.561234826458169
 30
0.0
 10
14.8474332024454
 20
6.576008408386694
 30
0.0
 10
14.90427512289038
 20
6.572457899251193
 30
0.0
  0
SPLINE
  5
1CA
330
1F
100
AcDbEntity
  8
외형선
  6
Continuous
 62
     1
370
    15
100
AcDbSpline
210
0.0
220
0.0
230
1.0
 70
     8
 71
     3
 72
    10
 73
     6
 74
     0
 42
0.000000001
 43
0.00000001
 40
0.0
 40
0.0
 40
0.0
 40
0.0
 40
0.5
 40
0.5
 40
1.0
 40
1.0
 40
1.0
 40
1.0
 10
14.1220261769684
 20
6.563141400534397
 30
0.0
 10
14.21472615635117
 20
6.488820223795702
 30
0.0
 10
14.32748213508479
 20
6.449140782252209
 30
0.0
 10
14.55230649681616
 20
6.440304033974011
 30
0.0
 10
14.65933483807797
 20
6.470386462999876
 30
0.0
 10
14.74760529796133
 20
6.530674117848546
 30
0.0
  0
SPLINE
  5
1CB
330
1F
100
AcDbEntity
  8
외형선
  6
Continuous
 62
     1
370
    15
100
AcDbSpline
210
0.0
220
0.0
230
1.0
 70
     8
 71
     3
 72
    17
 73
    13
 74
     0
 42
0.000000001
 43
0.00000001
 40
0.0000005732020148
 40
0.0000005732020148
 40
0.0000005732020148
 40
0.0000005732020148
 40
0.0000438686488778
 40
0.0000438686488778
 40
0.0000438686488778
 40
0.0000877531929062
 40
0.0000877531929062
 40
0.0000877531929062
 40
0.000130698359003
 40
0.000130698359003
 40
0.000130698359003
 40
0.0001749275429356
 40
0.0001749275429356
 40
0.0001749275429356
 40
0.0001749275429356
 10
13.96645285765017
 20
6.621982804629605
 30
0.0
 10
13.98001729687203
 20
6.621369578440397
 30
0.0
 10
13.99367056986704
 20
6.61969230592499
 30
0.0
 10
14.00717540330374
 20
6.616951022071225
 30
0.0
 10
14.02086192289756
 20
6.614172858582385
 30
0.0
 10
14.03448112930981
 20
6.61028357024885
 30
0.0
 10
14.04776643974438
 20
6.605318134087861
 30
0.0
 10
14.06076671356763
 20
6.600459231462843
 30
0.0
 10
14.07353218929165
 20
6.594537152302336
 30
0.0
 10
14.08579351684471
 20
6.587628706634999
 30
0.0
 10
14.09841572722819
 20
6.580516927404028
 30
0.0
 10
14.11059651603156
 20
6.572305003983561
 30
0.0
 10
14.12202617696893
 20
6.563141400536868
 30
0.0
  0
LWPOLYLINE
  5
1CC
330
1F
100
AcDbEntity
  8
외형선
  6
Continuous
 62
     1
370
    15
100
AcDbPolyline
 90
        3
 70
   128
 43
0.0
 10
13.96645271778107
 20
6.621983550063009
 10
13.9661505036056
 20
6.621996588579053
 10
13.96591255068779
 20
6.622006833127374
  0
SPLINE
  5
1CD
330
1F
100
AcDbEntity
  8
외형선
  6
Continuous
 62
     1
370
    15
100
AcDbSpline
210
0.0
220
0.0
230
1.0
 70
     8
 71
     3
 72
     8
 73
     4
 74
     0
 42
0.000000001
 43
0.00000001
 40
0.0
 40
0.0
 40
0.0
 40
0.0
 40
1.0
 40
1.0
 40
1.0
 40
1.0
 10
13.96591255856182
 20
6.622006672909579
 30
0.0
 10
13.77183278207071
 20
6.630380007348006
 30
0.0
 10
13.577885741985
 20
6.637583173056359
 30
0.0
 10
13.38423256171672
 20
6.643612745528562
 30
0.0
  0
SPLINE
  5
1CE
330
1F
100
AcDbEntity
  8
외형선
  6
Continuous
 62
     1
370
    15
100
AcDbSpline
210
0.0
220
0.0
230
1.0
 70
     8
 71
     3
 72
     8
 73
     4
 74
     0
 42
0.000000001
 43
0.00000001
 40
0.0
 40
0.0
 40
0.0
 40
0.0
 40
1.0
 40
1.0
 40
1.0
 40
1.0
 10
13.22748285349658
 20
6.595671597378375
 30
0.0
 10
13.27225645192058
 20
6.628451743334603
 30
0.0
 10
13.32736290953977
 20
6.645383433354874
 30
0.0
 10
13.38423097725091
 20
6.643612794865996
 30
0.0
  0
SPLINE
  5
1CF
330
1F
100
AcDbEntity
  8
외형선
  6
Continuous
 62
     1
370
    15
100
AcDbSpline
210
0.0
220
0.0
230
1.0
 70
     8
 71
     3
 72
    10
 73
     6
 74
     0
 42
0.000000001
 43
0.00000001
 40
0.0
 40
0.0
 40
0.0
 40
0.0
 40
0.5000000000000009
 40
0.5000000000000009
 40
1.0
 40
1.0
 40
1.0
 40
1.0
 10
12.60163163138595
 20
6.608649877862749
 30
0.0
 10
12.69439294588029
 20
6.535688197802228
 30
0.0
 10
12.80719378239102
 20
6.498573219252719
 30
0.0
 10
13.03207759122512
 20
6.496692902989929
 30
0.0
 10
13.13915094799885
 20
6.531001058115493
 30
0.0
 10
13.2274828534964
 20
6.595671597378242
 30
0.0
  0
SPLINE
  5
1D0
330
1F
100
AcDbEntity
  8
외형선
  6
Continuous
 62
     1
370
    15
100
AcDbSpline
210
0.0
220
0.0
230
1.0
 70
     8
 71
     3
 72
    17
 73
    13
 74
     0
 42
0.000000001
 43
0.00000001
 40
0.0000005739113875
 40
0.0000005739113875
 40
0.0000005739113875
 40
0.0000005739113875
 40
0.0000438683029008
 40
0.0000438683029008
 40
0.0000438683029008
 40
0.0000877524937487
 40
0.0000877524937487
 40
0.0000877524937487
 40
0.0001307442695741
 40
0.0001307442695741
 40
0.0001307442695741
 40
0.0001750221745961
 40
0.0001750221745961
 40
0.0001750221745961
 40
0.0001750221745961
 10
12.44600478131883
 20
6.663670631676021
 30
0.0
 10
12.45956556286253
 20
6.663485409764013
 30
0.0
 10
12.47321489449382
 20
6.662219671759079
 30
0.0
 10
12.48671621774875
 20
6.659864761343752
 30
0.0
 10
12.5003994037588
 20
6.657478130297187
 30
0.0
 10
12.514015484762
 20
6.653956945396142
 30
0.0
 10
12.52729860056269
 20
6.649326482091143
 30
0.0
 10
12.540310832074
 20
6.644790448420029
 30
0.0
 10
12.55308850251531
 20
6.639159276561733
 30
0.0
 10
12.56536190592064
 20
6.632500633262721
 30
0.0
 10
12.57799672260266
 20
6.625645913780637
 30
0.0
 10
12.59019013600737
 20
6.617649219129607
 30
0.0
 10
12.60163163138651
 20
6.608649877865329
 30
0.0
  0
LWPOLYLINE
  5
1D1
330
1F
100
AcDbEntity
  8
외형선
  6
Continuous
 62
     1
370
    15
100
AcDbPolyline
 90
        3
 70
   128
 43
0.0
 10
12.44600481912494
 20
6.663671411147947
 10
12.44570190645754
 20
6.663674670776958
 10
12.44546395353973
 20
6.663677464744682
  0
SPLINE
  5
1D2
330
1F
100
AcDbEntity
  8
외형선
  6
Continuous
 62
     1
370
    15
100
AcDbSpline
210
0.0
220
0.0
230
1.0
 70
     8
 71
     3
 72
     8
 73
     4
 74
     0
 42
0.000000001
 43
0.00000001
 40
0.0
 40
0.0
 40
0.0
 40
0.0
 40
1.0
 40
1.0
 40
1.0
 40
1.0
 10
12.44546395042561
 20
6.663677449332935
 30
0.0
 10
12.25179001873342
 20
6.665915001279508
 30
0.0
 10
12.05777538562782
 20
6.66697787850589
 30
0.0
 10
11.86358130456602
 20
6.666862040318788
 30
0.0
  0
SPLINE
  5
1D3
330
1F
100
AcDbEntity
  8
외형선
  6
Continuous
 62
     1
370
    15
100
AcDbSpline
210
0.0
220
0.0
230
1.0
 70
     8
 71
     3
 72
     8
 73
     4
 74
     0
 42
0.000000001
 43
0.00000001
 40
0.0
 40
0.0
 40
0.0
 40
0.0
 40
1.0
 40
1.0
 40
1.0
 40
1.0
 10
11.70678056028421
 20
6.613091808384874
 30
0.0
 10
11.75157385135783
 20
6.647854556058119
 30
0.0
 10
11.80669941966275
 20
6.666828109862655
 30
0.0
 10
11.86358130454782
 20
6.666862040322481
 30
0.0
  0
SPLINE
  5
1D4
330
1F
100
AcDbEntity
  8
외형선
  6
Continuous
 62
     1
370
    15
100
AcDbSpline
210
0.0
220
0.0
230
1.0
 70
     8
 71
     3
 72
     9
 73
     5
 74
     0
 42
0.000000001
 43
0.00000001
 40
0.0
 40
0.0
 40
0.0
 40
0.0
 40
0.5835274802986729
 40
1.0
 40
1.0
 40
1.0
 40
1.0
 10
22.07935919612646
 20
5.72095550181591
 30
0.0
 10
22.03011176891936
 20
5.686914305640695
 30
0.0
 10
21.94571569697791
 20
5.628577385230723
 30
0.0
 10
21.84894609341057
 20
5.604555008258994
 30
0.0
 10
21.80864421278238
 20
5.594550348392363
 30
0.0
  0
SPLINE
  5
1D5
330
1F
100
AcDbEntity
  8
외형선
  6
Continuous
 62
     1
370
    15
100
AcDbSpline
210
0.0
220
0.0
230
1.0
 70
     8
 71
     3
 72
    17
 73
    13
 74
     0
 42
0.000000001
 43
0.00000001
 40
0.0
 40
0.0
 40
0.0
 40
0.0
 40
0.0000438684361498
 40
0.0000438684361498
 40
0.0000438684361498
 40
0.0000877528070298
 40
0.0000877528070298
 40
0.0000877528070298
 40
0.0001307264872036
 40
0.0001307264872036
 40
0.0001307264872036
 40
0.0001749859077114
 40
0.0001749859077114
 40
0.0001749859077114
 40
0.0001749859077114
 10
22.23549279110921
 20
5.791613210941363
 30
0.0
 10
22.22175432754182
 20
5.789075953066861
 30
0.0
 10
22.2079219665518
 20
5.78564190008201
 30
0.0
 10
22.19424195406419
 20
5.78135205399072
 30
0.0
 10
22.18055903674419
 20
5.777061296987697
 30
0.0
 10
22.16694302134603
 20
5.771886905574105
 30
0.0
 10
22.15366010196131
 20
5.765903124965443
 30
0.0
 10
22.1406535548797
 20
5.760043846447031
 30
0.0
 10
22.12788142661147
 20
5.753369508526927
 30
0.0
 10
22.11561338331711
 20
5.745989609999612
 30
0.0
 10
22.1029840324125
 20
5.738392365198179
 30
0.0
 10
22.09079593526289
 20
5.729989516987155
 30
0.0
 10
22.07935940694639
 20
5.7209555195486
 30
0.0
  0
SPLINE
  5
1D6
330
1F
100
AcDbEntity
  8
외형선
  6
Continuous
 62
     1
370
    15
100
AcDbSpline
210
0.0
220
0.0
230
1.0
 70
     8
 71
     3
 72
     8
 73
     4
 74
     0
 42
0.000000001
 43
0.00000001
 40
0.0
 40
0.0
 40
0.0
 40
0.0
 40
1.0
 40
1.0
 40
1.0
 40
1.0
 10
22.81725488706397
 20
5.896040199341565
 30
0.0
 10
22.62310889715156
 20
5.86225009708085
 30
0.0
 10
22.42958129415233
 20
5.827458017691771
 30
0.0
 10
22.23549303225205
 20
5.791613255476259
 30
0.0
  0
LWPOLYLINE
  5
1D7
330
1F
100
AcDbEntity
  8
외형선
  6
Continuous
 62
     1
370
    15
100
AcDbPolyline
 90
        3
 70
   128
 43
0.0
 10
22.81725445389747
 20
5.896040420553321
 10
22.81755806505679
 20
5.896093040278787
 10
22.81779555231332
 20
5.896134484133357
  0
SPLINE
  5
1D8
330
1F
100
AcDbEntity
  8
외형선
  6
Continuous
 62
     1
370
    15
100
AcDbSpline
210
0.0
220
0.0
230
1.0
 70
     8
 71
     3
 72
     8
 73
     4
 74
     0
 42
0.000000001
 43
0.00000001
 40
0.0
 40
0.0
 40
0.0
 40
0.0
 40
1.0
 40
1.0
 40
1.0
 40
1.0
 10
22.97402108172412
 20
5.87976959737928
 30
0.0
 10
22.92938018244014
 20
5.900059893133599
 30
0.0
 10
22.87447017563373
 20
5.905900569709893
 30
0.0
 10
22.81779569439854
 20
5.896133860352759
 30
0.0
  0
SPLINE
  5
1D9
330
1F
100
AcDbEntity
  8
외형선
  6
Continuous
 62
     1
370
    15
100
AcDbSpline
210
0.0
220
0.0
230
1.0
 70
     8
 71
     3
 72
    10
 73
     6
 74
     0
 42
0.000000001
 43
0.00000001
 40
0.0
 40
0.0
 40
0.0
 40
0.0
 40
0.5
 40
0.5
 40
1.0
 40
1.0
 40
1.0
 40
1.0
 10
23.59990870441614
 20
5.981971970564535
 30
0.0
 10
23.50714901233106
 20
5.907442928994592
 30
0.0
 10
23.39432905908097
 20
5.861034913492572
 30
0.0
 10
23.16941142294012
 20
5.827169877938332
 30
0.0
 10
23.06234490926572
 20
5.839624425311366
 30
0.0
 10
22.97402108172405
 20
5.87976959737859
 30
0.0
  0
SPLINE
  5
1DA
330
1F
100
AcDbEntity
  8
외형선
  6
Continuous
 62
     1
370
    15
100
AcDbSpline
210
0.0
220
0.0
230
1.0
 70
     8
 71
     3
 72
    17
 73
    13
 74
     0
 42
0.000000001
 43
0.00000001
 40
0.0
 40
0.0
 40
0.0
 40
0.0
 40
0.0000438684218178
 40
0.0000438684218178
 40
0.0000438684218178
 40
0.0000877527421704
 40
0.0000877527421704
 40
0.0000877527421704
 40
0.0001307278801751
 40
0.0001307278801751
 40
0.0001307278801751
 40
0.0001749884584371
 40
0.0001749884584371
 40
0.0001749884584371
 40
0.0001749884584371
 10
23.75608199883202
 20
6.051038135012003
 30
0.0
 10
23.74233910926715
 20
6.048891868326356
 30
0.0
 10
23.72850261133382
 20
6.045793414438338
 30
0.0
 10
23.71481880344138
 20
6.041775362188
 30
0.0
 10
23.70113209673542
 20
6.037756458743003
 30
0.0
 10
23.68751262671295
 20
6.032791742307884
 30
0.0
 10
23.67422657674866
 20
6.026947883608967
 30
0.0
 10
23.66121650896639
 20
6.021225415457243
 30
0.0
 10
23.64844118935779
 20
6.014621785417932
 30
0.0
 10
23.63617027296623
 20
6.007240852403054
 30
0.0
 10
23.6235380615697
 20
5.99964260112561
 30
0.0
 10
23.61134743276274
 20
5.99116257309121
 30
0.0
 10
23.59990870441631
 20
5.981971970564683
 30
0.0
  0
SPLINE
  5
1DB
330
1F
100
AcDbEntity
  8
외형선
  6
Continuous
 62
     1
370
    15
100
AcDbSpline
210
0.0
220
0.0
230
1.0
 70
     8
 71
     3
 72
     8
 73
     4
 74
     0
 42
0.000000001
 43
0.00000001
 40
0.0
 40
0.0
 40
0.0
 40
0.0
 40
1.0
 40
1.0
 40
1.0
 40
1.0
 10
24.33799670362932
 20
6.138705650736774
 30
0.0
 10
24.14403300630791
 20
6.110554741614136
 30
0.0
 10
23.9500076391718
 20
6.081324061373373
 30
0.0
 10
23.75608199883415
 20
6.05103813501232
 30
0.0
  0
LWPOLYLINE
  5
1DC
330
1F
100
AcDbEntity
  8
외형선
  6
Continuous
 62
     1
370
    15
100
AcDbPolyline
 90
        3
 70
   128
 43
0.0
 10
24.33799711614846
 20
6.13870583059513
 10
24.33829979598521
 20
6.138749602756137
 10
24.33853728324174
 20
6.138784061691398
  0
SPLINE
  5
1DD
330
1F
100
AcDbEntity
  8
외형선
  6
Continuous
 62
     1
370
    15
100
AcDbSpline
210
0.0
220
0.0
230
1.0
 70
     8
 71
     3
 72
     8
 73
     4
 74
     0
 42
0.000000001
 43
0.00000001
 40
0.0
 40
0.0
 40
0.0
 40
0.0
 40
1.0
 40
1.0
 40
1.0
 40
1.0
 10
24.49480871964414
 20
6.115279936908355
 30
0.0
 10
24.45015455185602
 20
6.138560650133977
 30
0.0
 10
24.39522955797015
 20
6.146908554791966
 30
0.0
 10
24.33853761192785
 20
6.138783663635119
 30
0.0
  0
SPLINE
  5
1DE
330
1F
100
AcDbEntity
  8
외형선
  6
Continuous
 62
     1
370
    15
100
AcDbSpline
210
0.0
220
0.0
230
1.0
 70
     8
 71
     3
 72
    10
 73
     6
 74
     0
 42
0.000000001
 43
0.00000001
 40
0.0
 40
0.0
 40
0.0
 40
0.0
 40
0.5
 40
0.5
 40
1.0
 40
1.0
 40
1.0
 40
1.0
 10
25.12085347291239
 20
6.199571666902949
 30
0.0
 10
25.02807833145807
 20
6.124294658734121
 30
0.0
 10
24.91524524880742
 20
6.079228050391967
 30
0.0
 10
24.69028642885725
 20
6.051821259899882
 30
0.0
 10
24.58317464450051
 20
6.069209841832759
 30
0.0
 10
24.49480871964449
 20
6.1152799369081
 30
0.0
  0
SPLINE
  5
1DF
330
1F
100
AcDbEntity
  8
외형선
  6
Continuous
 62
     1
370
    15
100
AcDbSpline
210
0.0
220
0.0
230
1.0
 70
     8
 71
     3
 72
    17
 73
    13
 74
     0
 42
0.000000001
 43
0.00000001
 40
0.0
 40
0.0
 40
0.0
 40
0.0
 40
0.0000438681975631
 40
0.0000438681975631
 40
0.0000438681975631
 40
0.0000877523486463
 40
0.0000877523486463
 40
0.0000877523486463
 40
0.0001307572835255
 40
0.0001307572835255
 40
0.0001307572835255
 40
0.0001750495917152
 40
0.0001750495917152
 40
0.0001750495917152
 40
0.0001750495917152
 10
25.2770610088838
 20
6.266620691672333
 30
0.0
 10
25.2633214073781
 20
6.264871958367167
 30
0.0
 10
25.24948807585252
 20
6.262124266827947
 30
0.0
 10
25.23580684180367
 20
6.25840142927911
 30
0.0
 10
25.22212269945793
 20
6.254677800345751
 30
0.0
 10
25.20850533960351
 20
6.249954614124269
 30
0.0
 10
25.19522059469122
 20
6.244290234154631
 30
0.0
 10
25.18220280765945
 20
6.238739680297663
 30
0.0
 10
25.16941938749127
 20
6.232248262667209
 30
0.0
 10
25.15714039044894
 20
6.224913363385637
 30
0.0
 10
25.14449958659791
 20
6.217362337616531
 30
0.0
 10
25.13230026739514
 20
6.208859504445172
 30
0.0
 10
25.12085347291258
 20
6.199571666903108
 30
0.0
  0
SPLINE
  5
1E0
330
1F
100
AcDbEntity
  8
외형선
  6
Continuous
 62
     1
370
    15
100
AcDbSpline
210
0.0
220
0.0
230
1.0
 70
     8
 71
     3
 72
     8
 73
     4
 74
     0
 42
0.000000001
 43
0.00000001
 40
0.0
 40
0.0
 40
0.0
 40
0.0
 40
1.0
 40
1.0
 40
1.0
 40
1.0
 10
25.85912177601044
 20
6.337450680956558
 30
0.0
 10
25.66517332610031
 20
6.31496037338479
 30
0.0
 10
25.47141391503742
 20
6.291357318844952
 30
0.0
 10
25.277061008881
 20
6.26662069167196
 30
0.0
  0
SPLINE
  5
1E1
330
1F
100
AcDbEntity
  8
외형선
  6
Continuous
 62
     1
370
    15
100
AcDbSpline
210
0.0
220
0.0
230
1.0
 70
     8
 71
     3
 72
     8
 73
     4
 74
     0
 42
0.000000001
 43
0.00000001
 40
0.0
 40
0.0
 40
0.0
 40
0.0
 40
1.0
 40
1.0
 40
1.0
 40
1.0
 10
26.01597248227136
 20
6.307149805285647
 30
0.0
 10
25.97115842499492
 20
6.333310608989604
 30
0.0
 10
25.91601673451965
 20
6.344048233640031
 30
0.0
 10
25.85912177601044
 20
6.337450680956581
 30
0.0
  0
SPLINE
  5
1E2
330
1F
100
AcDbEntity
  8
외형선
  6
Continuous
 62
     1
370
    15
100
AcDbSpline
210
0.0
220
0.0
230
1.0
 70
     8
 71
     3
 72
    10
 73
     6
 74
     0
 42
0.000000001
 43
0.00000001
 40
0.0
 40
0.0
 40
0.0
 40
0.0
 40
0.5
 40
0.5
 40
1.0
 40
1.0
 40
1.0
 40
1.0
 10
26.64211878723621
 20
6.372931001620764
 30
0.0
 10
26.54931409231552
 20
6.297485535786612
 30
0.0
 10
26.43644600388537
 20
6.254121648101961
 30
0.0
 10
26.21145053198061
 20
6.233390091712582
 30
0.0
 10
26.10434577877588
 20
6.255560714650826
 30
0.0
 10
26.01597248227172
 20
6.307149805285391
 30
0.0
  0
SPLINE
  5
1E3
330
1F
100
AcDbEntity
  8
외형선
  6
Continuous
 62
     1
370
    15
100
AcDbSpline
210
0.0
220
0.0
230
1.0
 70
     8
 71
     3
 72
    17
 73
    13
 74
     0
 42
0.000000001
 43
0.00000001
 40
0.0
 40
0.0
 40
0.0
 40
0.0
 40
0.0000438682253407
 40
0.0000438682253407
 40
0.0000438682253407
 40
0.000087752361022
 40
0.000087752361022
 40
0.000087752361022
 40
0.000130753696385
 40
0.000130753696385
 40
0.000130753696385
 40
0.0001750418203379
 40
0.0001750418203379
 40
0.0001750418203379
 40
0.0001750418203379
 10
26.79833990024337
 20
6.437385064023606
 30
0.0
 10
26.78459750312589
 20
6.436053797760476
 30
0.0
 10
26.77076160863328
 20
6.433682889654532
 30
0.0
 10
26.7570781387095
 20
6.430287420212149
 30
0.0
 10
26.74339176809463
 20
6.426891230980998
 30
0.0
 10
26.7297724861969
 20
6.422448051346162
 30
0.0
 10
26.7164861393627
 20
6.417007839970661
 30
0.0
 10
26.7034678564363
 20
6.411677389716017
 30
0.0
 10
26.69068420802074
 20
6.405354010889081
 30
0.0
 10
26.67840513822632
 20
6.398127975932201
 30
0.0
 10
26.66576439061105
 20
6.390689099398531
 30
0.0
 10
26.65356531320717
 20
6.382236441230237
 30
0.0
 10
26.64211878723641
 20
6.372931001620917
 30
0.0
  0
SPLINE
  5
1E4
330
1F
100
AcDbEntity
  8
외형선
  6
Continuous
 62
     1
370
    15
100
AcDbSpline
210
0.0
220
0.0
230
1.0
 70
     8
 71
     3
 72
     8
 73
     4
 74
     0
 42
0.000000001
 43
0.00000001
 40
0.0
 40
0.0
 40
0.0
 40
0.0
 40
1.0
 40
1.0
 40
1.0
 40
1.0
 10
27.38043083440916
 20
6.490347167600463
 30
0.0
 10
27.18635794881741
 20
6.473831214559345
 30
0.0
 10
26.99227379221891
 20
6.456172008212305
 30
0.0
 10
26.79833990023473
 20
6.43738506402275
 30
0.0
  0
LWPOLYLINE
  5
1E5
330
1F
100
AcDbEntity
  8
외형선
  6
Continuous
 62
     1
370
    15
100
AcDbPolyline
 90
        3
 70
   128
 43
0.0
 10
27.38043145835399
 20
6.490347157737846
 10
27.38073320686816
 20
6.490372769108648
 10
27.38097162544727
 20
6.490393258205289
  0
SPLINE
  5
1E6
330
1F
100
AcDbEntity
  8
외형선
  6
Continuous
 62
     1
370
    15
100
AcDbSpline
210
0.0
220
0.0
230
1.0
 70
     8
 71
     3
 72
     8
 73
     4
 74
     0
 42
0.000000001
 43
0.00000001
 40
0.0
 40
0.0
 40
0.0
 40
0.0
 40
1.0
 40
1.0
 40
1.0
 40
1.0
 10
27.53728697049607
 20
6.453291406448819
 30
0.0
 10
27.49261700564395
 20
6.481987566557105
 30
0.0
 10
27.43767722682673
 20
6.495105797875991
 30
0.0
 10
27.38097201591036
 20
6.490392685801607
 30
0.0
  0
SPLINE
  5
1E7
330
1F
100
AcDbEntity
  8
외형선
  6
Continuous
 62
     1
370
    15
100
AcDbSpline
210
0.0
220
0.0
230
1.0
 70
     8
 71
     3
 72
    10
 73
     6
 74
     0
 42
0.000000001
 43
0.00000001
 40
0.0
 40
0.0
 40
0.0
 40
0.0
 40
0.5
 40
0.5
 40
1.0
 40
1.0
 40
1.0
 40
1.0
 10
28.16344819580942
 20
6.499948016799188
 30
0.0
 10
28.07065550172509
 20
6.424925153166502
 30
0.0
 10
27.95780088795416
 20
6.383583551397412
 30
0.0
 10
27.73280312030662
 20
6.36969428616284
 30
0.0
 10
27.62567538972093
 20
6.396510340284697
 30
0.0
 10
27.53728697049642
 20
6.453291406448554
 30
0.0
  0
LWPOLYLINE
  5
1EA
330
1F
100
AcDbEntity
  8
외형선
  6
Continuous
 62
     1
370
    15
100
AcDbPolyline
 90
        3
 70
   128
 43
0.0
 10
28.90177854895591
 20
6.596375438890094
 10
28.90208216011523
 20
6.596392202696437
 10
28.90232057869434
 20
6.596404775551195
  0
SPLINE
  5
1F9
330
1F
100
AcDbEntity
  8
외형선
  6
Continuous
 62
     1
370
    15
100
AcDbSpline
210
0.0
220
0.0
230
1.0
 70
     8
 71
     3
 72
    17
 73
    13
 74
     0
 42
0.000000001
 43
0.00000001
 40
0.0
 40
0.0
 40
0.0
 40
0.0
 40
0.0000438681942105
 40
0.0000438681942105
 40
0.0000438681942105
 40
0.0000877523308917
 40
0.0000877523308917
 40
0.0000877523308917
 40
0.0001307580076156
 40
0.0001307580076156
 40
0.0001307580076156
 40
0.0001750510159329
 40
0.0001750510159329
 40
0.0001750510159329
 40
0.0001750510159329
 10
15.39304744192906
 20
-3.512464153594195
 30
0.0
 10
15.37930665953927
 20
-3.508474406964295
 30
0.0
 10
15.36547219802794
 20
-3.50391364549223
 30
0.0
 10
15.35178990014428
 20
-3.498855599874523
 30
0.0
 10
15.33810469583817
 20
-3.493796479816139
 30
0.0
 10
15.32448633791573
 20
-3.488207934759618
 30
0.0
 10
15.31120065900126
 20
-3.482189998308915
 30
0.0
 10
15.29818172896859
 20
-3.476292889542618
 30
0.0
 10
15.28539723512392
 20
-3.469944572474647
 30
0.0
 10
15.27311724537035
 20
-3.463268745006791
 30
0.0
 10
15.2604754380744
 20
-3.45639622099959
 30
0.0
 10
15.24827519570657
 20
-3.449124918369207
 30
0.0
 10
15.23682758432061
 20
-3.441626989921363
 30
0.0
  0
SPLINE
  5
1FA
330
1F
100
AcDbEntity
  8
외형선
  6
Continuous
 62
     1
370
    15
100
AcDbSpline
210
0.0
220
0.0
230
1.0
 70
     8
 71
     3
 72
    10
 73
     6
 74
     0
 42
0.000000001
 43
0.00000001
 40
0.0
 40
0.0
 40
0.0
 40
0.0
 40
0.5
 40
0.5
 40
1.0
 40
1.0
 40
1.0
 40
1.0
 10
15.23682751197258
 20
-3.441625494072118
 30
0.0
 10
15.21810916016418
 20
-3.054607943972973
 30
0.0
 10
15.19915823955801
 20
-2.632530789610349
 30
0.0
 10
15.16226755139108
 20
-1.751995591236465
 30
0.0
 10
15.14433903219801
 20
-1.293859899105755
 30
0.0
 10
15.12754037198396
 20
-0.8362246079072013
 30
0.0
  0
SPLINE
  5
1FB
330
1F
100
AcDbEntity
  8
외형선
  6
Continuous
 62
     1
370
    15
100
AcDbSpline
210
0.0
220
0.0
230
1.0
 70
     8
 71
     3
 72
    10
 73
     6
 74
     0
 42
0.000000001
 43
0.00000001
 40
0.0
 40
0.0
 40
0.0
 40
0.0
 40
0.5
 40
0.5
 40
1.0
 40
1.0
 40
1.0
 40
1.0
 10
15.23682758432028
 20
-3.441626989921127
 30
0.0
 10
15.14403735990993
 20
-3.38085147616259
 30
0.0
 10
15.03118483924502
 20
-3.333449486100586
 30
0.0
 10
14.8061904883154
 20
-3.269848923670754
 30
0.0
 10
14.69906570314158
 20
-3.254553757967817
 30
0.0
 10
14.61067956998092
 20
-3.258118987027331
 30
0.0
  0
SPLINE
  5
1FC
330
1F
100
AcDbEntity
  8
외형선
  6
Continuous
 62
     1
370
    15
100
AcDbSpline
210
0.0
220
0.0
230
1.0
 70
     8
 71
     3
 72
    12
 73
     8
 74
     0
 42
0.000000001
 43
0.00000001
 40
0.0
 40
0.0
 40
0.0
 40
0.0
 40
0.5000000000000004
 40
0.5000000000000004
 40
0.7500000000000002
 40
0.7500000000000002
 40
1.0
 40
1.0
 40
1.0
 40
1.0
 10
27.17866953485998
 20
1.874900097610924
 30
0.0
 10
27.15987112633567
 20
2.347476892513303
 30
0.0
 10
27.14117764783754
 20
2.805107420166104
 30
0.0
 10
27.11435327865024
 20
3.444109969317924
 30
0.0
 10
27.10561278664034
 20
3.649275087949242
 30
0.0
 10
27.08867743483588
 20
4.040884609304251
 30
0.0
 10
27.0802924746921
 20
4.228882999850007
 30
0.0
 10
27.0715195173689
 20
4.410996246500419
 30
0.0
  0
SPLINE
  5
1FD
330
1F
100
AcDbEntity
  8
외형선
  6
Continuous
 62
     1
370
    15
100
AcDbSpline
210
0.0
220
0.0
230
1.0
 70
     8
 71
     3
 72
    12
 73
     8
 74
     0
 42
0.000000001
 43
0.00000001
 40
0.0
 40
0.0
 40
0.0
 40
0.0
 40
0.5000000000000001
 40
0.5000000000000001
 40
0.75
 40
0.75
 40
1.0
 40
1.0
 40
1.0
 40
1.0
 10
27.76076413888233
 20
1.668961944279763
 30
0.0
 10
27.74198805580684
 20
2.144488416544736
 30
0.0
 10
27.72320643582466
 20
2.607889957307162
 30
0.0
 10
27.69610133544967
 20
3.258945571663744
 30
0.0
 10
27.68724295702424
 20
3.468683848428117
 30
0.0
 10
27.67003048411388
 20
3.870314415165784
 30
0.0
 10
27.66181236933131
 20
4.061320995451076
 30
0.0
 10
27.65319787624354
 20
4.247104054442726
 30
0.0
  0
SPLINE
  5
1FE
330
1F
100
AcDbEntity
  8
외형선
  6
Continuous
 62
     1
370
    15
100
AcDbSpline
210
0.0
220
0.0
230
1.0
 70
     8
 71
     3
 72
    12
 73
     8
 74
     0
 42
0.000000001
 43
0.00000001
 40
0.0
 40
0.0
 40
0.0
 40
0.0
 40
0.5000000000000001
 40
0.5000000000000001
 40
0.75
 40
0.75
 40
1.0
 40
1.0
 40
1.0
 40
1.0
 10
27.91762120723767
 20
1.594434603904276
 30
0.0
 10
27.89875095494766
 20
2.069408933413933
 30
0.0
 10
27.87984094578459
 20
2.533093976557906
 30
0.0
 10
27.85251421036536
 20
3.18539155783317
 30
0.0
 10
27.84357721694189
 20
3.395677603133116
 30
0.0
 10
27.82620239922264
 20
3.798584224784965
 30
0.0
 10
27.81793613323515
 20
3.990044512431731
 30
0.0
 10
27.80931206319159
 20
4.176083786876365
 30
0.0
  0
SPLINE
  5
1FF
330
1F
100
AcDbEntity
  8
외형선
  6
Continuous
 62
     1
370
    15
100
AcDbSpline
210
0.0
220
0.0
230
1.0
 70
     8
 71
     3
 72
     8
 73
     4
 74
     0
 42
0.000000001
 43
0.00000001
 40
0.0
 40
0.0
 40
0.0
 40
0.0
 40
1.0
 40
1.0
 40
1.0
 40
1.0
 10
16.13197207645235
 20
-3.696064901090431
 30
0.0
 10
16.08715957757017
 20
-3.701362545479172
 30
0.0
 10
16.03202228469507
 20
-3.695625489898423
 30
0.0
 10
15.97512465844155
 20
-3.679492780035451
 30
0.0
  0
SPLINE
  5
200
330
1F
100
AcDbEntity
  8
외형선
  6
Continuous
 62
     1
370
    15
100
AcDbSpline
210
0.0
220
0.0
230
1.0
 70
     8
 71
     3
 72
    10
 73
     6
 74
     0
 42
0.000000001
 43
0.00000001
 40
0.0
 40
0.0
 40
0.0
 40
0.0
 40
0.5
 40
0.5
 40
1.0
 40
1.0
 40
1.0
 40
1.0
 10
16.13197207643671
 20
-3.696064900778337
 30
0.0
 10
16.11345506207721
 20
-3.326476290023363
 30
0.0
 10
16.09454146507106
 20
-2.918914037297457
 30
0.0
 10
16.05738949404554
 20
-2.059299416205152
 30
0.0
 10
16.03916303815312
 20
-1.607558726655893
 30
0.0
 10
16.02193574376464
 20
-1.152158784401081
 30
0.0
  0
SPLINE
  5
201
330
1F
100
AcDbEntity
  8
외형선
  6
Continuous
 62
     1
370
    15
100
AcDbSpline
210
0.0
220
0.0
230
1.0
 70
     8
 71
     3
 72
    10
 73
     6
 74
     0
 42
0.000000001
 43
0.00000001
 40
0.0
 40
0.0
 40
0.0
 40
0.0
 40
0.5
 40
0.5
 40
1.0
 40
1.0
 40
1.0
 40
1.0
 10
16.91426204707008
 20
-3.939495143964101
 30
0.0
 10
16.89605974295803
 20
-3.584402994131805
 30
0.0
 10
16.87733205648032
 20
-3.189207535625671
 30
0.0
 10
16.84025144099227
 20
-2.347630699094845
 30
0.0
 10
16.82191045410629
 20
-1.901540319410047
 30
0.0
 10
16.80443433314615
 20
-1.448033117614212
 30
0.0
  0
SPLINE
  5
202
330
1F
100
AcDbEntity
  8
외형선
  6
Continuous
 62
     1
370
    15
100
AcDbSpline
210
0.0
220
0.0
230
1.0
 70
     8
 71
     3
 72
    10
 73
     6
 74
     0
 42
0.000000001
 43
0.00000001
 40
0.0
 40
0.0
 40
0.0
 40
0.0
 40
0.5
 40
0.5
 40
1.0
 40
1.0
 40
1.0
 40
1.0
 10
17.4962201853551
 20
-4.094128455825293
 30
0.0
 10
17.47819914856071
 20
-3.751226241352512
 30
0.0
 10
17.4595536422183
 20
-3.366630167854694
 30
0.0
 10
17.42241929907413
 20
-2.541325478950827
 30
0.0
 10
17.4039425416634
 20
-2.100894021267379
 30
0.0
 10
17.38623837570709
 20
-1.65031160729855
 30
0.0
  0
SPLINE
  5
203
330
1F
100
AcDbEntity
  8
외형선
  6
Continuous
 62
     1
370
    15
100
AcDbSpline
210
0.0
220
0.0
230
1.0
 70
     8
 71
     3
 72
     8
 73
     4
 74
     0
 42
0.000000001
 43
0.00000001
 40
0.0
 40
0.0
 40
0.0
 40
0.0
 40
1.0
 40
1.0
 40
1.0
 40
1.0
 10
17.49622018535512
 20
-4.094128455825548
 30
0.0
 10
17.30213303968299
 20
-4.043381858935679
 30
0.0
 10
17.10809349146997
 20
-3.991822586733946
 30
0.0
 10
16.91426294501644
 20
-3.939494617473088
 30
0.0
  0
SPLINE
  5
204
330
1F
100
AcDbEntity
  8
외형선
  6
Continuous
 62
     1
370
    15
100
AcDbSpline
210
0.0
220
0.0
230
1.0
 70
     8
 71
     3
 72
    10
 73
     6
 74
     0
 42
0.000000001
 43
0.00000001
 40
0.0
 40
0.0
 40
0.0
 40
0.0
 40
0.5
 40
0.5
 40
1.0
 40
1.0
 40
1.0
 40
1.0
 10
27.02244774383033
 20
1.908571606522629
 30
0.0
 10
27.00354235033013
 20
2.379038824535193
 30
0.0
 10
26.98476897816428
 20
2.833865633683879
 30
0.0
 10
26.94891430941736
 20
3.678904641571748
 30
0.0
 10
26.93251220048509
 20
4.064923492359336
 30
0.0
 10
26.91477683615128
 20
4.425682822174945
 30
0.0
  0
SPLINE
  5
205
330
1F
100
AcDbEntity
  8
외형선
  6
Continuous
 62
     1
370
    15
100
AcDbSpline
210
0.0
220
0.0
230
1.0
 70
     8
 71
     3
 72
    10
 73
     6
 74
     0
 42
0.000000001
 43
0.00000001
 40
0.0
 40
0.0
 40
0.0
 40
0.0
 40
0.5
 40
0.5
 40
1.0
 40
1.0
 40
1.0
 40
1.0
 10
16.75806230499503
 20
-3.867756670063569
 30
0.0
 10
16.6652633389719
 20
-3.80329673147293
 30
0.0
 10
16.55239987562842
 20
-3.755221623044072
 30
0.0
 10
16.32742631330087
 20
-3.69601685292332
 30
0.0
 10
16.22033533405919
 20
-3.685618772722011
 30
0.0
 10
16.13197207645236
 20
-3.696064901090404
 30
0.0
  0
SPLINE
  5
206
330
1F
100
AcDbEntity
  8
외형선
  6
Continuous
 62
     1
370
    15
100
AcDbSpline
210
0.0
220
0.0
230
1.0
 70
     8
 71
     3
 72
    10
 73
     6
 74
     0
 42
0.000000001
 43
0.00000001
 40
0.0
 40
0.0
 40
0.0
 40
0.0
 40
0.5
 40
0.5
 40
1.0
 40
1.0
 40
1.0
 40
1.0
 10
16.75806225316809
 20
-3.867755661867585
 30
0.0
 10
16.73971549534195
 20
-3.51085384163677
 30
0.0
 10
16.72086069423155
 20
-3.114103473489598
 30
0.0
 10
16.68358936994558
 20
-2.270604902308812
 30
0.0
 10
16.66518507457544
 20
-1.824156890512782
 30
0.0
 10
16.64768374883959
 20
-1.371110562809688
 30
0.0
  0
SPLINE
  5
207
330
1F
100
AcDbEntity
  8
외형선
  6
Continuous
 62
     1
370
    15
100
AcDbSpline
210
0.0
220
0.0
230
1.0
 70
     8
 71
     3
 72
    17
 73
    13
 74
     0
 42
0.000000001
 43
0.00000001
 40
0.0
 40
0.0
 40
0.0
 40
0.0
 40
0.0000438682828951
 40
0.0000438682828951
 40
0.0000438682828951
 40
0.0000877524555847
 40
0.0000877524555847
 40
0.0000877524555847
 40
0.0001307470844482
 40
0.0001307470844482
 40
0.0001307470844482
 40
0.0001750280446602
 40
0.0001750280446602
 40
0.0001750280446602
 40
0.0001750280446602
 10
16.91426200710217
 20
-3.939494364266618
 30
0.0
 10
16.90052031394339
 20
-3.935784552026346
 30
0.0
 10
16.88668510324028
 20
-3.931421234337587
 30
0.0
 10
16.87300238336085
 20
-3.926471734985896
 30
0.0
 10
16.85931676675386
 20
-3.921521187790555
 30
0.0
 10
16.84569827956075
 20
-3.915952872946026
 30
0.0
 10
16.83241281574428
 20
-3.909862359043196
 30
0.0
 10
16.81939742220038
 20
-3.903895654649202
 30
0.0
 10
16.80661666712828
 20
-3.897388347760288
 30
0.0
 10
16.79434036971371
 20
-3.890462578763719
 30
0.0
 10
16.78170254368491
 20
-3.88333285057789
 30
0.0
 10
16.76950629431059
 20
-3.875705884156412
 30
0.0
 10
16.75806230499534
 20
-3.867756670063793
 30
0.0
  0
SPLINE
  5
208
330
1F
100
AcDbEntity
  8
외형선
  6
Continuous
 62
     1
370
    15
100
AcDbSpline
210
0.0
220
0.0
230
1.0
 70
     8
 71
     3
 72
    12
 73
     8
 74
     0
 42
0.000000001
 43
0.00000001
 40
0.0
 40
0.0
 40
0.0
 40
0.0
 40
0.5000000000000002
 40
0.5000000000000002
 40
0.7500000000000001
 40
0.7500000000000001
 40
1.0
 40
1.0
 40
1.0
 40
1.0
 10
26.39629770097577
 20
2.125990668346164
 30
0.0
 10
26.37742216628811
 20
2.59193672951328
 30
0.0
 10
26.35879885651005
 20
3.039269889236706
 30
0.0
 10
26.33228452168987
 20
3.658486569043394
 30
0.0
 10
26.32384361504731
 20
3.855177548244866
 30
0.0
 10
26.30677206300955
 20
4.23445846443632
 30
0.0
 10
26.29795991894872
 20
4.418269961634294
 30
0.0
 10
26.28894506362915
 20
4.594079014651725
 30
0.0
  0
SPLINE
  5
209
330
1F
100
AcDbEntity
  8
외형선
  6
Continuous
 62
     1
370
    15
100
AcDbSpline
210
0.0
220
0.0
230
1.0
 70
     8
 71
     3
 72
    12
 73
     8
 74
     0
 42
0.000000001
 43
0.00000001
 40
0.0
 40
0.0
 40
0.0
 40
0.0
 40
0.5000000000000003
 40
0.5000000000000003
 40
0.7500000000000003
 40
0.7500000000000003
 40
1.0
 40
1.0
 40
1.0
 40
1.0
 10
26.23944540717178
 20
2.203671318953914
 30
0.0
 10
26.22069332455081
 20
2.669403744428676
 30
0.0
 10
26.20222430883701
 20
3.115749777200966
 30
0.0
 10
26.17596134626314
 20
3.732858233554437
 30
0.0
 10
26.167629263516
 20
3.928593637355636
 30
0.0
 10
26.15057006514161
 20
4.307326014723483
 30
0.0
 10
26.14177185493313
 20
4.490715197109403
 30
0.0
 10
26.1327785212155
 20
4.665978846838225
 30
0.0
  0
SPLINE
  5
20A
330
1F
100
AcDbEntity
  8
외형선
  6
Continuous
 62
     1
370
    15
100
AcDbSpline
210
0.0
220
0.0
230
1.0
 70
     8
 71
     3
 72
    12
 73
     8
 74
     0
 42
0.000000001
 43
0.00000001
 40
0.0
 40
0.0
 40
0.0
 40
0.0
 40
0.5000000000000003
 40
0.5000000000000003
 40
0.7500000000000003
 40
0.7500000000000003
 40
1.0
 40
1.0
 40
1.0
 40
1.0
 10
25.65736600747898
 20
2.405226302618708
 30
0.0
 10
25.63869319404204
 20
2.865452763286596
 30
0.0
 10
25.62041266600328
 20
3.303637978692286
 30
0.0
 10
25.59456135738947
 20
3.905765272000008
 30
0.0
 10
25.58629677549117
 20
4.096825475444197
 30
0.0
 10
25.56892215623828
 20
4.468492906878432
 30
0.0
 10
25.55998592752401
 20
4.647695168864394
 30
0.0
 10
25.55087843934625
 20
4.818155802464021
 30
0.0
  0
SPLINE
  5
20B
330
1F
100
AcDbEntity
  8
외형선
  6
Continuous
 62
     1
370
    15
100
AcDbSpline
210
0.0
220
0.0
230
1.0
 70
     8
 71
     3
 72
     8
 73
     4
 74
     0
 42
0.000000001
 43
0.00000001
 40
0.0
 40
0.0
 40
0.0
 40
0.0
 40
1.0
 40
1.0
 40
1.0
 40
1.0
 10
17.65302275757448
 20
-4.10327855962141
 30
0.0
 10
17.60823021551144
 20
-4.112121314193293
 30
0.0
 10
17.55310368238905
 20
-4.109001382539197
 30
0.0
 10
17.49622018535621
 20
-4.094128455825851
 30
0.0
  0
SPLINE
  5
20C
330
1F
100
AcDbEntity
  8
외형선
  6
Continuous
 62
     1
370
    15
100
AcDbSpline
210
0.0
220
0.0
230
1.0
 70
     8
 71
     3
 72
    10
 73
     6
 74
     0
 42
0.000000001
 43
0.00000001
 40
0.0
 40
0.0
 40
0.0
 40
0.0
 40
0.5
 40
0.5
 40
1.0
 40
1.0
 40
1.0
 40
1.0
 10
17.65302275755167
 20
-4.103278559194511
 30
0.0
 10
17.63495755615659
 20
-3.765091747348294
 30
0.0
 10
17.61623028238085
 20
-3.38460902116709
 30
0.0
 10
17.57887470500023
 20
-2.566041773572665
 30
0.0
 10
17.5602588481867
 20
-2.128235783436011
 30
0.0
 10
17.5424027109265
 20
-1.679613916706726
 30
0.0
  0
SPLINE
  5
20D
330
1F
100
AcDbEntity
  8
외형선
  6
Continuous
 62
     1
370
    15
100
AcDbSpline
210
0.0
220
0.0
230
1.0
 70
     8
 71
     3
 72
    10
 73
     6
 74
     0
 42
0.000000001
 43
0.00000001
 40
0.0
 40
0.0
 40
0.0
 40
0.0
 40
0.3347562038891155
 40
0.6688252085000846
 40
1.0
 40
1.0
 40
1.0
 40
1.0
 10
20.96486502885818
 20
-5.151273966261511
 30
0.0
 10
21.01417396493187
 20
-5.118424040850454
 30
0.0
 10
21.11269061396559
 20
-5.052791625507554
 30
0.0
 10
21.2845226469524
 20
-5.002594314911065
 30
0.0
 10
21.39094165542192
 20
-5.003775740751254
 30
0.0
 10
21.44391966611147
 20
-5.004363883712656
 30
0.0
  0
SPLINE
  5
20E
330
1F
100
AcDbEntity
  8
외형선
  6
Continuous
 62
     1
370
    15
100
AcDbSpline
210
0.0
220
0.0
230
1.0
 70
     8
 71
     3
 72
    17
 73
    13
 74
     0
 42
0.000000001
 43
0.00000001
 40
0.0
 40
0.0
 40
0.0
 40
0.0
 40
0.0000438682659993
 40
0.0000438682659993
 40
0.0000438682659993
 40
0.0000877524494899
 40
0.0000877524494899
 40
0.0000877524494899
 40
0.0001307483607606
 40
0.0001307483607606
 40
0.0001307483607606
 40
0.0001750308929564
 40
0.0001750308929564
 40
0.0001750308929564
 40
0.0001750308929564
 10
20.80864542179093
 20
-5.221565194038939
 30
0.0
 10
20.8223885842168
 20
-5.21912182335419
 30
0.0
 10
20.83622531701305
 20
-5.215768729446605
 30
0.0
 10
20.84990960150575
 20
-5.211544825067193
 30
0.0
 10
20.86359678824542
 20
-5.207320024856241
 30
0.0
 10
20.87721689374608
 20
-5.202197001444624
 30
0.0
 10
20.89050396094269
 20
-5.196248017286494
 30
0.0
 10
20.9035213051507
 20
-5.190419795502971
 30
0.0
 10
20.91630399842815
 20
-5.18375999689601
 30
0.0
 10
20.92858210164006
 20
-5.176376712638087
 30
0.0
 10
20.9412218553842
 20
-5.168775954342399
 30
0.0
 10
20.9534199166624
 20
-5.160350504020658
 30
0.0
 10
20.96486545238699
 20
-5.151274078760744
 30
0.0
  0
SPLINE
  5
20F
330
1F
100
AcDbEntity
  8
외형선
  6
Continuous
 62
     1
370
    15
100
AcDbSpline
210
0.0
220
0.0
230
1.0
 70
     8
 71
     3
 72
     8
 73
     4
 74
     0
 42
0.000000001
 43
0.00000001
 40
0.0
 40
0.0
 40
0.0
 40
0.0
 40
1.0
 40
1.0
 40
1.0
 40
1.0
 10
20.80864542178971
 20
-5.221565194037711
 30
0.0
 10
20.61445324891697
 20
-5.256090250766315
 30
0.0
 10
20.42028415911686
 20
-5.289587290846279
 30
0.0
 10
20.2262998898092
 20
-5.322029508080265
 30
0.0
  0
SPLINE
  5
210
330
1F
100
AcDbEntity
  8
외형선
  6
Continuous
 62
     1
370
    15
100
AcDbSpline
210
0.0
220
0.0
230
1.0
 70
     8
 71
     3
 72
     8
 73
     4
 74
     0
 42
0.000000001
 43
0.00000001
 40
0.0
 40
0.0
 40
0.0
 40
0.0
 40
1.0
 40
1.0
 40
1.0
 40
1.0
 10
20.06972339057566
 20
-5.304037656950176
 30
0.0
 10
20.11453190484942
 20
-5.325098622468147
 30
0.0
 10
20.16967202625014
 20
-5.331500314454926
 30
0.0
 10
20.22657032625968
 20
-5.321984279226625
 30
0.0
  0
SPLINE
  5
211
330
1F
100
AcDbEntity
  8
외형선
  6
Continuous
 62
     1
370
    15
100
AcDbSpline
210
0.0
220
0.0
230
1.0
 70
     8
 71
     3
 72
    10
 73
     6
 74
     0
 42
0.000000001
 43
0.00000001
 40
0.0
 40
0.0
 40
0.0
 40
0.0
 40
0.5
 40
0.5
 40
1.0
 40
1.0
 40
1.0
 40
1.0
 10
19.44360834398238
 20
-5.40231111140356
 30
0.0
 10
19.53639698389572
 20
-5.327510148118013
 30
0.0
 10
19.64924099309479
 20
-5.281349579596475
 30
0.0
 10
19.87421341586172
 20
-5.248906830825776
 30
0.0
 10
19.98133790253111
 20
-5.262494576439308
 30
0.0
 10
20.06972339057582
 20
-5.304037656949466
 30
0.0
  0
SPLINE
  5
212
330
1F
100
AcDbEntity
  8
외형선
  6
Continuous
 62
     1
370
    15
100
AcDbSpline
210
0.0
220
0.0
230
1.0
 70
     8
 71
     3
 72
    17
 73
    13
 74
     0
 42
0.000000001
 43
0.00000001
 40
0.0
 40
0.0
 40
0.0
 40
0.0
 40
0.0000438680740149
 40
0.0000438680740149
 40
0.0000438680740149
 40
0.0000877521121578
 40
0.0000877521121578
 40
0.0000877521121578
 40
0.0001307745834562
 40
0.0001307745834562
 40
0.0001307745834562
 40
0.0001750854137037
 40
0.0001750854137037
 40
0.0001750854137037
 40
0.0001750854137037
 10
19.28739576064833
 20
-5.471037599511109
 30
0.0
 10
19.30113206928266
 20
-5.468975270630191
 30
0.0
 10
19.31496216265715
 20
-5.465950634398522
 30
0.0
 10
19.32864051113996
 20
-5.461994126690964
 30
0.0
 10
19.34232176911475
 20
-5.458036777403194
 30
0.0
 10
19.35593650767397
 20
-5.453121762674118
 30
0.0
 10
19.36921915960364
 20
-5.447313556846725
 30
0.0
 10
19.38224019569248
 20
-5.441619749759834
 30
0.0
 10
19.39502712848045
 20
-5.435029578791044
 30
0.0
 10
19.40730974226492
 20
-5.427645376392006
 30
0.0
 10
19.41995438849506
 20
-5.42004352318177
 30
0.0
 10
19.43215771592013
 20
-5.411541961325688
 30
0.0
 10
19.4436083439833
 20
-5.402311111405438
 30
0.0
  0
SPLINE
  5
213
330
1F
100
AcDbEntity
  8
외형선
  6
Continuous
 62
     1
370
    15
100
AcDbSpline
210
0.0
220
0.0
230
1.0
 70
     8
 71
     3
 72
     8
 73
     4
 74
     0
 42
0.000000001
 43
0.00000001
 40
0.0
 40
0.0
 40
0.0
 40
0.0
 40
1.0
 40
1.0
 40
1.0
 40
1.0
 10
19.28739576064715
 20
-5.471037599509794
 30
0.0
 10
19.09367482658422
 20
-5.500122289419468
 30
0.0
 10
18.89955056826526
 20
-5.528150489334962
 30
0.0
 10
18.70511207707598
 20
-5.555098225059501
 30
0.0
  0
SPLINE
  5
214
330
1F
100
AcDbEntity
  8
외형선
  6
Continuous
 62
     1
370
    15
100
AcDbSpline
210
0.0
220
0.0
230
1.0
 70
     8
 71
     3
 72
     8
 73
     4
 74
     0
 42
0.000000001
 43
0.00000001
 40
0.0
 40
0.0
 40
0.0
 40
0.0
 40
1.0
 40
1.0
 40
1.0
 40
1.0
 10
18.54856500900814
 20
-5.530038588942433
 30
0.0
 10
18.59336500667009
 20
-5.554059375948174
 30
0.0
 10
18.64849648206825
 20
-5.562945031157455
 30
0.0
 10
18.70538263312973
 20
-5.555060727272354
 30
0.0
  0
SPLINE
  5
215
330
1F
100
AcDbEntity
  8
외형선
  6
Continuous
 62
     1
370
    15
100
AcDbSpline
210
0.0
220
0.0
230
1.0
 70
     8
 71
     3
 72
    10
 73
     6
 74
     0
 42
0.000000001
 43
0.00000001
 40
0.0
 40
0.0
 40
0.0
 40
0.0
 40
0.5
 40
0.5
 40
1.0
 40
1.0
 40
1.0
 40
1.0
 10
17.92258874246273
 20
-5.610045194285584
 30
0.0
 10
18.01535636560301
 20
-5.534694463654961
 30
0.0
 10
18.12819038777105
 20
-5.49000344041238
 30
0.0
 10
18.35313502778682
 20
-5.464150739612752
 30
0.0
 10
18.46021782278755
 20
-5.482668743997464
 30
0.0
 10
18.5485650090078
 20
-5.530038588942192
 30
0.0
  0
SPLINE
  5
216
330
1F
100
AcDbEntity
  8
외형선
  6
Continuous
 62
     1
370
    15
100
AcDbSpline
210
0.0
220
0.0
230
1.0
 70
     8
 71
     3
 72
    17
 73
    13
 74
     0
 42
0.000000001
 43
0.00000001
 40
0.0
 40
0.0
 40
0.0
 40
0.0
 40
0.0000438684422065
 40
0.0000438684422065
 40
0.0000438684422065
 40
0.0000877527707863
 40
0.0000877527707863
 40
0.0000877527707863
 40
0.0001307262195365
 40
0.0001307262195365
 40
0.0001307262195365
 40
0.0001749849949218
 40
0.0001749849949218
 40
0.0001749849949218
 40
0.0001749849949218
 10
17.76641470046289
 20
-5.676502698863728
 30
0.0
 10
17.78015791040779
 20
-5.674852284451556
 30
0.0
 10
17.79399475952418
 20
-5.67219171948025
 30
0.0
 10
17.80767890682667
 20
-5.668543001170535
 30
0.0
 10
17.82136595071289
 20
-5.664893510520545
 30
0.0
 10
17.83498575817379
 20
-5.660231871341264
 30
0.0
 10
17.84827211736204
 20
-5.654614851647363
 30
0.0
 10
17.8612819786716
 20
-5.649114725829946
 30
0.0
 10
17.87405708912481
 20
-5.642661785502392
 30
0.0
 10
17.88632780605209
 20
-5.63535196947401
 30
0.0
 10
17.89895979521338
 20
-5.627826939160886
 30
0.0
 10
17.91115020765496
 20
-5.619336172389549
 30
0.0
 10
17.92258874246362
 20
-5.610045194287552
 30
0.0
  0
SPLINE
  5
217
330
1F
100
AcDbEntity
  8
외형선
  6
Continuous
 62
     1
370
    15
100
AcDbSpline
210
0.0
220
0.0
230
1.0
 70
     8
 71
     3
 72
     8
 73
     4
 74
     0
 42
0.000000001
 43
0.00000001
 40
0.0
 40
0.0
 40
0.0
 40
0.0
 40
1.0
 40
1.0
 40
1.0
 40
1.0
 10
17.76641470046176
 20
-5.676502698862344
 30
0.0
 10
17.57235012867329
 20
-5.699807804978854
 30
0.0
 10
17.37825809699054
 20
-5.722004482264905
 30
0.0
 10
17.18430016410241
 20
-5.743074865208347
 30
0.0
  0
SPLINE
  5
218
330
1F
100
AcDbEntity
  8
외형선
  6
Continuous
 62
     1
370
    15
100
AcDbSpline
210
0.0
220
0.0
230
1.0
 70
     8
 71
     3
 72
     8
 73
     4
 74
     0
 42
0.000000001
 43
0.00000001
 40
0.0
 40
0.0
 40
0.0
 40
0.0
 40
1.0
 40
1.0
 40
1.0
 40
1.0
 10
17.02780462415388
 20
-5.711121735891424
 30
0.0
 10
17.07258342546267
 20
-5.737913626856328
 30
0.0
 10
17.12769735684289
 20
-5.749224144108273
 30
0.0
 10
17.18457052095066
 20
-5.74304549460619
 30
0.0
  0
SPLINE
  5
219
330
1F
100
AcDbEntity
  8
외형선
  6
Continuous
 62
     1
370
    15
100
AcDbSpline
210
0.0
220
0.0
230
1.0
 70
     8
 71
     3
 72
    10
 73
     6
 74
     0
 42
0.000000001
 43
0.00000001
 40
0.0
 40
0.0
 40
0.0
 40
0.0
 40
0.4999999999999982
 40
0.4999999999999982
 40
1.0
 40
1.0
 40
1.0
 40
1.0
 10
16.40201072635921
 20
-5.77250873188454
 30
0.0
 10
16.49474388937756
 20
-5.697123204043933
 30
0.0
 10
16.60753236679927
 20
-5.654177522152146
 30
0.0
 10
16.83241187800619
 20
-5.63500168078544
 30
0.0
 10
16.93947977160131
 20
-5.658275528535799
 30
0.0
 10
17.02780462415354
 20
-5.711121735891179
 30
0.0
  0
SPLINE
  5
21A
330
1F
100
AcDbEntity
  8
외형선
  6
Continuous
 62
     1
370
    15
100
AcDbSpline
210
0.0
220
0.0
230
1.0
 70
     8
 71
     3
 72
    17
 73
    13
 74
     0
 42
0.000000001
 43
0.00000001
 40
0.0
 40
0.0
 40
0.0
 40
0.0
 40
0.0000438684191695
 40
0.0000438684191695
 40
0.0000438684191695
 40
0.0000877527536866
 40
0.0000877527536866
 40
0.0000877527536866
 40
0.0001307303177559
 40
0.0001307303177559
 40
0.0001307303177559
 40
0.0001749937340698
 40
0.0001749937340698
 40
0.0001749937340698
 40
0.0001749937340698
 10
16.24587475802184
 20
-5.836327923277961
 30
0.0
 10
16.25961264598388
 20
-5.835090378036476
 30
0.0
 10
16.2734444414135
 20
-5.832804424859209
 30
0.0
 10
16.28712394775815
 20
-5.829483235972583
 30
0.0
 10
16.30080635510757
 20
-5.826161342763407
 30
0.0
 10
16.314421902793
 20
-5.821782203990573
 30
0.0
 10
16.32770446828314
 20
-5.816394032431813
 30
0.0
 10
16.34071184736155
 20
-5.811117492289297
 30
0.0
 10
16.35348485966915
 20
-5.804837910628454
 30
0.0
 10
16.36575382536676
 20
-5.797644019778429
 30
0.0
 10
16.37838412240995
 20
-5.790238262800082
 30
0.0
 10
16.39057321586031
 20
-5.78180662207109
 30
0.0
 10
16.40201072636011
 20
-5.772508731886611
 30
0.0
  0
SPLINE
  5
21B
330
1F
100
AcDbEntity
  8
외형선
  6
Continuous
 62
     1
370
    15
100
AcDbSpline
210
0.0
220
0.0
230
1.0
 70
     8
 71
     3
 72
     8
 73
     4
 74
     0
 42
0.000000001
 43
0.00000001
 40
0.0
 40
0.0
 40
0.0
 40
0.0
 40
1.0
 40
1.0
 40
1.0
 40
1.0
 10
16.24587475802075
 20
-5.836327923276531
 30
0.0
 10
16.05194278575313
 20
-5.853797827681753
 30
0.0
 10
15.85839696385873
 20
-5.870112607919402
 30
0.0
 10
15.66421079819405
 20
-5.88529041319796
 30
0.0
  0
SPLINE
  5
21C
330
1F
100
AcDbEntity
  8
외형선
  6
Continuous
 62
     1
370
    15
100
AcDbSpline
210
0.0
220
0.0
230
1.0
 70
     8
 71
     3
 72
     8
 73
     4
 74
     0
 42
0.000000001
 43
0.00000001
 40
0.0
 40
0.0
 40
0.0
 40
0.0
 40
1.0
 40
1.0
 40
1.0
 40
1.0
 10
15.5075097410891
 20
-5.846738526600031
 30
0.0
 10
15.55226785108891
 20
-5.876098112058354
 30
0.0
 10
15.60736106761264
 20
-5.889733850960862
 30
0.0
 10
15.66421079818918
 20
-5.885290413201832
 30
0.0
  0
SPLINE
  5
21D
330
1F
100
AcDbEntity
  8
외형선
  6
Continuous
 62
     1
370
    15
100
AcDbSpline
210
0.0
220
0.0
230
1.0
 70
     8
 71
     3
 72
    10
 73
     6
 74
     0
 42
0.000000001
 43
0.00000001
 40
0.0
 40
0.0
 40
0.0
 40
0.0
 40
0.5
 40
0.5
 40
1.0
 40
1.0
 40
1.0
 40
1.0
 10
14.88197430690445
 20
-5.88891687114588
 30
0.0
 10
14.97467228858393
 20
-5.814103077928268
 30
0.0
 10
15.08743373437974
 20
-5.773260175285709
 30
0.0
 10
15.31223805612949
 20
-5.760970529245116
 30
0.0
 10
15.41924608949608
 20
-5.788840992011339
 30
0.0
 10
15.50750974108896
 20
-5.846738526599702
 30
0.0
  0
SPLINE
  5
21E
330
1F
100
AcDbEntity
  8
외형선
  6
Continuous
 62
     1
370
    15
100
AcDbSpline
210
0.0
220
0.0
230
1.0
 70
     8
 71
     3
 72
    17
 73
    13
 74
     0
 42
0.000000001
 43
0.00000001
 40
0.0
 40
0.0
 40
0.0
 40
0.0
 40
0.000043868765159
 40
0.000043868765159
 40
0.000043868765159
 40
0.0000877533957924
 40
0.0000877533957924
 40
0.0000877533957924
 40
0.0001306834942918
 40
0.0001306834942918
 40
0.0001306834942918
 40
0.0001748966289144
 40
0.0001748966289144
 40
0.0001748966289144
 40
0.0001748966289144
 10
14.72589014040139
 20
-5.949531461310634
 30
0.0
 10
14.73963326749149
 20
-5.948723516036369
 30
0.0
 10
14.75347018286056
 20
-5.946834952751194
 30
0.0
 10
14.76715394782841
 20
-5.943870198905191
 30
0.0
 10
14.78084060584945
 20
-5.940904818244083
 30
0.0
 10
14.79445976555751
 20
-5.936843372169407
 30
0.0
 10
14.80774469297194
 20
-5.931725588622261
 30
0.0
 10
14.8207400422871
 20
-5.926719359921134
 30
0.0
 10
14.83350046364781
 20
-5.920668697555847
 30
0.0
 10
14.84575683860996
 20
-5.913654706064467
 30
0.0
 10
14.85837381117652
 20
-5.906434354328971
 30
0.0
 10
14.87054940316678
 20
-5.898137572293115
 30
0.0
 10
14.88197430690531
 20
-5.888916871148028
 30
0.0
  0
SPLINE
  5
21F
330
1F
100
AcDbEntity
  8
외형선
  6
Continuous
 62
     1
370
    15
100
AcDbSpline
210
0.0
220
0.0
230
1.0
 70
     8
 71
     3
 72
     8
 73
     4
 74
     0
 42
0.000000001
 43
0.00000001
 40
0.0
 40
0.0
 40
0.0
 40
0.0
 40
1.0
 40
1.0
 40
1.0
 40
1.0
 10
14.72589014040035
 20
-5.949531461309165
 30
0.0
 10
14.53197359673725
 20
-5.960931629116782
 30
0.0
 10
14.33797870965767
 20
-5.971174764346174
 30
0.0
 10
14.1440668003745
 20
-5.98025237680829
 30
0.0
  0
SPLINE
  5
220
330
1F
100
AcDbEntity
  8
외형선
  6
Continuous
 62
     1
370
    15
100
AcDbSpline
210
0.0
220
0.0
230
1.0
 70
     8
 71
     3
 72
     8
 73
     4
 74
     0
 42
0.000000001
 43
0.00000001
 40
0.0
 40
0.0
 40
0.0
 40
0.0
 40
1.0
 40
1.0
 40
1.0
 40
1.0
 10
13.98762765716604
 20
-5.93533277550122
 30
0.0
 10
14.03238668599589
 20
-5.967032743072835
 30
0.0
 10
14.08748148732152
 20
-5.98290162460968
 30
0.0
 10
14.14433685009182
 20
-5.98023973420384
 30
0.0
  0
SPLINE
  5
221
330
1F
100
AcDbEntity
  8
외형선
  6
Continuous
 62
     1
370
    15
100
AcDbSpline
210
0.0
220
0.0
230
1.0
 70
     8
 71
     3
 72
    10
 73
     6
 74
     0
 42
0.000000001
 43
0.00000001
 40
0.0
 40
0.0
 40
0.0
 40
0.0
 40
0.5
 40
0.5
 40
1.0
 40
1.0
 40
1.0
 40
1.0
 10
13.36191098964059
 20
-5.958088894000738
 30
0.0
 10
13.45463349121633
 20
-5.884380590312086
 30
0.0
 10
13.56740862902913
 20
-5.845938692073473
 30
0.0
 10
13.79226571955899
 20
-5.840567028010892
 30
0.0
 10
13.89932494970842
 20
-5.872793595449883
 30
0.0
 10
13.98762765716572
 20
-5.935332775500988
 30
0.0
  0
SPLINE
  5
222
330
1F
100
AcDbEntity
  8
외형선
  6
Continuous
 62
     1
370
    15
100
AcDbSpline
210
0.0
220
0.0
230
1.0
 70
     8
 71
     3
 72
    17
 73
    13
 74
     0
 42
0.000000001
 43
0.00000001
 40
0.0000000000000009
 40
0.0000000000000009
 40
0.0000000000000009
 40
0.0000000000000009
 40
0.0000438684215198
 40
0.0000438684215198
 40
0.0000438684215198
 40
0.0000877527771566
 40
0.0000877527771566
 40
0.0000877527771566
 40
0.0001307282544013
 40
0.0001307282544013
 40
0.0001307282544013
 40
0.0001749895456608
 40
0.0001749895456608
 40
0.0001749895456608
 40
0.0001749895456608
 10
13.20576723617632
 20
-6.015098494010601
 30
0.0
 10
13.21950642381072
 20
-6.014721504153409
 30
0.0
 10
13.23333947411251
 20
-6.013243151602103
 30
0.0
 10
13.24702015356893
 20
-6.010658641926004
 30
0.0
 10
13.26070373786333
 20
-6.008073583477319
 30
0.0
 10
13.27432039309768
 20
-6.004364865991763
 30
0.0
 10
13.28760393681533
 20
-5.999562521157681
 30
0.0
 10
13.30061163951289
 20
-5.99485989999117
 30
0.0
 10
13.31338488705131
 20
-5.989076878490764
 30
0.0
 10
13.32565398301496
 20
-5.982285717150186
 30
0.0
 10
13.33828442198232
 20
-5.97529454607419
 30
0.0
 10
13.35047354631746
 20
-5.967180910844688
 30
0.0
 10
13.36191098963992
 20
-5.958088894004249
 30
0.0
  0
SPLINE
  5
223
330
1F
100
AcDbEntity
  8
외형선
  6
Continuous
 62
     1
370
    15
100
AcDbSpline
210
0.0
220
0.0
230
1.0
 70
     8
 71
     3
 72
     8
 73
     4
 74
     0
 42
0.000000001
 43
0.00000001
 40
0.0
 40
0.0
 40
0.0
 40
0.0
 40
1.0
 40
1.0
 40
1.0
 40
1.0
 10
13.20576723617536
 20
-6.015098494009103
 30
0.0
 10
13.01145588352012
 20
-6.020430207281461
 30
0.0
 10
12.81778906570563
 20
-6.024576619559312
 30
0.0
 10
12.6236892200794
 20
-6.027544366706231
 30
0.0
  0
SPLINE
  5
224
330
1F
100
AcDbEntity
  8
외형선
  6
Continuous
 62
     1
370
    15
100
AcDbSpline
210
0.0
220
0.0
230
1.0
 70
     8
 71
     3
 72
     8
 73
     4
 74
     0
 42
0.000000001
 43
0.00000001
 40
0.0
 40
0.0
 40
0.0
 40
0.0
 40
1.0
 40
1.0
 40
1.0
 40
1.0
 10
12.46717949544981
 20
-5.976635586967088
 30
0.0
 10
12.51196785307611
 20
-6.010442649276321
 30
0.0
 10
12.56708624668005
 20
-6.028410136783262
 30
0.0
 10
12.62395969574627
 20
-6.027540230424195
 30
0.0
  0
SPLINE
  5
225
330
1F
100
AcDbEntity
  8
외형선
  6
Continuous
 62
     1
370
    15
100
AcDbSpline
210
0.0
220
0.0
230
1.0
 70
     8
 71
     3
 72
    10
 73
     6
 74
     0
 42
0.000000001
 43
0.00000001
 40
0.0
 40
0.0
 40
0.0
 40
0.0
 40
0.5
 40
0.5
 40
1.0
 40
1.0
 40
1.0
 40
1.0
 10
11.84124752442419
 20
-5.979740696062116
 30
0.0
 10
11.93401636680101
 20
-5.907686578411111
 30
0.0
 10
12.04684569161002
 20
-5.87195740798406
 30
0.0
 10
12.27177593330942
 20
-5.873605602814717
 30
0.0
 10
12.3788478594571
 20
-5.909961270690086
 30
0.0
 10
12.46717949544951
 20
-5.976635586966842
 30
0.0
  0
SPLINE
  5
226
330
1F
100
AcDbEntity
  8
외형선
  6
Continuous
 62
     1
370
    15
100
AcDbSpline
210
0.0
220
0.0
230
1.0
 70
     8
 71
     3
 72
    17
 73
    13
 74
     0
 42
0.000000001
 43
0.00000001
 40
0.0000000000000011
 40
0.0000000000000011
 40
0.0000000000000011
 40
0.0000000000000011
 40
0.0000438683802591
 40
0.0000438683802591
 40
0.0000438683802591
 40
0.0000877526604088
 40
0.0000877526604088
 40
0.0000877526604088
 40
0.0001307333487843
 40
0.0001307333487843
 40
0.0001307333487843
 40
0.000174999750145
 40
0.000174999750145
 40
0.000174999750145
 40
0.000174999750145
 10
11.6850657343969
 20
-6.032682608449123
 30
0.0
 10
11.69880838029448
 20
-6.032741881151674
 30
0.0
 10
11.71264460662187
 20
-6.031685835926643
 30
0.0
 10
11.72632819813905
 20
-6.029500812000276
 30
0.0
 10
11.74001468862363
 20
-6.027315325160854
 30
0.0
 10
11.75363397163207
 20
-6.023985832926716
 30
0.0
 10
11.76691994130893
 20
-6.019532919659738
 30
0.0
 10
11.77993160977713
 20
-6.015171940931293
 30
0.0
 10
11.79270855643466
 20
-6.009703937434558
 30
0.0
 10
11.80498107274804
 20
-6.003192029487863
 30
0.0
 10
11.8176149578684
 20
-5.996488375989905
 30
0.0
 10
11.82980725094795
 20
-5.988626425259245
 30
0.0
 10
11.84124752442504
 20
-5.979740696064495
 30
0.0
  0
SPLINE
  5
227
330
1F
100
AcDbEntity
  8
외형선
  6
Continuous
 62
     1
370
    15
100
AcDbSpline
210
0.0
220
0.0
230
1.0
 70
     8
 71
     3
 72
     8
 73
     4
 74
     0
 42
0.000000001
 43
0.00000001
 40
0.0
 40
0.0
 40
0.0
 40
0.0
 40
1.0
 40
1.0
 40
1.0
 40
1.0
 10
11.68506573439602
 20
-6.032682608447614
 30
0.0
 10
11.49106865941572
 20
-6.031845889592047
 30
0.0
 10
11.29694224395879
 20
-6.029833540115238
 30
0.0
 10
11.10284813338987
 20
-6.026646648493089
 30
0.0
  0
SPLINE
  5
228
330
1F
100
AcDbEntity
  8
외형선
  6
Continuous
 62
     1
370
    15
100
AcDbSpline
210
0.0
220
0.0
230
1.0
 70
     8
 71
     3
 72
     8
 73
     4
 74
     0
 42
0.000000001
 43
0.00000001
 40
0.0
 40
0.0
 40
0.0
 40
0.0
 40
1.0
 40
1.0
 40
1.0
 40
1.0
 10
10.94629799618762
 20
-5.970126579581488
 30
0.0
 10
10.9910973170377
 20
-6.005778034999023
 30
0.0
 10
11.04622914973707
 20
-6.025717322919141
 30
0.0
 10
11.10311862600921
 20
-6.026651089038817
 30
0.0
  0
SPLINE
  5
229
330
1F
100
AcDbEntity
  8
외형선
  6
Continuous
 62
     1
370
    15
100
AcDbSpline
210
0.0
220
0.0
230
1.0
 70
     8
 71
     3
 72
    10
 73
     6
 74
     0
 42
0.000000001
 43
0.00000001
 40
0.0
 40
0.0
 40
0.0
 40
0.0
 40
0.5
 40
0.5
 40
1.0
 40
1.0
 40
1.0
 40
1.0
 10
10.32022837771773
 20
-5.953580711135551
 30
0.0
 10
10.41300707936483
 20
-5.883749495593326
 30
0.0
 10
10.52584508390817
 20
-5.850988228438645
 30
0.0
 10
10.75081324660141
 20
-5.859601150849494
 30
0.0
 10
10.85792795815037
 20
-5.899801395816043
 30
0.0
 10
10.94629799618711
 20
-5.970126579581066
 30
0.0
  0
SPLINE
  5
22A
330
1F
100
AcDbEntity
  8
외형선
  6
Continuous
 62
     1
370
    15
100
AcDbSpline
210
0.0
220
0.0
230
1.0
 70
     8
 71
     3
 72
    17
 73
    13
 74
     0
 42
0.000000001
 43
0.00000001
 40
0.0000000000000005
 40
0.0000000000000005
 40
0.0000000000000005
 40
0.0000000000000005
 40
0.0000438682029232
 40
0.0000438682029232
 40
0.0000438682029232
 40
0.0000877523562992
 40
0.0000877523562992
 40
0.0000877523562992
 40
0.0001307565120923
 40
0.0001307565120923
 40
0.0001307565120923
 40
0.0001750479743662
 40
0.0001750479743662
 40
0.0001750479743662
 40
0.0001750479743662
 10
10.16401669344033
 20
-6.002060126729583
 30
0.0
 10
10.1777569195677
 20
-6.002554434098946
 30
0.0
 10
10.1915908534037
 20
-6.001928746341265
 30
0.0
 10
10.20527264520766
 20
-6.000160424461631
 30
0.0
 10
10.21895734485583
 20
-5.998391726753701
 30
0.0
 10
10.2325752234543
 20
-5.995467959597845
 30
0.0
 10
10.24586043163685
 20
-5.991399837825534
 30
0.0
 10
10.25887843807065
 20
-5.987413537070755
 30
0.0
 10
10.27166203636629
 20
-5.982301347357674
 30
0.0
 10
10.28394117398253
 20
-5.976116606683352
 30
0.0
 10
10.29658211073802
 20
-5.969749635471157
 30
0.0
 10
10.30878152195391
 20
-5.962196350697385
 30
0.0
 10
10.32022837771864
 20
-5.953580711137981
 30
0.0
  0
SPLINE
  5
22B
330
1F
100
AcDbEntity
  8
외형선
  6
Continuous
370
    15
100
AcDbSpline
210
0.0
220
0.0
230
1.0
 70
     8
 71
     3
 72
     8
 73
     4
 74
     0
 42
0.000000001
 43
0.00000001
 40
0.0
 40
0.0
 40
0.0
 40
0.0
 40
1.0
 40
1.0
 40
1.0
 40
1.0
 10
10.16401669343968
 20
-6.002060126728177
 30
0.0
 10
10.10931991006847
 20
-6.000092399060681
 30
0.0
 10
10.05464647564883
 20
-5.998031711049756
 30
0.0
 10
9.99999999999987
 20
-5.995878284999549
 30
0.0
  0
SPLINE
  5
22C
330
1F
100
AcDbEntity
  8
외형선
  6
Continuous
 62
     1
370
    15
100
AcDbSpline
210
0.0
220
0.0
230
1.0
 70
     8
 71
     3
 72
    10
 73
     6
 74
     0
 42
0.000000001
 43
0.00000001
 40
0.0
 40
0.0
 40
0.0
 40
0.0
 40
0.5
 40
0.5
 40
1.0
 40
1.0
 40
1.0
 40
1.0
 10
18.27894976056796
 20
-4.261098452763944
 30
0.0
 10
18.18619681846221
 20
-4.193512403570697
 30
0.0
 10
18.07338165894026
 20
-4.145205753879105
 30
0.0
 10
17.84845159578662
 20
-4.091090154648691
 30
0.0
 10
17.74136730822246
 20
-4.085837951360223
 30
0.0
 10
17.65302275757449
 20
-4.103278559621394
 30
0.0
  0
SPLINE
  5
22D
330
1F
100
AcDbEntity
  8
외형선
  6
Continuous
 62
     1
370
    15
100
AcDbSpline
210
0.0
220
0.0
230
1.0
 70
     8
 71
     3
 72
    17
 73
    13
 74
     0
 42
0.000000001
 43
0.00000001
 40
0.0
 40
0.0
 40
0.0
 40
0.0
 40
0.0000438684344013
 40
0.0000438684344013
 40
0.0000438684344013
 40
0.0000877527737717
 40
0.0000877527737717
 40
0.0000877527737717
 40
0.0001307274268161
 40
0.0001307274268161
 40
0.0001307274268161
 40
0.0001749876559123
 40
0.0001749876559123
 40
0.0001749876559123
 40
0.0001749876559123
 10
18.43511458280279
 20
-4.333178781162546
 30
0.0
 10
18.42137290031758
 20
-4.329774315093434
 30
0.0
 10
18.40753745523291
 20
-4.325639584216336
 30
0.0
 10
18.39385454910936
 20
-4.320834980267207
 30
0.0
 10
18.38016874318518
 20
-4.316029358084561
 30
0.0
 10
18.36655001899607
 20
-4.310523042451168
 30
0.0
 10
18.35326458455375
 20
-4.304406404347416
 30
0.0
 10
18.34025527144698
 20
-4.298416893007166
 30
0.0
 10
18.32748057015426
 20
-4.291802507758467
 30
0.0
 10
18.31521016707343
 20
-4.284682831006457
 30
0.0
 10
18.3025784420795
 20
-4.277353503829133
 30
0.0
 10
18.29038818576141
 20
-4.269433260806298
 30
0.0
 10
18.27894976056827
 20
-4.261098452764156
 30
0.0
  0
SPLINE
  5
22E
330
1F
100
AcDbEntity
  8
외형선
  6
Continuous
 62
     1
370
    15
100
AcDbSpline
210
0.0
220
0.0
230
1.0
 70
     8
 71
     3
 72
     8
 73
     4
 74
     0
 42
0.000000001
 43
0.00000001
 40
0.0
 40
0.0
 40
0.0
 40
0.0
 40
1.0
 40
1.0
 40
1.0
 40
1.0
 10
19.01692207490291
 20
-4.47483810901495
 30
0.0
 10
18.82321779323366
 20
-4.428502720091999
 30
0.0
 10
18.62913808443946
 20
-4.381248366820215
 30
0.0
 10
18.43484433079286
 20
-4.333111826395904
 30
0.0
  0
SPLINE
  5
22F
330
1F
100
AcDbEntity
  8
외형선
  6
Continuous
 62
     1
370
    15
100
AcDbSpline
210
0.0
220
0.0
230
1.0
 70
     8
 71
     3
 72
     8
 73
     4
 74
     0
 42
0.000000001
 43
0.00000001
 40
0.0
 40
0.0
 40
0.0
 40
0.0
 40
1.0
 40
1.0
 40
1.0
 40
1.0
 10
19.17367705624161
 20
-4.476805284801627
 30
0.0
 10
19.12890121704258
 20
-4.489037676086293
 30
0.0
 10
19.07379246609242
 20
-4.488441895525135
 30
0.0
 10
19.01692207490406
 20
-4.474838109015244
 30
0.0
  0
SPLINE
  5
230
330
1F
100
AcDbEntity
  8
외형선
  6
Continuous
 62
     1
370
    15
100
AcDbSpline
210
0.0
220
0.0
230
1.0
 70
     8
 71
     3
 72
    10
 73
     6
 74
     0
 42
0.000000001
 43
0.00000001
 40
0.0
 40
0.0
 40
0.0
 40
0.0
 40
0.5
 40
0.5
 40
1.0
 40
1.0
 40
1.0
 40
1.0
 10
19.79942079965111
 20
-4.62037376094103
 30
0.0
 10
19.70667605259601
 20
-4.550093316477619
 30
0.0
 10
19.59386907575556
 20
-4.501827830495002
 30
0.0
 10
19.36901014227486
 20
-4.452941633102633
 30
0.0
 10
19.26198328619728
 20
-4.452680748511183
 30
0.0
 10
19.17367705624162
 20
-4.47680528480161
 30
0.0
  0
SPLINE
  5
231
330
1F
100
AcDbEntity
  8
외형선
  6
Continuous
 62
     1
370
    15
100
AcDbSpline
210
0.0
220
0.0
230
1.0
 70
     8
 71
     3
 72
    17
 73
    13
 74
     0
 42
0.000000001
 43
0.00000001
 40
0.0
 40
0.0
 40
0.0
 40
0.0
 40
0.0000438685644929
 40
0.0000438685644929
 40
0.0000438685644929
 40
0.0000877529743995
 40
0.0000877529743995
 40
0.0000877529743995
 40
0.0001307116261173
 40
0.0001307116261173
 40
0.0001307116261173
 40
0.0001749545771432
 40
0.0001749545771432
 40
0.0001749545771432
 40
0.0001749545771432
 10
19.95553935693672
 20
-4.692295320386863
 30
0.0
 10
19.94179839028314
 20
-4.689221516532428
 30
0.0
 10
19.92796376730985
 20
-4.685345267763099
 30
0.0
 10
19.91428199599512
 20
-4.68071970394585
 30
0.0
 10
19.90059733614099
 20
-4.676093163564746
 30
0.0
 10
19.886980012826
 20
-4.670687489708292
 30
0.0
 10
19.8736963189038
 20
-4.66458732460739
 30
0.0
 10
19.86069353284897
 20
-4.658616158592068
 30
0.0
 10
19.84792549855277
 20
-4.651939958616812
 30
0.0
 10
19.83566155436334
 20
-4.644675035600182
 30
0.0
 10
19.82303669123545
 20
-4.637196311194477
 30
0.0
 10
19.81085316581971
 20
-4.629037020059283
 30
0.0
 10
19.79942079965142
 20
-4.620373760941255
 30
0.0
  0
SPLINE
  5
232
330
1F
100
AcDbEntity
  8
외형선
  6
Continuous
 62
     1
370
    15
100
AcDbSpline
210
0.0
220
0.0
230
1.0
 70
     8
 71
     3
 72
     8
 73
     4
 74
     0
 42
0.000000001
 43
0.00000001
 40
0.0
 40
0.0
 40
0.0
 40
0.0
 40
1.0
 40
1.0
 40
1.0
 40
1.0
 10
20.53711432516139
 20
-4.819496353704426
 30
0.0
 10
20.34310386909626
 20
-4.77802735530105
 30
0.0
 10
20.14919185987545
 20
-4.735614675200877
 30
0.0
 10
19.95553935693602
 20
-4.692295320386695
 30
0.0
  0
SPLINE
  5
233
330
1F
100
AcDbEntity
  8
외형선
  6
Continuous
 62
     1
370
    15
100
AcDbSpline
210
0.0
220
0.0
230
1.0
 70
     8
 71
     3
 72
     8
 73
     4
 74
     0
 42
0.000000001
 43
0.00000001
 40
0.0
 40
0.0
 40
0.0
 40
0.0
 40
1.0
 40
1.0
 40
1.0
 40
1.0
 10
20.69378920566184
 20
-4.81401430321374
 30
0.0
 10
20.64904295591776
 20
-4.829622080489766
 30
0.0
 10
20.59395815044806
 20
-4.831646505545891
 30
0.0
 10
20.53711432516225
 20
-4.81949635370463
 30
0.0
  0
SPLINE
  5
234
330
1F
100
AcDbEntity
  8
외형선
  6
Continuous
 62
     1
370
    15
100
AcDbSpline
210
0.0
220
0.0
230
1.0
 70
     8
 71
     3
 72
    10
 73
     6
 74
     0
 42
0.000000001
 43
0.00000001
 40
0.0
 40
0.0
 40
0.0
 40
0.0
 40
0.5
 40
0.5
 40
1.0
 40
1.0
 40
1.0
 40
1.0
 10
21.31931054354766
 20
-4.94138523468007
 30
0.0
 10
21.22662069432286
 20
-4.869050799344119
 30
0.0
 10
21.11387584202304
 20
-4.821293377661839
 30
0.0
 10
20.88906995921923
 20
-4.77828222188687
 30
0.0
 10
20.7820520625073
 20
-4.783227655857392
 30
0.0
 10
20.69378920566186
 20
-4.814014303213725
 30
0.0
  0
SPLINE
  5
235
330
1F
100
AcDbEntity
  8
외형선
  6
Continuous
 62
     1
370
    15
100
AcDbSpline
210
0.0
220
0.0
230
1.0
 70
     8
 71
     3
 72
    17
 73
    13
 74
     0
 42
0.000000001
 43
0.00000001
 40
0.0
 40
0.0
 40
0.0
 40
0.0
 40
0.0000438686868608
 40
0.0000438686868608
 40
0.0000438686868608
 40
0.0000877532672001
 40
0.0000877532672001
 40
0.0000877532672001
 40
0.0001306935001213
 40
0.0001306935001213
 40
0.0001306935001213
 40
0.0001749175083314
 40
0.0001749175083314
 40
0.0001749175083314
 40
0.0001749175083314
 10
21.47541171590661
 20
-5.012537067621079
 30
0.0
 10
21.46166929997588
 20
-5.009819900892817
 30
0.0
 10
21.44783302577013
 20
-5.006235130876262
 30
0.0
 10
21.43414968043954
 20
-5.001827956191954
 30
0.0
 10
21.4204634369895
 20
-4.997419848072266
 30
0.0
 10
21.40684451370389
 20
-4.992160759627192
 30
0.0
 10
21.39355955199535
 20
-4.986128728942229
 30
0.0
 10
21.38056111193146
 20
-4.980226793276765
 30
0.0
 10
21.36779746759327
 20
-4.973545661710092
 30
0.0
 10
21.35553791042077
 20
-4.966197323390415
 30
0.0
 10
21.34291754619486
 20
-4.958632718507505
 30
0.0
 10
21.33073855867777
 20
-4.950303568546813
 30
0.0
 10
21.31931054354796
 20
-4.941385234680307
 30
0.0
  0
SPLINE
  5
236
330
1F
100
AcDbEntity
  8
외형선
  6
Continuous
 62
     1
370
    15
100
AcDbSpline
210
0.0
220
0.0
230
1.0
 70
     8
 71
     3
 72
     8
 73
     4
 74
     0
 42
0.000000001
 43
0.00000001
 40
0.0
 40
0.0
 40
0.0
 40
0.0
 40
1.0
 40
1.0
 40
1.0
 40
1.0
 10
22.05704310910528
 20
-5.124641425612016
 30
0.0
 10
21.86343575415929
 20
-5.088291068837854
 30
0.0
 10
21.66950493660929
 20
-5.050913408733978
 30
0.0
 10
21.47541171593834
 20
-5.012537067627338
 30
0.0
  0
SPLINE
  5
237
330
1F
100
AcDbEntity
  8
외형선
  6
Continuous
 62
     1
370
    15
100
AcDbSpline
210
0.0
220
0.0
230
1.0
 70
     8
 71
     3
 72
     8
 73
     4
 74
     0
 42
0.000000001
 43
0.00000001
 40
0.0
 40
0.0
 40
0.0
 40
0.0
 40
1.0
 40
1.0
 40
1.0
 40
1.0
 10
22.21377699947133
 20
-5.111981229384898
 30
0.0
 10
22.16900836657605
 20
-5.130771300882039
 30
0.0
 10
22.11390683722606
 20
-5.135317759707086
 30
0.0
 10
22.0570431091064
 20
-5.124641425612252
 30
0.0
  0
SPLINE
  5
238
330
1F
100
AcDbEntity
  8
외형선
  6
Continuous
 62
     1
370
    15
100
AcDbSpline
210
0.0
220
0.0
230
1.0
 70
     8
 71
     3
 72
    10
 73
     6
 74
     0
 42
0.000000001
 43
0.00000001
 40
0.0
 40
0.0
 40
0.0
 40
0.0
 40
0.5
 40
0.5
 40
1.0
 40
1.0
 40
1.0
 40
1.0
 10
22.83957951471362
 20
-5.223108825899288
 30
0.0
 10
22.74682316202283
 20
-5.14912133875379
 30
0.0
 10
22.63401784334346
 20
-5.102127828646199
 30
0.0
 10
22.40915278019177
 20
-5.06500602989045
 30
0.0
 10
22.30209697376548
 20
-5.07491200201996
 30
0.0
 10
22.21377699947133
 20
-5.1119812293849
 30
0.0
  0
SPLINE
  5
239
330
1F
100
AcDbEntity
  8
외형선
  6
Continuous
 62
     1
370
    15
100
AcDbSpline
210
0.0
220
0.0
230
1.0
 70
     8
 71
     3
 72
    17
 73
    13
 74
     0
 42
0.000000001
 43
0.00000001
 40
0.0
 40
0.0
 40
0.0
 40
0.0
 40
0.0000438683679907
 40
0.0000438683679907
 40
0.0000438683679907
 40
0.0000877526204521
 40
0.0000877526204521
 40
0.0000877526204521
 40
0.0001307356620966
 40
0.0001307356620966
 40
0.0001307356620966
 40
0.0001750043904616
 40
0.0001750043904616
 40
0.0001750043904616
 40
0.0001750043904616
 10
22.99573653949215
 20
-5.293058471874954
 30
0.0
 10
22.98199663389393
 20
-5.290713958264232
 30
0.0
 10
22.96816316897941
 20
-5.287443940099593
 30
0.0
 10
22.95448227167036
 20
-5.283285294012971
 30
0.0
 10
22.94079847886701
 20
-5.279125767769457
 30
0.0
 10
22.92718185391497
 20
-5.274050571856534
 30
0.0
 10
22.91389838212303
 20
-5.268130241910452
 30
0.0
 10
22.90088844343298
 20
-5.262331823332101
 30
0.0
 10
22.88811312592848
 20
-5.255684093496848
 30
0.0
 10
22.87584205369049
 20
-5.248293869709557
 30
0.0
 10
22.86320968258115
 20
-5.240686054544629
 30
0.0
 10
22.85101872116843
 20
-5.232233356090219
 30
0.0
 10
22.83957951471394
 20
-5.223108825899537
 30
0.0
  0
SPLINE
  5
23A
330
1F
100
AcDbEntity
  8
외형선
  6
Continuous
 62
     1
370
    15
100
AcDbSpline
210
0.0
220
0.0
230
1.0
 70
     8
 71
     3
 72
     8
 73
     4
 74
     0
 42
0.000000001
 43
0.00000001
 40
0.0
 40
0.0
 40
0.0
 40
0.0
 40
1.0
 40
1.0
 40
1.0
 40
1.0
 10
23.57757775503338
 20
-5.389117034993395
 30
0.0
 10
23.38342725832212
 20
-5.358138059575184
 30
0.0
 10
23.18942649104698
 20
-5.326108824107156
 30
0.0
 10
22.9957366974457
 20
-5.293058498827377
 30
0.0
  0
SPLINE
  5
23B
330
1F
100
AcDbEntity
  8
외형선
  6
Continuous
 62
     1
370
    15
100
AcDbSpline
210
0.0
220
0.0
230
1.0
 70
     8
 71
     3
 72
     8
 73
     4
 74
     0
 42
0.000000001
 43
0.00000001
 40
0.0
 40
0.0
 40
0.0
 40
0.0
 40
1.0
 40
1.0
 40
1.0
 40
1.0
 10
23.73436718419176
 20
-5.369222604450544
 30
0.0
 10
23.68957821101204
 20
-5.391105466609309
 30
0.0
 10
23.63445639058413
 20
-5.398192684463059
 30
0.0
 10
23.57757775503449
 20
-5.389117034993596
 30
0.0
  0
SPLINE
  5
23C
330
1F
100
AcDbEntity
  8
외형선
  6
Continuous
 62
     1
370
    15
100
AcDbSpline
210
0.0
220
0.0
230
1.0
 70
     8
 71
     3
 72
    10
 73
     6
 74
     0
 42
0.000000001
 43
0.00000001
 40
0.0
 40
0.0
 40
0.0
 40
0.0
 40
0.5
 40
0.5
 40
1.0
 40
1.0
 40
1.0
 40
1.0
 10
24.3603333774599
 20
-5.46246905326632
 30
0.0
 10
24.26757022411447
 20
-5.387509920600849
 30
0.0
 10
24.15474563068779
 20
-5.341741793957047
 30
0.0
 10
23.92980247476671
 20
-5.311106605281504
 30
0.0
 10
23.82271205604504
 20
-5.326059331976263
 30
0.0
 10
23.73436718419176
 20
-5.369222604450528
 30
0.0
  0
SPLINE
  5
23D
330
1F
100
AcDbEntity
  8
외형선
  6
Continuous
 62
     1
370
    15
100
AcDbSpline
210
0.0
220
0.0
230
1.0
 70
     8
 71
     3
 72
    17
 73
    13
 74
     0
 42
0.000000001
 43
0.00000001
 40
0.0
 40
0.0
 40
0.0
 40
0.0
 40
0.0000438683650611
 40
0.0000438683650611
 40
0.0000438683650611
 40
0.0000877526516125
 40
0.0000877526516125
 40
0.0000877526516125
 40
0.0001307350733708
 40
0.0001307350733708
 40
0.0001307350733708
 40
0.0001750034959289
 40
0.0001750034959289
 40
0.0001750034959289
 40
0.0001750034959289
 10
24.51652347153366
 20
-5.530572611106484
 30
0.0
 10
24.50278068235957
 20
-5.52862460548484
 30
0.0
 10
24.48894422843933
 20
-5.525699913279232
 30
0.0
 10
24.47526030844435
 20
-5.521826772931763
 30
0.0
 10
24.46157348537903
 20
-5.517952810890008
 30
0.0
 10
24.44795377112553
 20
-5.513105061346808
 30
0.0
 10
24.43466729804904
 20
-5.507346144719564
 30
0.0
 10
24.42165461938199
 20
-5.501705902112723
 30
0.0
 10
24.40887660470462
 20
-5.495153994760313
 30
0.0
 10
24.39660305268536
 20
-5.487791149346755
 30
0.0
 10
24.38396803684758
 20
-5.480211463509639
 30
0.0
 10
24.37177462885828
 20
-5.471714386682646
 30
0.0
 10
24.36033337746022
 20
-5.462469053266583
 30
0.0
  0
SPLINE
  5
23E
330
1F
100
AcDbEntity
  8
외형선
  6
Continuous
 62
     1
370
    15
100
AcDbSpline
210
0.0
220
0.0
230
1.0
 70
     8
 71
     3
 72
     8
 73
     4
 74
     0
 42
0.000000001
 43
0.00000001
 40
0.0
 40
0.0
 40
0.0
 40
0.0
 40
1.0
 40
1.0
 40
1.0
 40
1.0
 10
25.09851165569563
 20
-5.609850208841976
 30
0.0
 10
24.90473472269236
 20
-5.584526982924416
 30
0.0
 10
24.71068486309094
 20
-5.558094497491284
 30
0.0
 10
24.51652347153306
 20
-5.530572611106376
 30
0.0
  0
SPLINE
  5
23F
330
1F
100
AcDbEntity
  8
외형선
  6
Continuous
 62
     1
370
    15
100
AcDbSpline
210
0.0
220
0.0
230
1.0
 70
     8
 71
     3
 72
     8
 73
     4
 74
     0
 42
0.000000001
 43
0.00000001
 40
0.0
 40
0.0
 40
0.0
 40
0.0
 40
1.0
 40
1.0
 40
1.0
 40
1.0
 10
25.25534572330554
 20
-5.582972932340758
 30
0.0
 10
25.210541249055
 20
-5.607747164279438
 30
0.0
 10
25.15540619556518
 20
-5.617285321289188
 30
0.0
 10
25.09851165569678
 20
-5.609850208842156
 30
0.0
  0
SPLINE
  5
240
330
1F
100
AcDbEntity
  8
외형선
  6
Continuous
 62
     1
370
    15
100
AcDbSpline
210
0.0
220
0.0
230
1.0
 70
     8
 71
     3
 72
    10
 73
     6
 74
     0
 42
0.000000001
 43
0.00000001
 40
0.0
 40
0.0
 40
0.0
 40
0.0
 40
0.5
 40
0.5
 40
1.0
 40
1.0
 40
1.0
 40
1.0
 10
25.88146768591895
 20
-5.658245334824939
 30
0.0
 10
25.78866618282207
 20
-5.582782039424056
 30
0.0
 10
25.6758237458793
 20
-5.538489913018782
 30
0.0
 10
25.4508539965271
 20
-5.514330077294352
 30
0.0
 10
25.34373161462501
 20
-5.534100746955632
 30
0.0
 10
25.25534572330555
 20
-5.582972932340751
 30
0.0
  0
SPLINE
  5
241
330
1F
100
AcDbEntity
  8
외형선
  6
Continuous
 62
     1
370
    15
100
AcDbSpline
210
0.0
220
0.0
230
1.0
 70
     8
 71
     3
 72
    17
 73
    13
 74
     0
 42
0.000000001
 43
0.00000001
 40
0.0
 40
0.0
 40
0.0
 40
0.0
 40
0.0000438680867829
 40
0.0000438680867829
 40
0.0000438680867829
 40
0.000087752078465
 40
0.000087752078465
 40
0.000087752078465
 40
0.0001307726002057
 40
0.0001307726002057
 40
0.0001307726002057
 40
0.0001750807627884
 40
0.0001750807627884
 40
0.0001750807627884
 40
0.0001750807627884
 10
26.03768793333408
 20
-5.724090608550494
 30
0.0
 10
26.02394928491169
 20
-5.722547535777625
 30
0.0
 10
26.01011721620075
 20
-5.719984408724883
 30
0.0
 10
25.99643730485854
 20
-5.716420730015698
 30
0.0
 10
25.98275449476963
 20
-5.712856296169901
 30
0.0
 10
25.96913861282384
 20
-5.70826788596861
 30
0.0
 10
25.95585515617745
 20
-5.702709660756035
 30
0.0
 10
25.94283389853492
 20
-5.697261148034176
 30
0.0
 10
25.93004706745553
 20
-5.690844260264151
 30
0.0
 10
25.91776469541013
 20
-5.683552898082084
 30
0.0
 10
25.90512048046227
 20
-5.676046729863761
 30
0.0
 10
25.89291776297593
 20
-5.667556181292688
 30
0.0
 10
25.88146768591927
 20
-5.658245334825193
 30
0.0
  0
SPLINE
  5
242
330
1F
100
AcDbEntity
  8
외형선
  6
Continuous
 62
     1
370
    15
100
AcDbSpline
210
0.0
220
0.0
230
1.0
 70
     8
 71
     3
 72
     8
 73
     4
 74
     0
 42
0.000000001
 43
0.00000001
 40
0.0
 40
0.0
 40
0.0
 40
0.0
 40
1.0
 40
1.0
 40
1.0
 40
1.0
 10
26.61977146552867
 20
-5.786022614873096
 30
0.0
 10
26.42548907094798
 20
-5.766499280920829
 30
0.0
 10
26.23140742671892
 20
-5.745848445757312
 30
0.0
 10
26.0376879333278
 20
-5.724090608549761
 30
0.0
  0
SPLINE
  5
243
330
1F
100
AcDbEntity
  8
외형선
  6
Continuous
 62
     1
370
    15
100
AcDbSpline
210
0.0
220
0.0
230
1.0
 70
     8
 71
     3
 72
     8
 73
     4
 74
     0
 42
0.000000001
 43
0.00000001
 40
0.0
 40
0.0
 40
0.0
 40
0.0
 40
1.0
 40
1.0
 40
1.0
 40
1.0
 10
26.77662519228485
 20
-5.752291156118196
 30
0.0
 10
26.73181269528876
 20
-5.779796906858843
 30
0.0
 10
26.67666952631525
 20
-5.791740270579014
 30
0.0
 10
26.61977146552979
 20
-5.786022614873239
 30
0.0
  0
SPLINE
  5
244
330
1F
100
AcDbEntity
  8
외형선
  6
Continuous
 62
     1
370
    15
100
AcDbSpline
210
0.0
220
0.0
230
1.0
 70
     8
 71
     3
 72
    10
 73
     6
 74
     0
 42
0.000000001
 43
0.00000001
 40
0.0
 40
0.0
 40
0.0
 40
0.0
 40
0.5
 40
0.5
 40
1.0
 40
1.0
 40
1.0
 40
1.0
 10
27.4027789642786
 20
-5.808501272861203
 30
0.0
 10
27.30998455364795
 20
-5.733205982168507
 30
0.0
 10
27.19712520137528
 20
-5.690820329406846
 30
0.0
 10
26.97212354806759
 20
-5.673513859717426
 30
0.0
 10
26.86500606289995
 20
-5.698043293126047
 30
0.0
 10
26.77662519228485
 20
-5.752291156118204
 30
0.0
  0
SPLINE
  5
245
330
1F
100
AcDbEntity
  8
외형선
  6
Continuous
 62
     1
370
    15
100
AcDbSpline
210
0.0
220
0.0
230
1.0
 70
     8
 71
     3
 72
    17
 73
    13
 74
     0
 42
0.000000001
 43
0.00000001
 40
0.0
 40
0.0
 40
0.0
 40
0.0
 40
0.0000438682529114
 40
0.0000438682529114
 40
0.0000438682529114
 40
0.0000877524302312
 40
0.0000877524302312
 40
0.0000877524302312
 40
0.0001307498741803
 40
0.0001307498741803
 40
0.0001307498741803
 40
0.0001750340645223
 40
0.0001750340645223
 40
0.0001750340645223
 40
0.0001750340645223
 10
27.55900153585927
 20
-5.871480403613798
 30
0.0
 10
27.54525848577885
 20
-5.870360455094256
 30
0.0
 10
27.53142185449223
 20
-5.868183671270431
 30
0.0
 10
27.51773763608664
 20
-5.864960667579282
 30
0.0
 10
27.50405051415986
 20
-5.861736980030329
 30
0.0
 10
27.49043044483104
 20
-5.857445685629775
 30
0.0
 10
27.47714337317248
 20
-5.85213236577138
 30
0.0
 10
27.46412556275558
 20
-5.846926719833862
 30
0.0
 10
27.45134238294397
 20
-5.84070511567181
 30
0.0
 10
27.43906380220825
 20
-5.833554013496468
 30
0.0
 10
27.42642353554563
 20
-5.826192263765488
 30
0.0
 10
27.41422496331812
 20
-5.817788791571532
 30
0.0
 10
27.40277896427892
 20
-5.808501272861461
 30
0.0
  0
SPLINE
  5
246
330
1F
100
AcDbEntity
  8
외형선
  6
Continuous
 62
     1
370
    15
100
AcDbSpline
210
0.0
220
0.0
230
1.0
 70
     8
 71
     3
 72
     8
 73
     4
 74
     0
 42
0.000000001
 43
0.00000001
 40
0.0
 40
0.0
 40
0.0
 40
0.0
 40
1.0
 40
1.0
 40
1.0
 40
1.0
 10
28.14109985840692
 20
-5.915489072387971
 30
0.0
 10
27.94723574652789
 20
-5.901974948042806
 30
0.0
 10
27.75314913384669
 20
-5.887301878007483
 30
0.0
 10
27.55900153585052
 20
-5.871480403613059
 30
0.0
  0
SPLINE
  5
251
330
1F
100
AcDbEntity
  8
외형선
  6
Continuous
370
    15
100
AcDbSpline
210
0.0
220
0.0
230
1.0
 70
    24
 71
     3
 72
    16
 73
    12
 74
     0
 42
0.000000001
 43
0.00000001
 40
0.0
 40
0.0
 40
0.0
 40
0.0
 40
0.0244648654732845
 40
0.1485712636999505
 40
0.2726776681993081
 40
0.3967840272402258
 40
0.5208904174165142
 40
0.6449968113792173
 40
0.7691032178050756
 40
0.8932095504803129
 40
0.9999999999999999
 40
0.9999999999999999
 40
0.9999999999999999
 40
0.9999999999999999
 10
10.00000004749745
 20
-1.785768246704107
 30
0.0
 10
10.00000004749745
 20
-1.791369725107904
 30
0.0
 10
10.00000004749745
 20
-1.825386618679176
 30
0.0
 10
10.00000004749745
 20
-2.007897457093299
 30
0.0
 10
10.00000004749745
 20
-2.336478222313113
 30
0.0
 10
10.00000004749745
 20
-2.782017911650783
 30
0.0
 10
10.00000004749745
 20
-3.322255563407547
 30
0.0
 10
10.00000004749745
 20
-3.941917755836568
 30
0.0
 10
10.00000004749745
 20
-4.625426846356903
 30
0.0
 10
10.00000004749745
 20
-5.31748517727899
 30
0.0
 10
10.00000004749745
 20
-5.781342779364986
 30
0.0
 10
10.00000004749745
 20
-5.995878301986819
 30
0.0
  0
SPLINE
  5
252
330
1F
100
AcDbEntity
  8
외형선
  6
Continuous
 62
     1
370
    15
100
AcDbSpline
210
0.0
220
0.0
230
1.0
 70
     8
 71
     3
 72
    12
 73
     8
 74
     0
 42
0.000000001
 43
0.00000001
 40
0.0
 40
0.0
 40
0.0
 40
0.0
 40
0.5
 40
0.5
 40
0.7499999999999998
 40
0.7499999999999998
 40
1.0
 40
1.0
 40
1.0
 40
1.0
 10
25.50114943390506
 20
2.43339906840809
 30
0.0
 10
25.4823951409842
 20
2.890936445164606
 30
0.0
 10
25.46406293287193
 20
3.32576501678749
 30
0.0
 10
25.43818557349863
 20
3.922004321051355
 30
0.0
 10
25.42984434782024
 20
4.111545399332934
 30
0.0
 10
25.41228654995159
 20
4.479964056613521
 30
0.0
 10
25.40326194451777
 20
4.657336470429601
 30
0.0
 10
25.39407178530843
 20
4.82575870780627
 30
0.0
  0
SPLINE
  5
253
330
1F
100
AcDbEntity
  8
외형선
  6
Continuous
 62
     1
370
    15
100
AcDbSpline
210
0.0
220
0.0
230
1.0
 70
     8
 71
     3
 72
    10
 73
     6
 74
     0
 42
0.000000001
 43
0.00000001
 40
0.0
 40
0.0
 40
0.0
 40
0.0
 40
0.5
 40
0.5
 40
1.0
 40
1.0
 40
1.0
 40
1.0
 10
18.43511256650279
 20
-4.33314200594133
 30
0.0
 10
18.41742278752374
 20
-4.010497664191443
 30
0.0
 10
18.39895420245733
 20
-3.643832224333039
 30
0.0
 10
18.36182176775494
 20
-2.846728634696413
 30
0.0
 10
18.3431699923055
 20
-2.416540235169343
 30
0.0
 10
18.32513622419302
 20
-1.971779699413508
 30
0.0
  0
SPLINE
  5
254
330
1F
100
AcDbEntity
  8
외형선
  6
Continuous
 62
     1
370
    15
100
AcDbSpline
210
0.0
220
0.0
230
1.0
 70
     8
 71
     3
 72
    10
 73
     6
 74
     0
 42
0.000000001
 43
0.00000001
 40
0.0
 40
0.0
 40
0.0
 40
0.0
 40
0.5000000000000001
 40
0.5000000000000001
 40
1.0
 40
1.0
 40
1.0
 40
1.0
 10
19.01692207490292
 20
-4.474838109014949
 30
0.0
 10
18.99946198057472
 20
-4.165125901067544
 30
0.0
 10
18.98113088776416
 20
-3.810098990739906
 30
0.0
 10
18.9440553709607
 20
-3.031708329481668
 30
0.0
 10
18.92532287602617
 20
-2.608574301955201
 30
0.0
 10
18.90710898358964
 20
-2.168122903232167
 30
0.0
  0
SPLINE
  5
255
330
1F
100
AcDbEntity
  8
외형선
  6
Continuous
 62
     1
370
    15
100
AcDbSpline
210
0.0
220
0.0
230
1.0
 70
     8
 71
     3
 72
    10
 73
     6
 74
     0
 42
0.000000001
 43
0.00000001
 40
0.0
 40
0.0
 40
0.0
 40
0.0
 40
0.5
 40
0.5
 40
1.0
 40
1.0
 40
1.0
 40
1.0
 10
18.27894975785954
 20
-4.261098403474578
 30
0.0
 10
18.26110790680082
 20
-3.93640207558991
 30
0.0
 10
18.24250000687343
 20
-3.567859769173931
 30
0.0
 10
18.20514571167733
 20
-2.768048436959167
 30
0.0
 10
18.18641175962426
 20
-2.33703929190193
 30
0.0
 10
18.1683333825343
 20
-1.892256084851249
 30
0.0
  0
SPLINE
  5
256
330
1F
100
AcDbEntity
  8
외형선
  6
Continuous
 62
     1
370
    15
100
AcDbSpline
210
0.0
220
0.0
230
1.0
 70
     8
 71
     3
 72
    10
 73
     6
 74
     0
 42
0.000000001
 43
0.00000001
 40
0.0
 40
0.0
 40
0.0
 40
0.0
 40
0.5000000000000002
 40
0.5000000000000002
 40
1.0
 40
1.0
 40
1.0
 40
1.0
 10
24.87506526450256
 20
2.644913830965564
 30
0.0
 10
24.85645048478387
 20
3.095252189544317
 30
0.0
 10
24.8383733413675
 20
3.520170046180256
 30
0.0
 10
24.80454930117899
 20
4.291943096291443
 30
0.0
 10
24.78662963520764
 20
4.655149245883009
 30
0.0
 10
24.76805651931594
 20
4.98055609772134
 30
0.0
  0
SPLINE
  5
257
330
1F
100
AcDbEntity
  8
외형선
  6
Continuous
 62
     1
370
    15
100
AcDbSpline
210
0.0
220
0.0
230
1.0
 70
     8
 71
     3
 72
    10
 73
     6
 74
     0
 42
0.000000001
 43
0.00000001
 40
0.0
 40
0.0
 40
0.0
 40
0.0
 40
0.5
 40
0.5
 40
1.0
 40
1.0
 40
1.0
 40
1.0
 10
24.7182421626963
 20
2.725031014864031
 30
0.0
 10
24.69977919133466
 20
3.174387729266578
 30
0.0
 10
24.68196609214204
 20
3.597013554930593
 30
0.0
 10
24.64833217508938
 20
4.36626363136163
 30
0.0
 10
24.63036324899704
 20
4.728881955778182
 30
0.0
 10
24.61185877150609
 20
5.052642759943085
 30
0.0
  0
SPLINE
  5
258
330
1F
100
AcDbEntity
  8
외형선
  6
Continuous
 62
     1
370
    15
100
AcDbSpline
210
0.0
220
0.0
230
1.0
 70
     8
 71
     3
 72
    12
 73
     8
 74
     0
 42
0.000000001
 43
0.00000001
 40
0.0
 40
0.0
 40
0.0
 40
0.0
 40
0.2500000000000001
 40
0.2500000000000001
 40
0.5000000000000002
 40
0.5000000000000002
 40
1.0
 40
1.0
 40
1.0
 40
1.0
 10
24.13629075314872
 20
2.919410060608132
 30
0.0
 10
24.12714844121583
 20
3.140147551018767
 30
0.0
 10
24.11816884714223
 20
3.353889378647312
 30
0.0
 10
24.10069308119837
 20
3.763893297669825
 30
0.0
 10
24.09238723697925
 20
3.958808318186187
 30
0.0
 10
24.06669090693481
 20
4.525537075465722
 30
0.0
 10
24.04848540729918
 20
4.878739689982173
 30
0.0
 10
24.02985019577372
 20
5.190923698378326
 30
0.0
  0
SPLINE
  5
259
330
1F
100
AcDbEntity
  8
외형선
  6
Continuous
 62
     1
370
    15
100
AcDbSpline
210
0.0
220
0.0
230
1.0
 70
     8
 71
     3
 72
    10
 73
     6
 74
     0
 42
0.000000001
 43
0.00000001
 40
0.0
 40
0.0
 40
0.0
 40
0.0
 40
0.5
 40
0.5
 40
1.0
 40
1.0
 40
1.0
 40
1.0
 10
19.17367705623896
 20
-4.476805284755439
 30
0.0
 10
19.15619203768713
 20
-4.171963404762614
 30
0.0
 10
19.13779779802868
 20
-3.821290191894903
 30
0.0
 10
19.10053157839823
 20
-3.050176931298791
 30
0.0
 10
19.08167181202197
 20
-2.629965358676912
 30
0.0
 10
19.06331316813743
 20
-2.191743811600707
 30
0.0
  0
SPLINE
  5
25A
330
1F
100
AcDbEntity
  8
외형선
  6
Continuous
 62
     1
370
    15
100
AcDbSpline
210
0.0
220
0.0
230
1.0
 70
     8
 71
     3
 72
    12
 73
     8
 74
     0
 42
0.000000001
 43
0.00000001
 40
0.0
 40
0.0
 40
0.0
 40
0.0
 40
0.2499999999999998
 40
0.2499999999999998
 40
0.4999999999999996
 40
0.4999999999999996
 40
1.0
 40
1.0
 40
1.0
 40
1.0
 10
23.98010912205584
 20
2.941495024043563
 30
0.0
 10
23.97093867560839
 20
3.160643711935055
 30
0.0
 10
23.96193851197944
 20
3.372648289180771
 30
0.0
 10
23.9444375403773
 20
3.778911299571649
 30
0.0
 10
23.93612000862616
 20
3.971913768398356
 30
0.0
 10
23.91015893223041
 20
4.534089559380437
 30
0.0
 10
23.89178673048008
 20
4.883486868863087
 30
0.0
 10
23.87301320646511
 20
5.191109896289652
 30
0.0
  0
SPLINE
  5
25B
330
1F
100
AcDbEntity
  8
외형선
  6
Continuous
 62
     1
370
    15
100
AcDbSpline
210
0.0
220
0.0
230
1.0
 70
     8
 71
     3
 72
    10
 73
     6
 74
     0
 42
0.000000001
 43
0.00000001
 40
0.0
 40
0.0
 40
0.0
 40
0.0
 40
0.5000000000000001
 40
0.5000000000000001
 40
1.0
 40
1.0
 40
1.0
 40
1.0
 10
19.79942071939787
 20
-4.620372405854889
 30
0.0
 10
19.78221208418381
 20
-4.329802350709953
 30
0.0
 10
19.76399835331925
 20
-3.992183411661987
 30
0.0
 10
19.72685684644119
 20
-3.242481258991448
 30
0.0
 10
19.70794096261521
 20
-2.830601377433096
 30
0.0
 10
19.68941440919537
 20
-2.39775423549147
 30
0.0
  0
SPLINE
  5
25C
330
1F
100
AcDbEntity
  8
외형선
  6
Continuous
 62
     1
370
    15
100
AcDbSpline
210
0.0
220
0.0
230
1.0
 70
     8
 71
     3
 72
    10
 73
     6
 74
     0
 42
0.000000001
 43
0.00000001
 40
0.0
 40
0.0
 40
0.0
 40
0.0
 40
0.5000000000000001
 40
0.5000000000000001
 40
1.0
 40
1.0
 40
1.0
 40
1.0
 10
19.95553935382381
 20
-4.692295267753361
 30
0.0
 10
19.93848911558722
 20
-4.404008968457434
 30
0.0
 10
19.92042545430334
 20
-4.068574416758493
 30
0.0
 10
19.8835346306392
 20
-3.322344113127728
 30
0.0
 10
19.86471893088428
 20
-2.911741178484249
 30
0.0
 10
19.84625606833722
 20
-2.479403351344073
 30
0.0
  0
SPLINE
  5
25D
330
1F
100
AcDbEntity
  8
외형선
  6
Continuous
 62
     1
370
    15
100
AcDbSpline
210
0.0
220
0.0
230
1.0
 70
     8
 71
     3
 72
    10
 73
     6
 74
     0
 42
0.000000001
 43
0.00000001
 40
0.0
 40
0.0
 40
0.0
 40
0.0
 40
0.5000000000000001
 40
0.5000000000000001
 40
1.0
 40
1.0
 40
1.0
 40
1.0
 10
20.53711432516112
 20
-4.819496353704406
 30
0.0
 10
20.52034110636703
 20
-4.54476813734081
 30
0.0
 10
20.5024706415768
 20
-4.221918583449538
 30
0.0
 10
20.46575161930805
 20
-3.496744721611111
 30
0.0
 10
20.44691409414399
 20
-3.094587818759102
 30
0.0
 10
20.42832391497839
 20
-2.667983156696984
 30
0.0
  0
SPLINE
  5
25E
330
1F
100
AcDbEntity
  8
외형선
  6
Continuous
 62
     1
370
    15
100
AcDbSpline
210
0.0
220
0.0
230
1.0
 70
     8
 71
     3
 72
    12
 73
     8
 74
     0
 42
0.000000001
 43
0.00000001
 40
0.0
 40
0.0
 40
0.0
 40
0.0
 40
0.2499999999999999
 40
0.2499999999999999
 40
0.4999999999999998
 40
0.4999999999999998
 40
1.0
 40
1.0
 40
1.0
 40
1.0
 10
23.35418217309987
 20
3.1448971408478
 30
0.0
 10
23.3451329793571
 20
3.359245010534552
 30
0.0
 10
23.33628005603088
 20
3.565873843623381
 30
0.0
 10
23.3191165222004
 20
3.960515782443298
 30
0.0
 10
23.31074197526389
 20
4.149156900660013
 30
0.0
 10
23.28433358140829
 20
4.698532384574664
 30
0.0
 10
23.26575603742903
 20
5.036643190097533
 30
0.0
 10
23.24689563557282
 20
5.33087941561719
 30
0.0
  0
SPLINE
  5
25F
330
1F
100
AcDbEntity
  8
외형선
  6
Continuous
 62
     1
370
    15
100
AcDbSpline
210
0.0
220
0.0
230
1.0
 70
     8
 71
     3
 72
    12
 73
     8
 74
     0
 42
0.000000001
 43
0.00000001
 40
0.0
 40
0.0
 40
0.0
 40
0.0
 40
0.25
 40
0.25
 40
0.5
 40
0.5
 40
1.0
 40
1.0
 40
1.0
 40
1.0
 10
23.19740428475914
 20
3.22690414555857
 30
0.0
 10
23.18844385240589
 20
3.440397111415452
 30
0.0
 10
23.17968460275767
 20
3.646037063810823
 30
0.0
 10
23.16271312414051
 20
4.038539910206134
 30
0.0
 10
23.15431713354862
 20
4.226911612331354
 30
0.0
 10
23.12795418520745
 20
4.774374442495015
 30
0.0
 10
23.1094419956385
 20
5.110618458553676
 30
0.0
 10
23.09067561366397
 20
5.402697546077604
 30
0.0
  0
SPLINE
  5
260
330
1F
100
AcDbEntity
  8
외형선
  6
Continuous
 62
     1
370
    15
100
AcDbSpline
210
0.0
220
0.0
230
1.0
 70
     8
 71
     3
 72
    10
 73
     6
 74
     0
 42
0.000000001
 43
0.00000001
 40
0.0
 40
0.0
 40
0.0
 40
0.0
 40
0.4999999999999998
 40
0.4999999999999998
 40
1.0
 40
1.0
 40
1.0
 40
1.0
 10
22.61559992782814
 20
3.413655504855536
 30
0.0
 10
22.59795025347763
 20
3.830611679025031
 30
0.0
 10
22.58164171972426
 20
4.211718058704363
 30
0.0
 10
22.54602116889762
 20
4.92345410368758
 30
0.0
 10
22.52736675134586
 20
5.248126430198548
 30
0.0
 10
22.50856881672483
 20
5.526913996598977
 30
0.0
  0
SPLINE
  5
261
330
1F
100
AcDbEntity
  8
외형선
  6
Continuous
 62
     1
370
    15
100
AcDbSpline
210
0.0
220
0.0
230
1.0
 70
     8
 71
     3
 72
    10
 73
     6
 74
     0
 42
0.000000001
 43
0.00000001
 40
0.0
 40
0.0
 40
0.0
 40
0.0
 40
0.5
 40
0.5
 40
1.0
 40
1.0
 40
1.0
 40
1.0
 10
20.69378920145439
 20
-4.814014235569018
 30
0.0
 10
20.67701008634618
 20
-4.54425036835945
 30
0.0
 10
20.65909567826358
 20
-4.225943980938397
 30
0.0
 10
20.6222188971363
 20
-3.508516935508815
 30
0.0
 10
20.60326773728972
 20
-3.109559782689316
 30
0.0
 10
20.58454194626769
 20
-2.685446334919662
 30
0.0
  0
SPLINE
  5
262
330
1F
100
AcDbEntity
  8
외형선
  6
Continuous
 62
     1
370
    15
100
AcDbSpline
210
0.0
220
0.0
230
1.0
 70
     8
 71
     3
 72
    12
 73
     8
 74
     0
 42
0.000000001
 43
0.00000001
 40
0.0
 40
0.0
 40
0.0
 40
0.0
 40
0.25
 40
0.25
 40
0.5
 40
0.5
 40
1.0
 40
1.0
 40
1.0
 40
1.0
 10
22.45945103600858
 20
3.429872745703461
 30
0.0
 10
22.45061082204711
 20
3.636546443929648
 30
0.0
 10
22.44214477619837
 20
3.83372543759907
 30
0.0
 10
22.42514251269823
 20
4.213249446301997
 30
0.0
 10
22.4163634599753
 20
4.39728484746861
 30
0.0
 10
22.38941073922568
 20
4.925709710590234
 30
0.0
 10
22.37061454087452
 20
5.246055501365761
 30
0.0
 10
22.35170757374759
 20
5.519886077909098
 30
0.0
  0
SPLINE
  5
263
330
1F
100
AcDbEntity
  8
외형선
  6
Continuous
 62
     1
370
    15
100
AcDbSpline
210
0.0
220
0.0
230
1.0
 70
     8
 71
     3
 72
    12
 73
     8
 74
     0
 42
0.000000001
 43
0.00000001
 40
0.0
 40
0.0
 40
0.0
 40
0.0
 40
0.2499999999999999
 40
0.2499999999999999
 40
0.5000000000000001
 40
0.5000000000000001
 40
1.0
 40
1.0
 40
1.0
 40
1.0
 10
21.31931054354695
 20
-4.94138523466934
 30
0.0
 10
21.3107945320851
 20
-4.812513664366114
 30
0.0
 10
21.30244672016735
 20
-4.673695184291183
 30
0.0
 10
21.28492039351928
 20
-4.37112200790451
 30
0.0
 10
21.27592143649044
 20
-4.208227880620662
 30
0.0
 10
21.24845610600138
 20
-3.688077482380568
 30
0.0
 10
21.22951790551863
 20
-3.298978483751849
 30
0.0
 10
21.21068756852147
 20
-2.881843695165005
 30
0.0
  0
SPLINE
  5
264
330
1F
100
AcDbEntity
  8
외형선
  6
Continuous
 62
     1
370
    15
100
AcDbSpline
210
0.0
220
0.0
230
1.0
 70
     8
 71
     3
 72
    12
 73
     8
 74
     0
 42
0.000000001
 43
0.00000001
 40
0.0
 40
0.0
 40
0.0
 40
0.0
 40
0.2499999999999998
 40
0.2499999999999998
 40
0.4999999999999996
 40
0.4999999999999996
 40
1.0
 40
1.0
 40
1.0
 40
1.0
 10
21.47541167031326
 20
-5.012536381917594
 30
0.0
 10
21.466902288441
 20
-4.884559099473191
 30
0.0
 10
21.45864482316527
 20
-4.747005772981251
 30
0.0
 10
21.4412766246096
 20
-4.446839656229009
 30
0.0
 10
21.43235380276325
 20
-4.285106661923364
 30
0.0
 10
21.40510168896662
 20
-3.76817642525747
 30
0.0
 10
21.38628492944134
 20
-3.380867799442347
 30
0.0
 10
21.36754128607907
 20
-2.964813731426465
 30
0.0
  0
SPLINE
  5
265
330
1F
100
AcDbEntity
  8
외형선
  6
Continuous
 62
     1
370
    15
100
AcDbSpline
210
0.0
220
0.0
230
1.0
 70
     8
 71
     3
 72
    12
 73
     8
 74
     0
 42
0.000000001
 43
0.00000001
 40
0.0
 40
0.0
 40
0.0
 40
0.0
 40
0.2499999999999996
 40
0.2499999999999996
 40
0.4999999999999996
 40
0.4999999999999996
 40
1.0
 40
1.0
 40
1.0
 40
1.0
 10
22.05704310910528
 20
-5.124641425612027
 30
0.0
 10
22.04836534300285
 20
-5.002368881950774
 30
0.0
 10
22.04011630482568
 20
-4.870893368568259
 30
0.0
 10
22.02300695509665
 20
-4.584049084846435
 30
0.0
 10
22.01419197021637
 20
-4.428705095283798
 30
0.0
 10
21.98718850213391
 20
-3.929700385048792
 30
0.0
 10
21.96843588058229
 20
-3.55265155640093
 30
0.0
 10
21.94964622559407
 20
-3.144307009437101
 30
0.0
  0
SPLINE
  5
266
330
1F
100
AcDbEntity
  8
외형선
  6
Continuous
 62
     1
370
    15
100
AcDbSpline
210
0.0
220
0.0
230
1.0
 70
     8
 71
     3
 72
    12
 73
     8
 74
     0
 42
0.000000001
 43
0.00000001
 40
0.0
 40
0.0
 40
0.0
 40
0.0
 40
0.2500000000000003
 40
0.2500000000000003
 40
0.5000000000000007
 40
0.5000000000000007
 40
1.0
 40
1.0
 40
1.0
 40
1.0
 10
21.8337143891658
 20
3.624369280268424
 30
0.0
 10
21.82504466056465
 20
3.825138621829703
 30
0.0
 10
21.81677979025451
 20
4.015998891957795
 30
0.0
 10
21.79947510996173
 20
4.387129322949824
 30
0.0
 10
21.7905672936452
 20
4.566294277395627
 30
0.0
 10
21.76330764859982
 20
5.078251009408911
 30
0.0
 10
21.744414612826
 20
5.385104773382595
 30
0.0
 10
21.72553129487231
 20
5.643885319247452
 30
0.0
  0
SPLINE
  5
267
330
1F
100
AcDbEntity
  8
외형선
  6
Continuous
 62
     1
370
    15
100
AcDbSpline
210
0.0
220
0.0
230
1.0
 70
     8
 71
     3
 72
    12
 73
     8
 74
     0
 42
0.000000001
 43
0.00000001
 40
0.0
 40
0.0
 40
0.0
 40
0.0
 40
0.2499999999999999
 40
0.2499999999999999
 40
0.5000000000000001
 40
0.5000000000000001
 40
1.0
 40
1.0
 40
1.0
 40
1.0
 10
21.67700122539273
 20
3.707624704610026
 30
0.0
 10
21.66843183274521
 20
3.907196572750236
 30
0.0
 10
21.6602099148339
 20
4.097227208529455
 30
0.0
 10
21.64292808656198
 20
4.466957909481041
 30
0.0
 10
21.63404081599682
 20
4.645264054652973
 30
0.0
 10
21.60686910283712
 20
5.154272193391928
 30
0.0
 10
21.5880703098559
 20
5.458662003781904
 30
0.0
 10
21.56930657007291
 20
5.714833174885102
 30
0.0
  0
SPLINE
  5
268
330
1F
100
AcDbEntity
  8
외형선
  6
Continuous
 62
     1
370
    15
100
AcDbSpline
210
0.0
220
0.0
230
1.0
 70
     8
 71
     3
 72
    12
 73
     8
 74
     0
 42
0.000000001
 43
0.00000001
 40
0.0
 40
0.0
 40
0.0
 40
0.0
 40
0.25
 40
0.25
 40
0.5
 40
0.5
 40
1.0
 40
1.0
 40
1.0
 40
1.0
 10
21.09543834064011
 20
3.884505515510687
 30
0.0
 10
21.08704729477097
 20
4.078131348834405
 30
0.0
 10
21.07862873260601
 20
4.264759315150987
 30
0.0
 10
21.06110890403651
 20
4.625486163714744
 30
0.0
 10
21.05212510323261
 20
4.798687329484125
 30
0.0
 10
21.02474037129674
 20
5.290780981334459
 30
0.0
 10
21.00590348389645
 20
5.581732821725841
 30
0.0
 10
20.98721089126823
 20
5.823297526618945
 30
0.0
  0
SPLINE
  5
269
330
1F
100
AcDbEntity
  8
외형선
  6
Continuous
 62
     1
370
    15
100
AcDbSpline
210
0.0
220
0.0
230
1.0
 70
     8
 71
     3
 72
    12
 73
     8
 74
     0
 42
0.000000001
 43
0.00000001
 40
0.0
 40
0.0
 40
0.0
 40
0.0
 40
0.25
 40
0.25
 40
0.5
 40
0.5
 40
1.0
 40
1.0
 40
1.0
 40
1.0
 10
22.21377699971483
 20
-5.111981232717413
 30
0.0
 10
22.20500151413032
 20
-4.99187698308782
 30
0.0
 10
22.19665378792536
 20
-4.862335830919197
 30
0.0
 10
22.17952859561019
 20
-4.580197727706314
 30
0.0
 10
22.1706966877852
 20
-4.427103556185016
 30
0.0
 10
22.14361613558744
 20
-3.934440173254306
 30
0.0
 10
22.12477645555612
 20
-3.561060370957049
 30
0.0
 10
22.10587340639347
 20
-3.155708550184263
 30
0.0
  0
SPLINE
  5
26A
330
1F
100
AcDbEntity
  8
외형선
  6
Continuous
 62
     1
370
    15
100
AcDbSpline
210
0.0
220
0.0
230
1.0
 70
     8
 71
     3
 72
    10
 73
     6
 74
     0
 42
0.000000001
 43
0.00000001
 40
0.0
 40
0.0
 40
0.0
 40
0.0
 40
0.5
 40
0.5
 40
1.0
 40
1.0
 40
1.0
 40
1.0
 10
20.93935301605067
 20
3.894330943769436
 30
0.0
 10
20.92256329070985
 20
4.277673751205435
 30
0.0
 10
20.90486922551202
 20
4.638230674476962
 30
0.0
 10
20.86808321650022
 20
5.286278167608281
 30
0.0
 10
20.84913183579883
 20
5.572516953619213
 30
0.0
 10
20.83035998019786
 20
5.808888810577611
 30
0.0
  0
SPLINE
  5
26B
330
1F
100
AcDbEntity
  8
외형선
  6
Continuous
 62
     1
370
    15
100
AcDbSpline
210
0.0
220
0.0
230
1.0
 70
     8
 71
     3
 72
    10
 73
     6
 74
     0
 42
0.000000001
 43
0.00000001
 40
0.0
 40
0.0
 40
0.0
 40
0.0
 40
0.5000000000000002
 40
0.5000000000000002
 40
1.0
 40
1.0
 40
1.0
 40
1.0
 10
22.83957951471316
 20
-5.223108825893464
 30
0.0
 10
22.8217112738057
 20
-4.996166016777774
 30
0.0
 10
22.80531672161787
 20
-4.7291123306208
 30
0.0
 10
22.76966904855575
 20
-4.099475109524713
 30
0.0
 10
22.75095463921632
 20
-3.738183161355834
 30
0.0
 10
22.73205609327281
 20
-3.342326527568893
 30
0.0
  0
SPLINE
  5
26C
330
1F
100
AcDbEntity
  8
외형선
  6
Continuous
 62
     1
370
    15
100
AcDbSpline
210
0.0
220
0.0
230
1.0
 70
     8
 71
     3
 72
    10
 73
     6
 74
     0
 42
0.000000001
 43
0.00000001
 40
0.0
 40
0.0
 40
0.0
 40
0.0
 40
0.5000000000000001
 40
0.5000000000000001
 40
1.0
 40
1.0
 40
1.0
 40
1.0
 10
22.99573654661111
 20
-5.2930585615651
 30
0.0
 10
22.97790551455968
 20
-5.068409724978413
 30
0.0
 10
22.96158145363115
 20
-4.803544900966102
 30
0.0
 10
22.92626019020104
 20
-4.179132155326623
 30
0.0
 10
22.90769418713075
 20
-3.820247008333573
 30
0.0
 10
22.88891225360683
 20
-3.426196126804858
 30
0.0
  0
SPLINE
  5
26D
330
1F
100
AcDbEntity
  8
외형선
  6
Continuous
 62
     1
370
    15
100
AcDbSpline
210
0.0
220
0.0
230
1.0
 70
     8
 71
     3
 72
    12
 73
     8
 74
     0
 42
0.000000001
 43
0.00000001
 40
0.0
 40
0.0
 40
0.0
 40
0.0
 40
0.2499999999999999
 40
0.2499999999999999
 40
0.4999999999999998
 40
0.4999999999999998
 40
1.0
 40
1.0
 40
1.0
 40
1.0
 10
23.57757775503355
 20
-5.389117034995433
 30
0.0
 10
23.5685380879711
 20
-5.283365357630419
 30
0.0
 10
23.5596843733551
 20
-5.165972472940951
 30
0.0
 10
23.54249915860224
 20
-4.911267831145435
 30
0.0
 10
23.53422683682196
 20
-4.77447142390026
 30
0.0
 10
23.50811952511225
 20
-4.326104252582782
 30
0.0
 10
23.4897201434092
 20
-3.979375079846463
 30
0.0
 10
23.47099492657395
 20
-3.59527410922761
 30
0.0
  0
SPLINE
  5
26E
330
1F
100
AcDbEntity
  8
외형선
  6
Continuous
 62
     1
370
    15
100
AcDbSpline
210
0.0
220
0.0
230
1.0
 70
     8
 71
     3
 72
    10
 73
     6
 74
     0
 42
0.000000001
 43
0.00000001
 40
0.0
 40
0.0
 40
0.0
 40
0.0
 40
0.5
 40
0.5
 40
1.0
 40
1.0
 40
1.0
 40
1.0
 10
20.3138292814579
 20
4.077548265438915
 30
0.0
 10
20.29686286088401
 20
4.451764683908194
 30
0.0
 10
20.27881548205184
 20
4.802434558877876
 30
0.0
 10
20.24181403483335
 20
5.424444369700846
 30
0.0
 10
20.22287149899911
 20
5.695516658936252
 30
0.0
 10
20.20422456590951
 20
5.915743788736063
 30
0.0
  0
SPLINE
  5
26F
330
1F
100
AcDbEntity
  8
외형선
  6
Continuous
 62
     1
370
    15
100
AcDbSpline
210
0.0
220
0.0
230
1.0
 70
     8
 71
     3
 72
    10
 73
     6
 74
     0
 42
0.000000001
 43
0.00000001
 40
0.0
 40
0.0
 40
0.0
 40
0.0
 40
0.4999999999999998
 40
0.4999999999999998
 40
1.0
 40
1.0
 40
1.0
 40
1.0
 10
20.15713322160172
 20
4.161406720902256
 30
0.0
 10
20.14017732249677
 20
4.534226094008935
 30
0.0
 10
20.12217859160155
 20
4.882795753053652
 30
0.0
 10
20.08534302103158
 20
5.499803351457982
 30
0.0
 10
20.06651750589743
 20
5.767984103443904
 30
0.0
 10
20.04800845803781
 20
5.9853000374033
 30
0.0
  0
SPLINE
  5
270
330
1F
100
AcDbEntity
  8
외형선
  6
Continuous
 62
     1
370
    15
100
AcDbSpline
210
0.0
220
0.0
230
1.0
 70
     8
 71
     3
 72
    10
 73
     6
 74
     0
 42
0.000000001
 43
0.00000001
 40
0.0
 40
0.0
 40
0.0
 40
0.0
 40
0.4999999999999998
 40
0.4999999999999998
 40
1.0
 40
1.0
 40
1.0
 40
1.0
 10
19.57548678745397
 20
4.327829783343478
 30
0.0
 10
19.55826501130813
 20
4.692396491681974
 30
0.0
 10
19.5400864716271
 20
5.0302156728866
 30
0.0
 10
19.50310723051233
 20
5.621951819885894
 30
0.0
 10
19.48431821458832
 20
5.875632172586845
 30
0.0
 10
19.46594986481128
 20
6.077701565352837
 30
0.0
  0
SPLINE
  5
271
330
1F
100
AcDbEntity
  8
외형선
  6
Continuous
 62
     1
370
    15
100
AcDbSpline
210
0.0
220
0.0
230
1.0
 70
     8
 71
     3
 72
    12
 73
     8
 74
     0
 42
0.000000001
 43
0.00000001
 40
0.0
 40
0.0
 40
0.0
 40
0.0
 40
0.25
 40
0.25
 40
0.5
 40
0.5
 40
1.0
 40
1.0
 40
1.0
 40
1.0
 10
23.73436717193892
 20
-5.369222465639751
 30
0.0
 10
23.72524185699288
 20
-5.265842938300757
 30
0.0
 10
23.71629717837807
 20
-5.150648231024607
 30
0.0
 10
23.69892445927976
 20
-4.899966922257633
 30
0.0
 10
23.69062283995153
 20
-4.765325904559695
 30
0.0
 10
23.66447986792174
 20
-4.32366385966069
 30
0.0
 10
23.64602203635574
 20
-3.980991986898009
 30
0.0
 10
23.62720913274123
 20
-3.600346590545786
 30
0.0
  0
SPLINE
  5
272
330
1F
100
AcDbEntity
  8
외형선
  6
Continuous
 62
     1
370
    15
100
AcDbSpline
210
0.0
220
0.0
230
1.0
 70
     8
 71
     3
 72
    12
 73
     8
 74
     0
 42
0.000000001
 43
0.00000001
 40
0.0
 40
0.0
 40
0.0
 40
0.0
 40
0.2499999999999997
 40
0.2499999999999997
 40
0.4999999999999993
 40
0.4999999999999993
 40
1.0
 40
1.0
 40
1.0
 40
1.0
 10
24.36033334855852
 20
-5.462468752991647
 30
0.0
 10
24.35109943095201
 20
-5.366531721598912
 30
0.0
 10
24.34201942270862
 20
-5.258317345453078
 30
0.0
 10
24.32433099953969
 20
-5.020460467514267
 30
0.0
 10
24.31589168127414
 20
-4.891753533943417
 30
0.0
 10
24.29022756715683
 20
-4.4722492006094
 30
0.0
 10
24.2720003843144
 20
-4.143425598734726
 30
0.0
 10
24.25330111786844
 20
-3.774474774950761
 30
0.0
  0
SPLINE
  5
273
330
1F
100
AcDbEntity
  8
외형선
  6
Continuous
 62
     1
370
    15
100
AcDbSpline
210
0.0
220
0.0
230
1.0
 70
     8
 71
     3
 72
    10
 73
     6
 74
     0
 42
0.000000001
 43
0.00000001
 40
0.0
 40
0.0
 40
0.0
 40
0.0
 40
0.4999999999999998
 40
0.4999999999999998
 40
1.0
 40
1.0
 40
1.0
 40
1.0
 10
19.41935366027462
 20
4.331522373550092
 30
0.0
 10
19.40197453342618
 20
4.693126594954541
 30
0.0
 10
19.3836480561799
 20
5.027328306920826
 30
0.0
 10
19.34642435247732
 20
5.610584254864887
 30
0.0
 10
19.32753922949673
 20
5.85940310359877
 30
0.0
 10
19.30911166490575
 20
6.056236438056041
 30
0.0
  0
SPLINE
  5
274
330
1F
100
AcDbEntity
  8
외형선
  6
Continuous
 62
     1
370
    15
100
AcDbSpline
210
0.0
220
0.0
230
1.0
 70
     8
 71
     3
 72
    10
 73
     6
 74
     0
 42
0.000000001
 43
0.00000001
 40
0.0
 40
0.0
 40
0.0
 40
0.0
 40
0.4999999999999998
 40
0.4999999999999998
 40
1.0
 40
1.0
 40
1.0
 40
1.0
 10
18.79355071345592
 20
4.503216297720162
 30
0.0
 10
18.7759086997238
 20
4.855282541661943
 30
0.0
 10
18.75741749966301
 20
5.177301239286739
 30
0.0
 10
18.72010143041151
 20
5.732415078382963
 30
0.0
 10
18.70128890467761
 20
5.965300367720724
 30
0.0
 10
18.68304391964837
 20
6.145591063489444
 30
0.0
  0
SPLINE
  5
275
330
1F
100
AcDbEntity
  8
외형선
  6
Continuous
 62
     1
370
    15
100
AcDbSpline
210
0.0
220
0.0
230
1.0
 70
     8
 71
     3
 72
    12
 73
     8
 74
     0
 42
0.000000001
 43
0.00000001
 40
0.0
 40
0.0
 40
0.0
 40
0.0
 40
0.2499999999999998
 40
0.2499999999999998
 40
0.4999999999999996
 40
0.4999999999999996
 40
1.0
 40
1.0
 40
1.0
 40
1.0
 10
24.5165234844504
 20
-5.530572743848481
 30
0.0
 10
24.50732066758687
 20
-5.435997715247566
 30
0.0
 10
24.49826423926909
 20
-5.32908755413935
 30
0.0
 10
24.48060691206767
 20
-5.093646771663573
 30
0.0
 10
24.47213241200284
 20
-4.965807530463628
 30
0.0
 10
24.44673839791063
 20
-4.550752247691345
 30
0.0
 10
24.42868314497339
 20
-4.224846909794366
 30
0.0
 10
24.41012872225271
 20
-3.858356748784518
 30
0.0
  0
SPLINE
  5
276
330
1F
100
AcDbEntity
  8
외형선
  6
Continuous
 62
     1
370
    15
100
AcDbSpline
210
0.0
220
0.0
230
1.0
 70
     8
 71
     3
 72
    12
 73
     8
 74
     0
 42
0.000000001
 43
0.00000001
 40
0.0
 40
0.0
 40
0.0
 40
0.0
 40
0.5
 40
0.5
 40
0.75
 40
0.75
 40
1.0
 40
1.0
 40
1.0
 40
1.0
 10
25.09851165569564
 20
-5.609850208842007
 30
0.0
 10
25.07995200338634
 20
-5.43521489371876
 30
0.0
 10
25.06188742672454
 20
-5.209408603528659
 30
0.0
 10
25.03647496695666
 20
-4.813028102051329
 30
0.0
 10
25.0280137775475
 20
-4.670123401457918
 30
0.0
 10
25.01036687078811
 20
-4.359689817109768
 30
0.0
 10
25.00131480814656
 20
-4.19283095381223
 30
0.0
 10
24.99211537620782
 20
-4.015515372639931
 30
0.0
  0
SPLINE
  5
277
330
1F
100
AcDbEntity
  8
외형선
  6
Continuous
 62
     1
370
    15
100
AcDbSpline
210
0.0
220
0.0
230
1.0
 70
     8
 71
     3
 72
    10
 73
     6
 74
     0
 42
0.000000001
 43
0.00000001
 40
0.0
 40
0.0
 40
0.0
 40
0.0
 40
0.5
 40
0.5
 40
1.0
 40
1.0
 40
1.0
 40
1.0
 10
18.63678357159964
 20
4.58713799385466
 30
0.0
 10
18.6191713386296
 20
4.937329482409816
 30
0.0
 10
18.60074802288435
 20
5.256824328152571
 30
0.0
 10
18.56363048266985
 20
5.806267458289087
 30
0.0
 10
18.54494829437284
 20
6.03601662260311
 30
0.0
 10
18.52684994893955
 20
6.213231140121962
 30
0.0
  0
SPLINE
  5
278
330
1F
100
AcDbEntity
  8
외형선
  6
Continuous
 62
     1
370
    15
100
AcDbSpline
210
0.0
220
0.0
230
1.0
 70
     8
 71
     3
 72
    10
 73
     6
 74
     0
 42
0.000000001
 43
0.00000001
 40
0.0
 40
0.0
 40
0.0
 40
0.0
 40
0.5
 40
0.5
 40
1.0
 40
1.0
 40
1.0
 40
1.0
 10
18.05493632040889
 20
4.74141508821072
 30
0.0
 10
18.03710653947282
 20
5.082093492192302
 30
0.0
 10
18.01855962605108
 20
5.389690566023464
 30
0.0
 10
17.98141306195222
 20
5.912124117509702
 30
0.0
 10
17.96282552159787
 20
6.126786989319968
 30
0.0
 10
17.9449194541257
 20
6.288512001195642
 30
0.0
  0
SPLINE
  5
279
330
1F
100
AcDbEntity
  8
외형선
  6
Continuous
 62
     1
370
    15
100
AcDbSpline
210
0.0
220
0.0
230
1.0
 70
     8
 71
     3
 72
    12
 73
     8
 74
     0
 42
0.000000001
 43
0.00000001
 40
0.0
 40
0.0
 40
0.0
 40
0.0
 40
0.5000000000000004
 40
0.5000000000000004
 40
0.7500000000000004
 40
0.7500000000000004
 40
1.0
 40
1.0
 40
1.0
 40
1.0
 10
25.25534572330494
 20
-5.58297293233521
 30
0.0
 10
25.23664102685206
 20
-5.413371909973257
 30
0.0
 10
25.21840418772586
 20
-5.192022044054927
 30
0.0
 10
25.19272100548654
 20
-4.801260843021337
 30
0.0
 10
25.18429213591911
 20
-4.660754673840905
 30
0.0
 10
25.16661414612115
 20
-4.354581992200584
 30
0.0
 10
25.1575384910724
 20
-4.189755251381923
 30
0.0
 10
25.14830792536613
 20
-4.01434787538638
 30
0.0
  0
SPLINE
  5
27A
330
1F
100
AcDbEntity
  8
외형선
  6
Continuous
 62
     1
370
    15
100
AcDbSpline
210
0.0
220
0.0
230
1.0
 70
     8
 71
     3
 72
    12
 73
     8
 74
     0
 42
0.000000001
 43
0.00000001
 40
0.0
 40
0.0
 40
0.0
 40
0.0
 40
0.4999999999999997
 40
0.4999999999999997
 40
0.7499999999999997
 40
0.7499999999999997
 40
1.0
 40
1.0
 40
1.0
 40
1.0
 10
25.88146768591734
 20
-5.658245334811832
 30
0.0
 10
25.86265027969022
 20
-5.504852631418716
 30
0.0
 10
25.84418324651061
 20
-5.298367180852247
 30
0.0
 10
25.81802111941242
 20
-4.92644039199786
 30
0.0
 10
25.80971798246398
 20
-4.793213525326582
 30
0.0
 10
25.79235769331743
 20
-4.501966542231179
 30
0.0
 10
25.78341834980279
 20
-4.344359213812367
 30
0.0
 10
25.77429732429726
 20
-4.175764873207874
 30
0.0
  0
SPLINE
  5
27B
330
1F
100
AcDbEntity
  8
외형선
  6
Continuous
 62
     1
370
    15
100
AcDbSpline
210
0.0
220
0.0
230
1.0
 70
     8
 71
     3
 72
    10
 73
     6
 74
     0
 42
0.000000001
 43
0.00000001
 40
0.0
 40
0.0
 40
0.0
 40
0.0
 40
0.5
 40
0.5
 40
1.0
 40
1.0
 40
1.0
 40
1.0
 10
17.89876500345726
 20
4.738706046255002
 30
0.0
 10
17.88078490650846
 20
5.076224868331596
 30
0.0
 10
17.86210154473413
 20
5.380013086213483
 30
0.0
 10
17.82474056290648
 20
5.893707019234547
 30
0.0
 10
17.80607540363756
 20
6.103442888846462
 30
0.0
 10
17.78812946183229
 20
6.259972971736954
 30
0.0
  0
SPLINE
  5
27C
330
1F
100
AcDbEntity
  8
외형선
  6
Continuous
 62
     1
370
    15
100
AcDbSpline
210
0.0
220
0.0
230
1.0
 70
     8
 71
     3
 72
    10
 73
     6
 74
     0
 42
0.000000001
 43
0.00000001
 40
0.0
 40
0.0
 40
0.0
 40
0.0
 40
0.5
 40
0.5
 40
1.0
 40
1.0
 40
1.0
 40
1.0
 10
17.27279728567883
 20
4.896454382288978
 30
0.0
 10
17.25460700746049
 20
5.223164312775662
 30
0.0
 10
17.23581932990351
 20
5.513639233880032
 30
0.0
 10
17.19848715797636
 20
5.997546040530009
 30
0.0
 10
17.17995504956205
 20
6.190838227745409
 30
0.0
 10
17.16224433979426
 20
6.330674392216942
 30
0.0
  0
SPLINE
  5
27D
330
1F
100
AcDbEntity
  8
외형선
  6
Continuous
 62
     1
370
    15
100
AcDbSpline
210
0.0
220
0.0
230
1.0
 70
     8
 71
     3
 72
    12
 73
     8
 74
     0
 42
0.000000001
 43
0.00000001
 40
0.0
 40
0.0
 40
0.0
 40
0.0
 40
0.4999999999999998
 40
0.4999999999999998
 40
0.7499999999999999
 40
0.7499999999999999
 40
1.0
 40
1.0
 40
1.0
 40
1.0
 10
26.03768791406046
 20
-5.724090453897915
 30
0.0
 10
26.01895847167382
 20
-5.573804416405383
 30
0.0
 10
26.00055012542111
 20
-5.370329911717755
 30
0.0
 10
25.97442389757886
 20
-5.002274351531894
 30
0.0
 10
25.96614664648104
 20
-4.870319555448655
 30
0.0
 10
25.94897429423697
 20
-4.582338742007581
 30
0.0
 10
25.94012614373754
 20
-4.426343897349041
 30
0.0
 10
25.93109100368352
 20
-4.25928767506191
 30
0.0
  0
SPLINE
  5
27E
330
1F
100
AcDbEntity
  8
외형선
  6
Continuous
 62
     1
370
    15
100
AcDbSpline
210
0.0
220
0.0
230
1.0
 70
     8
 71
     3
 72
    10
 73
     6
 74
     0
 42
0.000000001
 43
0.00000001
 40
0.0
 40
0.0
 40
0.0
 40
0.0
 40
0.5
 40
0.5
 40
1.0
 40
1.0
 40
1.0
 40
1.0
 10
26.61977146552866
 20
-5.78602261487312
 30
0.0
 10
26.60098865909516
 20
-5.651271035982289
 30
0.0
 10
26.58241694176913
 20
-5.462376559438701
 30
0.0
 10
26.54707602918942
 20
-4.99687853520145
 30
0.0
 10
26.53075722986505
 20
-4.724284441308726
 30
0.0
 10
26.51293864784843
 20
-4.403669841590323
 30
0.0
  0
SPLINE
  5
27F
330
1F
100
AcDbEntity
  8
외형선
  6
Continuous
 62
     1
370
    15
100
AcDbSpline
210
0.0
220
0.0
230
1.0
 70
     8
 71
     3
 72
    10
 73
     6
 74
     0
 42
0.000000001
 43
0.00000001
 40
0.0
 40
0.0
 40
0.0
 40
0.0
 40
0.5
 40
0.5
 40
1.0
 40
1.0
 40
1.0
 40
1.0
 10
17.11598320455722
 20
4.979688417678153
 30
0.0
 10
17.09784183407686
 20
5.304072091687812
 30
0.0
 10
17.07914045406341
 20
5.59163677196667
 30
0.0
 10
17.04203685363875
 20
6.069282596685778
 30
0.0
 10
17.02364663445987
 20
6.259234438329396
 30
0.0
 10
17.00608957541648
 20
6.395862862276028
 30
0.0
  0
SPLINE
  5
280
330
1F
100
AcDbEntity
  8
외형선
  6
Continuous
 62
     1
370
    15
100
AcDbSpline
210
0.0
220
0.0
230
1.0
 70
     8
 71
     3
 72
    10
 73
     6
 74
     0
 42
0.000000001
 43
0.00000001
 40
0.0
 40
0.0
 40
0.0
 40
0.0
 40
0.5
 40
0.5
 40
1.0
 40
1.0
 40
1.0
 40
1.0
 10
16.53398731615974
 20
5.120832437473215
 30
0.0
 10
16.51567698048427
 20
5.434527941299714
 30
0.0
 10
16.49690742907629
 20
5.709156716927487
 30
0.0
 10
16.45988542856417
 20
6.15828829691131
 30
0.0
 10
16.44164477268186
 20
6.332690968808472
 30
0.0
 10
16.42432772925508
 20
6.453691428453922
 30
0.0
  0
SPLINE
  5
281
330
1F
100
AcDbEntity
  8
외형선
  6
Continuous
 62
     1
370
    15
100
AcDbSpline
210
0.0
220
0.0
230
1.0
 70
     8
 71
     3
 72
    10
 73
     6
 74
     0
 42
0.000000001
 43
0.00000001
 40
0.0
 40
0.0
 40
0.0
 40
0.0
 40
0.5
 40
0.5
 40
1.0
 40
1.0
 40
1.0
 40
1.0
 10
26.77662519228194
 20
-5.75229115609821
 30
0.0
 10
26.75772617822356
 20
-5.62272556396878
 30
0.0
 10
26.7390064356807
 20
-5.43860029888818
 30
0.0
 10
26.70333975027354
 20
-4.981370868142728
 30
0.0
 10
26.68694741337421
 20
-4.712730073184143
 30
0.0
 10
26.66909184054676
 20
-4.396190063120368
 30
0.0
  0
SPLINE
  5
282
330
1F
100
AcDbEntity
  8
외형선
  6
Continuous
 62
     1
370
    15
100
AcDbSpline
210
0.0
220
0.0
230
1.0
 70
     8
 71
     3
 72
    12
 73
     8
 74
     0
 42
0.000000001
 43
0.00000001
 40
0.0
 40
0.0
 40
0.0
 40
0.0
 40
0.5
 40
0.5
 40
0.75
 40
0.75
 40
1.0
 40
1.0
 40
1.0
 40
1.0
 10
27.40277896427742
 20
-5.808501272854058
 30
0.0
 10
27.38387730867622
 20
-5.695939823023092
 30
0.0
 10
27.36503456298364
 20
-5.528114345323436
 30
0.0
 10
27.33794334417086
 20
-5.20679665567532
 30
0.0
 10
27.32910688775035
 20
-5.088219835004684
 30
0.0
 10
27.31197089866612
 20
-4.831538432184839
 30
0.0
 10
27.30363206101627
 20
-4.693437022182988
 30
0.0
 10
27.29486319019486
 20
-4.542728241619641
 30
0.0
  0
SPLINE
  5
283
330
1F
100
AcDbEntity
  8
외형선
  6
Continuous
 62
     1
370
    15
100
AcDbSpline
210
0.0
220
0.0
230
1.0
 70
     8
 71
     3
 72
    10
 73
     6
 74
     0
 42
0.000000001
 43
0.00000001
 40
0.0
 40
0.0
 40
0.0
 40
0.0
 40
0.5
 40
0.5
 40
1.0
 40
1.0
 40
1.0
 40
1.0
 10
16.3777784298517
 20
5.111998422249931
 30
0.0
 10
16.35932563769512
 20
5.422341570822494
 30
0.0
 10
16.34043214220145
 20
5.692978100575396
 30
0.0
 10
16.30322740292666
 20
6.133137309163691
 30
0.0
 10
16.28492821412909
 20
6.302566052710806
 30
0.0
 10
16.26759081698407
 20
6.418431459089025
 30
0.0
  0
SPLINE
  5
284
330
1F
100
AcDbEntity
  8
외형선
  6
Continuous
 62
     1
370
    15
100
AcDbSpline
210
0.0
220
0.0
230
1.0
 70
     8
 71
     3
 72
    10
 73
     6
 74
     0
 42
0.000000001
 43
0.00000001
 40
0.0
 40
0.0
 40
0.0
 40
0.0
 40
0.5
 40
0.5
 40
1.0
 40
1.0
 40
1.0
 40
1.0
 10
15.7516540752864
 20
5.25563043503303
 30
0.0
 10
15.73304565409918
 20
5.553871891565296
 30
0.0
 10
15.71410978265464
 20
5.810065014286161
 30
0.0
 10
15.67705657376097
 20
6.218822264353595
 30
0.0
 10
15.65895090089786
 20
6.371326036283761
 30
0.0
 10
15.64190092722053
 20
6.470370723455508
 30
0.0
  0
SPLINE
  5
285
330
1F
100
AcDbEntity
  8
외형선
  6
Continuous
 62
     1
370
    15
100
AcDbSpline
210
0.0
220
0.0
230
1.0
 70
     8
 71
     3
 72
    12
 73
     8
 74
     0
 42
0.000000001
 43
0.00000001
 40
0.0
 40
0.0
 40
0.0
 40
0.0
 40
0.4999999999999998
 40
0.4999999999999998
 40
0.7499999999999999
 40
0.7499999999999999
 40
1.0
 40
1.0
 40
1.0
 40
1.0
 10
27.55900154619639
 20
-5.871480463687981
 30
0.0
 10
27.54021347613136
 20
-5.762293468224478
 30
0.0
 10
27.52145810188966
 20
-5.597903224734799
 30
0.0
 10
27.49444455175225
 20
-5.281287655735821
 30
0.0
 10
27.48562523170794
 20
-5.164202556125573
 30
0.0
 10
27.46850553361216
 20
-4.910269983214859
 30
0.0
 10
27.46026181625778
 20
-4.773922733875175
 30
0.0
 10
27.45159064219198
 20
-4.625003513149403
 30
0.0
  0
SPLINE
  5
286
330
1F
100
AcDbEntity
  8
외형선
  6
Continuous
 62
     1
370
    15
100
AcDbSpline
210
0.0
220
0.0
230
1.0
 70
     8
 71
     3
 72
    12
 73
     8
 74
     0
 42
0.000000001
 43
0.00000001
 40
0.0
 40
0.0
 40
0.0
 40
0.0
 40
0.5000000000000001
 40
0.5000000000000001
 40
0.75
 40
0.75
 40
1.0
 40
1.0
 40
1.0
 40
1.0
 10
28.14109985840684
 20
-5.915489072387612
 30
0.0
 10
28.12235898341248
 20
-5.822387405808104
 30
0.0
 10
28.10354078599103
 20
-5.673730835448588
 30
0.0
 10
28.07628051185466
 20
-5.378423795017837
 30
0.0
 10
28.0673539868726
 20
-5.268063950407448
 30
0.0
 10
28.04997665099172
 20
-5.026615686235433
 30
0.0
 10
28.04171319525321
 20
-4.896605975122775
 30
0.0
 10
28.03321072216963
 20
-4.755025259952276
 30
0.0
  0
SPLINE
  5
287
330
1F
100
AcDbEntity
  8
외형선
  6
Continuous
 62
     1
370
    15
100
AcDbSpline
210
0.0
220
0.0
230
1.0
 70
     8
 71
     3
 72
    10
 73
     6
 74
     0
 42
0.000000001
 43
0.00000001
 40
0.0
 40
0.0
 40
0.0
 40
0.0
 40
0.5
 40
0.5
 40
1.0
 40
1.0
 40
1.0
 40
1.0
 10
15.59480417863631
 20
5.33767279917759
 30
0.0
 10
15.57626406176525
 20
5.633132480108014
 30
0.0
 10
15.55743270843401
 20
5.886034857749721
 30
0.0
 10
15.52063713816863
 20
6.287959725652607
 30
0.0
 10
15.50268414474439
 20
6.436931420523669
 30
0.0
 10
15.48579415416226
 20
6.532647064085426
 30
0.0
  0
SPLINE
  5
288
330
1F
100
AcDbEntity
  8
외형선
  6
Continuous
 62
     1
370
    15
100
AcDbSpline
210
0.0
220
0.0
230
1.0
 70
     8
 71
     3
 72
    10
 73
     6
 74
     0
 42
0.000000001
 43
0.00000001
 40
0.0
 40
0.0
 40
0.0
 40
0.0
 40
0.5
 40
0.5
 40
1.0
 40
1.0
 40
1.0
 40
1.0
 10
15.01272230773016
 20
5.464542283226153
 30
0.0
 10
14.99406641297861
 20
5.748164027212288
 30
0.0
 10
14.97522597609863
 20
5.987161976864839
 30
0.0
 10
14.93862675928712
 20
6.35927331555046
 30
0.0
 10
14.92091621524308
 20
6.492309092109944
 30
0.0
 10
14.90427511435706
 20
6.572457940350724
 30
0.0
  0
SPLINE
  5
289
330
1F
100
AcDbEntity
  8
외형선
  6
Continuous
 62
     1
370
    15
100
AcDbSpline
210
0.0
220
0.0
230
1.0
 70
     8
 71
     3
 72
    12
 73
     8
 74
     0
 42
0.000000001
 43
0.00000001
 40
0.0
 40
0.0
 40
0.0
 40
0.0
 40
0.4999999999999999
 40
0.4999999999999999
 40
0.7499999999999999
 40
0.7499999999999999
 40
1.0
 40
1.0
 40
1.0
 40
1.0
 10
28.31731413603115
 20
-5.940183230519217
 30
0.0
 10
28.27913019434257
 20
-5.787308504206079
 30
0.0
 10
28.26019041885543
 20
-5.643615384546552
 30
0.0
 10
28.23271660010931
 20
-5.35495627339755
 30
0.0
 10
28.22371381083047
 20
-5.246682512890475
 30
0.0
 10
28.20617805828153
 20
-5.009114559032643
 30
0.0
 10
28.19782131773889
 20
-4.880802695772362
 30
0.0
 10
28.18931218419774
 20
-4.741331290602301
 30
0.0
  0
SPLINE
  5
28A
330
1F
100
AcDbEntity
  8
외형선
  6
Continuous
 62
     1
370
    15
100
AcDbSpline
210
0.0
220
0.0
230
1.0
 70
     8
 71
     3
 72
    10
 73
     6
 74
     0
 42
0.000000001
 43
0.00000001
 40
0.0
 40
0.0
 40
0.0
 40
0.0
 40
0.5
 40
0.5
 40
1.0
 40
1.0
 40
1.0
 40
1.0
 10
28.93718186872966
 20
-6.018989862542791
 30
0.0
 10
28.90540445119331
 20
-5.841800881868101
 30
0.0
 10
28.88645255259417
 20
-5.715489317857877
 30
0.0
 10
28.8495654045753
 20
-5.362606762377537
 30
0.0
 10
28.83164139287465
 20
-5.136241709823943
 30
0.0
 10
28.814849409267
 20
-4.872616524131667
 30
0.0
  0
SPLINE
  5
28B
330
1F
100
AcDbEntity
  8
외형선
  6
Continuous
 62
     1
370
    15
100
AcDbSpline
210
0.0
220
0.0
230
1.0
 70
     8
 71
     3
 72
    10
 73
     6
 74
     0
 42
0.000000001
 43
0.00000001
 40
0.0
 40
0.0
 40
0.0
 40
0.0
 40
0.5
 40
0.5
 40
1.0
 40
1.0
 40
1.0
 40
1.0
 10
14.85650162032934
 20
5.44943462109491
 30
0.0
 10
14.83771341193309
 20
5.729535737928344
 30
0.0
 10
14.81876367946475
 20
5.964398108045427
 30
0.0
 10
14.78201634748996
 20
6.327413866799176
 30
0.0
 10
14.76445741412641
 20
6.455237200585804
 30
0.0
 10
14.74760529796152
 20
6.530674117847687
 30
0.0
  0
SPLINE
  5
28C
330
1F
100
AcDbEntity
  8
외형선
  6
Continuous
 62
     1
370
    15
100
AcDbSpline
210
0.0
220
0.0
230
1.0
 70
     8
 71
     3
 72
    12
 73
     8
 74
     0
 42
0.000000001
 43
0.00000001
 40
0.0
 40
0.0
 40
0.0
 40
0.0
 40
0.4999999999999998
 40
0.4999999999999998
 40
0.7499999999999999
 40
0.7499999999999999
 40
1.0
 40
1.0
 40
1.0
 40
1.0
 10
14.23034837285265
 20
5.576844499501198
 30
0.0
 10
14.21147968656481
 20
5.843467982697208
 30
0.0
 10
14.1925681506396
 20
6.062815254718551
 30
0.0
 10
14.16523479880834
 20
6.310598308438395
 30
0.0
 10
14.15629489178583
 20
6.379786167851856
 30
0.0
 10
14.13891301562884
 20
6.491241981955599
 30
0.0
 10
14.13064543985268
 20
6.533419461481659
 30
0.0
 10
14.12202617611034
 20
6.563141403493183
 30
0.0
  0
SPLINE
  5
28D
330
1F
100
AcDbEntity
  8
외형선
  6
Continuous
 62
     1
370
    15
100
AcDbSpline
210
0.0
220
0.0
230
1.0
 70
     8
 71
     3
 72
    10
 73
     6
 74
     0
 42
0.000000001
 43
0.00000001
 40
0.2712188187147411
 40
0.2712188187147411
 40
0.2712188187147411
 40
0.2712188187147411
 40
0.5
 40
0.5
 40
1.0
 40
1.0
 40
1.0
 40
1.0
 10
29.05
 20
-5.8148503068043
 30
0.0
 10
29.04146815654074
 20
-5.757337862964673
 30
0.0
 10
29.03296595480885
 20
-5.688784257787329
 30
0.0
 10
29.00619804760619
 20
-5.436869203842027
 30
0.0
 10
28.98831778857172
 20
-5.213943647798484
 30
0.0
 10
28.97153147682175
 20
-4.953228891484919
 30
0.0
  0
SPLINE
  5
28F
330
1F
100
AcDbEntity
  8
외형선
  6
Continuous
 62
     1
370
    15
100
AcDbSpline
210
0.0
220
0.0
230
1.0
 70
     8
 71
     3
 72
    12
 73
     8
 74
     0
 42
0.000000001
 43
0.00000001
 40
0.0
 40
0.0
 40
0.0
 40
0.0
 40
0.4999999999999998
 40
0.4999999999999998
 40
0.7499999999999999
 40
0.7499999999999999
 40
1.0
 40
1.0
 40
1.0
 40
1.0
 10
14.07349188077112
 20
5.656911750666503
 30
0.0
 10
14.05471694998286
 20
5.920248248874529
 30
0.0
 10
14.03593340924567
 20
6.135919818331947
 30
0.0
 10
14.00882119870922
 20
6.37820201620993
 30
0.0
 10
13.99995975794395
 20
6.445557790385958
 30
0.0
 10
13.98273996659026
 20
6.55343315606291
 30
0.0
 10
13.97452241482979
 20
6.593945414642442
 30
0.0
 10
13.96591255856145
 20
6.622006672910955
 30
0.0
  0
SPLINE
  5
290
330
1F
100
AcDbEntity
  8
외형선
  6
Continuous
 62
     1
370
    15
100
AcDbSpline
210
0.0
220
0.0
230
1.0
 70
     8
 71
     3
 72
    12
 73
     8
 74
     0
 42
0.000000001
 43
0.00000001
 40
0.0
 40
0.0
 40
0.0
 40
0.0
 40
0.5000000000000004
 40
0.5000000000000004
 40
0.7500000000000002
 40
0.7500000000000002
 40
1.0
 40
1.0
 40
1.0
 40
1.0
 10
13.49139148582413
 20
5.768489907292884
 30
0.0
 10
13.47259311882351
 20
6.018449441180113
 30
0.0
 10
13.45389667278161
 20
6.219098178016641
 30
0.0
 10
13.42706390884835
 20
6.438177429686306
 30
0.0
 10
13.41831997320585
 20
6.497691284424295
 30
0.0
 10
13.40137665330271
 20
6.589972735223553
 30
0.0
 10
13.39299994472815
 20
6.623244103786141
 30
0.0
 10
13.38423105260448
 20
6.643612619832947
 30
0.0
  0
SPLINE
  5
293
330
1F
100
AcDbEntity
  8
외형선
  6
Continuous
 62
     1
370
    15
100
AcDbSpline
210
0.0
220
0.0
230
1.0
 70
     8
 71
     3
 72
    10
 73
     6
 74
     0
 42
0.000000001
 43
0.00000001
 40
0.0
 40
0.0
 40
0.0
 40
0.0
 40
0.5
 40
0.5
 40
1.0
 40
1.0
 40
1.0
 40
1.0
 10
13.33516597099417
 20
5.747346904268501
 30
0.0
 10
13.31625988192279
 20
5.993475469163632
 30
0.0
 10
13.29748282795932
 20
6.189784187797521
 30
0.0
 10
13.26161575467457
 20
6.472717087083733
 30
0.0
 10
13.2452109948063
 20
6.559838279199181
 30
0.0
 10
13.22748285349657
 20
6.595671597377819
 30
0.0
  0
SPLINE
  5
294
330
1F
100
AcDbEntity
  8
외형선
  6
Continuous
 62
     1
370
    15
100
AcDbSpline
210
0.0
220
0.0
230
1.0
 70
     8
 71
     3
 72
    12
 73
     8
 74
     0
 42
0.000000001
 43
0.00000001
 40
0.0
 40
0.0
 40
0.0
 40
0.0
 40
0.5000000000000002
 40
0.5000000000000002
 40
0.7500000000000002
 40
0.7500000000000002
 40
1.0
 40
1.0
 40
1.0
 40
1.0
 10
12.70899286932089
 20
5.858411292158548
 30
0.0
 10
12.69011571802107
 20
6.089403921874198
 30
0.0
 10
12.67148813657925
 20
6.269078187649249
 30
0.0
 10
12.64496421061399
 20
6.456099318287689
 30
0.0
 10
12.63651640468304
 20
6.504635869513261
 30
0.0
 10
12.61945247991336
 20
6.576151195964751
 30
0.0
 10
12.61064369386137
 20
6.599213917523354
 30
0.0
 10
12.60163163904621
 20
6.608649869842142
 30
0.0
  0
SPLINE
  5
298
330
1F
100
AcDbEntity
  8
외형선
  6
Continuous
 62
     1
370
    15
100
AcDbSpline
210
0.0
220
0.0
230
1.0
 70
     8
 71
     3
 72
    12
 73
     8
 74
     0
 42
0.000000001
 43
0.00000001
 40
0.0
 40
0.0
 40
0.0
 40
0.0
 40
0.4999999999999999
 40
0.4999999999999999
 40
0.7499999999999998
 40
0.7499999999999998
 40
1.0
 40
1.0
 40
1.0
 40
1.0
 10
12.55213694011507
 20
5.936056588106861
 30
0.0
 10
12.5333833242335
 20
6.163240155876517
 30
0.0
 10
12.51491019723338
 20
6.338882120056564
 30
0.0
 10
12.48863796554953
 20
6.520108432438878
 30
0.0
 10
12.48030089553134
 20
6.566752365991449
 30
0.0
 10
12.46324931499656
 20
6.634783654454307
 30
0.0
 10
12.45445446779758
 20
6.656051176379185
 30
0.0
 10
12.44546395042449
 20
6.663677449335111
 30
0.0
  0
SPLINE
  5
299
330
1F
100
AcDbEntity
  8
외형선
  6
Continuous
 62
     1
370
    15
100
AcDbSpline
210
0.0
220
0.0
230
1.0
 70
     8
 71
     3
 72
    12
 73
     8
 74
     0
 42
0.000000001
 43
0.00000001
 40
0.0
 40
0.0
 40
0.0
 40
0.0
 40
0.5
 40
0.5
 40
0.75
 40
0.75
 40
1.0
 40
1.0
 40
1.0
 40
1.0
 10
11.9700680356578
 20
6.031622337531656
 30
0.0
 10
11.95139349970982
 20
6.244085116253443
 30
0.0
 10
11.93310852691322
 20
6.403911029437213
 30
0.0
 10
11.9072473025147
 20
6.561652959224821
 30
0.0
 10
11.89898475550654
 20
6.600786555659449
 30
0.0
 10
11.8816183783025
 20
6.653819136633441
 30
0.0
 10
11.87268577389652
 20
6.667258347692644
 30
0.0
 10
11.86358130407875
 20
6.666862040299847
 30
0.0
  0
LINE
  5
29C
330
1F
100
AcDbEntity
  8
외형선
  6
Continuous
 62
     1
370
    15
100
AcDbLine
 10
11.71449377760291
 20
6.605996932408447
 30
0.0
 11
11.70678056403994
 21
6.613091747781867
 31
0.0
  0
LINE
  5
29D
330
1F
100
AcDbEntity
  8
외형선
  6
Continuous
 62
     1
370
    15
100
AcDbLine
 10
11.10364605300128
 20
6.601608540436859
 30
0.0
 11
11.10175546817481
 21
6.602002024224634
 31
0.0
  0
LINE
  5
29F
330
1F
100
AcDbEntity
  8
외형선
  6
Continuous
 62
     1
370
    15
100
AcDbLine
 10
10.94416521117091
 20
6.655805460682744
 30
0.0
 11
10.93781685084104
 21
6.656235266050929
 31
0.0
  0
LINE
  5
2A0
330
1F
100
AcDbEntity
  8
외형선
  6
Continuous
 62
     1
370
    15
100
AcDbLine
 10
10.36469583958387
 20
6.627306989899511
 30
0.0
 11
10.3634191127494
 21
6.628148439845676
 31
0.0
  0
LINE
  5
2A2
330
1F
100
AcDbEntity
  8
외형선
  6
Continuous
 62
     1
370
    15
100
AcDbLine
 10
35.39999985694885
 20
1.713903104460472
 30
0.0
 11
35.39999985694885
 21
1.72582717662924
 31
0.0
  0
LINE
  5
2A5
330
1F
100
AcDbEntity
  8
외형선
  6
Continuous
 62
     1
370
    15
100
AcDbLine
 10
10.20739231351763
 20
6.599117718211049
 30
0.0
 11
10.20581418741494
 21
6.59792236568653
 31
0.0
  0
SPLINE
  5
2A6
330
1F
100
AcDbEntity
  8
외형선
  6
Continuous
370
    15
100
AcDbSpline
210
0.0
220
0.0
230
1.0
 70
    24
 71
     3
 72
    10
 73
     6
 74
     0
 42
0.000000001
 43
0.00000001
 40
0.0
 40
0.0
 40
0.0
 40
0.0
 40
0.3726258434835397
 40
0.8802492544722597
 40
1.0
 40
1.0
 40
1.0
 40
1.0
 10
10.00000004749745
 20
6.500650845042104
 30
0.0
 10
10.00000004749745
 20
6.496168696702455
 30
0.0
 10
10.00000004749745
 20
6.485580575123105
 30
0.0
 10
10.00000004749745
 20
6.320311954785
 30
0.0
 10
10.00000004749745
 20
6.175374883272728
 30
0.0
 10
10.00000004749745
 20
6.147709857246513
 30
0.0
  0
LINE
  5
2A9
330
1F
100
AcDbEntity
  8
외형선
  6
Continuous
 62
     1
370
    15
100
AcDbLine
 10
35.39999985694885
 20
-5.312365763315325
 30
0.0
 11
35.39999985694885
 21
-5.483129345306521
 31
0.0
  0
LINE
  5
2AD
330
1F
100
AcDbEntity
  8
외형선
  6
Continuous
 62
     1
370
    15
100
AcDbLine
 10
10.34917208924889
 20
-5.958772082307702
 30
0.0
 11
10.34791084565222
 21
-5.959817491897708
 31
0.0
  0
LINE
  5
2B0
330
1F
100
AcDbEntity
  8
외형선
  6
Continuous
 62
     1
370
    15
100
AcDbLine
 10
11.11989996023476
 20
-6.021475702950125
 30
0.0
 11
11.11373227648437
 21
-6.023377929308777
 31
0.0
  0
SPLINE
  5
2B2
330
1F
100
AcDbEntity
  8
외형선
  6
Continuous
 62
     1
370
    15
100
AcDbSpline
210
0.0
220
0.0
230
1.0
 70
     8
 71
     3
 72
    11
 73
     7
 74
     0
 42
0.000000001
 43
0.00000001
 40
0.0
 40
0.0
 40
0.0
 40
0.0
 40
0.3225778889885085
 40
0.6395019822796285
 40
0.8567035442861792
 40
1.0
 40
1.0
 40
1.0
 40
1.0
 10
11.81385728158057
 20
6.004519942721958
 30
0.0
 10
11.80283964803398
 20
6.117387822513496
 30
0.0
 10
11.78099748608306
 20
6.341145356201617
 30
0.0
 10
11.75318717124908
 20
6.514212362872427
 30
0.0
 10
11.73142296843648
 20
6.597626471046494
 30
0.0
 10
11.71930902106522
 20
6.603616085636387
 30
0.0
 10
11.71449377760291
 20
6.605996932408447
 30
0.0
  0
SPLINE
  5
2B3
330
1F
100
AcDbEntity
  8
외형선
  6
Continuous
 62
     1
370
    15
100
AcDbSpline
210
0.0
220
0.0
230
1.0
 70
     8
 71
     3
 72
    11
 73
     7
 74
     0
 42
0.000000001
 43
0.00000001
 40
0.0
 40
0.0
 40
0.0
 40
0.0
 40
0.3289288470086665
 40
0.6525053440864312
 40
0.9571308923956824
 40
1.0
 40
1.0
 40
1.0
 40
1.0
 10
11.18778755515814
 20
6.097674086264009
 30
0.0
 10
11.17829295658426
 20
6.188719346449795
 30
0.0
 10
11.15945825611407
 20
6.369328372885836
 30
0.0
 10
11.13310721542694
 20
6.524413501713322
 30
0.0
 10
11.11483064323804
 20
6.60109975216462
 30
0.0
 10
11.10487432633805
 20
6.601552666144139
 30
0.0
 10
11.10364605300128
 20
6.601608540436859
 30
0.0
  0
SPLINE
  5
2B6
330
1F
100
AcDbEntity
  8
외형선
  6
Continuous
 62
     1
370
    15
100
AcDbSpline
210
0.0
220
0.0
230
1.0
 70
     8
 71
     3
 72
    11
 73
     7
 74
     0
 42
0.000000001
 43
0.00000001
 40
0.0
 40
0.0
 40
0.0
 40
0.0
 40
0.3028738322829568
 40
0.6009895718519472
 40
0.9085257731065993
 40
1.0
 40
1.0
 40
1.0
 40
1.0
 10
11.03096587210893
 20
6.172135654410953
 30
0.0
 10
11.0219648693278
 20
6.257329191186501
 30
0.0
 10
11.00410426787901
 20
6.42637788979925
 30
0.0
 10
10.97833203269542
 20
6.58018643154892
 30
0.0
 10
10.95870356089117
 20
6.659353474943186
 30
0.0
 10
10.94687657897273
 20
6.656467156942036
 30
0.0
 10
10.94416521117091
 20
6.655805460682744
 30
0.0
  0
SPLINE
  5
2B7
330
1F
100
AcDbEntity
  8
외형선
  6
Continuous
 62
     1
370
    15
100
AcDbSpline
210
0.0
220
0.0
230
1.0
 70
     8
 71
     3
 72
     9
 73
     5
 74
     0
 42
0.000000001
 43
0.00000001
 40
0.0
 40
0.0
 40
0.0
 40
0.0
 40
0.6311958468968469
 40
1.0
 40
1.0
 40
1.0
 40
1.0
 10
10.44901114981621
 20
6.250755112192268
 30
0.0
 10
10.43127131069591
 20
6.403203814096381
 30
0.0
 10
10.40316618420066
 20
6.644727427810884
 30
0.0
 10
10.3750611082995
 20
6.632000670756648
 30
0.0
 10
10.36469583958387
 20
6.627306989899511
 30
0.0
  0
SPLINE
  5
2BA
330
1F
100
AcDbEntity
  8
외형선
  6
Continuous
 62
     1
370
    15
100
AcDbSpline
210
0.0
220
0.0
230
1.0
 70
     8
 71
     3
 72
    11
 73
     7
 74
     0
 42
0.000000001
 43
0.00000001
 40
0.0
 40
0.0
 40
0.0
 40
0.0
 40
0.0371152425758385
 40
0.4511783325169554
 40
0.8631206432478452
 40
1.0
 40
1.0
 40
1.0
 40
1.0
 10
10.29282660782337
 20
6.217949274501438
 30
0.0
 10
10.29174598666927
 20
6.227756090641679
 30
0.0
 10
10.27860979742323
 20
6.346969186027322
 30
0.0
 10
10.25411807601398
 20
6.515272958802339
 30
0.0
 10
10.22756541347727
 20
6.622630025205287
 30
0.0
 10
10.21141925944388
 20
6.603811235273708
 30
0.0
 10
10.20739231351763
 20
6.599117718211049
 30
0.0
  0
LINE
  5
2C3
330
1F
100
AcDbEntity
  8
외형선
  6
Continuous
 62
     1
370
    15
100
AcDbLine
 10
10.18781835772097
 20
-6.020891298034554
 30
0.0
 11
10.16401666309684
 21
-6.002059955575829
 31
0.0
  0
SPLINE
  5
2C4
330
1F
100
AcDbEntity
  8
외형선
  6
Continuous
 62
     1
370
    15
100
AcDbSpline
210
0.0
220
0.0
230
1.0
 70
     8
 71
     3
 72
     9
 73
     5
 74
     0
 42
0.000000001
 43
0.00000001
 40
0.0
 40
0.0
 40
0.0
 40
0.0
 40
0.5989580420071675
 40
1.0
 40
1.0
 40
1.0
 40
1.0
 10
10.34791084565222
 20
-5.959817491897708
 30
0.0
 10
10.34246194653845
 20
-5.968686048386435
 30
0.0
 10
10.3333646496802
 20
-5.98349268903026
 30
0.0
 10
10.3239886254075
 20
-5.962143008113981
 30
0.0
 10
10.32022844627499
 20
-5.953580890276795
 30
0.0
  0
SPLINE
  5
2C5
330
1F
100
AcDbEntity
  8
외형선
  6
Continuous
 62
     1
370
    15
100
AcDbSpline
210
0.0
220
0.0
230
1.0
 70
     8
 71
     3
 72
     9
 73
     5
 74
     0
 42
0.000000001
 43
0.00000001
 40
0.0
 40
0.0
 40
0.0
 40
0.0
 40
0.7996178303505833
 40
1.0
 40
1.0
 40
1.0
 40
1.0
 10
10.95882096886635
 20
-5.965179581621056
 30
0.0
 10
10.95551783758767
 20
-5.970807955336731
 30
0.0
 10
10.95138695011456
 20
-5.977846785015164
 30
0.0
 10
10.94714755539417
 20
-5.971415484990101
 30
0.0
 10
10.9462980562821
 20
-5.970126767137414
 30
0.0
  0
LINE
  5
2C6
330
1F
100
AcDbEntity
  8
외형선
  6
Continuous
 62
     1
370
    15
100
AcDbLine
 10
11.11373227648437
 20
-6.023377929308777
 30
0.0
 11
11.10311869159341
 21
-6.026651062497264
 31
0.0
  0
LINE
  5
2C7
330
1F
100
AcDbEntity
  8
외형선
  6
Continuous
 62
     1
370
    15
100
AcDbLine
 10
11.68787681125104
 20
-6.030044336297875
 30
0.0
 11
11.68506584689021
 21
-6.032682773151761
 31
0.0
  0
LINE
  5
2C9
330
1F
100
AcDbEntity
  8
외형선
  6
Continuous
 62
     1
370
    15
100
AcDbLine
 10
11.8485560324043
 20
-5.971534926870232
 30
0.0
 11
11.84124747850001
 21
-5.979740810075169
 31
0.0
  0
LINE
  5
2CB
330
1F
100
AcDbEntity
  8
중심선
100
AcDbLine
 10
-43.79999999999999
 20
0.3168705809327311
 30
0.0
 11
38.40000000000001
 21
0.3168705809327412
 31
0.0
  0
LINE
  5
2CC
330
1F
100
AcDbEntity
  8
참조1
100
AcDbLine
 10
-2.699999999999998
 20
-0.0000000000000035
 30
0.0
 11
-2.699999999999989
 21
-40.0
 31
0.0
  0
LINE
  5
2CD
330
1F
100
AcDbEntity
  8
참조1
100
AcDbLine
 10
-19.72860765519647
 20
-6.033129419067262
 30
0.0
 11
48.413972688396
 21
-6.033129419067262
 31
0.0
  0
LINE
  5
2CE
330
1F
100
AcDbEntity
  8
참조1
100
AcDbLine
 10
48.413972688396
 20
-6.033129419067262
 30
0.0
 11
48.413972688396
 21
-6.610378025244112
 31
0.0
  0
LINE
  5
2CF
330
1F
100
AcDbEntity
  8
참조1
100
AcDbLine
 10
-2.699999999999989
 20
-40.0
 30
0.0
 11
-24.19604980726569
 21
-40.0
 31
0.0
  0
CIRCLE
  5
2D0
330
1F
100
AcDbEntity
  8
해칭선
100
AcDbCircle
 10
0.0000000000000071
 20
0.3168705809327365
 30
0.0
 40
3.000000000000005
  0
INSERT
  5
2D1
330
1F
100
AcDbEntity
  8
0
  6
Continuous
 62
     7
100
AcDbBlockReference
 66
     1
  2
블럭10
 10
-16.6402729321252
 20
-52.04717430164393
 30
0.0
  0
ATTRIB
  5
2D2
330
2D1
100
AcDbEntity
  8
FORMAT
 62
     2
100
AcDbText
 10
-26.78190894426183
 20
-49.97180738881173
 30
0.0
 40
4.233333333333333
  1
EM662032 [ 4 FLUTE ]
 41
0.75
  7
SLDTEXTSTYLE0
 11
-26.78190894426183
 21
-52.0884740554784
 31
0.0
100
AcDbAttribute
  2
AUTOATTR0
 70
     0
 74
     1
  0
SEQEND
  5
2D3
330
2D1
100
AcDbEntity
  8
0
  6
Continuous
 62
     7
  0
HATCH
  5
2D4
330
1F
100
AcDbEntity
  8
중심선
100
AcDbHatch
 10
0.0
 20
0.0
 30
0.0
210
0.0
220
0.0
230
1.0
  2
SOLID
 70
     1
 71
     0
 91
        1
 92
        0
 93
        4
 72
     1
 10
-10.92536362774435
 20
-35.8
 11
-14.37163887158163
 21
-35.8
 72
     1
 10
-14.37163887158163
 20
-35.8
 11
-16.49986873078565
 21
-38.33632558057259
 72
     1
 10
-16.49986873078565
 20
-38.33632558057259
 11
-13.0535604018352
 21
-38.3362861512701
 72
     1
 10
-13.0535604018352
 20
-38.3362861512701
 11
-10.92536362774435
 21
-35.8
 97
        0
 75
     0
 76
     1
 98
        1
 10
0.0
 20
0.0
  0
HATCH
  5
2D5
330
1F
100
AcDbEntity
  8
중심선
100
AcDbHatch
 10
0.0
 20
0.0
 30
0.0
210
0.0
220
0.0
230
1.0
  2
SOLID
 70
     1
 71
     0
 91
        1
 92
        0
 93
        4
 72
     1
 10
-5.912599636708399
 20
-35.80000000000003
 11
-9.358874880545653
 21
-35.80000000000003
 72
     1
 10
-9.358874880545653
 20
-35.80000000000003
 11
-13.89001288890307
 21
-41.20000000000002
 72
     1
 10
-13.89001288890307
 20
-41.20000000000002
 11
-10.44373764506579
 21
-41.20000000000002
 72
     1
 10
-10.44373764506579
 20
-41.20000000000002
 11
-5.912599636708399
 21
-35.80000000000003
 97
        0
 75
     0
 76
     1
 98
        1
 10
0.0
 20
0.0
  0
HATCH
  5
2D6
330
1F
100
AcDbEntity
  8
중심선
100
AcDbHatch
 10
0.0
 20
0.0
 30
0.0
210
0.0
220
0.0
230
1.0
  2
SOLID
 70
     1
 71
     0
 91
        1
 92
        0
 93
        4
 72
     1
 10
-0.8998356456725032
 20
-35.8
 11
-4.346110889509647
 21
-35.8
 72
     1
 10
-4.346110889509647
 20
-35.8
 11
-11.39454779139887
 21
-44.20000000000002
 72
     1
 10
-11.39454779139887
 20
-44.20000000000002
 11
-7.948272547561586
 21
-44.20000000000002
 72
     1
 10
-7.948272547561586
 20
-44.20000000000002
 11
-0.8998356456725034
 21
-35.8
 97
        0
 75
     0
 76
     1
 98
        1
 10
0.0
 20
0.0
  0
HATCH
  5
2D7
330
1F
100
AcDbEntity
  8
중심선
100
AcDbHatch
 10
0.0
 20
0.0
 30
0.0
210
0.0
220
0.0
230
1.0
  2
SOLID
 70
     1
 71
     0
 91
        1
 92
        0
 93
        6
 72
     3
 10
3.900054785339696
 20
-40.00000000005127
 11
3.960054785062284
 21
1.540850780301639E-10
 40
0.3939339440162633
 50
17.09539180608434
 51
320.0019657685073
 73
     0
 72
     1
 10
5.583054441040291
 20
-38.58789400463827
 11
7.888356314741357
 21
-36.65356729459035
 72
     3
 10
3.90005478528685
 20
-40.00000000000015
 11
6.600054785286829
 21
-1.249000902703301E-13
 40
0.6363583540795982
 50
39.99873849337412
 51
368.4976242363724
 73
     1
 72
     1
 10
10.32538727718746
 20
-39.03999999993002
 11
2.580122092122772
 21
-39.03999999993002
 72
     1
 10
2.580122092122772
 20
-39.03999999993002
 11
2.580097047676838
 21
-40.95999999992991
 72
     1
 10
2.580097047676838
 20
-40.95999999992991
 11
7.021476817148875
 21
-40.95999999992988
 97
        0
 75
     0
 76
     1
 98
        1
 10
0.0
 20
0.0
  0
POINT
  5
2D8
330
1F
100
AcDbEntity
  8
치수문자_일반주서
100
AcDbPoint
 10
0.0000000000000104
 20
-0.0000000000000035
 30
0.0
  0
DIMENSION
  5
2D9
330
1F
100
AcDbEntity
  8
치수문자_일반주서
100
AcDbDimension
  2
_D
 10
46.32001004574688
 20
-6.033129419067226
 30
0.0
 11
46.32001004574678
 21
26.15637058093286
 31
0.0
 70
   160
  1
%%c<>
 71
     2
 42
12.70000000000009
  3
SLDDIMSTYLE0
100
AcDbAlignedDimension
 13
35.39999999999999
 23
6.666870580932827
 33
0.0
 14
35.4
 24
-6.033129419067261
 34
0.0
 50
90.0000000000002
100
AcDbRotatedDimension
1001
ACAD
1000
DSTYLE
1002
{
1070
   171
1070
     6
1070
   273
1070
     7
1002
}
  0
DIMENSION
  5
2EC
330
1F
100
AcDbEntity
  8
치수문자_일반주서
100
AcDbDimension
  2
_D_1
 10
-50.60999999999999
 20
-6.033129419067301
 30
0.0
 11
-50.61000000000001
 21
-0.7004737666878919
 31
0.0
 70
   160
  1
%%c<>
 71
     2
 42
12.69999999999999
  3
SLDDIMSTYLE1
100
AcDbAlignedDimension
 13
-39.79999999999999
 23
6.666870580932725
 33
0.0
 14
-39.79999999999999
 24
-6.033129419067263
 34
0.0
 50
90.0000000000002
100
AcDbRotatedDimension
1001
ACAD
1000
DSTYLE
1002
{
1070
   171
1070
     6
1070
   273
1070
     7
1002
}
  0
DIMENSION
  5
301
330
1F
100
AcDbEntity
  8
치수문자_일반주서
100
AcDbDimension
  2
_D_2
 10
9.999999999999995
 20
23.36583943047251
 30
0.0
 11
22.69999999999999
 21
23.36583943047251
 31
0.0
 70
   160
  1
<>
 71
     2
 42
25.40000000000001
  3
SLDDIMSTYLE0
100
AcDbAlignedDimension
 13
35.4
 23
6.666870580932827
 33
0.0
 14
9.999999999999995
 24
6.666870580932731
 34
0.0
 50
0.000000000000016
100
AcDbRotatedDimension
1001
ACAD
1000
DSTYLE
1002
{
1070
   171
1070
     6
1070
   273
1070
     7
1002
}
  0
DIMENSION
  5
315
330
1F
100
AcDbEntity
  8
치수문자_일반주서
100
AcDbDimension
  2
_D_3
 10
-40.8
 20
40.03550443146835
 30
0.0
 11
0.6315440708370094
 21
40.03550443146835
 31
0.0
 70
   160
  1
<>
 71
     2
 42
76.19999999999999
  3
SLDDIMSTYLE0
100
AcDbAlignedDimension
 13
35.4
 23
6.666870580932827
 33
0.0
 14
-40.8
 24
5.666870580932724
 34
0.0
100
AcDbRotatedDimension
1001
ACAD
1000
DSTYLE
1002
{
1070
   171
1070
     6
1070
   273
1070
     7
1002
}
  0
LINE
  5
328
330
1F
100
AcDbEntity
  8
참조1
100
AcDbLine
 10
73.77629082238857
 20
7.440000000000002
 30
0.0
 11
73.77629082238857
 21
-7.440000000000002
 31
0.0
  0
LINE
  5
329
330
1F
100
AcDbEntity
  8
참조1
100
AcDbLine
 10
86.47629082238858
 20
5.440000000000002
 30
0.0
 11
73.77629082238857
 21
5.440000000000002
 31
0.0
  0
SOLID
  5
32A
330
1F
100
AcDbEntity
  8
참조1
100
AcDbTrace
 10
73.77629082238857
 20
5.440000000000002
 30
0.0
 11
80.12629082238857
 21
4.424000000000002
 31
0.0
 12
80.12629082238857
 22
6.456000000000002
 32
0.0
 13
80.12629082238857
 23
6.456000000000002
 33
0.0
  0
LINE
  5
32B
330
1F
100
AcDbEntity
  8
참조1
100
AcDbLine
 10
86.47629082238858
 20
-5.440000000000002
 30
0.0
 11
73.77629082238857
 21
-5.440000000000002
 31
0.0
  0
SOLID
  5
32C
330
1F
100
AcDbEntity
  8
참조1
100
AcDbTrace
 10
73.77629082238857
 20
-5.440000000000002
 30
0.0
 11
80.12629082238857
 21
-6.456000000000002
 31
0.0
 12
80.12629082238857
 22
-4.424000000000002
 32
0.0
 13
80.12629082238857
 23
-4.424000000000002
 33
0.0
  0
MTEXT
  5
32D
330
1F
100
AcDbEntity
  8
참조1
100
AcDbMText
 10
83.37640563295113
 20
11.06571756601608
 30
0.0
 40
3.5
 41
0.0
 71
     1
 72
     1
  1
A
  7
SLDTEXTSTYLE0
 73
     1
 44
1.0
  0
MTEXT
  5
32E
330
1F
100
AcDbEntity
  8
참조1
100
AcDbMText
 10
83.37640563295113
 20
0.1857175660160736
 30
0.0
 40
3.5
 41
0.0
 71
     1
 72
     1
  1
A
  7
SLDTEXTSTYLE0
 73
     1
 44
1.0
  0
INSERT
  5
335
330
1F
100
AcDbEntity
  8
해칭선
100
AcDbBlockReference
  2
SW_DOWELSYMBOL_0
 10
0.0000000000000071
 20
0.3168705809327365
 30
0.0
  0
ARC
  5
38A
330
1F
100
AcDbEntity
  8
외형선
  6
Continuous
 62
     1
370
    15
100
AcDbCircle
 10
29.05
 20
0.31687058093274
 30
0.0
 40
6.35
100
AcDbArc
 50
269.9999999999999
 51
90.00000000000006
  0
SPLINE
  5
38B
330
1F
100
AcDbEntity
  8
외형선
  6
Continuous
 62
     1
370
    15
100
AcDbSpline
210
0.0
220
0.0
230
1.0
 70
     8
 71
     3
 72
     9
 73
     5
 74
     3
 42
0.000000001
 43
0.0000000001
 44
0.0
 40
0.0
 40
0.0
 40
0.0
 40
0.0
 40
0.4666311987617342
 40
0.9258147739776458
 40
0.9258147739776458
 40
0.9258147739776458
 40
0.9258147739776458
 10
29.06893263029682
 20
6.666842356894429
 30
0.0
 10
28.91237254628991
 20
6.66273505188898
 30
0.0
 10
28.60175114083437
 20
6.654585996134951
 30
0.0
 10
28.30876354108876
 20
6.55121682896567
 30
0.0
 10
28.1634481958096
 20
6.499948016799332
 30
0.0
 11
29.06893263029682
 21
6.666842356894429
 31
0.0
 11
28.60373204167037
 21
6.630330879254938
 31
0.0
 11
28.1634481958096
 21
6.499948016799332
 31
0.0
  0
SPLINE
  5
38C
330
1F
100
AcDbEntity
  8
외형선
  6
Continuous
 62
     1
370
    15
100
AcDbSpline
210
0.0
220
0.0
230
1.0
 70
     8
 71
     3
 72
     9
 73
     5
 74
     3
 42
0.000000001
 43
0.0000000001
 44
0.0
 40
0.0
 40
0.0
 40
0.0
 40
0.0
 40
0.0984212820912487
 40
0.9524321865496075
 40
0.9524321865496075
 40
0.9524321865496075
 40
0.9524321865496075
 10
29.05
 20
-6.03312941906726
 30
0.0
 10
29.01744698989393
 20
-6.029054225713686
 30
0.0
 10
28.70242838888297
 20
-5.989618188772431
 30
0.0
 10
28.38753298357385
 20
-5.949207062176329
 30
0.0
 10
28.10517785772279
 20
-5.912971891565872
 30
0.0
 11
29.05
 21
-6.03312941906726
 31
0.0
 11
28.95234228522607
 21
-6.020893426519883
 31
0.0
 11
28.10517785772279
 21
-5.912971891565872
 31
0.0
  0
SPLINE
  5
38D
330
1F
100
AcDbEntity
  8
외형선
  6
Continuous
 62
     1
370
    15
100
AcDbSpline
210
0.0
220
0.0
230
1.0
 70
     8
 71
     3
 72
     9
 73
     5
 74
     0
 42
0.000000001
 43
0.0000000001
 40
1.011327544733069
 40
1.011327544733069
 40
1.011327544733069
 40
1.011327544733069
 40
2.22827703607422
 40
5.650046547093909
 40
5.650046547093909
 40
5.650046547093909
 40
5.650046547093909
 10
30.4408713026349
 20
3.403300408210865
 30
0.0
 10
30.84121687533169
 20
3.592712149993883
 30
0.0
 10
32.02392993211722
 20
4.378032435842016
 30
0.0
 10
30.32336276263056
 20
5.695216382690054
 30
0.0
 10
29.06893263029682
 20
6.666842356894429
 30
0.0
  0
SPLINE
  5
38E
330
1F
100
AcDbEntity
  8
외형선
  6
Continuous
 62
     1
370
    15
100
AcDbSpline
210
0.0
220
0.0
230
1.0
 70
     8
 71
     3
 72
     9
 73
     5
 74
     3
 42
0.000000001
 43
0.0000000001
 44
0.0
 40
0.0
 40
0.0
 40
0.0
 40
0.0
 40
2.579628178632498
 40
7.683016104054031
 40
7.683016104054031
 40
7.683016104054031
 40
7.683016104054031
 10
28.97153347011699
 20
-4.95325984988637
 30
0.0
 10
29.87395037839212
 20
-4.963788681006895
 30
0.0
 10
32.56165696195249
 20
-4.995147145659247
 30
0.0
 10
34.01204682588442
 20
-2.554247205547214
 30
0.0
 10
34.97545781168701
 20
-0.9328970596120911
 30
0.0
 11
28.97153347011699
 21
-4.95325984988637
 31
0.0
 11
31.53929787413741
 21
-4.706141446200037
 31
0.0
 11
34.97545781168701
 21
-0.9328970596120911
 31
0.0
  0
ENDSEC
  0
SECTION
  2
OBJECTS
  0
DICTIONARY
  5
C
330
0
100
AcDbDictionary
281
     1
  3
ACAD_DETAILVIEWSTYLE
350
388
  3
ACAD_GROUP
350
D
  3
ACAD_IMAGE_VARS
350
359
  3
ACAD_LAYOUT
350
1A
  3
ACAD_MLINESTYLE
350
17
  3
ACAD_PLOTSETTINGS
350
19
  3
ACAD_PLOTSTYLENAME
350
E
  3
ACAD_SCALELIST
350
47
  3
ACAD_SECTIONVIEWSTYLE
350
389
  3
AcDbVariableDictionary
350
383
  3
APPDATA
350
357
  3
DWGPROPS
350
391
  0
DICTIONARY
  5
388
102
{ACAD_REACTORS
330
C
102
}
330
C
100
AcDbDictionary
281
     1
  0
DICTIONARY
  5
D
102
{ACAD_REACTORS
330
C
102
}
330
C
100
AcDbDictionary
281
     1
  0
RASTERVARIABLES
  5
359
102
{ACAD_REACTORS
330
C
102
}
330
C
100
AcDbRasterVariables
 90
        0
 70
     1
 71
     1
 72
     1
  0
DICTIONARY
  5
1A
102
{ACAD_REACTORS
330
C
102
}
330
C
100
AcDbDictionary
281
     1
  3
Layout1
350
1E
  3
Layout2
350
26
  3
Model
350
22
  0
DICTIONARY
  5
17
102
{ACAD_REACTORS
330
C
102
}
330
C
100
AcDbDictionary
281
     1
  3
Standard
350
18
  0
DICTIONARY
  5
19
102
{ACAD_REACTORS
330
C
102
}
330
C
100
AcDbDictionary
281
     1
  0
ACDBDICTIONARYWDFLT
  5
E
102
{ACAD_REACTORS
330
C
102
}
330
C
100
AcDbDictionary
281
     1
  3
Normal
350
F
100
AcDbDictionaryWithDefault
340
F
  0
DICTIONARY
  5
47
102
{ACAD_REACTORS
330
C
102
}
330
C
100
AcDbDictionary
281
     1
  3
A0
350
48
  3
A1
350
49
  3
A2
350
4A
  3
A3
350
4B
  3
A4
350
4C
  3
A5
350
4D
  3
A6
350
4E
  3
A7
350
4F
  3
A8
350
50
  3
A9
350
51
  3
B0
350
52
  3
B1
350
53
  3
B2
350
54
  3
B3
350
55
  3
B4
350
56
  3
B5
350
57
  3
B6
350
58
  3
B7
350
59
  3
B8
350
5A
  3
B9
350
5B
  3
C0
350
5C
  3
C1
350
5D
  3
C2
350
5E
  3
C3
350
5F
  3
C4
350
60
  3
C5
350
61
  3
C6
350
62
  3
C7
350
63
  3
C8
350
64
  3
C9
350
65
  3
D0
350
66
  3
D1
350
67
  3
D2
350
68
  0
DICTIONARY
  5
389
102
{ACAD_REACTORS
330
C
102
}
330
C
100
AcDbDictionary
281
     1
  0
DICTIONARY
  5
383
102
{ACAD_REACTORS
330
C
102
}
330
C
100
AcDbDictionary
281
     1
  0
DICTIONARY
  5
357
102
{ACAD_REACTORS
330
C
102
}
330
C
100
AcDbDictionary
281
     1
  0
XRECORD
  5
391
102
{ACAD_REACTORS
330
C
102
}
330
C
100
AcDbXrecord
280
     1
  1
DWGPROPS COOKIE
  2

  3

  4

  6

  7

  8
12015048
  9

300
=
301
=
302
=
303
=
304
=
305
=
306
=
307
=
308
=
309
=
 40
0.0
 41
2458298.976303125
 42
2458304.006265903
  1

 90
        0
  0
LAYOUT
  5
1E
102
{ACAD_REACTORS
330
1A
102
}
330
1A
100
AcDbPlotSettings
  1

  2
none_device
  4

  6

 40
0.0
 41
0.0
 42
0.0
 43
0.0
 44
0.0
 45
0.0
 46
0.0
 47
0.0
 48
0.0
 49
0.0
140
0.0
141
0.0
142
1.0
143
1.0
 70
   688
 72
     1
 73
     0
 74
     5
  7

 75
    16
147
1.0
148
0.0
149
0.0
100
AcDbLayout
  1
Layout1
 70
     1
 71
     1
 10
0.0
 20
0.0
 11
420.0
 21
297.0
 12
0.0
 22
0.0
 32
0.0
 14
1.000000000000000E+20
 24
1.000000000000000E+20
 34
1.000000000000000E+20
 15
-1.000000000000000E+20
 25
-1.000000000000000E+20
 35
-1.000000000000000E+20
146
0.0
 13
0.0
 23
0.0
 33
0.0
 16
1.0
 26
0.0
 36
0.0
 17
0.0
 27
1.0
 37
0.0
 76
     0
330
1B
  0
LAYOUT
  5
26
102
{ACAD_REACTORS
330
1A
102
}
330
1A
100
AcDbPlotSettings
  1

  2
none_device
  4

  6

 40
0.0
 41
0.0
 42
0.0
 43
0.0
 44
0.0
 45
0.0
 46
0.0
 47
0.0
 48
0.0
 49
0.0
140
0.0
141
0.0
142
1.0
143
1.0
 70
   688
 72
     1
 73
     0
 74
     5
  7

 75
    16
147
1.0
148
0.0
149
0.0
100
AcDbLayout
  1
Layout2
 70
     1
 71
     2
 10
0.0
 20
0.0
 11
0.0
 21
0.0
 12
0.0
 22
0.0
 32
0.0
 14
0.0
 24
0.0
 34
0.0
 15
0.0
 25
0.0
 35
0.0
146
0.0
 13
0.0
 23
0.0
 33
0.0
 16
1.0
 26
0.0
 36
0.0
 17
0.0
 27
1.0
 37
0.0
 76
     0
330
23
  0
LAYOUT
  5
22
102
{ACAD_REACTORS
330
1A
102
}
330
1A
100
AcDbPlotSettings
  1

  2
none_device
  4
ANSI_A_(11.00_x_8.50_Inches)
  6

 40
6.35
 41
19.05
 42
6.35000508
 43
19.05000254
 44
279.4
 45
215.9
 46
109.9002604881913
 47
88.79467816083634
 48
0.0
 49
0.0
140
0.0
141
0.0
142
0.073641201888453
143
1.0
 70
  1696
 72
     0
 73
     0
 74
     0
  7

 75
     0
147
0.0235690232323232
148
0.0
149
0.0
100
AcDbLayout
  1
Model
 70
     1
 71
     0
 10
0.0
 20
0.0
 11
420.0
 21
297.0
 12
0.0
 22
0.0
 32
0.0
 14
-54.98500000000006
 24
-49.97180738881174
 34
0.0
 15
86.47629082238858
 25
44.41050443146835
 35
0.0
146
0.0
 13
0.0
 23
0.0
 33
0.0
 16
1.0
 26
0.0
 36
0.0
 17
0.0
 27
1.0
 37
0.0
 76
     0
330
1F
331
29
  0
MLINESTYLE
  5
18
102
{ACAD_REACTORS
330
17
102
}
330
17
100
AcDbMlineStyle
  2
Standard
 70
     0
  3

 62
   256
 51
90.0
 52
90.0
 71
     2
 49
0.5
 62
   256
  6
BYLAYER
 49
-0.5
 62
   256
  6
BYLAYER
  0
ACDBPLACEHOLDER
  5
F
102
{ACAD_REACTORS
330
E
102
}
330
E
  0
SCALE
  5
48
102
{ACAD_REACTORS
330
47
102
}
330
47
100
AcDbScale
 70
     0
300
1:1
140
1.0
141
1.0
290
     1
  0
SCALE
  5
49
102
{ACAD_REACTORS
330
47
102
}
330
47
100
AcDbScale
 70
     0
300
1:2
140
1.0
141
2.0
290
     0
  0
SCALE
  5
4A
102
{ACAD_REACTORS
330
47
102
}
330
47
100
AcDbScale
 70
     0
300
1:4
140
1.0
141
4.0
290
     0
  0
SCALE
  5
4B
102
{ACAD_REACTORS
330
47
102
}
330
47
100
AcDbScale
 70
     0
300
1:5
140
1.0
141
5.0
290
     0
  0
SCALE
  5
4C
102
{ACAD_REACTORS
330
47
102
}
330
47
100
AcDbScale
 70
     0
300
1:8
140
1.0
141
8.0
290
     0
  0
SCALE
  5
4D
102
{ACAD_REACTORS
330
47
102
}
330
47
100
AcDbScale
 70
     0
300
1:10
140
1.0
141
10.0
290
     0
  0
SCALE
  5
4E
102
{ACAD_REACTORS
330
47
102
}
330
47
100
AcDbScale
 70
     0
300
1:16
140
1.0
141
16.0
290
     0
  0
SCALE
  5
4F
102
{ACAD_REACTORS
330
47
102
}
330
47
100
AcDbScale
 70
     0
300
1:20
140
1.0
141
20.0
290
     0
  0
SCALE
  5
50
102
{ACAD_REACTORS
330
47
102
}
330
47
100
AcDbScale
 70
     0
300
1:30
140
1.0
141
30.0
290
     0
  0
SCALE
  5
51
102
{ACAD_REACTORS
330
47
102
}
330
47
100
AcDbScale
 70
     0
300
1:40
140
1.0
141
40.0
290
     0
  0
SCALE
  5
52
102
{ACAD_REACTORS
330
47
102
}
330
47
100
AcDbScale
 70
     0
300
1:50
140
1.0
141
50.0
290
     0
  0
SCALE
  5
53
102
{ACAD_REACTORS
330
47
102
}
330
47
100
AcDbScale
 70
     0
300
1:100
140
1.0
141
100.0
290
     0
  0
SCALE
  5
54
102
{ACAD_REACTORS
330
47
102
}
330
47
100
AcDbScale
 70
     0
300
2:1
140
2.0
141
1.0
290
     0
  0
SCALE
  5
55
102
{ACAD_REACTORS
330
47
102
}
330
47
100
AcDbScale
 70
     0
300
4:1
140
4.0
141
1.0
290
     0
  0
SCALE
  5
56
102
{ACAD_REACTORS
330
47
102
}
330
47
100
AcDbScale
 70
     0
300
8:1
140
8.0
141
1.0
290
     0
  0
SCALE
  5
57
102
{ACAD_REACTORS
330
47
102
}
330
47
100
AcDbScale
 70
     0
300
10:1
140
10.0
141
1.0
290
     0
  0
SCALE
  5
58
102
{ACAD_REACTORS
330
47
102
}
330
47
100
AcDbScale
 70
     0
300
100:1
140
100.0
141
1.0
290
     0
  0
SCALE
  5
59
102
{ACAD_REACTORS
330
47
102
}
330
47
100
AcDbScale
 70
     0
300
1/128" = 1'-0"
140
0.0078125
141
12.0
290
     0
  0
SCALE
  5
5A
102
{ACAD_REACTORS
330
47
102
}
330
47
100
AcDbScale
 70
     0
300
1/64" = 1'-0"
140
0.015625
141
12.0
290
     0
  0
SCALE
  5
5B
102
{ACAD_REACTORS
330
47
102
}
330
47
100
AcDbScale
 70
     0
300
1/32" = 1'-0"
140
0.03125
141
12.0
290
     0
  0
SCALE
  5
5C
102
{ACAD_REACTORS
330
47
102
}
330
47
100
AcDbScale
 70
     0
300
1/16" = 1'-0"
140
0.0625
141
12.0
290
     0
  0
SCALE
  5
5D
102
{ACAD_REACTORS
330
47
102
}
330
47
100
AcDbScale
 70
     0
300
3/32" = 1'-0"
140
0.09375
141
12.0
290
     0
  0
SCALE
  5
5E
102
{ACAD_REACTORS
330
47
102
}
330
47
100
AcDbScale
 70
     0
300
1/8" = 1'-0"
140
0.125
141
12.0
290
     0
  0
SCALE
  5
5F
102
{ACAD_REACTORS
330
47
102
}
330
47
100
AcDbScale
 70
     0
300
3/16" = 1'-0"
140
0.1875
141
12.0
290
     0
  0
SCALE
  5
60
102
{ACAD_REACTORS
330
47
102
}
330
47
100
AcDbScale
 70
     0
300
1/4" = 1'-0"
140
0.25
141
12.0
290
     0
  0
SCALE
  5
61
102
{ACAD_REACTORS
330
47
102
}
330
47
100
AcDbScale
 70
     0
300
3/8" = 1'-0"
140
0.375
141
12.0
290
     0
  0
SCALE
  5
62
102
{ACAD_REACTORS
330
47
102
}
330
47
100
AcDbScale
 70
     0
300
1/2" = 1'-0"
140
0.5
141
12.0
290
     0
  0
SCALE
  5
63
102
{ACAD_REACTORS
330
47
102
}
330
47
100
AcDbScale
 70
     0
300
3/4" = 1'-0"
140
0.75
141
12.0
290
     0
  0
SCALE
  5
64
102
{ACAD_REACTORS
330
47
102
}
330
47
100
AcDbScale
 70
     0
300
1" = 1'-0"
140
1.0
141
12.0
290
     0
  0
SCALE
  5
65
102
{ACAD_REACTORS
330
47
102
}
330
47
100
AcDbScale
 70
     0
300
1-1/2" = 1'-0"
140
1.5
141
12.0
290
     0
  0
SCALE
  5
66
102
{ACAD_REACTORS
330
47
102
}
330
47
100
AcDbScale
 70
     0
300
3" = 1'-0"
140
3.0
141
12.0
290
     0
  0
SCALE
  5
67
102
{ACAD_REACTORS
330
47
102
}
330
47
100
AcDbScale
 70
     0
300
6" = 1'-0"
140
6.0
141
12.0
290
     0
  0
SCALE
  5
68
102
{ACAD_REACTORS
330
47
102
}
330
47
100
AcDbScale
 70
     0
300
1'-0" = 1'-0"
140
12.0
141
12.0
290
     0
  0
ENDSEC
  0
EOF
