  0
SECTION
  2
HEADER
  9
$ACADVER
  1
AC1015
  9
$ACADMAINTVER
 70
     6
  9
$DWGCODEPAGE
  3
ANSI_949
  9
$INSBASE
 10
0.0
 20
0.0
 30
0.0
  9
$EXTMIN
 10
-61.33500000000009
 20
-50.28867796974447
 30
0.0
  9
$EXTMAX
 10
86.47629082238856
 20
45.66330386089135
 30
0.0
  9
$LIMMIN
 10
0.0
 20
0.0
  9
$LIMMAX
 10
420.0
 20
297.0
  9
$ORTHOMODE
 70
     1
  9
$REGENMODE
 70
     1
  9
$FILLMODE
 70
     1
  9
$QTEXTMODE
 70
     0
  9
$MIRRTEXT
 70
     1
  9
$LTSCALE
 40
1.0
  9
$ATTMODE
 70
     1
  9
$TEXTSIZE
 40
3.5
  9
$TRACEWID
 40
1.0
  9
$TEXTSTYLE
  7
Standard
  9
$CLAYER
  8
0
  9
$CELTYPE
  6
ByLayer
  9
$CECOLOR
 62
   256
  9
$CELTSCALE
 40
1.0
  9
$DISPSILH
 70
     0
  9
$DIMSCALE
 40
1.0
  9
$DIMASZ
 40
3.302
  9
$DIMEXO
 40
1.0
  9
$DIMDLI
 40
3.75
  9
$DIMRND
 40
0.0
  9
$DIMDLE
 40
0.0
  9
$DIMEXE
 40
1.0
  9
$DIMTP
 40
0.0
  9
$DIMTM
 40
0.0
  9
$DIMTXT
 40
3.5
  9
$DIMCEN
 40
2.5
  9
$DIMTSZ
 40
0.0
  9
$DIMTOL
 70
     0
  9
$DIMLIM
 70
     0
  9
$DIMTIH
 70
     1
  9
$DIMTOH
 70
     1
  9
$DIMSE1
 70
     0
  9
$DIMSE2
 70
     0
  9
$DIMTAD
 70
     1
  9
$DIMZIN
 70
     0
  9
$DIMBLK
  1

  9
$DIMASO
 70
     1
  9
$DIMSHO
 70
     1
  9
$DIMPOST
  1

  9
$DIMAPOST
  1

  9
$DIMALT
 70
     0
  9
$DIMALTD
 70
     3
  9
$DIMALTF
 40
0.0393700787401575
  9
$DIMLFAC
 40
1.0
  9
$DIMTOFL
 70
     1
  9
$DIMTVP
 40
0.0
  9
$DIMTIX
 70
     0
  9
$DIMSOXD
 70
     0
  9
$DIMSAH
 70
     0
  9
$DIMBLK1
  1

  9
$DIMBLK2
  1

  9
$DIMSTYLE
  2
ISO-25
  9
$DIMCLRD
 70
     0
  9
$DIMCLRE
 70
     0
  9
$DIMCLRT
 70
     0
  9
$DIMTFAC
 40
1.0
  9
$DIMGAP
 40
1.524
  9
$DIMJUST
 70
     0
  9
$DIMSD1
 70
     0
  9
$DIMSD2
 70
     0
  9
$DIMTOLJ
 70
     0
  9
$DIMTZIN
 70
     0
  9
$DIMALTZ
 70
     0
  9
$DIMALTTZ
 70
     0
  9
$DIMUPT
 70
     0
  9
$DIMDEC
 70
     2
  9
$DIMTDEC
 70
     2
  9
$DIMALTU
 70
     2
  9
$DIMALTTD
 70
     3
  9
$DIMTXSTY
  7
Standard
  9
$DIMAUNIT
 70
     0
  9
$DIMADEC
 70
     2
  9
$DIMALTRND
 40
0.0
  9
$DIMAZIN
 70
     0
  9
$DIMDSEP
 70
    44
  9
$DIMATFIT
 70
     3
  9
$DIMFRAC
 70
     0
  9
$DIMLDRBLK
  1

  9
$DIMLUNIT
 70
     2
  9
$DIMLWD
 70
    -2
  9
$DIMLWE
 70
    -2
  9
$DIMTMOVE
 70
     0
  9
$LUNITS
 70
     2
  9
$LUPREC
 70
     2
  9
$SKETCHINC
 40
1.0
  9
$FILLETRAD
 40
10.0
  9
$AUNITS
 70
     0
  9
$AUPREC
 70
     2
  9
$MENU
  1
.
  9
$ELEVATION
 40
0.0
  9
$PELEVATION
 40
0.0
  9
$THICKNESS
 40
0.0
  9
$LIMCHECK
 70
     0
  9
$CHAMFERA
 40
0.0
  9
$CHAMFERB
 40
0.0
  9
$CHAMFERC
 40
0.0
  9
$CHAMFERD
 40
0.0
  9
$SKPOLY
 70
     0
  9
$TDCREATE
 40
2458299.35160088
  9
$TDUCREATE
 40
2458298.97660088
  9
$TDUPDATE
 40
2458304.377508114
  9
$TDUUPDATE
 40
2458304.002508114
  9
$TDINDWG
 40
0.0423286227
  9
$TDUSRTIMER
 40
2458303.975416215
  9
$USRTIMER
 70
     1
  9
$ANGBASE
 50
0.0
  9
$ANGDIR
 70
     0
  9
$PDMODE
 70
     0
  9
$PDSIZE
 40
-1.0
  9
$PLINEWID
 40
0.0
  9
$SPLFRAME
 70
     0
  9
$SPLINETYPE
 70
     6
  9
$SPLINESEGS
 70
     8
  9
$HANDSEED
  5
36B
  9
$SURFTAB1
 70
     6
  9
$SURFTAB2
 70
     6
  9
$SURFTYPE
 70
     6
  9
$SURFU
 70
     6
  9
$SURFV
 70
     6
  9
$UCSBASE
  2

  9
$UCSNAME
  2

  9
$UCSORG
 10
0.0
 20
0.0
 30
0.0
  9
$UCSXDIR
 10
1.0
 20
0.0
 30
0.0
  9
$UCSYDIR
 10
0.0
 20
1.0
 30
0.0
  9
$UCSORTHOREF
  2

  9
$UCSORTHOVIEW
 70
     0
  9
$UCSORGTOP
 10
0.0
 20
0.0
 30
0.0
  9
$UCSORGBOTTOM
 10
0.0
 20
0.0
 30
0.0
  9
$UCSORGLEFT
 10
0.0
 20
0.0
 30
0.0
  9
$UCSORGRIGHT
 10
0.0
 20
0.0
 30
0.0
  9
$UCSORGFRONT
 10
0.0
 20
0.0
 30
0.0
  9
$UCSORGBACK
 10
0.0
 20
0.0
 30
0.0
  9
$PUCSBASE
  2

  9
$PUCSNAME
  2

  9
$PUCSORG
 10
0.0
 20
0.0
 30
0.0
  9
$PUCSXDIR
 10
1.0
 20
0.0
 30
0.0
  9
$PUCSYDIR
 10
0.0
 20
1.0
 30
0.0
  9
$PUCSORTHOREF
  2

  9
$PUCSORTHOVIEW
 70
     0
  9
$PUCSORGTOP
 10
0.0
 20
0.0
 30
0.0
  9
$PUCSORGBOTTOM
 10
0.0
 20
0.0
 30
0.0
  9
$PUCSORGLEFT
 10
0.0
 20
0.0
 30
0.0
  9
$PUCSORGRIGHT
 10
0.0
 20
0.0
 30
0.0
  9
$PUCSORGFRONT
 10
0.0
 20
0.0
 30
0.0
  9
$PUCSORGBACK
 10
0.0
 20
0.0
 30
0.0
  9
$USERI1
 70
     0
  9
$USERI2
 70
     0
  9
$USERI3
 70
     0
  9
$USERI4
 70
     0
  9
$USERI5
 70
     0
  9
$USERR1
 40
0.0
  9
$USERR2
 40
0.0
  9
$USERR3
 40
0.0
  9
$USERR4
 40
0.0
  9
$USERR5
 40
0.0
  9
$WORLDVIEW
 70
     1
  9
$SHADEDGE
 70
     3
  9
$SHADEDIF
 70
    70
  9
$TILEMODE
 70
     1
  9
$MAXACTVP
 70
    64
  9
$PINSBASE
 10
0.0
 20
0.0
 30
0.0
  9
$PLIMCHECK
 70
     0
  9
$PEXTMIN
 10
1.000000000000000E+20
 20
1.000000000000000E+20
 30
1.000000000000000E+20
  9
$PEXTMAX
 10
-1.000000000000000E+20
 20
-1.000000000000000E+20
 30
-1.000000000000000E+20
  9
$PLIMMIN
 10
0.0
 20
0.0
  9
$PLIMMAX
 10
0.0
 20
0.0
  9
$UNITMODE
 70
     0
  9
$VISRETAIN
 70
     1
  9
$PLINEGEN
 70
     0
  9
$PSLTSCALE
 70
     1
  9
$TREEDEPTH
 70
  3020
  9
$CMLSTYLE
  2
Standard
  9
$CMLJUST
 70
     0
  9
$CMLSCALE
 40
20.0
  9
$PROXYGRAPHICS
 70
     1
  9
$MEASUREMENT
 70
     1
  9
$CELWEIGHT
370
    -1
  9
$ENDCAPS
280
     0
  9
$JOINSTYLE
280
     0
  9
$LWDISPLAY
290
     1
  9
$INSUNITS
 70
     4
  9
$HYPERLINKBASE
  1

  9
$STYLESHEET
  1

  9
$XEDIT
290
     1
  9
$CEPSNTYPE
380
     0
  9
$PSTYLEMODE
290
     1
  9
$FINGERPRINTGUID
  2
{4C62064F-435D-4EA0-A598-607D9AF6DEDF}
  9
$VERSIONGUID
  2
{FAEB1C32-E019-11D5-929B-00C0DF256EC4}
  9
$EXTNAMES
290
     1
  9
$PSVPSCALE
 40
0.0
  9
$OLESTARTUP
290
     0
  0
ENDSEC
  0
SECTION
  2
CLASSES
  0
CLASS
  1
ACDBDICTIONARYWDFLT
  2
AcDbDictionaryWithDefault
  3
ObjectDBX Classes
 90
        0
280
     0
281
     0
  0
CLASS
  1
VISUALSTYLE
  2
AcDbVisualStyle
  3
ObjectDBX Classes
 90
     4095
280
     0
281
     0
  0
CLASS
  1
MATERIAL
  2
AcDbMaterial
  3
ObjectDBX Classes
 90
     1153
280
     0
281
     0
  0
CLASS
  1
SCALE
  2
AcDbScale
  3
ObjectDBX Classes
 90
     1153
280
     0
281
     0
  0
CLASS
  1
SUN
  2
AcDbSun
  3
SCENEOE
 90
     1153
280
     0
281
     0
  0
CLASS
  1
ACDBPLACEHOLDER
  2
AcDbPlaceHolder
  3
ObjectDBX Classes
 90
        0
280
     0
281
     0
  0
CLASS
  1
LAYOUT
  2
AcDbLayout
  3
ObjectDBX Classes
 90
        0
280
     0
281
     0
  0
CLASS
  1
TABLESTYLE
  2
AcDbTableStyle
  3
ObjectDBX Classes
 90
     4095
280
     0
281
     0
  0
CLASS
  1
MLEADERSTYLE
  2
AcDbMLeaderStyle
  3
ACDB_MLEADERSTYLE_CLASS
 90
     4095
280
     0
281
     0
  0
CLASS
  1
RASTERVARIABLES
  2
AcDbRasterVariables
  3
ISM
 90
        0
280
     0
281
     0
  0
ENDSEC
  0
SECTION
  2
TABLES
  0
TABLE
  2
VPORT
  5
8
330
0
100
AcDbSymbolTable
 70
     1
  0
VPORT
  5
29
330
8
100
AcDbSymbolTableRecord
100
AcDbViewportTableRecord
  2
*Active
 70
     0
 10
0.0
 20
0.0
 11
1.0
 21
1.0
 12
13.72142151590505
 22
0.3887252634492473
 13
0.0
 23
0.0
 14
10.0
 24
10.0
 15
10.0
 25
10.0
 16
0.0
 26
0.0
 36
1.0
 17
0.0
 27
0.0
 37
0.0
 40
133.2203260220145
 41
2.22554347826087
 42
50.0
 43
0.0
 44
0.0
 50
0.0
 51
0.0
 71
    16
 72
  2000
 73
     1
 74
     3
 75
     0
 76
     0
 77
     0
 78
     0
281
     0
 65
     1
110
0.0
120
0.0
130
0.0
111
1.0
121
0.0
131
0.0
112
0.0
122
1.0
132
0.0
 79
     0
146
0.0
  0
ENDTAB
  0
TABLE
  2
LTYPE
  5
5
330
0
100
AcDbSymbolTable
 70
     6
  0
LTYPE
  5
14
330
5
100
AcDbSymbolTableRecord
100
AcDbLinetypeTableRecord
  2
ByBlock
 70
     0
  3

 72
    65
 73
     0
 40
0.0
  0
LTYPE
  5
15
330
5
100
AcDbSymbolTableRecord
100
AcDbLinetypeTableRecord
  2
ByLayer
 70
     0
  3

 72
    65
 73
     0
 40
0.0
  0
LTYPE
  5
16
330
5
100
AcDbSymbolTableRecord
100
AcDbLinetypeTableRecord
  2
Continuous
 70
     0
  3
Solid line
 72
    65
 73
     0
 40
0.0
  0
LTYPE
  5
6A
330
5
100
AcDbSymbolTableRecord
100
AcDbLinetypeTableRecord
  2
HIDDEN
 70
     0
  3
Hidden __ __ __ __ __ __ __ __ __ __ __ __ __ __
 72
    65
 73
     2
 40
1.905
 49
1.27
 74
     0
 49
-0.635
 74
     0
  0
LTYPE
  5
6B
330
5
100
AcDbSymbolTableRecord
100
AcDbLinetypeTableRecord
  2
PHANTOM
 70
     0
  3
Phantom ______  __  __  ______  __  __  ______
 72
    65
 73
     6
 40
12.7
 49
6.35
 74
     0
 49
-1.27
 74
     0
 49
1.27
 74
     0
 49
-1.27
 74
     0
 49
1.27
 74
     0
 49
-1.27
 74
     0
  0
LTYPE
  5
6C
330
5
100
AcDbSymbolTableRecord
100
AcDbLinetypeTableRecord
  2
CENTER
 70
     0
  3
Center ____ _ ____ _ ____ _ ____ _ ____ _ ____
 72
    65
 73
     4
 40
10.16
 49
6.35
 74
     0
 49
-1.27
 74
     0
 49
1.27
 74
     0
 49
-1.27
 74
     0
  0
LTYPE
  5
6D
330
5
100
AcDbSymbolTableRecord
100
AcDbLinetypeTableRecord
  2
CENTERX2
 70
     0
  3
Center (2x) ________  __  ________  __  _____
 72
    65
 73
     4
 40
20.32
 49
12.7
 74
     0
 49
-2.54
 74
     0
 49
2.54
 74
     0
 49
-2.54
 74
     0
  0
LTYPE
  5
6E
330
5
100
AcDbSymbolTableRecord
100
AcDbLinetypeTableRecord
  2
DOT2
 70
     0
  3
Dot (.5x) ........................................
 72
    65
 73
     2
 40
0.635
 49
0.0
 74
     0
 49
-0.635
 74
     0
  0
ENDTAB
  0
TABLE
  2
LAYER
  5
2
330
0
100
AcDbSymbolTable
 70
    18
  0
LAYER
  5
10
330
2
100
AcDbSymbolTableRecord
100
AcDbLayerTableRecord
  2
0
 70
     0
 62
     7
  6
Continuous
370
    -3
390
F
  0
LAYER
  5
6F
330
2
100
AcDbSymbolTableRecord
100
AcDbLayerTableRecord
  2
FORMAT
 70
     0
 62
     2
  6
Continuous
370
    -3
390
F
  0
LAYER
  5
70
330
2
100
AcDbSymbolTableRecord
100
AcDbLayerTableRecord
  2
외형선
 70
     0
 62
     4
  6
Continuous
370
    30
390
F
  0
LAYER
  5
71
330
2
100
AcDbSymbolTableRecord
100
AcDbLayerTableRecord
  2
숨은선
 70
     0
 62
     2
  6
HIDDEN
370
    15
390
F
  0
LAYER
  5
72
330
2
100
AcDbSymbolTableRecord
100
AcDbLayerTableRecord
  2
중심선
 70
     0
 62
     1
  6
CENTERX2
370
    -3
390
F
  0
LAYER
  5
73
330
2
100
AcDbSymbolTableRecord
100
AcDbLayerTableRecord
  2
파단선
 70
     0
 62
     4
  6
Continuous
370
    -3
390
F
  0
LAYER
  5
74
330
2
100
AcDbSymbolTableRecord
100
AcDbLayerTableRecord
  2
해칭선
 70
     0
 62
   100
  6
Continuous
370
    -3
390
F
  0
LAYER
  5
75
330
2
100
AcDbSymbolTableRecord
100
AcDbLayerTableRecord
  2
가는실선
 70
     0
 62
     4
  6
Continuous
370
    -3
390
F
  0
LAYER
  5
76
330
2
100
AcDbSymbolTableRecord
100
AcDbLayerTableRecord
  2
치수_보조선
 70
     0
 62
     4
  6
Continuous
370
    -3
390
F
  0
LAYER
  5
77
330
2
100
AcDbSymbolTableRecord
100
AcDbLayerTableRecord
  2
치수문자_일반주서
 70
     0
 62
     7
  6
Continuous
370
    15
390
F
  0
LAYER
  5
78
330
2
100
AcDbSymbolTableRecord
100
AcDbLayerTableRecord
  2
개별주서
 70
     0
 62
   100
  6
Continuous
370
    30
390
F
  0
LAYER
  5
79
330
2
100
AcDbSymbolTableRecord
100
AcDbLayerTableRecord
  2
중간선
 70
     0
 62
     2
  6
Continuous
370
    15
390
F
  0
LAYER
  5
7A
330
2
100
AcDbSymbolTableRecord
100
AcDbLayerTableRecord
  2
윤곽선
 70
     0
 62
     3
  6
Continuous
370
    40
390
F
  0
LAYER
  5
7B
330
2
100
AcDbSymbolTableRecord
100
AcDbLayerTableRecord
  2
중심마크
 70
     0
 62
   100
  6
Continuous
370
    30
390
F
  0
LAYER
  5
7C
330
2
100
AcDbSymbolTableRecord
100
AcDbLayerTableRecord
  2
가상선
 70
     0
 62
     4
  6
PHANTOM
370
    -3
390
F
  0
LAYER
  5
7D
330
2
100
AcDbSymbolTableRecord
100
AcDbLayerTableRecord
  2
특수지정선
 70
     0
 62
     5
  6
CENTERX2
370
    60
390
F
  0
LAYER
  5
7E
330
2
100
AcDbSymbolTableRecord
100
AcDbLayerTableRecord
  2
참조1
 70
     0
 62
    -4
  6
Continuous
370
    -3
390
F
  0
LAYER
  5
33E
330
2
100
AcDbSymbolTableRecord
100
AcDbLayerTableRecord
  2
Defpoints
 70
     0
 62
     7
  6
Continuous
290
     0
370
    -3
390
F
  0
ENDTAB
  0
TABLE
  2
STYLE
  5
3
330
0
100
AcDbSymbolTable
 70
     2
  0
STYLE
  5
11
330
3
100
AcDbSymbolTableRecord
100
AcDbTextStyleTableRecord
  2
Standard
 70
     0
 40
0.0
 41
1.0
 50
0.0
 71
     0
 42
3.5
  3
txt
  4

  0
STYLE
  5
94
330
3
100
AcDbSymbolTableRecord
100
AcDbTextStyleTableRecord
  2
SLDTEXTSTYLE0
 70
     0
 40
0.0
 41
0.75
 50
0.0
 71
     0
 42
3.5
  3
TXT
  4

  0
ENDTAB
  0
TABLE
  2
VIEW
  5
6
330
0
100
AcDbSymbolTable
 70
     0
  0
ENDTAB
  0
TABLE
  2
UCS
  5
7
330
0
100
AcDbSymbolTable
 70
     0
  0
ENDTAB
  0
TABLE
  2
APPID
  5
9
330
0
100
AcDbSymbolTable
 70
     1
  0
APPID
  5
12
330
9
100
AcDbSymbolTableRecord
100
AcDbRegAppTableRecord
  2
ACAD
 70
     0
  0
ENDTAB
  0
TABLE
  2
DIMSTYLE
  5
A
330
0
100
AcDbSymbolTable
 70
     4
100
AcDbDimStyleTable
  0
DIMSTYLE
105
27
330
A
100
AcDbSymbolTableRecord
100
AcDbDimStyleTableRecord
  2
ISO-25
 70
     0
 41
2.5
 42
0.625
 43
3.75
 44
1.25
 73
     0
 74
     0
 77
     1
 78
     8
140
2.5
141
2.5
143
0.03937007874016
147
0.625
171
     3
172
     1
178
     0
271
     2
272
     2
274
     3
278
    44
283
     0
284
     8
340
11
  0
DIMSTYLE
105
2BD
102
{ACAD_REACTORS
330
2BC
330
2E4
102
}
330
A
100
AcDbSymbolTableRecord
100
AcDbDimStyleTableRecord
  2
SLDDIMSTYLE0
 70
     0
 41
3.302
 44
0.0
 45
0.000000001
 73
     0
 74
     0
 77
     1
 78
    12
 79
     3
140
3.5
143
0.0393700787401575
147
0.875
148
0.000000001
170
     1
173
     1
178
     0
271
     2
272
     2
276
     2
284
    12
340
94
  0
DIMSTYLE
105
2D0
102
{ACAD_REACTORS
330
2CF
102
}
330
A
100
AcDbSymbolTableRecord
100
AcDbDimStyleTableRecord
  2
SLDDIMSTYLE1
 70
     0
 41
3.302
 44
0.0
 45
0.000000001
 73
     0
 74
     0
 77
     1
 78
    12
 79
     3
140
3.5
143
0.0393700787401575
147
0.875
148
0.000000001
170
     1
172
     1
173
     1
178
     0
271
     2
272
     2
276
     2
284
    12
289
     0
340
94
  0
DIMSTYLE
105
2F9
102
{ACAD_REACTORS
330
2F8
102
}
330
A
100
AcDbSymbolTableRecord
100
AcDbDimStyleTableRecord
  2
SLDDIMSTYLE2
 70
     0
 41
3.302
 44
0.0
 45
0.000000001
 73
     0
 74
     0
 77
     1
 78
     4
 79
     1
140
3.5
143
0.0393700787401575
147
0.875
148
0.000000001
170
     1
173
     1
178
     0
271
     2
272
     2
276
     2
284
    12
340
94
  0
ENDTAB
  0
TABLE
  2
BLOCK_RECORD
  5
1
330
0
100
AcDbSymbolTable
 70
     7
  0
BLOCK_RECORD
  5
1F
330
1
100
AcDbSymbolTableRecord
100
AcDbBlockTableRecord
  2
*Model_Space
340
22
  0
BLOCK_RECORD
  5
1B
330
1
100
AcDbSymbolTableRecord
100
AcDbBlockTableRecord
  2
*Paper_Space
340
1E
  0
BLOCK_RECORD
  5
23
330
1
100
AcDbSymbolTableRecord
100
AcDbBlockTableRecord
  2
*Paper_Space0
340
26
  0
BLOCK_RECORD
  5
7F
330
1
100
AcDbSymbolTableRecord
100
AcDbBlockTableRecord
  2
블럭10
340
0
102
{BLKREFS
331
2B4
102
}
  0
BLOCK_RECORD
  5
2BE
330
1
100
AcDbSymbolTableRecord
100
AcDbBlockTableRecord
  2
_D
340
0
  0
BLOCK_RECORD
  5
2D1
330
1
100
AcDbSymbolTableRecord
100
AcDbBlockTableRecord
  2
_D_1
340
0
  0
BLOCK_RECORD
  5
2E5
330
1
100
AcDbSymbolTableRecord
100
AcDbBlockTableRecord
  2
_D_2
340
0
  0
BLOCK_RECORD
  5
2FA
330
1
100
AcDbSymbolTableRecord
100
AcDbBlockTableRecord
  2
_D_3
340
0
  0
BLOCK_RECORD
  5
313
330
1
100
AcDbSymbolTableRecord
100
AcDbBlockTableRecord
  2
SW_DOWELSYMBOL_0
340
0
102
{BLKREFS
331
319
102
}
  0
ENDTAB
  0
ENDSEC
  0
SECTION
  2
BLOCKS
  0
BLOCK
  5
20
330
1F
100
AcDbEntity
  8
0
100
AcDbBlockBegin
  2
*Model_Space
 70
     0
 10
0.0
 20
0.0
 30
0.0
  3
*Model_Space
  1
*Model_Space
  0
ENDBLK
  5
21
330
1F
100
AcDbEntity
  8
0
100
AcDbBlockEnd
  0
BLOCK
  5
1C
330
1B
100
AcDbEntity
 67
     1
  8
0
100
AcDbBlockBegin
  2
*Paper_Space
 70
     0
 10
0.0
 20
0.0
 30
0.0
  3
*Paper_Space
  1
*Paper_Space
  0
ENDBLK
  5
1D
330
1B
100
AcDbEntity
 67
     1
  8
0
100
AcDbBlockEnd
  0
BLOCK
  5
24
330
23
100
AcDbEntity
  8
0
100
AcDbBlockBegin
  2
*Paper_Space0
 70
     0
 10
0.0
 20
0.0
 30
0.0
  3
*Paper_Space0
  1
*Paper_Space0
  0
ENDBLK
  5
25
330
23
100
AcDbEntity
  8
0
100
AcDbBlockEnd
  0
BLOCK
  5
80
330
7F
100
AcDbEntity
  8
0
100
AcDbBlockBegin
  2
블럭10
 70
     2
 10
0.0
 20
0.0
 30
0.0
  3
블럭10
  1
블럭10
  0
ELLIPSE
  5
82
330
7F
100
AcDbEntity
  8
중심선
100
AcDbEllipse
 10
20.54032771741204
 20
12.0471743016438
 30
0.0
 11
6.600054785286829
 21
-1.261213355974178E-13
 31
0.0
210
0.0
220
0.0
230
1.0
 40
0.636358354079598
 41
0.9219305317359503
 42
6.513795318482858
  0
ELLIPSE
  5
83
330
7F
100
AcDbEntity
  8
중심선
100
AcDbEllipse
 10
20.54032771746488
 20
12.04717430159265
 30
0.0
 11
3.960054785062283
 21
1.540847449632565E-10
 31
0.0
210
0.0
220
0.0
230
1.0
 40
0.3939339440162632
 41
1.131841032648279
 42
5.62031148352944
  0
LINE
  5
84
330
7F
100
AcDbEntity
  8
중심선
100
AcDbLine
 10
2.268634060543552
 20
16.24717430164393
 30
0.0
 11
5.714909304380834
 21
16.24717430164393
 31
0.0
  0
LINE
  5
85
330
7F
100
AcDbEntity
  8
중심선
100
AcDbLine
 10
5.245725140726316
 20
7.84717430164391
 30
0.0
 11
8.692000384563599
 21
7.84717430164391
 31
0.0
  0
LINE
  5
86
330
7F
100
AcDbEntity
  8
중심선
100
AcDbLine
 10
15.74043728645272
 20
16.24717430164393
 30
0.0
 11
8.692000384563599
 21
7.84717430164391
 31
0.0
  0
LINE
  5
87
330
7F
100
AcDbEntity
  8
중심선
100
AcDbLine
 10
0.1404042013395286
 20
13.71084872107135
 30
0.0
 11
3.58671253028996
 21
13.71088815037384
 31
0.0
  0
LINE
  5
88
330
7F
100
AcDbEntity
  8
중심선
100
AcDbLine
 10
2.750260043222114
 20
10.84717430164391
 30
0.0
 11
6.196535287059397
 21
10.84717430164391
 31
0.0
  0
LINE
  5
89
330
7F
100
AcDbEntity
  8
중심선
100
AcDbLine
 10
12.29416204261559
 20
16.24717430164393
 30
0.0
 11
5.245725140726316
 21
7.84717430164391
 31
0.0
  0
LINE
  5
8A
330
7F
100
AcDbEntity
  8
중심선
100
AcDbLine
 10
10.72767329541681
 20
16.24717430164393
 30
0.0
 11
6.196535287059397
 21
10.84717430164391
 31
0.0
  0
LINE
  5
8B
330
7F
100
AcDbEntity
  8
중심선
100
AcDbLine
 10
7.28139805157953
 20
16.24717430164393
 30
0.0
 11
2.750260043222114
 21
10.84717430164391
 31
0.0
  0
LINE
  5
8C
330
7F
100
AcDbEntity
  8
중심선
100
AcDbLine
 10
5.714909304380834
 20
16.24717430164393
 30
0.0
 11
3.58671253028996
 21
13.71088815037384
 31
0.0
  0
LINE
  5
8D
330
7F
100
AcDbEntity
  8
중심선
100
AcDbLine
 10
2.268634060543552
 20
16.24717430164393
 30
0.0
 11
0.1404042013395286
 21
13.71084872107135
 31
0.0
  0
LINE
  5
8E
330
7F
100
AcDbEntity
  8
중심선
100
AcDbLine
 10
7.28139805157953
 20
16.24717430164393
 30
0.0
 11
10.72767329541681
 21
16.24717430164393
 31
0.0
  0
LINE
  5
8F
330
7F
100
AcDbEntity
  8
중심선
100
AcDbLine
 10
12.29416204261559
 20
16.24717430164393
 30
0.0
 11
15.74043728645272
 21
16.24717430164393
 31
0.0
  0
LINE
  5
90
330
7F
100
AcDbEntity
  8
중심선
100
AcDbLine
 10
19.22036997980202
 20
11.08717430171403
 30
0.0
 11
23.66174974927406
 21
11.08717430171406
 31
0.0
  0
LINE
  5
91
330
7F
100
AcDbEntity
  8
중심선
100
AcDbLine
 10
19.22039502424796
 20
13.00717430171391
 30
0.0
 11
19.22036997980202
 21
11.08717430171403
 31
0.0
  0
LINE
  5
92
330
7F
100
AcDbEntity
  8
중심선
100
AcDbLine
 10
19.22039502424796
 20
13.00717430171391
 30
0.0
 11
26.96566020931264
 21
13.00717430171391
 31
0.0
  0
LINE
  5
93
330
7F
100
AcDbEntity
  8
중심선
100
AcDbLine
 10
22.22332737316547
 20
13.45928029700563
 30
0.0
 11
24.52862924686651
 21
15.39360700705356
 31
0.0
  0
ATTDEF
  5
95
330
7F
100
AcDbEntity
  8
FORMAT
 62
     2
100
AcDbText
 10
-10.14163601213663
 20
2.075366912832191
 30
0.0
 40
4.233333333333333
  1
EM156040 [ 4 FLUTE ]
 41
0.75
  7
SLDTEXTSTYLE0
 11
-10.14163601213663
 21
-0.0412997538344756
 31
0.0
100
AcDbAttributeDefinition
  3

  2
AUTOATTR0
 70
     0
 74
     1
  0
ENDBLK
  5
81
330
7F
100
AcDbEntity
  8
0
100
AcDbBlockEnd
  0
BLOCK
  5
2BF
330
2BE
100
AcDbEntity
  8
0
100
AcDbBlockBegin
  2
_D
 70
     0
 10
0.0
 20
0.0
 30
0.0
  3
_D
  1
_D
  0
LINE
  5
2C1
330
2BE
100
AcDbEntity
  8
치수문자_일반주서
 62
     0
370
    -2
100
AcDbLine
 10
41.8125
 20
7.937500000000112
 30
0.0
 11
59.53219704325716
 21
7.93750000000018
 31
0.0
  0
LINE
  5
2C2
330
2BE
100
AcDbEntity
  8
치수문자_일반주서
 62
     0
370
    -2
100
AcDbLine
 10
41.8125
 20
-7.937499999999968
 30
0.0
 11
59.53219704325722
 21
-7.937499999999901
 31
0.0
  0
LINE
  5
2C3
330
2BE
100
AcDbEntity
  8
치수문자_일반주서
 62
     0
370
    -2
100
AcDbLine
 10
59.53219704325718
 20
4.63550000000018
 30
0.0
 11
59.53219704325721
 21
-4.635499999999901
 31
0.0
  0
SOLID
  5
2C4
330
2BE
100
AcDbEntity
  8
치수문자_일반주서
 62
     0
100
AcDbTrace
 10
60.08253037659051
 20
4.635500000000182
 30
0.0
 11
58.98186370992384
 21
4.635500000000178
 31
0.0
 12
59.53219704325716
 22
7.93750000000018
 32
0.0
 13
59.53219704325716
 23
7.93750000000018
 33
0.0
  0
SOLID
  5
2C5
330
2BE
100
AcDbEntity
  8
치수문자_일반주서
 62
     0
100
AcDbTrace
 10
58.98186370992387
 20
-4.635499999999903
 30
0.0
 11
60.08253037659054
 21
-4.635499999999899
 31
0.0
 12
59.53219704325722
 22
-7.937499999999901
 32
0.0
 13
59.53219704325722
 23
-7.937499999999901
 33
0.0
  0
MTEXT
  5
2C6
330
2BE
100
AcDbEntity
  8
치수문자_일반주서
 62
     0
100
AcDbMText
 10
55.15719704325719
 20
-0.3388476992764446
 30
0.0
 40
3.5
 41
0.0
 71
     2
 72
     1
  1
\A1;%%c15.88 [3/4]
  7
SLDTEXTSTYLE0
 11
-3.580687802255605E-15
 21
1.0
 31
0.0
 73
     1
 44
1.0
  0
POINT
  5
2C7
330
2BE
100
AcDbEntity
  8
Defpoints
 62
     0
100
AcDbPoint
 10
41.75
 20
7.937500000000112
 30
0.0
  0
POINT
  5
2C8
330
2BE
100
AcDbEntity
  8
Defpoints
 62
     0
100
AcDbPoint
 10
41.75
 20
-7.937499999999968
 30
0.0
  0
POINT
  5
2C9
330
2BE
100
AcDbEntity
  8
Defpoints
 62
     0
100
AcDbPoint
 10
59.53219704325722
 20
-7.937499999999901
 30
0.0
  0
ENDBLK
  5
2C0
330
2BE
100
AcDbEntity
  8
0
100
AcDbBlockEnd
  0
BLOCK
  5
2D2
330
2D1
100
AcDbEntity
  8
0
100
AcDbBlockBegin
  2
_D_1
 70
     0
 10
0.0
 20
0.0
 30
0.0
  3
_D_1
  1
_D_1
  0
LINE
  5
2D4
330
2D1
100
AcDbEntity
  8
치수문자_일반주서
 62
     0
370
    -2
100
AcDbLine
 10
-46.21250000000002
 20
7.93749999999998
 30
0.0
 11
-56.96000000000008
 21
7.937499999999938
 31
0.0
  0
LINE
  5
2D5
330
2D1
100
AcDbEntity
  8
치수문자_일반주서
 62
     0
370
    -2
100
AcDbLine
 10
-46.21250000000002
 20
-7.93750000000002
 30
0.0
 11
-56.96000000000002
 21
-7.937500000000062
 31
0.0
  0
LINE
  5
2D6
330
2D1
100
AcDbEntity
  8
치수문자_일반주서
 62
     0
370
    -2
100
AcDbLine
 10
-56.96000000000006
 20
4.635499999999938
 30
0.0
 11
-56.96000000000004
 21
-4.635500000000063
 31
0.0
  0
SOLID
  5
2D7
330
2D1
100
AcDbEntity
  8
치수문자_일반주서
 62
     0
100
AcDbTrace
 10
-56.40966666666673
 20
4.63549999999994
 30
0.0
 11
-57.5103333333334
 21
4.635499999999936
 31
0.0
 12
-56.96000000000008
 22
7.937499999999938
 32
0.0
 13
-56.96000000000008
 23
7.937499999999938
 33
0.0
  0
SOLID
  5
2D8
330
2D1
100
AcDbEntity
  8
치수문자_일반주서
 62
     0
100
AcDbTrace
 10
-57.51033333333337
 20
-4.635500000000064
 30
0.0
 11
-56.4096666666667
 21
-4.635500000000061
 31
0.0
 12
-56.96000000000002
 22
-7.937500000000062
 32
0.0
 13
-56.96000000000002
 23
-7.937500000000062
 33
0.0
  0
MTEXT
  5
2D9
330
2D1
100
AcDbEntity
  8
치수문자_일반주서
 62
     0
100
AcDbMText
 10
-61.33500000000004
 20
-1.271680434525808
 30
0.0
 40
3.5
 41
0.0
 71
     2
 72
     1
  1
\A1;%%c15.88 [3/4]
  7
SLDTEXTSTYLE0
 11
-3.580687802255624E-15
 21
1.0
 31
0.0
 73
     1
 44
1.0
  0
POINT
  5
2DA
330
2D1
100
AcDbEntity
  8
Defpoints
 62
     0
100
AcDbPoint
 10
-46.15000000000002
 20
7.93749999999998
 30
0.0
  0
POINT
  5
2DB
330
2D1
100
AcDbEntity
  8
Defpoints
 62
     0
100
AcDbPoint
 10
-46.15000000000002
 20
-7.93750000000002
 30
0.0
  0
POINT
  5
2DC
330
2D1
100
AcDbEntity
  8
Defpoints
 62
     0
100
AcDbPoint
 10
-56.96000000000002
 20
-7.93750000000006
 30
0.0
  0
ENDBLK
  5
2D3
330
2D1
100
AcDbEntity
  8
0
100
AcDbBlockEnd
  0
BLOCK
  5
2E6
330
2E5
100
AcDbEntity
  8
0
100
AcDbBlockBegin
  2
_D_2
 70
     0
 10
0.0
 20
0.0
 30
0.0
  3
_D_2
  1
_D_2
  0
LINE
  5
2E8
330
2E5
100
AcDbEntity
  8
치수문자_일반주서
 62
     0
370
    -2
100
AcDbLine
 10
41.74999999999999
 20
7.353423697267367
 30
0.0
 11
41.74999999999999
 21
24.61863885989552
 31
0.0
  0
LINE
  5
2E9
330
2E5
100
AcDbEntity
  8
치수문자_일반주서
 62
     0
370
    -2
100
AcDbLine
 10
9.999999999999988
 20
7.999999999999994
 30
0.0
 11
9.999999999999988
 21
24.61863885989552
 31
0.0
  0
LINE
  5
2EA
330
2E5
100
AcDbEntity
  8
치수문자_일반주서
 62
     0
370
    -2
100
AcDbLine
 10
38.44799999999999
 20
24.61863885989552
 30
0.0
 11
13.30199999999999
 21
24.61863885989552
 31
0.0
  0
SOLID
  5
2EB
330
2E5
100
AcDbEntity
  8
치수문자_일반주서
 62
     0
100
AcDbTrace
 10
38.44799999999999
 20
24.06830552656219
 30
0.0
 11
38.44799999999999
 21
25.16897219322886
 31
0.0
 12
41.74999999999999
 22
24.61863885989552
 32
0.0
 13
41.74999999999999
 23
24.61863885989552
 33
0.0
  0
SOLID
  5
2EC
330
2E5
100
AcDbEntity
  8
치수문자_일반주서
 62
     0
100
AcDbTrace
 10
13.30199999999999
 20
25.16897219322886
 30
0.0
 11
13.30199999999999
 21
24.06830552656219
 31
0.0
 12
9.999999999999988
 22
24.61863885989552
 32
0.0
 13
9.999999999999988
 23
24.61863885989552
 33
0.0
  0
MTEXT
  5
2ED
330
2E5
100
AcDbEntity
  8
치수문자_일반주서
 62
     0
100
AcDbMText
 10
25.87499999999999
 20
28.99363885989552
 30
0.0
 40
3.5
 41
0.0
 71
     2
 72
     1
  1
\A1;31.75 [1 1/4]
  7
SLDTEXTSTYLE0
 73
     1
 44
1.0
  0
POINT
  5
2EE
330
2E5
100
AcDbEntity
  8
Defpoints
 62
     0
100
AcDbPoint
 10
41.74999999999999
 20
7.290923697267367
 30
0.0
  0
POINT
  5
2EF
330
2E5
100
AcDbEntity
  8
Defpoints
 62
     0
100
AcDbPoint
 10
9.999999999999988
 20
7.937499999999994
 30
0.0
  0
POINT
  5
2F0
330
2E5
100
AcDbEntity
  8
Defpoints
 62
     0
100
AcDbPoint
 10
9.999999999999988
 20
24.61863885989552
 30
0.0
  0
ENDBLK
  5
2E7
330
2E5
100
AcDbEntity
  8
0
100
AcDbBlockEnd
  0
BLOCK
  5
2FB
330
2FA
100
AcDbEntity
  8
0
100
AcDbBlockBegin
  2
_D_3
 70
     0
 10
0.0
 20
0.0
 30
0.0
  3
_D_3
  1
_D_3
  0
LINE
  5
2FD
330
2FA
100
AcDbEntity
  8
치수문자_일반주서
 62
     0
370
    -2
100
AcDbLine
 10
41.74999999999999
 20
7.353423697267367
 30
0.0
 11
41.74999999999999
 21
41.28830386089135
 31
0.0
  0
LINE
  5
2FE
330
2FA
100
AcDbEntity
  8
치수문자_일반주서
 62
     0
370
    -2
100
AcDbLine
 10
-47.15000000000003
 20
6.999999999999986
 30
0.0
 11
-47.15000000000003
 21
41.28830386089135
 31
0.0
  0
LINE
  5
2FF
330
2FA
100
AcDbEntity
  8
치수문자_일반주서
 62
     0
370
    -2
100
AcDbLine
 10
38.44799999999999
 20
41.28830386089135
 30
0.0
 11
-43.84800000000003
 21
41.28830386089135
 31
0.0
  0
SOLID
  5
300
330
2FA
100
AcDbEntity
  8
치수문자_일반주서
 62
     0
100
AcDbTrace
 10
38.44799999999999
 20
40.73797052755802
 30
0.0
 11
38.44799999999999
 21
41.83863719422469
 31
0.0
 12
41.74999999999999
 22
41.28830386089135
 32
0.0
 13
41.74999999999999
 23
41.28830386089135
 33
0.0
  0
SOLID
  5
301
330
2FA
100
AcDbEntity
  8
치수문자_일반주서
 62
     0
100
AcDbTrace
 10
-43.84800000000003
 20
41.83863719422469
 30
0.0
 11
-43.84800000000003
 21
40.73797052755802
 31
0.0
 12
-47.15000000000003
 22
41.28830386089135
 32
0.0
 13
-47.15000000000003
 23
41.28830386089135
 33
0.0
  0
MTEXT
  5
302
330
2FA
100
AcDbEntity
  8
치수문자_일반주서
 62
     0
100
AcDbMText
 10
1.186801415976499
 20
45.66330386089135
 30
0.0
 40
3.5
 41
0.0
 71
     2
 72
     1
  1
\A1;88.90 [3 1/2]
  7
SLDTEXTSTYLE0
 73
     1
 44
1.0
  0
POINT
  5
303
330
2FA
100
AcDbEntity
  8
Defpoints
 62
     0
100
AcDbPoint
 10
41.74999999999999
 20
7.290923697267367
 30
0.0
  0
POINT
  5
304
330
2FA
100
AcDbEntity
  8
Defpoints
 62
     0
100
AcDbPoint
 10
-47.15000000000003
 20
6.937499999999986
 30
0.0
  0
POINT
  5
305
330
2FA
100
AcDbEntity
  8
Defpoints
 62
     0
100
AcDbPoint
 10
-47.15000000000003
 20
41.28830386089135
 30
0.0
  0
ENDBLK
  5
2FC
330
2FA
100
AcDbEntity
  8
0
100
AcDbBlockEnd
  0
BLOCK
  5
314
330
313
100
AcDbEntity
  8
0
100
AcDbBlockBegin
  2
SW_DOWELSYMBOL_0
 70
     0
 10
0.0
 20
0.0
 30
0.0
  3
SW_DOWELSYMBOL_0
  1
SW_DOWELSYMBOL_0
  0
CIRCLE
  5
316
330
313
100
AcDbEntity
  8
해칭선
 62
     0
100
AcDbCircle
 10
0.0
 20
0.0
 30
0.0
 40
3.000000000000004
  0
HATCH
  5
317
330
313
100
AcDbEntity
  8
0
  6
Continuous
 62
     0
370
     0
100
AcDbHatch
 10
0.0
 20
0.0
 30
0.0
210
0.0
220
0.0
230
1.0
  2
SOLID
 70
     1
 71
     0
 91
        1
 92
        0
 93
        3
 72
     2
 10
0.0000000000000104
 20
-0.0000000000000035
 40
3.000000000000004
 50
0.0
 51
90.0
 73
     1
 72
     1
 10
0.0000000000000104
 20
3.000000000000001
 11
0.0000000000000104
 21
-0.0000000000000036
 72
     1
 10
0.0000000000000104
 20
-0.0000000000000035
 11
3.000000000000015
 21
-0.0000000000000035
 97
        0
 75
     0
 76
     1
 98
        1
 10
0.0
 20
0.0
  0
HATCH
  5
318
330
313
100
AcDbEntity
  8
0
  6
Continuous
 62
     0
370
     0
100
AcDbHatch
 10
0.0
 20
0.0
 30
0.0
210
0.0
220
0.0
230
1.0
  2
SOLID
 70
     1
 71
     0
 91
        1
 92
        0
 93
        3
 72
     2
 10
0.0000000000000104
 20
-0.0000000000000035
 40
3.000000000000004
 50
180.0
 51
270.0000000000007
 73
     1
 72
     1
 10
0.0000000000000104
 20
-3.000000000000008
 11
0.0000000000000104
 21
-0.0000000000000036
 72
     1
 10
0.0000000000000104
 20
-0.0000000000000035
 11
-2.999999999999994
 21
-0.0000000000000035
 97
        0
 75
     0
 76
     1
 98
        1
 10
0.0
 20
0.0
  0
ENDBLK
  5
315
330
313
100
AcDbEntity
  8
0
100
AcDbBlockEnd
  0
ENDSEC
  0
SECTION
  2
ENTITIES
  0
LINE
  5
96
330
1F
100
AcDbEntity
  8
외형선
  6
Continuous
370
    15
100
AcDbLine
 10
-46.14999851584436
 20
7.937500253319734
 30
0.0
 11
-47.15000054240228
 21
6.937500089406961
 31
0.0
  0
LINE
  5
97
330
1F
100
AcDbEntity
  8
외형선
  6
Continuous
370
    15
100
AcDbLine
 10
-47.15000054240228
 20
-6.937500089406973
 30
0.0
 11
-46.14999851584436
 21
-7.937500253319747
 31
0.0
  0
LINE
  5
98
330
1F
100
AcDbEntity
  8
외형선
  6
Continuous
370
    15
100
AcDbLine
 10
10.00000004749744
 20
7.937500253319734
 30
0.0
 11
-46.14999851584436
 21
7.937500253319734
 31
0.0
  0
LINE
  5
99
330
1F
100
AcDbEntity
  8
외형선
  6
Continuous
370
    15
100
AcDbLine
 10
-46.14999851584436
 20
-7.937500253319747
 30
0.0
 11
10.00000004749744
 21
-7.937500253319747
 31
0.0
  0
LINE
  5
9A
330
1F
100
AcDbEntity
  8
외형선
  6
Continuous
 62
     1
370
    15
100
AcDbLine
 10
12.36494226939975
 20
7.937500253319734
 30
0.0
 11
12.21359583176672
 21
7.937500253319734
 31
0.0
  0
SPLINE
  5
9C
330
1F
100
AcDbEntity
  8
외형선
  6
Continuous
 62
     1
370
    15
100
AcDbSpline
210
0.0
220
0.0
230
1.0
 70
     8
 71
     3
 72
     9
 73
     5
 74
     0
 42
0.000000001
 43
0.00000001
 40
0.0
 40
0.0
 40
0.0
 40
0.0
 40
0.9225446774228673
 40
1.0
 40
1.0
 40
1.0
 40
1.0
 10
12.21362633258103
 20
7.937500253319734
 30
0.0
 10
12.19519314051874
 20
7.937350017452244
 30
0.0
 10
12.17521232819236
 20
7.937187168030232
 30
0.0
 10
12.15619006296619
 20
7.930851468141372
 30
0.0
 10
12.15471668727695
 20
7.930360734462732
 30
0.0
  0
SPLINE
  5
9F
330
1F
100
AcDbEntity
  8
외형선
  6
Continuous
 62
     1
370
    15
100
AcDbSpline
210
0.0
220
0.0
230
1.0
 70
     8
 71
     3
 72
    11
 73
     7
 74
     0
 42
0.000000001
 43
0.00000001
 40
0.0
 40
0.0
 40
0.0
 40
0.0
 40
0.2439324322854192
 40
0.500024898825211
 40
0.7561062556733728
 40
1.0
 40
1.0
 40
1.0
 40
1.0
 10
12.0659392941743
 20
7.882460020482534
 30
0.0
 10
12.02129059979221
 20
7.852744753513899
 30
0.0
 10
11.92976747315457
 20
7.791832913213097
 30
0.0
 10
11.76194003849819
 20
7.763759155473193
 30
0.0
 10
11.59411218960577
 20
7.787900078557441
 30
0.0
 10
11.50257015624501
 20
7.845938557993915
 30
0.0
 10
11.45791487395763
 20
7.874250411987298
 30
0.0
  0
SPLINE
  5
A0
330
1F
100
AcDbEntity
  8
외형선
  6
Continuous
 62
     1
370
    15
100
AcDbSpline
210
0.0
220
0.0
230
1.0
 70
     8
 71
     3
 72
     9
 73
     5
 74
     0
 42
0.000000001
 43
0.00000001
 40
0.0
 40
0.0
 40
0.0
 40
0.0
 40
0.4991193771749157
 40
1.0
 40
1.0
 40
1.0
 40
1.0
 10
11.45621986687182
 20
7.876245304942125
 30
0.0
 10
11.43185885009173
 20
7.892503294622661
 30
0.0
 10
11.38305085366014
 20
7.925076643653028
 30
0.0
 10
11.32556340785433
 20
7.931160661413384
 30
0.0
 10
11.29676906019448
 20
7.934208028018468
 30
0.0
  0
LINE
  5
A1
330
1F
100
AcDbEntity
  8
외형선
  6
Continuous
370
    15
100
AcDbLine
 10
11.2873063571751
 20
7.937500253319734
 30
0.0
 11
10.21306837536394
 21
7.937500253319734
 31
0.0
  0
SPLINE
  5
A4
330
1F
100
AcDbEntity
  8
외형선
  6
Continuous
 62
     1
370
    15
100
AcDbSpline
210
0.0
220
0.0
230
1.0
 70
     8
 71
     3
 72
     9
 73
     5
 74
     0
 42
0.000000001
 43
0.00000001
 40
0.0
 40
0.0
 40
0.0
 40
0.0
 40
0.5008056827530313
 40
1.0
 40
1.0
 40
1.0
 40
1.0
 10
10.2143732747063
 20
7.937478832900518
 30
0.0
 10
10.18544328543215
 20
7.935083274854807
 30
0.0
 10
10.1276763904658
 20
7.930299866582478
 30
0.0
 10
10.07860057424369
 20
7.898842362107907
 30
0.0
 10
10.05410220567136
 20
7.88313895463943
 30
0.0
  0
LINE
  5
A7
330
1F
100
AcDbEntity
  8
외형선
  6
Continuous
 62
     1
370
    15
100
AcDbLine
 10
10.05371500831096
 20
7.882979698479169
 30
0.0
 11
9.989678315818301
 21
7.841258309781545
 31
0.0
  0
LINE
  5
B2
330
1F
100
AcDbEntity
  8
외형선
  6
Continuous
 62
     1
370
    15
100
AcDbLine
 10
10.00000004749744
 20
-7.937500253319747
 30
0.0
 11
10.28702318761497
 21
-7.937500253319747
 31
0.0
  0
SPLINE
  5
B3
330
1F
100
AcDbEntity
  8
외형선
  6
Continuous
 62
     1
370
    15
100
AcDbSpline
210
0.0
220
0.0
230
1.0
 70
     8
 71
     3
 72
     9
 73
     5
 74
     0
 42
0.000000001
 43
0.00000001
 40
0.0
 40
0.0
 40
0.0
 40
0.0
 40
0.5010426693647404
 40
1.0
 40
1.0
 40
1.0
 40
1.0
 10
10.28974753897636
 20
-7.937314920127398
 30
0.0
 10
10.31880357123529
 20
-7.934661075554273
 30
0.0
 10
10.37679470459677
 20
-7.929364431704582
 30
0.0
 10
10.42615857807209
 20
-7.897181488180657
 30
0.0
 10
10.45078904461115
 20
-7.881123572587973
 30
0.0
  0
SPLINE
  5
B4
330
1F
100
AcDbEntity
  8
외형선
  6
Continuous
 62
     1
370
    15
100
AcDbSpline
210
0.0
220
0.0
230
1.0
 70
     8
 71
     3
 72
    11
 73
     7
 74
     0
 42
0.000000001
 43
0.00000001
 40
0.0
 40
0.0
 40
0.0
 40
0.0
 40
0.2442678579333412
 40
0.4999589747503692
 40
0.7556686262664856
 40
1.0
 40
1.0
 40
1.0
 40
1.0
 10
10.45186181180178
 20
-7.880342192947873
 30
0.0
 10
10.49629631538987
 20
-7.851761033850599
 30
0.0
 10
10.58724331531608
 20
-7.793262109266959
 30
0.0
 10
10.75482493425405
 20
-7.767955361202848
 30
0.0
 10
10.92240611949868
 20
-7.795060524558282
 30
0.0
 10
11.01332577263987
 20
-7.854858265490753
 30
0.0
 10
11.05775117501616
 20
-7.884076796472081
 30
0.0
  0
SPLINE
  5
B6
330
1F
100
AcDbEntity
  8
외형선
  6
Continuous
 62
     1
370
    15
100
AcDbSpline
210
0.0
220
0.0
230
1.0
 70
     8
 71
     3
 72
     9
 73
     5
 74
     0
 42
0.000000001
 43
0.00000001
 40
0.0
 40
0.0
 40
0.0
 40
0.0
 40
0.4992821891431366
 40
1.0
 40
1.0
 40
1.0
 40
1.0
 10
11.06182058900594
 20
-7.883919402956969
 30
0.0
 10
11.08612239363242
 20
-7.89909359974724
 30
0.0
 10
11.13479587959872
 20
-7.929485624778844
 30
0.0
 10
11.19219166995301
 20
-7.933447215517019
 30
0.0
 10
11.22093076445161
 20
-7.935430854558951
 30
0.0
  0
LINE
  5
B7
330
1F
100
AcDbEntity
  8
외형선
  6
Continuous
 62
     1
370
    15
100
AcDbLine
 10
11.21335352398454
 20
-7.937500253319747
 30
0.0
 11
12.2875440083444
 21
-7.937500253319747
 31
0.0
  0
LINE
  5
BC
330
1F
100
AcDbEntity
  8
외형선
  6
Continuous
 62
     1
370
    15
100
AcDbLine
 10
12.28755937516688
 20
-7.937500253319747
 30
0.0
 11
12.32411006093024
 21
-7.931301370263106
 31
0.0
  0
LINE
  5
BD
330
1F
100
AcDbEntity
  8
외형선
  6
Continuous
 62
     1
370
    15
100
AcDbLine
 10
12.43107641674577
 20
-7.891685701906687
 30
0.0
 11
12.44694312661885
 21
-7.882994599640376
 31
0.0
  0
LINE
  5
BE
330
1F
100
AcDbEntity
  8
외형선
  6
Continuous
 62
     1
370
    15
100
AcDbLine
 10
12.45204770565032
 20
-7.880197837948805
 30
0.0
 11
12.52742918767034
 21
-7.838933728635317
 31
0.0
  0
LINE
  5
BF
330
1F
100
AcDbEntity
  8
외형선
  6
Continuous
 62
     1
370
    15
100
AcDbLine
 10
12.59186390414833
 20
-7.804545108228928
 30
0.0
 11
12.64257860928773
 21
-7.796138059347874
 31
0.0
  0
LINE
  5
C0
330
1F
100
AcDbEntity
  8
외형선
  6
Continuous
370
    15
100
AcDbLine
 10
-46.14999851584436
 20
7.937500253319734
 30
0.0
 11
-46.14999851584436
 21
-7.937500253319747
 31
0.0
  0
LINE
  5
C1
330
1F
100
AcDbEntity
  8
외형선
  6
Continuous
370
    15
100
AcDbLine
 10
-47.15000054240228
 20
6.937500089406961
 30
0.0
 11
-47.15000054240228
 21
-6.937500089406973
 31
0.0
  0
SPLINE
  5
C2
330
1F
100
AcDbEntity
  8
외형선
  6
Continuous
370
    15
100
AcDbSpline
210
0.0
220
0.0
230
1.0
 70
     8
 71
     3
 72
    10
 73
     6
 74
     0
 42
0.000000001
 43
0.00000001
 40
0.0
 40
0.0
 40
0.0
 40
0.0
 40
0.4999999999999999
 40
0.4999999999999999
 40
1.0
 40
1.0
 40
1.0
 40
1.0
 10
10.00000000000458
 20
7.487657411957237
 30
0.0
 10
9.24151535927334
 20
7.579285978292857
 30
0.0
 10
8.485536734455867
 20
7.657237282147088
 30
0.0
 10
6.965802730261844
 20
7.785324386188539
 30
0.0
 10
6.207059693798477
 20
7.835290127751914
 30
0.0
 10
5.450047098541144
 20
7.870946347535024
 30
0.0
  0
LINE
  5
C3
330
1F
100
AcDbEntity
  8
외형선
  6
Continuous
370
    15
100
AcDbLine
 10
5.450047008693208
 20
7.870947942137712
 30
0.0
 11
5.450047008693208
 21
2.474778564646834
 31
0.0
  0
SPLINE
  5
C4
330
1F
100
AcDbEntity
  8
외형선
  6
Continuous
370
    15
100
AcDbSpline
210
0.0
220
0.0
230
1.0
 70
     8
 71
     3
 72
    10
 73
     6
 74
     0
 42
0.000000001
 43
0.00000001
 40
0.0
 40
0.0
 40
0.0
 40
0.0
 40
0.5
 40
0.5
 40
1.0
 40
1.0
 40
1.0
 40
1.0
 10
10.00000000000458
 20
0.8585583935099763
 30
0.0
 10
9.241515359273341
 20
1.13304048950391
 30
0.0
 10
8.48553673445587
 20
1.405664214124021
 30
0.0
 10
6.965802730261844
 20
1.945750113135051
 30
0.0
 10
6.207059693798464
 20
2.212610028626054
 30
0.0
 10
5.450047098541145
 20
2.474779521815436
 30
0.0
  0
SPLINE
  5
C5
330
1F
100
AcDbEntity
  8
외형선
  6
Continuous
370
    15
100
AcDbSpline
210
0.0
220
0.0
230
1.0
 70
     8
 71
     3
 72
    10
 73
     6
 74
     0
 42
0.000000001
 43
0.00000001
 40
0.0
 40
0.0
 40
0.0
 40
0.0
 40
0.5
 40
0.5
 40
1.0
 40
1.0
 40
1.0
 40
1.0
 10
10.00000000000458
 20
-2.634177809328989
 30
0.0
 10
9.241515359273341
 20
-2.373723366413192
 30
0.0
 10
8.48553673445587
 20
-2.108778874397173
 30
0.0
 10
6.965802730261844
 20
-1.571290978153035
 30
0.0
 10
6.207059693798477
 20
-1.299333895919065
 30
0.0
 10
5.450047098541144
 20
-1.025724058518922
 30
0.0
  0
LINE
  5
C6
330
1F
100
AcDbEntity
  8
외형선
  6
Continuous
370
    15
100
AcDbLine
 10
5.450047008693208
 20
-1.025713630951947
 30
0.0
 11
5.450047008693208
 21
-7.54184182733298
 31
0.0
  0
SPLINE
  5
C7
330
1F
100
AcDbEntity
  8
외형선
  6
Continuous
370
    15
100
AcDbSpline
210
0.0
220
0.0
230
1.0
 70
     8
 71
     3
 72
    10
 73
     6
 74
     0
 42
0.000000001
 43
0.00000001
 40
0.0
 40
0.0
 40
0.0
 40
0.0
 40
0.5000000000000001
 40
0.5000000000000001
 40
1.0
 40
1.0
 40
1.0
 40
1.0
 10
10.00000000000458
 20
-7.890930473330349
 30
0.0
 10
9.241515359273341
 20
-7.861065946177273
 30
0.0
 10
8.48553673445587
 20
-7.816926458227607
 30
0.0
 10
6.965802730261847
 20
-7.700278412722654
 30
0.0
 10
6.207059693798466
 20
-7.627869743273992
 30
0.0
 10
5.450047098541146
 20
-7.541841457389757
 30
0.0
  0
LINE
  5
C8
330
1F
100
AcDbEntity
  8
외형선
  6
Continuous
370
    15
100
AcDbLine
 10
10.00000004749744
 20
0.8585584000684259
 30
0.0
 11
10.00000004749744
 21
-2.63417791575194
 31
0.0
  0
LINE
  5
C9
330
1F
100
AcDbEntity
  8
외형선
  6
Continuous
370
    15
100
AcDbLine
 10
10.00000004749744
 20
7.937500253319734
 30
0.0
 11
10.00000004749744
 21
7.487657479941839
 31
0.0
  0
SPLINE
  5
CA
330
1F
100
AcDbEntity
  8
외형선
  6
Continuous
370
    15
100
AcDbSpline
210
0.0
220
0.0
230
1.0
 70
    24
 71
     3
 72
    24
 73
    20
 74
     0
 42
0.000000001
 43
0.00000001
 40
0.0
 40
0.0
 40
0.0
 40
0.0
 40
0.0625000000000002
 40
0.0625000000000002
 40
0.1250000000000004
 40
0.1250000000000004
 40
0.2500000000000003
 40
0.2500000000000003
 40
0.3750000000000002
 40
0.3750000000000002
 40
0.5000000000000002
 40
0.5000000000000002
 40
0.6250000000000002
 40
0.6250000000000002
 40
0.7500000000000001
 40
0.7500000000000001
 40
0.875
 40
0.875
 40
1.0
 40
1.0
 40
1.0
 40
1.0
 10
9.999999999999988
 20
7.487657411957822
 30
0.0
 10
9.999999999999988
 20
7.350678262585412
 30
0.0
 10
9.999999999999988
 20
7.21746068939474
 30
0.0
 10
9.999999999999988
 20
6.958961364102221
 30
0.0
 10
9.999999999999988
 20
6.828091905271844
 30
0.0
 10
9.999999999999988
 20
6.41566244689614
 30
0.0
 10
9.999999999999988
 20
6.120247439714326
 30
0.0
 10
9.999999999999988
 20
5.491897037637655
 30
0.0
 10
9.999999999999991
 20
5.158812433018745
 30
0.0
 10
9.999999999999988
 20
4.46754927297791
 30
0.0
 10
9.999999999999988
 20
4.109258004523304
 30
0.0
 10
9.999999999999988
 20
3.393537515480157
 30
0.0
 10
9.999999999999988
 20
3.036176598798416
 30
0.0
 10
9.999999999999988
 20
2.363092744288796
 30
0.0
 10
9.999999999999988
 20
2.047763516717358
 30
0.0
 10
9.999999999999988
 20
1.50785783193944
 30
0.0
 10
9.999999999999991
 20
1.283923923804173
 30
0.0
 10
9.999999999999991
 20
0.9680632202487356
 30
0.0
 10
9.999999999999991
 20
0.8766117456542366
 30
0.0
 10
9.999999999999991
 20
0.8585583935116381
 30
0.0
  0
LINE
  5
CB
330
1F
100
AcDbEntity
  8
외형선
  6
Continuous
370
    15
100
AcDbLine
 10
10.00000004749744
 20
-2.533793915063149
 30
0.0
 11
10.00000004749744
 21
-2.629736205562955
 31
0.0
  0
SPLINE
  5
CC
330
1F
100
AcDbEntity
  8
외형선
  6
Continuous
370
    15
100
AcDbSpline
210
0.0
220
0.0
230
1.0
 70
    24
 71
     3
 72
    16
 73
    12
 74
     0
 42
0.000000001
 43
0.00000001
 40
0.0
 40
0.0
 40
0.0
 40
0.0
 40
0.0183520585070191
 40
0.1432364262867345
 40
0.2681207741732543
 40
0.3930051455142029
 40
0.5178895552714864
 40
0.6427738785915286
 40
0.7676582680880761
 40
0.8925426409787208
 40
1.0
 40
1.0
 40
1.0
 40
1.0
 10
10.00000004749744
 20
-2.63417791575194
 30
0.0
 10
10.00000004749744
 20
-2.63951788056569
 30
0.0
 10
10.00000004749744
 20
-2.681195901378772
 30
0.0
 10
10.00000004749744
 20
-2.906695873283365
 30
0.0
 10
10.00000004749744
 20
-3.316470328976
 30
0.0
 10
10.00000004749744
 20
-3.873659517225782
 30
0.0
 10
10.00000004749744
 20
-4.548894243774969
 30
0.0
 10
10.00000004749744
 20
-5.323495453810129
 30
0.0
 10
10.00000004749744
 20
-6.177880774969538
 30
0.0
 10
10.00000004749744
 20
-7.042951315799471
 30
0.0
 10
10.00000004749744
 20
-7.622767254518449
 30
0.0
 10
10.00000004749744
 20
-7.890930399298674
 30
0.0
  0
SPLINE
  5
CD
330
1F
100
AcDbEntity
  8
외형선
  6
Continuous
 62
     1
370
    15
100
AcDbSpline
210
0.0
220
0.0
230
1.0
 70
     8
 71
     3
 72
     8
 73
     4
 74
     0
 42
0.000000001
 43
0.00000001
 40
0.0
 40
0.0
 40
0.0
 40
0.0
 40
1.0
 40
1.0
 40
1.0
 40
1.0
 10
10.83349618974117
 20
-2.918193414363625
 30
0.0
 10
10.77831278843775
 20
-2.899534828960672
 30
0.0
 10
10.72278658852443
 20
-2.876484406886174
 30
0.0
 10
10.6772008789177
 20
-2.853442254408221
 30
0.0
  0
SPLINE
  5
CE
330
1F
100
AcDbEntity
  8
외형선
  6
Continuous
 62
     1
370
    15
100
AcDbSpline
210
0.0
220
0.0
230
1.0
 70
     8
 71
     3
 72
    10
 73
     6
 74
     0
 42
0.000000001
 43
0.00000001
 40
0.0
 40
0.0
 40
0.0
 40
0.0
 40
0.5
 40
0.5
 40
1.0
 40
1.0
 40
1.0
 40
1.0
 10
10.67720085172732
 20
-2.853441624836731
 30
0.0
 10
10.65323062525812
 20
-2.298429060317809
 30
0.0
 10
10.62844577267702
 20
-1.712459880595731
 30
0.0
 10
10.57913848960844
 20
-0.5226755602758347
 30
0.0
 10
10.55463242104057
 20
0.0807403348499788
 30
0.0
 10
10.53118534318731
 20
0.6696536645987099
 30
0.0
  0
SPLINE
  5
CF
330
1F
100
AcDbEntity
  8
외형선
  6
Continuous
 62
     1
370
    15
100
AcDbSpline
210
0.0
220
0.0
230
1.0
 70
     8
 71
     3
 72
     8
 73
     4
 74
     0
 42
0.000000001
 43
0.00000001
 40
0.0
 40
0.0
 40
0.0
 40
0.0
 40
1.0
 40
1.0
 40
1.0
 40
1.0
 10
10.53118534318432
 20
0.6696536646822481
 30
0.0
 10
10.57602592759482
 20
0.6511048273291336
 30
0.0
 10
10.63119011506787
 20
0.6299507738370024
 30
0.0
 10
10.68809689243908
 20
0.609319366084829
 30
0.0
  0
SPLINE
  5
D0
330
1F
100
AcDbEntity
  8
외형선
  6
Continuous
 62
     1
370
    15
100
AcDbSpline
210
0.0
220
0.0
230
1.0
 70
     8
 71
     3
 72
    10
 73
     6
 74
     0
 42
0.000000001
 43
0.00000001
 40
0.0
 40
0.0
 40
0.0
 40
0.0
 40
0.5
 40
0.5
 40
1.0
 40
1.0
 40
1.0
 40
1.0
 10
10.83349635757081
 20
-2.918197322032036
 30
0.0
 10
10.80968152442145
 20
-2.363701804783304
 30
0.0
 10
10.78503559144719
 20
-1.777792978763
 30
0.0
 10
10.73594174400841
 20
-0.5866668601799034
 30
0.0
 10
10.71150985364702
 20
0.0181582712843993
 30
0.0
 10
10.68809690139809
 20
0.6093191399428667
 30
0.0
  0
SPLINE
  5
D1
330
1F
100
AcDbEntity
  8
외형선
  6
Continuous
 62
     1
370
    15
100
AcDbSpline
210
0.0
220
0.0
230
1.0
 70
     8
 71
     3
 72
    10
 73
     6
 74
     0
 42
0.000000001
 43
0.00000001
 40
0.0
 40
0.0
 40
0.0
 40
0.0
 40
0.5
 40
0.5
 40
1.0
 40
1.0
 40
1.0
 40
1.0
 10
10.67720087891762
 20
-2.85344225440813
 30
0.0
 10
10.58434394771147
 20
-2.80650597578165
 30
0.0
 10
10.47154226496036
 20
-2.762705721610701
 30
0.0
 10
10.24648409162268
 20
-2.688029632544217
 30
0.0
 10
10.13919758576789
 20
-2.658560896782924
 30
0.0
 10
10.05068397531674
 20
-2.641261802574911
 30
0.0
  0
SPLINE
  5
D2
330
1F
100
AcDbEntity
  8
외형선
  6
Continuous
370
    15
100
AcDbSpline
210
0.0
220
0.0
230
1.0
 70
     8
 71
     3
 72
     8
 73
     4
 74
     0
 42
0.000000001
 43
0.00000001
 40
0.0
 40
0.0
 40
0.0
 40
0.0
 40
1.0
 40
1.0
 40
1.0
 40
1.0
 10
10.05068397530806
 20
-2.641261802373246
 30
0.0
 10
10.03401746331878
 20
-2.253268520823026
 30
0.0
 10
10.01701924481692
 20
-1.85183698218184
 30
0.0
 10
10.00000000003053
 20
-1.44418663724518
 30
0.0
  0
SPLINE
  5
D3
330
1F
100
AcDbEntity
  8
외형선
  6
Continuous
 62
     1
370
    15
100
AcDbSpline
210
0.0
220
0.0
230
1.0
 70
     8
 71
     3
 72
     8
 73
     4
 74
     0
 42
0.000000001
 43
0.00000001
 40
0.0
 40
0.0
 40
0.0
 40
0.0
 40
1.0
 40
1.0
 40
1.0
 40
1.0
 10
9.999999999999995
 20
0.8636565320448018
 30
0.0
 10
10.1761899571897
 20
0.8054470862007821
 30
0.0
 10
10.38264868916488
 20
0.7310976059822112
 30
0.0
 10
10.531185343184
 20
0.6696536646821544
 30
0.0
  0
SPLINE
  5
D4
330
1F
100
AcDbEntity
  8
외형선
  6
Continuous
370
    15
100
AcDbSpline
210
0.0
220
0.0
230
1.0
 70
    24
 71
     3
 72
    10
 73
     6
 74
     0
 42
0.000000001
 43
0.00000001
 40
0.0
 40
0.0
 40
0.0
 40
0.0
 40
0.5
 40
0.5
 40
1.0
 40
1.0
 40
1.0
 40
1.0
 10
9.999999999999995
 20
0.8636565320447795
 30
0.0
 10
9.999999999999995
 20
0.4827141065133954
 30
0.0
 10
10.00000000000007
 20
0.0996265612695199
 30
0.0
 10
10.00000000000007
 20
-0.6708326998266322
 30
0.0
 10
10.00000000000108
 20
-1.059719613382828
 30
0.0
 10
10.00000000000108
 20
-1.444186636513834
 30
0.0
  0
SPLINE
  5
D5
330
1F
100
AcDbEntity
  8
외형선
  6
Continuous
 62
     1
370
    15
100
AcDbSpline
210
0.0
220
0.0
230
1.0
 70
     8
 71
     3
 72
     8
 73
     4
 74
     0
 42
0.000000001
 43
0.00000001
 40
0.0
 40
0.0
 40
0.0
 40
0.0
 40
1.0
 40
1.0
 40
1.0
 40
1.0
 10
40.76982394522106
 20
-1.408150834111557
 30
0.0
 10
40.71462973059586
 20
-1.388388912426059
 30
0.0
 10
40.65908832002948
 20
-1.367788856024633
 30
0.0
 10
40.61348774089881
 20
-1.35090775547737
 30
0.0
  0
SPLINE
  5
D7
330
1F
100
AcDbEntity
  8
외형선
  6
Continuous
 62
     1
370
    15
100
AcDbSpline
210
0.0
220
0.0
230
1.0
 70
     8
 71
     3
 72
     8
 73
     4
 74
     0
 42
0.000000001
 43
0.00000001
 40
0.0
 40
0.0
 40
0.0
 40
0.0
 40
1.0
 40
1.0
 40
1.0
 40
1.0
 10
40.4692139377935
 20
2.202260881342781
 30
0.0
 10
40.51407274889699
 20
2.191197214430281
 30
0.0
 10
40.56925226344083
 20
2.174500336329766
 30
0.0
 10
40.62617212712004
 20
2.15457409559868
 30
0.0
  0
SPLINE
  5
D9
330
1F
100
AcDbEntity
  8
외형선
  6
Continuous
 62
     1
370
    15
100
AcDbSpline
210
0.0
220
0.0
230
1.0
 70
     8
 71
     3
 72
     8
 73
     4
 74
     0
 42
0.000000001
 43
0.00000001
 40
0.0
 40
0.0
 40
0.0
 40
0.0
 40
1.0
 40
1.0
 40
1.0
 40
1.0
 10
41.20000000000001
 20
-1.561955873672281
 30
0.0
 10
41.05671488088041
 20
-1.51079797431458
 30
0.0
 10
40.91330795605278
 20
-1.45952433149361
 30
0.0
 10
40.76982095326738
 20
-1.408149762861487
 30
0.0
  0
SPLINE
  5
DA
330
1F
100
AcDbEntity
  8
외형선
  6
Continuous
 62
     1
370
    15
100
AcDbSpline
210
0.0
220
0.0
230
1.0
 70
     8
 71
     3
 72
     8
 73
     4
 74
     0
 42
0.000000001
 43
0.00000001
 40
0.0
 40
0.0
 40
0.0
 40
0.0
 40
1.0
 40
1.0
 40
1.0
 40
1.0
 10
41.2137478757495
 20
-1.566112779781167
 30
0.0
 10
41.20916641294686
 20
-1.5647247550067
 30
0.0
 10
41.20458378576964
 20
-1.563339119090231
 30
0.0
 10
41.19999999999998
 20
-1.56195587367227
 30
0.0
  0
SPLINE
  5
DB
330
1F
100
AcDbEntity
  8
외형선
  6
Continuous
 62
     1
370
    15
100
AcDbSpline
210
0.0
220
0.0
230
1.0
 70
     8
 71
     3
 72
    13
 73
     9
 74
     0
 42
0.000000001
 43
0.00000001
 40
0.0
 40
0.0
 40
0.0
 40
0.0
 40
0.0929630410870123
 40
0.2851977001470582
 40
0.4841281517904199
 40
0.6599419377152309
 40
0.8405870794694159
 40
0.9999999999999999
 40
0.9999999999999999
 40
0.9999999999999999
 40
0.9999999999999999
 10
41.15612098574637
 20
-1.606462523341185
 30
0.0
 10
41.1427490477329
 20
-1.615826281478323
 30
0.0
 10
41.10172579888734
 20
-1.644552991084837
 30
0.0
 10
40.92677201777715
 20
-1.767053498102388
 30
0.0
 10
40.64456217503954
 20
-1.964661353780749
 30
0.0
 10
40.28166279006338
 20
-2.218767192729857
 30
0.0
 10
39.88880709908442
 20
-2.493846529147492
 30
0.0
 10
39.59613549462996
 20
-2.698777128117638
 30
0.0
 10
39.45893646776675
 20
-2.794844796881086
 30
0.0
  0
SPLINE
  5
DC
330
1F
100
AcDbEntity
  8
외형선
  6
Continuous
 62
     1
370
    15
100
AcDbSpline
210
0.0
220
0.0
230
1.0
 70
     8
 71
     3
 72
     8
 73
     4
 74
     0
 42
0.000000001
 43
0.00000001
 40
0.3690956348975317
 40
0.3690956348975317
 40
0.3690956348975317
 40
0.3690956348975317
 40
1.0
 40
1.0
 40
1.0
 40
1.0
 10
40.90408744406542
 20
-3.565570609758503
 30
0.0
 10
40.42220544646355
 20
-3.311593232616509
 30
0.0
 10
39.940489838304
 20
-3.054660629625157
 30
0.0
 10
39.45893656067317
 20
-2.794844890733326
 30
0.0
  0
SPLINE
  5
EC
330
1F
100
AcDbEntity
  8
외형선
  6
Continuous
 62
     1
370
    15
100
AcDbSpline
210
0.0
220
0.0
230
1.0
 70
     8
 71
     3
 72
     8
 73
     4
 74
     0
 42
0.000000001
 43
0.00000001
 40
0.0
 40
0.0
 40
0.0
 40
0.0
 40
1.0
 40
1.0
 40
1.0
 40
1.0
 10
34.88769354483536
 20
-6.766451354495083
 30
0.0
 10
34.93254200914423
 20
-6.807159757832848
 30
0.0
 10
34.98771078921754
 20
-6.834957517487017
 30
0.0
 10
35.04462365023289
 20
-6.845449720377657
 30
0.0
  0
SPLINE
  5
ED
330
1F
100
AcDbEntity
  8
외형선
  6
Continuous
 62
     1
370
    15
100
AcDbSpline
210
0.0
220
0.0
230
1.0
 70
     8
 71
     3
 72
    10
 73
     6
 74
     0
 42
0.000000001
 43
0.00000001
 40
0.0
 40
0.0
 40
0.0
 40
0.0
 40
0.5
 40
0.5
 40
1.0
 40
1.0
 40
1.0
 40
1.0
 10
34.26121735275682
 20
-6.647220091345192
 30
0.0
 10
34.35407931518043
 20
-6.598421864242032
 30
0.0
 10
34.46686764674911
 20
-6.586095849097211
 30
0.0
 10
34.69189657168204
 20
-6.630830433440023
 30
0.0
 10
34.79918148140236
 20
-6.686110035477249
 30
0.0
 10
34.88769354483517
 20
-6.766451354495135
 30
0.0
  0
SPLINE
  5
EE
330
1F
100
AcDbEntity
  8
외형선
  6
Continuous
 62
     1
370
    15
100
AcDbSpline
210
0.0
220
0.0
230
1.0
 70
     8
 71
     3
 72
     8
 73
     4
 74
     0
 42
0.000000001
 43
0.00000001
 40
0.0
 40
0.0
 40
0.0
 40
0.0
 40
1.0
 40
1.0
 40
1.0
 40
1.0
 10
34.10491654318724
 20
-6.665745860045113
 30
0.0
 10
34.16009950415907
 20
-6.676659631579685
 30
0.0
 10
34.21562685138125
 20
-6.671177539389775
 30
0.0
 10
34.2612173527576
 20
-6.647220091347299
 30
0.0
  0
SPLINE
  5
EF
330
1F
100
AcDbEntity
  8
외형선
  6
Continuous
 62
     1
370
    15
100
AcDbSpline
210
0.0
220
0.0
230
1.0
 70
     8
 71
     3
 72
     8
 73
     4
 74
     0
 42
0.000000001
 43
0.00000001
 40
0.0
 40
0.0
 40
0.0
 40
0.0
 40
1.0
 40
1.0
 40
1.0
 40
1.0
 10
34.10491521833333
 20
-6.665745598022002
 30
0.0
 10
33.74225402117371
 20
-6.594020526765263
 30
0.0
 10
33.37873883070495
 20
-6.519467776584305
 30
0.0
 10
33.01504845427761
 20
-6.442219042767449
 30
0.0
  0
SPLINE
  5
F0
330
1F
100
AcDbEntity
  8
외형선
  6
Continuous
 62
     1
370
    15
100
AcDbSpline
210
0.0
220
0.0
230
1.0
 70
     8
 71
     3
 72
     8
 73
     4
 74
     0
 42
0.000000001
 43
0.00000001
 40
0.0
 40
0.0
 40
0.0
 40
0.0
 40
1.0
 40
1.0
 40
1.0
 40
1.0
 10
32.85807634661917
 20
-6.360950138794871
 30
0.0
 10
32.90293966018113
 20
-6.401540697541263
 30
0.0
 10
32.95812374474484
 20
-6.43012809393209
 30
0.0
 10
33.01504845427962
 20
-6.442219042771239
 30
0.0
  0
SPLINE
  5
F1
330
1F
100
AcDbEntity
  8
외형선
  6
Continuous
 62
     1
370
    15
100
AcDbSpline
210
0.0
220
0.0
230
1.0
 70
     8
 71
     3
 72
    10
 73
     6
 74
     0
 42
0.000000001
 43
0.00000001
 40
0.0
 40
0.0
 40
0.0
 40
0.0
 40
0.5
 40
0.5
 40
1.0
 40
1.0
 40
1.0
 40
1.0
 10
32.23147914145363
 20
-6.224651844742335
 30
0.0
 10
32.32434505287944
 20
-6.181384861860755
 30
0.0
 10
32.43715012513136
 20
-6.173425436259014
 30
0.0
 10
32.66223898387508
 20
-6.224088625560164
 30
0.0
 10
32.76954567166338
 20
-6.280851071709607
 30
0.0
 10
32.85807634661882
 20
-6.360950138794659
 30
0.0
  0
SPLINE
  5
F2
330
1F
100
AcDbEntity
  8
외형선
  6
Continuous
 62
     1
370
    15
100
AcDbSpline
210
0.0
220
0.0
230
1.0
 70
     8
 71
     3
 72
     8
 73
     4
 74
     0
 42
0.000000001
 43
0.00000001
 40
0.0
 40
0.0
 40
0.0
 40
0.0
 40
1.0
 40
1.0
 40
1.0
 40
1.0
 10
32.07515441032227
 20
-6.236668350781491
 30
0.0
 10
32.13034560646628
 20
-6.249085878298601
 30
0.0
 10
32.18588290936903
 20
-6.245895499846531
 30
0.0
 10
32.23147914145441
 20
-6.224651844744362
 30
0.0
  0
SPLINE
  5
F3
330
1F
100
AcDbEntity
  8
외형선
  6
Continuous
 62
     1
370
    15
100
AcDbSpline
210
0.0
220
0.0
230
1.0
 70
     8
 71
     3
 72
     8
 73
     4
 74
     0
 42
0.000000001
 43
0.00000001
 40
0.0
 40
0.0
 40
0.0
 40
0.0
 40
1.0
 40
1.0
 40
1.0
 40
1.0
 10
32.07515422512375
 20
-6.236668309113296
 30
0.0
 10
31.71115809838765
 20
-6.154772421978724
 30
0.0
 10
31.34757584255232
 20
-6.070303407213143
 30
0.0
 10
30.98508636016912
 20
-5.98343002539738
 30
0.0
  0
SPLINE
  5
F4
330
1F
100
AcDbEntity
  8
외형선
  6
Continuous
 62
     1
370
    15
100
AcDbSpline
210
0.0
220
0.0
230
1.0
 70
     8
 71
     3
 72
     8
 73
     4
 74
     0
 42
0.000000001
 43
0.00000001
 40
0.0
 40
0.0
 40
0.0
 40
0.0
 40
1.0
 40
1.0
 40
1.0
 40
1.0
 10
30.82808340836072
 20
-5.90041804561496
 30
0.0
 10
30.87296091180393
 20
-5.940593033137832
 30
0.0
 10
30.92815273941368
 20
-5.969785447068872
 30
0.0
 10
30.98508649440523
 20
-5.98343005757129
 30
0.0
  0
SPLINE
  5
F5
330
1F
100
AcDbEntity
  8
외형선
  6
Continuous
 62
     1
370
    15
100
AcDbSpline
210
0.0
220
0.0
230
1.0
 70
     8
 71
     3
 72
    10
 73
     6
 74
     0
 42
0.000000001
 43
0.00000001
 40
0.0
 40
0.0
 40
0.0
 40
0.0
 40
0.5
 40
0.5
 40
1.0
 40
1.0
 40
1.0
 40
1.0
 10
30.20140180025404
 20
-5.747592136591249
 30
0.0
 10
30.2942956950322
 20
-5.710287357527757
 30
0.0
 10
30.40713088736067
 20
-5.706887746823063
 30
0.0
 10
30.63223674417402
 20
-5.763293175112433
 30
0.0
 10
30.7395433854002
 20
-5.821155741680736
 30
0.0
 10
30.82808340836043
 20
-5.90041804561487
 30
0.0
  0
SPLINE
  5
F6
330
1F
100
AcDbEntity
  8
외형선
  6
Continuous
 62
     1
370
    15
100
AcDbSpline
210
0.0
220
0.0
230
1.0
 70
     8
 71
     3
 72
     8
 73
     4
 74
     0
 42
0.000000001
 43
0.00000001
 40
0.0
 40
0.0
 40
0.0
 40
0.0
 40
1.0
 40
1.0
 40
1.0
 40
1.0
 10
30.04506464472682
 20
-5.752904406072781
 30
0.0
 10
30.1002601629606
 20
-5.766742207872046
 30
0.0
 10
30.15580087933361
 20
-5.765904774728336
 30
0.0
 10
30.20140180025483
 20
-5.747592136593206
 30
0.0
  0
SPLINE
  5
F7
330
1F
100
AcDbEntity
  8
외형선
  6
Continuous
 62
     1
370
    15
100
AcDbSpline
210
0.0
220
0.0
230
1.0
 70
     8
 71
     3
 72
     8
 73
     4
 74
     0
 42
0.000000001
 43
0.00000001
 40
0.0
 40
0.0
 40
0.0
 40
0.0
 40
1.0
 40
1.0
 40
1.0
 40
1.0
 10
30.04506455697907
 20
-5.752904384073274
 30
0.0
 10
29.6820455333871
 20
-5.661893637559153
 30
0.0
 10
29.31845566273267
 20
-5.568443835253682
 30
0.0
 10
28.95497436486757
 20
-5.47272668468848
 30
0.0
  0
SPLINE
  5
F8
330
1F
100
AcDbEntity
  8
외형선
  6
Continuous
 62
     1
370
    15
100
AcDbSpline
210
0.0
220
0.0
230
1.0
 70
     8
 71
     3
 72
     8
 73
     4
 74
     0
 42
0.000000001
 43
0.00000001
 40
0.0
 40
0.0
 40
0.0
 40
0.0
 40
1.0
 40
1.0
 40
1.0
 40
1.0
 10
28.79797874187452
 20
-5.388938500641489
 30
0.0
 10
28.84285008744938
 20
-5.428276462012962
 30
0.0
 10
28.89804189401616
 20
-5.457734403347692
 30
0.0
 10
28.9549743813083
 20
-5.472726689020871
 30
0.0
  0
SPLINE
  5
F9
330
1F
100
AcDbEntity
  8
외형선
  6
Continuous
 62
     1
370
    15
100
AcDbSpline
210
0.0
220
0.0
230
1.0
 70
     8
 71
     3
 72
    10
 73
     6
 74
     0
 42
0.000000001
 43
0.00000001
 40
0.0
 40
0.0
 40
0.0
 40
0.0
 40
0.5
 40
0.5
 40
1.0
 40
1.0
 40
1.0
 40
1.0
 10
28.17132794386721
 20
-5.221483007344216
 30
0.0
 10
28.26420199564638
 20
-5.190442469487714
 30
0.0
 10
28.3770133899647
 20
-5.191541873314615
 30
0.0
 10
28.60211803733425
 20
-5.252975921906543
 30
0.0
 10
28.709434107544
 20
-5.311312894359059
 30
0.0
 10
28.79797874187415
 20
-5.388938500641298
 30
0.0
  0
SPLINE
  5
FA
330
1F
100
AcDbEntity
  8
외형선
  6
Continuous
 62
     1
370
    15
100
AcDbSpline
210
0.0
220
0.0
230
1.0
 70
     8
 71
     3
 72
     8
 73
     4
 74
     0
 42
0.000000001
 43
0.00000001
 40
0.0
 40
0.0
 40
0.0
 40
0.0
 40
1.0
 40
1.0
 40
1.0
 40
1.0
 10
28.01499726311384
 20
-5.220079266820095
 30
0.0
 10
28.07018863454085
 20
-5.235214576962107
 30
0.0
 10
28.12572810421737
 20
-5.236723470336438
 30
0.0
 10
28.17132794386801
 20
-5.221483007346079
 30
0.0
  0
SPLINE
  5
FB
330
1F
100
AcDbEntity
  8
외형선
  6
Continuous
 62
     1
370
    15
100
AcDbSpline
210
0.0
220
0.0
230
1.0
 70
     8
 71
     3
 72
     8
 73
     4
 74
     0
 42
0.000000001
 43
0.00000001
 40
0.0
 40
0.0
 40
0.0
 40
0.0
 40
1.0
 40
1.0
 40
1.0
 40
1.0
 10
28.01499726042884
 20
-5.220079266083275
 30
0.0
 10
27.65103523605199
 20
-5.120268770756235
 30
0.0
 10
27.28851549241625
 20
-5.018411286866003
 30
0.0
 10
26.92496828194821
 20
-4.914406252807606
 30
0.0
  0
SPLINE
  5
FC
330
1F
100
AcDbEntity
  8
외형선
  6
Continuous
 62
     1
370
    15
100
AcDbSpline
210
0.0
220
0.0
230
1.0
 70
     8
 71
     3
 72
     8
 73
     4
 74
     0
 42
0.000000001
 43
0.00000001
 40
0.0
 40
0.0
 40
0.0
 40
0.0
 40
1.0
 40
1.0
 40
1.0
 40
1.0
 10
26.76799171917646
 20
-4.830371506068596
 30
0.0
 10
26.81285835661786
 20
-4.868585812575725
 30
0.0
 10
26.86804398032908
 20
-4.89812112186329
 30
0.0
 10
26.92496828659799
 20
-4.914406254140587
 30
0.0
  0
SPLINE
  5
FD
330
1F
100
AcDbEntity
  8
외형선
  6
Continuous
 62
     1
370
    15
100
AcDbSpline
210
0.0
220
0.0
230
1.0
 70
     8
 71
     3
 72
    10
 73
     6
 74
     0
 42
0.000000001
 43
0.00000001
 40
0.0
 40
0.0
 40
0.0
 40
0.0
 40
0.5
 40
0.5
 40
1.0
 40
1.0
 40
1.0
 40
1.0
 10
26.14143393673753
 20
-4.64941328999867
 30
0.0
 10
26.23429994408128
 20
-4.624894606701941
 30
0.0
 10
26.34711039419094
 20
-4.63051814951725
 30
0.0
 10
26.57218019134142
 20
-4.69658071233855
 30
0.0
 10
26.6794714718217
 20
-4.754976066217966
 30
0.0
 10
26.76799171917611
 20
-4.830371506068428
 30
0.0
  0
SPLINE
  5
FE
330
1F
100
AcDbEntity
  8
외형선
  6
Continuous
 62
     1
370
    15
100
AcDbSpline
210
0.0
220
0.0
230
1.0
 70
     8
 71
     3
 72
     8
 73
     4
 74
     0
 42
0.000000001
 43
0.00000001
 40
0.0
 40
0.0
 40
0.0
 40
0.0
 40
1.0
 40
1.0
 40
1.0
 40
1.0
 10
25.98512931592495
 20
-4.641343977320376
 30
0.0
 10
26.04031549633818
 20
-4.657623399983684
 30
0.0
 10
26.09584489327273
 20
-4.661449807456979
 30
0.0
 10
26.14143393673832
 20
-4.649413290000416
 30
0.0
  0
SPLINE
  5
FF
330
1F
100
AcDbEntity
  8
외형선
  6
Continuous
 62
     1
370
    15
100
AcDbSpline
210
0.0
220
0.0
230
1.0
 70
     8
 71
     3
 72
     8
 73
     4
 74
     0
 42
0.000000001
 43
0.00000001
 40
0.0
 40
0.0
 40
0.0
 40
0.0
 40
1.0
 40
1.0
 40
1.0
 40
1.0
 10
25.98512933269059
 20
-4.641343982265759
 30
0.0
 10
25.62193972937456
 20
-4.534206343599018
 30
0.0
 10
25.25846252937413
 20
-4.425111864333479
 30
0.0
 10
24.89537656825859
 20
-4.314264824379946
 30
0.0
  0
SPLINE
  5
100
330
1F
100
AcDbEntity
  8
외형선
  6
Continuous
 62
     1
370
    15
100
AcDbSpline
210
0.0
220
0.0
230
1.0
 70
     8
 71
     3
 72
     8
 73
     4
 74
     0
 42
0.000000001
 43
0.00000001
 40
0.0
 40
0.0
 40
0.0
 40
0.0
 40
1.0
 40
1.0
 40
1.0
 40
1.0
 10
24.73844913986306
 20
-4.230856972903139
 30
0.0
 10
24.78329547638899
 20
-4.267579104448965
 30
0.0
 10
24.83846460356908
 20
-4.29689008798635
 30
0.0
 10
24.895376365873
 20
-4.314264762595845
 30
0.0
  0
SPLINE
  5
101
330
1F
100
AcDbEntity
  8
외형선
  6
Continuous
 62
     1
370
    15
100
AcDbSpline
210
0.0
220
0.0
230
1.0
 70
     8
 71
     3
 72
    10
 73
     6
 74
     0
 42
0.000000001
 43
0.00000001
 40
0.0
 40
0.0
 40
0.0
 40
0.0
 40
0.5
 40
0.5
 40
1.0
 40
1.0
 40
1.0
 40
1.0
 10
24.11206594903615
 20
-4.038021254412105
 30
0.0
 10
24.20489722929822
 20
-4.020291993939042
 30
0.0
 10
24.31766060094472
 20
-4.030407930694665
 30
0.0
 10
24.54267901661922
 20
-4.100491140061145
 30
0.0
 10
24.64995140368685
 20
-4.158391176115015
 30
0.0
 10
24.73844913986271
 20
-4.230856972902989
 30
0.0
  0
SPLINE
  5
102
330
1F
100
AcDbEntity
  8
외형선
  6
Continuous
 62
     1
370
    15
100
AcDbSpline
210
0.0
220
0.0
230
1.0
 70
     8
 71
     3
 72
     8
 73
     4
 74
     0
 42
0.000000001
 43
0.00000001
 40
0.0
 40
0.0
 40
0.0
 40
0.0
 40
1.0
 40
1.0
 40
1.0
 40
1.0
 10
23.95579801667046
 20
-4.023236384511258
 30
0.0
 10
24.01096772051783
 20
-4.040571004245512
 30
0.0
 10
24.0664847368011
 20
-4.046726522531354
 30
0.0
 10
24.11206594903693
 20
-4.038021254413668
 30
0.0
  0
SPLINE
  5
103
330
1F
100
AcDbEntity
  8
외형선
  6
Continuous
 62
     1
370
    15
100
AcDbSpline
210
0.0
220
0.0
230
1.0
 70
     8
 71
     3
 72
     8
 73
     4
 74
     0
 42
0.000000001
 43
0.00000001
 40
0.0
 40
0.0
 40
0.0
 40
0.0
 40
1.0
 40
1.0
 40
1.0
 40
1.0
 10
23.95579802836119
 20
-4.023236388184441
 30
0.0
 10
23.59283768302584
 20
-3.909192282011118
 30
0.0
 10
23.23023656022471
 20
-3.793510470579194
 30
0.0
 10
22.86638298045437
 20
-3.676160742088296
 30
0.0
  0
SPLINE
  5
104
330
1F
100
AcDbEntity
  8
외형선
  6
Continuous
 62
     1
370
    15
100
AcDbSpline
210
0.0
220
0.0
230
1.0
 70
     8
 71
     3
 72
     8
 73
     4
 74
     0
 42
0.000000001
 43
0.00000001
 40
0.0
 40
0.0
 40
0.0
 40
0.0
 40
1.0
 40
1.0
 40
1.0
 40
1.0
 10
22.70950539634418
 20
-3.594031745486741
 30
0.0
 10
22.75433559241826
 20
-3.628957051582202
 30
0.0
 10
22.80948843077318
 20
-3.657811163224026
 30
0.0
 10
22.86638298045165
 20
-3.676160742089627
 30
0.0
  0
SPLINE
  5
105
330
1F
100
AcDbEntity
  8
외형선
  6
Continuous
 62
     1
370
    15
100
AcDbSpline
210
0.0
220
0.0
230
1.0
 70
     8
 71
     3
 72
    10
 73
     6
 74
     0
 42
0.000000001
 43
0.00000001
 40
0.0
 40
0.0
 40
0.0
 40
0.0
 40
0.5
 40
0.5
 40
1.0
 40
1.0
 40
1.0
 40
1.0
 10
22.08321551411127
 20
-3.391228681092493
 30
0.0
 10
22.17603487791006
 20
-3.380338494821766
 30
0.0
 10
22.28879289972122
 20
-3.394782934524113
 30
0.0
 10
22.51378404115722
 20
-3.468205636768708
 30
0.0
 10
22.62103754283282
 20
-3.525110189614173
 30
0.0
 10
22.70950539634382
 20
-3.594031745486629
 30
0.0
  0
SPLINE
  5
106
330
1F
100
AcDbEntity
  8
외형선
  6
Continuous
 62
     1
370
    15
100
AcDbSpline
210
0.0
220
0.0
230
1.0
 70
     8
 71
     3
 72
     8
 73
     4
 74
     0
 42
0.000000001
 43
0.00000001
 40
0.0
 40
0.0
 40
0.0
 40
0.0
 40
1.0
 40
1.0
 40
1.0
 40
1.0
 10
21.92695223098228
 20
-3.370055116113996
 30
0.0
 10
21.98212570252236
 20
-3.388216070002116
 30
0.0
 10
22.03764080276372
 20
-3.396575809920051
 30
0.0
 10
22.08321551411144
 20
-3.391228681094013
 30
0.0
  0
SPLINE
  5
107
330
1F
100
AcDbEntity
  8
외형선
  6
Continuous
 62
     1
370
    15
100
AcDbSpline
210
0.0
220
0.0
230
1.0
 70
     8
 71
     3
 72
     8
 73
     4
 74
     0
 42
0.000000001
 43
0.00000001
 40
0.0
 40
0.0
 40
0.0
 40
0.0
 40
1.0
 40
1.0
 40
1.0
 40
1.0
 10
21.92695223097921
 20
-3.370055116113056
 30
0.0
 10
21.56352196693479
 20
-3.250428054720524
 30
0.0
 10
21.20008610399011
 20
-3.129398868814831
 30
0.0
 10
20.8373231467696
 20
-3.007196078793689
 30
0.0
  0
SPLINE
  5
108
330
1F
100
AcDbEntity
  8
외형선
  6
Continuous
 62
     1
370
    15
100
AcDbSpline
210
0.0
220
0.0
230
1.0
 70
     8
 71
     3
 72
     8
 73
     4
 74
     0
 42
0.000000001
 43
0.00000001
 40
0.0
 40
0.0
 40
0.0
 40
0.0
 40
1.0
 40
1.0
 40
1.0
 40
1.0
 10
20.68038066296728
 20
-2.926997593338009
 30
0.0
 10
20.72523333678729
 20
-2.95985427520371
 30
0.0
 10
20.78040652081541
 20
-2.988022758168801
 30
0.0
 10
20.8373231467655
 20
-3.007196078794232
 30
0.0
  0
SPLINE
  5
109
330
1F
100
AcDbEntity
  8
외형선
  6
Continuous
 62
     1
370
    15
100
AcDbSpline
210
0.0
220
0.0
230
1.0
 70
     8
 71
     3
 72
    10
 73
     6
 74
     0
 42
0.000000001
 43
0.00000001
 40
0.0
 40
0.0
 40
0.0
 40
0.0
 40
0.5
 40
0.5
 40
1.0
 40
1.0
 40
1.0
 40
1.0
 10
20.05386328625961
 20
-2.715206540853469
 30
0.0
 10
20.14672509612528
 20
-2.711414673183189
 30
0.0
 10
20.25950680992151
 20
-2.730260365057998
 30
0.0
 10
20.48456274517988
 20
-2.806654625792283
 30
0.0
 10
20.59185901128581
 20
-2.862151342271682
 30
0.0
 10
20.68038066296696
 20
-2.926997593337942
 30
0.0
  0
SPLINE
  5
10A
330
1F
100
AcDbEntity
  8
외형선
  6
Continuous
 62
     1
370
    15
100
AcDbSpline
210
0.0
220
0.0
230
1.0
 70
     8
 71
     3
 72
     8
 73
     4
 74
     0
 42
0.000000001
 43
0.00000001
 40
0.0
 40
0.0
 40
0.0
 40
0.0
 40
1.0
 40
1.0
 40
1.0
 40
1.0
 10
19.89755218701166
 20
-2.687541306733378
 30
0.0
 10
19.95273742969476
 20
-2.706469201016136
 30
0.0
 10
20.00826819658018
 20
-2.717068345473072
 30
0.0
 10
20.05386328626041
 20
-2.715206540854813
 30
0.0
  0
SPLINE
  5
10B
330
1F
100
AcDbEntity
  8
외형선
  6
Continuous
 62
     1
370
    15
100
AcDbSpline
210
0.0
220
0.0
230
1.0
 70
     8
 71
     3
 72
     8
 73
     4
 74
     0
 42
0.000000001
 43
0.00000001
 40
0.0
 40
0.0
 40
0.0
 40
0.0
 40
1.0
 40
1.0
 40
1.0
 40
1.0
 10
19.89755218701
 20
-2.687541306733118
 30
0.0
 10
19.53500388517854
 20
-2.563191469782572
 30
0.0
 10
19.17146610592123
 20
-2.437610371544925
 30
0.0
 10
18.80761763719147
 20
-2.311029307451343
 30
0.0
  0
SPLINE
  5
10C
330
1F
100
AcDbEntity
  8
외형선
  6
Continuous
 62
     1
370
    15
100
AcDbSpline
210
0.0
220
0.0
230
1.0
 70
     8
 71
     3
 72
     8
 73
     4
 74
     0
 42
0.000000001
 43
0.00000001
 40
0.0
 40
0.0
 40
0.0
 40
0.0
 40
1.0
 40
1.0
 40
1.0
 40
1.0
 10
18.65063721154351
 20
-2.233564810601634
 30
0.0
 10
18.69550376044849
 20
-2.264025874538567
 30
0.0
 10
18.75069064116005
 20
-2.291224690001692
 30
0.0
 10
18.80761763718762
 20
-2.311029307451614
 30
0.0
  0
SPLINE
  5
10D
330
1F
100
AcDbEntity
  8
외형선
  6
Continuous
 62
     1
370
    15
100
AcDbSpline
210
0.0
220
0.0
230
1.0
 70
     8
 71
     3
 72
    10
 73
     6
 74
     0
 42
0.000000001
 43
0.00000001
 40
0.0
 40
0.0
 40
0.0
 40
0.0
 40
0.5
 40
0.5
 40
1.0
 40
1.0
 40
1.0
 40
1.0
 10
18.02401639481167
 20
-2.015656434531786
 30
0.0
 10
18.11688667386559
 20
-2.018796193775221
 30
0.0
 10
18.22969779291022
 20
-2.041624131947358
 30
0.0
 10
18.45479349861191
 20
-2.119971133075278
 30
0.0
 10
18.56210290473992
 20
-2.173456573040943
 30
0.0
 10
18.65063721154364
 20
-2.23356481060299
 30
0.0
  0
SPLINE
  5
10E
330
1F
100
AcDbEntity
  8
외형선
  6
Continuous
 62
     1
370
    15
100
AcDbSpline
210
0.0
220
0.0
230
1.0
 70
     8
 71
     3
 72
     8
 73
     4
 74
     0
 42
0.000000001
 43
0.00000001
 40
0.0
 40
0.0
 40
0.0
 40
0.0
 40
1.0
 40
1.0
 40
1.0
 40
1.0
 10
17.86768784264614
 20
-1.982050717440974
 30
0.0
 10
17.92288076388097
 20
-2.001484786172822
 30
0.0
 10
17.97841934159061
 20
-2.014114888940544
 30
0.0
 10
18.02401639481245
 20
-2.015656434532925
 30
0.0
  0
SPLINE
  5
10F
330
1F
100
AcDbEntity
  8
외형선
  6
Continuous
 62
     1
370
    15
100
AcDbSpline
210
0.0
220
0.0
230
1.0
 70
     8
 71
     3
 72
     8
 73
     4
 74
     0
 42
0.000000001
 43
0.00000001
 40
0.0
 40
0.0
 40
0.0
 40
0.0
 40
1.0
 40
1.0
 40
1.0
 40
1.0
 10
17.86768824040724
 20
-1.982050857497788
 30
0.0
 10
17.50382221985287
 20
-1.853929405347874
 30
0.0
 10
17.1402343115342
 20
-1.725014052371582
 30
0.0
 10
16.77760362218272
 20
-1.595548612532298
 30
0.0
  0
SPLINE
  5
110
330
1F
100
AcDbEntity
  8
외형선
  6
Continuous
 62
     1
370
    15
100
AcDbSpline
210
0.0
220
0.0
230
1.0
 70
     8
 71
     3
 72
     8
 73
     4
 74
     0
 42
0.000000001
 43
0.00000001
 40
0.0
 40
0.0
 40
0.0
 40
0.0
 40
1.0
 40
1.0
 40
1.0
 40
1.0
 10
16.620599560843
 20
-1.521283390209141
 30
0.0
 10
16.66547496430977
 20
-1.549153410201631
 30
0.0
 10
16.72066788446687
 20
-1.575221567573706
 30
0.0
 10
16.77760361966032
 20
-1.595548611633046
 30
0.0
  0
SPLINE
  5
111
330
1F
100
AcDbEntity
  8
외형선
  6
Continuous
 62
     1
370
    15
100
AcDbSpline
210
0.0
220
0.0
230
1.0
 70
     8
 71
     3
 72
    10
 73
     6
 74
     0
 42
0.000000001
 43
0.00000001
 40
0.0
 40
0.0
 40
0.0
 40
0.0
 40
0.5
 40
0.5
 40
1.0
 40
1.0
 40
1.0
 40
1.0
 10
15.99390856035494
 20
-1.298039999756014
 30
0.0
 10
16.08680697463645
 20
-1.308245226665264
 30
0.0
 10
16.19964493762485
 20
-1.335073963896689
 30
0.0
 10
16.42474966831153
 20
-1.415088139063009
 30
0.0
 10
16.53205226788618
 20
-1.466290796620221
 30
0.0
 10
16.62059956084268
 20
-1.521283390209123
 30
0.0
  0
SPLINE
  5
112
330
1F
100
AcDbEntity
  8
외형선
  6
Continuous
 62
     1
370
    15
100
AcDbSpline
210
0.0
220
0.0
230
1.0
 70
     8
 71
     3
 72
     8
 73
     4
 74
     0
 42
0.000000001
 43
0.00000001
 40
0.0
 40
0.0
 40
0.0
 40
0.0
 40
1.0
 40
1.0
 40
1.0
 40
1.0
 10
15.8375702547185
 20
-1.25855521431725
 30
0.0
 10
15.89276556240225
 20
-1.278394614308994
 30
0.0
 10
15.94830647142979
 20
-1.293030445302921
 30
0.0
 10
15.9939085603557
 20
-1.298039999756935
 30
0.0
  0
SPLINE
  5
113
330
1F
100
AcDbEntity
  8
외형선
  6
Continuous
 62
     1
370
    15
100
AcDbSpline
210
0.0
220
0.0
230
1.0
 70
     8
 71
     3
 72
     8
 73
     4
 74
     0
 42
0.000000001
 43
0.00000001
 40
0.0
 40
0.0
 40
0.0
 40
0.0
 40
1.0
 40
1.0
 40
1.0
 40
1.0
 10
15.8375710587484
 20
-1.258555503318394
 30
0.0
 10
15.47468907910515
 20
-1.128121214293304
 30
0.0
 10
15.11110139042252
 20
-0.9970791579071691
 30
0.0
 10
14.74748732640561
 20
-0.8656734630784694
 30
0.0
  0
SPLINE
  5
114
330
1F
100
AcDbEntity
  8
외형선
  6
Continuous
 62
     1
370
    15
100
AcDbSpline
210
0.0
220
0.0
230
1.0
 70
     8
 71
     3
 72
     8
 73
     4
 74
     0
 42
0.000000001
 43
0.00000001
 40
0.0
 40
0.0
 40
0.0
 40
0.0
 40
1.0
 40
1.0
 40
1.0
 40
1.0
 10
14.59049544450401
 20
-0.7955593199616651
 30
0.0
 10
14.63536550262281
 20
-0.8204970179591491
 30
0.0
 10
14.69055621201455
 20
-0.8450992516164403
 30
0.0
 10
14.74748732639778
 20
-0.8656734630765858
 30
0.0
  0
SPLINE
  5
115
330
1F
100
AcDbEntity
  8
외형선
  6
Continuous
 62
     1
370
    15
100
AcDbSpline
210
0.0
220
0.0
230
1.0
 70
     8
 71
     3
 72
    10
 73
     6
 74
     0
 42
0.000000001
 43
0.00000001
 40
0.0
 40
0.0
 40
0.0
 40
0.0
 40
0.5
 40
0.5
 40
1.0
 40
1.0
 40
1.0
 40
1.0
 10
13.96386356925939
 20
-0.5700813946122202
 30
0.0
 10
14.05673406026477
 20
-0.5871532912894831
 30
0.0
 10
14.16954416284359
 20
-0.6175714677361733
 30
0.0
 10
14.39464282100126
 20
-0.6981324805922351
 30
0.0
 10
14.50195526257746
 20
-0.7463508185668732
 30
0.0
 10
14.59049544450365
 20
-0.7955593199616683
 30
0.0
  0
SPLINE
  5
116
330
1F
100
AcDbEntity
  8
외형선
  6
Continuous
 62
     1
370
    15
100
AcDbSpline
210
0.0
220
0.0
230
1.0
 70
     8
 71
     3
 72
     8
 73
     4
 74
     0
 42
0.000000001
 43
0.00000001
 40
0.0
 40
0.0
 40
0.0
 40
0.0
 40
1.0
 40
1.0
 40
1.0
 40
1.0
 10
13.80753825608138
 20
-0.5251987540926936
 30
0.0
 10
13.86272884580724
 20
-0.5452366035059676
 30
0.0
 10
13.91826634272773
 20
-0.5616994949189245
 30
0.0
 10
13.96386356926017
 20
-0.5700813946129145
 30
0.0
  0
SPLINE
  5
117
330
1F
100
AcDbEntity
  8
외형선
  6
Continuous
 62
     1
370
    15
100
AcDbSpline
210
0.0
220
0.0
230
1.0
 70
     8
 71
     3
 72
     8
 73
     4
 74
     0
 42
0.000000001
 43
0.00000001
 40
0.0
 40
0.0
 40
0.0
 40
0.0
 40
1.0
 40
1.0
 40
1.0
 40
1.0
 10
13.80753825609684
 20
-0.5251987540991916
 30
0.0
 10
13.44348764133884
 20
-0.3930242034433932
 30
0.0
 10
13.08057150462044
 20
-0.2607677639466446
 30
0.0
 10
12.71755979155859
 20
-0.1284463060785394
 30
0.0
  0
SPLINE
  5
118
330
1F
100
AcDbEntity
  8
외형선
  6
Continuous
 62
     1
370
    15
100
AcDbSpline
210
0.0
220
0.0
230
1.0
 70
     8
 71
     3
 72
     8
 73
     4
 74
     0
 42
0.000000001
 43
0.00000001
 40
0.0
 40
0.0
 40
0.0
 40
0.0
 40
1.0
 40
1.0
 40
1.0
 40
1.0
 10
12.56059108481901
 20
-0.0628001896863223
 30
0.0
 10
12.60545545226623
 20
-0.0846732908802094
 30
0.0
 10
12.66063836006992
 20
-0.1076978659391985
 30
0.0
 10
12.71755979151533
 20
-0.1284463060633722
 30
0.0
  0
SPLINE
  5
119
330
1F
100
AcDbEntity
  8
외형선
  6
Continuous
 62
     1
370
    15
100
AcDbSpline
210
0.0
220
0.0
230
1.0
 70
     8
 71
     3
 72
    10
 73
     6
 74
     0
 42
0.000000001
 43
0.00000001
 40
0.0
 40
0.0
 40
0.0
 40
0.0
 40
0.5
 40
0.5
 40
1.0
 40
1.0
 40
1.0
 40
1.0
 10
11.93406572407235
 20
0.1637548060229614
 30
0.0
 10
12.026929195622
 20
0.1399099480208204
 30
0.0
 10
12.13973648103758
 20
0.1060580217136142
 30
0.0
 10
12.3647942048492
 20
0.0253571972855416
 30
0.0
 10
12.4720777976096
 20
-0.0196465646985262
 30
0.0
 10
12.56059108481866
 20
-0.0628001896863013
 30
0.0
  0
SPLINE
  5
11A
330
1F
100
AcDbEntity
  8
외형선
  6
Continuous
 62
     1
370
    15
100
AcDbSpline
210
0.0
220
0.0
230
1.0
 70
     8
 71
     3
 72
     8
 73
     4
 74
     0
 42
0.000000001
 43
0.00000001
 40
0.0
 40
0.0
 40
0.0
 40
0.0
 40
1.0
 40
1.0
 40
1.0
 40
1.0
 10
11.77776911238063
 20
0.2136884621584413
 30
0.0
 10
11.83295258107297
 20
0.1936237901859805
 30
0.0
 10
11.88847893627308
 20
0.1754602749623019
 30
0.0
 10
11.93406572407313
 20
0.1637548060224546
 30
0.0
  0
SPLINE
  5
11B
330
1F
100
AcDbEntity
  8
외형선
  6
Continuous
 62
     1
370
    15
100
AcDbSpline
210
0.0
220
0.0
230
1.0
 70
     8
 71
     3
 72
     8
 73
     4
 74
     0
 42
0.000000001
 43
0.00000001
 40
0.0
 40
0.0
 40
0.0
 40
0.0
 40
1.0
 40
1.0
 40
1.0
 40
1.0
 10
11.7780399585875
 20
0.2135899826226579
 30
0.0
 10
11.41492184751148
 20
0.3456195777769028
 30
0.0
 10
11.05138109633488
 20
0.4776115996869087
 30
0.0
 10
10.6880968924972
 20
0.6093193660640085
 30
0.0
  0
SPLINE
  5
11C
330
1F
100
AcDbEntity
  8
외형선
  6
Continuous
 62
     1
370
    15
100
AcDbSpline
210
0.0
220
0.0
230
1.0
 70
     8
 71
     3
 72
     8
 73
     4
 74
     0
 42
0.000000001
 43
0.00000001
 40
0.0
 40
0.0
 40
0.0
 40
0.0
 40
1.0
 40
1.0
 40
1.0
 40
1.0
 10
10.16855113464527
 20
7.414199106612652
 30
0.0
 10
10.11723270842556
 20
7.380897547684278
 30
0.0
 10
10.06085043519336
 20
7.359374909961621
 30
0.0
 10
9.999999999999988
 20
7.348846909682171
 30
0.0
  0
SPLINE
  5
11D
330
1F
100
AcDbEntity
  8
외형선
  6
Continuous
 62
     1
370
    15
100
AcDbSpline
210
0.0
220
0.0
230
1.0
 70
     8
 71
     3
 72
     8
 73
     4
 74
     0
 42
0.000000001
 43
0.00000001
 40
0.0
 40
0.0
 40
0.0
 40
0.0
 40
1.0
 40
1.0
 40
1.0
 40
1.0
 10
10.32486838390775
 20
7.447596058281549
 30
0.0
 10
10.26967871060761
 20
7.454540293657175
 30
0.0
 10
10.21414492909335
 20
7.443785836846629
 30
0.0
 10
10.16855113464541
 20
7.414199106613134
 30
0.0
  0
SPLINE
  5
11E
330
1F
100
AcDbEntity
  8
외형선
  6
Continuous
 62
     1
370
    15
100
AcDbSpline
210
0.0
220
0.0
230
1.0
 70
     8
 71
     3
 72
     8
 73
     4
 74
     0
 42
0.000000001
 43
0.00000001
 40
0.0
 40
0.0
 40
0.0
 40
0.0
 40
1.0
 40
1.0
 40
1.0
 40
1.0
 10
11.41485949689179
 20
7.301287275717949
 30
0.0
 10
11.05149900004159
 20
7.353113145270119
 30
0.0
 10
10.68794220747015
 20
7.401912329076822
 30
0.0
 10
10.32486838393089
 20
7.447596058278961
 30
0.0
  0
SPLINE
  5
11F
330
1F
100
AcDbEntity
  8
외형선
  6
Continuous
 62
     1
370
    15
100
AcDbSpline
210
0.0
220
0.0
230
1.0
 70
     8
 71
     3
 72
     8
 73
     4
 74
     0
 42
0.000000001
 43
0.00000001
 40
0.0
 40
0.0
 40
0.0
 40
0.0
 40
1.0
 40
1.0
 40
1.0
 40
1.0
 10
11.5718492961808
 20
7.226619172227485
 30
0.0
 10
11.52697995366585
 20
7.266883891013887
 30
0.0
 10
11.47179028893922
 20
7.293167274154953
 30
0.0
 10
11.41485949680799
 20
7.30128727572994
 30
0.0
  0
SPLINE
  5
120
330
1F
100
AcDbEntity
  8
외형선
  6
Continuous
 62
     1
370
    15
100
AcDbSpline
210
0.0
220
0.0
230
1.0
 70
     8
 71
     3
 72
    10
 73
     6
 74
     0
 42
0.000000001
 43
0.00000001
 40
0.0
 40
0.0
 40
0.0
 40
0.0
 40
0.5
 40
0.5
 40
1.0
 40
1.0
 40
1.0
 40
1.0
 10
12.19850305722917
 20
7.133115715002329
 30
0.0
 10
12.10562745743525
 20
7.077351869729094
 30
0.0
 10
11.99281741923445
 20
7.05907366814079
 30
0.0
 10
11.76771125772125
 20
7.094785236396499
 30
0.0
 10
11.66039410354434
 20
7.147161093087968
 30
0.0
 10
11.57184929618084
 20
7.22661917222746
 30
0.0
  0
SPLINE
  5
121
330
1F
100
AcDbEntity
  8
외형선
  6
Continuous
 62
     1
370
    15
100
AcDbSpline
210
0.0
220
0.0
230
1.0
 70
     8
 71
     3
 72
     8
 73
     4
 74
     0
 42
0.000000001
 43
0.00000001
 40
0.0
 40
0.0
 40
0.0
 40
0.0
 40
1.0
 40
1.0
 40
1.0
 40
1.0
 10
12.35483921656691
 20
7.160401358516379
 30
0.0
 10
12.29964680617561
 20
7.169074605662608
 30
0.0
 10
12.24410530721286
 20
7.160495961459242
 30
0.0
 10
12.19850305722949
 20
7.13311571500252
 30
0.0
  0
SPLINE
  5
122
330
1F
100
AcDbEntity
  8
외형선
  6
Continuous
 62
     1
370
    15
100
AcDbSpline
210
0.0
220
0.0
230
1.0
 70
     8
 71
     3
 72
     8
 73
     4
 74
     0
 42
0.000000001
 43
0.00000001
 40
0.0
 40
0.0
 40
0.0
 40
0.0
 40
1.0
 40
1.0
 40
1.0
 40
1.0
 10
13.44496616772269
 20
6.980052985799601
 30
0.0
 10
13.08114383483825
 20
7.04313537153543
 30
0.0
 10
12.71866983122076
 20
7.103226960472902
 30
0.0
 10
12.35483921675685
 20
7.160401358486935
 30
0.0
  0
SPLINE
  5
123
330
1F
100
AcDbEntity
  8
외형선
  6
Continuous
 62
     1
370
    15
100
AcDbSpline
210
0.0
220
0.0
230
1.0
 70
     8
 71
     3
 72
     8
 73
     4
 74
     0
 42
0.000000001
 43
0.00000001
 40
0.0
 40
0.0
 40
0.0
 40
0.0
 40
1.0
 40
1.0
 40
1.0
 40
1.0
 10
13.60196780643682
 20
6.902094210120481
 30
0.0
 10
13.55709229010663
 20
6.942750786598325
 30
0.0
 10
13.50189846704778
 20
6.97018161468697
 30
0.0
 10
13.44496616735475
 20
6.980052985863431
 30
0.0
  0
SPLINE
  5
124
330
1F
100
AcDbEntity
  8
외형선
  6
Continuous
 62
     1
370
    15
100
AcDbSpline
210
0.0
220
0.0
230
1.0
 70
     8
 71
     3
 72
    10
 73
     6
 74
     0
 42
0.000000001
 43
0.00000001
 40
0.0
 40
0.0
 40
0.0
 40
0.0
 40
0.5
 40
0.5
 40
1.0
 40
1.0
 40
1.0
 40
1.0
 10
14.22863608499059
 20
6.789809858649351
 30
0.0
 10
14.13575294671713
 20
6.739007463172983
 30
0.0
 10
14.02292583675605
 20
6.725006851463073
 30
0.0
 10
13.79781955319858
 20
6.7673081272946
 30
0.0
 10
13.69050858007408
 20
6.821877534543824
 30
0.0
 10
13.60196780643688
 20
6.902094210120417
 30
0.0
  0
SPLINE
  5
125
330
1F
100
AcDbEntity
  8
외형선
  6
Continuous
 62
     1
370
    15
100
AcDbSpline
210
0.0
220
0.0
230
1.0
 70
     8
 71
     3
 72
     8
 73
     4
 74
     0
 42
0.000000001
 43
0.00000001
 40
0.0
 40
0.0
 40
0.0
 40
0.0
 40
1.0
 40
1.0
 40
1.0
 40
1.0
 10
14.38496902715786
 20
6.810792881628262
 30
0.0
 10
14.32977404280521
 20
6.821099357067056
 30
0.0
 10
14.27423437313182
 20
6.814749824182884
 30
0.0
 10
14.22863608499093
 20
6.789809858649549
 30
0.0
  0
SPLINE
  5
126
330
1F
100
AcDbEntity
  8
외형선
  6
Continuous
 62
     1
370
    15
100
AcDbSpline
210
0.0
220
0.0
230
1.0
 70
     8
 71
     3
 72
     8
 73
     4
 74
     0
 42
0.000000001
 43
0.00000001
 40
0.0
 40
0.0
 40
0.0
 40
0.0
 40
1.0
 40
1.0
 40
1.0
 40
1.0
 10
15.47501332232351
 20
6.598835835603634
 30
0.0
 10
15.1119182586415
 20
6.6722433788972
 30
0.0
 10
14.74834370538757
 20
6.742940480895043
 30
0.0
 10
14.38496902767681
 20
6.810792881531819
 30
0.0
  0
SPLINE
  5
127
330
1F
100
AcDbEntity
  8
외형선
  6
Continuous
 62
     1
370
    15
100
AcDbSpline
210
0.0
220
0.0
230
1.0
 70
     8
 71
     3
 72
     8
 73
     4
 74
     0
 42
0.000000001
 43
0.00000001
 40
0.0
 40
0.0
 40
0.0
 40
0.0
 40
1.0
 40
1.0
 40
1.0
 40
1.0
 10
15.63199869958087
 20
6.518322473406729
 30
0.0
 10
15.58713106881939
 20
6.55900199263978
 30
0.0
 10
15.53194308912366
 20
6.587326248338299
 30
0.0
 10
15.47501332155319
 20
6.598835835759403
 30
0.0
  0
SPLINE
  5
128
330
1F
100
AcDbEntity
  8
외형선
  6
Continuous
 62
     1
370
    15
100
AcDbSpline
210
0.0
220
0.0
230
1.0
 70
     8
 71
     3
 72
    10
 73
     6
 74
     0
 42
0.000000001
 43
0.00000001
 40
0.0
 40
0.0
 40
0.0
 40
0.0
 40
0.5
 40
0.5
 40
1.0
 40
1.0
 40
1.0
 40
1.0
 10
16.25860878173176
 20
6.388143829739504
 30
0.0
 10
16.16573849740656
 20
6.342805082683614
 30
0.0
 10
16.05293837689339
 20
6.333236336314163
 30
0.0
 10
15.82784844319608
 20
6.381770948897366
 30
0.0
 10
15.72053910122794
 20
6.438046762151711
 30
0.0
 10
15.63199869958091
 20
6.518322473406704
 30
0.0
  0
SPLINE
  5
129
330
1F
100
AcDbEntity
  8
외형선
  6
Continuous
 62
     1
370
    15
100
AcDbSpline
210
0.0
220
0.0
230
1.0
 70
     8
 71
     3
 72
     8
 73
     4
 74
     0
 42
0.000000001
 43
0.00000001
 40
0.0
 40
0.0
 40
0.0
 40
0.0
 40
1.0
 40
1.0
 40
1.0
 40
1.0
 10
16.41493020223226
 20
6.402531966141922
 30
0.0
 10
16.35974488989674
 20
6.414427130226125
 30
0.0
 10
16.30420871472431
 20
6.410405458878792
 30
0.0
 10
16.25860878173208
 20
6.388143829739694
 30
0.0
  0
SPLINE
  5
12A
330
1F
100
AcDbEntity
  8
외형선
  6
Continuous
 62
     1
370
    15
100
AcDbSpline
210
0.0
220
0.0
230
1.0
 70
     8
 71
     3
 72
     8
 73
     4
 74
     0
 42
0.000000001
 43
0.00000001
 40
0.0
 40
0.0
 40
0.0
 40
0.0
 40
1.0
 40
1.0
 40
1.0
 40
1.0
 10
17.50481826274333
 20
6.159950712870596
 30
0.0
 10
17.14080679244644
 20
6.243468736635148
 30
0.0
 10
16.7776391612403
 20
6.324350247130013
 30
0.0
 10
16.41493020241485
 20
6.402531966103094
 30
0.0
  0
SPLINE
  5
12B
330
1F
100
AcDbEntity
  8
외형선
  6
Continuous
 62
     1
370
    15
100
AcDbSpline
210
0.0
220
0.0
230
1.0
 70
     8
 71
     3
 72
     8
 73
     4
 74
     0
 42
0.000000001
 43
0.00000001
 40
0.0
 40
0.0
 40
0.0
 40
0.0
 40
1.0
 40
1.0
 40
1.0
 40
1.0
 10
17.66176537843254
 20
6.077570452581313
 30
0.0
 10
17.61691079055707
 20
6.117919087179782
 30
0.0
 10
17.56173456464402
 20
6.146891956642234
 30
0.0
 10
17.50481826273424
 20
6.159950712872712
 30
0.0
  0
SPLINE
  5
12C
330
1F
100
AcDbEntity
  8
외형선
  6
Continuous
 62
     1
370
    15
100
AcDbSpline
210
0.0
220
0.0
230
1.0
 70
     8
 71
     3
 72
    10
 73
     6
 74
     0
 42
0.000000001
 43
0.00000001
 40
0.0
 40
0.0
 40
0.0
 40
0.0
 40
0.5
 40
0.5
 40
1.0
 40
1.0
 40
1.0
 40
1.0
 10
18.28821327681414
 20
5.930962969614193
 30
0.0
 10
18.19537129934774
 20
5.891383544504202
 30
0.0
 10
18.08258497792552
 20
5.886238926282584
 30
0.0
 10
17.85754656008433
 20
5.940482955157659
 30
0.0
 10
17.75026807793641
 20
5.997958460756185
 30
0.0
 10
17.66176537843258
 20
6.077570452581293
 30
0.0
  0
SPLINE
  5
12D
330
1F
100
AcDbEntity
  8
외형선
  6
Continuous
 62
     1
370
    15
100
AcDbSpline
210
0.0
220
0.0
230
1.0
 70
     8
 71
     3
 72
     8
 73
     4
 74
     0
 42
0.000000001
 43
0.00000001
 40
0.0
 40
0.0
 40
0.0
 40
0.0
 40
1.0
 40
1.0
 40
1.0
 40
1.0
 10
18.44449322253683
 20
5.93881852011652
 30
0.0
 10
18.38931475961867
 20
5.952128391382287
 30
0.0
 10
18.33379382402022
 20
5.950394393888363
 30
0.0
 10
18.28821327681451
 20
5.930962969614328
 30
0.0
  0
SPLINE
  5
12E
330
1F
100
AcDbEntity
  8
외형선
  6
Continuous
 62
     1
370
    15
100
AcDbSpline
210
0.0
220
0.0
230
1.0
 70
     8
 71
     3
 72
     8
 73
     4
 74
     0
 42
0.000000001
 43
0.00000001
 40
0.0
 40
0.0
 40
0.0
 40
0.0
 40
1.0
 40
1.0
 40
1.0
 40
1.0
 10
19.53403288637764
 20
5.668563288758786
 30
0.0
 10
19.17138850898739
 20
5.760996374288474
 30
0.0
 10
18.80798262200452
 20
5.851139434333495
 30
0.0
 10
18.44449350066584
 20
5.938818453028253
 30
0.0
  0
SPLINE
  5
12F
330
1F
100
AcDbEntity
  8
외형선
  6
Continuous
 62
     1
370
    15
100
AcDbSpline
210
0.0
220
0.0
230
1.0
 70
     8
 71
     3
 72
     8
 73
     4
 74
     0
 42
0.000000001
 43
0.00000001
 40
0.0
 40
0.0
 40
0.0
 40
0.0
 40
1.0
 40
1.0
 40
1.0
 40
1.0
 10
19.69092219144717
 20
5.584983459364639
 30
0.0
 10
19.64608919211672
 20
5.624670504468299
 30
0.0
 10
19.59093319554879
 20
5.654060179199781
 30
0.0
 10
19.5340328547045
 20
5.668563296831864
 30
0.0
  0
SPLINE
  5
130
330
1F
100
AcDbEntity
  8
외형선
  6
Continuous
 62
     1
370
    15
100
AcDbSpline
210
0.0
220
0.0
230
1.0
 70
     8
 71
     3
 72
    10
 73
     6
 74
     0
 42
0.000000001
 43
0.00000001
 40
0.0
 40
0.0
 40
0.0
 40
0.0
 40
0.5
 40
0.5
 40
1.0
 40
1.0
 40
1.0
 40
1.0
 10
20.31717551825511
 20
5.422625304874597
 30
0.0
 10
20.22435312476482
 20
5.389258754355902
 30
0.0
 10
20.11160980819999
 20
5.388731738564708
 30
0.0
 10
19.88664555948025
 20
5.448423326101389
 30
0.0
 10
19.77939679904139
 20
5.506664011757718
 30
0.0
 10
19.69092219144722
 20
5.584983459364595
 30
0.0
  0
SPLINE
  5
131
330
1F
100
AcDbEntity
  8
외형선
  6
Continuous
 62
     1
370
    15
100
AcDbSpline
210
0.0
220
0.0
230
1.0
 70
     8
 71
     3
 72
     8
 73
     4
 74
     0
 42
0.000000001
 43
0.00000001
 40
0.0
 40
0.0
 40
0.0
 40
0.0
 40
1.0
 40
1.0
 40
1.0
 40
1.0
 10
20.47342472381405
 20
5.423686953139663
 30
0.0
 10
20.41825794676659
 20
5.438362895589708
 30
0.0
 10
20.36274907735117
 20
5.439007477373155
 30
0.0
 10
20.31717551825543
 20
5.422625304874722
 30
0.0
  0
SPLINE
  5
132
330
1F
100
AcDbEntity
  8
외형선
  6
Continuous
 62
     1
370
    15
100
AcDbSpline
210
0.0
220
0.0
230
1.0
 70
     8
 71
     3
 72
     8
 73
     4
 74
     0
 42
0.000000001
 43
0.00000001
 40
0.0
 40
0.0
 40
0.0
 40
0.0
 40
1.0
 40
1.0
 40
1.0
 40
1.0
 10
21.56291919573778
 20
5.127564992944646
 30
0.0
 10
21.19930648175812
 20
5.228487392113669
 30
0.0
 10
20.83591563595905
 20
5.327253990216769
 30
0.0
 10
20.47342472381908
 20
5.423686953138985
 30
0.0
  0
SPLINE
  5
133
330
1F
100
AcDbEntity
  8
외형선
  6
Continuous
 62
     1
370
    15
100
AcDbSpline
210
0.0
220
0.0
230
1.0
 70
     8
 71
     3
 72
     8
 73
     4
 74
     0
 42
0.000000001
 43
0.00000001
 40
0.0
 40
0.0
 40
0.0
 40
0.0
 40
1.0
 40
1.0
 40
1.0
 40
1.0
 10
21.71983769785853
 20
5.043604298303865
 30
0.0
 10
21.67499363153529
 20
5.082254318145866
 30
0.0
 10
21.61982725995474
 20
5.111769895160108
 30
0.0
 10
21.56291919570524
 20
5.127564992953705
 30
0.0
  0
SPLINE
  5
134
330
1F
100
AcDbEntity
  8
외형선
  6
Continuous
 62
     1
370
    15
100
AcDbSpline
210
0.0
220
0.0
230
1.0
 70
     8
 71
     3
 72
    10
 73
     6
 74
     0
 42
0.000000001
 43
0.00000001
 40
0.0
 40
0.0
 40
0.0
 40
0.0
 40
0.5
 40
0.5
 40
1.0
 40
1.0
 40
1.0
 40
1.0
 10
22.34626458382662
 20
4.867674898866504
 30
0.0
 10
22.2534260590768
 20
4.840688256954634
 30
0.0
 10
22.14064985427135
 20
4.844596076527992
 30
0.0
 10
21.91561399574989
 20
4.908930361995912
 30
0.0
 10
21.80833484489325
 20
4.967330740411114
 30
0.0
 10
21.71983769785858
 20
5.043604298303858
 30
0.0
  0
SPLINE
  5
135
330
1F
100
AcDbEntity
  8
외형선
  6
Continuous
 62
     1
370
    15
100
AcDbSpline
210
0.0
220
0.0
230
1.0
 70
     8
 71
     3
 72
     8
 73
     4
 74
     0
 42
0.000000001
 43
0.00000001
 40
0.0
 40
0.0
 40
0.0
 40
0.0
 40
1.0
 40
1.0
 40
1.0
 40
1.0
 10
22.502556275126
 20
4.862106660634967
 30
0.0
 10
22.44737504729614
 20
4.877969585420955
 30
0.0
 10
22.39184953626597
 20
4.880925699558928
 30
0.0
 10
22.34626458382697
 20
4.867674898866575
 30
0.0
  0
SPLINE
  5
136
330
1F
100
AcDbEntity
  8
외형선
  6
Continuous
 62
     1
370
    15
100
AcDbSpline
210
0.0
220
0.0
230
1.0
 70
     8
 71
     3
 72
     8
 73
     4
 74
     0
 42
0.000000001
 43
0.00000001
 40
0.0
 40
0.0
 40
0.0
 40
0.0
 40
1.0
 40
1.0
 40
1.0
 40
1.0
 10
23.59240188641527
 20
4.542525244037881
 30
0.0
 10
23.22993891405218
 20
4.65090760489382
 30
0.0
 10
22.86643085983474
 20
4.757503783967512
 30
0.0
 10
22.50255627521381
 20
4.862106660610454
 30
0.0
  0
SPLINE
  5
137
330
1F
100
AcDbEntity
  8
외형선
  6
Continuous
 62
     1
370
    15
100
AcDbSpline
210
0.0
220
0.0
230
1.0
 70
     8
 71
     3
 72
     8
 73
     4
 74
     0
 42
0.000000001
 43
0.00000001
 40
0.0
 40
0.0
 40
0.0
 40
0.0
 40
1.0
 40
1.0
 40
1.0
 40
1.0
 10
23.74937695296469
 20
4.458686119089155
 30
0.0
 10
23.70451083387191
 20
4.496037180274108
 30
0.0
 10
23.64932852972705
 20
4.525503246017935
 30
0.0
 10
23.59240188628294
 20
4.542525244077473
 30
0.0
  0
SPLINE
  5
138
330
1F
100
AcDbEntity
  8
외형선
  6
Continuous
 62
     1
370
    15
100
AcDbSpline
210
0.0
220
0.0
230
1.0
 70
     8
 71
     3
 72
    10
 73
     6
 74
     0
 42
0.000000001
 43
0.00000001
 40
0.0
 40
0.0
 40
0.0
 40
0.0
 40
0.5
 40
0.5
 40
1.0
 40
1.0
 40
1.0
 40
1.0
 10
24.37598120272456
 20
4.269825631058666
 30
0.0
 10
24.2830982509187
 20
4.249548470596706
 30
0.0
 10
24.17027598154628
 20
4.258034002661765
 30
0.0
 10
23.94519455802691
 20
4.32678595647335
 30
0.0
 10
23.83790107260114
 20
4.384989755870206
 30
0.0
 10
23.74937695296473
 20
4.458686119089148
 30
0.0
  0
SPLINE
  5
139
330
1F
100
AcDbEntity
  8
외형선
  6
Continuous
 62
     1
370
    15
100
AcDbSpline
210
0.0
220
0.0
230
1.0
 70
     8
 71
     3
 72
     8
 73
     4
 74
     0
 42
0.000000001
 43
0.00000001
 40
0.0
 40
0.0
 40
0.0
 40
0.0
 40
1.0
 40
1.0
 40
1.0
 40
1.0
 10
24.53230540324639
 20
4.257533386352443
 30
0.0
 10
24.47711405391764
 20
4.274485337588682
 30
0.0
 10
24.42157799476819
 20
4.279779809417947
 30
0.0
 10
24.3759812027249
 20
4.269825631058749
 30
0.0
  0
SPLINE
  5
13A
330
1F
100
AcDbEntity
  8
외형선
  6
Continuous
 62
     1
370
    15
100
AcDbSpline
210
0.0
220
0.0
230
1.0
 70
     8
 71
     3
 72
     8
 73
     4
 74
     0
 42
0.000000001
 43
0.00000001
 40
0.0
 40
0.0
 40
0.0
 40
0.0
 40
1.0
 40
1.0
 40
1.0
 40
1.0
 10
25.62233655188165
 20
3.917802917512909
 30
0.0
 10
25.25882787708298
 20
4.032739827332763
 30
0.0
 10
24.89525773173903
 20
4.146053050235412
 30
0.0
 10
24.53230540327814
 20
4.257533386343443
 30
0.0
  0
SPLINE
  5
13B
330
1F
100
AcDbEntity
  8
외형선
  6
Continuous
 62
     1
370
    15
100
AcDbSpline
210
0.0
220
0.0
230
1.0
 70
     8
 71
     3
 72
     8
 73
     4
 74
     0
 42
0.000000001
 43
0.00000001
 40
0.0
 40
0.0
 40
0.0
 40
0.0
 40
1.0
 40
1.0
 40
1.0
 40
1.0
 10
25.77933040453949
 20
3.835115724979853
 30
0.0
 10
25.73445956122688
 20
3.870750062100829
 30
0.0
 10
25.67926840097052
 20
3.899801776801828
 30
0.0
 10
25.62233655188385
 20
3.917802917512237
 30
0.0
  0
SPLINE
  5
13C
330
1F
100
AcDbEntity
  8
외형선
  6
Continuous
 62
     1
370
    15
100
AcDbSpline
210
0.0
220
0.0
230
1.0
 70
     8
 71
     3
 72
    10
 73
     6
 74
     0
 42
0.000000001
 43
0.00000001
 40
0.0
 40
0.0
 40
0.0
 40
0.0
 40
0.5
 40
0.5
 40
1.0
 40
1.0
 40
1.0
 40
1.0
 10
26.40599250156606
 20
3.635769283534209
 30
0.0
 10
26.31311626476129
 20
3.622327877758103
 30
0.0
 10
26.2003029179041
 20
3.635193751737536
 30
0.0
 10
25.97519401965108
 20
3.707464436856828
 30
0.0
 10
25.8678759205093
 20
3.764796993846666
 30
0.0
 10
25.77933040453954
 20
3.835115724979841
 30
0.0
  0
SPLINE
  5
13D
330
1F
100
AcDbEntity
  8
외형선
  6
Continuous
 62
     1
370
    15
100
AcDbSpline
210
0.0
220
0.0
230
1.0
 70
     8
 71
     3
 72
     8
 73
     4
 74
     0
 42
0.000000001
 43
0.00000001
 40
0.0
 40
0.0
 40
0.0
 40
0.0
 40
1.0
 40
1.0
 40
1.0
 40
1.0
 10
26.5623291099347
 20
3.616926439911786
 30
0.0
 10
26.50713558854152
 20
3.634808292828692
 30
0.0
 10
26.45159397286886
 20
3.642368903639969
 30
0.0
 10
26.40599250156639
 20
3.635769283534294
 30
0.0
  0
SPLINE
  5
13E
330
1F
100
AcDbEntity
  8
외형선
  6
Continuous
 62
     1
370
    15
100
AcDbSpline
210
0.0
220
0.0
230
1.0
 70
     8
 71
     3
 72
     8
 73
     4
 74
     0
 42
0.000000001
 43
0.00000001
 40
0.0
 40
0.0
 40
0.0
 40
0.0
 40
1.0
 40
1.0
 40
1.0
 40
1.0
 10
27.6524562801322
 20
3.258922475323588
 30
0.0
 10
27.2890370077814
 20
3.3796726302645
 30
0.0
 10
26.92638084956334
 20
3.498979270041934
 30
0.0
 10
26.56232899676863
 20
3.616926476576678
 30
0.0
  0
SPLINE
  5
13F
330
1F
100
AcDbEntity
  8
외형선
  6
Continuous
 62
     1
370
    15
100
AcDbSpline
210
0.0
220
0.0
230
1.0
 70
     8
 71
     3
 72
     8
 73
     4
 74
     0
 42
0.000000001
 43
0.00000001
 40
0.0
 40
0.0
 40
0.0
 40
0.0
 40
1.0
 40
1.0
 40
1.0
 40
1.0
 10
27.80945796409456
 20
3.177852908070352
 30
0.0
 10
27.7645819372324
 20
3.211532607165425
 30
0.0
 10
27.70938824106705
 20
3.240006188708717
 30
0.0
 10
27.65245638828016
 20
3.258922439390226
 30
0.0
  0
SPLINE
  5
140
330
1F
100
AcDbEntity
  8
외형선
  6
Continuous
 62
     1
370
    15
100
AcDbSpline
210
0.0
220
0.0
230
1.0
 70
     8
 71
     3
 72
    10
 73
     6
 74
     0
 42
0.000000001
 43
0.00000001
 40
0.0
 40
0.0
 40
0.0
 40
0.0
 40
0.5
 40
0.5
 40
1.0
 40
1.0
 40
1.0
 40
1.0
 10
28.4361209758161
 20
2.969242535647659
 30
0.0
 10
28.34323620062339
 20
2.962764176124919
 30
0.0
 10
28.23040768062963
 20
2.979959931720426
 30
0.0
 10
28.00530477334704
 20
3.05531498199146
 30
0.0
 10
27.89799692452916
 20
3.111403942907125
 30
0.0
 10
27.80945796409458
 20
3.177852908070363
 30
0.0
  0
SPLINE
  5
141
330
1F
100
AcDbEntity
  8
외형선
  6
Continuous
 62
     1
370
    15
100
AcDbSpline
210
0.0
220
0.0
230
1.0
 70
     8
 71
     3
 72
     8
 73
     4
 74
     0
 42
0.000000001
 43
0.00000001
 40
0.0
 40
0.0
 40
0.0
 40
0.0
 40
1.0
 40
1.0
 40
1.0
 40
1.0
 10
28.59245169010449
 20
2.944027281907988
 30
0.0
 10
28.53725753686254
 20
2.962667800099071
 30
0.0
 10
28.48171883209759
 20
2.972422812564265
 30
0.0
 10
28.43612097581644
 20
2.969242535647663
 30
0.0
  0
SPLINE
  5
142
330
1F
100
AcDbEntity
  8
외형선
  6
Continuous
 62
     1
370
    15
100
AcDbSpline
210
0.0
220
0.0
230
1.0
 70
     8
 71
     3
 72
     8
 73
     4
 74
     0
 42
0.000000001
 43
0.00000001
 40
0.0
 40
0.0
 40
0.0
 40
0.0
 40
1.0
 40
1.0
 40
1.0
 40
1.0
 10
29.68246199197961
 20
2.572459086091405
 30
0.0
 10
29.31924349760651
 20
2.697422158007106
 30
0.0
 10
28.95568028220361
 20
2.821355426681971
 30
0.0
 10
28.59245166527221
 20
2.944027290295383
 30
0.0
  0
SPLINE
  5
143
330
1F
100
AcDbEntity
  8
외형선
  6
Continuous
 62
     1
370
    15
100
AcDbSpline
210
0.0
220
0.0
230
1.0
 70
     8
 71
     3
 72
     8
 73
     4
 74
     0
 42
0.000000001
 43
0.00000001
 40
0.0
 40
0.0
 40
0.0
 40
0.0
 40
1.0
 40
1.0
 40
1.0
 40
1.0
 10
29.83943938797721
 20
2.493906252576076
 30
0.0
 10
29.79457478065013
 20
2.525288991286255
 30
0.0
 10
29.73938920033749
 20
2.552873632850756
 30
0.0
 10
29.68246203859273
 20
2.572459070054465
 30
0.0
  0
SPLINE
  5
144
330
1F
100
AcDbEntity
  8
외형선
  6
Continuous
 62
     1
370
    15
100
AcDbSpline
210
0.0
220
0.0
230
1.0
 70
     8
 71
     3
 72
    10
 73
     6
 74
     0
 42
0.000000001
 43
0.00000001
 40
0.0
 40
0.0
 40
0.0
 40
0.0
 40
0.5
 40
0.5
 40
1.0
 40
1.0
 40
1.0
 40
1.0
 10
30.46601530065795
 20
2.278016215586947
 30
0.0
 10
30.37315230263594
 20
2.27859950806411
 30
0.0
 10
30.26035619487168
 20
2.29997655661711
 30
0.0
 10
30.03527634998794
 20
2.377689554421334
 30
0.0
 10
29.92797240816251
 20
2.431977511743836
 30
0.0
 10
29.83943938797725
 20
2.493906252576063
 30
0.0
  0
SPLINE
  5
145
330
1F
100
AcDbEntity
  8
외형선
  6
Continuous
 62
     1
370
    15
100
AcDbSpline
210
0.0
220
0.0
230
1.0
 70
     8
 71
     3
 72
     8
 73
     4
 74
     0
 42
0.000000001
 43
0.00000001
 40
0.0
 40
0.0
 40
0.0
 40
0.0
 40
1.0
 40
1.0
 40
1.0
 40
1.0
 10
30.62232799745219
 20
2.246538497345447
 30
0.0
 10
30.56714407047528
 20
2.265825757079713
 30
0.0
 10
30.51161102013679
 20
2.277729819059451
 30
0.0
 10
30.46601530065827
 20
2.278016215586965
 30
0.0
  0
SPLINE
  5
146
330
1F
100
AcDbEntity
  8
외형선
  6
Continuous
 62
     1
370
    15
100
AcDbSpline
210
0.0
220
0.0
230
1.0
 70
     8
 71
     3
 72
     8
 73
     4
 74
     0
 42
0.000000001
 43
0.00000001
 40
0.0
 40
0.0
 40
0.0
 40
0.0
 40
1.0
 40
1.0
 40
1.0
 40
1.0
 10
31.71215370040072
 20
1.862977912911862
 30
0.0
 10
31.34819313257969
 20
1.991743156109275
 30
0.0
 10
30.98560933742557
 20
2.119568528613537
 30
0.0
 10
30.62232733027747
 20
2.246538730529647
 30
0.0
  0
SPLINE
  5
147
330
1F
100
AcDbEntity
  8
외형선
  6
Continuous
 62
     1
370
    15
100
AcDbSpline
210
0.0
220
0.0
230
1.0
 70
     8
 71
     3
 72
     8
 73
     4
 74
     0
 42
0.000000001
 43
0.00000001
 40
0.0
 40
0.0
 40
0.0
 40
0.0
 40
1.0
 40
1.0
 40
1.0
 40
1.0
 10
31.86908872764534
 20
1.787518117048963
 30
0.0
 10
31.82423813586859
 20
1.816353128245048
 30
0.0
 10
31.76906591509259
 20
1.842842997721289
 30
0.0
 10
31.71215370041287
 20
1.862977912907578
 30
0.0
  0
SPLINE
  5
148
330
1F
100
AcDbEntity
  8
외형선
  6
Continuous
 62
     1
370
    15
100
AcDbSpline
210
0.0
220
0.0
230
1.0
 70
     8
 71
     3
 72
    10
 73
     6
 74
     0
 42
0.000000001
 43
0.00000001
 40
0.0
 40
0.0
 40
0.0
 40
0.0
 40
0.5
 40
0.5
 40
1.0
 40
1.0
 40
1.0
 40
1.0
 10
32.49548918671351
 20
1.566423023530642
 30
0.0
 10
32.40265344700843
 20
1.573960903576478
 30
0.0
 10
32.28987301825605
 20
1.599259993552441
 30
0.0
 10
32.06485068507133
 20
1.67859588702743
 30
0.0
 10
31.95758160210176
 20
1.730624931816862
 30
0.0
 10
31.86908872764538
 20
1.78751811704898
 30
0.0
  0
SPLINE
  5
149
330
1F
100
AcDbEntity
  8
외형선
  6
Continuous
 62
     1
370
    15
100
AcDbSpline
210
0.0
220
0.0
230
1.0
 70
     8
 71
     3
 72
     8
 73
     4
 74
     0
 42
0.000000001
 43
0.00000001
 40
0.0
 40
0.0
 40
0.0
 40
0.0
 40
1.0
 40
1.0
 40
1.0
 40
1.0
 10
32.65175783599598
 20
1.529165396668541
 30
0.0
 10
32.59658267777483
 20
1.54884902498235
 30
0.0
 10
32.54106591120662
 20
1.562722381049551
 30
0.0
 10
32.49548918671385
 20
1.566423023530608
 30
0.0
  0
SPLINE
  5
14A
330
1F
100
AcDbEntity
  8
외형선
  6
Continuous
 62
     1
370
    15
100
AcDbSpline
210
0.0
220
0.0
230
1.0
 70
     8
 71
     3
 72
     8
 73
     4
 74
     0
 42
0.000000001
 43
0.00000001
 40
0.0
 40
0.0
 40
0.0
 40
0.0
 40
1.0
 40
1.0
 40
1.0
 40
1.0
 10
33.74119045703583
 20
1.138645006083304
 30
0.0
 10
33.3784465716439
 20
1.26929742733287
 30
0.0
 10
33.01507630993964
 20
1.399552251345624
 30
0.0
 10
32.65175783597655
 20
1.529165396676396
 30
0.0
  0
SPLINE
  5
14B
330
1F
100
AcDbEntity
  8
외형선
  6
Continuous
 62
     1
370
    15
100
AcDbSpline
210
0.0
220
0.0
230
1.0
 70
     8
 71
     3
 72
     8
 73
     4
 74
     0
 42
0.000000001
 43
0.00000001
 40
0.0
 40
0.0
 40
0.0
 40
0.0
 40
1.0
 40
1.0
 40
1.0
 40
1.0
 10
33.89806206444497
 20
1.066944395717284
 30
0.0
 10
33.85323542891278
 20
1.09298823749222
 30
0.0
 10
33.79808556870639
 20
1.118152629973751
 30
0.0
 10
33.74119097607613
 20
1.138644819136336
 30
0.0
  0
SPLINE
  5
14C
330
1F
100
AcDbEntity
  8
외형선
  6
Continuous
 62
     1
370
    15
100
AcDbSpline
210
0.0
220
0.0
230
1.0
 70
     8
 71
     3
 72
    10
 73
     6
 74
     0
 42
0.000000001
 43
0.00000001
 40
0.0
 40
0.0
 40
0.0
 40
0.0
 40
0.5
 40
0.5
 40
1.0
 40
1.0
 40
1.0
 40
1.0
 10
34.52433965032247
 20
0.8419362156813393
 30
0.0
 10
34.43151992912583
 20
0.8565299383770257
 30
0.0
 10
34.31877816795702
 20
0.8856837345807074
 30
0.0
 10
34.09379574880911
 20
0.9661653207996344
 30
0.0
 10
33.98653712867856
 20
1.015541238942956
 30
0.0
 10
33.89806206444502
 20
1.066944395717274
 30
0.0
  0
SPLINE
  5
14D
330
1F
100
AcDbEntity
  8
외형선
  6
Continuous
 62
     1
370
    15
100
AcDbSpline
210
0.0
220
0.0
230
1.0
 70
     8
 71
     3
 72
     8
 73
     4
 74
     0
 42
0.000000001
 43
0.00000001
 40
0.0
 40
0.0
 40
0.0
 40
0.0
 40
1.0
 40
1.0
 40
1.0
 40
1.0
 10
34.68060391461965
 20
0.7989210545604908
 30
0.0
 10
34.62543345659844
 20
0.8189347044751862
 30
0.0
 10
34.56991969756577
 20
0.8347698230079597
 30
0.0
 10
34.52433965032282
 20
0.84193621568128
 30
0.0
  0
SPLINE
  5
14E
330
1F
100
AcDbEntity
  8
외형선
  6
Continuous
 62
     1
370
    15
100
AcDbSpline
210
0.0
220
0.0
230
1.0
 70
     8
 71
     3
 72
     8
 73
     4
 74
     0
 42
0.000000001
 43
0.00000001
 40
0.0
 40
0.0
 40
0.0
 40
0.0
 40
1.0
 40
1.0
 40
1.0
 40
1.0
 10
35.77020394769339
 20
0.4034120599450197
 30
0.0
 10
35.40642038099702
 20
0.5355419354501063
 30
0.0
 10
35.04299433516047
 20
0.667460209946794
 30
0.0
 10
34.68060391461741
 20
0.7989210545622327
 30
0.0
  0
SPLINE
  5
14F
330
1F
100
AcDbEntity
  8
외형선
  6
Continuous
 62
     1
370
    15
100
AcDbSpline
210
0.0
220
0.0
230
1.0
 70
     8
 71
     3
 72
     8
 73
     4
 74
     0
 42
0.000000001
 43
0.00000001
 40
0.0
 40
0.0
 40
0.0
 40
0.0
 40
1.0
 40
1.0
 40
1.0
 40
1.0
 10
35.92713723635952
 20
0.33612407010802
 30
0.0
 10
35.88228756420289
 20
0.3591356104073941
 30
0.0
 10
35.82711628248617
 20
0.3827409235899283
 30
0.0
 10
35.77020394771159
 20
0.4034120599384152
 30
0.0
  0
SPLINE
  5
150
330
1F
100
AcDbEntity
  8
외형선
  6
Continuous
 62
     1
370
    15
100
AcDbSpline
210
0.0
220
0.0
230
1.0
 70
     8
 71
     3
 72
    10
 73
     6
 74
     0
 42
0.000000001
 43
0.00000001
 40
0.0
 40
0.0
 40
0.0
 40
0.0
 40
0.5
 40
0.5
 40
1.0
 40
1.0
 40
1.0
 40
1.0
 10
36.55361051980577
 20
0.1099846067916803
 30
0.0
 10
36.46076372165928
 20
0.1312995381869905
 30
0.0
 10
36.3479775817047
 20
0.1638655095081642
 30
0.0
 10
36.12292780183122
 20
0.2445108180972196
 30
0.0
 10
36.01564233414505
 20
0.2907137353952249
 30
0.0
 10
35.92713723635956
 20
0.3361240701080229
 30
0.0
  0
SPLINE
  5
151
330
1F
100
AcDbEntity
  8
외형선
  6
Continuous
 62
     1
370
    15
100
AcDbSpline
210
0.0
220
0.0
230
1.0
 70
     8
 71
     3
 72
     8
 73
     4
 74
     0
 42
0.000000001
 43
0.00000001
 40
0.0
 40
0.0
 40
0.0
 40
0.0
 40
1.0
 40
1.0
 40
1.0
 40
1.0
 10
36.70991094818709
 20
0.061919373642467
 30
0.0
 10
36.65472653400166
 20
0.0819842370704376
 30
0.0
 10
36.59919799713668
 20
0.0995190444761859
 30
0.0
 10
36.55361051980609
 20
0.1099846067916007
 30
0.0
  0
SPLINE
  5
152
330
1F
100
AcDbEntity
  8
외형선
  6
Continuous
 62
     1
370
    15
100
AcDbSpline
210
0.0
220
0.0
230
1.0
 70
     8
 71
     3
 72
     8
 73
     4
 74
     0
 42
0.000000001
 43
0.00000001
 40
0.0
 40
0.0
 40
0.0
 40
0.0
 40
1.0
 40
1.0
 40
1.0
 40
1.0
 10
37.79981291341181
 20
-0.3346098845292926
 30
0.0
 10
37.43719570695541
 20
-0.2026005516817942
 30
0.0
 10
37.073668779456
 20
-0.0703417242238958
 30
0.0
 10
36.70991094817012
 20
0.0619193736495741
 30
0.0
  0
SPLINE
  5
153
330
1F
100
AcDbEntity
  8
외형선
  6
Continuous
 62
     1
370
    15
100
AcDbSpline
210
0.0
220
0.0
230
1.0
 70
     8
 71
     3
 72
     8
 73
     4
 74
     0
 42
0.000000001
 43
0.00000001
 40
0.0
 40
0.0
 40
0.0
 40
0.0
 40
1.0
 40
1.0
 40
1.0
 40
1.0
 10
37.95679497361215
 20
-0.3970844559856478
 30
0.0
 10
37.91192755121718
 20
-0.3772428189165216
 30
0.0
 10
37.85674184141305
 20
-0.3553346313735825
 30
0.0
 10
37.79981291343225
 20
-0.3346098845367309
 30
0.0
  0
SPLINE
  5
154
330
1F
100
AcDbEntity
  8
외형선
  6
Continuous
 62
     1
370
    15
100
AcDbSpline
210
0.0
220
0.0
230
1.0
 70
     8
 71
     3
 72
    10
 73
     6
 74
     0
 42
0.000000001
 43
0.00000001
 40
0.0
 40
0.0
 40
0.0
 40
0.0
 40
0.5
 40
0.5
 40
1.0
 40
1.0
 40
1.0
 40
1.0
 10
38.58343040101212
 20
-0.6235169202529457
 30
0.0
 10
38.49054059068794
 20
-0.5954786879012687
 30
0.0
 10
38.37771419263593
 20
-0.5595741387422137
 30
0.0
 10
38.15263010169361
 20
-0.4790591472025003
 30
0.0
 10
38.04533378898528
 20
-0.4362388122510376
 30
0.0
 10
37.9567949736122
 20
-0.3970844559856463
 30
0.0
  0
SPLINE
  5
155
330
1F
100
AcDbEntity
  8
외형선
  6
Continuous
 62
     1
370
    15
100
AcDbSpline
210
0.0
220
0.0
230
1.0
 70
     8
 71
     3
 72
     8
 73
     4
 74
     0
 42
0.000000001
 43
0.00000001
 40
0.0
 40
0.0
 40
0.0
 40
0.0
 40
1.0
 40
1.0
 40
1.0
 40
1.0
 10
38.73976071259242
 20
-0.6764861254392744
 30
0.0
 10
38.68456809903563
 20
-0.6564629036851986
 30
0.0
 10
38.62903008095351
 20
-0.6372809102632416
 30
0.0
 10
38.58343040101246
 20
-0.6235169202530519
 30
0.0
  0
SPLINE
  5
156
330
1F
100
AcDbEntity
  8
외형선
  6
Continuous
 62
     1
370
    15
100
AcDbSpline
210
0.0
220
0.0
230
1.0
 70
     8
 71
     3
 72
     8
 73
     4
 74
     0
 42
0.000000001
 43
0.00000001
 40
0.0
 40
0.0
 40
0.0
 40
0.0
 40
1.0
 40
1.0
 40
1.0
 40
1.0
 10
39.82982259982886
 20
-1.070557245112087
 30
0.0
 10
39.46607813709618
 20
-0.9395222722163952
 30
0.0
 10
39.10240724593164
 20
-0.8080501919653916
 30
0.0
 10
38.73948969213522
 20
-0.6763878023635881
 30
0.0
  0
SPLINE
  5
157
330
1F
100
AcDbEntity
  8
외형선
  6
Continuous
 62
     1
370
    15
100
AcDbSpline
210
0.0
220
0.0
230
1.0
 70
     8
 71
     3
 72
     8
 73
     4
 74
     0
 42
0.000000001
 43
0.00000001
 40
0.0
 40
0.0
 40
0.0
 40
0.0
 40
1.0
 40
1.0
 40
1.0
 40
1.0
 10
39.9868214421441
 20
-1.127394276996496
 30
0.0
 10
39.94194946975715
 20
-1.110987419266391
 30
0.0
 10
39.88675724974775
 20
-1.091067331091143
 30
0.0
 10
39.8298247488303
 20
-1.070558019266394
 30
0.0
  0
SPLINE
  5
158
330
1F
100
AcDbEntity
  8
외형선
  6
Continuous
 62
     1
370
    15
100
AcDbSpline
210
0.0
220
0.0
230
1.0
 70
     8
 71
     3
 72
    10
 73
     6
 74
     0
 42
0.000000001
 43
0.00000001
 40
0.0
 40
0.0
 40
0.0
 40
0.0
 40
0.4999999999999931
 40
0.4999999999999931
 40
1.0
 40
1.0
 40
1.0
 40
1.0
 10
40.61348774089845
 20
-1.35090775547724
 30
0.0
 10
40.5206111059271
 20
-1.316525301496779
 30
0.0
 10
40.40779510273666
 20
-1.277789666007243
 30
0.0
 10
40.1826850170895
 20
-1.198571679526864
 30
0.0
 10
40.0753668945996
 20
-1.159769779204344
 30
0.0
 10
39.98682144214414
 20
-1.127394276996495
 30
0.0
  0
SPLINE
  5
159
330
1F
100
AcDbEntity
  8
외형선
  6
Continuous
370
    15
100
AcDbSpline
210
0.0
220
0.0
230
1.0
 70
    24
 71
     3
 72
    24
 73
    20
 74
     0
 42
0.000000001
 43
0.00000001
 40
0.0
 40
0.0
 40
0.0
 40
0.0
 40
0.0625
 40
0.0625
 40
0.125
 40
0.125
 40
0.25
 40
0.25
 40
0.375
 40
0.375
 40
0.5
 40
0.5
 40
0.625
 40
0.625
 40
0.75
 40
0.75
 40
0.875
 40
0.875
 40
1.0
 40
1.0
 40
1.0
 40
1.0
 10
9.999999999999988
 20
7.348846909682167
 30
0.0
 10
9.999999999999988
 20
7.218544112511563
 30
0.0
 10
9.999999999999988
 20
7.094322182367747
 30
0.0
 10
9.999999999999988
 20
6.841208025230169
 30
0.0
 10
9.999999999999988
 20
6.709920299457665
 30
0.0
 10
9.999999999999988
 20
6.301823636012983
 30
0.0
 10
9.999999999999988
 20
6.010560648850996
 30
0.0
 10
9.999999999999988
 20
5.393574840401284
 30
0.0
 10
9.999999999999988
 20
5.067723408157128
 30
0.0
 10
9.999999999999988
 20
4.393909111449045
 30
0.0
 10
9.999999999999988
 20
4.045856297913762
 30
0.0
 10
9.999999999999988
 20
3.352190836451565
 30
0.0
 10
9.999999999999988
 20
3.006647686259475
 30
0.0
 10
9.999999999999988
 20
2.355577249347818
 30
0.0
 10
9.999999999999988
 20
2.050392895717736
 30
0.0
 10
9.999999999999988
 20
1.524800417445957
 30
0.0
 10
9.999999999999988
 20
1.304943043918128
 30
0.0
 10
9.999999999999988
 20
0.98800616350152
 30
0.0
 10
9.999999999999991
 20
0.8913500847755624
 30
0.0
 10
9.999999999999991
 20
0.8636565320448235
 30
0.0
  0
SPLINE
  5
15B
330
1F
100
AcDbEntity
  8
외형선
  6
Continuous
 62
     1
370
    15
100
AcDbSpline
210
0.0
220
0.0
230
1.0
 70
     8
 71
     3
 72
     8
 73
     4
 74
     0
 42
0.000000001
 43
0.00000001
 40
0.0
 40
0.0
 40
0.0
 40
0.0
 40
1.0
 40
1.0
 40
1.0
 40
1.0
 10
39.68634666954133
 20
2.481367159791586
 30
0.0
 10
39.74153590167928
 20
2.462307053280251
 30
0.0
 10
39.79706973964493
 20
2.439894162134998
 30
0.0
 10
39.84266212350294
 20
2.418591641691968
 30
0.0
  0
SPLINE
  5
15E
330
1F
100
AcDbEntity
  8
외형선
  6
Continuous
 62
     1
370
    15
100
AcDbSpline
210
0.0
220
0.0
230
1.0
 70
     8
 71
     3
 72
     8
 73
     4
 74
     0
 42
0.000000001
 43
0.00000001
 40
0.0
 40
0.0
 40
0.0
 40
0.0
 40
1.0
 40
1.0
 40
1.0
 40
1.0
 10
37.65633801540552
 20
3.171773987129014
 30
0.0
 10
37.29356614582503
 20
3.292894490864108
 30
0.0
 10
36.92997399413125
 20
3.412787120318917
 30
0.0
 10
36.56624082975468
 20
3.531223923193599
 30
0.0
  0
SPLINE
  5
161
330
1F
100
AcDbEntity
  8
외형선
  6
Continuous
 62
     1
370
    15
100
AcDbSpline
210
0.0
220
0.0
230
1.0
 70
     8
 71
     3
 72
     8
 73
     4
 74
     0
 42
0.000000001
 43
0.00000001
 40
0.0
 40
0.0
 40
0.0
 40
0.0
 40
1.0
 40
1.0
 40
1.0
 40
1.0
 10
39.68634438948288
 20
2.48136794723002
 30
0.0
 10
39.32262125890558
 20
2.606983055671287
 30
0.0
 10
38.95906139877197
 20
2.731545501119046
 30
0.0
 10
38.59634387759398
 20
2.854825375010396
 30
0.0
  0
SPLINE
  5
162
330
1F
100
AcDbEntity
  8
외형선
  6
Continuous
 62
     1
370
    15
100
AcDbSpline
210
0.0
220
0.0
230
1.0
 70
     8
 71
     3
 72
     8
 73
     4
 74
     0
 42
0.000000001
 43
0.00000001
 40
0.0
 40
0.0
 40
0.0
 40
0.0
 40
1.0
 40
1.0
 40
1.0
 40
1.0
 10
41.20000000000185
 20
1.952863206414322
 30
0.0
 10
41.00890706411702
 20
2.020311858275654
 30
0.0
 10
40.81759745947886
 20
2.087560808764447
 30
0.0
 10
40.62617023918477
 20
2.154574756517759
 30
0.0
  0
SPLINE
  5
164
330
1F
100
AcDbEntity
  8
외형선
  6
Continuous
 62
     1
370
    15
100
AcDbSpline
210
0.0
220
0.0
230
1.0
 70
     8
 71
     3
 72
     8
 73
     4
 74
     0
 42
0.000000001
 43
0.00000001
 40
0.0
 40
0.0
 40
0.0
 40
0.0
 40
1.0
 40
1.0
 40
1.0
 40
1.0
 10
11.9231675417579
 20
-3.282885268038691
 30
0.0
 10
11.56023127364777
 20
-3.162666451447019
 30
0.0
 10
11.19678216628593
 20
-3.041027489817615
 30
0.0
 10
10.83349887291714
 20
-2.918194321597622
 30
0.0
  0
SPLINE
  5
165
330
1F
100
AcDbEntity
  8
외형선
  6
Continuous
 62
     1
370
    15
100
AcDbSpline
210
0.0
220
0.0
230
1.0
 70
     8
 71
     3
 72
    10
 73
     6
 74
     0
 42
0.000000001
 43
0.00000001
 40
0.0
 40
0.0
 40
0.0
 40
0.0
 40
0.5
 40
0.5
 40
1.0
 40
1.0
 40
1.0
 40
1.0
 10
11.92316753614176
 20
-3.282885552083345
 30
0.0
 10
11.89975961812779
 20
-2.743107599406936
 30
0.0
 10
11.87533089698101
 20
-2.167727502888129
 30
0.0
 10
11.82623889753405
 20
-0.9872218260588527
 30
0.0
 10
11.80159163973297
 20
-0.3824780360967146
 30
0.0
 10
11.77777340141916
 20
0.213581127367892
 30
0.0
  0
SPLINE
  5
166
330
1F
100
AcDbEntity
  8
외형선
  6
Continuous
 62
     1
370
    15
100
AcDbSpline
210
0.0
220
0.0
230
1.0
 70
     8
 71
     3
 72
     8
 73
     4
 74
     0
 42
0.000000001
 43
0.00000001
 40
0.0
 40
0.0
 40
0.0
 40
0.0
 40
1.0
 40
1.0
 40
1.0
 40
1.0
 10
13.95204821081716
 20
-3.940510507100799
 30
0.0
 10
13.58822582754509
 20
-3.825622691190332
 30
0.0
 10
13.2250323176608
 20
-3.709157334906643
 30
0.0
 10
12.86266593301022
 20
-3.591287470433863
 30
0.0
  0
SPLINE
  5
167
330
1F
100
AcDbEntity
  8
외형선
  6
Continuous
 62
     1
370
    15
100
AcDbSpline
210
0.0
220
0.0
230
1.0
 70
     8
 71
     3
 72
    10
 73
     6
 74
     0
 42
0.000000001
 43
0.00000001
 40
0.0
 40
0.0
 40
0.0
 40
0.0
 40
0.5
 40
0.5
 40
1.0
 40
1.0
 40
1.0
 40
1.0
 10
12.86266594636901
 20
-3.591287775904078
 30
0.0
 10
12.8396518225481
 20
-3.065149324583666
 30
0.0
 10
12.81545961482682
 20
-2.499988176687768
 30
0.0
 10
12.76646803899675
 20
-1.331029326798064
 30
0.0
 10
12.74168443328007
 20
-0.7275983573065621
 30
0.0
 10
12.71755980007807
 20
-0.1284465186576202
 30
0.0
  0
SPLINE
  5
168
330
1F
100
AcDbEntity
  8
외형선
  6
Continuous
 62
     1
370
    15
100
AcDbSpline
210
0.0
220
0.0
230
1.0
 70
     8
 71
     3
 72
    12
 73
     8
 74
     0
 42
0.000000001
 43
0.00000001
 40
0.0
 40
0.0
 40
0.0
 40
0.0
 40
0.2499999999999999
 40
0.2499999999999999
 40
0.4999999999999998
 40
0.4999999999999998
 40
1.0
 40
1.0
 40
1.0
 40
1.0
 10
13.95204822860498
 20
-3.940510908519558
 30
0.0
 10
13.94045926459919
 20
-3.683508590893084
 30
0.0
 10
13.92907447002564
 20
-3.419850889700009
 30
0.0
 10
13.90543269593518
 20
-2.872668684058657
 30
0.0
 10
13.89337486327916
 20
-2.590589101790516
 30
0.0
 10
13.8568237192144
 20
-1.726410782260702
 30
0.0
 10
13.83195377575107
 20
-1.126277604357942
 30
0.0
 10
13.80753825574583
 20
-0.525198745918555
 30
0.0
  0
SPLINE
  5
16A
330
1F
100
AcDbEntity
  8
외형선
  6
Continuous
 62
     1
370
    15
100
AcDbSpline
210
0.0
220
0.0
230
1.0
 70
     8
 71
     3
 72
     8
 73
     4
 74
     0
 42
0.000000001
 43
0.00000001
 40
0.0
 40
0.0
 40
0.0
 40
0.0
 40
1.0
 40
1.0
 40
1.0
 40
1.0
 10
35.6262467318717
 20
3.833958502058328
 30
0.0
 10
35.26221508569149
 20
3.94990400943617
 30
0.0
 10
34.8986401286674
 20
4.064199460877139
 30
0.0
 10
34.53617572814904
 20
4.176640550619262
 30
0.0
  0
SPLINE
  5
16C
330
1F
100
AcDbEntity
  8
외형선
  6
Continuous
 62
     1
370
    15
100
AcDbSpline
210
0.0
220
0.0
230
1.0
 70
     8
 71
     3
 72
     8
 73
     4
 74
     0
 42
0.000000001
 43
0.00000001
 40
0.0
 40
0.0
 40
0.0
 40
0.0
 40
1.0
 40
1.0
 40
1.0
 40
1.0
 10
12.0800800952234
 20
-3.31960053739228
 30
0.0
 10
12.03523900270057
 20
-3.314570398041335
 30
0.0
 10
11.98007487913756
 20
-3.301735224239423
 30
0.0
 10
11.92316752356315
 20
-3.282885262011882
 30
0.0
  0
SPLINE
  5
16D
330
1F
100
AcDbEntity
  8
외형선
  6
Continuous
 62
     1
370
    15
100
AcDbSpline
210
0.0
220
0.0
230
1.0
 70
     8
 71
     3
 72
    10
 73
     6
 74
     0
 42
0.000000001
 43
0.00000001
 40
0.0
 40
0.0
 40
0.0
 40
0.0
 40
0.5
 40
0.5
 40
1.0
 40
1.0
 40
1.0
 40
1.0
 10
12.08008006656964
 20
-3.31959988214921
 30
0.0
 10
12.05663740957451
 20
-2.783522322986633
 30
0.0
 10
12.03213380970257
 20
-2.211087310720195
 30
0.0
 10
11.98282694247468
 20
-1.034898787589
 30
0.0
 10
11.95804003554373
 20
-0.4315310411612032
 30
0.0
 10
11.93406574238171
 20
0.1637543513983885
 30
0.0
  0
SPLINE
  5
16F
330
1F
100
AcDbEntity
  8
외형선
  6
Continuous
 62
     1
370
    15
100
AcDbSpline
210
0.0
220
0.0
230
1.0
 70
     8
 71
     3
 72
     8
 73
     4
 74
     0
 42
0.000000001
 43
0.00000001
 40
0.0
 40
0.0
 40
0.0
 40
0.0
 40
1.0
 40
1.0
 40
1.0
 40
1.0
 10
38.4393515411816
 20
2.895989190767705
 30
0.0
 10
38.48422322803079
 20
2.888576219966105
 30
0.0
 10
38.53941321867443
 20
2.874174880503022
 30
0.0
 10
38.59634594975244
 20
2.854824670729198
 30
0.0
  0
SPLINE
  5
170
330
1F
100
AcDbEntity
  8
외형선
  6
Continuous
 62
     1
370
    15
100
AcDbSpline
210
0.0
220
0.0
230
1.0
 70
     8
 71
     3
 72
    10
 73
     6
 74
     0
 42
0.000000001
 43
0.00000001
 40
0.0
 40
0.0
 40
0.0
 40
0.0
 40
0.4999999999999931
 40
0.4999999999999931
 40
1.0
 40
1.0
 40
1.0
 40
1.0
 10
39.84266212350223
 20
2.41859164169187
 30
0.0
 10
39.93552216700077
 20
2.375203847337184
 30
0.0
 10
40.04832289338027
 20
2.332742687869263
 30
0.0
 10
40.27339671161081
 20
2.256439629897221
 30
0.0
 10
40.38069407818579
 20
2.224092807284338
 30
0.0
 10
40.46921393779337
 20
2.202260881342758
 30
0.0
  0
SPLINE
  5
171
330
1F
100
AcDbEntity
  8
외형선
  6
Continuous
 62
     1
370
    15
100
AcDbSpline
210
0.0
220
0.0
230
1.0
 70
     8
 71
     3
 72
     8
 73
     4
 74
     0
 42
0.000000001
 43
0.00000001
 40
0.0
 40
0.0
 40
0.0
 40
0.0
 40
1.0
 40
1.0
 40
1.0
 40
1.0
 10
37.65633991477695
 20
3.171773352976626
 30
0.0
 10
37.71153438120952
 20
3.15334529273432
 30
0.0
 10
37.76707483995921
 20
3.129915352532315
 30
0.0
 10
37.81267743092167
 20
3.105843577163663
 30
0.0
  0
SPLINE
  5
173
330
1F
100
AcDbEntity
  8
외형선
  6
Continuous
 62
     1
370
    15
100
AcDbSpline
210
0.0
220
0.0
230
1.0
 70
     8
 71
     3
 72
     8
 73
     4
 74
     0
 42
0.000000001
 43
0.00000001
 40
0.0
 40
0.0
 40
0.0
 40
0.0
 40
1.0
 40
1.0
 40
1.0
 40
1.0
 10
15.98128785382587
 20
-4.563252996277941
 30
0.0
 10
15.61861640158995
 20
-4.455184364878761
 30
0.0
 10
15.25514998925825
 20
-4.345140439049095
 30
0.0
 10
14.89156720383596
 20
-4.233322314548717
 30
0.0
  0
SPLINE
  5
174
330
1F
100
AcDbEntity
  8
외형선
  6
Continuous
 62
     1
370
    15
100
AcDbSpline
210
0.0
220
0.0
230
1.0
 70
     8
 71
     3
 72
    12
 73
     8
 74
     0
 42
0.000000001
 43
0.00000001
 40
0.0
 40
0.0
 40
0.0
 40
0.0
 40
0.2500000000000001
 40
0.2500000000000001
 40
0.5000000000000002
 40
0.5000000000000002
 40
1.0
 40
1.0
 40
1.0
 40
1.0
 10
14.89156720582332
 20
-4.233322375751237
 30
0.0
 10
14.87976062148008
 20
-3.981105292395558
 30
0.0
 10
14.86840391740358
 20
-3.723230296764629
 30
0.0
 10
14.84512013877075
 20
-3.188879104829909
 30
0.0
 10
14.83320145260273
 20
-2.912337873187901
 30
0.0
 10
14.79693500322405
 20
-2.061707098256886
 30
0.0
 10
14.77207479833334
 20
-1.46644121750486
 30
0.0
 10
14.74748732210527
 20
-0.8656733581270013
 30
0.0
  0
SPLINE
  5
175
330
1F
100
AcDbEntity
  8
외형선
  6
Continuous
 62
     1
370
    15
100
AcDbSpline
210
0.0
220
0.0
230
1.0
 70
     8
 71
     3
 72
    10
 73
     6
 74
     0
 42
0.000000001
 43
0.00000001
 40
0.0
 40
0.0
 40
0.0
 40
0.0
 40
0.5
 40
0.5
 40
1.0
 40
1.0
 40
1.0
 40
1.0
 10
15.98128785994795
 20
-4.563253126186397
 30
0.0
 10
15.95725683549767
 20
-4.072087626068013
 30
0.0
 10
15.93474480061218
 20
-3.55295906687398
 30
0.0
 10
15.88701186044085
 20
-2.443875626854348
 30
0.0
 10
15.86226212545905
 20
-1.856611181968528
 30
0.0
 10
15.8375703040461
 20
-1.25855640915474
 30
0.0
  0
SPLINE
  5
177
330
1F
100
AcDbEntity
  8
외형선
  6
Continuous
 62
     1
370
    15
100
AcDbSpline
210
0.0
220
0.0
230
1.0
 70
     8
 71
     3
 72
     8
 73
     4
 74
     0
 42
0.000000001
 43
0.00000001
 40
0.0
 40
0.0
 40
0.0
 40
0.0
 40
1.0
 40
1.0
 40
1.0
 40
1.0
 10
36.40924375008781
 20
3.565285662601831
 30
0.0
 10
36.45411631588914
 20
3.561662371755557
 30
0.0
 10
36.50930912533003
 20
3.549761713792661
 30
0.0
 10
36.56624198214062
 20
3.531223547961173
 30
0.0
  0
SPLINE
  5
178
330
1F
100
AcDbEntity
  8
외형선
  6
Continuous
 62
     1
370
    15
100
AcDbSpline
210
0.0
220
0.0
230
1.0
 70
     8
 71
     3
 72
     8
 73
     4
 74
     0
 42
0.000000001
 43
0.00000001
 40
0.0
 40
0.0
 40
0.0
 40
0.0
 40
1.0
 40
1.0
 40
1.0
 40
1.0
 10
12.86266593300667
 20
-3.591287470432928
 30
0.0
 10
12.80750107497918
 20
-3.573343547887077
 30
0.0
 10
12.75198827971721
 20
-3.549396626827722
 30
0.0
 10
12.70640977545284
 20
-3.523719838004149
 30
0.0
  0
SPLINE
  5
179
330
1F
100
AcDbEntity
  8
외형선
  6
Continuous
 62
     1
370
    15
100
AcDbSpline
210
0.0
220
0.0
230
1.0
 70
     8
 71
     3
 72
    10
 73
     6
 74
     0
 42
0.000000001
 43
0.00000001
 40
0.0
 40
0.0
 40
0.0
 40
0.0
 40
0.5
 40
0.5
 40
1.0
 40
1.0
 40
1.0
 40
1.0
 10
12.70640977545227
 20
-3.523719837992376
 30
0.0
 10
12.68323228231303
 20
-2.996747402349872
 30
0.0
 10
12.65888819168928
 20
-2.431136916579399
 30
0.0
 10
12.60964956500827
 20
-1.262654629413043
 30
0.0
 10
12.58477121176642
 20
-0.6601583534509277
 30
0.0
 10
12.56059108483685
 20
-0.0628001901360812
 30
0.0
  0
SPLINE
  5
17A
330
1F
100
AcDbEntity
  8
외형선
  6
Continuous
 62
     1
370
    15
100
AcDbSpline
210
0.0
220
0.0
230
1.0
 70
     8
 71
     3
 72
     8
 73
     4
 74
     0
 42
0.000000001
 43
0.00000001
 40
0.0
 40
0.0
 40
0.0
 40
0.0
 40
1.0
 40
1.0
 40
1.0
 40
1.0
 10
35.62624737957722
 20
3.833958295762235
 30
0.0
 10
35.68144113658179
 20
3.816378867364469
 30
0.0
 10
35.73698155990539
 20
3.792206125493345
 30
0.0
 10
35.78258096287274
 20
3.765645063705406
 30
0.0
  0
SPLINE
  5
17C
330
1F
100
AcDbEntity
  8
외형선
  6
Continuous
 62
     1
370
    15
100
AcDbSpline
210
0.0
220
0.0
230
1.0
 70
     8
 71
     3
 72
    10
 73
     6
 74
     0
 42
0.000000001
 43
0.00000001
 40
0.0
 40
0.0
 40
0.0
 40
0.0
 40
0.5
 40
0.5
 40
1.0
 40
1.0
 40
1.0
 40
1.0
 10
37.81267743092089
 20
3.105843577163387
 30
0.0
 10
37.90557220272954
 20
3.056808159817338
 30
0.0
 10
38.01840099633269
 20
3.012201716235625
 30
0.0
 10
38.24348859034874
 20
2.938409270938428
 30
0.0
 10
38.35080173091881
 20
2.910617951218968
 30
0.0
 10
38.43935154118149
 20
2.895989190767663
 30
0.0
  0
SPLINE
  5
17D
330
1F
100
AcDbEntity
  8
외형선
  6
Continuous
 62
     1
370
    15
100
AcDbSpline
210
0.0
220
0.0
230
1.0
 70
     8
 71
     3
 72
    10
 73
     6
 74
     0
 42
0.000000001
 43
0.00000001
 40
0.0
 40
0.0
 40
0.0
 40
0.0
 40
0.5
 40
0.5
 40
1.0
 40
1.0
 40
1.0
 40
1.0
 10
12.70640977545281
 20
-3.523719838004161
 30
0.0
 10
12.61358589306688
 20
-3.471427221906364
 30
0.0
 10
12.50083296179493
 20
-3.425772435374622
 30
0.0
 10
12.27583228679466
 20
-3.354189194599005
 30
0.0
 10
12.16856888295929
 20
-3.329526944361103
 30
0.0
 10
12.08008009522345
 20
-3.319600537392295
 30
0.0
  0
SPLINE
  5
17E
330
1F
100
AcDbEntity
  8
외형선
  6
Continuous
 62
     1
370
    15
100
AcDbSpline
210
0.0
220
0.0
230
1.0
 70
     8
 71
     3
 72
     8
 73
     4
 74
     0
 42
0.000000001
 43
0.00000001
 40
0.0
 40
0.0
 40
0.0
 40
0.0
 40
1.0
 40
1.0
 40
1.0
 40
1.0
 10
14.10894336259511
 20
-3.970019590681212
 30
0.0
 10
14.06410717614006
 20
-3.968776394959741
 30
0.0
 10
14.00894849994119
 20
-3.958478477854511
 30
0.0
 10
13.95204821049992
 20
-3.940510507000633
 30
0.0
  0
SPLINE
  5
17F
330
1F
100
AcDbEntity
  8
외형선
  6
Continuous
 62
     1
370
    15
100
AcDbSpline
210
0.0
220
0.0
230
1.0
 70
     8
 71
     3
 72
    12
 73
     8
 74
     0
 42
0.000000001
 43
0.00000001
 40
0.0
 40
0.0
 40
0.0
 40
0.0
 40
0.25
 40
0.25
 40
0.5
 40
0.5
 40
1.0
 40
1.0
 40
1.0
 40
1.0
 10
14.10894335890554
 20
-3.970019509983156
 30
0.0
 10
14.09725797587875
 20
-3.714437425925922
 30
0.0
 10
14.08586645103215
 20
-3.452687839728897
 30
0.0
 10
14.06217723291063
 20
-2.908908709065127
 30
0.0
 10
14.0500861571729
 20
-2.6283484965583
 30
0.0
 10
14.01340917906665
 20
-1.768162138578453
 30
0.0
 10
13.98842008121742
 20
-1.169922664704089
 30
0.0
 10
13.96386361311956
 20
-0.5700824659839617
 30
0.0
  0
SPLINE
  5
180
330
1F
100
AcDbEntity
  8
외형선
  6
Continuous
 62
     1
370
    15
100
AcDbSpline
210
0.0
220
0.0
230
1.0
 70
     8
 71
     3
 72
    10
 73
     6
 74
     0
 42
0.000000001
 43
0.00000001
 40
0.0
 40
0.0
 40
0.0
 40
0.0
 40
0.5
 40
0.5
 40
1.0
 40
1.0
 40
1.0
 40
1.0
 10
32.65175785126758
 20
1.529165016387928
 30
0.0
 10
32.62842024760332
 20
2.110397461103425
 30
0.0
 10
32.60403192943103
 20
2.687334200847909
 30
0.0
 10
32.55495098869438
 20
3.787154109627748
 30
0.0
 10
32.53027435753084
 20
4.309667438550513
 30
0.0
 10
32.50639541740374
 20
4.785813828568857
 30
0.0
  0
SPLINE
  5
181
330
1F
100
AcDbEntity
  8
외형선
  6
Continuous
 62
     1
370
    15
100
AcDbSpline
210
0.0
220
0.0
230
1.0
 70
     8
 71
     3
 72
     8
 73
     4
 74
     0
 42
0.000000001
 43
0.00000001
 40
0.0
 40
0.0
 40
0.0
 40
0.0
 40
1.0
 40
1.0
 40
1.0
 40
1.0
 10
33.59625484887648
 20
4.463811550402565
 30
0.0
 10
33.23327849015203
 20
4.573014117706381
 30
0.0
 10
32.86976563530919
 20
4.680415755725223
 30
0.0
 10
32.50639528639446
 20
4.785813724767753
 30
0.0
  0
SPLINE
  5
182
330
1F
100
AcDbEntity
  8
외형선
  6
Continuous
 62
     1
370
    15
100
AcDbSpline
210
0.0
220
0.0
230
1.0
 70
     8
 71
     3
 72
    10
 73
     6
 74
     0
 42
0.000000001
 43
0.00000001
 40
0.0
 40
0.0
 40
0.0
 40
0.0
 40
0.5
 40
0.5
 40
1.0
 40
1.0
 40
1.0
 40
1.0
 10
33.74119095355173
 20
1.138645393168681
 30
0.0
 10
33.71832319001798
 20
1.721506017732111
 30
0.0
 10
33.69422476280653
 20
2.305176765066093
 30
0.0
 10
33.64529264843868
 20
3.428367288853045
 30
0.0
 10
33.62047457435074
 20
3.967499875778674
 30
0.0
 10
33.59625539207889
 20
4.463812098053188
 30
0.0
  0
SPLINE
  5
183
330
1F
100
AcDbEntity
  8
외형선
  6
Continuous
 62
     1
370
    15
100
AcDbSpline
210
0.0
220
0.0
230
1.0
 70
     8
 71
     3
 72
     8
 73
     4
 74
     0
 42
0.000000001
 43
0.00000001
 40
0.0
 40
0.0
 40
0.0
 40
0.0
 40
0.6201020919649195
 40
0.6201020919649195
 40
0.6201020919649195
 40
0.6201020919649195
 10
41.19999999999998
 20
1.952863206415449
 30
0.0
 10
41.31311159272298
 20
1.900934621993379
 30
0.0
 10
41.42654079113844
 20
1.853955999904105
 30
0.0
 10
41.5403586648719
 20
1.812210447427195
 30
0.0
  0
SPLINE
  5
185
330
1F
100
AcDbEntity
  8
외형선
  6
Continuous
 62
     1
370
    15
100
AcDbSpline
210
0.0
220
0.0
230
1.0
 70
    24
 71
     3
 72
     8
 73
     4
 74
     0
 42
0.000000001
 43
0.00000001
 40
0.0001530616044152
 40
0.0001530616044152
 40
0.0001530616044152
 40
0.0001530616044152
 40
0.0008100105960816
 40
0.0008100105960816
 40
0.0008100105960816
 40
0.0008100105960816
 10
41.64915678385577
 20
-1.261236180121531
 30
0.0
 10
41.50448159958738
 20
-1.362538834738132
 30
0.0
 10
41.35932196360964
 20
-1.46418070609352
 30
0.0
 10
41.21374787574939
 20
-1.566112779781269
 30
0.0
  0
SPLINE
  5
187
330
1F
100
AcDbEntity
  8
외형선
  6
Continuous
 62
     1
370
    15
100
AcDbSpline
210
0.0
220
0.0
230
1.0
 70
     8
 71
     3
 72
     8
 73
     4
 74
     0
 42
0.000000001
 43
0.00000001
 40
0.0
 40
0.0
 40
0.0
 40
0.0
 40
1.0
 40
1.0
 40
1.0
 40
1.0
 10
34.37918522950654
 20
4.203566847626902
 30
0.0
 10
34.42405832350332
 20
4.203690251395606
 30
0.0
 10
34.47924835477489
 20
4.19430014973516
 30
0.0
 10
34.53617625175385
 20
4.176640388191872
 30
0.0
  0
SPLINE
  5
188
330
1F
100
AcDbEntity
  8
외형선
  6
Continuous
 62
     1
370
    15
100
AcDbSpline
210
0.0
220
0.0
230
1.0
 70
     8
 71
     3
 72
     8
 73
     4
 74
     0
 42
0.000000001
 43
0.00000001
 40
0.0
 40
0.0
 40
0.0
 40
0.0
 40
1.0
 40
1.0
 40
1.0
 40
1.0
 10
14.89156720294496
 20
-4.233322314274839
 30
0.0
 10
14.83639021335594
 20
-4.216352898397661
 30
0.0
 10
14.78087070303195
 20
-4.191811930477879
 30
0.0
 10
14.73529185209911
 20
-4.163796950386718
 30
0.0
  0
SPLINE
  5
189
330
1F
100
AcDbEntity
  8
외형선
  6
Continuous
 62
     1
370
    15
100
AcDbSpline
210
0.0
220
0.0
230
1.0
 70
     8
 71
     3
 72
    12
 73
     8
 74
     0
 42
0.000000001
 43
0.00000001
 40
0.0
 40
0.0
 40
0.0
 40
0.0
 40
0.2499999999999999
 40
0.2499999999999999
 40
0.4999999999999998
 40
0.4999999999999998
 40
1.0
 40
1.0
 40
1.0
 40
1.0
 10
14.73529185209664
 20
-4.16379695033523
 30
0.0
 10
14.72346137841993
 20
-3.911414396651375
 30
0.0
 10
14.71208241069476
 20
-3.653468981563716
 30
0.0
 10
14.68863380519968
 20
-3.118244142838768
 30
0.0
 10
14.67663624983544
 20
-2.841375715536239
 30
0.0
 10
14.64015053101436
 20
-1.990215273812315
 30
0.0
 10
14.61516778833728
 20
-1.395210291781773
 30
0.0
 10
14.59049544450646
 20
-0.7955593200295603
 30
0.0
  0
SPLINE
  5
18A
330
1F
100
AcDbEntity
  8
외형선
  6
Continuous
 62
     1
370
    15
100
AcDbSpline
210
0.0
220
0.0
230
1.0
 70
     8
 71
     3
 72
    10
 73
     6
 74
     0
 42
0.000000001
 43
0.00000001
 40
0.0
 40
0.0
 40
0.0
 40
0.0
 40
0.5
 40
0.5
 40
1.0
 40
1.0
 40
1.0
 40
1.0
 10
35.78258096287063
 20
3.765645063708182
 30
0.0
 10
35.87545687398556
 20
3.711546048080545
 30
0.0
 10
35.98827346552783
 20
3.665379937190658
 30
0.0
 10
36.21338207485116
 20
3.595223007238213
 30
0.0
 10
36.32069909185925
 20
3.572435310586379
 30
0.0
 10
36.40924375008721
 20
3.565285662601812
 30
0.0
  0
SPLINE
  5
18B
330
1F
100
AcDbEntity
  8
외형선
  6
Continuous
 62
     1
370
    15
100
AcDbSpline
210
0.0
220
0.0
230
1.0
 70
     8
 71
     3
 72
     8
 73
     4
 74
     0
 42
0.000000001
 43
0.00000001
 40
0.0
 40
0.0
 40
0.0
 40
0.0
 40
1.0
 40
1.0
 40
1.0
 40
1.0
 10
33.59625542729508
 20
4.463811376384369
 30
0.0
 10
33.65144489026815
 20
4.447207454352253
 30
0.0
 10
33.70697843919179
 20
4.422461852961176
 30
0.0
 10
33.75257255145276
 20
4.393599535715826
 30
0.0
  0
SPLINE
  5
18C
330
1F
100
AcDbEntity
  8
외형선
  6
Continuous
 62
     1
370
    15
100
AcDbSpline
210
0.0
220
0.0
230
1.0
 70
     8
 71
     3
 72
    10
 73
     6
 74
     0
 42
0.000000001
 43
0.00000001
 40
0.0
 40
0.0
 40
0.0
 40
0.0
 40
0.5
 40
0.5
 40
1.0
 40
1.0
 40
1.0
 40
1.0
 10
33.89806206444283
 20
1.066944395772769
 30
0.0
 10
33.87508750934772
 20
1.649341728523549
 30
0.0
 10
33.85101240154604
 20
2.231967242514114
 30
0.0
 10
33.80188936258588
 20
3.355814650498361
 30
0.0
 10
33.77694136795365
 20
3.895941992663303
 30
0.0
 10
33.75257255236789
 20
4.393599517010927
 30
0.0
  0
SPLINE
  5
18D
330
1F
100
AcDbEntity
  8
외형선
  6
Continuous
 62
     1
370
    15
100
AcDbSpline
210
0.0
220
0.0
230
1.0
 70
     8
 71
     3
 72
    10
 73
     6
 74
     0
 42
0.000000001
 43
0.00000001
 40
0.0
 40
0.0
 40
0.0
 40
0.0
 40
0.5
 40
0.5
 40
1.0
 40
1.0
 40
1.0
 40
1.0
 10
14.73529185209902
 20
-4.163796950386619
 30
0.0
 10
14.64246434583132
 20
-4.106740647149966
 30
0.0
 10
14.52969806289682
 20
-4.059755993869675
 30
0.0
 10
14.30468777488728
 20
-3.992070038063829
 30
0.0
 10
14.1974234476386
 20
-3.972472922952714
 30
0.0
 10
14.10894336259511
 20
-3.970019590681207
 30
0.0
  0
SPLINE
  5
18E
330
1F
100
AcDbEntity
  8
외형선
  6
Continuous
 62
     1
370
    15
100
AcDbSpline
210
0.0
220
0.0
230
1.0
 70
     8
 71
     3
 72
     8
 73
     4
 74
     0
 42
0.000000001
 43
0.00000001
 40
0.0
 40
0.0
 40
0.0
 40
0.0
 40
1.0
 40
1.0
 40
1.0
 40
1.0
 10
18.01110191760007
 20
-5.147420284960722
 30
0.0
 10
17.64736063048083
 20
-5.046746851229473
 30
0.0
 10
17.28380753507435
 20
-4.943946013939018
 30
0.0
 10
16.92112163835775
 20
-4.839216094747618
 30
0.0
  0
SPLINE
  5
18F
330
1F
100
AcDbEntity
  8
외형선
  6
Continuous
 62
     1
370
    15
100
AcDbSpline
210
0.0
220
0.0
230
1.0
 70
     8
 71
     3
 72
    12
 73
     8
 74
     0
 42
0.000000001
 43
0.00000001
 40
0.0
 40
0.0
 40
0.0
 40
0.0
 40
0.25
 40
0.25
 40
0.5
 40
0.5
 40
1.0
 40
1.0
 40
1.0
 40
1.0
 10
16.92112164163448
 20
-4.839216159321045
 30
0.0
 10
16.90896507971797
 20
-4.60027794039395
 30
0.0
 10
16.89696330502839
 20
-4.351856965095166
 30
0.0
 10
16.8734876379919
 20
-3.841432987050486
 30
0.0
 10
16.86215328835832
 20
-3.580580966167901
 30
0.0
 10
16.82687095237702
 20
-2.767576183661189
 30
0.0
 10
16.80230177537024
 20
-2.189215691920645
 30
0.0
 10
16.77760361108507
 20
-1.595548405444972
 30
0.0
  0
SPLINE
  5
190
330
1F
100
AcDbEntity
  8
외형선
  6
Continuous
 62
     1
370
    15
100
AcDbSpline
210
0.0
220
0.0
230
1.0
 70
     8
 71
     3
 72
    10
 73
     6
 74
     0
 42
0.000000001
 43
0.00000001
 40
0.0
 40
0.0
 40
0.0
 40
0.0
 40
0.5
 40
0.5
 40
1.0
 40
1.0
 40
1.0
 40
1.0
 10
18.01110183989096
 20
-5.147420296234908
 30
0.0
 10
17.98655695331111
 20
-4.686958587465428
 30
0.0
 10
17.96263517280302
 20
-4.185404939678772
 30
0.0
 10
17.91655882565586
 20
-3.134113227060532
 30
0.0
 10
17.8922954000735
 20
-2.568285747044668
 30
0.0
 10
17.86768785516302
 20
-1.982051015718901
 30
0.0
  0
SPLINE
  5
191
330
1F
100
AcDbEntity
  8
외형선
  6
Continuous
 62
     1
370
    15
100
AcDbSpline
210
0.0
220
0.0
230
1.0
 70
     8
 71
     3
 72
    10
 73
     6
 74
     0
 42
0.000000001
 43
0.00000001
 40
0.0
 40
0.0
 40
0.0
 40
0.0
 40
0.5
 40
0.5
 40
1.0
 40
1.0
 40
1.0
 40
1.0
 10
33.752572551452
 20
4.393599535715155
 30
0.0
 10
33.84545348048724
 20
4.334803373076346
 30
0.0
 10
33.95827721854214
 20
4.28734227161065
 30
0.0
 10
34.18336103740799
 20
4.221082761409447
 30
0.0
 10
34.29065672932489
 20
4.203323388805746
 30
0.0
 10
34.37918522950642
 20
4.20356684762684
 30
0.0
  0
SPLINE
  5
192
330
1F
100
AcDbEntity
  8
외형선
  6
Continuous
 62
     1
370
    15
100
AcDbSpline
210
0.0
220
0.0
230
1.0
 70
     8
 71
     3
 72
     8
 73
     4
 74
     0
 42
0.000000001
 43
0.00000001
 40
0.0
 40
0.0
 40
0.0
 40
0.0
 40
1.0
 40
1.0
 40
1.0
 40
1.0
 10
16.13824410322892
 20
-4.585419520551307
 30
0.0
 10
16.09338623791015
 20
-4.587929910210565
 30
0.0
 10
16.03820878291143
 20
-4.580214262091257
 30
0.0
 10
15.9812878535891
 20
-4.563252996207407
 30
0.0
  0
SPLINE
  5
193
330
1F
100
AcDbEntity
  8
외형선
  6
Continuous
 62
     1
370
    15
100
AcDbSpline
210
0.0
220
0.0
230
1.0
 70
     8
 71
     3
 72
    12
 73
     8
 74
     0
 42
0.000000001
 43
0.00000001
 40
0.0
 40
0.0
 40
0.0
 40
0.0
 40
0.2499999999999998
 40
0.2499999999999998
 40
0.4999999999999999
 40
0.4999999999999999
 40
1.0
 40
1.0
 40
1.0
 40
1.0
 10
16.13824410322858
 20
-4.585419520544987
 30
0.0
 10
16.12614491656975
 20
-4.341591481543553
 30
0.0
 10
16.11423705375577
 20
-4.089079262263388
 30
0.0
 10
16.09101603413539
 20
-3.57219906890653
 30
0.0
 10
16.07943958897808
 20
-3.30596573035404
 30
0.0
 10
16.04355816786509
 20
-2.478992310062667
 30
0.0
 10
16.01871765000367
 20
-1.894250826647662
 30
0.0
 10
15.9939085631472
 20
-1.298040066859754
 30
0.0
  0
SPLINE
  5
19A
330
1F
100
AcDbEntity
  8
외형선
  6
Continuous
 62
     1
370
    15
100
AcDbSpline
210
0.0
220
0.0
230
1.0
 70
     8
 71
     3
 72
     8
 73
     4
 74
     0
 42
0.000000001
 43
0.00000001
 40
0.0
 40
0.0
 40
0.0
 40
0.0
 40
1.0
 40
1.0
 40
1.0
 40
1.0
 10
32.3494491836128
 20
4.805068979801252
 30
0.0
 10
32.39430243074329
 20
4.809014253347504
 30
0.0
 10
32.44947810583326
 20
4.802322928894172
 30
0.0
 10
32.50639542461963
 20
4.785813684676455
 30
0.0
  0
SPLINE
  5
19B
330
1F
100
AcDbEntity
  8
외형선
  6
Continuous
 62
     1
370
    15
100
AcDbSpline
210
0.0
220
0.0
230
1.0
 70
     8
 71
     3
 72
    10
 73
     6
 74
     0
 42
0.000000001
 43
0.00000001
 40
0.0
 40
0.0
 40
0.0
 40
0.0
 40
0.5
 40
0.5
 40
1.0
 40
1.0
 40
1.0
 40
1.0
 10
31.72299695978571
 20
4.982513879142608
 30
0.0
 10
31.81583777879158
 20
4.919585111547864
 30
0.0
 10
31.92861583558045
 20
4.871308608048805
 30
0.0
 10
32.15365711381551
 20
4.809722051267979
 30
0.0
 10
32.26094065349349
 20
4.797283805151852
 30
0.0
 10
32.34944918361268
 20
4.805068979801185
 30
0.0
  0
SPLINE
  5
19C
330
1F
100
AcDbEntity
  8
외형선
  6
Continuous
 62
     1
370
    15
100
AcDbSpline
210
0.0
220
0.0
230
1.0
 70
     8
 71
     3
 72
     8
 73
     4
 74
     0
 42
0.000000001
 43
0.00000001
 40
0.0
 40
0.0
 40
0.0
 40
0.0
 40
1.0
 40
1.0
 40
1.0
 40
1.0
 10
31.56671400754151
 20
5.053998850334121
 30
0.0
 10
31.62189043054236
 20
5.038508778152499
 30
0.0
 10
31.67741279433358
 20
5.013411445370142
 30
0.0
 10
31.72299695978645
 20
4.982513879143468
 30
0.0
  0
SPLINE
  5
19D
330
1F
100
AcDbEntity
  8
외형선
  6
Continuous
 62
     1
370
    15
100
AcDbSpline
210
0.0
220
0.0
230
1.0
 70
     8
 71
     3
 72
     8
 73
     4
 74
     0
 42
0.000000001
 43
0.00000001
 40
0.0
 40
0.0
 40
0.0
 40
0.0
 40
1.0
 40
1.0
 40
1.0
 40
1.0
 10
31.56671398585544
 20
5.053998856421208
 30
0.0
 10
31.20295907564813
 20
5.15611837604129
 30
0.0
 10
30.84063916412198
 20
5.255996160063178
 30
0.0
 10
30.47714314767178
 20
5.353747869278985
 30
0.0
  0
SPLINE
  5
19E
330
1F
100
AcDbEntity
  8
외형선
  6
Continuous
 62
     1
370
    15
100
AcDbSpline
210
0.0
220
0.0
230
1.0
 70
     8
 71
     3
 72
     8
 73
     4
 74
     0
 42
0.000000001
 43
0.00000001
 40
0.0
 40
0.0
 40
0.0
 40
0.0
 40
1.0
 40
1.0
 40
1.0
 40
1.0
 10
30.32025399220234
 20
5.365372822608474
 30
0.0
 10
30.36508868720816
 20
5.373056561564577
 30
0.0
 10
30.42024579620153
 20
5.369048761579087
 30
0.0
 10
30.47714331801797
 20
5.353747823471443
 30
0.0
  0
SPLINE
  5
19F
330
1F
100
AcDbEntity
  8
외형선
  6
Continuous
 62
     1
370
    15
100
AcDbSpline
210
0.0
220
0.0
230
1.0
 70
     8
 71
     3
 72
    10
 73
     6
 74
     0
 42
0.000000001
 43
0.00000001
 40
0.0
 40
0.0
 40
0.0
 40
0.0
 40
0.5
 40
0.5
 40
1.0
 40
1.0
 40
1.0
 40
1.0
 10
29.69401803239017
 20
5.528978991615654
 30
0.0
 10
29.78683118026724
 20
5.462465804936324
 30
0.0
 10
29.89958496957414
 20
5.413773800422371
 30
0.0
 10
30.12455489546966
 20
5.357301717618199
 30
0.0
 10
30.23179387046359
 20
5.350212588254609
 30
0.0
 10
30.32025399220221
 20
5.365372822608404
 30
0.0
  0
SPLINE
  5
1A0
330
1F
100
AcDbEntity
  8
외형선
  6
Continuous
 62
     1
370
    15
100
AcDbSpline
210
0.0
220
0.0
230
1.0
 70
     8
 71
     3
 72
     8
 73
     4
 74
     0
 42
0.000000001
 43
0.00000001
 40
0.0
 40
0.0
 40
0.0
 40
0.0
 40
1.0
 40
1.0
 40
1.0
 40
1.0
 10
29.53777392215388
 20
5.601064554781525
 30
0.0
 10
29.59294150767812
 20
5.586850745704123
 30
0.0
 10
29.64844950872358
 20
5.561635008470979
 30
0.0
 10
29.69401803239092
 20
5.528978991616685
 30
0.0
  0
SPLINE
  5
1A1
330
1F
100
AcDbEntity
  8
외형선
  6
Continuous
 62
     1
370
    15
100
AcDbSpline
210
0.0
220
0.0
230
1.0
 70
     8
 71
     3
 72
     8
 73
     4
 74
     0
 42
0.000000001
 43
0.00000001
 40
0.0
 40
0.0
 40
0.0
 40
0.0
 40
1.0
 40
1.0
 40
1.0
 40
1.0
 10
29.53777392215262
 20
5.601064554780718
 30
0.0
 10
29.17464212923529
 20
5.694624675736021
 30
0.0
 10
28.81125605159916
 20
5.785880188582099
 30
0.0
 10
28.44829401083788
 20
5.874661855833923
 30
0.0
  0
SPLINE
  5
1A2
330
1F
100
AcDbEntity
  8
외형선
  6
Continuous
 62
     1
370
    15
100
AcDbSpline
210
0.0
220
0.0
230
1.0
 70
     8
 71
     3
 72
     8
 73
     4
 74
     0
 42
0.000000001
 43
0.00000001
 40
0.0
 40
0.0
 40
0.0
 40
0.0
 40
1.0
 40
1.0
 40
1.0
 40
1.0
 10
28.29137453278275
 20
5.878476995459623
 30
0.0
 10
28.33621861452518
 20
5.889843060949436
 30
0.0
 10
28.39138467298586
 20
5.888582060511366
 30
0.0
 10
28.44829401083999
 20
5.874661855835815
 30
0.0
  0
SPLINE
  5
1A3
330
1F
100
AcDbEntity
  8
외형선
  6
Continuous
 62
     1
370
    15
100
AcDbSpline
210
0.0
220
0.0
230
1.0
 70
     8
 71
     3
 72
    10
 73
     6
 74
     0
 42
0.000000001
 43
0.00000001
 40
0.0
 40
0.0
 40
0.0
 40
0.0
 40
0.5
 40
0.5
 40
1.0
 40
1.0
 40
1.0
 40
1.0
 10
27.6649356748982
 20
6.026992004156998
 30
0.0
 10
27.75777873150375
 20
5.957392232456974
 30
0.0
 10
27.87054921870122
 20
5.908660745149421
 30
0.0
 10
28.09558636306332
 20
5.857730450649663
 30
0.0
 10
28.20286999870738
 20
5.856044864141908
 30
0.0
 10
28.29137453278278
 20
5.878476995459222
 30
0.0
  0
SPLINE
  5
1A4
330
1F
100
AcDbEntity
  8
외형선
  6
Continuous
 62
     1
370
    15
100
AcDbSpline
210
0.0
220
0.0
230
1.0
 70
     8
 71
     3
 72
     8
 73
     4
 74
     0
 42
0.000000001
 43
0.00000001
 40
0.0
 40
0.0
 40
0.0
 40
0.0
 40
1.0
 40
1.0
 40
1.0
 40
1.0
 10
27.50863896741056
 20
6.099203187949083
 30
0.0
 10
27.56381722521204
 20
6.08632972125228
 30
0.0
 10
27.61934471356222
 20
6.061169255711736
 30
0.0
 10
27.66493567489897
 20
6.026992004158211
 30
0.0
  0
SPLINE
  5
1A5
330
1F
100
AcDbEntity
  8
외형선
  6
Continuous
 62
     1
370
    15
100
AcDbSpline
210
0.0
220
0.0
230
1.0
 70
     8
 71
     3
 72
     8
 73
     4
 74
     0
 42
0.000000001
 43
0.00000001
 40
0.0
 40
0.0
 40
0.0
 40
0.0
 40
1.0
 40
1.0
 40
1.0
 40
1.0
 10
27.50863896740818
 20
6.099203187948374
 30
0.0
 10
27.14567610765815
 20
6.183884917189958
 30
0.0
 10
26.78279251041629
 20
6.266019390080713
 30
0.0
 10
26.41878246545413
 20
6.34558709763132
 30
0.0
  0
SPLINE
  5
1A6
330
1F
100
AcDbEntity
  8
외형선
  6
Continuous
 62
     1
370
    15
100
AcDbSpline
210
0.0
220
0.0
230
1.0
 70
     8
 71
     3
 72
     8
 73
     4
 74
     0
 42
0.000000001
 43
0.00000001
 40
0.0
 40
0.0
 40
0.0
 40
0.0
 40
1.0
 40
1.0
 40
1.0
 40
1.0
 10
26.26181338687406
 20
6.341597259623842
 30
0.0
 10
26.30667649320764
 20
6.356547801552356
 30
0.0
 10
26.36185958133478
 20
6.358029675686956
 30
0.0
 10
26.41878246545479
 20
6.345587097633849
 30
0.0
  0
SPLINE
  5
1A7
330
1F
100
AcDbEntity
  8
외형선
  6
Continuous
 62
     1
370
    15
100
AcDbSpline
210
0.0
220
0.0
230
1.0
 70
     8
 71
     3
 72
    10
 73
     6
 74
     0
 42
0.000000001
 43
0.00000001
 40
0.0
 40
0.0
 40
0.0
 40
0.0
 40
0.5
 40
0.5
 40
1.0
 40
1.0
 40
1.0
 40
1.0
 10
25.63522872956549
 20
6.473435934221212
 30
0.0
 10
25.72809547980773
 20
6.401435374628671
 30
0.0
 10
25.84090392676348
 20
6.353160864129281
 30
0.0
 10
26.06598702697579
 20
6.308332812890244
 30
0.0
 10
26.17328813229598
 20
6.312096392687254
 30
0.0
 10
26.26181338687392
 20
6.341597259623771
 30
0.0
  0
SPLINE
  5
1A8
330
1F
100
AcDbEntity
  8
외형선
  6
Continuous
 62
     1
370
    15
100
AcDbSpline
210
0.0
220
0.0
230
1.0
 70
     8
 71
     3
 72
     8
 73
     4
 74
     0
 42
0.000000001
 43
0.00000001
 40
0.0
 40
0.0
 40
0.0
 40
0.0
 40
1.0
 40
1.0
 40
1.0
 40
1.0
 10
25.4789074114144
 20
6.544967796783093
 30
0.0
 10
25.53409871535543
 20
6.533615525589474
 30
0.0
 10
25.58963452678698
 20
6.508785594953486
 30
0.0
 10
25.63522872956536
 20
6.473435934223295
 30
0.0
  0
SPLINE
  5
1A9
330
1F
100
AcDbEntity
  8
외형선
  6
Continuous
 62
     1
370
    15
100
AcDbSpline
210
0.0
220
0.0
230
1.0
 70
     8
 71
     3
 72
     8
 73
     4
 74
     0
 42
0.000000001
 43
0.00000001
 40
0.0
 40
0.0
 40
0.0
 40
0.0
 40
1.0
 40
1.0
 40
1.0
 40
1.0
 10
25.47890741141422
 20
6.544967796781723
 30
0.0
 10
25.11530849731657
 20
6.619756272208076
 30
0.0
 10
24.75173767987254
 20
6.691818256617036
 30
0.0
 10
24.38887419718088
 20
6.761024619609413
 30
0.0
  0
SPLINE
  5
1AA
330
1F
100
AcDbEntity
  8
외형선
  6
Continuous
 62
     1
370
    15
100
AcDbSpline
210
0.0
220
0.0
230
1.0
 70
     8
 71
     3
 72
     8
 73
     4
 74
     0
 42
0.000000001
 43
0.00000001
 40
0.0
 40
0.0
 40
0.0
 40
0.0
 40
1.0
 40
1.0
 40
1.0
 40
1.0
 10
24.23187682603189
 20
6.749288806206227
 30
0.0
 10
24.27674929091343
 20
6.7676798490836
 30
0.0
 10
24.33194059868012
 20
6.771883158628261
 30
0.0
 10
24.38887419717992
 20
6.761024619612519
 30
0.0
  0
SPLINE
  5
1AB
330
1F
100
AcDbEntity
  8
외형선
  6
Continuous
 62
     1
370
    15
100
AcDbSpline
210
0.0
220
0.0
230
1.0
 70
     8
 71
     3
 72
    10
 73
     6
 74
     0
 42
0.000000001
 43
0.00000001
 40
0.0
 40
0.0
 40
0.0
 40
0.0
 40
0.5000000000000003
 40
0.5000000000000003
 40
1.0
 40
1.0
 40
1.0
 40
1.0
 10
23.60519324439536
 20
6.863762015419086
 30
0.0
 10
23.69808375984973
 20
6.789886224716334
 30
0.0
 10
23.81089449913483
 20
6.742383744390709
 30
0.0
 10
24.0360013784575
 20
6.703874124889675
 30
0.0
 10
24.14332238585661
 20
6.712994644284162
 30
0.0
 10
24.23187682603177
 20
6.749288806206158
 30
0.0
  0
SPLINE
  5
1AC
330
1F
100
AcDbEntity
  8
외형선
  6
Continuous
 62
     1
370
    15
100
AcDbSpline
210
0.0
220
0.0
230
1.0
 70
     8
 71
     3
 72
     8
 73
     4
 74
     0
 42
0.000000001
 43
0.00000001
 40
0.0
 40
0.0
 40
0.0
 40
0.0
 40
1.0
 40
1.0
 40
1.0
 40
1.0
 10
23.44885251145956
 20
6.934159352320084
 30
0.0
 10
23.50404712023819
 20
6.924369892482375
 30
0.0
 10
23.5595884755235
 20
6.900031470313646
 30
0.0
 10
23.60519324439612
 20
6.863762015420641
 30
0.0
  0
SPLINE
  5
1AD
330
1F
100
AcDbEntity
  8
외형선
  6
Continuous
 62
     1
370
    15
100
AcDbSpline
210
0.0
220
0.0
230
1.0
 70
     8
 71
     3
 72
     8
 73
     4
 74
     0
 42
0.000000001
 43
0.00000001
 40
0.0
 40
0.0
 40
0.0
 40
0.0
 40
1.0
 40
1.0
 40
1.0
 40
1.0
 10
23.44885251229128
 20
6.934159352171019
 30
0.0
 10
23.08621278538422
 20
6.998478080411371
 30
0.0
 10
22.7226174909831
 20
7.059967754567831
 30
0.0
 10
22.35874577909825
 20
7.118503370519157
 30
0.0
  0
SPLINE
  5
1AE
330
1F
100
AcDbEntity
  8
외형선
  6
Continuous
 62
     1
370
    15
100
AcDbSpline
210
0.0
220
0.0
230
1.0
 70
     8
 71
     3
 72
     8
 73
     4
 74
     0
 42
0.000000001
 43
0.00000001
 40
0.0
 40
0.0
 40
0.0
 40
0.0
 40
1.0
 40
1.0
 40
1.0
 40
1.0
 10
22.20174861236653
 20
7.099042320866824
 30
0.0
 10
22.24662095933787
 20
7.120744355142495
 30
0.0
 10
22.30181345823768
 20
7.127662006193038
 30
0.0
 10
22.35874568626401
 20
7.118503385456417
 30
0.0
  0
SPLINE
  5
1AF
330
1F
100
AcDbEntity
  8
외형선
  6
Continuous
 62
     1
370
    15
100
AcDbSpline
210
0.0
220
0.0
230
1.0
 70
     8
 71
     3
 72
    10
 73
     6
 74
     0
 42
0.000000001
 43
0.00000001
 40
0.0
 40
0.0
 40
0.0
 40
0.0
 40
0.5
 40
0.5
 40
1.0
 40
1.0
 40
1.0
 40
1.0
 10
21.57509544727118
 20
7.194551421896962
 30
0.0
 10
21.66797014428532
 20
7.119558542466496
 30
0.0
 10
21.78078712161041
 20
7.073363496947426
 30
0.0
 10
22.00589220006147
 20
7.041728116582674
 30
0.0
 10
22.1132066239546
 20
7.05621992807845
 30
0.0
 10
22.20174861236482
 20
7.099042320865862
 30
0.0
  0
SPLINE
  5
1B0
330
1F
100
AcDbEntity
  8
외형선
  6
Continuous
 62
     1
370
    15
100
AcDbSpline
210
0.0
220
0.0
230
1.0
 70
     8
 71
     3
 72
     8
 73
     4
 74
     0
 42
0.000000001
 43
0.00000001
 40
0.0
 40
0.0
 40
0.0
 40
0.0
 40
1.0
 40
1.0
 40
1.0
 40
1.0
 10
21.41876517889119
 20
7.26305378150979
 30
0.0
 10
21.47395850156498
 20
7.254957407731661
 30
0.0
 10
21.52949765413064
 20
7.231369951737815
 30
0.0
 10
21.57509544727194
 20
7.194551421898642
 30
0.0
  0
SPLINE
  5
1B1
330
1F
100
AcDbEntity
  8
외형선
  6
Continuous
 62
     1
370
    15
100
AcDbSpline
210
0.0
220
0.0
230
1.0
 70
     8
 71
     3
 72
     8
 73
     4
 74
     0
 42
0.000000001
 43
0.00000001
 40
0.0
 40
0.0
 40
0.0
 40
0.0
 40
1.0
 40
1.0
 40
1.0
 40
1.0
 10
21.41876571462922
 20
7.263053702920124
 30
0.0
 10
21.05488354430701
 20
7.316432011776687
 30
0.0
 10
20.69131385697792
 20
7.36676527422417
 30
0.0
 10
20.3287356170087
 20
7.413970237819933
 30
0.0
  0
SPLINE
  5
1B2
330
1F
100
AcDbEntity
  8
외형선
  6
Continuous
 62
     1
370
    15
100
AcDbSpline
210
0.0
220
0.0
230
1.0
 70
     8
 71
     3
 72
     8
 73
     4
 74
     0
 42
0.000000001
 43
0.00000001
 40
0.0
 40
0.0
 40
0.0
 40
0.0
 40
1.0
 40
1.0
 40
1.0
 40
1.0
 10
20.17175229057468
 20
7.387055761021704
 30
0.0
 10
20.2166200992538
 20
7.411847268155087
 30
0.0
 10
20.27180625617223
 20
7.421382013019674
 30
0.0
 10
20.32873561700679
 20
7.413970237823505
 30
0.0
  0
SPLINE
  5
1B3
330
1F
100
AcDbEntity
  8
외형선
  6
Continuous
 62
     1
370
    15
100
AcDbSpline
210
0.0
220
0.0
230
1.0
 70
     8
 71
     3
 72
    10
 73
     6
 74
     0
 42
0.000000001
 43
0.00000001
 40
0.0
 40
0.0
 40
0.0
 40
0.0
 40
0.5
 40
0.5
 40
1.0
 40
1.0
 40
1.0
 40
1.0
 10
19.54516297846434
 20
7.463261862330156
 30
0.0
 10
19.6380434973692
 20
7.387718112981215
 30
0.0
 10
19.75086539208958
 20
7.343148445815162
 30
0.0
 10
19.97593907305759
 20
7.318494642881075
 30
0.0
 10
20.08322559918504
 20
7.338140733395006
 30
0.0
 10
20.17175229057455
 20
7.387055761021608
 30
0.0
  0
SPLINE
  5
1B4
330
1F
100
AcDbEntity
  8
외형선
  6
Continuous
 62
     1
370
    15
100
AcDbSpline
210
0.0
220
0.0
230
1.0
 70
     8
 71
     3
 72
     8
 73
     4
 74
     0
 42
0.000000001
 43
0.00000001
 40
0.0
 40
0.0
 40
0.0
 40
0.0
 40
1.0
 40
1.0
 40
1.0
 40
1.0
 10
19.38885183455681
 20
7.529366209703064
 30
0.0
 10
19.44403892865285
 20
7.523007682677561
 30
0.0
 10
19.4995701278534
 20
7.50034450268864
 30
0.0
 10
19.5451629784651
 20
7.463261862331957
 30
0.0
  0
SPLINE
  5
1B5
330
1F
100
AcDbEntity
  8
외형선
  6
Continuous
 62
     1
370
    15
100
AcDbSpline
210
0.0
220
0.0
230
1.0
 70
     8
 71
     3
 72
     8
 73
     4
 74
     0
 42
0.000000001
 43
0.00000001
 40
0.0
 40
0.0
 40
0.0
 40
0.0
 40
1.0
 40
1.0
 40
1.0
 40
1.0
 10
19.3891227622876
 20
7.529334993455514
 30
0.0
 10
19.02621272359305
 20
7.571150216026979
 30
0.0
 10
18.66263092971645
 20
7.609861184656475
 30
0.0
 10
18.29905670311793
 20
7.645389763694772
 30
0.0
  0
SPLINE
  5
1B6
330
1F
100
AcDbEntity
  8
외형선
  6
Continuous
 62
     1
370
    15
100
AcDbSpline
210
0.0
220
0.0
230
1.0
 70
     8
 71
     3
 72
     8
 73
     4
 74
     0
 42
0.000000001
 43
0.00000001
 40
0.0
 40
0.0
 40
0.0
 40
0.0
 40
1.0
 40
1.0
 40
1.0
 40
1.0
 10
18.14212361217429
 20
7.611136835929641
 30
0.0
 10
18.18697214910461
 20
7.638837891366092
 30
0.0
 10
18.24214364688492
 20
7.650951324085902
 30
0.0
 10
18.29905670311345
 20
7.645389763698669
 30
0.0
  0
SPLINE
  5
1B7
330
1F
100
AcDbEntity
  8
외형선
  6
Continuous
 62
     1
370
    15
100
AcDbSpline
210
0.0
220
0.0
230
1.0
 70
     8
 71
     3
 72
    10
 73
     6
 74
     0
 42
0.000000001
 43
0.00000001
 40
0.0
 40
0.0
 40
0.0
 40
0.0
 40
0.5
 40
0.5
 40
1.0
 40
1.0
 40
1.0
 40
1.0
 10
17.51572307681773
 20
7.667023672002319
 30
0.0
 10
17.6085548375412
 20
7.591646259337797
 30
0.0
 10
17.72132601547058
 20
7.549117236299477
 30
0.0
 10
17.94635108138667
 20
7.531756154937788
 30
0.0
 10
18.0536257573731
 20
7.556475432243892
 30
0.0
 10
18.14212361217416
 20
7.61113683592953
 30
0.0
  0
SPLINE
  5
1B8
330
1F
100
AcDbEntity
  8
외형선
  6
Continuous
 62
     1
370
    15
100
AcDbSpline
210
0.0
220
0.0
230
1.0
 70
     8
 71
     3
 72
     8
 73
     4
 74
     0
 42
0.000000001
 43
0.00000001
 40
0.0
 40
0.0
 40
0.0
 40
0.0
 40
1.0
 40
1.0
 40
1.0
 40
1.0
 10
17.35945248911868
 20
7.730125824910163
 30
0.0
 10
17.41462601490819
 20
7.725566396907763
 30
0.0
 10
17.47014390911056
 20
7.704032985480828
 30
0.0
 10
17.51572307681849
 20
7.667023672004206
 30
0.0
  0
SPLINE
  5
1B9
330
1F
100
AcDbEntity
  8
외형선
  6
Continuous
 62
     1
370
    15
100
AcDbSpline
210
0.0
220
0.0
230
1.0
 70
     8
 71
     3
 72
     8
 73
     4
 74
     0
 42
0.000000001
 43
0.00000001
 40
0.0
 40
0.0
 40
0.0
 40
0.0
 40
1.0
 40
1.0
 40
1.0
 40
1.0
 10
17.35945248912148
 20
7.730125824908156
 30
0.0
 10
16.99558314650752
 20
7.760195247628356
 30
0.0
 10
16.63297327538471
 20
7.787005724035033
 30
0.0
 10
16.2699875436559
 20
7.810571793827928
 30
0.0
  0
SPLINE
  5
1BA
330
1F
100
AcDbEntity
  8
외형선
  6
Continuous
 62
     1
370
    15
100
AcDbSpline
210
0.0
220
0.0
230
1.0
 70
     8
 71
     3
 72
     8
 73
     4
 74
     0
 42
0.000000001
 43
0.00000001
 40
0.0
 40
0.0
 40
0.0
 40
0.0
 40
1.0
 40
1.0
 40
1.0
 40
1.0
 10
16.11311399561426
 20
7.76936167668691
 30
0.0
 10
16.15794401906184
 20
7.799709863630031
 30
0.0
 10
16.21309537912741
 20
7.814265395542809
 30
0.0
 10
16.26998754365034
 20
7.81057179383187
 30
0.0
  0
SPLINE
  5
1BB
330
1F
100
AcDbEntity
  8
외형선
  6
Continuous
 62
     1
370
    15
100
AcDbSpline
210
0.0
220
0.0
230
1.0
 70
     8
 71
     3
 72
    10
 73
     6
 74
     0
 42
0.000000001
 43
0.00000001
 40
0.0
 40
0.0
 40
0.0
 40
0.0
 40
0.5
 40
0.5
 40
1.0
 40
1.0
 40
1.0
 40
1.0
 10
15.48684642219995
 20
7.804655046395045
 30
0.0
 10
15.57966894607206
 20
7.730062399912454
 30
0.0
 10
15.69242920551281
 20
7.689929366587184
 30
0.0
 10
15.91740928860619
 20
7.679954586915945
 30
0.0
 10
16.02465335464753
 20
7.709477254089783
 30
0.0
 10
16.1131139956141
 20
7.769361676686798
 30
0.0
  0
SPLINE
  5
1BC
330
1F
100
AcDbEntity
  8
외형선
  6
Continuous
 62
     1
370
    15
100
AcDbSpline
210
0.0
220
0.0
230
1.0
 70
     8
 71
     3
 72
     8
 73
     4
 74
     0
 42
0.000000001
 43
0.00000001
 40
0.0
 40
0.0
 40
0.0
 40
0.0
 40
1.0
 40
1.0
 40
1.0
 40
1.0
 10
15.3305883266249
 20
7.864217979024306
 30
0.0
 10
15.3857600128655
 20
7.861497581546266
 30
0.0
 10
15.44127283746158
 20
7.84127820803447
 30
0.0
 10
15.4868464222007
 20
7.804655046397014
 30
0.0
  0
SPLINE
  5
1BD
330
1F
100
AcDbEntity
  8
외형선
  6
Continuous
 62
     1
370
    15
100
AcDbSpline
210
0.0
220
0.0
230
1.0
 70
     8
 71
     3
 72
     8
 73
     4
 74
     0
 42
0.000000001
 43
0.00000001
 40
0.0
 40
0.0
 40
0.0
 40
0.0
 40
1.0
 40
1.0
 40
1.0
 40
1.0
 10
15.33058834369852
 20
7.864217978180609
 30
0.0
 10
14.96755880793787
 20
7.882118185814261
 30
0.0
 10
14.60414014518355
 20
7.896758668406025
 30
0.0
 10
14.24101086363606
 20
7.908111192659228
 30
0.0
  0
SPLINE
  5
1BE
330
1F
100
AcDbEntity
  8
외형선
  6
Continuous
 62
     1
370
    15
100
AcDbSpline
210
0.0
220
0.0
230
1.0
 70
     8
 71
     3
 72
     8
 73
     4
 74
     0
 42
0.000000001
 43
0.00000001
 40
0.0
 40
0.0
 40
0.0
 40
0.0
 40
1.0
 40
1.0
 40
1.0
 40
1.0
 10
14.08407705778044
 20
7.860269451403128
 30
0.0
 10
14.12892603441627
 20
7.893006600239006
 30
0.0
 10
14.18409683324522
 20
7.909890497550315
 30
0.0
 10
14.24101026523594
 20
7.908111211370715
 30
0.0
  0
SPLINE
  5
1BF
330
1F
100
AcDbEntity
  8
외형선
  6
Continuous
 62
     1
370
    15
100
AcDbSpline
210
0.0
220
0.0
230
1.0
 70
     8
 71
     3
 72
    10
 73
     6
 74
     0
 42
0.000000001
 43
0.00000001
 40
0.0
 40
0.0
 40
0.0
 40
0.0
 40
0.5
 40
0.5
 40
1.0
 40
1.0
 40
1.0
 40
1.0
 10
13.45759604176529
 20
7.874642730461159
 30
0.0
 10
13.55044455743626
 20
7.80147059230696
 30
0.0
 10
13.66322327910442
 20
7.764085704293282
 30
0.0
 10
13.88827568551213
 20
7.761586394893876
 30
0.0
 10
13.99556543258381
 20
7.795661104343067
 30
0.0
 10
14.08407705778033
 20
7.860269451403011
 30
0.0
  0
SPLINE
  5
1C0
330
1F
100
AcDbEntity
  8
외형선
  6
Continuous
 62
     1
370
    15
100
AcDbSpline
210
0.0
220
0.0
230
1.0
 70
     8
 71
     3
 72
     8
 73
     4
 74
     0
 42
0.000000001
 43
0.00000001
 40
0.0
 40
0.0
 40
0.0
 40
0.0
 40
1.0
 40
1.0
 40
1.0
 40
1.0
 10
13.3012916618975
 20
7.930164598310395
 30
0.0
 10
13.35647352104523
 20
7.929300521278615
 30
0.0
 10
13.41200373518924
 20
7.910573154675997
 30
0.0
 10
13.45759604176606
 20
7.874642730463246
 30
0.0
  0
SPLINE
  5
1C1
330
1F
100
AcDbEntity
  8
외형선
  6
Continuous
 62
     1
370
    15
100
AcDbSpline
210
0.0
220
0.0
230
1.0
 70
     8
 71
     3
 72
     9
 73
     5
 74
     0
 42
0.000000001
 43
0.00000001
 40
0.0
 40
0.0
 40
0.0
 40
0.0
 40
0.6514884596285119
 40
1.0
 40
1.0
 40
1.0
 40
1.0
 10
13.30129282176494
 20
7.93016422539949
 30
0.0
 10
13.09796636928464
 20
7.932917015626368
 30
0.0
 10
12.78587112112594
 20
7.937142401642336
 30
0.0
 10
12.4737278141356
 20
7.93709698602716
 30
0.0
 10
12.36494226939975
 20
7.937081158161159
 30
0.0
  0
SPLINE
  5
1C2
330
1F
100
AcDbEntity
  8
외형선
  6
Continuous
 62
     1
370
    15
100
AcDbSpline
210
0.0
220
0.0
230
1.0
 70
     8
 71
     3
 72
     9
 73
     5
 74
     0
 42
0.000000001
 43
0.00000001
 40
0.0
 40
0.0
 40
0.0
 40
0.0
 40
0.7323916775625018
 40
0.9999999999999999
 40
0.9999999999999999
 40
0.9999999999999999
 40
0.9999999999999999
 10
12.05438810028135
 20
7.883248850703233
 30
0.0
 10
12.07736433750432
 20
7.898558403120837
 30
0.0
 10
12.10873585349346
 20
7.919461907197445
 30
0.0
 10
12.14506630165889
 20
7.927821807147247
 30
0.0
 10
12.15478863194584
 20
7.930058985948556
 30
0.0
  0
SPLINE
  5
1C3
330
1F
100
AcDbEntity
  8
외형선
  6
Continuous
 62
     1
370
    15
100
AcDbSpline
210
0.0
220
0.0
230
1.0
 70
     8
 71
     3
 72
     9
 73
     5
 74
     0
 42
0.000000001
 43
0.00000001
 40
0.0
 40
0.0
 40
0.0
 40
0.0
 40
0.0314246444935676
 40
1.0
 40
1.0
 40
1.0
 40
1.0
 10
24.62034245580433
 20
6.716115400195116
 30
0.0
 10
24.6255320858214
 20
6.717144221642017
 30
0.0
 10
24.79067731182813
 20
6.749883540208139
 30
0.0
 10
24.95585233873634
 20
6.78067454743852
 30
0.0
 10
25.11583679914473
 20
6.810497958213085
 30
0.0
  0
SPLINE
  5
1C4
330
1F
100
AcDbEntity
  8
외형선
  6
Continuous
 62
     1
370
    15
100
AcDbSpline
210
0.0
220
0.0
230
1.0
 70
     8
 71
     3
 72
     8
 73
     4
 74
     0
 42
0.000000001
 43
0.00000001
 40
0.0
 40
0.0
 40
0.0
 40
0.0
 40
1.0
 40
1.0
 40
1.0
 40
1.0
 10
25.27276369107696
 20
6.797708919733106
 30
0.0
 10
25.2279173559655
 20
6.816552489360413
 30
0.0
 10
25.17274802001796
 20
6.821126825744207
 30
0.0
 10
25.11583762467372
 20
6.810498044779666
 30
0.0
  0
SPLINE
  5
1C5
330
1F
100
AcDbEntity
  8
외형선
  6
Continuous
 62
     1
370
    15
100
AcDbSpline
210
0.0
220
0.0
230
1.0
 70
     8
 71
     3
 72
    10
 73
     6
 74
     0
 42
0.000000001
 43
0.00000001
 40
0.0
 40
0.0
 40
0.0
 40
0.0
 40
0.5
 40
0.5
 40
1.0
 40
1.0
 40
1.0
 40
1.0
 10
25.89913457969948
 20
6.909481982928603
 30
0.0
 10
25.80630735562937
 20
6.835495012323587
 30
0.0
 10
25.6935375502861
 20
6.788190757504511
 30
0.0
 10
25.46852226779874
 20
6.750656515970265
 30
0.0
 10
25.36125398266369
 20
6.760526996913434
 30
0.0
 10
25.27276369107701
 20
6.797708919733058
 30
0.0
  0
SPLINE
  5
1C6
330
1F
100
AcDbEntity
  8
외형선
  6
Continuous
 62
     1
370
    15
100
AcDbSpline
210
0.0
220
0.0
230
1.0
 70
     8
 71
     3
 72
     8
 73
     4
 74
     0
 42
0.000000001
 43
0.00000001
 40
0.0
 40
0.0
 40
0.0
 40
0.0
 40
1.0
 40
1.0
 40
1.0
 40
1.0
 10
26.05539754757916
 20
6.979596676445461
 30
0.0
 10
26.0002250401805
 20
6.970041428636886
 30
0.0
 10
25.94471000362229
 20
6.945807399139879
 30
0.0
 10
25.89913457969961
 20
6.909481982928701
 30
0.0
  0
SPLINE
  5
1C7
330
1F
100
AcDbEntity
  8
외형선
  6
Continuous
 62
     1
370
    15
100
AcDbSpline
210
0.0
220
0.0
230
1.0
 70
     8
 71
     3
 72
     8
 73
     4
 74
     0
 42
0.000000001
 43
0.00000001
 40
0.0
 40
0.0
 40
0.0
 40
0.0
 40
1.0
 40
1.0
 40
1.0
 40
1.0
 10
27.14479699397025
 20
7.159673398033261
 30
0.0
 10
26.78244862428806
 20
7.102643358326544
 30
0.0
 10
26.41908955511534
 20
7.042583976132486
 30
0.0
 10
26.0553975475778
 20
6.979596676445182
 30
0.0
  0
SPLINE
  5
1C8
330
1F
100
AcDbEntity
  8
외형선
  6
Continuous
 62
     1
370
    15
100
AcDbSpline
210
0.0
220
0.0
230
1.0
 70
     8
 71
     3
 72
     8
 73
     4
 74
     0
 42
0.000000001
 43
0.00000001
 40
0.0
 40
0.0
 40
0.0
 40
0.0
 40
1.0
 40
1.0
 40
1.0
 40
1.0
 10
27.30167982771201
 20
7.139296487953208
 30
0.0
 10
27.25684791002202
 20
7.161387822711821
 30
0.0
 10
27.20169527522603
 20
7.168628623216731
 30
0.0
 10
27.14479697367506
 20
7.159673394839031
 30
0.0
  0
SPLINE
  5
1C9
330
1F
100
AcDbEntity
  8
외형선
  6
Continuous
 62
     1
370
    15
100
AcDbSpline
210
0.0
220
0.0
230
1.0
 70
     8
 71
     3
 72
    10
 73
     6
 74
     0
 42
0.000000001
 43
0.00000001
 40
0.0
 40
0.0
 40
0.0
 40
0.0
 40
0.5
 40
0.5
 40
1.0
 40
1.0
 40
1.0
 40
1.0
 10
27.92799011750641
 20
7.232528893228467
 30
0.0
 10
27.83515392388267
 20
7.157425105828395
 30
0.0
 10
27.72238193677986
 20
7.111391087018601
 30
0.0
 10
27.49739259942412
 20
7.080577515261027
 30
0.0
 10
27.39014824709943
 20
7.095702870527107
 30
0.0
 10
27.30167982771208
 20
7.139296487953169
 30
0.0
  0
SPLINE
  5
1CA
330
1F
100
AcDbEntity
  8
외형선
  6
Continuous
 62
     1
370
    15
100
AcDbSpline
210
0.0
220
0.0
230
1.0
 70
     8
 71
     3
 72
     8
 73
     4
 74
     0
 42
0.000000001
 43
0.00000001
 40
0.0
 40
0.0
 40
0.0
 40
0.0
 40
1.0
 40
1.0
 40
1.0
 40
1.0
 10
28.0842565654476
 20
7.300770486435545
 30
0.0
 10
28.02908314505811
 20
7.292889861861601
 30
0.0
 10
27.97356771257122
 20
7.269400827291427
 30
0.0
 10
27.92799011750655
 20
7.232528893228579
 30
0.0
  0
SPLINE
  5
1CB
330
1F
100
AcDbEntity
  8
외형선
  6
Continuous
 62
     1
370
    15
100
AcDbSpline
210
0.0
220
0.0
230
1.0
 70
     8
 71
     3
 72
     8
 73
     4
 74
     0
 42
0.000000001
 43
0.00000001
 40
0.0
 40
0.0
 40
0.0
 40
0.0
 40
1.0
 40
1.0
 40
1.0
 40
1.0
 10
29.17388634897654
 20
7.447123330845789
 30
0.0
 10
28.8104777453294
 20
7.401404856136257
 30
0.0
 10
28.44704162376187
 20
7.352588424219769
 30
0.0
 10
28.084256503332
 20
7.300770477563314
 30
0.0
  0
SPLINE
  5
1CC
330
1F
100
AcDbEntity
  8
외형선
  6
Continuous
 62
     1
370
    15
100
AcDbSpline
210
0.0
220
0.0
230
1.0
 70
     8
 71
     3
 72
     8
 73
     4
 74
     0
 42
0.000000001
 43
0.00000001
 40
0.0
 40
0.0
 40
0.0
 40
0.0
 40
1.0
 40
1.0
 40
1.0
 40
1.0
 10
29.33082579720269
 20
7.419202945383786
 30
0.0
 10
29.28597448919422
 20
7.444393024467757
 30
0.0
 10
29.23080133892075
 20
7.454283498497996
 30
0.0
 10
29.17388634897707
 20
7.447123330845886
 30
0.0
  0
SPLINE
  5
1CD
330
1F
100
AcDbEntity
  8
외형선
  6
Continuous
 62
     1
370
    15
100
AcDbSpline
210
0.0
220
0.0
230
1.0
 70
     8
 71
     3
 72
    10
 73
     6
 74
     0
 42
0.000000001
 43
0.00000001
 40
0.0
 40
0.0
 40
0.0
 40
0.0
 40
0.5
 40
0.5
 40
1.0
 40
1.0
 40
1.0
 40
1.0
 10
29.95732306177583
 20
7.492703861817267
 30
0.0
 10
29.8644733299871
 20
7.417172437820486
 30
0.0
 10
29.75168838193894
 20
7.372852196877066
 30
0.0
 10
29.52663032779361
 20
7.349151567637045
 30
0.0
 10
29.4193385185145
 20
7.369491074118735
 30
0.0
 10
29.33082579720274
 20
7.419202945383743
 30
0.0
  0
SPLINE
  5
1CE
330
1F
100
AcDbEntity
  8
외형선
  6
Continuous
 62
     1
370
    15
100
AcDbSpline
210
0.0
220
0.0
230
1.0
 70
     8
 71
     3
 72
     8
 73
     4
 74
     0
 42
0.000000001
 43
0.00000001
 40
0.0
 40
0.0
 40
0.0
 40
0.0
 40
1.0
 40
1.0
 40
1.0
 40
1.0
 10
30.11362949094417
 20
7.558450254599888
 30
0.0
 10
30.05844504252162
 20
7.552318242528179
 30
0.0
 10
30.00291416160362
 20
7.529791321578632
 30
0.0
 10
29.95732306177597
 20
7.492703861817372
 30
0.0
  0
SPLINE
  5
1CF
330
1F
100
AcDbEntity
  8
외형선
  6
Continuous
 62
     1
370
    15
100
AcDbSpline
210
0.0
220
0.0
230
1.0
 70
     8
 71
     3
 72
     8
 73
     4
 74
     0
 42
0.000000001
 43
0.00000001
 40
0.0
 40
0.0
 40
0.0
 40
0.0
 40
1.0
 40
1.0
 40
1.0
 40
1.0
 10
31.20358199253912
 20
7.670209571225327
 30
0.0
 10
30.84035117602101
 20
7.636145025682983
 30
0.0
 10
30.47765072596845
 20
7.598899741209499
 30
0.0
 10
30.11362949094155
 20
7.558450254599566
 30
0.0
  0
SPLINE
  5
1D0
330
1F
100
AcDbEntity
  8
외형선
  6
Continuous
 62
     1
370
    15
100
AcDbSpline
210
0.0
220
0.0
230
1.0
 70
     8
 71
     3
 72
     8
 73
     4
 74
     0
 42
0.000000001
 43
0.00000001
 40
0.0
 40
0.0
 40
0.0
 40
0.0
 40
1.0
 40
1.0
 40
1.0
 40
1.0
 10
31.36056729859144
 20
7.63508383158099
 30
0.0
 10
31.31569684682917
 20
7.663130625329877
 30
0.0
 10
31.2605086900367
 20
7.675548275958804
 30
0.0
 10
31.20358199254743
 20
7.670209571226139
 30
0.0
  0
SPLINE
  5
1D1
330
1F
100
AcDbEntity
  8
외형선
  6
Continuous
 62
     1
370
    15
100
AcDbSpline
210
0.0
220
0.0
230
1.0
 70
     8
 71
     3
 72
    10
 73
     6
 74
     0
 42
0.000000001
 43
0.00000001
 40
0.0
 40
0.0
 40
0.0
 40
0.0
 40
0.5
 40
0.5
 40
1.0
 40
1.0
 40
1.0
 40
1.0
 10
31.98719952341007
 20
7.688422265819976
 30
0.0
 10
31.89431836538079
 20
7.613088601275564
 30
0.0
 10
31.78149536710568
 20
7.570851673154151
 30
0.0
 10
31.55640164879051
 20
7.55441858338962
 30
0.0
 10
31.44909887796422
 20
7.579746146101684
 30
0.0
 10
31.36056729859148
 20
7.635083831580957
 30
0.0
  0
SPLINE
  5
1D2
330
1F
100
AcDbEntity
  8
외형선
  6
Continuous
 62
     1
370
    15
100
AcDbSpline
210
0.0
220
0.0
230
1.0
 70
     8
 71
     3
 72
     8
 73
     4
 74
     0
 42
0.000000001
 43
0.00000001
 40
0.0
 40
0.0
 40
0.0
 40
0.0
 40
1.0
 40
1.0
 40
1.0
 40
1.0
 10
32.14352890791831
 20
7.751101289130426
 30
0.0
 10
32.08833522251426
 20
7.746776650698574
 30
0.0
 10
32.03279697545428
 20
7.725405258164794
 30
0.0
 10
31.9871995234102
 20
7.688422265820081
 30
0.0
  0
SPLINE
  5
1E2
330
1F
100
AcDbEntity
  8
외형선
  6
Continuous
 62
     1
370
    15
100
AcDbSpline
210
0.0
220
0.0
230
1.0
 70
     8
 71
     3
 72
    10
 73
     6
 74
     0
 42
0.000000001
 43
0.00000001
 40
0.0
 40
0.0
 40
0.0
 40
0.0
 40
0.5
 40
0.5
 40
1.0
 40
1.0
 40
1.0
 40
1.0
 10
32.4954890998189
 20
1.56642516703535
 30
0.0
 10
32.47199097395764
 20
2.146073793042258
 30
0.0
 10
32.44745542959966
 20
2.720780394803244
 30
0.0
 10
32.39813963275153
 20
3.81460853388983
 30
0.0
 10
32.3733757643408
 20
4.333357507718498
 30
0.0
 10
32.34944918361531
 20
4.805068979749393
 30
0.0
  0
SPLINE
  5
1E3
330
1F
100
AcDbEntity
  8
외형선
  6
Continuous
 62
     1
370
    15
100
AcDbSpline
210
0.0
220
0.0
230
1.0
 70
     8
 71
     3
 72
     8
 73
     4
 74
     0
 42
0.000000001
 43
0.00000001
 40
0.0
 40
0.0
 40
0.0
 40
0.0
 40
1.0
 40
1.0
 40
1.0
 40
1.0
 10
16.92112163834846
 20
-4.839216094745097
 30
0.0
 10
16.86593366234866
 20
-4.823279902245838
 30
0.0
 10
16.81040044925259
 20
-4.798268433578274
 30
0.0
 10
16.76480429213893
 20
-4.768075575071871
 30
0.0
  0
SPLINE
  5
1E4
330
1F
100
AcDbEntity
  8
외형선
  6
Continuous
 62
     1
370
    15
100
AcDbSpline
210
0.0
220
0.0
230
1.0
 70
     8
 71
     3
 72
    12
 73
     8
 74
     0
 42
0.000000001
 43
0.00000001
 40
0.0
 40
0.0
 40
0.0
 40
0.0
 40
0.2499999999999999
 40
0.2499999999999999
 40
0.4999999999999998
 40
0.4999999999999998
 40
1.0
 40
1.0
 40
1.0
 40
1.0
 10
16.76480429213633
 20
-4.768075575022056
 30
0.0
 10
16.75261116875142
 20
-4.528681213154268
 30
0.0
 10
16.74058051258282
 20
-4.279925471473568
 30
0.0
 10
16.71706381289095
 20
-3.76913070536392
 30
0.0
 10
16.70566869107164
 20
-3.507883329541426
 30
0.0
 10
16.67013397653734
 20
-2.693427141203554
 30
0.0
 10
16.64541397810214
 20
-2.11460076650297
 30
0.0
 10
16.62059960863947
 20
-1.521284533040102
 30
0.0
  0
SPLINE
  5
1E5
330
1F
100
AcDbEntity
  8
외형선
  6
Continuous
 62
     1
370
    15
100
AcDbSpline
210
0.0
220
0.0
230
1.0
 70
     8
 71
     3
 72
    10
 73
     6
 74
     0
 42
0.000000001
 43
0.00000001
 40
0.0
 40
0.0
 40
0.0
 40
0.0
 40
0.4999999999999998
 40
0.4999999999999998
 40
1.0
 40
1.0
 40
1.0
 40
1.0
 10
30.62232794558722
 20
2.246539734729128
 30
0.0
 10
30.59826044864621
 20
2.820708213318429
 30
0.0
 10
30.57349995813035
 20
3.380910041916181
 30
0.0
 10
30.52448101558703
 20
4.429592185371146
 30
0.0
 10
30.50023839604428
 20
4.917754478589572
 30
0.0
 10
30.47714331467197
 20
5.353747886644906
 30
0.0
  0
SPLINE
  5
1E6
330
1F
100
AcDbEntity
  8
외형선
  6
Continuous
 62
     1
370
    15
100
AcDbSpline
210
0.0
220
0.0
230
1.0
 70
     8
 71
     3
 72
    10
 73
     6
 74
     0
 42
0.000000001
 43
0.00000001
 40
0.0
 40
0.0
 40
0.0
 40
0.0
 40
0.5000000000000002
 40
0.5000000000000002
 40
1.0
 40
1.0
 40
1.0
 40
1.0
 10
31.71215370852108
 20
1.862977714871981
 30
0.0
 10
31.6884541233339
 20
2.441603835349901
 30
0.0
 10
31.66386583198227
 20
3.011479940883975
 30
0.0
 10
31.61475795980141
 20
4.08886476112244
 30
0.0
 10
31.59025443800804
 20
4.596024533689644
 30
0.0
 10
31.56671401143987
 20
5.053998774492394
 30
0.0
  0
SPLINE
  5
1E7
330
1F
100
AcDbEntity
  8
외형선
  6
Continuous
370
    15
100
AcDbSpline
210
0.0
220
0.0
230
1.0
 70
     8
 71
     3
 72
     8
 73
     4
 74
     0
 42
0.000000001
 43
0.00000001
 40
0.0
 40
0.0
 40
0.0
 40
0.0
 40
0.0000634164343586
 40
0.0000634164343586
 40
0.0000634164343586
 40
0.0000634164343586
 10
10.05068397531671
 20
-2.641261802574849
 30
0.0
 10
10.03503014211562
 20
-2.638202418443055
 30
0.0
 10
10.01792898268661
 20
-2.634318580054079
 30
0.0
 10
9.999999999974204
 20
-2.629736289224863
 30
0.0
  0
SPLINE
  5
1E8
330
1F
100
AcDbEntity
  8
외형선
  6
Continuous
370
    15
100
AcDbSpline
210
0.0
220
0.0
230
1.0
 70
    24
 71
     3
 72
     8
 73
     4
 74
     0
 42
0.000000001
 43
0.00000001
 40
0.0
 40
0.0
 40
0.0
 40
0.0
 40
1.0
 40
1.0
 40
1.0
 40
1.0
 10
9.999999999999991
 20
-1.444186636513782
 30
0.0
 10
9.999999999999991
 20
-1.847463841365876
 30
0.0
 10
9.999999999999638
 20
-2.244119655598507
 30
0.0
 10
9.999999999999638
 20
-2.629736289231426
 30
0.0
  0
SPLINE
  5
1E9
330
1F
100
AcDbEntity
  8
외형선
  6
Continuous
 62
     1
370
    15
100
AcDbSpline
210
0.0
220
0.0
230
1.0
 70
     8
 71
     3
 72
    10
 73
     6
 74
     0
 42
0.000000001
 43
0.00000001
 40
0.0
 40
0.0
 40
0.0
 40
0.0
 40
0.5
 40
0.5
 40
1.0
 40
1.0
 40
1.0
 40
1.0
 10
16.76480429213884
 20
-4.768075575071783
 30
0.0
 10
16.67192917545331
 20
-4.706575540104723
 30
0.0
 10
16.55912865256075
 20
-4.658485079657689
 30
0.0
 10
16.33407178318205
 20
-4.594952769176718
 30
0.0
 10
16.22677280106266
 20
-4.580465171386174
 30
0.0
 10
16.13824410322889
 20
-4.585419520551256
 30
0.0
  0
SPLINE
  5
1EA
330
1F
100
AcDbEntity
  8
외형선
  6
Continuous
 62
     1
370
    15
100
AcDbSpline
210
0.0
220
0.0
230
1.0
 70
     8
 71
     3
 72
    10
 73
     6
 74
     0
 42
0.000000001
 43
0.00000001
 40
0.0
 40
0.0
 40
0.0
 40
0.0
 40
0.5
 40
0.5
 40
1.0
 40
1.0
 40
1.0
 40
1.0
 10
31.86908872764183
 20
1.787518117135123
 30
0.0
 10
31.84534717200977
 20
2.365459676116685
 30
0.0
 10
31.82067708392504
 20
2.935482539001622
 30
0.0
 10
31.77134322516917
 20
4.014385628526611
 30
0.0
 10
31.74669588474347
 20
4.522907447757719
 30
0.0
 10
31.7229970147201
 20
4.982512813769469
 30
0.0
  0
SPLINE
  5
1EB
330
1F
100
AcDbEntity
  8
외형선
  6
Continuous
 62
     1
370
    15
100
AcDbSpline
210
0.0
220
0.0
230
1.0
 70
     8
 71
     3
 72
     8
 73
     4
 74
     0
 42
0.000000001
 43
0.00000001
 40
0.0
 40
0.0
 40
0.0
 40
0.0
 40
1.0
 40
1.0
 40
1.0
 40
1.0
 10
18.1680886380031
 20
-5.161878903392565
 30
0.0
 10
18.12322002846596
 20
-5.168180736897001
 30
0.0
 10
18.06803106102161
 20
-5.163176682621986
 30
0.0
 10
18.01110183811795
 20
-5.14742026296231
 30
0.0
  0
SPLINE
  5
1EC
330
1F
100
AcDbEntity
  8
외형선
  6
Continuous
 62
     1
370
    15
100
AcDbSpline
210
0.0
220
0.0
230
1.0
 70
     8
 71
     3
 72
    10
 73
     6
 74
     0
 42
0.000000001
 43
0.00000001
 40
0.0
 40
0.0
 40
0.0
 40
0.0
 40
0.5
 40
0.5
 40
1.0
 40
1.0
 40
1.0
 40
1.0
 10
18.16808859734119
 20
-5.161878151596304
 30
0.0
 10
18.1434052204594
 20
-4.705508172724469
 30
0.0
 10
18.11917106600228
 20
-4.206156453747512
 30
0.0
 10
18.07304156299994
 20
-3.162232714569033
 30
0.0
 10
18.04871590601394
 20
-2.599481431677289
 30
0.0
 10
18.02401639481219
 20
-2.015656434544036
 30
0.0
  0
SPLINE
  5
1ED
330
1F
100
AcDbEntity
  8
외형선
  6
Continuous
 62
     1
370
    15
100
AcDbSpline
210
0.0
220
0.0
230
1.0
 70
     8
 71
     3
 72
     8
 73
     4
 74
     0
 42
0.000000001
 43
0.00000001
 40
0.0
 40
0.0
 40
0.0
 40
0.0
 40
1.0
 40
1.0
 40
1.0
 40
1.0
 10
20.04116883355892
 20
-5.686651008035794
 30
0.0
 10
19.67865327131877
 20
-5.59441323330289
 30
0.0
 10
19.31505780220296
 20
-5.499715940258494
 30
0.0
 10
18.95106142070862
 20
-5.402727083903902
 30
0.0
  0
SPLINE
  5
1EE
330
1F
100
AcDbEntity
  8
외형선
  6
Continuous
 62
     1
370
    15
100
AcDbSpline
210
0.0
220
0.0
230
1.0
 70
     8
 71
     3
 72
    12
 73
     8
 74
     0
 42
0.000000001
 43
0.00000001
 40
0.0
 40
0.0
 40
0.0
 40
0.0
 40
0.4999999999999998
 40
0.4999999999999998
 40
0.7499999999999999
 40
0.7499999999999999
 40
1.0
 40
1.0
 40
1.0
 40
1.0
 10
18.95106132091072
 20
-5.402727040216543
 30
0.0
 10
18.92639820334874
 20
-4.958894468976799
 30
0.0
 10
18.901977637695
 20
-4.468847619917464
 30
0.0
 10
18.86706109750833
 20
-3.695778745697265
 30
0.0
 10
18.85564873447177
 20
-3.431510821809402
 30
0.0
 10
18.83193715994681
 20
-2.882873247701616
 30
0.0
 10
18.81984135454906
 20
-2.599975417717452
 30
0.0
 10
18.80761762476954
 20
-2.311029013844535
 30
0.0
  0
SPLINE
  5
1EF
330
1F
100
AcDbEntity
  8
외형선
  6
Continuous
 62
     1
370
    15
100
AcDbSpline
210
0.0
220
0.0
230
1.0
 70
     8
 71
     3
 72
    12
 73
     8
 74
     0
 42
0.000000001
 43
0.00000001
 40
0.0
 40
0.0
 40
0.0
 40
0.0
 40
0.4999999999999998
 40
0.4999999999999998
 40
0.7499999999999999
 40
0.7499999999999999
 40
1.0
 40
1.0
 40
1.0
 40
1.0
 10
20.04116882906941
 20
-5.686650931231602
 30
0.0
 10
20.0164641538411
 20
-5.263891603832577
 30
0.0
 10
19.99178581534398
 20
-4.791038991476964
 30
0.0
 10
19.95620613163984
 20
-4.036387468789771
 30
0.0
 10
19.94478280687103
 20
-3.778891042390506
 30
0.0
 10
19.92154145519339
 20
-3.246363615236305
 30
0.0
 10
19.90963608013161
 20
-2.970553691167697
 30
0.0
 10
19.89755218093249
 20
-2.687541164437686
 30
0.0
  0
SPLINE
  5
1F0
330
1F
100
AcDbEntity
  8
외형선
  6
Continuous
 62
     1
370
    15
100
AcDbSpline
210
0.0
220
0.0
230
1.0
 70
     8
 71
     3
 72
    10
 73
     6
 74
     0
 42
0.000000001
 43
0.00000001
 40
0.0
 40
0.0
 40
0.0
 40
0.0
 40
0.5
 40
0.5
 40
1.0
 40
1.0
 40
1.0
 40
1.0
 10
18.79472902009196
 20
-5.330785893440501
 30
0.0
 10
18.70185618618092
 20
-5.265531568054152
 30
0.0
 10
18.58904333480453
 20
-5.21695333383575
 30
0.0
 10
18.36394122634561
 20
-5.158529784464101
 30
0.0
 10
18.25662779543749
 20
-5.149443505136836
 30
0.0
 10
18.16808863800308
 20
-5.161878903392557
 30
0.0
  0
SPLINE
  5
1F1
330
1F
100
AcDbEntity
  8
외형선
  6
Continuous
 62
     1
370
    15
100
AcDbSpline
210
0.0
220
0.0
230
1.0
 70
     8
 71
     3
 72
    12
 73
     8
 74
     0
 42
0.000000001
 43
0.00000001
 40
0.0
 40
0.0
 40
0.0
 40
0.0
 40
0.5000000000000003
 40
0.5000000000000003
 40
0.7500000000000001
 40
0.7500000000000001
 40
1.0
 40
1.0
 40
1.0
 40
1.0
 10
18.79472898321588
 20
-5.330785230295239
 30
0.0
 10
18.76996748555903
 20
-4.885497463018032
 30
0.0
 10
18.7454775795827
 20
-4.394396229986196
 30
0.0
 10
18.7105109443707
 20
-3.62072992244528
 30
0.0
 10
18.69899250268057
 20
-3.355689258538568
 30
0.0
 10
18.67511008153759
 20
-2.806000370232402
 30
0.0
 10
18.66293391169032
 20
-2.522715539936947
 30
0.0
 10
18.65063721154428
 20
-2.233564810617682
 30
0.0
  0
SPLINE
  5
1F2
330
1F
100
AcDbEntity
  8
외형선
  6
Continuous
 62
     1
370
    15
100
AcDbSpline
210
0.0
220
0.0
230
1.0
 70
     8
 71
     3
 72
    10
 73
     6
 74
     0
 42
0.000000001
 43
0.00000001
 40
0.0
 40
0.0
 40
0.0
 40
0.0
 40
0.4999999999999998
 40
0.4999999999999998
 40
1.0
 40
1.0
 40
1.0
 40
1.0
 10
30.46601520031252
 20
2.278018586614626
 30
0.0
 10
30.44179579570563
 20
2.850290572866427
 30
0.0
 10
30.41690186839744
 20
3.407912781367744
 30
0.0
 10
30.36768328629726
 20
4.449944183256557
 30
0.0
 10
30.3433747631322
 20
4.934035395143477
 30
0.0
 10
30.32025399221234
 20
5.365372822419514
 30
0.0
  0
SPLINE
  5
1F3
330
1F
100
AcDbEntity
  8
외형선
  6
Continuous
 62
     1
370
    15
100
AcDbSpline
210
0.0
220
0.0
230
1.0
 70
     8
 71
     3
 72
     8
 73
     4
 74
     0
 42
0.000000001
 43
0.00000001
 40
0.0
 40
0.0
 40
0.0
 40
0.0
 40
1.0
 40
1.0
 40
1.0
 40
1.0
 10
18.95106132187442
 20
-5.402727057569138
 30
0.0
 10
18.89586773531457
 20
-5.388020419996435
 30
0.0
 10
18.84032775293513
 20
-5.362824482388944
 30
0.0
 10
18.79472902009202
 20
-5.330785893440549
 30
0.0
  0
SPLINE
  5
1F4
330
1F
100
AcDbEntity
  8
외형선
  6
Continuous
 62
     1
370
    15
100
AcDbSpline
210
0.0
220
0.0
230
1.0
 70
     8
 71
     3
 72
    12
 73
     8
 74
     0
 42
0.000000001
 43
0.00000001
 40
0.0
 40
0.0
 40
0.0
 40
0.0
 40
0.5000000000000002
 40
0.5000000000000002
 40
0.7500000000000001
 40
0.7500000000000001
 40
1.0
 40
1.0
 40
1.0
 40
1.0
 10
28.59245167615187
 20
2.944027600657656
 30
0.0
 10
28.56789229126294
 20
3.504985765626163
 30
0.0
 10
28.54302365779091
 20
4.042306583430801
 30
0.0
 10
28.50669147472845
 20
4.782450719009684
 30
0.0
 10
28.4947421815794
 20
5.018276133566705
 30
0.0
 10
28.47138171711034
 20
5.464441895262441
 30
0.0
 10
28.46006006444962
 20
5.674414084126362
 30
0.0
 10
28.44829402809935
 20
5.87466156210272
 30
0.0
  0
SPLINE
  5
1F5
330
1F
100
AcDbEntity
  8
외형선
  6
Continuous
 62
     1
370
    15
100
AcDbSpline
210
0.0
220
0.0
230
1.0
 70
     8
 71
     3
 72
    12
 73
     8
 74
     0
 42
0.000000001
 43
0.00000001
 40
0.0
 40
0.0
 40
0.0
 40
0.0
 40
0.5
 40
0.5
 40
0.75
 40
0.75
 40
1.0
 40
1.0
 40
1.0
 40
1.0
 10
29.68246202646151
 20
2.572459353649863
 30
0.0
 10
29.65812691145565
 20
3.141491335191886
 30
0.0
 10
29.6332734090828
 20
3.692048489557412
 30
0.0
 10
29.59664817993877
 20
4.458288154297673
 30
0.0
 10
29.58454946721204
 20
4.703832063574083
 30
0.0
 10
29.56079618291681
 20
5.17103210993368
 30
0.0
 10
29.54927642399079
 20
5.391885450793948
 30
0.0
 10
29.53777393318787
 20
5.601064354122296
 30
0.0
  0
SPLINE
  5
1F6
330
1F
100
AcDbEntity
  8
외형선
  6
Continuous
 62
     1
370
    15
100
AcDbSpline
210
0.0
220
0.0
230
1.0
 70
     8
 71
     3
 72
    10
 73
     6
 74
     0
 42
0.000000001
 43
0.00000001
 40
0.0
 40
0.0
 40
0.0
 40
0.0
 40
0.5
 40
0.5
 40
1.0
 40
1.0
 40
1.0
 40
1.0
 10
29.83943938295118
 20
2.493906369759236
 30
0.0
 10
29.81503907021645
 20
3.06280231516179
 30
0.0
 10
29.79008161172399
 20
3.614033743971464
 30
0.0
 10
29.74098595906178
 20
4.638104553548053
 30
0.0
 10
29.71705537727282
 20
5.10950536203748
 30
0.0
 10
29.69401803239028
 20
5.528978991613669
 30
0.0
  0
LINE
  5
1F7
330
1F
100
AcDbEntity
  8
외형선
  6
Continuous
 62
     1
370
    15
100
AcDbLine
 10
24.62025118619202
 20
-6.67563825845719
 30
0.0
 11
24.70346206426619
 21
-6.626091897487647
 31
0.0
  0
SPLINE
  5
1F8
330
1F
100
AcDbEntity
  8
외형선
  6
Continuous
 62
     1
370
    15
100
AcDbSpline
210
0.0
220
0.0
230
1.0
 70
     8
 71
     3
 72
     8
 73
     4
 74
     0
 42
0.000000001
 43
0.00000001
 40
0.0
 40
0.0
 40
0.0
 40
0.0
 40
1.0
 40
1.0
 40
1.0
 40
1.0
 10
24.4639186428146
 20
-6.746673169599377
 30
0.0
 10
24.51911077207266
 20
-6.73608976315821
 30
0.0
 10
24.57465089483378
 20
-6.711481836743421
 30
0.0
 10
24.62025100908967
 20
-6.675638139212158
 30
0.0
  0
SPLINE
  5
1F9
330
1F
100
AcDbEntity
  8
외형선
  6
Continuous
 62
     1
370
    15
100
AcDbSpline
210
0.0
220
0.0
230
1.0
 70
     8
 71
     3
 72
     8
 73
     4
 74
     0
 42
0.000000001
 43
0.00000001
 40
0.0
 40
0.0
 40
0.0
 40
0.0
 40
1.0
 40
1.0
 40
1.0
 40
1.0
 10
24.46391864281473
 20
-6.746673169597769
 30
0.0
 10
24.09988467022799
 20
-6.816478765830269
 30
0.0
 10
23.7372655916787
 20
-6.883377111284356
 30
0.0
 10
23.37380467458334
 20
-6.947427262572564
 30
0.0
  0
SPLINE
  5
1FA
330
1F
100
AcDbEntity
  8
외형선
  6
Continuous
 62
     1
370
    15
100
AcDbSpline
210
0.0
220
0.0
230
1.0
 70
     8
 71
     3
 72
     8
 73
     4
 74
     0
 42
0.000000001
 43
0.00000001
 40
0.0
 40
0.0
 40
0.0
 40
0.0
 40
1.0
 40
1.0
 40
1.0
 40
1.0
 10
23.21680179995023
 20
-6.931839621150273
 30
0.0
 10
23.26167829439487
 20
-6.951904227140565
 30
0.0
 10
23.31687238506625
 20
-6.957460037999493
 30
0.0
 10
23.37380467436987
 20
-6.947427262613208
 30
0.0
  0
SPLINE
  5
1FB
330
1F
100
AcDbEntity
  8
외형선
  6
Continuous
 62
     1
370
    15
100
AcDbSpline
210
0.0
220
0.0
230
1.0
 70
     8
 71
     3
 72
    10
 73
     6
 74
     0
 42
0.000000001
 43
0.00000001
 40
0.0
 40
0.0
 40
0.0
 40
0.0
 40
0.5
 40
0.5
 40
1.0
 40
1.0
 40
1.0
 40
1.0
 10
22.59012598941439
 20
-7.036894693376227
 30
0.0
 10
22.68301282355973
 20
-6.96239402285994
 30
0.0
 10
22.79584304579981
 20
-6.915516234819078
 30
0.0
 10
23.02095042151591
 20
-6.880432286624001
 30
0.0
 10
23.12826071592135
 20
-6.892252260618198
 30
0.0
 10
23.21680179995005
 20
-6.931839621150177
 30
0.0
  0
SPLINE
  5
1FC
330
1F
100
AcDbEntity
  8
외형선
  6
Continuous
 62
     1
370
    15
100
AcDbSpline
210
0.0
220
0.0
230
1.0
 70
     8
 71
     3
 72
     8
 73
     4
 74
     0
 42
0.000000001
 43
0.00000001
 40
0.0
 40
0.0
 40
0.0
 40
0.0
 40
1.0
 40
1.0
 40
1.0
 40
1.0
 10
22.43379085837218
 20
-7.106388465692951
 30
0.0
 10
22.48898639348033
 20
-7.097446718365513
 30
0.0
 10
22.54452671114036
 20
-7.073467979977289
 30
0.0
 10
22.59012598941521
 20
-7.036894693377806
 30
0.0
  0
SPLINE
  5
1FD
330
1F
100
AcDbEntity
  8
외형선
  6
Continuous
 62
     1
370
    15
100
AcDbSpline
210
0.0
220
0.0
230
1.0
 70
     8
 71
     3
 72
     8
 73
     4
 74
     0
 42
0.000000001
 43
0.00000001
 40
0.0
 40
0.0
 40
0.0
 40
0.0
 40
1.0
 40
1.0
 40
1.0
 40
1.0
 10
22.43379093362227
 20
-7.10638845350066
 30
0.0
 10
22.0705303425424
 20
-7.165237134571969
 30
0.0
 10
21.70694797321884
 20
-7.221148804424048
 30
0.0
 10
21.34372325213272
 20
-7.274019275588462
 30
0.0
  0
SPLINE
  5
1FE
330
1F
100
AcDbEntity
  8
외형선
  6
Continuous
 62
     1
370
    15
100
AcDbSpline
210
0.0
220
0.0
230
1.0
 70
     8
 71
     3
 72
     8
 73
     4
 74
     0
 42
0.000000001
 43
0.00000001
 40
0.0
 40
0.0
 40
0.0
 40
0.0
 40
1.0
 40
1.0
 40
1.0
 40
1.0
 10
21.18673209307422
 20
-7.250787849251815
 30
0.0
 10
21.23160155275338
 20
-7.274064009947773
 30
0.0
 10
21.28679141538582
 20
-7.282306191857142
 30
0.0
 10
21.34372266332663
 20
-7.274019361297453
 30
0.0
  0
SPLINE
  5
1FF
330
1F
100
AcDbEntity
  8
외형선
  6
Continuous
 62
     1
370
    15
100
AcDbSpline
210
0.0
220
0.0
230
1.0
 70
     8
 71
     3
 72
    10
 73
     6
 74
     0
 42
0.000000001
 43
0.00000001
 40
0.0
 40
0.0
 40
0.0
 40
0.0
 40
0.5
 40
0.5
 40
1.0
 40
1.0
 40
1.0
 40
1.0
 10
20.56010157518165
 20
-7.33675023619016
 30
0.0
 10
20.65297391073478
 20
-7.261392217345522
 30
0.0
 10
20.76577887006534
 20
-7.215950104867505
 30
0.0
 10
20.99087609335735
 20
-7.187761947612221
 30
0.0
 10
21.09818901282658
 20
-7.204855872822857
 30
0.0
 10
21.18673209307414
 20
-7.250787849251759
 30
0.0
  0
SPLINE
  5
200
330
1F
100
AcDbEntity
  8
외형선
  6
Continuous
 62
     1
370
    15
100
AcDbSpline
210
0.0
220
0.0
230
1.0
 70
     8
 71
     3
 72
     8
 73
     4
 74
     0
 42
0.000000001
 43
0.00000001
 40
0.0
 40
0.0
 40
0.0
 40
0.0
 40
1.0
 40
1.0
 40
1.0
 40
1.0
 10
20.40377546717488
 20
-7.404157828250284
 30
0.0
 10
20.45896340820511
 20
-7.39690984869036
 30
0.0
 10
20.51450126948739
 20
-7.373751014468899
 30
0.0
 10
20.56010157518248
 20
-7.336750236191876
 30
0.0
  0
SPLINE
  5
201
330
1F
100
AcDbEntity
  8
외형선
  6
Continuous
 62
     1
370
    15
100
AcDbSpline
210
0.0
220
0.0
230
1.0
 70
     8
 71
     3
 72
     8
 73
     4
 74
     0
 42
0.000000001
 43
0.00000001
 40
0.0
 40
0.0
 40
0.0
 40
0.0
 40
1.0
 40
1.0
 40
1.0
 40
1.0
 10
20.40377546717564
 20
-7.404157828248433
 30
0.0
 10
20.04050020966335
 20
-7.451867737185688
 30
0.0
 10
19.6778351509109
 20
-7.496464417570217
 30
0.0
 10
19.31382115974057
 20
-7.537965770587721
 30
0.0
  0
SPLINE
  5
202
330
1F
100
AcDbEntity
  8
외형선
  6
Continuous
 62
     1
370
    15
100
AcDbSpline
210
0.0
220
0.0
230
1.0
 70
     8
 71
     3
 72
     8
 73
     4
 74
     0
 42
0.000000001
 43
0.00000001
 40
0.0
 40
0.0
 40
0.0
 40
0.0
 40
1.0
 40
1.0
 40
1.0
 40
1.0
 10
19.15686146070496
 20
-7.507331232639498
 30
0.0
 10
19.20172100825018
 20
-7.533613541562119
 30
0.0
 10
19.25690130430521
 20
-7.544455221742272
 30
0.0
 10
19.3138211597368
 20
-7.53796577059154
 30
0.0
  0
SPLINE
  5
203
330
1F
100
AcDbEntity
  8
외형선
  6
Continuous
 62
     1
370
    15
100
AcDbSpline
210
0.0
220
0.0
230
1.0
 70
     8
 71
     3
 72
    10
 73
     6
 74
     0
 42
0.000000001
 43
0.00000001
 40
0.0
 40
0.0
 40
0.0
 40
0.0
 40
0.5
 40
0.5
 40
1.0
 40
1.0
 40
1.0
 40
1.0
 10
18.53036662613497
 20
-7.573358895482657
 30
0.0
 10
18.62321792819516
 20
-7.497831224231
 30
0.0
 10
18.7360139422774
 20
-7.454246751485671
 30
0.0
 10
18.96106631215454
 20
-7.433247349625172
 30
0.0
 10
19.06835098258525
 20
-7.455474719229719
 30
0.0
 10
19.1568614607049
 20
-7.507331232639447
 30
0.0
  0
SPLINE
  5
204
330
1F
100
AcDbEntity
  8
외형선
  6
Continuous
 62
     1
370
    15
100
AcDbSpline
210
0.0
220
0.0
230
1.0
 70
     8
 71
     3
 72
     8
 73
     4
 74
     0
 42
0.000000001
 43
0.00000001
 40
0.0
 40
0.0
 40
0.0
 40
0.0
 40
1.0
 40
1.0
 40
1.0
 40
1.0
 10
18.37407612551587
 20
-7.638013718404241
 30
0.0
 10
18.42925800529996
 20
-7.632554943148374
 30
0.0
 10
18.48478261192911
 20
-7.6104381217626
 30
0.0
 10
18.53036662613577
 20
-7.57335889548445
 30
0.0
  0
SPLINE
  5
205
330
1F
100
AcDbEntity
  8
외형선
  6
Continuous
 62
     1
370
    15
100
AcDbSpline
210
0.0
220
0.0
230
1.0
 70
     8
 71
     3
 72
     8
 73
     4
 74
     0
 42
0.000000001
 43
0.00000001
 40
0.0
 40
0.0
 40
0.0
 40
0.0
 40
1.0
 40
1.0
 40
1.0
 40
1.0
 10
18.37407612551925
 20
-7.638013718402098
 30
0.0
 10
18.01067803140683
 20
-7.673962267669357
 30
0.0
 10
17.64724125065309
 20
-7.706736039796588
 30
0.0
 10
17.28444431227999
 20
-7.736279100264132
 30
0.0
  0
SPLINE
  5
206
330
1F
100
AcDbEntity
  8
외형선
  6
Continuous
 62
     1
370
    15
100
AcDbSpline
210
0.0
220
0.0
230
1.0
 70
     8
 71
     3
 72
     8
 73
     4
 74
     0
 42
0.000000001
 43
0.00000001
 40
0.0
 40
0.0
 40
0.0
 40
0.0
 40
1.0
 40
1.0
 40
1.0
 40
1.0
 10
17.12753853099602
 20
-7.698514017385163
 30
0.0
 10
17.17237730888225
 20
-7.727566373342318
 30
0.0
 10
17.22753896107897
 20
-7.74091298234755
 30
0.0
 10
17.28444431227645
 20
-7.736279100267952
 30
0.0
  0
SPLINE
  5
207
330
1F
100
AcDbEntity
  8
외형선
  6
Continuous
 62
     1
370
    15
100
AcDbSpline
210
0.0
220
0.0
230
1.0
 70
     8
 71
     3
 72
    10
 73
     6
 74
     0
 42
0.000000001
 43
0.00000001
 40
0.0
 40
0.0
 40
0.0
 40
0.0
 40
0.4999999999999982
 40
0.4999999999999982
 40
1.0
 40
1.0
 40
1.0
 40
1.0
 10
16.5012325469382
 20
-7.744233229993387
 30
0.0
 10
16.59405476726058
 20
-7.66915024127203
 30
0.0
 10
16.7068021195244
 20
-7.627758869351394
 30
0.0
 10
16.93179399053152
 20
-7.614043580772479
 30
0.0
 10
17.03905308598757
 20
-7.641181708910135
 30
0.0
 10
17.12753853099595
 20
-7.698514017385111
 30
0.0
  0
SPLINE
  5
208
330
1F
100
AcDbEntity
  8
외형선
  6
Continuous
 62
     1
370
    15
100
AcDbSpline
210
0.0
220
0.0
230
1.0
 70
     8
 71
     3
 72
     8
 73
     4
 74
     0
 42
0.000000001
 43
0.00000001
 40
0.0
 40
0.0
 40
0.0
 40
0.0
 40
1.0
 40
1.0
 40
1.0
 40
1.0
 10
16.34498275856735
 20
-7.805655960597578
 30
0.0
 10
16.4001488616349
 20
-7.802005368299458
 30
0.0
 10
16.45565747286688
 20
-7.781098462917156
 30
0.0
 10
16.50123254693901
 20
-7.744233229995269
 30
0.0
  0
SPLINE
  5
209
330
1F
100
AcDbEntity
  8
외형선
  6
Continuous
 62
     1
370
    15
100
AcDbSpline
210
0.0
220
0.0
230
1.0
 70
     8
 71
     3
 72
     8
 73
     4
 74
     0
 42
0.000000001
 43
0.00000001
 40
0.0
 40
0.0
 40
0.0
 40
0.0
 40
1.0
 40
1.0
 40
1.0
 40
1.0
 10
16.34498427632795
 20
-7.805655860158576
 30
0.0
 10
15.9826470707574
 20
-7.829633372523597
 30
0.0
 10
15.61928795270397
 20
-7.850388317829506
 30
0.0
 10
15.25558466946274
 20
-7.867869627862622
 30
0.0
  0
SPLINE
  5
20A
330
1F
100
AcDbEntity
  8
외형선
  6
Continuous
 62
     1
370
    15
100
AcDbSpline
210
0.0
220
0.0
230
1.0
 70
     8
 71
     3
 72
     8
 73
     4
 74
     0
 42
0.000000001
 43
0.00000001
 40
0.0
 40
0.0
 40
0.0
 40
0.0
 40
1.0
 40
1.0
 40
1.0
 40
1.0
 10
15.0986819288439
 20
-7.823284073759377
 30
0.0
 10
15.14352053236914
 20
-7.854863100314577
 30
0.0
 10
15.19868171057183
 20
-7.870604654741517
 30
0.0
 10
15.25558463505828
 20
-7.867869629519902
 30
0.0
  0
SPLINE
  5
20B
330
1F
100
AcDbEntity
  8
외형선
  6
Continuous
 62
     1
370
    15
100
AcDbSpline
210
0.0
220
0.0
230
1.0
 70
     8
 71
     3
 72
    10
 73
     6
 74
     0
 42
0.000000001
 43
0.00000001
 40
0.0
 40
0.0
 40
0.0
 40
0.0
 40
0.5
 40
0.5
 40
1.0
 40
1.0
 40
1.0
 40
1.0
 10
14.47230763418796
 20
-7.8481174038999
 30
0.0
 10
14.5651382675157
 20
-7.774160856639261
 30
0.0
 10
14.67790713879093
 20
-7.73536072321522
 30
0.0
 10
14.90292616125142
 20
-7.729124924503687
 30
0.0
 10
15.01019588697073
 20
-7.760964936980073
 30
0.0
 10
15.09868192884385
 20
-7.823284073759333
 30
0.0
  0
SPLINE
  5
20C
330
1F
100
AcDbEntity
  8
외형선
  6
Continuous
 62
     1
370
    15
100
AcDbSpline
210
0.0
220
0.0
230
1.0
 70
     8
 71
     3
 72
     8
 73
     4
 74
     0
 42
0.000000001
 43
0.00000001
 40
0.0
 40
0.0
 40
0.0
 40
0.0
 40
1.0
 40
1.0
 40
1.0
 40
1.0
 10
14.31602677658256
 20
-7.905719356011017
 30
0.0
 10
14.37120512169605
 20
-7.903925745187022
 30
0.0
 10
14.4267266920519
 20
-7.884430945891886
 30
0.0
 10
14.47230763418876
 20
-7.84811740390188
 30
0.0
  0
SPLINE
  5
20D
330
1F
100
AcDbEntity
  8
외형선
  6
Continuous
 62
     1
370
    15
100
AcDbSpline
210
0.0
220
0.0
230
1.0
 70
     8
 71
     3
 72
     8
 73
     4
 74
     0
 42
0.000000001
 43
0.00000001
 40
0.0
 40
0.0
 40
0.0
 40
0.0
 40
1.0
 40
1.0
 40
1.0
 40
1.0
 10
14.31602732228747
 20
-7.905719338270611
 30
0.0
 10
13.95230262437137
 20
-7.917542468070982
 30
0.0
 10
13.58882188056311
 20
-7.92606866007184
 30
0.0
 10
13.2262636358089
 20
-7.931292541531764
 30
0.0
  0
SPLINE
  5
20E
330
1F
100
AcDbEntity
  8
외형선
  6
Continuous
 62
     1
370
    15
100
AcDbSpline
210
0.0
220
0.0
230
1.0
 70
     8
 71
     3
 72
     8
 73
     4
 74
     0
 42
0.000000001
 43
0.00000001
 40
0.0
 40
0.0
 40
0.0
 40
0.0
 40
1.0
 40
1.0
 40
1.0
 40
1.0
 10
13.06929916733078
 20
-7.88029672777033
 30
0.0
 10
13.1141598079496
 20
-7.914123794270897
 30
0.0
 10
13.16933920918169
 20
-7.932112729733495
 30
0.0
 10
13.22626228907374
 20
-7.931292560939769
 30
0.0
  0
SPLINE
  5
20F
330
1F
100
AcDbEntity
  8
외형선
  6
Continuous
 62
     1
370
    15
100
AcDbSpline
210
0.0
220
0.0
230
1.0
 70
     8
 71
     3
 72
    10
 73
     6
 74
     0
 42
0.000000001
 43
0.00000001
 40
0.0
 40
0.0
 40
0.0
 40
0.0
 40
0.5
 40
0.5
 40
1.0
 40
1.0
 40
1.0
 40
1.0
 10
12.44272278147261
 20
-7.884140919953711
 30
0.0
 10
12.53560315104401
 20
-7.811905290868353
 30
0.0
 10
12.64841979796693
 20
-7.77603058417749
 30
0.0
 10
12.87348683897273
 20
-7.777305357961224
 30
0.0
 10
12.98077268899577
 20
-7.813543533246232
 30
0.0
 10
13.06929916733071
 20
-7.88029672777026
 30
0.0
  0
SPLINE
  5
210
330
1F
100
AcDbEntity
  8
외형선
  6
Continuous
 62
     1
370
    15
100
AcDbSpline
210
0.0
220
0.0
230
1.0
 70
     8
 71
     3
 72
     8
 73
     4
 74
     0
 42
0.000000001
 43
0.00000001
 40
0.0
 40
0.0
 40
0.0
 40
0.0
 40
1.0
 40
1.0
 40
1.0
 40
1.0
 10
12.28640354303548
 20
-7.937448387495344
 30
0.0
 10
12.34159281178591
 20
-7.93752085076127
 30
0.0
 10
12.39712691416873
 20
-7.919602085470216
 30
0.0
 10
12.44272278147315
 20
-7.884140919955997
 30
0.0
  0
SPLINE
  5
211
330
1F
100
AcDbEntity
  8
외형선
  6
Continuous
 62
     1
370
    15
100
AcDbSpline
210
0.0
220
0.0
230
1.0
 70
     8
 71
     3
 72
     8
 73
     4
 74
     0
 42
0.000000001
 43
0.00000001
 40
0.0
 40
0.0
 40
0.0
 40
0.0
 40
1.0
 40
1.0
 40
1.0
 40
1.0
 10
12.2864054201467
 20
-7.937448389958061
 30
0.0
 10
11.92358656421867
 20
-7.936972021774069
 30
0.0
 10
11.56002793262865
 20
-7.933195572049111
 30
0.0
 10
11.19640867231089
 20
-7.926118838463273
 30
0.0
  0
SPLINE
  5
212
330
1F
100
AcDbEntity
  8
외형선
  6
Continuous
 62
     1
370
    15
100
AcDbSpline
210
0.0
220
0.0
230
1.0
 70
     8
 71
     3
 72
     8
 73
     4
 74
     0
 42
0.000000001
 43
0.00000001
 40
0.0
 40
0.0
 40
0.0
 40
0.0
 40
1.0
 40
1.0
 40
1.0
 40
1.0
 10
11.03941792055286
 20
-7.869136230630146
 30
0.0
 10
11.0842872519484
 20
-7.904922357126519
 30
0.0
 10
11.13947698816859
 20
-7.925010836491134
 30
0.0
 10
11.19640722655043
 20
-7.926118810329737
 30
0.0
  0
SPLINE
  5
213
330
1F
100
AcDbEntity
  8
외형선
  6
Continuous
 62
     1
370
    15
100
AcDbSpline
210
0.0
220
0.0
230
1.0
 70
     8
 71
     3
 72
    10
 73
     6
 74
     0
 42
0.000000001
 43
0.00000001
 40
0.0
 40
0.0
 40
0.0
 40
0.0
 40
0.5
 40
0.5
 40
1.0
 40
1.0
 40
1.0
 40
1.0
 10
10.412769182472
 20
-7.851927012193011
 30
0.0
 10
10.50564314712396
 20
-7.782072273404732
 30
0.0
 10
10.61845572809114
 20
-7.749412670567768
 30
0.0
 10
10.84356059254689
 20
-7.75817179388287
 30
0.0
 10
10.95087609514092
 20
-7.798518531059749
 30
0.0
 10
11.03941792055276
 20
-7.869136230630073
 30
0.0
  0
SPLINE
  5
214
330
1F
100
AcDbEntity
  8
외형선
  6
Continuous
 62
     1
370
    15
100
AcDbSpline
210
0.0
220
0.0
230
1.0
 70
     8
 71
     3
 72
     8
 73
     4
 74
     0
 42
0.000000001
 43
0.00000001
 40
0.0
 40
0.0
 40
0.0
 40
0.0
 40
1.0
 40
1.0
 40
1.0
 40
1.0
 10
10.25643504827901
 20
-7.900478971540957
 30
0.0
 10
10.31162855465833
 20
-7.902416167981738
 30
0.0
 10
10.36716924997122
 20
-7.886224798292369
 30
0.0
 10
10.4127691824728
 20
-7.851927012195136
 30
0.0
  0
SPLINE
  5
215
330
1F
100
AcDbEntity
  8
외형선
  6
Continuous
370
    15
100
AcDbSpline
210
0.0
220
0.0
230
1.0
 70
     8
 71
     3
 72
     8
 73
     4
 74
     0
 42
0.000000001
 43
0.00000001
 40
0.0
 40
0.0
 40
0.0
 40
0.0
 40
1.0
 40
1.0
 40
1.0
 40
1.0
 10
10.25643575329501
 20
-7.900478996283904
 30
0.0
 10
10.17092507190644
 20
-7.89747772053451
 30
0.0
 10
10.08544354091268
 20
-7.894294722003341
 30
0.0
 10
10.00000000000442
 20
-7.890930473328444
 30
0.0
  0
SPLINE
  5
216
330
1F
100
AcDbEntity
  8
외형선
  6
Continuous
 62
     1
370
    15
100
AcDbSpline
210
0.0
220
0.0
230
1.0
 70
     8
 71
     3
 72
     8
 73
     4
 74
     0
 42
0.000000001
 43
0.00000001
 40
0.0
 40
0.0
 40
0.0
 40
0.0
 40
1.0
 40
1.0
 40
1.0
 40
1.0
 10
20.19817492552874
 20
-5.693490317309821
 30
0.0
 10
20.15329661809109
 20
-5.703467576037834
 30
0.0
 10
20.09810412603598
 20
-5.701137516282166
 30
0.0
 10
20.04116883355817
 20
-5.686651008035626
 30
0.0
  0
SPLINE
  5
217
330
1F
100
AcDbEntity
  8
외형선
  6
Continuous
 62
     1
370
    15
100
AcDbSpline
210
0.0
220
0.0
230
1.0
 70
     8
 71
     3
 72
    10
 73
     6
 74
     0
 42
0.000000001
 43
0.00000001
 40
0.0
 40
0.0
 40
0.0
 40
0.0
 40
0.5
 40
0.5
 40
1.0
 40
1.0
 40
1.0
 40
1.0
 10
20.82485931235696
 20
-5.847989047814544
 30
0.0
 10
20.73196483355584
 20
-5.7794392987759
 30
0.0
 10
20.6191286830541
 20
-5.730660211469118
 30
0.0
 10
20.39402244749271
 20
-5.677557103024313
 30
0.0
 10
20.28671577940239
 20
-5.67380608549415
 30
0.0
 10
20.19817492552873
 20
-5.693490317309803
 30
0.0
  0
SPLINE
  5
218
330
1F
100
AcDbEntity
  8
외형선
  6
Continuous
 62
     1
370
    15
100
AcDbSpline
210
0.0
220
0.0
230
1.0
 70
     8
 71
     3
 72
     8
 73
     4
 74
     0
 42
0.000000001
 43
0.00000001
 40
0.0
 40
0.0
 40
0.0
 40
0.0
 40
1.0
 40
1.0
 40
1.0
 40
1.0
 10
20.98119538821509
 20
-5.920220936780589
 30
0.0
 10
20.92600025066301
 20
-5.906842149226887
 30
0.0
 10
20.87045995798815
 20
-5.881639194242601
 30
0.0
 10
20.82485931235701
 20
-5.847989047814568
 30
0.0
  0
SPLINE
  5
219
330
1F
100
AcDbEntity
  8
외형선
  6
Continuous
 62
     1
370
    15
100
AcDbSpline
210
0.0
220
0.0
230
1.0
 70
     8
 71
     3
 72
     8
 73
     4
 74
     0
 42
0.000000001
 43
0.00000001
 40
0.0
 40
0.0
 40
0.0
 40
0.0
 40
1.0
 40
1.0
 40
1.0
 40
1.0
 10
22.07125479405953
 20
-6.176777102893502
 30
0.0
 10
21.70777089616373
 20
-6.093780931649085
 30
0.0
 10
21.34419130866162
 20
-6.008207768915311
 30
0.0
 10
20.98119538822279
 20
-5.920220936782309
 30
0.0
  0
SPLINE
  5
21A
330
1F
100
AcDbEntity
  8
외형선
  6
Continuous
 62
     1
370
    15
100
AcDbSpline
210
0.0
220
0.0
230
1.0
 70
     8
 71
     3
 72
     8
 73
     4
 74
     0
 42
0.000000001
 43
0.00000001
 40
0.0
 40
0.0
 40
0.0
 40
0.0
 40
1.0
 40
1.0
 40
1.0
 40
1.0
 10
22.22824163427443
 20
-6.175674698396721
 30
0.0
 10
22.18337352575239
 20
-6.189309447280095
 30
0.0
 10
22.12818455393618
 20
-6.189776171427113
 30
0.0
 10
22.07125479404268
 20
-6.176777102889683
 30
0.0
  0
SPLINE
  5
21B
330
1F
100
AcDbEntity
  8
외형선
  6
Continuous
 62
     1
370
    15
100
AcDbSpline
210
0.0
220
0.0
230
1.0
 70
     8
 71
     3
 72
    10
 73
     6
 74
     0
 42
0.000000001
 43
0.00000001
 40
0.0
 40
0.0
 40
0.0
 40
0.0
 40
0.5
 40
0.5
 40
1.0
 40
1.0
 40
1.0
 40
1.0
 10
22.85485332576839
 20
-6.313835990540871
 30
0.0
 10
22.76198598178047
 20
-6.242651140881939
 30
0.0
 10
22.64918079978617
 20
-6.194159118283484
 30
0.0
 10
22.42408870449825
 20
-6.14702344080041
 30
0.0
 10
22.31677914982084
 20
-6.148769468134128
 30
0.0
 10
22.22824163427445
 20
-6.175674698396734
 30
0.0
  0
SPLINE
  5
21C
330
1F
100
AcDbEntity
  8
외형선
  6
Continuous
 62
     1
370
    15
100
AcDbSpline
210
0.0
220
0.0
230
1.0
 70
     8
 71
     3
 72
     8
 73
     4
 74
     0
 42
0.000000001
 43
0.00000001
 40
0.0
 40
0.0
 40
0.0
 40
0.0
 40
1.0
 40
1.0
 40
1.0
 40
1.0
 10
23.01117392687649
 20
-6.385697769878307
 30
0.0
 10
22.95598557119566
 20
-6.373765626438034
 30
0.0
 10
22.90044972546635
 20
-6.348786627848962
 30
0.0
 10
22.85485332576846
 20
-6.313835990540927
 30
0.0
  0
SPLINE
  5
21D
330
1F
100
AcDbEntity
  8
외형선
  6
Continuous
 62
     1
370
    15
100
AcDbSpline
210
0.0
220
0.0
230
1.0
 70
     8
 71
     3
 72
     8
 73
     4
 74
     0
 42
0.000000001
 43
0.00000001
 40
0.0
 40
0.0
 40
0.0
 40
0.0
 40
1.0
 40
1.0
 40
1.0
 40
1.0
 10
24.10110012583121
 20
-6.613531054659295
 30
0.0
 10
23.73762932301029
 20
-6.54030491481507
 30
0.0
 10
23.37511943640462
 20
-6.464385564984406
 30
0.0
 10
23.01117392689942
 20
-6.385697769883108
 30
0.0
  0
SPLINE
  5
21E
330
1F
100
AcDbEntity
  8
외형선
  6
Continuous
 62
     1
370
    15
100
AcDbSpline
210
0.0
220
0.0
230
1.0
 70
     8
 71
     3
 72
     8
 73
     4
 74
     0
 42
0.000000001
 43
0.00000001
 40
0.0
 40
0.0
 40
0.0
 40
0.0
 40
1.0
 40
1.0
 40
1.0
 40
1.0
 10
24.25805636544098
 20
-6.604676449120103
 30
0.0
 10
24.21319709629228
 20
-6.621807438565326
 30
0.0
 10
24.15801812549021
 20
-6.624997960309783
 30
0.0
 10
24.10110012584978
 20
-6.613531054663066
 30
0.0
  0
SPLINE
  5
21F
330
1F
100
AcDbEntity
  8
외형선
  6
Continuous
 62
     1
370
    15
100
AcDbSpline
210
0.0
220
0.0
230
1.0
 70
     8
 71
     3
 72
    10
 73
     6
 74
     0
 42
0.000000001
 43
0.00000001
 40
0.0
 40
0.0
 40
0.0
 40
0.0
 40
0.5000000000000034
 40
0.5000000000000034
 40
1.0
 40
1.0
 40
1.0
 40
1.0
 10
24.88453493081044
 20
-6.725603238039255
 30
0.0
 10
24.79168191545173
 20
-6.652383174662344
 30
0.0
 10
24.67888446227353
 20
-6.604573856473032
 30
0.0
 10
24.45383998763049
 20
-6.563724178829905
 30
0.0
 10
24.34656188905
 20
-6.570877699841232
 30
0.0
 10
24.25805636544098
 20
-6.604676449120107
 30
0.0
  0
SPLINE
  5
220
330
1F
100
AcDbEntity
  8
외형선
  6
Continuous
 62
     1
370
    15
100
AcDbSpline
210
0.0
220
0.0
230
1.0
 70
     8
 71
     3
 72
     8
 73
     4
 74
     0
 42
0.000000001
 43
0.00000001
 40
0.0
 40
0.0
 40
0.0
 40
0.0
 40
1.0
 40
1.0
 40
1.0
 40
1.0
 10
25.04082094280111
 20
-6.796447004072935
 30
0.0
 10
24.98564051266691
 20
-6.786081487284902
 30
0.0
 10
24.93011779956515
 20
-6.761548010820476
 30
0.0
 10
24.88453493081048
 20
-6.725603238039285
 30
0.0
  0
SPLINE
  5
221
330
1F
100
AcDbEntity
  8
외형선
  6
Continuous
 62
     1
370
    15
100
AcDbSpline
210
0.0
220
0.0
230
1.0
 70
     8
 71
     3
 72
     8
 73
     4
 74
     0
 42
0.000000001
 43
0.00000001
 40
0.0
 40
0.0
 40
0.0
 40
0.0
 40
1.0
 40
1.0
 40
1.0
 40
1.0
 10
26.13040139851057
 20
-6.99254581702891
 30
0.0
 10
25.76735972385185
 20
-6.930064869082195
 30
0.0
 10
25.40394006705522
 20
-6.864658095745933
 30
0.0
 10
25.04082094278691
 20
-6.796447004070129
 30
0.0
  0
SPLINE
  5
222
330
1F
100
AcDbEntity
  8
외형선
  6
Continuous
 62
     1
370
    15
100
AcDbSpline
210
0.0
220
0.0
230
1.0
 70
     8
 71
     3
 72
     8
 73
     4
 74
     0
 42
0.000000001
 43
0.00000001
 40
0.0
 40
0.0
 40
0.0
 40
0.0
 40
1.0
 40
1.0
 40
1.0
 40
1.0
 10
26.2872966691598
 20
-6.975919901699703
 30
0.0
 10
26.24246197931587
 20
-6.996416066448833
 30
0.0
 10
26.18730329591169
 20
-7.002338864873637
 30
0.0
 10
26.1304013985121
 20
-6.992545817029204
 30
0.0
  0
SPLINE
  5
223
330
1F
100
AcDbEntity
  8
외형선
  6
Continuous
 62
     1
370
    15
100
AcDbSpline
210
0.0
220
0.0
230
1.0
 70
     8
 71
     3
 72
    10
 73
     6
 74
     0
 42
0.000000001
 43
0.00000001
 40
0.0
 40
0.0
 40
0.0
 40
0.0
 40
0.5
 40
0.5
 40
1.0
 40
1.0
 40
1.0
 40
1.0
 10
26.91355989353315
 20
-7.078540301628339
 30
0.0
 10
26.82074871349258
 20
-7.003905826347713
 30
0.0
 10
26.70800530203368
 20
-6.95717211627083
 30
0.0
 10
26.48302478407891
 20
-6.922951573405882
 30
0.0
 10
26.37577193774951
 20
-6.935473459724734
 30
0.0
 10
26.28729666915979
 20
-6.975919901699697
 30
0.0
  0
SPLINE
  5
224
330
1F
100
AcDbEntity
  8
외형선
  6
Continuous
 62
     1
370
    15
100
AcDbSpline
210
0.0
220
0.0
230
1.0
 70
     8
 71
     3
 72
     8
 73
     4
 74
     0
 42
0.000000001
 43
0.00000001
 40
0.0
 40
0.0
 40
0.0
 40
0.0
 40
1.0
 40
1.0
 40
1.0
 40
1.0
 10
27.06980202999085
 20
-7.147828986568154
 30
0.0
 10
27.01464014943187
 20
-7.139086823440539
 30
0.0
 10
26.95913227076612
 20
-7.115187507930278
 30
0.0
 10
26.9135598935332
 20
-7.07854030162839
 30
0.0
  0
SPLINE
  5
225
330
1F
100
AcDbEntity
  8
외형선
  6
Continuous
 62
     1
370
    15
100
AcDbSpline
210
0.0
220
0.0
230
1.0
 70
     8
 71
     3
 72
     8
 73
     4
 74
     0
 42
0.000000001
 43
0.00000001
 40
0.0
 40
0.0
 40
0.0
 40
0.0
 40
1.0
 40
1.0
 40
1.0
 40
1.0
 10
28.15926452282137
 20
-7.31144009165353
 30
0.0
 10
27.79540163953925
 20
-7.259895639294629
 30
0.0
 10
27.43283296591801
 20
-7.205362841928046
 30
0.0
 10
27.06980204613845
 20
-7.147828989127142
 30
0.0
  0
SPLINE
  5
226
330
1F
100
AcDbEntity
  8
외형선
  6
Continuous
 62
     1
370
    15
100
AcDbSpline
210
0.0
220
0.0
230
1.0
 70
     8
 71
     3
 72
     8
 73
     4
 74
     0
 42
0.000000001
 43
0.00000001
 40
0.0
 40
0.0
 40
0.0
 40
0.0
 40
1.0
 40
1.0
 40
1.0
 40
1.0
 10
28.31617705708132
 20
-7.287243828014408
 30
0.0
 10
28.27133422625182
 20
-7.31091892124553
 30
0.0
 10
28.21616988249553
 20
-7.31950124795134
 30
0.0
 10
28.15926460781547
 20
-7.311440103693746
 30
0.0
  0
SPLINE
  5
227
330
1F
100
AcDbEntity
  8
외형선
  6
Continuous
 62
     1
370
    15
100
AcDbSpline
210
0.0
220
0.0
230
1.0
 70
     8
 71
     3
 72
    10
 73
     6
 74
     0
 42
0.000000001
 43
0.00000001
 40
0.0
 40
0.0
 40
0.0
 40
0.0
 40
0.5
 40
0.5
 40
1.0
 40
1.0
 40
1.0
 40
1.0
 10
28.9425809796718
 20
-7.370597091108963
 30
0.0
 10
28.84974289234408
 20
-7.295214921441223
 30
0.0
 10
28.73696503205487
 20
-7.250003336970607
 30
0.0
 10
28.51193845005409
 20
-7.222751949626011
 30
0.0
 10
28.40466681788705
 20
-7.240525025960161
 30
0.0
 10
28.31617705708133
 20
-7.287243828014417
 30
0.0
  0
SPLINE
  5
228
330
1F
100
AcDbEntity
  8
외형선
  6
Continuous
 62
     1
370
    15
100
AcDbSpline
210
0.0
220
0.0
230
1.0
 70
     8
 71
     3
 72
     8
 73
     4
 74
     0
 42
0.000000001
 43
0.00000001
 40
0.0
 40
0.0
 40
0.0
 40
0.0
 40
1.0
 40
1.0
 40
1.0
 40
1.0
 10
29.09886707175965
 20
-7.437641631475445
 30
0.0
 10
29.04368656097812
 20
-7.430635045176225
 30
0.0
 10
28.98816333969966
 20
-7.407608810074521
 30
0.0
 10
28.94258097967187
 20
-7.370597091109016
 30
0.0
  0
SPLINE
  5
229
330
1F
100
AcDbEntity
  8
외형선
  6
Continuous
 62
     1
370
    15
100
AcDbSpline
210
0.0
220
0.0
230
1.0
 70
     8
 71
     3
 72
     8
 73
     4
 74
     0
 42
0.000000001
 43
0.00000001
 40
0.0
 40
0.0
 40
0.0
 40
0.0
 40
1.0
 40
1.0
 40
1.0
 40
1.0
 10
30.18866000856658
 20
-7.566743448314381
 30
0.0
 10
29.82582950424303
 20
-7.526852662988756
 30
0.0
 10
29.46233891908472
 20
-7.483793738976217
 30
0.0
 10
29.09886707175978
 20
-7.437641631475362
 30
0.0
  0
SPLINE
  5
22A
330
1F
100
AcDbEntity
  8
외형선
  6
Continuous
 62
     1
370
    15
100
AcDbSpline
210
0.0
220
0.0
230
1.0
 70
     8
 71
     3
 72
     8
 73
     4
 74
     0
 42
0.000000001
 43
0.00000001
 40
0.0
 40
0.0
 40
0.0
 40
0.0
 40
1.0
 40
1.0
 40
1.0
 40
1.0
 10
30.34562578590471
 20
-7.53519761239721
 30
0.0
 10
30.30076473808584
 20
-7.561839171133832
 30
0.0
 10
30.24558382031595
 20
-7.573001840393673
 30
0.0
 10
30.18866000857003
 20
-7.566743448314801
 30
0.0
  0
SPLINE
  5
22B
330
1F
100
AcDbEntity
  8
외형선
  6
Continuous
 62
     1
370
    15
100
AcDbSpline
210
0.0
220
0.0
230
1.0
 70
     8
 71
     3
 72
    10
 73
     6
 74
     0
 42
0.000000001
 43
0.00000001
 40
0.0
 40
0.0
 40
0.0
 40
0.0
 40
0.5
 40
0.5
 40
1.0
 40
1.0
 40
1.0
 40
1.0
 10
30.97221665171953
 20
-7.598808629893886
 30
0.0
 10
30.87934389482951
 20
-7.523268134721153
 30
0.0
 10
30.76654879909864
 20
-7.47991899305844
 30
0.0
 10
30.54147046635297
 20
-7.459781091046062
 30
0.0
 10
30.43416171448683
 20
-7.482618922056624
 30
0.0
 10
30.34562578590471
 20
-7.535197612397214
 30
0.0
  0
SPLINE
  5
22C
330
1F
100
AcDbEntity
  8
외형선
  6
Continuous
 62
     1
370
    15
100
AcDbSpline
210
0.0
220
0.0
230
1.0
 70
     8
 71
     3
 72
     8
 73
     4
 74
     0
 42
0.000000001
 43
0.00000001
 40
0.0
 40
0.0
 40
0.0
 40
0.0
 40
1.0
 40
1.0
 40
1.0
 40
1.0
 10
31.12854215919015
 20
-7.663125786779538
 30
0.0
 10
31.07335257167812
 20
-7.657881743546191
 30
0.0
 10
31.01781670175049
 20
-7.635898627807022
 30
0.0
 10
30.97221665171959
 20
-7.598808629893939
 30
0.0
  0
SPLINE
  5
22D
330
1F
100
AcDbEntity
  8
외형선
  6
Continuous
 62
     1
370
    15
100
AcDbSpline
210
0.0
220
0.0
230
1.0
 70
     8
 71
     3
 72
     8
 73
     4
 74
     0
 42
0.000000001
 43
0.00000001
 40
0.0
 40
0.0
 40
0.0
 40
0.0
 40
1.0
 40
1.0
 40
1.0
 40
1.0
 10
32.21857139536767
 20
-7.756935069393094
 30
0.0
 10
31.85467827835212
 20
-7.728869599535197
 30
0.0
 10
31.49110888327593
 20
-7.697576408023641
 30
0.0
 10
31.12854215918292
 20
-7.66312578677876
 30
0.0
  0
SPLINE
  5
22E
330
1F
100
AcDbEntity
  8
외형선
  6
Continuous
 62
     1
370
    15
100
AcDbSpline
210
0.0
220
0.0
230
1.0
 70
     8
 71
     3
 72
     8
 73
     4
 74
     0
 42
0.000000001
 43
0.00000001
 40
0.0
 40
0.0
 40
0.0
 40
0.0
 40
1.0
 40
1.0
 40
1.0
 40
1.0
 10
32.37556363165171
 20
-7.718270322484612
 30
0.0
 10
32.33069282545562
 20
-7.747664553194223
 30
0.0
 10
32.27550201288517
 20
-7.761325876625144
 30
0.0
 10
32.21857139541829
 20
-7.75693506939704
 30
0.0
  0
SPLINE
  5
22F
330
1F
100
AcDbEntity
  8
외형선
  6
Continuous
 62
     1
370
    15
100
AcDbSpline
210
0.0
220
0.0
230
1.0
 70
     8
 71
     3
 72
    10
 73
     6
 74
     0
 42
0.000000001
 43
0.00000001
 40
0.0
 40
0.0
 40
0.0
 40
0.0
 40
0.5
 40
0.5
 40
1.0
 40
1.0
 40
1.0
 40
1.0
 10
33.002217523397
 20
-7.761263859900659
 30
0.0
 10
32.9093419425632
 20
-7.686290779575433
 30
0.0
 10
32.79652475511556
 20
-7.645235270903426
 30
0.0
 10
32.57141899814505
 20
-7.632507621157161
 30
0.0
 10
32.46410450756773
 20
-7.660268446553655
 30
0.0
 10
32.37556363165169
 20
-7.71827032248461
 30
0.0
  0
SPLINE
  5
230
330
1F
100
AcDbEntity
  8
외형선
  6
Continuous
 62
     1
370
    15
100
AcDbSpline
210
0.0
220
0.0
230
1.0
 70
     8
 71
     3
 72
     8
 73
     4
 74
     0
 42
0.000000001
 43
0.00000001
 40
0.0
 40
0.0
 40
0.0
 40
0.0
 40
1.0
 40
1.0
 40
1.0
 40
1.0
 10
33.15855147944841
 20
-7.822205560980359
 30
0.0
 10
33.10335684998751
 20
-7.818797212537257
 30
0.0
 10
33.04781636868866
 20
-7.798073168225796
 30
0.0
 10
33.00221752339706
 20
-7.76126385990071
 30
0.0
  0
SPLINE
  5
238
330
1F
100
AcDbEntity
  8
외형선
  6
Continuous
370
    15
100
AcDbSpline
210
0.0
220
0.0
230
1.0
 70
    24
 71
     3
 72
    16
 73
    12
 74
     0
 42
0.000000001
 43
0.00000001
 40
0.0
 40
0.0
 40
0.0
 40
0.0
 40
0.0229519717100165
 40
0.1472511426712837
 40
0.271550293832573
 40
0.3958494683383859
 40
0.520148681080518
 40
0.6444478077904461
 40
0.7687470003667823
 40
0.8930461764150295
 40
1.0
 40
1.0
 40
1.0
 40
1.0
 10
10.00000004749744
 20
-2.629736205562955
 30
0.0
 10
10.00000004749744
 20
-2.636331596367963
 30
0.0
 10
10.00000004749744
 20
-2.678645121526987
 30
0.0
 10
10.00000004749744
 20
-2.906119900785191
 30
0.0
 10
10.00000004749744
 20
-3.316624660363169
 30
0.0
 10
10.00000004749744
 20
-3.873618164233587
 30
0.0
 10
10.00000004749744
 20
-4.548905324280823
 30
0.0
 10
10.00000004749744
 20
-5.3234924847508
 30
0.0
 10
10.00000004749744
 20
-6.177881570697711
 30
0.0
 10
10.00000004749744
 20
-7.042951148907086
 30
0.0
 10
10.00000004749744
 20
-7.622767201740748
 30
0.0
 10
10.00000004749744
 20
-7.890930399298674
 30
0.0
  0
SPLINE
  5
239
330
1F
100
AcDbEntity
  8
외형선
  6
Continuous
 62
     1
370
    15
100
AcDbSpline
210
0.0
220
0.0
230
1.0
 70
     8
 71
     3
 72
    12
 73
     8
 74
     0
 42
0.000000001
 43
0.00000001
 40
0.0
 40
0.0
 40
0.0
 40
0.0
 40
0.4999999999999998
 40
0.4999999999999998
 40
0.7499999999999999
 40
0.7499999999999999
 40
1.0
 40
1.0
 40
1.0
 40
1.0
 10
20.19817485983453
 20
-5.693489210139315
 30
0.0
 10
20.17336190164046
 20
-5.275306476755322
 30
0.0
 10
20.14853968046765
 20
-4.806314564269409
 30
0.0
 10
20.11271547251686
 20
-4.056298907327728
 30
0.0
 10
20.10118706086489
 20
-3.799994957760105
 30
0.0
 10
20.07791135043132
 20
-3.270968280400925
 30
0.0
 10
20.06598046448396
 20
-2.996765576823529
 30
0.0
 10
20.05386328626208
 20
-2.715206540910348
 30
0.0
  0
SPLINE
  5
23A
330
1F
100
AcDbEntity
  8
외형선
  6
Continuous
 62
     1
370
    15
100
AcDbSpline
210
0.0
220
0.0
230
1.0
 70
     8
 71
     3
 72
    10
 73
     6
 74
     0
 42
0.000000001
 43
0.00000001
 40
0.0
 40
0.0
 40
0.0
 40
0.0
 40
0.5
 40
0.5
 40
1.0
 40
1.0
 40
1.0
 40
1.0
 10
20.98119538131914
 20
-5.920220824016513
 30
0.0
 10
20.95654003067613
 20
-5.517084023160103
 30
0.0
 10
20.93172452594964
 20
-5.060862416654322
 30
0.0
 10
20.88367224065979
 20
-4.079681408470172
 30
0.0
 10
20.86116813508417
 20
-3.561111627482226
 30
0.0
 10
20.83732315346439
 20
-3.007196234345432
 30
0.0
  0
SPLINE
  5
23B
330
1F
100
AcDbEntity
  8
외형선
  6
Continuous
 62
     1
370
    15
100
AcDbSpline
210
0.0
220
0.0
230
1.0
 70
     8
 71
     3
 72
    12
 73
     8
 74
     0
 42
0.000000001
 43
0.00000001
 40
0.0
 40
0.0
 40
0.0
 40
0.0
 40
0.5000000000000002
 40
0.5000000000000002
 40
0.75
 40
0.75
 40
1.0
 40
1.0
 40
1.0
 40
1.0
 10
22.07125477845046
 20
-6.176776861749317
 30
0.0
 10
22.04675257689161
 20
-5.797827255325838
 30
0.0
 10
22.0218772157996
 20
-5.362776985863165
 30
0.0
 10
21.98544055282949
 20
-4.651798165100552
 30
0.0
 10
21.97344097063619
 20
-4.405193798457692
 30
0.0
 10
21.9499521759856
 20
-3.898075873925418
 30
0.0
 10
21.93864334065361
 20
-3.639003606941636
 30
0.0
 10
21.92695223941291
 20
-3.370055310137672
 30
0.0
  0
SPLINE
  5
23C
330
1F
100
AcDbEntity
  8
외형선
  6
Continuous
 62
     1
370
    15
100
AcDbSpline
210
0.0
220
0.0
230
1.0
 70
     8
 71
     3
 72
    10
 73
     6
 74
     0
 42
0.000000001
 43
0.00000001
 40
0.0
 40
0.0
 40
0.0
 40
0.0
 40
0.5
 40
0.5
 40
1.0
 40
1.0
 40
1.0
 40
1.0
 10
20.82485927649115
 20
-5.847988461441513
 30
0.0
 10
20.80008045977773
 20
-5.442877395729732
 30
0.0
 10
20.77516689273621
 20
-4.984962176826958
 30
0.0
 10
20.72699087057844
 20
-4.001585876830136
 30
0.0
 10
20.70439980568484
 20
-3.482081630773928
 30
0.0
 10
20.68038066296717
 20
-2.926997593343323
 30
0.0
  0
SPLINE
  5
23D
330
1F
100
AcDbEntity
  8
외형선
  6
Continuous
 62
     1
370
    15
100
AcDbSpline
210
0.0
220
0.0
230
1.0
 70
     8
 71
     3
 72
    12
 73
     8
 74
     0
 42
0.000000001
 43
0.00000001
 40
0.0
 40
0.0
 40
0.0
 40
0.0
 40
0.4999999999999996
 40
0.4999999999999996
 40
0.7499999999999998
 40
0.7499999999999998
 40
1.0
 40
1.0
 40
1.0
 40
1.0
 10
28.43612090470383
 20
2.969244144304425
 30
0.0
 10
28.41142910441203
 20
3.527806388761431
 30
0.0
 10
28.38645171504026
 20
4.06204209578016
 30
0.0
 10
28.35001014966634
 20
4.796553554123403
 30
0.0
 10
28.33803322789734
 20
5.030337466098359
 30
0.0
 10
28.31463641453861
 20
5.472137471536787
 30
0.0
 10
28.30323247626123
 20
5.680244022993927
 30
0.0
 10
28.29137453278307
 20
5.87847699545495
 30
0.0
  0
SPLINE
  5
23E
330
1F
100
AcDbEntity
  8
외형선
  6
Continuous
 62
     1
370
    15
100
AcDbSpline
210
0.0
220
0.0
230
1.0
 70
     8
 71
     3
 72
    10
 73
     6
 74
     0
 42
0.000000001
 43
0.00000001
 40
0.0
 40
0.0
 40
0.0
 40
0.0
 40
0.5
 40
0.5
 40
1.0
 40
1.0
 40
1.0
 40
1.0
 10
27.80945796409204
 20
3.177852908127079
 30
0.0
 10
27.78469047650761
 20
3.730504182800691
 30
0.0
 10
27.75976165842567
 20
4.255924574901526
 30
0.0
 10
27.71150588332731
 20
5.213297749807476
 30
0.0
 10
27.68890533202991
 20
5.641886142470497
 30
0.0
 10
27.66493568275057
 20
6.026991877997824
 30
0.0
  0
SPLINE
  5
23F
330
1F
100
AcDbEntity
  8
외형선
  6
Continuous
 62
     1
370
    15
100
AcDbSpline
210
0.0
220
0.0
230
1.0
 70
     8
 71
     3
 72
    12
 73
     8
 74
     0
 42
0.000000001
 43
0.00000001
 40
0.0
 40
0.0
 40
0.0
 40
0.0
 40
0.5
 40
0.5
 40
0.75
 40
0.75
 40
1.0
 40
1.0
 40
1.0
 40
1.0
 10
26.56232909831694
 20
3.616926693674906
 30
0.0
 10
26.53762643601248
 20
4.156377918758665
 30
0.0
 10
26.51301579043208
 20
4.663007897174099
 30
0.0
 10
26.47762352519348
 20
5.347239879966424
 30
0.0
 10
26.46627479275686
 20
5.56173959132408
 30
0.0
 10
26.44288183009866
 20
5.970759367935092
 30
0.0
 10
26.43091384437796
 20
6.164639821134362
 30
0.0
 10
26.41878246125717
 20
6.345587160249393
 30
0.0
  0
SPLINE
  5
240
330
1F
100
AcDbEntity
  8
외형선
  6
Continuous
 62
     1
370
    15
100
AcDbSpline
210
0.0
220
0.0
230
1.0
 70
     8
 71
     3
 72
    10
 73
     6
 74
     0
 42
0.000000001
 43
0.00000001
 40
0.0
 40
0.0
 40
0.0
 40
0.0
 40
0.5
 40
0.5
 40
1.0
 40
1.0
 40
1.0
 40
1.0
 10
27.65245636801257
 20
3.258922892831354
 30
0.0
 10
27.62778517381613
 20
3.810967256539959
 30
0.0
 10
27.6029894243238
 20
4.335031151048718
 30
0.0
 10
27.55504279944848
 20
5.288872591285947
 30
0.0
 10
27.53255184912942
 20
5.715747718809889
 30
0.0
 10
27.50863897439482
 20
6.09920307595259
 30
0.0
  0
SPLINE
  5
241
330
1F
100
AcDbEntity
  8
외형선
  6
Continuous
 62
     1
370
    15
100
AcDbSpline
210
0.0
220
0.0
230
1.0
 70
     8
 71
     3
 72
    12
 73
     8
 74
     0
 42
0.000000001
 43
0.00000001
 40
0.0
 40
0.0
 40
0.0
 40
0.0
 40
0.4999999999999998
 40
0.4999999999999998
 40
0.7499999999999999
 40
0.7499999999999999
 40
1.0
 40
1.0
 40
1.0
 40
1.0
 10
22.228241634266
 20
-6.175674698268329
 30
0.0
 10
22.20366252576292
 20
-5.801653202877324
 30
0.0
 10
22.17867206636297
 20
-5.370944386931996
 30
0.0
 10
22.14202514453569
 20
-4.665381363415334
 30
0.0
 10
22.12994934627329
 20
-4.420403220648029
 30
0.0
 10
22.10630022162299
 20
-3.916186407883894
 30
0.0
 10
22.09492736346161
 20
-3.658516599488861
 30
0.0
 10
22.08321551411164
 20
-3.391228681100733
 30
0.0
  0
SPLINE
  5
242
330
1F
100
AcDbEntity
  8
외형선
  6
Continuous
 62
     1
370
    15
100
AcDbSpline
210
0.0
220
0.0
230
1.0
 70
     8
 71
     3
 72
    12
 73
     8
 74
     0
 42
0.000000001
 43
0.00000001
 40
0.0
 40
0.0
 40
0.0
 40
0.0
 40
0.5
 40
0.5
 40
0.75
 40
0.75
 40
1.0
 40
1.0
 40
1.0
 40
1.0
 10
22.85485326071139
 20
-6.313835033714675
 30
0.0
 10
22.83041781482478
 20
-5.954450580225469
 30
0.0
 10
22.8054505612362
 20
-5.536919611734104
 30
0.0
 10
22.76865386583996
 20
-4.847398742715293
 30
0.0
 10
22.75649789683044
 20
-4.607154999039424
 30
0.0
 10
22.732633103685
 20
-4.111043165248452
 30
0.0
 10
22.72105967796607
 20
-3.856201115551719
 30
0.0
 10
22.70950539640994
 20
-3.594031746986575
 30
0.0
  0
SPLINE
  5
243
330
1F
100
AcDbEntity
  8
외형선
  6
Continuous
 62
     1
370
    15
100
AcDbSpline
210
0.0
220
0.0
230
1.0
 70
     8
 71
     3
 72
    10
 73
     6
 74
     0
 42
0.000000001
 43
0.00000001
 40
0.0
 40
0.0
 40
0.0
 40
0.0
 40
0.5
 40
0.5
 40
1.0
 40
1.0
 40
1.0
 40
1.0
 10
23.0111739137949
 20
-6.385697577616286
 30
0.0
 10
22.98688524641719
 20
-6.028738626928106
 30
0.0
 10
22.96204435197261
 20
-5.61349095532083
 30
0.0
 10
22.91316530637014
 20
-4.697699221399087
 30
0.0
 10
22.88929267230469
 20
-4.198625099416279
 30
0.0
 10
22.86638299953845
 20
-3.676161177309214
 30
0.0
  0
SPLINE
  5
244
330
1F
100
AcDbEntity
  8
외형선
  6
Continuous
 62
     1
370
    15
100
AcDbSpline
210
0.0
220
0.0
230
1.0
 70
     8
 71
     3
 72
    10
 73
     6
 74
     0
 42
0.000000001
 43
0.00000001
 40
0.0
 40
0.0
 40
0.0
 40
0.0
 40
0.5
 40
0.5
 40
1.0
 40
1.0
 40
1.0
 40
1.0
 10
24.10110012138206
 20
-6.613530993055192
 30
0.0
 10
24.07713804195329
 20
-6.283064014643593
 30
0.0
 10
24.05242275725804
 20
-5.892202036174879
 30
0.0
 10
24.00336286161292
 20
-5.017111723117812
 30
0.0
 10
23.97903418699216
 20
-4.533192967675006
 30
0.0
 10
23.95579802082556
 20
-4.023236475778886
 30
0.0
  0
SPLINE
  5
245
330
1F
100
AcDbEntity
  8
외형선
  6
Continuous
 62
     1
370
    15
100
AcDbSpline
210
0.0
220
0.0
230
1.0
 70
     8
 71
     3
 72
    12
 73
     8
 74
     0
 42
0.000000001
 43
0.00000001
 40
0.0
 40
0.0
 40
0.0
 40
0.0
 40
0.4999999999999998
 40
0.4999999999999998
 40
0.7499999999999999
 40
0.7499999999999999
 40
1.0
 40
1.0
 40
1.0
 40
1.0
 10
26.40599250156508
 20
3.635769283555101
 30
0.0
 10
26.38118208965953
 20
4.172300566447188
 30
0.0
 10
26.35649155148657
 20
4.675352302766274
 30
0.0
 10
26.32103376617576
 20
5.353382890961415
 30
0.0
 10
26.30964854530356
 20
5.565856245472746
 30
0.0
 10
26.28607631223105
 20
5.971106730577907
 30
0.0
 10
26.2740231217309
 20
6.162910204242047
 30
0.0
 10
26.26181340312278
 20
6.341597021824938
 30
0.0
  0
SPLINE
  5
246
330
1F
100
AcDbEntity
  8
외형선
  6
Continuous
 62
     1
370
    15
100
AcDbSpline
210
0.0
220
0.0
230
1.0
 70
     8
 71
     3
 72
    12
 73
     8
 74
     0
 42
0.000000001
 43
0.00000001
 40
0.0
 40
0.0
 40
0.0
 40
0.0
 40
0.4999999999999998
 40
0.4999999999999998
 40
0.7499999999999999
 40
0.7499999999999999
 40
1.0
 40
1.0
 40
1.0
 40
1.0
 10
25.77933040453759
 20
3.83511572502107
 30
0.0
 10
25.75455671780565
 20
4.363242811457444
 30
0.0
 10
25.73002802750678
 20
4.855251196154983
 30
0.0
 10
25.69497051261777
 20
5.514243605334656
 30
0.0
 10
25.68349914488939
 20
5.721489195265209
 30
0.0
 10
25.65966811587143
 20
6.11571862022483
 30
0.0
 10
25.64751188371812
 20
6.301396040879291
 30
0.0
 10
25.63522872956561
 20
6.473435934219238
 30
0.0
  0
SPLINE
  5
247
330
1F
100
AcDbEntity
  8
외형선
  6
Continuous
 62
     1
370
    15
100
AcDbSpline
210
0.0
220
0.0
230
1.0
 70
     8
 71
     3
 72
    12
 73
     8
 74
     0
 42
0.000000001
 43
0.00000001
 40
0.0
 40
0.0
 40
0.0
 40
0.0
 40
0.2499999999999998
 40
0.2499999999999998
 40
0.4999999999999996
 40
0.4999999999999996
 40
1.0
 40
1.0
 40
1.0
 40
1.0
 10
24.53230540172352
 20
4.257533418132378
 30
0.0
 10
24.52006256081674
 20
4.512582968915081
 30
0.0
 10
24.50793879568503
 20
4.757514415787035
 30
0.0
 10
24.48415536389916
 20
5.223015056306294
 30
0.0
 10
24.4726772841437
 20
5.442522814239089
 30
0.0
 10
24.43788689778447
 20
6.067871339930744
 30
0.0
 10
24.41352022426232
 20
6.443693391210473
 30
0.0
 10
24.38887418253097
 20
6.761024808229663
 30
0.0
  0
SPLINE
  5
248
330
1F
100
AcDbEntity
  8
외형선
  6
Continuous
 62
     1
370
    15
100
AcDbSpline
210
0.0
220
0.0
230
1.0
 70
     8
 71
     3
 72
    12
 73
     8
 74
     0
 42
0.000000001
 43
0.00000001
 40
0.0
 40
0.0
 40
0.0
 40
0.0
 40
0.5000000000000002
 40
0.5000000000000002
 40
0.7500000000000001
 40
0.7500000000000001
 40
1.0
 40
1.0
 40
1.0
 40
1.0
 10
25.62233655032433
 20
3.917802950780327
 30
0.0
 10
25.59769020311153
 20
4.444588821319148
 30
0.0
 10
25.57332178317264
 20
4.934609195935876
 30
0.0
 10
25.53852694561717
 20
5.590225306995443
 30
0.0
 10
25.52705202181848
 20
5.796845182003869
 30
0.0
 10
25.50327178351574
 20
6.189314791404405
 30
0.0
 10
25.4911493058003
 20
6.373998478900205
 30
0.0
 10
25.47890740317416
 20
6.544967911865686
 30
0.0
  0
SPLINE
  5
249
330
1F
100
AcDbEntity
  8
외형선
  6
Continuous
 62
     1
370
    15
100
AcDbSpline
210
0.0
220
0.0
230
1.0
 70
     8
 71
     3
 72
    10
 73
     6
 74
     0
 42
0.000000001
 43
0.00000001
 40
0.0
 40
0.0
 40
0.0
 40
0.0
 40
0.5
 40
0.5
 40
1.0
 40
1.0
 40
1.0
 40
1.0
 10
24.25805636543175
 20
-6.604676448995064
 30
0.0
 10
24.2340442712271
 20
-6.279323436520388
 30
0.0
 10
24.20923945228375
 20
-5.893112826718148
 30
0.0
 10
24.15994092922318
 20
-5.025972705937888
 30
0.0
 10
24.13546356321161
 20
-4.54535215024276
 30
0.0
 10
24.112065951233
 20
-4.038021302046651
 30
0.0
  0
SPLINE
  5
24A
330
1F
100
AcDbEntity
  8
외형선
  6
Continuous
 62
     1
370
    15
100
AcDbSpline
210
0.0
220
0.0
230
1.0
 70
     8
 71
     3
 72
    10
 73
     6
 74
     0
 42
0.000000001
 43
0.00000001
 40
0.0
 40
0.0
 40
0.0
 40
0.0
 40
0.5
 40
0.5
 40
1.0
 40
1.0
 40
1.0
 40
1.0
 10
24.8845349124027
 20
-6.725602998288403
 30
0.0
 10
24.86074404046181
 20
-6.415739721251163
 30
0.0
 10
24.83604822278626
 20
-6.044006515554623
 30
0.0
 10
24.78671643420083
 20
-5.201455746491236
 30
0.0
 10
24.76209688844044
 20
-4.730923733687731
 30
0.0
 10
24.73844913986636
 20
-4.230856972980114
 30
0.0
  0
SPLINE
  5
24B
330
1F
100
AcDbEntity
  8
외형선
  6
Continuous
 62
     1
370
    15
100
AcDbSpline
210
0.0
220
0.0
230
1.0
 70
     8
 71
     3
 72
    10
 73
     6
 74
     0
 42
0.000000001
 43
0.00000001
 40
0.0
 40
0.0
 40
0.0
 40
0.0
 40
0.5
 40
0.5
 40
1.0
 40
1.0
 40
1.0
 40
1.0
 10
25.04082094519906
 20
-6.796447035235534
 30
0.0
 10
25.01718765633316
 20
-6.489249448604005
 30
0.0
 10
24.99263421912746
 20
-6.120133392706343
 30
0.0
 10
24.94352464852942
 20
-5.282003709737655
 30
0.0
 10
24.91898457914141
 20
-4.81326511375727
 30
0.0
 10
24.89537638892944
 20
-4.314265249875616
 30
0.0
  0
SPLINE
  5
24C
330
1F
100
AcDbEntity
  8
외형선
  6
Continuous
 62
     1
370
    15
100
AcDbSpline
210
0.0
220
0.0
230
1.0
 70
     8
 71
     3
 72
    10
 73
     6
 74
     0
 42
0.000000001
 43
0.00000001
 40
0.0
 40
0.0
 40
0.0
 40
0.0
 40
0.5
 40
0.5
 40
1.0
 40
1.0
 40
1.0
 40
1.0
 10
26.13040141912703
 20
-6.992546065656313
 30
0.0
 10
26.10720017665952
 20
-6.712734274236039
 30
0.0
 10
26.08289288173037
 20
-6.3695626213283
 30
0.0
 10
26.03384343741387
 20
-5.576250140243606
 30
0.0
 10
26.0091171992091
 20
-5.126339214457137
 30
0.0
 10
25.98512932312291
 20
-4.641344122922281
 30
0.0
  0
SPLINE
  5
24D
330
1F
100
AcDbEntity
  8
외형선
  6
Continuous
 62
     1
370
    15
100
AcDbSpline
210
0.0
220
0.0
230
1.0
 70
     8
 71
     3
 72
    12
 73
     8
 74
     0
 42
0.000000001
 43
0.00000001
 40
0.0
 40
0.0
 40
0.0
 40
0.0
 40
0.25
 40
0.25
 40
0.5
 40
0.5
 40
1.0
 40
1.0
 40
1.0
 40
1.0
 10
24.37598120272427
 20
4.269825631064725
 30
0.0
 10
24.36369702194566
 20
4.523198009051699
 30
0.0
 10
24.35153942274618
 20
4.766305566371524
 30
0.0
 10
24.32770506348898
 20
5.227896387238506
 30
0.0
 10
24.31623117688917
 20
5.445221528401773
 30
0.0
 10
24.28117768897371
 20
6.065286541937096
 30
0.0
 10
24.25665046128479
 20
6.436849237507403
 30
0.0
 10
24.23187682603405
 20
6.74928880617732
 30
0.0
  0
SPLINE
  5
24E
330
1F
100
AcDbEntity
  8
외형선
  6
Continuous
 62
     1
370
    15
100
AcDbSpline
210
0.0
220
0.0
230
1.0
 70
     8
 71
     3
 72
    12
 73
     8
 74
     0
 42
0.000000001
 43
0.00000001
 40
0.0
 40
0.0
 40
0.0
 40
0.0
 40
0.25
 40
0.25
 40
0.5
 40
0.5
 40
1.0
 40
1.0
 40
1.0
 40
1.0
 10
23.74937693683342
 20
4.45868644676686
 30
0.0
 10
23.73716598768072
 20
4.7067294850703
 30
0.0
 10
23.72511130033516
 20
4.943948020719542
 30
0.0
 10
23.70153563121936
 20
5.392914931036459
 30
0.0
 10
23.69015020825468
 20
5.604009700670125
 30
0.0
 10
23.65469457778697
 20
6.207945085505838
 30
0.0
 10
23.63000441064403
 20
6.566235808722864
 30
0.0
 10
23.60519324439604
 20
6.863762015410917
 30
0.0
  0
SPLINE
  5
24F
330
1F
100
AcDbEntity
  8
외형선
  6
Continuous
 62
     1
370
    15
100
AcDbSpline
210
0.0
220
0.0
230
1.0
 70
     8
 71
     3
 72
    10
 73
     6
 74
     0
 42
0.000000001
 43
0.00000001
 40
0.0
 40
0.0
 40
0.0
 40
0.0
 40
0.5
 40
0.5
 40
1.0
 40
1.0
 40
1.0
 40
1.0
 10
22.50255627450388
 20
4.862106673007475
 30
0.0
 10
22.4786418611416
 20
5.335720829031045
 30
0.0
 10
22.45615180346573
 20
5.75938737785773
 30
0.0
 10
22.40821070240109
 20
6.519533672343596
 30
0.0
 10
22.38341658252921
 20
6.850670406744046
 30
0.0
 10
22.35874569123467
 20
7.118503331496682
 30
0.0
  0
SPLINE
  5
250
330
1F
100
AcDbEntity
  8
외형선
  6
Continuous
 62
     1
370
    15
100
AcDbSpline
210
0.0
220
0.0
230
1.0
 70
     8
 71
     3
 72
    12
 73
     8
 74
     0
 42
0.000000001
 43
0.00000001
 40
0.0
 40
0.0
 40
0.0
 40
0.0
 40
0.2499999999999999
 40
0.2499999999999999
 40
0.4999999999999998
 40
0.4999999999999998
 40
1.0
 40
1.0
 40
1.0
 40
1.0
 10
23.59240188612373
 20
4.542525247257046
 30
0.0
 10
23.58026943380125
 20
4.78954318387373
 30
0.0
 10
23.56830013198709
 20
5.025607642382496
 30
0.0
 10
23.54490412239952
 20
5.472111656003942
 30
0.0
 10
23.53355581123214
 20
5.682254073670247
 30
0.0
 10
23.49816580754205
 20
6.283343791125209
 30
0.0
 10
23.47355568873809
 20
6.639227090523006
 30
0.0
 10
23.4488524977799
 20
6.93415951564231
 30
0.0
  0
SPLINE
  5
251
330
1F
100
AcDbEntity
  8
외형선
  6
Continuous
 62
     1
370
    15
100
AcDbSpline
210
0.0
220
0.0
230
1.0
 70
     8
 71
     3
 72
    10
 73
     6
 74
     0
 42
0.000000001
 43
0.00000001
 40
0.0
 40
0.0
 40
0.0
 40
0.0
 40
0.5
 40
0.5
 40
1.0
 40
1.0
 40
1.0
 40
1.0
 10
26.28729665686812
 20
-6.975919756367016
 30
0.0
 10
26.26406676180611
 20
-6.701257237812048
 30
0.0
 10
26.23969064592656
 20
-6.362877566592755
 30
0.0
 10
26.19043666340798
 20
-5.577906834359815
 30
0.0
 10
26.16557502068018
 20
-5.13154231685762
 30
0.0
 10
26.14143396547296
 20
-4.649413863882493
 30
0.0
  0
SPLINE
  5
252
330
1F
100
AcDbEntity
  8
외형선
  6
Continuous
 62
     1
370
    15
100
AcDbSpline
210
0.0
220
0.0
230
1.0
 70
     8
 71
     3
 72
    10
 73
     6
 74
     0
 42
0.000000001
 43
0.00000001
 40
0.0
 40
0.0
 40
0.0
 40
0.0
 40
0.5
 40
0.5
 40
1.0
 40
1.0
 40
1.0
 40
1.0
 10
26.91355989353223
 20
-7.078540301618151
 30
0.0
 10
26.89060954395536
 20
-6.819822407644802
 30
0.0
 10
26.86640977873229
 20
-6.49674835546047
 30
0.0
 10
26.81725852263051
 20
-5.738607989501872
 30
0.0
 10
26.79232298945936
 20
-5.303739174452581
 30
0.0
 10
26.76799171919184
 20
-4.830371506374486
 30
0.0
  0
SPLINE
  5
253
330
1F
100
AcDbEntity
  8
외형선
  6
Continuous
 62
     1
370
    15
100
AcDbSpline
210
0.0
220
0.0
230
1.0
 70
     8
 71
     3
 72
    10
 73
     6
 74
     0
 42
0.000000001
 43
0.00000001
 40
0.0
 40
0.0
 40
0.0
 40
0.0
 40
0.5
 40
0.5
 40
1.0
 40
1.0
 40
1.0
 40
1.0
 10
27.06980206019351
 20
-7.147829324835254
 30
0.0
 10
27.04692973114515
 20
-6.891656570344509
 30
0.0
 10
27.02296982251267
 20
-6.571789254086436
 30
0.0
 10
26.97407400875613
 20
-5.818808947495523
 30
0.0
 10
26.94923847710482
 20
-5.386193515021558
 30
0.0
 10
26.92496828737913
 20
-4.914406269271772
 30
0.0
  0
SPLINE
  5
254
330
1F
100
AcDbEntity
  8
외형선
  6
Continuous
 62
     1
370
    15
100
AcDbSpline
210
0.0
220
0.0
230
1.0
 70
     8
 71
     3
 72
    12
 73
     8
 74
     0
 42
0.000000001
 43
0.00000001
 40
0.0
 40
0.0
 40
0.0
 40
0.0
 40
0.2499999999999997
 40
0.2499999999999997
 40
0.4999999999999997
 40
0.4999999999999997
 40
1.0
 40
1.0
 40
1.0
 40
1.0
 10
28.1592646158674
 20
-7.311440183256464
 30
0.0
 10
28.14755418295541
 20
-7.195734953429421
 30
0.0
 10
28.13624785363566
 20
-7.066189790306076
 30
0.0
 10
28.11279002343639
 20
-6.774909041946197
 30
0.0
 10
28.1008024159092
 20
-6.613588785433541
 30
0.0
 10
28.0643900155134
 20
-6.085720875420644
 30
0.0
 10
28.03951501206935
 20
-5.674759023929114
 30
0.0
 10
28.01499726370583
 20
-5.220079277863415
 30
0.0
  0
SPLINE
  5
255
330
1F
100
AcDbEntity
  8
외형선
  6
Continuous
 62
     1
370
    15
100
AcDbSpline
210
0.0
220
0.0
230
1.0
 70
     8
 71
     3
 72
    10
 73
     6
 74
     0
 42
0.000000001
 43
0.00000001
 40
0.0
 40
0.0
 40
0.0
 40
0.0
 40
0.5
 40
0.5
 40
1.0
 40
1.0
 40
1.0
 40
1.0
 10
22.34626457226185
 20
4.867675125569093
 30
0.0
 10
22.32229305784532
 20
5.33758502107297
 30
0.0
 10
22.29969383457806
 20
5.757644442761137
 30
0.0
 10
22.25144341046746
 20
6.509853475131604
 30
0.0
 10
22.22651604535517
 20
6.836343078083692
 30
0.0
 10
22.20174861237017
 20
7.099042320827398
 30
0.0
  0
SPLINE
  5
256
330
1F
100
AcDbEntity
  8
외형선
  6
Continuous
 62
     1
370
    15
100
AcDbSpline
210
0.0
220
0.0
230
1.0
 70
     8
 71
     3
 72
    12
 73
     8
 74
     0
 42
0.000000001
 43
0.00000001
 40
0.0
 40
0.0
 40
0.0
 40
0.0
 40
0.2499999999999999
 40
0.2499999999999999
 40
0.4999999999999998
 40
0.4999999999999998
 40
1.0
 40
1.0
 40
1.0
 40
1.0
 10
21.71983769785848
 20
5.043604298305485
 30
0.0
 10
21.70797822467422
 20
5.272256893103626
 30
0.0
 10
21.69657258822216
 20
5.487373693905705
 30
0.0
 10
21.67317913035245
 20
5.897169290435724
 30
0.0
 10
21.66120357560726
 20
6.091594243198652
 30
0.0
 10
21.62476505090461
 20
6.63647198277555
 30
0.0
 10
21.5997882494576
 20
6.947934254355326
 30
0.0
 10
21.57509552337221
 20
7.194550661844788
 30
0.0
  0
SPLINE
  5
257
330
1F
100
AcDbEntity
  8
외형선
  6
Continuous
 62
     1
370
    15
100
AcDbSpline
210
0.0
220
0.0
230
1.0
 70
     8
 71
     3
 72
    12
 73
     8
 74
     0
 42
0.000000001
 43
0.00000001
 40
0.0
 40
0.0
 40
0.0
 40
0.0
 40
0.2500000000000002
 40
0.2500000000000002
 40
0.5000000000000003
 40
0.5000000000000003
 40
1.0
 40
1.0
 40
1.0
 40
1.0
 10
20.47342474129078
 20
5.423686625719251
 30
0.0
 10
20.46192010592051
 20
5.639254165145447
 30
0.0
 10
20.45040331574898
 20
5.843714621257338
 30
0.0
 10
20.42665137602727
 20
6.231090101093617
 30
0.0
 10
20.41455302423027
 20
6.413144361484773
 30
0.0
 10
20.37792790368582
 20
6.918086801227657
 30
0.0
 10
20.35307315413573
 20
7.199126518424604
 30
0.0
 10
20.32873561416823
 20
7.4139702628834
 30
0.0
  0
SPLINE
  5
258
330
1F
100
AcDbEntity
  8
외형선
  6
Continuous
 62
     1
370
    15
100
AcDbSpline
210
0.0
220
0.0
230
1.0
 70
     8
 71
     3
 72
    12
 73
     8
 74
     0
 42
0.000000001
 43
0.00000001
 40
0.0
 40
0.0
 40
0.0
 40
0.0
 40
0.2500000000000001
 40
0.2500000000000001
 40
0.5000000000000001
 40
0.5000000000000001
 40
1.0
 40
1.0
 40
1.0
 40
1.0
 10
21.56291919472819
 20
5.127565011768916
 30
0.0
 10
21.5511515033238
 20
5.354880968645795
 30
0.0
 10
21.53982884145863
 20
5.5686763335067
 30
0.0
 10
21.5164715333554
 20
5.976442872312536
 30
0.0
 10
21.50452350082737
 20
6.169713912813357
 30
0.0
 10
21.46819402857111
 20
6.710830235801429
 30
0.0
 10
21.44332574915024
 20
7.019386415197813
 30
0.0
 10
21.41876521869339
 20
7.263053386628947
 30
0.0
  0
SPLINE
  5
259
330
1F
100
AcDbEntity
  8
외형선
  6
Continuous
 62
     1
370
    15
100
AcDbSpline
210
0.0
220
0.0
230
1.0
 70
     8
 71
     3
 72
    12
 73
     8
 74
     0
 42
0.000000001
 43
0.00000001
 40
0.0
 40
0.0
 40
0.0
 40
0.0
 40
0.2500000000000001
 40
0.2500000000000001
 40
0.5000000000000001
 40
0.5000000000000001
 40
1.0
 40
1.0
 40
1.0
 40
1.0
 10
28.31617704990542
 20
-7.287243759106636
 30
0.0
 10
28.30437326156166
 20
-7.173895984371902
 30
0.0
 10
28.29300941294112
 20
-7.046660215389136
 30
0.0
 10
28.2695117929659
 20
-6.760225948583045
 30
0.0
 10
28.25749480925872
 20
-6.601237373159922
 30
0.0
 10
28.22096788907329
 20
-6.079986760109625
 30
0.0
 10
28.19598085940676
 20
-5.672918686973641
 30
0.0
 10
28.17132799587588
 20
-5.22148395970911
 30
0.0
  0
SPLINE
  5
25A
330
1F
100
AcDbEntity
  8
외형선
  6
Continuous
 62
     1
370
    15
100
AcDbSpline
210
0.0
220
0.0
230
1.0
 70
     8
 71
     3
 72
    12
 73
     8
 74
     0
 42
0.000000001
 43
0.00000001
 40
0.0
 40
0.0
 40
0.0
 40
0.0
 40
0.25
 40
0.25
 40
0.5
 40
0.5
 40
1.0
 40
1.0
 40
1.0
 40
1.0
 10
28.9425809796691
 20
-7.370597091084885
 30
0.0
 10
28.93064462532005
 20
-7.26472673627778
 30
0.0
 10
28.91911094543985
 20
-7.144354004982164
 30
0.0
 10
28.89587778273434
 20
-6.87367706350104
 30
0.0
 10
28.8839671606459
 20
-6.722389176116162
 30
0.0
 10
28.84767166023464
 20
-6.223222741221623
 30
0.0
 10
28.82271994332676
 20
-5.829486863651843
 30
0.0
 10
28.79797874187616
 20
-5.388938500677153
 30
0.0
  0
SPLINE
  5
25B
330
1F
100
AcDbEntity
  8
외형선
  6
Continuous
 62
     1
370
    15
100
AcDbSpline
210
0.0
220
0.0
230
1.0
 70
     8
 71
     3
 72
    12
 73
     8
 74
     0
 42
0.000000001
 43
0.00000001
 40
0.0
 40
0.0
 40
0.0
 40
0.0
 40
0.2499999999999999
 40
0.2499999999999999
 40
0.4999999999999999
 40
0.4999999999999999
 40
1.0
 40
1.0
 40
1.0
 40
1.0
 10
29.09886706962317
 20
-7.43764161272773
 30
0.0
 10
29.08695773270205
 20
-7.333164010771789
 30
0.0
 10
29.0754058233996
 20
-7.213969054898145
 30
0.0
 10
29.0523417024636
 20
-6.946366857626315
 30
0.0
 10
29.04051246186109
 20
-6.796617736475686
 30
0.0
 10
29.00444484602559
 20
-6.301938181363543
 30
0.0
 10
28.97962288165272
 20
-5.91101903863996
 30
0.0
 10
28.95497437828715
 20
-5.472726635250088
 30
0.0
  0
SPLINE
  5
25C
330
1F
100
AcDbEntity
  8
외형선
  6
Continuous
 62
     1
370
    15
100
AcDbSpline
210
0.0
220
0.0
230
1.0
 70
     8
 71
     3
 72
    12
 73
     8
 74
     0
 42
0.000000001
 43
0.00000001
 40
0.0
 40
0.0
 40
0.0
 40
0.0
 40
0.2499999999999999
 40
0.2499999999999999
 40
0.4999999999999998
 40
0.4999999999999998
 40
1.0
 40
1.0
 40
1.0
 40
1.0
 10
30.18866001258035
 20
-7.566743478451165
 30
0.0
 10
30.17656438086484
 20
-7.475860975990908
 30
0.0
 10
30.16464360346809
 20
-7.369059498595726
 30
0.0
 10
30.14136505731953
 20
-7.126833369131492
 30
0.0
 10
30.12996583772915
 20
-6.991487354907883
 30
0.0
 10
30.09443138904973
 20
-6.536661937337554
 30
0.0
 10
30.0697691881177
 20
-6.17041388060994
 30
0.0
 10
30.04506462524114
 20
-5.752904076822233
 30
0.0
  0
SPLINE
  5
25D
330
1F
100
AcDbEntity
  8
외형선
  6
Continuous
 62
     1
370
    15
100
AcDbSpline
210
0.0
220
0.0
230
1.0
 70
     8
 71
     3
 72
    10
 73
     6
 74
     0
 42
0.000000001
 43
0.00000001
 40
0.0
 40
0.0
 40
0.0
 40
0.0
 40
0.5000000000000002
 40
0.5000000000000002
 40
1.0
 40
1.0
 40
1.0
 40
1.0
 10
20.31717551825495
 20
5.422625304877512
 30
0.0
 10
20.29413387788338
 20
5.84980223775346
 30
0.0
 10
20.2702100573937
 20
6.236780736578125
 30
0.0
 10
20.22111404595447
 20
6.901360137908275
 30
0.0
 10
20.19615514425069
 20
7.177469655399393
 30
0.0
 10
20.171752290575
 20
7.387055761017824
 30
0.0
  0
SPLINE
  5
25E
330
1F
100
AcDbEntity
  8
외형선
  6
Continuous
 62
     1
370
    15
100
AcDbSpline
210
0.0
220
0.0
230
1.0
 70
     8
 71
     3
 72
    10
 73
     6
 74
     0
 42
0.000000001
 43
0.00000001
 40
0.0
 40
0.0
 40
0.0
 40
0.0
 40
0.5
 40
0.5
 40
1.0
 40
1.0
 40
1.0
 40
1.0
 10
19.69092219143824
 20
5.584983459525865
 30
0.0
 10
19.66780365078993
 20
6.000479163391344
 30
0.0
 10
19.64349650254188
 20
6.375713235829726
 30
0.0
 10
19.59427861783783
 20
7.01087861025387
 30
0.0
 10
19.56938401109328
 20
7.270554156773704
 30
0.0
 10
19.54516298071469
 20
7.463261844425923
 30
0.0
  0
SPLINE
  5
25F
330
1F
100
AcDbEntity
  8
외형선
  6
Continuous
 62
     1
370
    15
100
AcDbSpline
210
0.0
220
0.0
230
1.0
 70
     8
 71
     3
 72
    10
 73
     6
 74
     0
 42
0.000000001
 43
0.00000001
 40
0.0
 40
0.0
 40
0.0
 40
0.0
 40
0.5
 40
0.5
 40
1.0
 40
1.0
 40
1.0
 40
1.0
 10
18.44449324351835
 20
5.938818168909111
 30
0.0
 10
18.42095602499488
 20
6.332854055884295
 30
0.0
 10
18.39645450005431
 20
6.681708202552047
 30
0.0
 10
18.34734772222449
 20
7.258073014405483
 30
0.0
 10
18.32275852644148
 20
7.485388178676255
 30
0.0
 10
18.29905670159782
 20
7.645389773931337
 30
0.0
  0
SPLINE
  5
260
330
1F
100
AcDbEntity
  8
외형선
  6
Continuous
 62
     1
370
    15
100
AcDbSpline
210
0.0
220
0.0
230
1.0
 70
     8
 71
     3
 72
    10
 73
     6
 74
     0
 42
0.000000001
 43
0.00000001
 40
0.0
 40
0.0
 40
0.0
 40
0.0
 40
0.4999999999999998
 40
0.4999999999999998
 40
1.0
 40
1.0
 40
1.0
 40
1.0
 10
19.53403287725421
 20
5.668562893131523
 30
0.0
 10
19.51094082839391
 20
6.081916924984084
 30
0.0
 10
19.48670047553304
 20
6.454387838856763
 30
0.0
 10
19.4376840066697
 20
7.083472971209522
 30
0.0
 10
19.41292371849321
 20
7.339842219930516
 30
0.0
 10
19.38885537281537
 20
7.529338352541023
 30
0.0
  0
SPLINE
  5
261
330
1F
100
AcDbEntity
  8
외형선
  6
Continuous
 62
     1
370
    15
100
AcDbSpline
210
0.0
220
0.0
230
1.0
 70
     8
 71
     3
 72
    12
 73
     8
 74
     0
 42
0.000000001
 43
0.00000001
 40
0.0
 40
0.0
 40
0.0
 40
0.0
 40
0.2499999999999999
 40
0.2499999999999999
 40
0.4999999999999999
 40
0.4999999999999999
 40
1.0
 40
1.0
 40
1.0
 40
1.0
 10
30.34562578590429
 20
-7.5351976123942
 30
0.0
 10
30.33344995722407
 20
-7.446804069880162
 30
0.0
 10
30.32144229652541
 20
-7.34235607987982
 30
0.0
 10
30.29798155564551
 20
-7.104516806716409
 30
0.0
 10
30.28656873493034
 20
-6.97150884473097
 30
0.0
 10
30.25096325644522
 20
-6.523536225469948
 30
0.0
 10
30.22621742117262
 20
-6.161482397075411
 30
0.0
 10
30.20140180206614
 20
-5.747592166814565
 30
0.0
  0
SPLINE
  5
262
330
1F
100
AcDbEntity
  8
외형선
  6
Continuous
 62
     1
370
    15
100
AcDbSpline
210
0.0
220
0.0
230
1.0
 70
     8
 71
     3
 72
    12
 73
     8
 74
     0
 42
0.000000001
 43
0.00000001
 40
0.0
 40
0.0
 40
0.0
 40
0.0
 40
0.2500000000000001
 40
0.2500000000000001
 40
0.5000000000000001
 40
0.5000000000000001
 40
1.0
 40
1.0
 40
1.0
 40
1.0
 10
30.97221665171736
 20
-7.598808629879652
 30
0.0
 10
30.95996010643162
 20
-7.518517812895075
 30
0.0
 10
30.94784231503189
 20
-7.421848556816559
 30
0.0
 10
30.92410939306863
 20
-7.198651765116681
 30
0.0
 10
30.91269825497525
 20
-7.073023882032047
 30
0.0
 10
30.87747503298457
 20
-6.648586169515661
 30
0.0
 10
30.85287691822929
 20
-6.301430810082049
 30
0.0
 10
30.82808344437462
 20
-5.900418628112231
 30
0.0
  0
SPLINE
  5
263
330
1F
100
AcDbEntity
  8
외형선
  6
Continuous
 62
     1
370
    15
100
AcDbSpline
210
0.0
220
0.0
230
1.0
 70
     8
 71
     3
 72
    12
 73
     8
 74
     0
 42
0.000000001
 43
0.00000001
 40
0.0
 40
0.0
 40
0.0
 40
0.0
 40
0.2500000000000001
 40
0.2500000000000001
 40
0.5000000000000002
 40
0.5000000000000002
 40
1.0
 40
1.0
 40
1.0
 40
1.0
 10
31.12854215707866
 20
-7.663125773171989
 30
0.0
 10
31.11632529707753
 20
-7.584414818868312
 30
0.0
 10
31.10423961056277
 20
-7.48929833199806
 30
0.0
 10
31.0805541328082
 20
-7.269071986835579
 30
0.0
 10
31.069160527548
 20
-7.144842443167568
 30
0.0
 10
31.03419696490127
 20
-6.725396728412705
 30
0.0
 10
31.00975618977952
 20
-6.381551648171876
 30
0.0
 10
30.98508646892981
 20
-5.983429646402212
 30
0.0
  0
SPLINE
  5
264
330
1F
100
AcDbEntity
  8
외형선
  6
Continuous
 62
     1
370
    15
100
AcDbSpline
210
0.0
220
0.0
230
1.0
 70
     8
 71
     3
 72
    10
 73
     6
 74
     0
 42
0.000000001
 43
0.00000001
 40
0.0
 40
0.0
 40
0.0
 40
0.0
 40
0.4999999999999998
 40
0.4999999999999998
 40
1.0
 40
1.0
 40
1.0
 40
1.0
 10
32.21857139705555
 20
-7.756935077940375
 30
0.0
 10
32.19395332363712
 20
-7.6285193232265
 30
0.0
 10
32.16966317053343
 20
-7.432182371521512
 30
0.0
 10
32.12350746991884
 20
-6.926617655705012
 30
0.0
 10
32.09968530153447
 20
-6.610774728132477
 30
0.0
 10
32.0751543892684
 20
-6.236668029749543
 30
0.0
  0
SPLINE
  5
265
330
1F
100
AcDbEntity
  8
외형선
  6
Continuous
 62
     1
370
    15
100
AcDbSpline
210
0.0
220
0.0
230
1.0
 70
     8
 71
     3
 72
    10
 73
     6
 74
     0
 42
0.000000001
 43
0.00000001
 40
0.0
 40
0.0
 40
0.0
 40
0.0
 40
0.5
 40
0.5
 40
1.0
 40
1.0
 40
1.0
 40
1.0
 10
18.28821322324165
 20
5.930963852956798
 30
0.0
 10
18.2645174909786
 20
6.321676390152945
 30
0.0
 10
18.23987201454384
 20
6.666575265017401
 30
0.0
 10
18.19053888467187
 20
7.233995197333352
 30
0.0
 10
18.1658676602327
 20
7.456325211248103
 30
0.0
 10
18.14212361217683
 20
7.611136835912225
 30
0.0
  0
SPLINE
  5
266
330
1F
100
AcDbEntity
  8
외형선
  6
Continuous
 62
     1
370
    15
100
AcDbSpline
210
0.0
220
0.0
230
1.0
 70
     8
 71
     3
 72
    10
 73
     6
 74
     0
 42
0.000000001
 43
0.00000001
 40
0.0
 40
0.0
 40
0.0
 40
0.0
 40
0.5
 40
0.5
 40
1.0
 40
1.0
 40
1.0
 40
1.0
 10
17.66176537842894
 20
6.077570452638863
 30
0.0
 10
17.63784131520513
 20
6.456564831787231
 30
0.0
 10
17.61307857628629
 20
6.787353004326945
 30
0.0
 10
17.56376198059749
 20
7.323733498567551
 30
0.0
 10
17.53922450966298
 20
7.529165812749008
 30
0.0
 10
17.51572316596706
 20
7.667023149058472
 30
0.0
  0
SPLINE
  5
267
330
1F
100
AcDbEntity
  8
외형선
  6
Continuous
 62
     1
370
    15
100
AcDbSpline
210
0.0
220
0.0
230
1.0
 70
     8
 71
     3
 72
    10
 73
     6
 74
     0
 42
0.000000001
 43
0.00000001
 40
0.0
 40
0.0
 40
0.0
 40
0.0
 40
0.5000000000000001
 40
0.5000000000000001
 40
1.0
 40
1.0
 40
1.0
 40
1.0
 10
17.50481826305811
 20
6.159950707719168
 30
0.0
 10
17.48094161413838
 20
6.536340614583673
 30
0.0
 10
17.45626589533286
 20
6.86397426401718
 30
0.0
 10
17.4071837930402
 20
7.393682820488197
 30
0.0
 10
17.38279340337359
 20
7.59560804093682
 30
0.0
 10
17.35945248733416
 20
7.730125835194632
 30
0.0
  0
SPLINE
  5
268
330
1F
100
AcDbEntity
  8
외형선
  6
Continuous
 62
     1
370
    15
100
AcDbSpline
210
0.0
220
0.0
230
1.0
 70
     8
 71
     3
 72
    10
 73
     6
 74
     0
 42
0.000000001
 43
0.00000001
 40
0.0
 40
0.0
 40
0.0
 40
0.0
 40
0.5
 40
0.5
 40
1.0
 40
1.0
 40
1.0
 40
1.0
 10
16.41493019553286
 20
6.402532064319536
 30
0.0
 10
16.39071192668523
 20
6.75730481205304
 30
0.0
 10
16.36589368825585
 20
7.059337862016197
 30
0.0
 10
16.31695911969385
 20
7.53356345721735
 30
0.0
 10
16.29285840752912
 20
7.705662500015054
 30
0.0
 10
16.26998756894036
 20
7.810571677825972
 30
0.0
  0
SPLINE
  5
269
330
1F
100
AcDbEntity
  8
외형선
  6
Continuous
 62
     1
370
    15
100
AcDbSpline
210
0.0
220
0.0
230
1.0
 70
     8
 71
     3
 72
    12
 73
     8
 74
     0
 42
0.000000001
 43
0.00000001
 40
0.0
 40
0.0
 40
0.0
 40
0.0
 40
0.4999999999999998
 40
0.4999999999999998
 40
0.7499999999999999
 40
0.7499999999999999
 40
1.0
 40
1.0
 40
1.0
 40
1.0
 10
32.37556358666674
 20
-7.718270098350919
 30
0.0
 10
32.35081447750938
 20
-7.594959738296176
 30
0.0
 10
32.32636094144326
 20
-7.403328891960682
 30
0.0
 10
32.29147810722028
 20
-7.030283369037447
 30
0.0
 10
32.2799085200065
 20
-6.891118066732595
 30
0.0
 10
32.25598091760221
 20
-6.580572451058596
 30
0.0
 10
32.24378739800591
 20
-6.409755030842184
 30
0.0
 10
32.23147914145432
 20
-6.224651844752803
 30
0.0
  0
SPLINE
  5
26A
330
1F
100
AcDbEntity
  8
외형선
  6
Continuous
 62
     1
370
    15
100
AcDbSpline
210
0.0
220
0.0
230
1.0
 70
     8
 71
     3
 72
    12
 73
     8
 74
     0
 42
0.000000001
 43
0.00000001
 40
0.0
 40
0.0
 40
0.0
 40
0.0
 40
0.5000000000000001
 40
0.5000000000000001
 40
0.7500000000000002
 40
0.7500000000000002
 40
1.0
 40
1.0
 40
1.0
 40
1.0
 10
33.00221748479503
 20
-7.761263694374531
 30
0.0
 10
32.97741799610696
 20
-7.654922877680984
 30
0.0
 10
32.95278931697027
 20
-7.479533147812939
 30
0.0
 10
32.91748915209618
 20
-7.12803222367988
 30
0.0
 10
32.90609570323833
 20
-6.996875527307592
 30
0.0
 10
32.88241479799408
 20
-6.70199373330421
 30
0.0
 10
32.87031785630499
 20
-6.538799664220718
 30
0.0
 10
32.85807634661932
 20
-6.360950138801982
 30
0.0
  0
SPLINE
  5
26B
330
1F
100
AcDbEntity
  8
외형선
  6
Continuous
 62
     1
370
    15
100
AcDbSpline
210
0.0
220
0.0
230
1.0
 70
     8
 71
     3
 72
    10
 73
     6
 74
     0
 42
0.000000001
 43
0.00000001
 40
0.0
 40
0.0
 40
0.0
 40
0.0
 40
0.5
 40
0.5
 40
1.0
 40
1.0
 40
1.0
 40
1.0
 10
16.25860869578765
 20
6.388145068636879
 30
0.0
 10
16.23424098310211
 20
6.739409331424268
 30
0.0
 10
16.20929307167932
 20
7.037320228434009
 30
0.0
 10
16.16016813574185
 20
7.502424292254484
 30
0.0
 10
16.13608607606703
 20
7.669419256224857
 30
0.0
 10
16.11311399561632
 20
7.769361676677272
 30
0.0
  0
SPLINE
  5
26C
330
1F
100
AcDbEntity
  8
외형선
  6
Continuous
 62
     1
370
    15
100
AcDbSpline
210
0.0
220
0.0
230
1.0
 70
     8
 71
     3
 72
    12
 73
     8
 74
     0
 42
0.000000001
 43
0.00000001
 40
0.0
 40
0.0
 40
0.0
 40
0.0
 40
0.4999999999999999
 40
0.4999999999999999
 40
0.7499999999999999
 40
0.7499999999999999
 40
1.0
 40
1.0
 40
1.0
 40
1.0
 10
33.15855147870499
 20
-7.82220555787986
 30
0.0
 10
33.13385666772447
 20
-7.719291392058271
 30
0.0
 10
33.10930440981885
 20
-7.547358098634858
 30
0.0
 10
33.07406467496385
 20
-7.200576189133801
 30
0.0
 10
33.06273109919547
 20
-7.071076014096323
 30
0.0
 10
33.03922670919197
 20
-6.779773770904636
 30
0.0
 10
33.02721338544584
 20
-6.618356590446613
 30
0.0
 10
33.0150484474881
 20
-6.4422189443955
 30
0.0
  0
SPLINE
  5
26E
330
1F
100
AcDbEntity
  8
외형선
  6
Continuous
 62
     1
370
    15
100
AcDbSpline
210
0.0
220
0.0
230
1.0
 70
     8
 71
     3
 72
    12
 73
     8
 74
     0
 42
0.000000001
 43
0.00000001
 40
0.0
 40
0.0
 40
0.0
 40
0.0
 40
0.5000000000000002
 40
0.5000000000000002
 40
0.7500000000000001
 40
0.7500000000000001
 40
1.0
 40
1.0
 40
1.0
 40
1.0
 10
15.6319986883174
 20
6.518322628699194
 30
0.0
 10
15.60747376741896
 20
6.856453203795404
 30
0.0
 10
15.58248823484931
 20
7.139084048695326
 30
0.0
 10
15.54577406509006
 20
7.463500048673973
 30
0.0
 10
15.53366362220575
 20
7.555200893257868
 30
0.0
 10
15.50992297442467
 20
7.704944691254128
 30
0.0
 10
15.49849611567037
 20
7.76279672068392
 30
0.0
 10
15.48684642220022
 20
7.804655046394068
 30
0.0
  0
SPLINE
  5
26F
330
1F
100
AcDbEntity
  8
외형선
  6
Continuous
 62
     1
370
    15
100
AcDbSpline
210
0.0
220
0.0
230
1.0
 70
     8
 71
     3
 72
    12
 73
     8
 74
     0
 42
0.000000001
 43
0.00000001
 40
0.0
 40
0.0
 40
0.0
 40
0.0
 40
0.5
 40
0.5
 40
0.75
 40
0.75
 40
1.0
 40
1.0
 40
1.0
 40
1.0
 10
15.4750133091427
 20
6.598836005751905
 30
0.0
 10
15.45056141027174
 20
6.933846877959468
 30
0.0
 10
15.42568732891559
 20
7.212911427196621
 30
0.0
 10
15.38917898890833
 20
7.531891900980734
 30
0.0
 10
15.37714345577721
 20
7.621766657060775
 30
0.0
 10
15.35356092276186
 20
7.767915429493548
 30
0.0
 10
15.34221882415505
 20
7.824025763466692
 30
0.0
 10
15.33058835201171
 20
7.864217891293603
 30
0.0
  0
SPLINE
  5
270
330
1F
100
AcDbEntity
  8
외형선
  6
Continuous
 62
     1
370
    15
100
AcDbSpline
210
0.0
220
0.0
230
1.0
 70
     8
 71
     3
 72
    12
 73
     8
 74
     0
 42
0.000000001
 43
0.00000001
 40
0.0
 40
0.0
 40
0.0
 40
0.0
 40
0.4999999999999999
 40
0.4999999999999999
 40
0.7499999999999999
 40
0.7499999999999999
 40
1.0
 40
1.0
 40
1.0
 40
1.0
 10
14.38496901964775
 20
6.810792976385782
 30
0.0
 10
14.3603404744063
 20
7.121431158203586
 30
0.0
 10
14.3355016175569
 20
7.372811364131178
 30
0.0
 10
14.29935664160184
 20
7.64849268207412
 30
0.0
 10
14.28749309589439
 20
7.723648989264642
 30
0.0
 10
14.26434545621032
 20
7.84036765746461
 30
0.0
 10
14.25288281841661
 20
7.882423163632923
 30
0.0
 10
14.24101030687056
 20
7.908111121287074
 30
0.0
  0
SPLINE
  5
273
330
1F
100
AcDbEntity
  8
외형선
  6
Continuous
 62
     1
370
    15
100
AcDbSpline
210
0.0
220
0.0
230
1.0
 70
     8
 71
     3
 72
    12
 73
     8
 74
     0
 42
0.000000001
 43
0.00000001
 40
0.0
 40
0.0
 40
0.0
 40
0.0
 40
0.5
 40
0.5
 40
0.75
 40
0.75
 40
1.0
 40
1.0
 40
1.0
 40
1.0
 10
14.2286360849904
 20
6.789809858651576
 30
0.0
 10
14.20388110896057
 20
7.096661457714474
 30
0.0
 10
14.17894063893429
 20
7.34373376661075
 30
0.0
 10
14.14269735317232
 20
7.612530284741086
 30
0.0
 10
14.13080992258303
 20
7.685324116243403
 30
0.0
 10
14.10763326433396
 20
7.797267742168018
 30
0.0
 10
14.09603824484035
 20
7.837050103651882
 30
0.0
 10
14.0840770577805
 20
7.860269451402746
 30
0.0
  0
SPLINE
  5
276
330
1F
100
AcDbEntity
  8
외형선
  6
Continuous
 62
     1
370
    15
100
AcDbSpline
210
0.0
220
0.0
230
1.0
 70
     8
 71
     3
 72
    10
 73
     6
 74
     0
 42
0.000000001
 43
0.00000001
 40
0.0
 40
0.0
 40
0.0
 40
0.0
 40
0.5
 40
0.5
 40
1.0
 40
1.0
 40
1.0
 40
1.0
 10
13.60196780643468
 20
6.902094210146273
 30
0.0
 10
13.57716497517815
 20
7.194198961356632
 30
0.0
 10
13.55230168202887
 20
7.424866362645251
 30
0.0
 10
13.50436195891322
 20
7.749723002815899
 30
0.0
 10
13.48174621784641
 20
7.845208052963769
 30
0.0
 10
13.45759605067686
 20
7.874642719599581
 30
0.0
  0
SPLINE
  5
278
330
1F
100
AcDbEntity
  8
외형선
  6
Continuous
 62
     1
370
    15
100
AcDbSpline
210
0.0
220
0.0
230
1.0
 70
     8
 71
     3
 72
    12
 73
     8
 74
     0
 42
0.000000001
 43
0.00000001
 40
0.0
 40
0.0
 40
0.0
 40
0.0
 40
0.5
 40
0.5
 40
0.75
 40
0.75
 40
1.0
 40
1.0
 40
1.0
 40
1.0
 10
13.44496616259439
 20
6.980053041423791
 30
0.0
 10
13.42026743244171
 20
7.268506382728834
 30
0.0
 10
13.39554421791279
 20
7.495227085263484
 30
0.0
 10
13.35982943056536
 20
7.733098081945223
 30
0.0
 10
13.34830617768679
 20
7.795333013085512
 30
0.0
 10
13.3251886760565
 20
7.887320201824395
 30
0.0
 10
13.3133352529058
 20
7.917252613911173
 30
0.0
 10
13.30129174222633
 20
7.930164512189752
 30
0.0
  0
SPLINE
  5
27A
330
1F
100
AcDbEntity
  8
외형선
  6
Continuous
 62
     1
370
    15
100
AcDbSpline
210
0.0
220
0.0
230
1.0
 70
     8
 71
     3
 72
     9
 73
     5
 74
     0
 42
0.000000001
 43
0.00000001
 40
0.0
 40
0.0
 40
0.0
 40
0.0
 40
0.1872415199815402
 40
1.0
 40
1.0
 40
1.0
 40
1.0
 10
12.06593044660985
 20
7.878839969635005
 30
0.0
 10
12.06522037083564
 20
7.880497037085461
 30
0.0
 10
12.06142807212823
 20
7.88934693026417
 30
0.0
 10
12.05754450356437
 20
7.885982952311148
 30
0.0
 10
12.05438810028135
 20
7.883248850703233
 30
0.0
  0
LINE
  5
27C
330
1F
100
AcDbEntity
  8
외형선
  6
Continuous
 62
     1
370
    15
100
AcDbLine
 10
11.45768809691071
 20
7.859392091631883
 30
0.0
 11
11.45558633469044
 21
7.863867096602911
 31
0.0
  0
LINE
  5
27D
330
1F
100
AcDbEntity
  8
외형선
  6
Continuous
 62
     1
370
    15
100
AcDbLine
 10
11.29647732339799
 20
7.923432625830167
 30
0.0
 11
11.2873063571751
 21
7.924934849143022
 31
0.0
  0
SPLINE
  5
283
330
1F
100
AcDbEntity
  8
외형선
  6
Continuous
370
    15
100
AcDbSpline
210
0.0
220
0.0
230
1.0
 70
    24
 71
     3
 72
    10
 73
     6
 74
     0
 42
0.000000001
 43
0.00000001
 40
0.0
 40
0.0
 40
0.0
 40
0.0
 40
0.3653627173329868
 40
0.8695999554668512
 40
1.0
 40
1.0
 40
1.0
 40
1.0
 10
10.00000004749744
 20
7.824629545211786
 30
0.0
 10
10.00000004749744
 20
7.817138005133565
 30
0.0
 10
10.00000004749744
 20
7.799307387477907
 30
0.0
 10
10.00000004749744
 20
7.582354443157908
 30
0.0
 10
10.00000004749744
 20
7.388648261458335
 30
0.0
 10
10.00000004749744
 20
7.348847109824413
 30
0.0
  0
LINE
  5
28E
330
1F
100
AcDbEntity
  8
외형선
  6
Continuous
 62
     1
370
    15
100
AcDbLine
 10
10.28919875714927
 20
-7.933286949992186
 30
0.0
 11
10.28702318761497
 21
-7.93110858649016
 31
0.0
  0
LINE
  5
28F
330
1F
100
AcDbEntity
  8
외형선
  6
Continuous
 62
     1
370
    15
100
AcDbLine
 10
10.45168916787951
 20
-7.869924418628222
 30
0.0
 11
10.44996936433016
 21
-7.873351685702807
 31
0.0
  0
LINE
  5
290
330
1F
100
AcDbEntity
  8
외형선
  6
Continuous
 62
     1
370
    15
100
AcDbLine
 10
11.06194561906158
 20
-7.883785292506224
 30
0.0
 11
11.05776095390319
 21
-7.881064899265772
 31
0.0
  0
LINE
  5
292
330
1F
100
AcDbEntity
  8
외형선
  6
Continuous
 62
     1
370
    15
100
AcDbLine
 10
11.22051935270428
 20
-7.924247533082968
 30
0.0
 11
11.21335352398454
 21
-7.924803532660014
 31
0.0
  0
SPLINE
  5
294
330
1F
100
AcDbEntity
  8
외형선
  6
Continuous
 62
     1
370
    15
100
AcDbSpline
210
0.0
220
0.0
230
1.0
 70
     8
 71
     3
 72
    11
 73
     7
 74
     0
 42
0.000000001
 43
0.00000001
 40
0.0
 40
0.0
 40
0.0
 40
0.0
 40
0.2539449609220764
 40
0.5078900027728823
 40
0.761835005231565
 40
1.0
 40
1.0
 40
1.0
 40
1.0
 10
12.35483928211032
 20
7.160401437431568
 30
0.0
 10
12.34288329808866
 20
7.281035129731211
 30
0.0
 10
12.31897132623512
 20
7.522302552774778
 30
0.0
 10
12.28310292289717
 20
7.761013015859334
 30
0.0
 10
12.2479779096881
 20
7.912018809477883
 30
0.0
 10
12.22480887821912
 20
7.927190474515212
 30
0.0
 10
12.21359583176672
 20
7.934533059597009
 30
0.0
  0
SPLINE
  5
296
330
1F
100
AcDbEntity
  8
외형선
  6
Continuous
 62
     1
370
    15
100
AcDbSpline
210
0.0
220
0.0
230
1.0
 70
     8
 71
     3
 72
    10
 73
     6
 74
     0
 42
0.000000001
 43
0.00000001
 40
0.0
 40
0.0
 40
0.0
 40
0.0
 40
0.3383040951369168
 40
0.67653387950407
 40
1.0
 40
1.0
 40
1.0
 40
1.0
 10
12.19850305095314
 20
7.133115548640483
 30
0.0
 10
12.1832145419798
 20
7.277359877771599
 30
0.0
 10
12.15264088225694
 20
7.565816851796822
 30
0.0
 10
12.10948473787577
 20
7.816596881620327
 30
0.0
 10
12.08023097511591
 20
7.858403199144933
 30
0.0
 10
12.06593044660985
 20
7.878839969635004
 30
0.0
  0
SPLINE
  5
299
330
1F
100
AcDbEntity
  8
외형선
  6
Continuous
 62
     1
370
    15
100
AcDbSpline
210
0.0
220
0.0
230
1.0
 70
     8
 71
     3
 72
    10
 73
     6
 74
     0
 42
0.000000001
 43
0.00000001
 40
0.0
 40
0.0
 40
0.0
 40
0.0
 40
0.3129155726579822
 40
0.705107840331462
 40
1.0
 40
1.0
 40
1.0
 40
1.0
 10
11.57184938527643
 20
7.226619403809303
 30
0.0
 10
11.55968958712807
 20
7.335660837344448
 30
0.0
 10
11.53228932405254
 20
7.581369189452093
 30
0.0
 10
11.49511435081264
 20
7.803093717778581
 30
0.0
 10
11.46892737591943
 20
7.84248542677751
 30
0.0
 10
11.45768809691071
 20
7.859392091631883
 30
0.0
  0
SPLINE
  5
29A
330
1F
100
AcDbEntity
  8
외형선
  6
Continuous
 62
     1
370
    15
100
AcDbSpline
210
0.0
220
0.0
230
1.0
 70
     8
 71
     3
 72
    11
 73
     7
 74
     0
 42
0.000000001
 43
0.00000001
 40
0.0
 40
0.0
 40
0.0
 40
0.0
 40
0.3028562620176452
 40
0.6057125148143209
 40
0.9085687206020299
 40
1.0
 40
1.0
 40
1.0
 40
1.0
 10
11.41485959850251
 20
7.301287259906524
 30
0.0
 10
11.40290860655683
 20
7.410248032774789
 30
0.0
 10
11.37900662302935
 20
7.628169575193825
 30
0.0
 10
11.34315415085123
 20
7.825131169779605
 30
0.0
 10
11.31564411901842
 20
7.925911704043378
 30
0.0
 10
11.30008526439865
 20
7.923899285365043
 30
0.0
 10
11.29647732339799
 20
7.923432625830167
 30
0.0
  0
SPLINE
  5
29B
330
1F
100
AcDbEntity
  8
외형선
  6
Continuous
 62
     1
370
    15
100
AcDbSpline
210
0.0
220
0.0
230
1.0
 70
     8
 71
     3
 72
    11
 73
     7
 74
     0
 42
0.000000001
 43
0.00000001
 40
0.0
 40
0.0
 40
0.0
 40
0.0
 40
0.3208376948303712
 40
0.6416753592745925
 40
0.962513071857774
 40
1.0
 40
1.0
 40
1.0
 40
1.0
 10
10.32486841175704
 20
7.447596173733467
 30
0.0
 10
10.31291186300144
 20
7.5426132444142
 30
0.0
 10
10.28899876662262
 20
7.732647376776712
 30
0.0
 10
10.25312906164344
 20
7.883312051781238
 30
0.0
 10
10.22781906295861
 20
7.950277234855101
 30
0.0
 10
10.21446539861794
 20
7.933953477486553
 30
0.0
 10
10.21306837536394
 20
7.932245731353754
 30
0.0
  0
SPLINE
  5
29E
330
1F
100
AcDbEntity
  8
외형선
  6
Continuous
 62
     1
370
    15
100
AcDbSpline
210
0.0
220
0.0
230
1.0
 70
     8
 71
     3
 72
    11
 73
     7
 74
     0
 42
0.000000001
 43
0.00000001
 40
0.0
 40
0.0
 40
0.0
 40
0.0
 40
0.1649848424799667
 40
0.5572616409448833
 40
0.9519580373259992
 40
0.9999999999999999
 40
0.9999999999999999
 40
0.9999999999999999
 40
0.9999999999999999
 10
10.16855115629732
 20
7.414198946207756
 30
0.0
 10
10.16220206512452
 20
7.464885785766344
 30
0.0
 10
10.14075703470668
 20
7.636088369968344
 30
0.0
 10
10.10543621824906
 20
7.818217802934595
 30
0.0
 10
10.07379965173674
 20
7.904174546492182
 30
0.0
 10
10.05662057754652
 20
7.879620307966944
 30
0.0
 10
10.05475645978003
 20
7.876955904066556
 30
0.0
  0
LINE
  5
2A7
330
1F
100
AcDbEntity
  8
외형선
  6
Continuous
 62
     1
370
    15
100
AcDbLine
 10
10.28702318761497
 20
-7.93110858649016
 30
0.0
 11
10.25643517822026
 21
-7.900479249656207
 31
0.0
  0
SPLINE
  5
2A8
330
1F
100
AcDbEntity
  8
외형선
  6
Continuous
 62
     1
370
    15
100
AcDbSpline
210
0.0
220
0.0
230
1.0
 70
     8
 71
     3
 72
     9
 73
     5
 74
     0
 42
0.000000001
 43
0.00000001
 40
0.0
 40
0.0
 40
0.0
 40
0.0
 40
0.1441982515670159
 40
1.0
 40
1.0
 40
1.0
 40
1.0
 10
10.44996936433016
 20
-7.873351685702807
 30
0.0
 10
10.44821323740853
 20
-7.87723893628402
 30
0.0
 10
10.4360346783584
 20
-7.904196618079544
 30
0.0
 10
10.42349805859731
 20
-7.876030889574383
 30
0.0
 10
10.41276919748633
 20
-7.851926609873778
 30
0.0
  0
LINE
  5
2A9
330
1F
100
AcDbEntity
  8
외형선
  6
Continuous
 62
     1
370
    15
100
AcDbLine
 10
11.05776095390319
 20
-7.881064899265772
 30
0.0
 11
11.03941785730421
 21
-7.869136519730097
 31
0.0
  0
LINE
  5
2AB
330
1F
100
AcDbEntity
  8
외형선
  6
Continuous
 62
     1
370
    15
100
AcDbLine
 10
11.21335352398454
 20
-7.924803532660014
 30
0.0
 11
11.19640741124748
 21
-7.926119491457945
 31
0.0
  0
SPLINE
  5
2AD
330
1F
100
AcDbEntity
  8
외형선
  6
Continuous
 62
     1
370
    15
100
AcDbSpline
210
0.0
220
0.0
230
1.0
 70
     8
 71
     3
 72
     9
 73
     5
 74
     0
 42
0.000000001
 43
0.00000001
 40
0.0
 40
0.0
 40
0.0
 40
0.0
 40
0.3324078028053156
 40
1.0
 40
1.0
 40
1.0
 40
1.0
 10
12.45079950056969
 20
-7.876650430262097
 30
0.0
 10
12.44991601312718
 20
-7.878949298172114
 30
0.0
 10
12.44725817105773
 20
-7.885865104271182
 30
0.0
 10
12.44453848173958
 20
-7.884831250464265
 30
0.0
 10
12.44272283837198
 20
-7.884141057729727
 30
0.0
  0
LINE
  5
2AE
330
1F
100
AcDbEntity
  8
중심선
100
AcDbLine
 10
-50.15000000000002
 20
-0.0000000000000061
 30
0.0
 11
44.75000000000001
 21
0.0000000000000055
 31
0.0
  0
LINE
  5
2AF
330
1F
100
AcDbEntity
  8
참조1
100
AcDbLine
 10
-2.700000000000005
 20
-0.3168705809327407
 30
0.0
 11
-2.699999999999996
 21
-40.31687058093274
 31
0.0
  0
LINE
  5
2B0
330
1F
100
AcDbEntity
  8
참조1
100
AcDbLine
 10
-19.72860765519648
 20
-7.937500000000001
 30
0.0
 11
48.413972688396
 21
-7.937500000000001
 31
0.0
  0
LINE
  5
2B1
330
1F
100
AcDbEntity
  8
참조1
100
AcDbLine
 10
48.413972688396
 20
-7.937500000000001
 30
0.0
 11
48.41397268839599
 21
-6.92724860617685
 31
0.0
  0
LINE
  5
2B2
330
1F
100
AcDbEntity
  8
참조1
100
AcDbLine
 10
-2.699999999999996
 20
-40.31687058093274
 30
0.0
 11
-24.1960498072657
 21
-40.31687058093274
 31
0.0
  0
CIRCLE
  5
2B3
330
1F
100
AcDbEntity
  8
해칭선
100
AcDbCircle
 10
0.0
 20
0.0
 30
0.0
 40
3.000000000000005
  0
INSERT
  5
2B4
330
1F
100
AcDbEntity
  8
0
  6
Continuous
 62
     7
100
AcDbBlockReference
 66
     1
  2
블럭10
 10
-16.64027293212521
 20
-52.36404488257666
 30
0.0
  0
ATTRIB
  5
2B5
330
2B4
100
AcDbEntity
  8
FORMAT
 62
     2
100
AcDbText
 10
-26.78190894426184
 20
-50.28867796974447
 30
0.0
 40
4.233333333333333
  1
EM662040 [ 4 FLUTE ]
 41
0.75
  7
SLDTEXTSTYLE0
 11
-26.78190894426184
 21
-52.40534463641114
 31
0.0
100
AcDbAttribute
  2
AUTOATTR0
 70
     0
 74
     1
  0
SEQEND
  5
2B6
330
2B4
100
AcDbEntity
  8
0
  6
Continuous
 62
     7
  0
HATCH
  5
2B7
330
1F
100
AcDbEntity
  8
중심선
100
AcDbHatch
 10
0.0
 20
0.0
 30
0.0
210
0.0
220
0.0
230
1.0
  2
SOLID
 70
     1
 71
     0
 91
        1
 92
        0
 93
        4
 72
     1
 10
-10.92536362774436
 20
-36.11687058093273
 11
-14.37163887158164
 21
-36.11687058093273
 72
     1
 10
-14.37163887158164
 20
-36.11687058093273
 11
-16.49986873078566
 21
-38.65319616150533
 72
     1
 10
-16.49986873078566
 20
-38.65319616150533
 11
-13.0535604018352
 21
-38.65315673220284
 72
     1
 10
-13.0535604018352
 20
-38.65315673220284
 11
-10.92536362774436
 21
-36.11687058093273
 97
        0
 75
     0
 76
     1
 98
        1
 10
-0.0000000000000071
 20
-0.3168705809327372
  0
HATCH
  5
2B8
330
1F
100
AcDbEntity
  8
중심선
100
AcDbHatch
 10
0.0
 20
0.0
 30
0.0
210
0.0
220
0.0
230
1.0
  2
SOLID
 70
     1
 71
     0
 91
        1
 92
        0
 93
        4
 72
     1
 10
-5.912599636708406
 20
-36.11687058093276
 11
-9.35887488054566
 21
-36.11687058093276
 72
     1
 10
-9.35887488054566
 20
-36.11687058093276
 11
-13.89001288890308
 21
-41.51687058093275
 72
     1
 10
-13.89001288890308
 20
-41.51687058093275
 11
-10.4437376450658
 21
-41.51687058093275
 72
     1
 10
-10.4437376450658
 20
-41.51687058093275
 11
-5.912599636708406
 21
-36.11687058093276
 97
        0
 75
     0
 76
     1
 98
        1
 10
-0.0000000000000071
 20
-0.3168705809327372
  0
HATCH
  5
2B9
330
1F
100
AcDbEntity
  8
중심선
100
AcDbHatch
 10
0.0
 20
0.0
 30
0.0
210
0.0
220
0.0
230
1.0
  2
SOLID
 70
     1
 71
     0
 91
        1
 92
        0
 93
        4
 72
     1
 10
-0.8998356456725103
 20
-36.11687058093273
 11
-4.346110889509654
 21
-36.11687058093273
 72
     1
 10
-4.346110889509654
 20
-36.11687058093273
 11
-11.39454779139887
 21
-44.51687058093275
 72
     1
 10
-11.39454779139887
 20
-44.51687058093275
 11
-7.948272547561593
 21
-44.51687058093275
 72
     1
 10
-7.948272547561593
 20
-44.51687058093275
 11
-0.8998356456725105
 21
-36.11687058093273
 97
        0
 75
     0
 76
     1
 98
        1
 10
-0.0000000000000071
 20
-0.3168705809327372
  0
HATCH
  5
2BA
330
1F
100
AcDbEntity
  8
중심선
100
AcDbHatch
 10
0.0
 20
0.0
 30
0.0
210
0.0
220
0.0
230
1.0
  2
SOLID
 70
     1
 71
     0
 91
        1
 92
        0
 93
        6
 72
     3
 10
3.900054785339689
 20
-40.31687058098401
 11
3.960054785062283
 21
1.540882976769353E-10
 40
0.3939339440162628
 50
17.09539180608436
 51
320.0019657685075
 73
     0
 72
     1
 10
5.583054441040284
 20
-38.90476458557101
 11
7.88835631474135
 21
-36.97043787552309
 72
     3
 10
3.900054785286843
 20
-40.31687058093289
 11
6.600054785286829
 21
-1.278976924368180E-13
 40
0.636358354079598
 50
39.99873849337413
 51
368.4976242363724
 73
     1
 72
     1
 10
10.32538727718745
 20
-39.35687058086275
 11
2.580122092122766
 21
-39.35687058086275
 72
     1
 10
2.580122092122765
 20
-39.35687058086275
 11
2.580097047676831
 21
-41.27687058086265
 72
     1
 10
2.580097047676831
 20
-41.27687058086265
 11
7.021476817148868
 21
-41.27687058086262
 97
        0
 75
     0
 76
     1
 98
        1
 10
-0.0000000000000071
 20
-0.3168705809327372
  0
POINT
  5
2BB
330
1F
100
AcDbEntity
  8
치수문자_일반주서
100
AcDbPoint
 10
0.0000000000000033
 20
-0.3168705809327407
 30
0.0
  0
DIMENSION
  5
2BC
330
1F
100
AcDbEntity
  8
치수문자_일반주서
100
AcDbDimension
  2
_D
 10
59.53219704325722
 20
-7.937499999999901
 30
0.0
 11
59.53219704325719
 21
-0.3388476992764291
 31
0.0
 70
   160
  1
%%c<>
 71
     2
 42
15.87500000000008
 52
-270.0
  3
SLDDIMSTYLE0
100
AcDbAlignedDimension
 13
41.75
 23
7.937500000000112
 33
0.0
 14
41.75
 24
-7.937499999999968
 34
0.0
 50
90.0000000000002
100
AcDbRotatedDimension
1001
ACAD
1000
DSTYLE
1002
{
1070
   273
1070
     7
1002
}
  0
DIMENSION
  5
2CF
330
1F
100
AcDbEntity
  8
치수문자_일반주서
100
AcDbDimension
  2
_D_1
 10
-56.96000000000002
 20
-7.937500000000062
 30
0.0
 11
-56.96000000000004
 21
-1.271680434525793
 31
0.0
 70
   160
  1
%%c<>
 71
     2
 42
15.875
 52
-270.0
  3
SLDDIMSTYLE1
100
AcDbAlignedDimension
 13
-46.15000000000002
 23
7.93749999999998
 33
0.0
 14
-46.15000000000002
 24
-7.93750000000002
 34
0.0
 50
90.0000000000002
100
AcDbRotatedDimension
1001
ACAD
1000
DSTYLE
1002
{
1070
   273
1070
     7
1002
}
  0
DIMENSION
  5
2E4
330
1F
100
AcDbEntity
  8
치수문자_일반주서
100
AcDbDimension
  2
_D_2
 10
9.999999999999988
 20
24.61863885989552
 30
0.0
 11
25.87499999999999
 21
24.61863885989552
 31
0.0
 70
   160
  1
<>
 71
     2
 42
31.75
  3
SLDDIMSTYLE0
100
AcDbAlignedDimension
 13
41.74999999999999
 23
7.290923697267367
 33
0.0
 14
9.999999999999988
 24
7.937499999999994
 34
0.0
 50
0.0000000000000256
100
AcDbRotatedDimension
1001
ACAD
1000
DSTYLE
1002
{
1070
   273
1070
     7
1002
}
  0
DIMENSION
  5
2F8
330
1F
100
AcDbEntity
  8
치수문자_일반주서
100
AcDbDimension
  2
_D_3
 10
-47.15000000000003
 20
41.28830386089135
 30
0.0
 11
1.186801415976499
 21
41.28830386089135
 31
0.0
 70
   160
  1
<>
 71
     2
 42
88.90000000000002
  3
SLDDIMSTYLE2
100
AcDbAlignedDimension
 13
41.74999999999999
 23
7.290923697267367
 33
0.0
 14
-47.15000000000003
 24
6.937499999999986
 34
0.0
100
AcDbRotatedDimension
1001
ACAD
1000
DSTYLE
1002
{
1070
   273
1070
     7
1002
}
  0
LINE
  5
30C
330
1F
100
AcDbEntity
  8
참조1
100
AcDbLine
 10
73.77629082238857
 20
7.123129419067265
 30
0.0
 11
73.77629082238857
 21
-7.756870580932739
 31
0.0
  0
LINE
  5
30D
330
1F
100
AcDbEntity
  8
참조1
100
AcDbLine
 10
86.47629082238856
 20
5.123129419067265
 30
0.0
 11
73.77629082238857
 21
5.123129419067265
 31
0.0
  0
SOLID
  5
30E
330
1F
100
AcDbEntity
  8
참조1
100
AcDbTrace
 10
73.77629082238857
 20
5.123129419067265
 30
0.0
 11
80.12629082238857
 21
4.107129419067265
 31
0.0
 12
80.12629082238857
 22
6.139129419067265
 32
0.0
 13
80.12629082238857
 23
6.139129419067265
 33
0.0
  0
LINE
  5
30F
330
1F
100
AcDbEntity
  8
참조1
100
AcDbLine
 10
86.47629082238856
 20
-5.756870580932739
 30
0.0
 11
73.77629082238857
 21
-5.756870580932739
 31
0.0
  0
SOLID
  5
310
330
1F
100
AcDbEntity
  8
참조1
100
AcDbTrace
 10
73.77629082238857
 20
-5.756870580932739
 30
0.0
 11
80.12629082238857
 21
-6.772870580932739
 31
0.0
 12
80.12629082238857
 22
-4.740870580932739
 32
0.0
 13
80.12629082238857
 23
-4.740870580932739
 33
0.0
  0
MTEXT
  5
311
330
1F
100
AcDbEntity
  8
참조1
100
AcDbMText
 10
83.37640563295113
 20
10.74884698508334
 30
0.0
 40
3.5
 41
0.0
 71
     1
 72
     1
  1
A
  7
SLDTEXTSTYLE0
 73
     1
 44
1.0
  0
MTEXT
  5
312
330
1F
100
AcDbEntity
  8
참조1
100
AcDbMText
 10
83.37640563295113
 20
-0.1311530149166636
 30
0.0
 40
3.5
 41
0.0
 71
     1
 72
     1
  1
A
  7
SLDTEXTSTYLE0
 73
     1
 44
1.0
  0
INSERT
  5
319
330
1F
100
AcDbEntity
  8
해칭선
100
AcDbBlockReference
  2
SW_DOWELSYMBOL_0
 10
0.0
 20
0.0
 30
0.0
  0
ARC
  5
364
330
1F
100
AcDbEntity
  8
외형선
  6
Continuous
 62
     1
370
    15
100
AcDbCircle
 10
33.8125
 20
0.0000000000000042
 30
0.0
 40
7.9375
100
AcDbArc
 50
270.0
 51
90.0
  0
SPLINE
  5
365
330
1F
100
AcDbEntity
  8
외형선
  6
Continuous
 62
     1
370
    15
100
AcDbSpline
210
0.0
220
0.0
230
1.0
 70
     8
 71
     3
 72
     9
 73
     5
 74
     3
 42
0.000000001
 43
0.0000000001
 44
0.0
 40
0.0
 40
0.0
 40
0.0
 40
0.0
 40
0.8199671540429735
 40
1.680942649518502
 40
1.680942649518502
 40
1.680942649518502
 40
1.680942649518502
 10
33.8125
 20
7.937500000000004
 30
0.0
 10
33.53914469628541
 20
7.925088023166362
 30
0.0
 10
32.97876299535956
 20
7.899643319532035
 30
0.0
 10
32.42643183446965
 20
7.801414100530678
 30
0.0
 10
32.14352890791831
 20
7.751101289130426
 30
0.0
 11
33.8125
 21
7.937500000000004
 31
0.0
 11
32.9943497210766
 21
7.882944937843603
 31
0.0
 11
32.14352890791831
 21
7.751101289130426
 31
0.0
  0
SPLINE
  5
366
330
1F
100
AcDbEntity
  8
외형선
  6
Continuous
 62
     1
370
    15
100
AcDbSpline
210
0.0
220
0.0
230
1.0
 70
     8
 71
     3
 72
     9
 73
     5
 74
     0
 42
0.000000001
 43
0.0000000001
 40
0.6252105041934215
 40
0.6252105041934215
 40
0.6252105041934215
 40
0.6252105041934215
 40
1.599916332335649
 40
6.812111640808068
 40
6.812111640808068
 40
6.812111640808068
 40
6.812111640808068
 10
36.84232584941628
 20
3.44103826058213
 30
0.0
 10
37.08748061900257
 20
3.683200139435423
 30
0.0
 10
38.40867321961679
 20
5.216806252845526
 30
0.0
 10
35.91408345511132
 20
6.693472698974759
 30
0.0
 10
33.8125
 20
7.937500000000114
 30
0.0
  0
SPLINE
  5
367
330
1F
100
AcDbEntity
  8
외형선
  6
Continuous
 62
     1
370
    15
100
AcDbSpline
210
0.0
220
0.0
230
1.0
 70
     8
 71
     3
 72
     9
 73
     5
 74
     3
 42
0.000000001
 43
0.0000000001
 44
0.0
 40
0.0
 40
0.0
 40
0.0
 40
0.0
 40
2.084404795114105
 40
6.86320091158392
 40
6.86320091158392
 40
6.86320091158392
 40
6.86320091158392
 10
35.04462358026639
 20
-6.845448826609824
 30
0.0
 10
35.74582154855729
 20
-6.755273351443773
 30
0.0
 10
38.05461614855793
 20
-6.458357702039748
 30
0.0
 10
39.73443911584901
 20
-4.75299916596375
 30
0.0
 10
40.90408744406542
 20
-3.565570609758503
 30
0.0
 11
35.04462358026639
 21
-6.845448826609824
 31
0.0
 11
37.09020228952899
 21
-6.445010199469246
 31
0.0
 11
40.90408744406542
 21
-3.565570609758503
 31
0.0
  0
SPLINE
  5
368
330
1F
100
AcDbEntity
  8
외형선
  6
Continuous
 62
     1
370
    15
100
AcDbSpline
210
0.0
220
0.0
230
1.0
 70
     8
 71
     3
 72
     9
 73
     5
 74
     3
 42
0.000000001
 43
0.0000000001
 44
0.0
 40
0.0
 40
0.0
 40
0.0
 40
0.0
 40
0.3157308676075783
 40
0.6645198901468503
 40
0.6645198901468503
 40
0.6645198901468503
 40
0.6645198901468503
 10
33.15855147870499
 20
-7.82220555787986
 30
0.0
 10
33.26104291566907
 20
-7.846512028618147
 30
0.0
 10
33.47675701086804
 20
-7.897669944811942
 30
0.0
 10
33.69693458106638
 20
-7.923790176822877
 30
0.0
 10
33.8125
 20
-7.937499999999996
 30
0.0
 11
33.15855147870499
 21
-7.82220555787986
 31
0.0
 11
33.46703339670727
 21
-7.88947283837992
 31
0.0
 11
33.8125
 21
-7.937499999999996
 31
0.0
  0
ENDSEC
  0
SECTION
  2
OBJECTS
  0
DICTIONARY
  5
C
330
0
100
AcDbDictionary
281
     1
  3
ACAD_GROUP
350
D
  3
ACAD_IMAGE_VARS
350
33D
  3
ACAD_LAYOUT
350
1A
  3
ACAD_MLINESTYLE
350
17
  3
ACAD_PLOTSETTINGS
350
19
  3
ACAD_PLOTSTYLENAME
350
E
  3
ACAD_SCALELIST
350
47
  3
APPDATA
350
33B
  3
DWGPROPS
350
36A
  0
DICTIONARY
  5
D
102
{ACAD_REACTORS
330
C
102
}
330
C
100
AcDbDictionary
281
     1
  0
RASTERVARIABLES
  5
33D
102
{ACAD_REACTORS
330
C
102
}
330
C
100
AcDbRasterVariables
 90
        0
 70
     1
 71
     1
 72
     1
  0
DICTIONARY
  5
1A
102
{ACAD_REACTORS
330
C
102
}
330
C
100
AcDbDictionary
281
     1
  3
Layout1
350
1E
  3
Layout2
350
26
  3
Model
350
22
  0
DICTIONARY
  5
17
102
{ACAD_REACTORS
330
C
102
}
330
C
100
AcDbDictionary
281
     1
  3
Standard
350
18
  0
DICTIONARY
  5
19
102
{ACAD_REACTORS
330
C
102
}
330
C
100
AcDbDictionary
281
     1
  0
ACDBDICTIONARYWDFLT
  5
E
102
{ACAD_REACTORS
330
C
102
}
330
C
100
AcDbDictionary
281
     1
  3
Normal
350
F
100
AcDbDictionaryWithDefault
340
F
  0
DICTIONARY
  5
47
102
{ACAD_REACTORS
330
C
102
}
330
C
100
AcDbDictionary
281
     1
  3
A0
350
48
  3
A1
350
49
  3
A2
350
4A
  3
A3
350
4B
  3
A4
350
4C
  3
A5
350
4D
  3
A6
350
4E
  3
A7
350
4F
  3
A8
350
50
  3
A9
350
51
  3
B0
350
52
  3
B1
350
53
  3
B2
350
54
  3
B3
350
55
  3
B4
350
56
  3
B5
350
57
  3
B6
350
58
  3
B7
350
59
  3
B8
350
5A
  3
B9
350
5B
  3
C0
350
5C
  3
C1
350
5D
  3
C2
350
5E
  3
C3
350
5F
  3
C4
350
60
  3
C5
350
61
  3
C6
350
62
  3
C7
350
63
  3
C8
350
64
  3
C9
350
65
  3
D0
350
66
  3
D1
350
67
  3
D2
350
68
  0
DICTIONARY
  5
33B
102
{ACAD_REACTORS
330
C
102
}
330
C
100
AcDbDictionary
281
     1
  0
XRECORD
  5
36A
102
{ACAD_REACTORS
330
C
102
}
330
C
100
AcDbXrecord
280
     1
  1
DWGPROPS COOKIE
  2

  3

  4

  6

  7

  8
12015048
  9

300
=
301
=
302
=
303
=
304
=
305
=
306
=
307
=
308
=
309
=
 40
0.0
 41
2458298.97660088
 42
2458304.002508114
  1

 90
        0
  0
LAYOUT
  5
1E
102
{ACAD_REACTORS
330
1A
102
}
330
1A
100
AcDbPlotSettings
  1

  2
none_device
  4

  6

 40
0.0
 41
0.0
 42
0.0
 43
0.0
 44
0.0
 45
0.0
 46
0.0
 47
0.0
 48
0.0
 49
0.0
140
0.0
141
0.0
142
1.0
143
1.0
 70
   688
 72
     1
 73
     0
 74
     5
  7

 75
    16
147
1.0
148
0.0
149
0.0
100
AcDbLayout
  1
Layout1
 70
     1
 71
     1
 10
0.0
 20
0.0
 11
420.0
 21
297.0
 12
0.0
 22
0.0
 32
0.0
 14
1.000000000000000E+20
 24
1.000000000000000E+20
 34
1.000000000000000E+20
 15
-1.000000000000000E+20
 25
-1.000000000000000E+20
 35
-1.000000000000000E+20
146
0.0
 13
0.0
 23
0.0
 33
0.0
 16
1.0
 26
0.0
 36
0.0
 17
0.0
 27
1.0
 37
0.0
 76
     0
330
1B
  0
LAYOUT
  5
26
102
{ACAD_REACTORS
330
1A
102
}
330
1A
100
AcDbPlotSettings
  1

  2
none_device
  4

  6

 40
0.0
 41
0.0
 42
0.0
 43
0.0
 44
0.0
 45
0.0
 46
0.0
 47
0.0
 48
0.0
 49
0.0
140
0.0
141
0.0
142
1.0
143
1.0
 70
   688
 72
     1
 73
     0
 74
     5
  7

 75
    16
147
1.0
148
0.0
149
0.0
100
AcDbLayout
  1
Layout2
 70
     1
 71
     2
 10
0.0
 20
0.0
 11
0.0
 21
0.0
 12
0.0
 22
0.0
 32
0.0
 14
0.0
 24
0.0
 34
0.0
 15
0.0
 25
0.0
 35
0.0
146
0.0
 13
0.0
 23
0.0
 33
0.0
 16
1.0
 26
0.0
 36
0.0
 17
0.0
 27
1.0
 37
0.0
 76
     0
330
23
  0
LAYOUT
  5
22
102
{ACAD_REACTORS
330
1A
102
}
330
1A
100
AcDbPlotSettings
  1

  2
none_device
  4
ANSI_A_(11.00_x_8.50_Inches)
  6

 40
6.35
 41
19.05
 42
6.35000508
 43
19.05000254
 44
279.4
 45
215.9
 46
113.9935722668488
 47
87.42329545667425
 48
0.0
 49
0.0
140
0.0
141
0.0
142
0.0691178869061864
143
1.0
 70
  1696
 72
     0
 73
     0
 74
     0
  7

 75
     0
147
0.0235690232323232
148
0.0
149
0.0
100
AcDbLayout
  1
Model
 70
     1
 71
     0
 10
0.0
 20
0.0
 11
420.0
 21
297.0
 12
0.0
 22
0.0
 32
0.0
 14
-61.33500000000009
 24
-50.28867796974447
 34
0.0
 15
86.47629082238856
 25
45.66330386089135
 35
0.0
146
0.0
 13
0.0
 23
0.0
 33
0.0
 16
1.0
 26
0.0
 36
0.0
 17
0.0
 27
1.0
 37
0.0
 76
     0
330
1F
331
29
  0
MLINESTYLE
  5
18
102
{ACAD_REACTORS
330
17
102
}
330
17
100
AcDbMlineStyle
  2
Standard
 70
     0
  3

 62
   256
 51
90.0
 52
90.0
 71
     2
 49
0.5
 62
   256
  6
BYLAYER
 49
-0.5
 62
   256
  6
BYLAYER
  0
ACDBPLACEHOLDER
  5
F
102
{ACAD_REACTORS
330
E
102
}
330
E
  0
SCALE
  5
48
102
{ACAD_REACTORS
330
47
102
}
330
47
100
AcDbScale
 70
     0
300
1:1
140
1.0
141
1.0
290
     1
  0
SCALE
  5
49
102
{ACAD_REACTORS
330
47
102
}
330
47
100
AcDbScale
 70
     0
300
1:2
140
1.0
141
2.0
290
     0
  0
SCALE
  5
4A
102
{ACAD_REACTORS
330
47
102
}
330
47
100
AcDbScale
 70
     0
300
1:4
140
1.0
141
4.0
290
     0
  0
SCALE
  5
4B
102
{ACAD_REACTORS
330
47
102
}
330
47
100
AcDbScale
 70
     0
300
1:5
140
1.0
141
5.0
290
     0
  0
SCALE
  5
4C
102
{ACAD_REACTORS
330
47
102
}
330
47
100
AcDbScale
 70
     0
300
1:8
140
1.0
141
8.0
290
     0
  0
SCALE
  5
4D
102
{ACAD_REACTORS
330
47
102
}
330
47
100
AcDbScale
 70
     0
300
1:10
140
1.0
141
10.0
290
     0
  0
SCALE
  5
4E
102
{ACAD_REACTORS
330
47
102
}
330
47
100
AcDbScale
 70
     0
300
1:16
140
1.0
141
16.0
290
     0
  0
SCALE
  5
4F
102
{ACAD_REACTORS
330
47
102
}
330
47
100
AcDbScale
 70
     0
300
1:20
140
1.0
141
20.0
290
     0
  0
SCALE
  5
50
102
{ACAD_REACTORS
330
47
102
}
330
47
100
AcDbScale
 70
     0
300
1:30
140
1.0
141
30.0
290
     0
  0
SCALE
  5
51
102
{ACAD_REACTORS
330
47
102
}
330
47
100
AcDbScale
 70
     0
300
1:40
140
1.0
141
40.0
290
     0
  0
SCALE
  5
52
102
{ACAD_REACTORS
330
47
102
}
330
47
100
AcDbScale
 70
     0
300
1:50
140
1.0
141
50.0
290
     0
  0
SCALE
  5
53
102
{ACAD_REACTORS
330
47
102
}
330
47
100
AcDbScale
 70
     0
300
1:100
140
1.0
141
100.0
290
     0
  0
SCALE
  5
54
102
{ACAD_REACTORS
330
47
102
}
330
47
100
AcDbScale
 70
     0
300
2:1
140
2.0
141
1.0
290
     0
  0
SCALE
  5
55
102
{ACAD_REACTORS
330
47
102
}
330
47
100
AcDbScale
 70
     0
300
4:1
140
4.0
141
1.0
290
     0
  0
SCALE
  5
56
102
{ACAD_REACTORS
330
47
102
}
330
47
100
AcDbScale
 70
     0
300
8:1
140
8.0
141
1.0
290
     0
  0
SCALE
  5
57
102
{ACAD_REACTORS
330
47
102
}
330
47
100
AcDbScale
 70
     0
300
10:1
140
10.0
141
1.0
290
     0
  0
SCALE
  5
58
102
{ACAD_REACTORS
330
47
102
}
330
47
100
AcDbScale
 70
     0
300
100:1
140
100.0
141
1.0
290
     0
  0
SCALE
  5
59
102
{ACAD_REACTORS
330
47
102
}
330
47
100
AcDbScale
 70
     0
300
1/128" = 1'-0"
140
0.0078125
141
12.0
290
     0
  0
SCALE
  5
5A
102
{ACAD_REACTORS
330
47
102
}
330
47
100
AcDbScale
 70
     0
300
1/64" = 1'-0"
140
0.015625
141
12.0
290
     0
  0
SCALE
  5
5B
102
{ACAD_REACTORS
330
47
102
}
330
47
100
AcDbScale
 70
     0
300
1/32" = 1'-0"
140
0.03125
141
12.0
290
     0
  0
SCALE
  5
5C
102
{ACAD_REACTORS
330
47
102
}
330
47
100
AcDbScale
 70
     0
300
1/16" = 1'-0"
140
0.0625
141
12.0
290
     0
  0
SCALE
  5
5D
102
{ACAD_REACTORS
330
47
102
}
330
47
100
AcDbScale
 70
     0
300
3/32" = 1'-0"
140
0.09375
141
12.0
290
     0
  0
SCALE
  5
5E
102
{ACAD_REACTORS
330
47
102
}
330
47
100
AcDbScale
 70
     0
300
1/8" = 1'-0"
140
0.125
141
12.0
290
     0
  0
SCALE
  5
5F
102
{ACAD_REACTORS
330
47
102
}
330
47
100
AcDbScale
 70
     0
300
3/16" = 1'-0"
140
0.1875
141
12.0
290
     0
  0
SCALE
  5
60
102
{ACAD_REACTORS
330
47
102
}
330
47
100
AcDbScale
 70
     0
300
1/4" = 1'-0"
140
0.25
141
12.0
290
     0
  0
SCALE
  5
61
102
{ACAD_REACTORS
330
47
102
}
330
47
100
AcDbScale
 70
     0
300
3/8" = 1'-0"
140
0.375
141
12.0
290
     0
  0
SCALE
  5
62
102
{ACAD_REACTORS
330
47
102
}
330
47
100
AcDbScale
 70
     0
300
1/2" = 1'-0"
140
0.5
141
12.0
290
     0
  0
SCALE
  5
63
102
{ACAD_REACTORS
330
47
102
}
330
47
100
AcDbScale
 70
     0
300
3/4" = 1'-0"
140
0.75
141
12.0
290
     0
  0
SCALE
  5
64
102
{ACAD_REACTORS
330
47
102
}
330
47
100
AcDbScale
 70
     0
300
1" = 1'-0"
140
1.0
141
12.0
290
     0
  0
SCALE
  5
65
102
{ACAD_REACTORS
330
47
102
}
330
47
100
AcDbScale
 70
     0
300
1-1/2" = 1'-0"
140
1.5
141
12.0
290
     0
  0
SCALE
  5
66
102
{ACAD_REACTORS
330
47
102
}
330
47
100
AcDbScale
 70
     0
300
3" = 1'-0"
140
3.0
141
12.0
290
     0
  0
SCALE
  5
67
102
{ACAD_REACTORS
330
47
102
}
330
47
100
AcDbScale
 70
     0
300
6" = 1'-0"
140
6.0
141
12.0
290
     0
  0
SCALE
  5
68
102
{ACAD_REACTORS
330
47
102
}
330
47
100
AcDbScale
 70
     0
300
1'-0" = 1'-0"
140
12.0
141
12.0
290
     0
  0
ENDSEC
  0
EOF
