  0
SECTION
  2
HEADER
  9
$ACADVER
  1
AC1015
  9
$ACADMAINTVER
 70
     6
  9
$DWGCODEPAGE
  3
ANSI_949
  9
$INSBASE
 10
0.0
 20
0.0
 30
0.0
  9
$EXTMIN
 10
-64.51000000000008
 20
-50.28867796974448
 30
0.0
  9
$EXTMAX
 10
86.47629082238856
 20
47.23292746260613
 30
0.0
  9
$LIMMIN
 10
0.0
 20
0.0
  9
$LIMMAX
 10
420.0
 20
297.0
  9
$ORTHOMODE
 70
     0
  9
$REGENMODE
 70
     1
  9
$FILLMODE
 70
     1
  9
$QTEXTMODE
 70
     0
  9
$MIRRTEXT
 70
     1
  9
$LTSCALE
 40
1.0
  9
$ATTMODE
 70
     1
  9
$TEXTSIZE
 40
3.5
  9
$TRACEWID
 40
1.0
  9
$TEXTSTYLE
  7
Standard
  9
$CLAYER
  8
0
  9
$CELTYPE
  6
ByLayer
  9
$CECOLOR
 62
   256
  9
$CELTSCALE
 40
1.0
  9
$DISPSILH
 70
     0
  9
$DIMSCALE
 40
1.0
  9
$DIMASZ
 40
3.302
  9
$DIMEXO
 40
1.0
  9
$DIMDLI
 40
3.75
  9
$DIMRND
 40
0.0
  9
$DIMDLE
 40
0.0
  9
$DIMEXE
 40
1.0
  9
$DIMTP
 40
0.0
  9
$DIMTM
 40
0.0
  9
$DIMTXT
 40
3.5
  9
$DIMCEN
 40
2.5
  9
$DIMTSZ
 40
0.0
  9
$DIMTOL
 70
     0
  9
$DIMLIM
 70
     0
  9
$DIMTIH
 70
     1
  9
$DIMTOH
 70
     1
  9
$DIMSE1
 70
     0
  9
$DIMSE2
 70
     0
  9
$DIMTAD
 70
     1
  9
$DIMZIN
 70
     0
  9
$DIMBLK
  1

  9
$DIMASO
 70
     1
  9
$DIMSHO
 70
     1
  9
$DIMPOST
  1

  9
$DIMAPOST
  1

  9
$DIMALT
 70
     0
  9
$DIMALTD
 70
     3
  9
$DIMALTF
 40
0.0393700787401575
  9
$DIMLFAC
 40
1.0
  9
$DIMTOFL
 70
     1
  9
$DIMTVP
 40
0.0
  9
$DIMTIX
 70
     0
  9
$DIMSOXD
 70
     0
  9
$DIMSAH
 70
     0
  9
$DIMBLK1
  1

  9
$DIMBLK2
  1

  9
$DIMSTYLE
  2
ISO-25
  9
$DIMCLRD
 70
     0
  9
$DIMCLRE
 70
     0
  9
$DIMCLRT
 70
     0
  9
$DIMTFAC
 40
1.0
  9
$DIMGAP
 40
1.524
  9
$DIMJUST
 70
     0
  9
$DIMSD1
 70
     0
  9
$DIMSD2
 70
     0
  9
$DIMTOLJ
 70
     0
  9
$DIMTZIN
 70
     0
  9
$DIMALTZ
 70
     0
  9
$DIMALTTZ
 70
     0
  9
$DIMUPT
 70
     0
  9
$DIMDEC
 70
     2
  9
$DIMTDEC
 70
     2
  9
$DIMALTU
 70
     2
  9
$DIMALTTD
 70
     3
  9
$DIMTXSTY
  7
Standard
  9
$DIMAUNIT
 70
     0
  9
$DIMADEC
 70
     2
  9
$DIMALTRND
 40
0.0
  9
$DIMAZIN
 70
     0
  9
$DIMDSEP
 70
    44
  9
$DIMATFIT
 70
     3
  9
$DIMFRAC
 70
     0
  9
$DIMLDRBLK
  1

  9
$DIMLUNIT
 70
     2
  9
$DIMLWD
 70
    -2
  9
$DIMLWE
 70
    -2
  9
$DIMTMOVE
 70
     0
  9
$LUNITS
 70
     2
  9
$LUPREC
 70
     2
  9
$SKETCHINC
 40
1.0
  9
$FILLETRAD
 40
10.0
  9
$AUNITS
 70
     0
  9
$AUPREC
 70
     2
  9
$MENU
  1
.
  9
$ELEVATION
 40
0.0
  9
$PELEVATION
 40
0.0
  9
$THICKNESS
 40
0.0
  9
$LIMCHECK
 70
     0
  9
$CHAMFERA
 40
0.0
  9
$CHAMFERB
 40
0.0
  9
$CHAMFERC
 40
0.0
  9
$CHAMFERD
 40
0.0
  9
$SKPOLY
 70
     0
  9
$TDCREATE
 40
2458299.352169433
  9
$TDUCREATE
 40
2458298.977169433
  9
$TDUPDATE
 40
2458304.383634549
  9
$TDUUPDATE
 40
2458304.008634549
  9
$TDINDWG
 40
0.0338982755
  9
$TDUSRTIMER
 40
2458303.975370845
  9
$USRTIMER
 70
     1
  9
$ANGBASE
 50
0.0
  9
$ANGDIR
 70
     0
  9
$PDMODE
 70
     0
  9
$PDSIZE
 40
-1.0
  9
$PLINEWID
 40
0.0
  9
$SPLFRAME
 70
     0
  9
$SPLINETYPE
 70
     6
  9
$SPLINESEGS
 70
     8
  9
$HANDSEED
  5
400
  9
$SURFTAB1
 70
     6
  9
$SURFTAB2
 70
     6
  9
$SURFTYPE
 70
     6
  9
$SURFU
 70
     6
  9
$SURFV
 70
     6
  9
$UCSBASE
  2

  9
$UCSNAME
  2

  9
$UCSORG
 10
0.0
 20
0.0
 30
0.0
  9
$UCSXDIR
 10
1.0
 20
0.0
 30
0.0
  9
$UCSYDIR
 10
0.0
 20
1.0
 30
0.0
  9
$UCSORTHOREF
  2

  9
$UCSORTHOVIEW
 70
     0
  9
$UCSORGTOP
 10
0.0
 20
0.0
 30
0.0
  9
$UCSORGBOTTOM
 10
0.0
 20
0.0
 30
0.0
  9
$UCSORGLEFT
 10
0.0
 20
0.0
 30
0.0
  9
$UCSORGRIGHT
 10
0.0
 20
0.0
 30
0.0
  9
$UCSORGFRONT
 10
0.0
 20
0.0
 30
0.0
  9
$UCSORGBACK
 10
0.0
 20
0.0
 30
0.0
  9
$PUCSBASE
  2

  9
$PUCSNAME
  2

  9
$PUCSORG
 10
0.0
 20
0.0
 30
0.0
  9
$PUCSXDIR
 10
1.0
 20
0.0
 30
0.0
  9
$PUCSYDIR
 10
0.0
 20
1.0
 30
0.0
  9
$PUCSORTHOREF
  2

  9
$PUCSORTHOVIEW
 70
     0
  9
$PUCSORGTOP
 10
0.0
 20
0.0
 30
0.0
  9
$PUCSORGBOTTOM
 10
0.0
 20
0.0
 30
0.0
  9
$PUCSORGLEFT
 10
0.0
 20
0.0
 30
0.0
  9
$PUCSORGRIGHT
 10
0.0
 20
0.0
 30
0.0
  9
$PUCSORGFRONT
 10
0.0
 20
0.0
 30
0.0
  9
$PUCSORGBACK
 10
0.0
 20
0.0
 30
0.0
  9
$USERI1
 70
     0
  9
$USERI2
 70
     0
  9
$USERI3
 70
     0
  9
$USERI4
 70
     0
  9
$USERI5
 70
     0
  9
$USERR1
 40
0.0
  9
$USERR2
 40
0.0
  9
$USERR3
 40
0.0
  9
$USERR4
 40
0.0
  9
$USERR5
 40
0.0
  9
$WORLDVIEW
 70
     1
  9
$SHADEDGE
 70
     3
  9
$SHADEDIF
 70
    70
  9
$TILEMODE
 70
     1
  9
$MAXACTVP
 70
    64
  9
$PINSBASE
 10
0.0
 20
0.0
 30
0.0
  9
$PLIMCHECK
 70
     0
  9
$PEXTMIN
 10
1.000000000000000E+20
 20
1.000000000000000E+20
 30
1.000000000000000E+20
  9
$PEXTMAX
 10
-1.000000000000000E+20
 20
-1.000000000000000E+20
 30
-1.000000000000000E+20
  9
$PLIMMIN
 10
0.0
 20
0.0
  9
$PLIMMAX
 10
0.0
 20
0.0
  9
$UNITMODE
 70
     0
  9
$VISRETAIN
 70
     1
  9
$PLINEGEN
 70
     0
  9
$PSLTSCALE
 70
     1
  9
$TREEDEPTH
 70
  3020
  9
$CMLSTYLE
  2
Standard
  9
$CMLJUST
 70
     0
  9
$CMLSCALE
 40
20.0
  9
$PROXYGRAPHICS
 70
     1
  9
$MEASUREMENT
 70
     1
  9
$CELWEIGHT
370
    -1
  9
$ENDCAPS
280
     0
  9
$JOINSTYLE
280
     0
  9
$LWDISPLAY
290
     1
  9
$INSUNITS
 70
     4
  9
$HYPERLINKBASE
  1

  9
$STYLESHEET
  1

  9
$XEDIT
290
     1
  9
$CEPSNTYPE
380
     0
  9
$PSTYLEMODE
290
     1
  9
$FINGERPRINTGUID
  2
{7FB879DF-FFD4-4B73-B3A1-8CD7D5FE16CE}
  9
$VERSIONGUID
  2
{FAEB1C32-E019-11D5-929B-00C0DF256EC4}
  9
$EXTNAMES
290
     1
  9
$PSVPSCALE
 40
0.0
  9
$OLESTARTUP
290
     0
  0
ENDSEC
  0
SECTION
  2
CLASSES
  0
CLASS
  1
ACDBDICTIONARYWDFLT
  2
AcDbDictionaryWithDefault
  3
ObjectDBX Classes
 90
        0
280
     0
281
     0
  0
CLASS
  1
VISUALSTYLE
  2
AcDbVisualStyle
  3
ObjectDBX Classes
 90
     4095
280
     0
281
     0
  0
CLASS
  1
MATERIAL
  2
AcDbMaterial
  3
ObjectDBX Classes
 90
     1153
280
     0
281
     0
  0
CLASS
  1
SCALE
  2
AcDbScale
  3
ObjectDBX Classes
 90
     1153
280
     0
281
     0
  0
CLASS
  1
SUN
  2
AcDbSun
  3
SCENEOE
 90
     1153
280
     0
281
     0
  0
CLASS
  1
ACDBPLACEHOLDER
  2
AcDbPlaceHolder
  3
ObjectDBX Classes
 90
        0
280
     0
281
     0
  0
CLASS
  1
LAYOUT
  2
AcDbLayout
  3
ObjectDBX Classes
 90
        0
280
     0
281
     0
  0
CLASS
  1
TABLESTYLE
  2
AcDbTableStyle
  3
ObjectDBX Classes
 90
     4095
280
     0
281
     0
  0
CLASS
  1
MLEADERSTYLE
  2
AcDbMLeaderStyle
  3
ACDB_MLEADERSTYLE_CLASS
 90
     4095
280
     0
281
     0
  0
CLASS
  1
RASTERVARIABLES
  2
AcDbRasterVariables
  3
ISM
 90
        0
280
     0
281
     0
  0
ENDSEC
  0
SECTION
  2
TABLES
  0
TABLE
  2
VPORT
  5
8
330
0
100
AcDbSymbolTable
 70
     1
  0
VPORT
  5
29
330
8
100
AcDbSymbolTableRecord
100
AcDbViewportTableRecord
  2
*Active
 70
     0
 10
0.0
 20
0.0
 11
1.0
 21
1.0
 12
22.63664183336056
 22
-10.80662952449973
 13
0.0
 23
0.0
 14
10.0
 24
10.0
 15
10.0
 25
10.0
 16
0.0
 26
0.0
 36
1.0
 17
0.0
 27
0.0
 37
0.0
 40
182.0597773360601
 41
2.22554347826087
 42
50.0
 43
0.0
 44
0.0
 50
0.0
 51
0.0
 71
    16
 72
  2000
 73
     1
 74
     3
 75
     0
 76
     0
 77
     0
 78
     0
281
     0
 65
     1
110
0.0
120
0.0
130
0.0
111
1.0
121
0.0
131
0.0
112
0.0
122
1.0
132
0.0
 79
     0
146
0.0
  0
ENDTAB
  0
TABLE
  2
LTYPE
  5
5
330
0
100
AcDbSymbolTable
 70
     6
  0
LTYPE
  5
14
330
5
100
AcDbSymbolTableRecord
100
AcDbLinetypeTableRecord
  2
ByBlock
 70
     0
  3

 72
    65
 73
     0
 40
0.0
  0
LTYPE
  5
15
330
5
100
AcDbSymbolTableRecord
100
AcDbLinetypeTableRecord
  2
ByLayer
 70
     0
  3

 72
    65
 73
     0
 40
0.0
  0
LTYPE
  5
16
330
5
100
AcDbSymbolTableRecord
100
AcDbLinetypeTableRecord
  2
Continuous
 70
     0
  3
Solid line
 72
    65
 73
     0
 40
0.0
  0
LTYPE
  5
6A
330
5
100
AcDbSymbolTableRecord
100
AcDbLinetypeTableRecord
  2
HIDDEN
 70
     0
  3
Hidden __ __ __ __ __ __ __ __ __ __ __ __ __ __
 72
    65
 73
     2
 40
1.905
 49
1.27
 74
     0
 49
-0.635
 74
     0
  0
LTYPE
  5
6B
330
5
100
AcDbSymbolTableRecord
100
AcDbLinetypeTableRecord
  2
PHANTOM
 70
     0
  3
Phantom ______  __  __  ______  __  __  ______
 72
    65
 73
     6
 40
12.7
 49
6.35
 74
     0
 49
-1.27
 74
     0
 49
1.27
 74
     0
 49
-1.27
 74
     0
 49
1.27
 74
     0
 49
-1.27
 74
     0
  0
LTYPE
  5
6C
330
5
100
AcDbSymbolTableRecord
100
AcDbLinetypeTableRecord
  2
CENTER
 70
     0
  3
Center ____ _ ____ _ ____ _ ____ _ ____ _ ____
 72
    65
 73
     4
 40
10.16
 49
6.35
 74
     0
 49
-1.27
 74
     0
 49
1.27
 74
     0
 49
-1.27
 74
     0
  0
LTYPE
  5
6D
330
5
100
AcDbSymbolTableRecord
100
AcDbLinetypeTableRecord
  2
CENTERX2
 70
     0
  3
Center (2x) ________  __  ________  __  _____
 72
    65
 73
     4
 40
20.32
 49
12.7
 74
     0
 49
-2.54
 74
     0
 49
2.54
 74
     0
 49
-2.54
 74
     0
  0
LTYPE
  5
6E
330
5
100
AcDbSymbolTableRecord
100
AcDbLinetypeTableRecord
  2
DOT2
 70
     0
  3
Dot (.5x) ........................................
 72
    65
 73
     2
 40
0.635
 49
0.0
 74
     0
 49
-0.635
 74
     0
  0
ENDTAB
  0
TABLE
  2
LAYER
  5
2
330
0
100
AcDbSymbolTable
 70
    18
  0
LAYER
  5
10
330
2
100
AcDbSymbolTableRecord
100
AcDbLayerTableRecord
  2
0
 70
     0
 62
     7
  6
Continuous
370
    -3
390
F
  0
LAYER
  5
6F
330
2
100
AcDbSymbolTableRecord
100
AcDbLayerTableRecord
  2
FORMAT
 70
     0
 62
     2
  6
Continuous
370
    -3
390
F
  0
LAYER
  5
70
330
2
100
AcDbSymbolTableRecord
100
AcDbLayerTableRecord
  2
외형선
 70
     0
 62
     4
  6
Continuous
370
    30
390
F
  0
LAYER
  5
71
330
2
100
AcDbSymbolTableRecord
100
AcDbLayerTableRecord
  2
숨은선
 70
     0
 62
     2
  6
HIDDEN
370
    15
390
F
  0
LAYER
  5
72
330
2
100
AcDbSymbolTableRecord
100
AcDbLayerTableRecord
  2
중심선
 70
     0
 62
     1
  6
CENTERX2
370
    -3
390
F
  0
LAYER
  5
73
330
2
100
AcDbSymbolTableRecord
100
AcDbLayerTableRecord
  2
파단선
 70
     0
 62
     4
  6
Continuous
370
    -3
390
F
  0
LAYER
  5
74
330
2
100
AcDbSymbolTableRecord
100
AcDbLayerTableRecord
  2
해칭선
 70
     0
 62
   100
  6
Continuous
370
    -3
390
F
  0
LAYER
  5
75
330
2
100
AcDbSymbolTableRecord
100
AcDbLayerTableRecord
  2
가는실선
 70
     0
 62
     4
  6
Continuous
370
    -3
390
F
  0
LAYER
  5
76
330
2
100
AcDbSymbolTableRecord
100
AcDbLayerTableRecord
  2
치수_보조선
 70
     0
 62
     4
  6
Continuous
370
    -3
390
F
  0
LAYER
  5
77
330
2
100
AcDbSymbolTableRecord
100
AcDbLayerTableRecord
  2
치수문자_일반주서
 70
     0
 62
     7
  6
Continuous
370
    15
390
F
  0
LAYER
  5
78
330
2
100
AcDbSymbolTableRecord
100
AcDbLayerTableRecord
  2
개별주서
 70
     0
 62
   100
  6
Continuous
370
    30
390
F
  0
LAYER
  5
79
330
2
100
AcDbSymbolTableRecord
100
AcDbLayerTableRecord
  2
중간선
 70
     0
 62
     2
  6
Continuous
370
    15
390
F
  0
LAYER
  5
7A
330
2
100
AcDbSymbolTableRecord
100
AcDbLayerTableRecord
  2
윤곽선
 70
     0
 62
     3
  6
Continuous
370
    40
390
F
  0
LAYER
  5
7B
330
2
100
AcDbSymbolTableRecord
100
AcDbLayerTableRecord
  2
중심마크
 70
     0
 62
   100
  6
Continuous
370
    30
390
F
  0
LAYER
  5
7C
330
2
100
AcDbSymbolTableRecord
100
AcDbLayerTableRecord
  2
가상선
 70
     0
 62
     4
  6
PHANTOM
370
    -3
390
F
  0
LAYER
  5
7D
330
2
100
AcDbSymbolTableRecord
100
AcDbLayerTableRecord
  2
특수지정선
 70
     0
 62
     5
  6
CENTERX2
370
    60
390
F
  0
LAYER
  5
7E
330
2
100
AcDbSymbolTableRecord
100
AcDbLayerTableRecord
  2
참조1
 70
     0
 62
    -4
  6
Continuous
370
    -3
390
F
  0
LAYER
  5
3D5
330
2
100
AcDbSymbolTableRecord
100
AcDbLayerTableRecord
  2
Defpoints
 70
     0
 62
     7
  6
Continuous
290
     0
370
    -3
390
F
  0
ENDTAB
  0
TABLE
  2
STYLE
  5
3
330
0
100
AcDbSymbolTable
 70
     2
  0
STYLE
  5
11
330
3
100
AcDbSymbolTableRecord
100
AcDbTextStyleTableRecord
  2
Standard
 70
     0
 40
0.0
 41
1.0
 50
0.0
 71
     0
 42
3.5
  3
txt
  4

  0
STYLE
  5
94
330
3
100
AcDbSymbolTableRecord
100
AcDbTextStyleTableRecord
  2
SLDTEXTSTYLE0
 70
     0
 40
0.0
 41
0.75
 50
0.0
 71
     0
 42
3.5
  3
TXT
  4

  0
ENDTAB
  0
TABLE
  2
VIEW
  5
6
330
0
100
AcDbSymbolTable
 70
     0
  0
ENDTAB
  0
TABLE
  2
UCS
  5
7
330
0
100
AcDbSymbolTable
 70
     0
  0
ENDTAB
  0
TABLE
  2
APPID
  5
9
330
0
100
AcDbSymbolTable
 70
     1
  0
APPID
  5
12
330
9
100
AcDbSymbolTableRecord
100
AcDbRegAppTableRecord
  2
ACAD
 70
     0
  0
ENDTAB
  0
TABLE
  2
DIMSTYLE
  5
A
330
0
100
AcDbSymbolTable
 70
     4
100
AcDbDimStyleTable
  0
DIMSTYLE
105
27
330
A
100
AcDbSymbolTableRecord
100
AcDbDimStyleTableRecord
  2
ISO-25
 70
     0
 41
2.5
 42
0.625
 43
3.75
 44
1.25
 73
     0
 74
     0
 77
     1
 78
     8
140
2.5
141
2.5
143
0.03937007874016
147
0.625
171
     3
172
     1
178
     0
271
     2
272
     2
274
     3
278
    44
283
     0
284
     8
340
11
  0
DIMSTYLE
105
354
102
{ACAD_REACTORS
330
353
330
37B
102
}
330
A
100
AcDbSymbolTableRecord
100
AcDbDimStyleTableRecord
  2
SLDDIMSTYLE0
 70
     0
 41
3.302
 44
0.0
 45
0.000000001
 73
     0
 74
     0
 77
     1
 78
    12
 79
     3
140
3.5
143
0.0393700787401575
147
0.875
148
0.000000001
170
     1
173
     1
178
     0
271
     2
272
     2
276
     2
284
    12
340
94
  0
DIMSTYLE
105
367
102
{ACAD_REACTORS
330
366
102
}
330
A
100
AcDbSymbolTableRecord
100
AcDbDimStyleTableRecord
  2
SLDDIMSTYLE1
 70
     0
 41
3.302
 44
0.0
 45
0.000000001
 73
     0
 74
     0
 77
     1
 78
    12
 79
     3
140
3.5
143
0.0393700787401575
147
0.875
148
0.000000001
170
     1
172
     1
173
     1
178
     0
271
     2
272
     2
276
     2
284
    12
289
     0
340
94
  0
DIMSTYLE
105
390
102
{ACAD_REACTORS
330
38F
102
}
330
A
100
AcDbSymbolTableRecord
100
AcDbDimStyleTableRecord
  2
SLDDIMSTYLE2
 70
     0
 41
3.302
 44
0.0
 45
0.000000001
 73
     0
 74
     0
 77
     1
 78
     4
 79
     1
140
3.5
143
0.0393700787401575
147
0.875
148
0.000000001
170
     1
173
     1
178
     0
271
     2
272
     2
276
     2
284
    12
340
94
  0
ENDTAB
  0
TABLE
  2
BLOCK_RECORD
  5
1
330
0
100
AcDbSymbolTable
 70
     7
  0
BLOCK_RECORD
  5
1F
330
1
100
AcDbSymbolTableRecord
100
AcDbBlockTableRecord
  2
*Model_Space
340
22
  0
BLOCK_RECORD
  5
1B
330
1
100
AcDbSymbolTableRecord
100
AcDbBlockTableRecord
  2
*Paper_Space
340
1E
  0
BLOCK_RECORD
  5
23
330
1
100
AcDbSymbolTableRecord
100
AcDbBlockTableRecord
  2
*Paper_Space0
340
26
  0
BLOCK_RECORD
  5
7F
330
1
100
AcDbSymbolTableRecord
100
AcDbBlockTableRecord
  2
블럭10
340
0
102
{BLKREFS
331
34B
102
}
  0
BLOCK_RECORD
  5
355
330
1
100
AcDbSymbolTableRecord
100
AcDbBlockTableRecord
  2
_D
340
0
  0
BLOCK_RECORD
  5
368
330
1
100
AcDbSymbolTableRecord
100
AcDbBlockTableRecord
  2
_D_1
340
0
  0
BLOCK_RECORD
  5
37C
330
1
100
AcDbSymbolTableRecord
100
AcDbBlockTableRecord
  2
_D_2
340
0
  0
BLOCK_RECORD
  5
391
330
1
100
AcDbSymbolTableRecord
100
AcDbBlockTableRecord
  2
_D_3
340
0
  0
BLOCK_RECORD
  5
3AA
330
1
100
AcDbSymbolTableRecord
100
AcDbBlockTableRecord
  2
SW_DOWELSYMBOL_0
340
0
102
{BLKREFS
331
3B0
102
}
  0
ENDTAB
  0
ENDSEC
  0
SECTION
  2
BLOCKS
  0
BLOCK
  5
20
330
1F
100
AcDbEntity
  8
0
100
AcDbBlockBegin
  2
*Model_Space
 70
     0
 10
0.0
 20
0.0
 30
0.0
  3
*Model_Space
  1
*Model_Space
  0
ENDBLK
  5
21
330
1F
100
AcDbEntity
  8
0
100
AcDbBlockEnd
  0
BLOCK
  5
1C
330
1B
100
AcDbEntity
 67
     1
  8
0
100
AcDbBlockBegin
  2
*Paper_Space
 70
     0
 10
0.0
 20
0.0
 30
0.0
  3
*Paper_Space
  1
*Paper_Space
  0
ENDBLK
  5
1D
330
1B
100
AcDbEntity
 67
     1
  8
0
100
AcDbBlockEnd
  0
BLOCK
  5
24
330
23
100
AcDbEntity
  8
0
100
AcDbBlockBegin
  2
*Paper_Space0
 70
     0
 10
0.0
 20
0.0
 30
0.0
  3
*Paper_Space0
  1
*Paper_Space0
  0
ENDBLK
  5
25
330
23
100
AcDbEntity
  8
0
100
AcDbBlockEnd
  0
BLOCK
  5
80
330
7F
100
AcDbEntity
  8
0
100
AcDbBlockBegin
  2
블럭10
 70
     2
 10
0.0
 20
0.0
 30
0.0
  3
블럭10
  1
블럭10
  0
ELLIPSE
  5
82
330
7F
100
AcDbEntity
  8
중심선
100
AcDbEllipse
 10
20.54032771741204
 20
12.0471743016438
 30
0.0
 11
6.600054785286829
 21
-1.261213355974178E-13
 31
0.0
210
0.0
220
0.0
230
1.0
 40
0.636358354079598
 41
0.9219305317359503
 42
6.513795318482858
  0
ELLIPSE
  5
83
330
7F
100
AcDbEntity
  8
중심선
100
AcDbEllipse
 10
20.54032771746488
 20
12.04717430159265
 30
0.0
 11
3.960054785062283
 21
1.540847449632565E-10
 31
0.0
210
0.0
220
0.0
230
1.0
 40
0.3939339440162632
 41
1.131841032648279
 42
5.62031148352944
  0
LINE
  5
84
330
7F
100
AcDbEntity
  8
중심선
100
AcDbLine
 10
2.268634060543552
 20
16.24717430164393
 30
0.0
 11
5.714909304380834
 21
16.24717430164393
 31
0.0
  0
LINE
  5
85
330
7F
100
AcDbEntity
  8
중심선
100
AcDbLine
 10
5.245725140726316
 20
7.84717430164391
 30
0.0
 11
8.692000384563599
 21
7.84717430164391
 31
0.0
  0
LINE
  5
86
330
7F
100
AcDbEntity
  8
중심선
100
AcDbLine
 10
15.74043728645272
 20
16.24717430164393
 30
0.0
 11
8.692000384563599
 21
7.84717430164391
 31
0.0
  0
LINE
  5
87
330
7F
100
AcDbEntity
  8
중심선
100
AcDbLine
 10
0.1404042013395286
 20
13.71084872107135
 30
0.0
 11
3.58671253028996
 21
13.71088815037384
 31
0.0
  0
LINE
  5
88
330
7F
100
AcDbEntity
  8
중심선
100
AcDbLine
 10
2.750260043222114
 20
10.84717430164391
 30
0.0
 11
6.196535287059397
 21
10.84717430164391
 31
0.0
  0
LINE
  5
89
330
7F
100
AcDbEntity
  8
중심선
100
AcDbLine
 10
12.29416204261559
 20
16.24717430164393
 30
0.0
 11
5.245725140726316
 21
7.84717430164391
 31
0.0
  0
LINE
  5
8A
330
7F
100
AcDbEntity
  8
중심선
100
AcDbLine
 10
10.72767329541681
 20
16.24717430164393
 30
0.0
 11
6.196535287059397
 21
10.84717430164391
 31
0.0
  0
LINE
  5
8B
330
7F
100
AcDbEntity
  8
중심선
100
AcDbLine
 10
7.28139805157953
 20
16.24717430164393
 30
0.0
 11
2.750260043222114
 21
10.84717430164391
 31
0.0
  0
LINE
  5
8C
330
7F
100
AcDbEntity
  8
중심선
100
AcDbLine
 10
5.714909304380834
 20
16.24717430164393
 30
0.0
 11
3.58671253028996
 21
13.71088815037384
 31
0.0
  0
LINE
  5
8D
330
7F
100
AcDbEntity
  8
중심선
100
AcDbLine
 10
2.268634060543552
 20
16.24717430164393
 30
0.0
 11
0.1404042013395286
 21
13.71084872107135
 31
0.0
  0
LINE
  5
8E
330
7F
100
AcDbEntity
  8
중심선
100
AcDbLine
 10
7.28139805157953
 20
16.24717430164393
 30
0.0
 11
10.72767329541681
 21
16.24717430164393
 31
0.0
  0
LINE
  5
8F
330
7F
100
AcDbEntity
  8
중심선
100
AcDbLine
 10
12.29416204261559
 20
16.24717430164393
 30
0.0
 11
15.74043728645272
 21
16.24717430164393
 31
0.0
  0
LINE
  5
90
330
7F
100
AcDbEntity
  8
중심선
100
AcDbLine
 10
19.22036997980202
 20
11.08717430171403
 30
0.0
 11
23.66174974927406
 21
11.08717430171406
 31
0.0
  0
LINE
  5
91
330
7F
100
AcDbEntity
  8
중심선
100
AcDbLine
 10
19.22039502424796
 20
13.00717430171391
 30
0.0
 11
19.22036997980202
 21
11.08717430171403
 31
0.0
  0
LINE
  5
92
330
7F
100
AcDbEntity
  8
중심선
100
AcDbLine
 10
19.22039502424796
 20
13.00717430171391
 30
0.0
 11
26.96566020931264
 21
13.00717430171391
 31
0.0
  0
LINE
  5
93
330
7F
100
AcDbEntity
  8
중심선
100
AcDbLine
 10
22.22332737316547
 20
13.45928029700563
 30
0.0
 11
24.52862924686651
 21
15.39360700705356
 31
0.0
  0
ATTDEF
  5
95
330
7F
100
AcDbEntity
  8
FORMAT
 62
     2
100
AcDbText
 10
-10.14163601213663
 20
2.075366912832191
 30
0.0
 40
4.233333333333333
  1
EM156048 [ 4 FLUTE ]
 41
0.75
  7
SLDTEXTSTYLE0
 11
-10.14163601213663
 21
-0.0412997538344756
 31
0.0
100
AcDbAttributeDefinition
  3

  2
AUTOATTR0
 70
     0
 74
     1
  0
ENDBLK
  5
81
330
7F
100
AcDbEntity
  8
0
100
AcDbBlockEnd
  0
BLOCK
  5
356
330
355
100
AcDbEntity
  8
0
100
AcDbBlockBegin
  2
_D
 70
     0
 10
0.0
 20
0.0
 30
0.0
  3
_D
  1
_D
  0
LINE
  5
358
330
355
100
AcDbEntity
  8
치수문자_일반주서
 62
     0
370
    -2
100
AcDbLine
 10
51.33749999999996
 20
9.525000000000166
 30
0.0
 11
66.30487997019127
 21
9.525000000000222
 31
0.0
  0
LINE
  5
359
330
355
100
AcDbEntity
  8
치수문자_일반주서
 62
     0
370
    -2
100
AcDbLine
 10
51.33749999999996
 20
-9.524999999999991
 30
0.0
 11
66.30487997019134
 21
-9.524999999999935
 31
0.0
  0
LINE
  5
35A
330
355
100
AcDbEntity
  8
치수문자_일반주서
 62
     0
370
    -2
100
AcDbLine
 10
66.30487997019128
 20
6.223000000000223
 30
0.0
 11
66.30487997019132
 21
-6.222999999999935
 31
0.0
  0
SOLID
  5
35B
330
355
100
AcDbEntity
  8
치수문자_일반주서
 62
     0
100
AcDbTrace
 10
66.85521330352461
 20
6.223000000000225
 30
0.0
 11
65.75454663685795
 21
6.223000000000221
 31
0.0
 12
66.30487997019127
 22
9.525000000000222
 32
0.0
 13
66.30487997019127
 23
9.525000000000222
 33
0.0
  0
SOLID
  5
35C
330
355
100
AcDbEntity
  8
치수문자_일반주서
 62
     0
100
AcDbTrace
 10
65.754546636858
 20
-6.222999999999937
 30
0.0
 11
66.85521330352465
 21
-6.222999999999933
 31
0.0
 12
66.30487997019134
 22
-9.524999999999935
 32
0.0
 13
66.30487997019134
 23
-9.524999999999935
 33
0.0
  0
MTEXT
  5
35D
330
355
100
AcDbEntity
  8
치수문자_일반주서
 62
     0
100
AcDbMText
 10
61.92987997019129
 20
1.186166785118279
 30
0.0
 40
3.5
 41
0.0
 71
     2
 72
     1
  1
\A1;%%c19.05 [3/4]
  7
SLDTEXTSTYLE0
 11
-3.729883127349576E-15
 21
1.0
 31
0.0
 73
     1
 44
1.0
  0
POINT
  5
35E
330
355
100
AcDbEntity
  8
Defpoints
 62
     0
100
AcDbPoint
 10
51.27499999999996
 20
9.525000000000166
 30
0.0
  0
POINT
  5
35F
330
355
100
AcDbEntity
  8
Defpoints
 62
     0
100
AcDbPoint
 10
51.27499999999996
 20
-9.524999999999991
 30
0.0
  0
POINT
  5
360
330
355
100
AcDbEntity
  8
Defpoints
 62
     0
100
AcDbPoint
 10
66.30487997019134
 20
-9.524999999999935
 30
0.0
  0
ENDBLK
  5
357
330
355
100
AcDbEntity
  8
0
100
AcDbBlockEnd
  0
BLOCK
  5
369
330
368
100
AcDbEntity
  8
0
100
AcDbBlockBegin
  2
_D_1
 70
     0
 10
0.0
 20
0.0
 30
0.0
  3
_D_1
  1
_D_1
  0
LINE
  5
36B
330
368
100
AcDbEntity
  8
치수문자_일반주서
 62
     0
370
    -2
100
AcDbLine
 10
-49.38750000000001
 20
9.525
 30
0.0
 11
-60.13500000000007
 21
9.524999999999963
 31
0.0
  0
LINE
  5
36C
330
368
100
AcDbEntity
  8
치수문자_일반주서
 62
     0
370
    -2
100
AcDbLine
 10
-49.38750000000001
 20
-9.525000000000011
 30
0.0
 11
-60.13500000000001
 21
-9.525000000000048
 31
0.0
  0
LINE
  5
36D
330
368
100
AcDbEntity
  8
치수문자_일반주서
 62
     0
370
    -2
100
AcDbLine
 10
-60.13500000000005
 20
6.222999999999963
 30
0.0
 11
-60.13500000000002
 21
-6.223000000000049
 31
0.0
  0
SOLID
  5
36E
330
368
100
AcDbEntity
  8
치수문자_일반주서
 62
     0
100
AcDbTrace
 10
-59.58466666666672
 20
6.222999999999965
 30
0.0
 11
-60.68533333333339
 21
6.222999999999962
 31
0.0
 12
-60.13500000000007
 22
9.524999999999963
 32
0.0
 13
-60.13500000000007
 23
9.524999999999963
 33
0.0
  0
SOLID
  5
36F
330
368
100
AcDbEntity
  8
치수문자_일반주서
 62
     0
100
AcDbTrace
 10
-60.68533333333335
 20
-6.22300000000005
 30
0.0
 11
-59.58466666666668
 21
-6.223000000000047
 31
0.0
 12
-60.13500000000001
 22
-9.525000000000048
 32
0.0
 13
-60.13500000000001
 23
-9.525000000000048
 33
0.0
  0
MTEXT
  5
370
330
368
100
AcDbEntity
  8
치수문자_일반주서
 62
     0
100
AcDbMText
 10
-64.51000000000003
 20
-1.526016521430939
 30
0.0
 40
3.5
 41
0.0
 71
     2
 72
     1
  1
\A1;%%c19.05 [3/4]
  7
SLDTEXTSTYLE0
 11
-3.356894814614644E-15
 21
1.0
 31
0.0
 73
     1
 44
1.0
  0
POINT
  5
371
330
368
100
AcDbEntity
  8
Defpoints
 62
     0
100
AcDbPoint
 10
-49.32500000000001
 20
9.525
 30
0.0
  0
POINT
  5
372
330
368
100
AcDbEntity
  8
Defpoints
 62
     0
100
AcDbPoint
 10
-49.32500000000001
 20
-9.525000000000011
 30
0.0
  0
POINT
  5
373
330
368
100
AcDbEntity
  8
Defpoints
 62
     0
100
AcDbPoint
 10
-60.13500000000001
 20
-9.525000000000052
 30
0.0
  0
ENDBLK
  5
36A
330
368
100
AcDbEntity
  8
0
100
AcDbBlockEnd
  0
BLOCK
  5
37D
330
37C
100
AcDbEntity
  8
0
100
AcDbBlockBegin
  2
_D_2
 70
     0
 10
0.0
 20
0.0
 30
0.0
  3
_D_2
  1
_D_2
  0
LINE
  5
37F
330
37C
100
AcDbEntity
  8
치수문자_일반주서
 62
     0
370
    -2
100
AcDbLine
 10
51.27499999999996
 20
9.587500000000166
 30
0.0
 11
51.27499999999996
 21
26.18826246161029
 31
0.0
  0
LINE
  5
380
330
37C
100
AcDbEntity
  8
치수문자_일반주서
 62
     0
370
    -2
100
AcDbLine
 10
9.999999999999977
 20
9.3643044556438
 30
0.0
 11
9.999999999999979
 21
26.18826246161029
 31
0.0
  0
LINE
  5
381
330
37C
100
AcDbEntity
  8
치수문자_일반주서
 62
     0
370
    -2
100
AcDbLine
 10
47.97299999999996
 20
26.18826246161029
 30
0.0
 11
13.30199999999998
 21
26.18826246161029
 31
0.0
  0
SOLID
  5
382
330
37C
100
AcDbEntity
  8
치수문자_일반주서
 62
     0
100
AcDbTrace
 10
47.97299999999996
 20
25.63792912827696
 30
0.0
 11
47.97299999999996
 21
26.73859579494362
 31
0.0
 12
51.27499999999996
 22
26.18826246161029
 32
0.0
 13
51.27499999999996
 23
26.18826246161029
 33
0.0
  0
SOLID
  5
383
330
37C
100
AcDbEntity
  8
치수문자_일반주서
 62
     0
100
AcDbTrace
 10
13.30199999999998
 20
26.73859579494362
 30
0.0
 11
13.30199999999998
 21
25.63792912827696
 31
0.0
 12
9.999999999999979
 22
26.18826246161029
 32
0.0
 13
9.999999999999979
 23
26.18826246161029
 33
0.0
  0
MTEXT
  5
384
330
37C
100
AcDbEntity
  8
치수문자_일반주서
 62
     0
100
AcDbMText
 10
30.63749999999996
 20
30.56326246161029
 30
0.0
 40
3.5
 41
0.0
 71
     2
 72
     1
  1
\A1;41.28 [1 5/8]
  7
SLDTEXTSTYLE0
 73
     1
 44
1.0
  0
POINT
  5
385
330
37C
100
AcDbEntity
  8
Defpoints
 62
     0
100
AcDbPoint
 10
51.27499999999996
 20
9.525000000000166
 30
0.0
  0
POINT
  5
386
330
37C
100
AcDbEntity
  8
Defpoints
 62
     0
100
AcDbPoint
 10
9.999999999999977
 20
9.3018044556438
 30
0.0
  0
POINT
  5
387
330
37C
100
AcDbEntity
  8
Defpoints
 62
     0
100
AcDbPoint
 10
9.999999999999977
 20
26.18826246161029
 30
0.0
  0
ENDBLK
  5
37E
330
37C
100
AcDbEntity
  8
0
100
AcDbBlockEnd
  0
BLOCK
  5
392
330
391
100
AcDbEntity
  8
0
100
AcDbBlockBegin
  2
_D_3
 70
     0
 10
0.0
 20
0.0
 30
0.0
  3
_D_3
  1
_D_3
  0
LINE
  5
394
330
391
100
AcDbEntity
  8
치수문자_일반주서
 62
     0
370
    -2
100
AcDbLine
 10
51.27499999999996
 20
9.587500000000166
 30
0.0
 11
51.27499999999996
 21
42.85792746260613
 31
0.0
  0
LINE
  5
395
330
391
100
AcDbEntity
  8
치수문자_일반주서
 62
     0
370
    -2
100
AcDbLine
 10
-50.32500000000002
 20
8.58749999999999
 30
0.0
 11
-50.32500000000002
 21
42.85792746260613
 31
0.0
  0
LINE
  5
396
330
391
100
AcDbEntity
  8
치수문자_일반주서
 62
     0
370
    -2
100
AcDbLine
 10
47.97299999999996
 20
42.85792746260613
 30
0.0
 11
-47.02300000000002
 21
42.85792746260613
 31
0.0
  0
SOLID
  5
397
330
391
100
AcDbEntity
  8
치수문자_일반주서
 62
     0
100
AcDbTrace
 10
47.97299999999996
 20
42.30759412927279
 30
0.0
 11
47.97299999999996
 21
43.40826079593946
 31
0.0
 12
51.27499999999996
 22
42.85792746260613
 32
0.0
 13
51.27499999999996
 23
42.85792746260613
 33
0.0
  0
SOLID
  5
398
330
391
100
AcDbEntity
  8
치수문자_일반주서
 62
     0
100
AcDbTrace
 10
-47.02300000000002
 20
43.40826079593946
 30
0.0
 11
-47.02300000000002
 21
42.30759412927279
 31
0.0
 12
-50.32500000000002
 22
42.85792746260613
 32
0.0
 13
-50.32500000000002
 23
42.85792746260613
 33
0.0
  0
MTEXT
  5
399
330
391
100
AcDbEntity
  8
치수문자_일반주서
 62
     0
100
AcDbMText
 10
4.917058761115993
 20
47.23292746260613
 30
0.0
 40
3.5
 41
0.0
 71
     2
 72
     1
  1
\A1;101.60 [4]
  7
SLDTEXTSTYLE0
 73
     1
 44
1.0
  0
POINT
  5
39A
330
391
100
AcDbEntity
  8
Defpoints
 62
     0
100
AcDbPoint
 10
51.27499999999996
 20
9.525000000000166
 30
0.0
  0
POINT
  5
39B
330
391
100
AcDbEntity
  8
Defpoints
 62
     0
100
AcDbPoint
 10
-50.32500000000002
 20
8.52499999999999
 30
0.0
  0
POINT
  5
39C
330
391
100
AcDbEntity
  8
Defpoints
 62
     0
100
AcDbPoint
 10
-50.32500000000002
 20
42.85792746260613
 30
0.0
  0
ENDBLK
  5
393
330
391
100
AcDbEntity
  8
0
100
AcDbBlockEnd
  0
BLOCK
  5
3AB
330
3AA
100
AcDbEntity
  8
0
100
AcDbBlockBegin
  2
SW_DOWELSYMBOL_0
 70
     0
 10
0.0
 20
0.0
 30
0.0
  3
SW_DOWELSYMBOL_0
  1
SW_DOWELSYMBOL_0
  0
CIRCLE
  5
3AD
330
3AA
100
AcDbEntity
  8
해칭선
 62
     0
100
AcDbCircle
 10
0.0
 20
0.0
 30
0.0
 40
3.000000000000004
  0
HATCH
  5
3AE
330
3AA
100
AcDbEntity
  8
0
  6
Continuous
 62
     0
370
     0
100
AcDbHatch
 10
0.0
 20
0.0
 30
0.0
210
0.0
220
0.0
230
1.0
  2
SOLID
 70
     1
 71
     0
 91
        1
 92
        0
 93
        3
 72
     2
 10
0.0000000000000104
 20
-0.0000000000000035
 40
3.000000000000004
 50
0.0
 51
90.0
 73
     1
 72
     1
 10
0.0000000000000104
 20
3.000000000000001
 11
0.0000000000000104
 21
-0.0000000000000036
 72
     1
 10
0.0000000000000104
 20
-0.0000000000000035
 11
3.000000000000015
 21
-0.0000000000000035
 97
        0
 75
     0
 76
     1
 98
        1
 10
0.0
 20
0.0
  0
HATCH
  5
3AF
330
3AA
100
AcDbEntity
  8
0
  6
Continuous
 62
     0
370
     0
100
AcDbHatch
 10
0.0
 20
0.0
 30
0.0
210
0.0
220
0.0
230
1.0
  2
SOLID
 70
     1
 71
     0
 91
        1
 92
        0
 93
        3
 72
     2
 10
0.0000000000000104
 20
-0.0000000000000035
 40
3.000000000000004
 50
180.0
 51
270.0000000000007
 73
     1
 72
     1
 10
0.0000000000000104
 20
-3.000000000000008
 11
0.0000000000000104
 21
-0.0000000000000036
 72
     1
 10
0.0000000000000104
 20
-0.0000000000000035
 11
-2.999999999999994
 21
-0.0000000000000035
 97
        0
 75
     0
 76
     1
 98
        1
 10
0.0
 20
0.0
  0
ENDBLK
  5
3AC
330
3AA
100
AcDbEntity
  8
0
100
AcDbBlockEnd
  0
ENDSEC
  0
SECTION
  2
ENTITIES
  0
LINE
  5
96
330
1F
100
AcDbEntity
  8
외형선
  6
Continuous
370
    15
100
AcDbLine
 10
10.00000004749744
 20
9.525000117719168
 30
0.0
 11
-49.32500010728838
 21
9.525000117719168
 31
0.0
  0
LINE
  5
97
330
1F
100
AcDbEntity
  8
외형선
  6
Continuous
370
    15
100
AcDbLine
 10
-49.32500010728838
 20
-9.525000117719179
 30
0.0
 11
10.00000004749744
 21
-9.525000117719179
 31
0.0
  0
LINE
  5
98
330
1F
100
AcDbEntity
  8
외형선
  6
Continuous
370
    15
100
AcDbLine
 10
-49.32500010728838
 20
9.525000117719168
 30
0.0
 11
-50.32499840855601
 21
8.524999953806395
 31
0.0
  0
LINE
  5
99
330
1F
100
AcDbEntity
  8
외형선
  6
Continuous
370
    15
100
AcDbLine
 10
-50.32499840855601
 20
-8.524999953806406
 30
0.0
 11
-49.32500010728838
 21
-9.525000117719179
 31
0.0
  0
LINE
  5
9A
330
1F
100
AcDbEntity
  8
외형선
  6
Continuous
 62
     1
370
    15
100
AcDbLine
 10
16.01182894408701
 20
9.525000117719168
 30
0.0
 11
15.74083782359956
 21
9.525000117719168
 31
0.0
  0
SPLINE
  5
9C
330
1F
100
AcDbEntity
  8
외형선
  6
Continuous
 62
     1
370
    15
100
AcDbSpline
210
0.0
220
0.0
230
1.0
 70
     8
 71
     3
 72
     9
 73
     5
 74
     0
 42
0.000000001
 43
0.00000001
 40
0.0
 40
0.0
 40
0.0
 40
0.0
 40
0.6939296577032283
 40
0.9999999999999999
 40
0.9999999999999999
 40
0.9999999999999999
 40
0.9999999999999999
 10
15.74092909321187
 20
9.525000117719168
 30
0.0
 10
15.71709576685781
 20
9.523975485043984
 30
0.0
 10
15.68275031686948
 20
9.522498919424097
 30
0.0
 10
15.65162220510886
 20
9.507533415361404
 30
0.0
 10
15.64209481328724
 20
9.502952918410296
 30
0.0
  0
SPLINE
  5
9E
330
1F
100
AcDbEntity
  8
외형선
  6
Continuous
 62
     1
370
    15
100
AcDbSpline
210
0.0
220
0.0
230
1.0
 70
     8
 71
     3
 72
    11
 73
     7
 74
     0
 42
0.000000001
 43
0.00000001
 40
0.0
 40
0.0
 40
0.0
 40
0.0
 40
0.2438540410278033
 40
0.5000443514859887
 40
0.7562141921581934
 40
1.0
 40
1.0
 40
1.0
 40
1.0
 10
15.59421877935527
 20
9.46882832795381
 30
0.0
 10
15.54938602962778
 20
9.439068307685936
 30
0.0
 10
15.45745249771529
 20
9.37804274513083
 30
0.0
 10
15.28918568069294
 20
9.349998149224245
 30
0.0
 10
15.12091857890372
 20
9.374157813048758
 30
0.0
 10
15.02895560126818
 20
9.432362820800883
 30
0.0
 10
14.98411308601497
 20
9.460744448006148
 30
0.0
  0
SPLINE
  5
A0
330
1F
100
AcDbEntity
  8
외형선
  6
Continuous
 62
     1
370
    15
100
AcDbSpline
210
0.0
220
0.0
230
1.0
 70
     8
 71
     3
 72
     9
 73
     5
 74
     0
 42
0.000000001
 43
0.00000001
 40
0.0
 40
0.0
 40
0.0
 40
0.0
 40
0.4992465918074254
 40
1.0
 40
1.0
 40
1.0
 40
1.0
 10
14.98270352929829
 20
9.462729096412653
 30
0.0
 10
14.95855222601487
 20
9.478914185384879
 30
0.0
 10
14.91017672645265
 20
9.511333212851111
 30
0.0
 10
14.85307749642745
 20
9.51741028587923
 30
0.0
 10
14.82448486238716
 20
9.520453400909895
 30
0.0
  0
LINE
  5
A1
330
1F
100
AcDbEntity
  8
외형선
  6
Continuous
 62
     1
370
    15
100
AcDbLine
 10
14.81436185166238
 20
9.525000117719168
 30
0.0
 11
13.73982794210313
 21
9.525000117719168
 31
0.0
  0
SPLINE
  5
A4
330
1F
100
AcDbEntity
  8
외형선
  6
Continuous
 62
     1
370
    15
100
AcDbSpline
210
0.0
220
0.0
230
1.0
 70
     8
 71
     3
 72
     9
 73
     5
 74
     0
 42
0.000000001
 43
0.00000001
 40
0.0
 40
0.0
 40
0.0
 40
0.0
 40
0.5005583231694686
 40
1.0
 40
1.0
 40
1.0
 40
1.0
 10
13.74338745698331
 20
9.52470581978559
 30
0.0
 10
13.71470049626546
 20
9.522442575730963
 30
0.0
 10
13.65739056974939
 20
9.517921136470306
 30
0.0
 10
13.60884963638937
 20
9.486947477068039
 30
0.0
 10
13.58460627123712
 20
9.471477940678591
 30
0.0
  0
SPLINE
  5
A6
330
1F
100
AcDbEntity
  8
외형선
  6
Continuous
 62
     1
370
    15
100
AcDbSpline
210
0.0
220
0.0
230
1.0
 70
     8
 71
     3
 72
    11
 73
     7
 74
     0
 42
0.000000001
 43
0.00000001
 40
0.0
 40
0.0
 40
0.0
 40
0.0
 40
0.2447025622080189
 40
0.5001279603574051
 40
0.7554939790866111
 40
1.0
 40
1.0
 40
1.0
 40
1.0
 10
13.58179507404564
 20
9.470565244555468
 30
0.0
 10
13.53735668366238
 20
9.441655700414746
 30
0.0
 10
13.44653261813807
 20
9.382569799492833
 30
0.0
 10
13.27858414743511
 20
9.356084778112573
 30
0.0
 10
13.11063490861951
 20
9.382210099151816
 30
0.0
 10
13.01974043224021
 20
9.441078530768019
 30
0.0
 10
12.97528056055306
 20
9.469873271882529
 30
0.0
  0
LINE
  5
A8
330
1F
100
AcDbEntity
  8
외형선
  6
Continuous
 62
     1
370
    15
100
AcDbLine
 10
12.81320551969109
 20
9.525000117719168
 30
0.0
 11
11.73870909586547
 21
9.525000117719168
 31
0.0
  0
SPLINE
  5
A9
330
1F
100
AcDbEntity
  8
외형선
  6
Continuous
 62
     1
370
    15
100
AcDbSpline
210
0.0
220
0.0
230
1.0
 70
     8
 71
     3
 72
     9
 73
     5
 74
     0
 42
0.000000001
 43
0.00000001
 40
0.0
 40
0.0
 40
0.0
 40
0.0
 40
0.4988782963062441
 40
1.0
 40
1.0
 40
1.0
 40
1.0
 10
12.9749890565872
 20
9.470041841268534
 30
0.0
 10
12.95038202074459
 20
9.485935571167772
 30
0.0
 10
12.9010572936021
 20
9.517794503530467
 30
0.0
 10
12.84311950357216
 20
9.522574803388006
 30
0.0
 10
12.81408561952411
 20
9.52497031539678
 30
0.0
  0
SPLINE
  5
AC
330
1F
100
AcDbEntity
  8
외형선
  6
Continuous
 62
     1
370
    15
100
AcDbSpline
210
0.0
220
0.0
230
1.0
 70
     8
 71
     3
 72
     9
 73
     5
 74
     0
 42
0.000000001
 43
0.00000001
 40
0.0
 40
0.0
 40
0.0
 40
0.0
 40
0.500383088020715
 40
1.0
 40
1.0
 40
1.0
 40
1.0
 10
11.74030328728257
 20
9.524980559945101
 30
0.0
 10
11.71072479822751
 20
9.522287225101584
 30
0.0
 10
11.65161311007662
 20
9.516904679392113
 30
0.0
 10
11.60129167361654
 20
9.483274979815745
 30
0.0
 10
11.576150232926
 20
9.466473013162608
 30
0.0
  0
SPLINE
  5
AE
330
1F
100
AcDbEntity
  8
외형선
  6
Continuous
 62
     1
370
    15
100
AcDbSpline
210
0.0
220
0.0
230
1.0
 70
     8
 71
     3
 72
    11
 73
     7
 74
     0
 42
0.000000001
 43
0.00000001
 40
0.0
 40
0.0
 40
0.0
 40
0.0
 40
0.2182158766385481
 40
0.4603484005967504
 40
0.7240809936769982
 40
1.0
 40
1.0
 40
1.0
 40
1.0
 10
11.57632904686032
 20
9.466648101806637
 30
0.0
 10
11.54263403202803
 20
9.444020287170643
 30
0.0
 10
11.47155099982583
 20
9.396284629998755
 30
0.0
 10
11.31810905458777
 20
9.357593982852261
 30
0.0
 10
11.13680404052365
 20
9.370423329677127
 30
0.0
 10
11.03200952636903
 20
9.434667630342828
 30
0.0
 10
10.97842903435229
 20
9.467515163123602
 30
0.0
  0
SPLINE
  5
B0
330
1F
100
AcDbEntity
  8
외형선
  6
Continuous
 62
     1
370
    15
100
AcDbSpline
210
0.0
220
0.0
230
1.0
 70
     8
 71
     3
 72
     9
 73
     5
 74
     0
 42
0.000000001
 43
0.00000001
 40
0.0
 40
0.0
 40
0.0
 40
0.0
 40
0.4987175751028799
 40
1.0
 40
1.0
 40
1.0
 40
1.0
 10
10.97721342556177
 20
9.468542411923403
 30
0.0
 10
10.95236540906437
 20
9.484817338017859
 30
0.0
 10
10.9025415854458
 20
9.517450890366796
 30
0.0
 10
10.84415064443383
 20
9.52247940946965
 30
0.0
 10
10.81488029193132
 20
9.525000117719168
 30
0.0
  0
LINE
  5
B1
330
1F
100
AcDbEntity
  8
외형선
  6
Continuous
370
    15
100
AcDbLine
 10
10.81230425368993
 20
9.525000117719168
 30
0.0
 11
10.00000004749744
 21
9.525000117719168
 31
0.0
  0
SPLINE
  5
B4
330
1F
100
AcDbEntity
  8
외형선
  6
Continuous
 62
     1
370
    15
100
AcDbSpline
210
0.0
220
0.0
230
1.0
 70
     8
 71
     3
 72
    11
 73
     7
 74
     0
 42
0.000000001
 43
0.00000001
 40
0.0
 40
0.0
 40
0.0
 40
0.0
 40
0.2451024631803222
 40
0.4997597604263843
 40
0.7545301293725541
 40
1.0
 40
1.0
 40
1.0
 40
1.0
 10
9.976223149336858
 20
-9.469270706176763
 30
0.0
 10
10.0203760840745
 20
-9.440692399602131
 30
0.0
 10
10.11040316825919
 20
-9.382421717774582
 30
0.0
 10
10.27813864099948
 20
-9.356078549718609
 30
0.0
 10
10.44587197757503
 20
-9.382591732347745
 30
0.0
 10
10.5357773915877
 20
-9.440906751812904
 30
0.0
 10
10.57989433500914
 20
-9.46952216327191
 30
0.0
  0
SPLINE
  5
B5
330
1F
100
AcDbEntity
  8
외형선
  6
Continuous
 62
     1
370
    15
100
AcDbSpline
210
0.0
220
0.0
230
1.0
 70
     8
 71
     3
 72
     9
 73
     5
 74
     0
 42
0.000000001
 43
0.00000001
 40
0.0
 40
0.0
 40
0.0
 40
0.0
 40
0.4995214170433152
 40
1.0
 40
1.0
 40
1.0
 40
1.0
 10
10.57840631436555
 20
-9.468467906117446
 30
0.0
 10
10.60327682197688
 20
-9.484768107270416
 30
0.0
 10
10.65306549321852
 20
-9.517399743466223
 30
0.0
 10
10.7116257990958
 20
-9.522465043524008
 30
0.0
 10
10.74093397799878
 20
-9.525000117719179
 30
0.0
  0
LINE
  5
B6
330
1F
100
AcDbEntity
  8
외형선
  6
Continuous
 62
     1
370
    15
100
AcDbLine
 10
10.73835200257598
 20
-9.525000117719179
 30
0.0
 11
11.8126761317253
 21
-9.525000117719179
 31
0.0
  0
SPLINE
  5
BA
330
1F
100
AcDbEntity
  8
외형선
  6
Continuous
 62
     1
370
    15
100
AcDbSpline
210
0.0
220
0.0
230
1.0
 70
     8
 71
     3
 72
     9
 73
     5
 74
     0
 42
0.000000001
 43
0.00000001
 40
0.0
 40
0.0
 40
0.0
 40
0.0
 40
0.5014659939978505
 40
1.0
 40
1.0
 40
1.0
 40
1.0
 10
11.81291105784474
 20
-9.524815715849405
 30
0.0
 10
11.84251509828794
 20
-9.522544006855933
 30
0.0
 10
11.9015500892894
 20
-9.518013871172432
 30
0.0
 10
11.95206771691708
 20
-9.484980124393443
 30
0.0
 10
11.97725247219203
 20
-9.468511678278453
 30
0.0
  0
SPLINE
  5
BC
330
1F
100
AcDbEntity
  8
외형선
  6
Continuous
 62
     1
370
    15
100
AcDbSpline
210
0.0
220
0.0
230
1.0
 70
     8
 71
     3
 72
    11
 73
     7
 74
     0
 42
0.000000001
 43
0.00000001
 40
0.0
 40
0.0
 40
0.0
 40
0.0
 40
0.2191106761764595
 40
0.4617130643140074
 40
0.7254594422625444
 40
1.0
 40
1.0
 40
1.0
 40
1.0
 10
11.97749484889208
 20
-9.468317963182933
 30
0.0
 10
12.01130189648805
 20
-9.445343049003897
 30
0.0
 10
12.08254057738362
 20
-9.396929990301949
 30
0.0
 10
12.23646857755563
 20
-9.357563088430842
 30
0.0
 10
12.41790118345082
 20
-9.369885844530728
 30
0.0
 10
12.5234928431807
 20
-9.434589848744126
 30
0.0
 10
12.57734737917779
 20
-9.467590600252157
 30
0.0
  0
SPLINE
  5
BF
330
1F
100
AcDbEntity
  8
외형선
  6
Continuous
 62
     1
370
    15
100
AcDbSpline
210
0.0
220
0.0
230
1.0
 70
     8
 71
     3
 72
     9
 73
     5
 74
     0
 42
0.000000001
 43
0.00000001
 40
0.0
 40
0.0
 40
0.0
 40
0.0
 40
0.4994234034909033
 40
0.9999999999999999
 40
0.9999999999999999
 40
0.9999999999999999
 40
0.9999999999999999
 10
12.5793171264231
 20
-9.46913845837117
 30
0.0
 10
12.60377661499691
 20
-9.485102401819326
 30
0.0
 10
12.65275207029763
 20
-9.517067150240345
 30
0.0
 10
12.71048434471589
 20
-9.522276803314883
 30
0.0
 10
12.73938377015291
 20
-9.524884633719926
 30
0.0
  0
LINE
  5
C0
330
1F
100
AcDbEntity
  8
외형선
  6
Continuous
 62
     1
370
    15
100
AcDbLine
 10
12.73922963626681
 20
-9.525000117719179
 30
0.0
 11
13.81380475684999
 21
-9.525000117719179
 31
0.0
  0
SPLINE
  5
C2
330
1F
100
AcDbEntity
  8
외형선
  6
Continuous
 62
     1
370
    15
100
AcDbSpline
210
0.0
220
0.0
230
1.0
 70
     8
 71
     3
 72
     9
 73
     5
 74
     0
 42
0.000000001
 43
0.00000001
 40
0.0
 40
0.0
 40
0.0
 40
0.0
 40
0.5008862296976035
 40
1.0
 40
1.0
 40
1.0
 40
1.0
 10
13.81860153377055
 20
-9.52431838959456
 30
0.0
 10
13.84733627649763
 20
-9.521587683954216
 30
0.0
 10
13.90470407984977
 20
-9.51613593567599
 30
0.0
 10
13.95338891946452
 20
-9.484132208137925
 30
0.0
 10
13.97768819332121
 20
-9.468158707022672
 30
0.0
  0
SPLINE
  5
C4
330
1F
100
AcDbEntity
  8
외형선
  6
Continuous
 62
     1
370
    15
100
AcDbSpline
210
0.0
220
0.0
230
1.0
 70
     8
 71
     3
 72
    11
 73
     7
 74
     0
 42
0.000000001
 43
0.00000001
 40
0.0
 40
0.0
 40
0.0
 40
0.0
 40
0.2440341816919361
 40
0.4999321197453024
 40
0.7558617602244223
 40
1.0
 40
1.0
 40
1.0
 40
1.0
 10
13.97881695628165
 20
-9.467156603932388
 30
0.0
 10
14.02352265679353
 20
-9.438525563002315
 30
0.0
 10
14.11510743178961
 20
-9.379871579025785
 30
0.0
 10
14.28324795525569
 20
-9.35476577733333
 30
0.0
 10
14.45138838249077
 20
-9.382025514188285
 30
0.0
 10
14.54293127888407
 20
-9.44222489389665
 30
0.0
 10
14.58762345463036
 20
-9.47161484509707
 30
0.0
  0
SPLINE
  5
C7
330
1F
100
AcDbEntity
  8
외형선
  6
Continuous
 62
     1
370
    15
100
AcDbSpline
210
0.0
220
0.0
230
1.0
 70
     8
 71
     3
 72
     9
 73
     5
 74
     0
 42
0.000000001
 43
0.00000001
 40
0.0
 40
0.0
 40
0.0
 40
0.0
 40
0.4994789470628218
 40
1.0
 40
1.0
 40
1.0
 40
1.0
 10
14.59092452749608
 20
-9.470752440392976
 30
0.0
 10
14.61504939259843
 20
-9.485825298978613
 30
0.0
 10
14.66334945658353
 20
-9.516002463950768
 30
0.0
 10
14.72043294141195
 20
-9.519868690739774
 30
0.0
 10
14.74900442734359
 20
-9.521803818643098
 30
0.0
  0
LINE
  5
C8
330
1F
100
AcDbEntity
  8
외형선
  6
Continuous
 62
     1
370
    15
100
AcDbLine
 10
14.74039062485097
 20
-9.525000117719179
 30
0.0
 11
15.8147969432175
 21
-9.525000117719179
 31
0.0
  0
SPLINE
  5
CA
330
1F
100
AcDbEntity
  8
외형선
  6
Continuous
 62
     1
370
    15
100
AcDbSpline
210
0.0
220
0.0
230
1.0
 70
     8
 71
     3
 72
     9
 73
     5
 74
     0
 42
0.000000001
 43
0.00000001
 40
0.0
 40
0.0
 40
0.0
 40
0.0
 40
0.5012846133833296
 40
1.0
 40
1.0
 40
1.0
 40
1.0
 10
15.81486213579772
 20
-9.525000117719179
 30
0.0
 10
15.84413604905779
 20
-9.52248108442416
 30
0.0
 10
15.90253383841441
 20
-9.517455928598975
 30
0.0
 10
15.95236515963471
 20
-9.484817102655036
 30
0.0
 10
15.97721680626272
 20
-9.468539617955692
 30
0.0
  0
SPLINE
  5
CC
330
1F
100
AcDbEntity
  8
외형선
  6
Continuous
 62
     1
370
    15
100
AcDbSpline
210
0.0
220
0.0
230
1.0
 70
     8
 71
     3
 72
     9
 73
     5
 74
     0
 42
0.000000001
 43
0.00000001
 40
0.0
 40
0.0
 40
0.0
 40
0.0
 40
0.7822714167764208
 40
1.0
 40
1.0
 40
1.0
 40
1.0
 10
15.97721680626272
 20
-9.46853961795569
 30
0.0
 10
16.03035261440035
 20
-9.429797422386137
 30
0.0
 10
16.09827764271929
 20
-9.380272162049769
 30
0.0
 10
16.18847118894244
 20
-9.379160489491548
 30
0.0
 10
16.20810890197752
 20
-9.378918446600442
 30
0.0
  0
SPLINE
  5
CD
330
1F
100
AcDbEntity
  8
외형선
  6
Continuous
370
    15
100
AcDbSpline
210
0.0
220
0.0
230
1.0
 70
     8
 71
     3
 72
    10
 73
     6
 74
     0
 42
0.000000001
 43
0.00000001
 40
0.0
 40
0.0
 40
0.0
 40
0.0
 40
0.5
 40
0.5
 40
1.0
 40
1.0
 40
1.0
 40
1.0
 10
9.99999999999868
 20
-2.049892404240524
 30
0.0
 10
9.243356966764297
 20
-1.780526280719576
 30
0.0
 10
8.48314794368594
 20
-1.508154158068664
 30
0.0
 10
6.9641939818917
 20
-0.9604648459454762
 30
0.0
 10
6.20793962935072
 20
-0.6854527820716179
 30
0.0
 10
5.450079419723487
 20
-0.409730984736742
 30
0.0
  0
SPLINE
  5
CE
330
1F
100
AcDbEntity
  8
외형선
  6
Continuous
370
    15
100
AcDbSpline
210
0.0
220
0.0
230
1.0
 70
     8
 71
     3
 72
    10
 73
     6
 74
     0
 42
0.000000001
 43
0.00000001
 40
0.0
 40
0.0
 40
0.0
 40
0.0
 40
0.5
 40
0.5
 40
1.0
 40
1.0
 40
1.0
 40
1.0
 10
9.999999999998684
 20
-9.274719304158625
 30
0.0
 10
9.243356966764301
 20
-9.211904048711734
 30
0.0
 10
8.48314794368594
 20
-9.137301590449136
 30
0.0
 10
6.9641939818917
 20
-8.96528036154301
 30
0.0
 10
6.207939629350723
 20
-8.867986602885594
 30
0.0
 10
5.450079419723487
 20
-8.759594737265047
 30
0.0
  0
SPLINE
  5
CF
330
1F
100
AcDbEntity
  8
외형선
  6
Continuous
370
    15
100
AcDbSpline
210
0.0
220
0.0
230
1.0
 70
    24
 71
     3
 72
    17
 73
    13
 74
     0
 42
0.000000001
 43
0.00000001
 40
0.0
 40
0.0
 40
0.0
 40
0.0
 40
0.0742134539935847
 40
0.1823358695058007
 40
0.2904582683202475
 40
0.3985806683537211
 40
0.5067030776233804
 40
0.6148254870616444
 40
0.722947905665978
 40
0.8310703272612315
 40
0.9391927387164631
 40
1.0
 40
1.0
 40
1.0
 40
1.0
 10
10.00000004749744
 20
-2.074134536087519
 30
0.0
 10
10.00000004749744
 20
-2.103430812380218
 30
0.0
 10
10.00000004749744
 20
-2.175409162984586
 30
0.0
 10
10.00000004749744
 20
-2.48646711669237
 30
0.0
 10
10.00000004749744
 20
-2.987797618404395
 30
0.0
 10
10.00000004749744
 20
-3.659629928034371
 30
0.0
 10
10.00000004749744
 20
-4.470236171875276
 30
0.0
 10
10.00000004749744
 20
-5.403704176490107
 30
0.0
 10
10.00000004749744
 20
-6.428793969080097
 30
0.0
 10
10.00000004749744
 20
-7.519349492218635
 30
0.0
 10
10.00000004749744
 20
-8.479933398622792
 30
0.0
 10
10.00000004749744
 20
-9.064353661363919
 30
0.0
 10
10.00000004749744
 20
-9.27471928298474
 30
0.0
  0
SPLINE
  5
D0
330
1F
100
AcDbEntity
  8
외형선
  6
Continuous
370
    15
100
AcDbSpline
210
0.0
220
0.0
230
1.0
 70
     8
 71
     3
 72
    10
 73
     6
 74
     0
 42
0.000000001
 43
0.00000001
 40
0.0
 40
0.0
 40
0.0
 40
0.0
 40
0.5000000000000001
 40
0.5000000000000001
 40
1.0
 40
1.0
 40
1.0
 40
1.0
 10
9.999999999998677
 20
9.30180445564387
 30
0.0
 10
9.243356966764297
 20
9.361166224986409
 30
0.0
 10
8.483147943685937
 20
9.408898327218159
 30
0.0
 10
6.964193981891697
 20
9.480474881361763
 30
0.0
 10
6.207939629350718
 20
9.504311807099317
 30
0.0
 10
5.450079419723485
 20
9.516183348388461
 30
0.0
  0
LINE
  5
D1
330
1F
100
AcDbEntity
  8
외형선
  6
Continuous
370
    15
100
AcDbLine
 10
5.450079372152669
 20
9.516187012195582
 30
0.0
 11
5.450079372152669
 21
3.740942571312183
 31
0.0
  0
SPLINE
  5
D2
330
1F
100
AcDbEntity
  8
외형선
  6
Continuous
370
    15
100
AcDbSpline
210
0.0
220
0.0
230
1.0
 70
     8
 71
     3
 72
    10
 73
     6
 74
     0
 42
0.000000001
 43
0.00000001
 40
0.0
 40
0.0
 40
0.0
 40
0.0
 40
0.5000000000000001
 40
0.5000000000000001
 40
1.0
 40
1.0
 40
1.0
 40
1.0
 10
9.99999999999868
 20
2.169148872028907
 30
0.0
 10
9.243356966764297
 20
2.437730650717048
 30
0.0
 10
8.48314794368594
 20
2.704000063158598
 30
0.0
 10
6.9641939818917
 20
3.228876698685964
 30
0.0
 10
6.207939629350723
 20
3.487205479179066
 30
0.0
 10
5.450079419723485
 20
3.741005885966399
 30
0.0
  0
LINE
  5
D3
330
1F
100
AcDbEntity
  8
외형선
  6
Continuous
370
    15
100
AcDbLine
 10
5.450079372152669
 20
-0.4096532939001978
 30
0.0
 11
5.450079372152669
 21
-8.75962153077126
 31
0.0
  0
LINE
  5
D4
330
1F
100
AcDbEntity
  8
외형선
  6
Continuous
370
    15
100
AcDbLine
 10
-49.32500010728838
 20
9.525000117719168
 30
0.0
 11
-49.32500010728838
 21
-9.525000117719179
 31
0.0
  0
LINE
  5
D5
330
1F
100
AcDbEntity
  8
외형선
  6
Continuous
370
    15
100
AcDbLine
 10
10.00000004749744
 20
2.169148763641709
 30
0.0
 11
10.00000004749744
 21
-2.049892442300922
 31
0.0
  0
LINE
  5
D6
330
1F
100
AcDbEntity
  8
외형선
  6
Continuous
370
    15
100
AcDbLine
 10
10.00000004749744
 20
9.525000117719168
 30
0.0
 11
10.00000004749744
 21
9.301804006099696
 31
0.0
  0
LINE
  5
D7
330
1F
100
AcDbEntity
  8
외형선
  6
Continuous
370
    15
100
AcDbLine
 10
10.00000004749744
 20
-9.274719282984739
 30
0.0
 11
10.00000004749744
 21
-9.525000117719179
 31
0.0
  0
LINE
  5
D8
330
1F
100
AcDbEntity
  8
외형선
  6
Continuous
370
    15
100
AcDbLine
 10
-50.32499840855601
 20
8.524999953806395
 30
0.0
 11
-50.32499840855601
 21
-8.524999953806406
 31
0.0
  0
SPLINE
  5
D9
330
1F
100
AcDbEntity
  8
외형선
  6
Continuous
370
    15
100
AcDbSpline
210
0.0
220
0.0
230
1.0
 70
    24
 71
     3
 72
    17
 73
    13
 74
     0
 42
0.000000001
 43
0.00000001
 40
0.0
 40
0.0
 40
0.0
 40
0.0
 40
0.0921901018879085
 40
0.1843802430416984
 40
0.292901875600572
 40
0.4014234914000237
 40
0.5099451084230032
 40
0.6184667347162708
 40
0.7269883611787658
 40
0.8355099968411738
 40
0.9440316355055451
 40
1.0
 40
1.0
 40
1.0
 40
1.0
 10
10.00000004749744
 20
9.301804006099696
 30
0.0
 10
10.00000004749744
 20
8.983341050368052
 30
0.0
 10
10.00000004749744
 20
8.346415003264084
 30
0.0
 10
10.00000004749744
 20
7.341752924212622
 30
0.0
 10
10.00000004749744
 20
6.317334231032649
 30
0.0
 10
10.00000004749744
 20
5.3081402893197
 30
0.0
 10
10.00000004749744
 20
4.400287825330223
 30
0.0
 10
10.00000004749744
 20
3.615768883112815
 30
0.0
 10
10.00000004749744
 20
2.9792140939873
 30
0.0
 10
10.00000004749744
 20
2.51442799429376
 30
0.0
 10
10.00000004749744
 20
2.247591885544448
 30
0.0
 10
10.00000004749744
 20
2.208504134803156
 30
0.0
 10
10.00000004749744
 20
2.195204375311726
 30
0.0
  0
SPLINE
  5
DA
330
1F
100
AcDbEntity
  8
외형선
  6
Continuous
 62
     1
370
    15
100
AcDbSpline
210
0.0
220
0.0
230
1.0
 70
     8
 71
     3
 72
     8
 73
     4
 74
     0
 42
0.000000001
 43
0.00000001
 40
0.0
 40
0.0
 40
0.0
 40
0.0
 40
1.0
 40
1.0
 40
1.0
 40
1.0
 10
10.31168286451757
 20
-2.160731684522205
 30
0.0
 10
10.25655203771883
 20
-2.14115673515648
 30
0.0
 10
10.20115484537638
 20
-2.119863352434618
 30
0.0
 10
10.15562791619896
 20
-2.101205886785794
 30
0.0
  0
SPLINE
  5
DB
330
1F
100
AcDbEntity
  8
외형선
  6
Continuous
 62
     1
370
    15
100
AcDbSpline
210
0.0
220
0.0
230
1.0
 70
     8
 71
     3
 72
    10
 73
     6
 74
     0
 42
0.000000001
 43
0.00000001
 40
0.0
 40
0.0
 40
0.0
 40
0.0
 40
0.5
 40
0.5
 40
1.0
 40
1.0
 40
1.0
 40
1.0
 10
10.15562791619825
 20
-2.101205886766889
 30
0.0
 10
10.13012134542919
 20
-1.393640312529295
 30
0.0
 10
10.10440249574224
 20
-0.6655010595993573
 30
0.0
 10
10.05453254660976
 20
0.7748770604976861
 30
0.0
 10
10.03039605836048
 20
1.486664212142697
 30
0.0
 10
10.00786210912204
 20
2.164919391907456
 30
0.0
  0
SPLINE
  5
DC
330
1F
100
AcDbEntity
  8
외형선
  6
Continuous
 62
     1
370
    15
100
AcDbSpline
210
0.0
220
0.0
230
1.0
 70
     8
 71
     3
 72
     8
 73
     4
 74
     0
 42
0.000000001
 43
0.00000001
 40
0.0
 40
0.0
 40
0.0
 40
0.0
 40
1.0
 40
1.0
 40
1.0
 40
1.0
 10
10.00796232708179
 20
2.161903001296815
 30
0.0
 10
10.05264921595908
 20
2.148853131357097
 30
0.0
 10
10.10762447532195
 20
2.130928570911465
 30
0.0
 10
10.1644009319212
 20
2.110736071401005
 30
0.0
  0
SPLINE
  5
DD
330
1F
100
AcDbEntity
  8
외형선
  6
Continuous
 62
     1
370
    15
100
AcDbSpline
210
0.0
220
0.0
230
1.0
 70
     8
 71
     3
 72
    10
 73
     6
 74
     0
 42
0.000000001
 43
0.00000001
 40
0.0
 40
0.0
 40
0.0
 40
0.0
 40
0.5
 40
0.5
 40
1.0
 40
1.0
 40
1.0
 40
1.0
 10
10.31168069305413
 20
-2.160671163280405
 30
0.0
 10
10.28631220327767
 20
-1.453621077701626
 30
0.0
 10
10.26071074016712
 20
-0.7254594211805698
 30
0.0
 10
10.21100798339302
 20
0.7165849635176088
 30
0.0
 10
10.18692111946861
 20
1.430020848900944
 30
0.0
 10
10.1643993454882
 20
2.110784024314089
 30
0.0
  0
SPLINE
  5
DE
330
1F
100
AcDbEntity
  8
외형선
  6
Continuous
 62
     1
370
    15
100
AcDbSpline
210
0.0
220
0.0
230
1.0
 70
     8
 71
     3
 72
     8
 73
     4
 74
     0
 42
0.000000001
 43
0.00000001
 40
0.0
 40
0.0
 40
0.0
 40
0.0
 40
1.0
 40
1.0
 40
1.0
 40
1.0
 10
11.55604209309272
 20
-2.592410051002039
 30
0.0
 10
11.51129635778739
 20
-2.581198367787471
 30
0.0
 10
11.45626693370732
 20
-2.56442119626584
 30
0.0
 10
11.39943661697668
 20
-2.544499007662527
 30
0.0
  0
SPLINE
  5
DF
330
1F
100
AcDbEntity
  8
외형선
  6
Continuous
 62
     1
370
    15
100
AcDbSpline
210
0.0
220
0.0
230
1.0
 70
     8
 71
     3
 72
    10
 73
     6
 74
     0
 42
0.000000001
 43
0.00000001
 40
0.0
 40
0.0
 40
0.0
 40
0.0
 40
0.5
 40
0.5
 40
1.0
 40
1.0
 40
1.0
 40
1.0
 10
11.39940904618792
 20
-2.543736293414694
 30
0.0
 10
11.37424535267499
 20
-1.847606328608966
 30
0.0
 10
11.34866883623217
 20
-1.125536580917588
 30
0.0
 10
11.29865220136653
 20
0.3149167791069722
 30
0.0
 10
11.27422731124058
 20
1.032840573263496
 30
0.0
 10
11.25122747161499
 20
1.722559060579569
 30
0.0
  0
SPLINE
  5
E0
330
1F
100
AcDbEntity
  8
외형선
  6
Continuous
 62
     1
370
    15
100
AcDbSpline
210
0.0
220
0.0
230
1.0
 70
     8
 71
     3
 72
     8
 73
     4
 74
     0
 42
0.000000001
 43
0.00000001
 40
0.0
 40
0.0
 40
0.0
 40
0.0
 40
1.0
 40
1.0
 40
1.0
 40
1.0
 10
11.25121228360994
 20
1.723014520119405
 30
0.0
 10
11.30630982725746
 20
1.703298189035047
 30
0.0
 10
11.36167204219583
 20
1.682722027409773
 30
0.0
 10
11.40715779846149
 20
1.665646819315389
 30
0.0
  0
SPLINE
  5
E1
330
1F
100
AcDbEntity
  8
외형선
  6
Continuous
 62
     1
370
    15
100
AcDbSpline
210
0.0
220
0.0
230
1.0
 70
     8
 71
     3
 72
    10
 73
     6
 74
     0
 42
0.000000001
 43
0.00000001
 40
0.0
 40
0.0
 40
0.0
 40
0.0
 40
0.5
 40
0.5
 40
1.0
 40
1.0
 40
1.0
 40
1.0
 10
11.55604209304112
 20
-2.592410049583307
 30
0.0
 10
11.53081154784844
 20
-1.89920631074818
 30
0.0
 10
11.50513504819608
 20
-1.179203556949203
 30
0.0
 10
11.45487484040759
 20
0.2586342800874535
 30
0.0
 10
11.43030677172097
 20
0.9760013915866005
 30
0.0
 10
11.40715779846185
 20
1.665646819315052
 30
0.0
  0
SPLINE
  5
E2
330
1F
100
AcDbEntity
  8
외형선
  6
Continuous
 62
     1
370
    15
100
AcDbSpline
210
0.0
220
0.0
230
1.0
 70
     8
 71
     3
 72
     8
 73
     4
 74
     0
 42
0.000000001
 43
0.00000001
 40
0.0
 40
0.0
 40
0.0
 40
0.0
 40
1.0
 40
1.0
 40
1.0
 40
1.0
 10
50.2973918926454
 20
-1.760901827226899
 30
0.0
 10
50.24226063266685
 20
-1.74118515060408
 30
0.0
 10
50.18686196932344
 20
-1.720534852207608
 30
0.0
 10
50.14133904265388
 20
-1.703311055293926
 30
0.0
  0
SPLINE
  5
E4
330
1F
100
AcDbEntity
  8
외형선
  6
Continuous
 62
     1
370
    15
100
AcDbSpline
210
0.0
220
0.0
230
1.0
 70
     8
 71
     3
 72
     8
 73
     4
 74
     0
 42
0.000000001
 43
0.00000001
 40
0.0
 40
0.0
 40
0.0
 40
0.0
 40
1.0
 40
1.0
 40
1.0
 40
1.0
 10
49.99496568394056
 20
2.554707876708799
 30
0.0
 10
50.0396338757069
 20
2.543359260125731
 30
0.0
 10
50.09459576346262
 20
2.526504015939415
 30
0.0
 10
50.15135962824066
 20
2.506579759154683
 30
0.0
  0
SPLINE
  5
E6
330
1F
100
AcDbEntity
  8
외형선
  6
Continuous
 62
     1
370
    15
100
AcDbSpline
210
0.0
220
0.0
230
1.0
 70
     8
 71
     3
 72
     8
 73
     4
 74
     0
 42
0.000000001
 43
0.00000001
 40
0.0
 40
0.0
 40
0.0
 40
0.0
 40
1.0
 40
1.0
 40
1.0
 40
1.0
 10
49.51600209036594
 20
-1.480370212754423
 30
0.0
 10
49.47125329139115
 20
-1.464551663169798
 30
0.0
 10
49.4162208449128
 20
-1.444991932868168
 30
0.0
 10
49.35938652861391
 20
-1.424559326705916
 30
0.0
  0
SPLINE
  5
E8
330
1F
100
AcDbEntity
  8
외형선
  6
Continuous
 62
     1
370
    15
100
AcDbSpline
210
0.0
220
0.0
230
1.0
 70
     8
 71
     3
 72
     8
 73
     4
 74
     0
 42
0.000000001
 43
0.00000001
 40
0.0
 40
0.0
 40
0.0
 40
0.0
 40
1.0
 40
1.0
 40
1.0
 40
1.0
 10
49.21460358542107
 20
2.83357123364165
 30
0.0
 10
49.26967586635747
 20
2.814453740850611
 30
0.0
 10
49.32500933381134
 20
2.792306372548892
 30
0.0
 10
49.37046467732394
 20
2.77142672713471
 30
0.0
  0
SPLINE
  5
EA
330
1F
100
AcDbEntity
  8
외형선
  6
Continuous
 62
     1
370
    15
100
AcDbSpline
210
0.0
220
0.0
230
1.0
 70
     8
 71
     3
 72
     8
 73
     4
 74
     0
 42
0.000000001
 43
0.00000001
 40
0.0
 40
0.0
 40
0.0
 40
0.0
 40
1.0
 40
1.0
 40
1.0
 40
1.0
 10
12.33736187142852
 20
-2.871477753817512
 30
0.0
 10
12.28223394100967
 20
-2.852365800193347
 30
0.0
 10
12.22684068548264
 20
-2.83015053988341
 30
0.0
 10
12.18132481570776
 20
-2.80912040450648
 30
0.0
  0
SPLINE
  5
EB
330
1F
100
AcDbEntity
  8
외형선
  6
Continuous
 62
     1
370
    15
100
AcDbSpline
210
0.0
220
0.0
230
1.0
 70
     8
 71
     3
 72
    10
 73
     6
 74
     0
 42
0.000000001
 43
0.00000001
 40
0.0
 40
0.0
 40
0.0
 40
0.0
 40
0.5
 40
0.5
 40
1.0
 40
1.0
 40
1.0
 40
1.0
 10
12.1813248157076
 20
-2.809120404503859
 30
0.0
 10
12.15623138591369
 20
-2.122678702883576
 30
0.0
 10
12.13059006721458
 20
-1.406740991991211
 30
0.0
 10
12.08018838339016
 20
0.0290533545821283
 30
0.0
 10
12.05544401796431
 20
0.7484376226199215
 30
0.0
 10
12.0320347736034
 20
1.442737744411314
 30
0.0
  0
SPLINE
  5
EC
330
1F
100
AcDbEntity
  8
외형선
  6
Continuous
 62
     1
370
    15
100
AcDbSpline
210
0.0
220
0.0
230
1.0
 70
     8
 71
     3
 72
     8
 73
     4
 74
     0
 42
0.000000001
 43
0.00000001
 40
0.0
 40
0.0
 40
0.0
 40
0.0
 40
1.0
 40
1.0
 40
1.0
 40
1.0
 10
12.0320347735981
 20
1.442737744568312
 30
0.0
 10
12.07673969254157
 20
1.426784967310478
 30
0.0
 10
12.13173427612775
 20
1.407150974564463
 30
0.0
 10
12.18853113600346
 20
1.386719866297944
 30
0.0
  0
SPLINE
  5
ED
330
1F
100
AcDbEntity
  8
외형선
  6
Continuous
 62
     1
370
    15
100
AcDbSpline
210
0.0
220
0.0
230
1.0
 70
     8
 71
     3
 72
    10
 73
     6
 74
     0
 42
0.000000001
 43
0.00000001
 40
0.0
 40
0.0
 40
0.0
 40
0.0
 40
0.5000000000000001
 40
0.5000000000000001
 40
1.0
 40
1.0
 40
1.0
 40
1.0
 10
12.33736055855679
 20
-2.871441671315697
 30
0.0
 10
12.31239342194916
 20
-2.185253489789889
 30
0.0
 10
12.2868610641407
 20
-1.469060033634978
 30
0.0
 10
12.23661803717165
 20
-0.0312483047469271
 30
0.0
 10
12.21192314938664
 20
0.6899029580091945
 30
0.0
 10
12.18852918551919
 20
1.386777968592824
 30
0.0
  0
SPLINE
  5
EE
330
1F
100
AcDbEntity
  8
외형선
  6
Continuous
 62
     1
370
    15
100
AcDbSpline
210
0.0
220
0.0
230
1.0
 70
     8
 71
     3
 72
    10
 73
     6
 74
     0
 42
0.000000001
 43
0.00000001
 40
0.0
 40
0.0
 40
0.0
 40
0.0
 40
0.5
 40
0.5
 40
1.0
 40
1.0
 40
1.0
 40
1.0
 10
50.14133904265388
 20
-1.703311055293926
 30
0.0
 10
50.0486808809766
 20
-1.668253437608021
 30
0.0
 10
49.93617316114191
 20
-1.628903460233402
 30
0.0
 10
49.71151856312216
 20
-1.549736207711774
 30
0.0
 10
49.60433863661277
 20
-1.511596884060602
 30
0.0
 10
49.5160020903663
 20
-1.480370212754378
 30
0.0
  0
SPLINE
  5
EF
330
1F
100
AcDbEntity
  8
외형선
  6
Continuous
 62
     1
370
    15
100
AcDbSpline
210
0.0
220
0.0
230
1.0
 70
     8
 71
     3
 72
    10
 73
     6
 74
     0
 42
0.000000001
 43
0.00000001
 40
0.0
 40
0.0
 40
0.0
 40
0.0
 40
0.5
 40
0.5
 40
1.0
 40
1.0
 40
1.0
 40
1.0
 10
49.37046467732394
 20
2.771426727134707
 30
0.0
 10
49.46298578222549
 20
2.728927700301098
 30
0.0
 10
49.57535999877361
 20
2.686513501140473
 30
0.0
 10
49.79974838141328
 20
2.609837956611496
 30
0.0
 10
49.90678848281728
 20
2.577110602392006
 30
0.0
 10
49.99496568394022
 20
2.554707876708718
 30
0.0
  0
SPLINE
  5
F0
330
1F
100
AcDbEntity
  8
외형선
  6
Continuous
 62
     1
370
    15
100
AcDbSpline
210
0.0
220
0.0
230
1.0
 70
     8
 71
     3
 72
    10
 73
     6
 74
     0
 42
0.000000001
 43
0.00000001
 40
0.0
 40
0.0
 40
0.0
 40
0.0
 40
0.5
 40
0.5
 40
1.0
 40
1.0
 40
1.0
 40
1.0
 10
12.18132481570767
 20
-2.809120404506361
 30
0.0
 10
12.08867441634661
 20
-2.766312248781187
 30
0.0
 10
11.97616957995256
 20
-2.723758260642628
 30
0.0
 10
11.7515336763736
 20
-2.647109763982328
 30
0.0
 10
11.64436583111042
 20
-2.614540825347913
 30
0.0
 10
11.55604209309273
 20
-2.592410051002076
 30
0.0
  0
SPLINE
  5
F1
330
1F
100
AcDbEntity
  8
외형선
  6
Continuous
 62
     1
370
    15
100
AcDbSpline
210
0.0
220
0.0
230
1.0
 70
     8
 71
     3
 72
    10
 73
     6
 74
     0
 42
0.000000001
 43
0.00000001
 40
0.0
 40
0.0
 40
0.0
 40
0.0
 40
0.5
 40
0.5
 40
1.0
 40
1.0
 40
1.0
 40
1.0
 10
11.40715779846186
 20
1.665646819315199
 30
0.0
 10
11.49973892558049
 20
1.630892158934699
 30
0.0
 10
11.61217058231271
 20
1.59169094274292
 30
0.0
 10
11.83667914350249
 20
1.512517875374747
 30
0.0
 10
11.94378372810323
 20
1.474229788504855
 30
0.0
 10
12.03203477359807
 20
1.442737744568242
 30
0.0
  0
SPLINE
  5
F2
330
1F
100
AcDbEntity
  8
외형선
  6
Continuous
 62
     1
370
    15
100
AcDbSpline
210
0.0
220
0.0
230
1.0
 70
     8
 71
     3
 72
     8
 73
     4
 74
     0
 42
0.000000001
 43
0.00000001
 40
0.0
 40
0.0
 40
0.0
 40
0.0
 40
1.0
 40
1.0
 40
1.0
 40
1.0
 10
10.1556279161989
 20
-2.10120588678571
 30
0.0
 10
10.10807325134963
 20
-2.081717431449554
 30
0.0
 10
10.05604357226408
 20
-2.06184609951327
 30
0.0
 10
9.999999999998517
 20
-2.041220201278013
 30
0.0
  0
SPLINE
  5
F3
330
1F
100
AcDbEntity
  8
외형선
  6
Continuous
370
    15
100
AcDbSpline
210
0.0
220
0.0
230
1.0
 70
    24
 71
     3
 72
    14
 73
    10
 74
     0
 42
0.000000001
 43
0.00000001
 40
0.0
 40
0.0
 40
0.0
 40
0.0
 40
0.25
 40
0.25
 40
0.5
 40
0.5
 40
0.75
 40
0.75
 40
1.0
 40
1.0
 40
1.0
 40
1.0
 10
9.99999999999998
 20
2.164238759655477
 30
0.0
 10
9.99999999999998
 20
1.816134692330113
 30
0.0
 10
9.99999999999998
 20
1.463141728054169
 30
0.0
 10
9.99999999999998
 20
0.7579498901275289
 30
0.0
 10
9.999999999999984
 20
0.4061365327229471
 30
0.0
 10
9.999999999999984
 20
-0.295963782922409
 30
0.0
 10
9.999999999999426
 20
-0.6462506822304264
 30
0.0
 10
9.999999999999426
 20
-1.345281502856089
 30
0.0
 10
9.99999999999998
 20
-1.695825351160249
 30
0.0
 10
9.99999999999998
 20
-2.041220201278483
 30
0.0
  0
SPLINE
  5
F4
330
1F
100
AcDbEntity
  8
외형선
  6
Continuous
 62
     1
370
    15
100
AcDbSpline
210
0.0
220
0.0
230
1.0
 70
     8
 71
     3
 72
     8
 73
     4
 74
     0
 42
0.000000001
 43
0.00000001
 40
0.0
 40
0.0
 40
0.0
 40
0.0
 40
1.0
 40
1.0
 40
1.0
 40
1.0
 10
13.58156037405112
 20
-3.288576300912986
 30
0.0
 10
13.53682340892404
 20
-3.28040568355128
 30
0.0
 10
13.48180235324689
 20
-3.265539101879419
 30
0.0
 10
13.4249777989925
 20
-3.24609428054096
 30
0.0
  0
SPLINE
  5
F5
330
1F
100
AcDbEntity
  8
외형선
  6
Continuous
 62
     1
370
    15
100
AcDbSpline
210
0.0
220
0.0
230
1.0
 70
     8
 71
     3
 72
    10
 73
     6
 74
     0
 42
0.000000001
 43
0.00000001
 40
0.0
 40
0.0
 40
0.0
 40
0.0
 40
0.5
 40
0.5
 40
1.0
 40
1.0
 40
1.0
 40
1.0
 10
13.42493679062989
 20
-3.244975860233382
 30
0.0
 10
13.40025167985071
 20
-2.57173140475221
 30
0.0
 10
13.37483073674715
 20
-1.864000049691816
 30
0.0
 10
13.32444294259679
 20
-0.4326093565584462
 30
0.0
 10
13.29949225247649
 20
0.2905822870583713
 30
0.0
 10
13.27569039441979
 20
0.9942321064721459
 30
0.0
  0
SPLINE
  5
F6
330
1F
100
AcDbEntity
  8
외형선
  6
Continuous
 62
     1
370
    15
100
AcDbSpline
210
0.0
220
0.0
230
1.0
 70
     8
 71
     3
 72
     8
 73
     4
 74
     0
 42
0.000000001
 43
0.00000001
 40
0.0
 40
0.0
 40
0.0
 40
0.0
 40
1.0
 40
1.0
 40
1.0
 40
1.0
 10
13.27568257858936
 20
0.9944631649196806
 30
0.0
 10
13.33079429227577
 20
0.9745181637624253
 30
0.0
 10
13.38616993584647
 20
0.9551108290136653
 30
0.0
 10
13.43167016813699
 20
0.9406145157452507
 30
0.0
  0
SPLINE
  5
F7
330
1F
100
AcDbEntity
  8
외형선
  6
Continuous
 62
     1
370
    15
100
AcDbSpline
210
0.0
220
0.0
230
1.0
 70
     8
 71
     3
 72
    10
 73
     6
 74
     0
 42
0.000000001
 43
0.00000001
 40
0.0
 40
0.0
 40
0.0
 40
0.0
 40
0.5
 40
0.5
 40
1.0
 40
1.0
 40
1.0
 40
1.0
 10
13.58156037395697
 20
-3.288576298362097
 30
0.0
 10
13.5568233308159
 20
-2.618567770075936
 30
0.0
 10
13.53131591347181
 20
-1.913240378171229
 30
0.0
 10
13.4807049656769
 20
-0.4850866454240215
 30
0.0
 10
13.45561796853276
 20
0.237265417291965
 30
0.0
 10
13.43167016813734
 20
0.9406145157453288
 30
0.0
  0
SPLINE
  5
F8
330
1F
100
AcDbEntity
  8
외형선
  6
Continuous
 62
     1
370
    15
100
AcDbSpline
210
0.0
220
0.0
230
1.0
 70
     8
 71
     3
 72
     8
 73
     4
 74
     0
 42
0.000000001
 43
0.00000001
 40
0.0
 40
0.0
 40
0.0
 40
0.0
 40
1.0
 40
1.0
 40
1.0
 40
1.0
 10
48.27162497035795
 20
-1.032311184682089
 30
0.0
 10
48.21649365210204
 20
-1.01237066352917
 30
0.0
 10
48.16109702155482
 20
-0.9928948204266032
 30
0.0
 10
48.1155760314626
 20
-0.9782579156435568
 30
0.0
  0
SPLINE
  5
FA
330
1F
100
AcDbEntity
  8
외형선
  6
Continuous
 62
     1
370
    15
100
AcDbSpline
210
0.0
220
0.0
230
1.0
 70
     8
 71
     3
 72
     8
 73
     4
 74
     0
 42
0.000000001
 43
0.00000001
 40
0.0
 40
0.0
 40
0.0
 40
0.0
 40
1.0
 40
1.0
 40
1.0
 40
1.0
 10
47.97220955785031
 20
3.250838535922334
 30
0.0
 10
48.01684769621595
 20
3.242534273495626
 30
0.0
 10
48.07178242749557
 20
3.227594679172909
 30
0.0
 10
48.12852230146644
 20
3.208152816942041
 30
0.0
  0
SPLINE
  5
FC
330
1F
100
AcDbEntity
  8
외형선
  6
Continuous
 62
     1
370
    15
100
AcDbSpline
210
0.0
220
0.0
230
1.0
 70
     8
 71
     3
 72
     8
 73
     4
 74
     0
 42
0.000000001
 43
0.00000001
 40
0.0
 40
0.0
 40
0.0
 40
0.0
 40
1.0
 40
1.0
 40
1.0
 40
1.0
 10
14.36278388311065
 20
-3.56517144560563
 30
0.0
 10
14.30766448834048
 20
-3.546534229862988
 30
0.0
 10
14.25227926904528
 20
-3.523413869317058
 30
0.0
 10
14.20676332047394
 20
-3.50003963570657
 30
0.0
  0
SPLINE
  5
FD
330
1F
100
AcDbEntity
  8
외형선
  6
Continuous
 62
     1
370
    15
100
AcDbSpline
210
0.0
220
0.0
230
1.0
 70
     8
 71
     3
 72
    10
 73
     6
 74
     0
 42
0.000000001
 43
0.00000001
 40
0.0
 40
0.0
 40
0.0
 40
0.0
 40
0.5000000000000001
 40
0.5000000000000001
 40
1.0
 40
1.0
 40
1.0
 40
1.0
 10
14.20676330945907
 20
-3.50003933871664
 30
0.0
 10
14.18220735310161
 20
-2.837942705781117
 30
0.0
 10
14.15678431071468
 20
-2.138024962696585
 30
0.0
 10
14.10612807622166
 20
-0.7146543547877926
 30
0.0
 10
14.08091153246379
 20
0.0083269178847472
 30
0.0
 10
14.05674321168311
 20
0.7150974024410578
 30
0.0
  0
SPLINE
  5
FE
330
1F
100
AcDbEntity
  8
외형선
  6
Continuous
 62
     1
370
    15
100
AcDbSpline
210
0.0
220
0.0
230
1.0
 70
     8
 71
     3
 72
     8
 73
     4
 74
     0
 42
0.000000001
 43
0.00000001
 40
0.0
 40
0.0
 40
0.0
 40
0.0
 40
1.0
 40
1.0
 40
1.0
 40
1.0
 10
14.05674321167624
 20
0.7150974026435281
 30
0.0
 10
14.10147140899777
 20
0.6962553476976371
 30
0.0
 10
14.15648283428535
 20
0.6749236905319771
 30
0.0
 10
14.21329482114022
 20
0.6542561262619155
 30
0.0
  0
SPLINE
  5
FF
330
1F
100
AcDbEntity
  8
외형선
  6
Continuous
 62
     1
370
    15
100
AcDbSpline
210
0.0
220
0.0
230
1.0
 70
     8
 71
     3
 72
    10
 73
     6
 74
     0
 42
0.000000001
 43
0.00000001
 40
0.0
 40
0.0
 40
0.0
 40
0.0
 40
0.5
 40
0.5
 40
1.0
 40
1.0
 40
1.0
 40
1.0
 10
14.36277894718127
 20
-3.565037741033328
 30
0.0
 10
14.33835596720982
 20
-2.903466520497426
 30
0.0
 10
14.31305215492451
 20
-2.203623891367276
 30
0.0
 10
14.26258004240325
 20
-0.7789563067659705
 30
0.0
 10
14.23742809900903
 20
-0.0545958300842765
 30
0.0
 10
14.21329033516662
 20
0.6543878898462786
 30
0.0
  0
SPLINE
  5
100
330
1F
100
AcDbEntity
  8
외형선
  6
Continuous
 62
     1
370
    15
100
AcDbSpline
210
0.0
220
0.0
230
1.0
 70
     8
 71
     3
 72
    17
 73
    13
 74
     0
 42
0.000000001
 43
0.00000001
 40
0.0
 40
0.0
 40
0.0
 40
0.0
 40
0.0000451207917106
 40
0.0000451207917106
 40
0.0000451207917106
 40
0.0000902371274598
 40
0.0000902371274598
 40
0.0000902371274598
 40
0.0001347538561577
 40
0.0001347538561577
 40
0.0001347538561577
 40
0.0001803525096868
 40
0.0001803525096868
 40
0.0001803525096868
 40
0.0001803525096868
 10
47.49025710619678
 20
-0.7527835031470393
 30
0.0
 10
47.47912828265677
 20
-0.748132626373619
 30
0.0
 10
47.46728018092058
 20
-0.7432950763096382
 30
0.0
 10
47.45493494323698
 20
-0.7383519752075092
 30
0.0
 10
47.44259048639542
 20
-0.7334091867588323
 30
0.0
 10
47.42967601457
 20
-0.7283315843190825
 30
0.0
 10
47.4164207414612
 20
-0.7232045094090936
 30
0.0
 10
47.4033407205767
 20
-0.7181452212036675
 30
0.0
 10
47.3898534894166
 20
-0.7130085858181529
 30
0.0
 10
47.37618791665042
 20
-0.7078819287337496
 30
0.0
 10
47.36219296860973
 20
-0.702631706094258
 30
0.0
 10
47.34792641003074
 20
-0.6973602447716005
 30
0.0
 10
47.33364743146459
 20
-0.6921687178984333
 30
0.0
  0
SPLINE
  5
102
330
1F
100
AcDbEntity
  8
외형선
  6
Continuous
 62
     1
370
    15
100
AcDbSpline
210
0.0
220
0.0
230
1.0
 70
     8
 71
     3
 72
     8
 73
     4
 74
     0
 42
0.000000001
 43
0.00000001
 40
0.0
 40
0.0
 40
0.0
 40
0.0
 40
1.0
 40
1.0
 40
1.0
 40
1.0
 10
47.19203928873895
 20
3.527220348119334
 30
0.0
 10
47.24710230373276
 20
3.508567012798976
 30
0.0
 10
47.30243122097399
 20
3.485514155555478
 30
0.0
 10
47.34788770208749
 20
3.462291966181832
 30
0.0
  0
SPLINE
  5
104
330
1F
100
AcDbEntity
  8
외형선
  6
Continuous
 62
     1
370
    15
100
AcDbSpline
210
0.0
220
0.0
230
1.0
 70
     8
 71
     3
 72
    10
 73
     6
 74
     0
 42
0.000000001
 43
0.00000001
 40
0.0
 40
0.0
 40
0.0
 40
0.0
 40
0.5
 40
0.5
 40
1.0
 40
1.0
 40
1.0
 40
1.0
 10
14.20676332047393
 20
-3.500039635706644
 30
0.0
 10
14.11412260029558
 20
-3.452464974444802
 30
0.0
 10
14.00164245625539
 20
-3.408076815482902
 30
0.0
 10
13.77703378429744
 20
-3.333486171111868
 30
0.0
 10
13.66987661607544
 20
-3.304706099131402
 30
0.0
 10
13.58156037405114
 20
-3.28857630091299
 30
0.0
  0
SPLINE
  5
105
330
1F
100
AcDbEntity
  8
외형선
  6
Continuous
 62
     1
370
    15
100
AcDbSpline
210
0.0
220
0.0
230
1.0
 70
     8
 71
     3
 72
    10
 73
     6
 74
     0
 42
0.000000001
 43
0.00000001
 40
0.0
 40
0.0
 40
0.0
 40
0.0
 40
0.5
 40
0.5
 40
1.0
 40
1.0
 40
1.0
 40
1.0
 10
13.43167016813736
 20
0.9406145157450839
 30
0.0
 10
13.52429563262086
 20
0.9111041664086043
 30
0.0
 10
13.63677357326915
 20
0.874234723357107
 30
0.0
 10
13.86133671968952
 20
0.793942162516268
 30
0.0
 10
13.96846199621432
 20
0.752286460375288
 30
0.0
 10
14.05674321167619
 20
0.7150974026436482
 30
0.0
  0
SPLINE
  5
106
330
1F
100
AcDbEntity
  8
외형선
  6
Continuous
 62
     1
370
    15
100
AcDbSpline
210
0.0
220
0.0
230
1.0
 70
     8
 71
     3
 72
    10
 73
     6
 74
     0
 42
0.000000001
 43
0.00000001
 40
0.0
 40
0.0
 40
0.0
 40
0.0
 40
0.5
 40
0.5
 40
1.0
 40
1.0
 40
1.0
 40
1.0
 10
48.11557603146257
 20
-0.9782579156435489
 30
0.0
 10
48.02291017734246
 20
-0.9484619625975248
 30
0.0
 10
47.91039266320303
 20
-0.9114571915924464
 30
0.0
 10
47.68574995506363
 20
-0.8311929795075906
 30
0.0
 10
47.57858316066625
 20
-0.7896960836854253
 30
0.0
 10
47.49025710619716
 20
-0.7527835031470231
 30
0.0
  0
SPLINE
  5
107
330
1F
100
AcDbEntity
  8
외형선
  6
Continuous
 62
     1
370
    15
100
AcDbSpline
210
0.0
220
0.0
230
1.0
 70
     8
 71
     3
 72
    10
 73
     6
 74
     0
 42
0.000000001
 43
0.00000001
 40
0.0
 40
0.0
 40
0.0
 40
0.0
 40
0.5
 40
0.5
 40
1.0
 40
1.0
 40
1.0
 40
1.0
 10
47.3478877020877
 20
3.462291966181728
 30
0.0
 10
47.44038465386306
 20
3.415038380378389
 30
0.0
 10
47.55271323765058
 20
3.370793117775789
 30
0.0
 10
47.77704830928993
 20
3.296175085886504
 30
0.0
 10
47.88406483148208
 20
3.267236552642581
 30
0.0
 10
47.97220955784996
 20
3.250838535922236
 30
0.0
  0
SPLINE
  5
108
330
1F
100
AcDbEntity
  8
외형선
  6
Continuous
 62
     1
370
    15
100
AcDbSpline
210
0.0
220
0.0
230
1.0
 70
     8
 71
     3
 72
     8
 73
     4
 74
     0
 42
0.000000001
 43
0.00000001
 40
0.0
 40
0.0
 40
0.0
 40
0.0
 40
1.0
 40
1.0
 40
1.0
 40
1.0
 10
50.63060728655699
 20
-1.879958635520227
 30
0.0
 10
50.51945740087205
 20
-1.840282354743253
 30
0.0
 10
50.40825020776507
 20
-1.800548343155118
 30
0.0
 10
50.29699922532056
 20
-1.76076139685762
 30
0.0
  0
SPLINE
  5
11D
330
1F
100
AcDbEntity
  8
외형선
  6
Continuous
 62
     1
370
    15
100
AcDbSpline
210
0.0
220
0.0
230
1.0
 70
     8
 71
     3
 72
     8
 73
     4
 74
     0
 42
0.000000001
 43
0.00000001
 40
0.0
 40
0.0
 40
0.0
 40
0.0
 40
1.0
 40
1.0
 40
1.0
 40
1.0
 10
43.64580377471222
 20
-8.290346989110363
 30
0.0
 10
43.28337590148655
 20
-8.22536037654204
 30
0.0
 10
42.92209265097166
 20
-8.158057327106855
 30
0.0
 10
42.55978313862327
 20
-8.088362298152244
 30
0.0
  0
SPLINE
  5
11E
330
1F
100
AcDbEntity
  8
외형선
  6
Continuous
 62
     1
370
    15
100
AcDbSpline
210
0.0
220
0.0
230
1.0
 70
     8
 71
     3
 72
     8
 73
     4
 74
     0
 42
0.000000001
 43
0.00000001
 40
0.0
 40
0.0
 40
0.0
 40
0.0
 40
1.0
 40
1.0
 40
1.0
 40
1.0
 10
42.40172450134087
 20
-8.008471892621735
 30
0.0
 10
42.44645779158724
 20
-8.049142253649698
 30
0.0
 10
42.50147496714221
 20
-8.077144972760136
 30
0.0
 10
42.55829276165006
 20
-8.088075591773643
 30
0.0
  0
SPLINE
  5
11F
330
1F
100
AcDbEntity
  8
외형선
  6
Continuous
 62
     1
370
    15
100
AcDbSpline
210
0.0
220
0.0
230
1.0
 70
     8
 71
     3
 72
    10
 73
     6
 74
     0
 42
0.000000001
 43
0.00000001
 40
0.0
 40
0.0
 40
0.0
 40
0.0
 40
0.5
 40
0.5
 40
1.0
 40
1.0
 40
1.0
 40
1.0
 10
41.77658788896066
 20
-7.885406662135133
 30
0.0
 10
41.86921917076708
 20
-7.837818926535107
 30
0.0
 10
41.98170462946783
 20
-7.826532459455547
 30
0.0
 10
42.2062908267536
 20
-7.872585969841218
 30
0.0
 10
42.31343013404669
 20
-7.928196916763394
 30
0.0
 10
42.40172450134086
 20
-8.00847189262172
 30
0.0
  0
SPLINE
  5
120
330
1F
100
AcDbEntity
  8
외형선
  6
Continuous
 62
     1
370
    15
100
AcDbSpline
210
0.0
220
0.0
230
1.0
 70
     8
 71
     3
 72
     8
 73
     4
 74
     0
 42
0.000000001
 43
0.00000001
 40
0.0
 40
0.0
 40
0.0
 40
0.0
 40
1.0
 40
1.0
 40
1.0
 40
1.0
 10
41.62058553422801
 20
-7.902681351491481
 30
0.0
 10
41.67570245511211
 20
-7.913871858105838
 30
0.0
 10
41.73108350955833
 20
-7.908783758224035
 30
0.0
 10
41.77658788896031
 20
-7.885406662135274
 30
0.0
  0
SPLINE
  5
121
330
1F
100
AcDbEntity
  8
외형선
  6
Continuous
 62
     1
370
    15
100
AcDbSpline
210
0.0
220
0.0
230
1.0
 70
     8
 71
     3
 72
     8
 73
     4
 74
     0
 42
0.000000001
 43
0.00000001
 40
0.0
 40
0.0
 40
0.0
 40
0.0
 40
1.0
 40
1.0
 40
1.0
 40
1.0
 10
41.62079716810185
 20
-7.902724319714792
 30
0.0
 10
41.25842519786334
 20
-7.82915203118795
 30
0.0
 10
40.89578497467444
 20
-7.753291114099242
 30
0.0
 10
40.53334501502247
 20
-7.675239159022214
 30
0.0
  0
SPLINE
  5
122
330
1F
100
AcDbEntity
  8
외형선
  6
Continuous
 62
     1
370
    15
100
AcDbSpline
210
0.0
220
0.0
230
1.0
 70
     8
 71
     3
 72
     8
 73
     4
 74
     0
 42
0.000000001
 43
0.00000001
 40
0.0
 40
0.0
 40
0.0
 40
0.0
 40
1.0
 40
1.0
 40
1.0
 40
1.0
 10
40.37677494112951
 20
-7.59386612069776
 30
0.0
 10
40.42148909934696
 20
-7.634376965065633
 30
0.0
 10
40.47649149997385
 20
-7.662995643398393
 30
0.0
 10
40.53329657888131
 20
-7.675228728219816
 30
0.0
  0
SPLINE
  5
123
330
1F
100
AcDbEntity
  8
외형선
  6
Continuous
 62
     1
370
    15
100
AcDbSpline
210
0.0
220
0.0
230
1.0
 70
     8
 71
     3
 72
    10
 73
     6
 74
     0
 42
0.000000001
 43
0.00000001
 40
0.0
 40
0.0
 40
0.0
 40
0.0
 40
0.5
 40
0.5
 40
1.0
 40
1.0
 40
1.0
 40
1.0
 10
39.75180314994007
 20
-7.456574562302566
 30
0.0
 10
39.84440096430492
 20
-7.413675670973554
 30
0.0
 10
39.95684616711154
 20
-7.406098053392585
 30
0.0
 10
40.18138419237656
 20
-7.457109286036276
 30
0.0
 10
40.28850460247246
 20
-7.513893555090084
 30
0.0
 10
40.3767749411295
 20
-7.593866120697728
 30
0.0
  0
SPLINE
  5
124
330
1F
100
AcDbEntity
  8
외형선
  6
Continuous
 62
     1
370
    15
100
AcDbSpline
210
0.0
220
0.0
230
1.0
 70
     8
 71
     3
 72
     8
 73
     4
 74
     0
 42
0.000000001
 43
0.00000001
 40
0.0
 40
0.0
 40
0.0
 40
0.0
 40
1.0
 40
1.0
 40
1.0
 40
1.0
 10
39.59583585395109
 20
-7.468359829236323
 30
0.0
 10
39.6509390126832
 20
-7.480812793109734
 30
0.0
 10
39.70630847494346
 20
-7.477651421752278
 30
0.0
 10
39.75180314993975
 20
-7.456574562302721
 30
0.0
  0
SPLINE
  5
125
330
1F
100
AcDbEntity
  8
외형선
  6
Continuous
 62
     1
370
    15
100
AcDbSpline
210
0.0
220
0.0
230
1.0
 70
     8
 71
     3
 72
     8
 73
     4
 74
     0
 42
0.000000001
 43
0.00000001
 40
0.0
 40
0.0
 40
0.0
 40
0.0
 40
1.0
 40
1.0
 40
1.0
 40
1.0
 10
39.59537355255124
 20
-7.468255350840159
 30
0.0
 10
39.2334337552357
 20
-7.386457351918434
 30
0.0
 10
38.87266494660708
 20
-7.302605415048988
 30
0.0
 10
38.51099011903784
 20
-7.21661278798748
 30
0.0
  0
SPLINE
  5
126
330
1F
100
AcDbEntity
  8
외형선
  6
Continuous
 62
     1
370
    15
100
AcDbSpline
210
0.0
220
0.0
230
1.0
 70
     8
 71
     3
 72
     8
 73
     4
 74
     0
 42
0.000000001
 43
0.00000001
 40
0.0
 40
0.0
 40
0.0
 40
0.0
 40
1.0
 40
1.0
 40
1.0
 40
1.0
 10
38.35237264506035
 20
-7.133370711210296
 30
0.0
 10
38.39706904239458
 20
-7.173505654099034
 30
0.0
 10
38.45205397465252
 20
-7.202598753667993
 30
0.0
 10
38.50884006417696
 20
-7.216101562976339
 30
0.0
  0
SPLINE
  5
127
330
1F
100
AcDbEntity
  8
외형선
  6
Continuous
 62
     1
370
    15
100
AcDbSpline
210
0.0
220
0.0
230
1.0
 70
     8
 71
     3
 72
    10
 73
     6
 74
     0
 42
0.000000001
 43
0.00000001
 40
0.0
 40
0.0
 40
0.0
 40
0.0
 40
0.5
 40
0.5
 40
1.0
 40
1.0
 40
1.0
 40
1.0
 10
37.72760744563782
 20
-6.982597143611661
 30
0.0
 10
37.82017766202627
 20
-6.944613765188961
 30
0.0
 10
37.93260112307367
 20
-6.940787620546283
 30
0.0
 10
38.15706955041762
 20
-6.996493605231586
 30
0.0
 10
38.26414797015693
 20
-7.054149733686133
 30
0.0
 10
38.35237264506033
 20
-7.133370711210286
 30
0.0
  0
SPLINE
  5
128
330
1F
100
AcDbEntity
  8
외형선
  6
Continuous
 62
     1
370
    15
100
AcDbSpline
210
0.0
220
0.0
230
1.0
 70
     8
 71
     3
 72
     8
 73
     4
 74
     0
 42
0.000000001
 43
0.00000001
 40
0.0
 40
0.0
 40
0.0
 40
0.0
 40
1.0
 40
1.0
 40
1.0
 40
1.0
 10
37.57168844355975
 20
-6.988882916522748
 30
0.0
 10
37.62677891858895
 20
-7.002496995433841
 30
0.0
 10
37.6821316250055
 20
-7.001256766236962
 30
0.0
 10
37.7276074456375
 20
-6.982597143611799
 30
0.0
  0
SPLINE
  5
129
330
1F
100
AcDbEntity
  8
외형선
  6
Continuous
 62
     1
370
    15
100
AcDbSpline
210
0.0
220
0.0
230
1.0
 70
     8
 71
     3
 72
     8
 73
     4
 74
     0
 42
0.000000001
 43
0.00000001
 40
0.0
 40
0.0
 40
0.0
 40
0.0
 40
1.0
 40
1.0
 40
1.0
 40
1.0
 10
37.57172014229698
 20
-6.988890749977444
 30
0.0
 10
37.20957479439731
 20
-6.899396712176271
 30
0.0
 10
36.84713495423202
 20
-6.807872767126126
 30
0.0
 10
36.48486836035178
 20
-6.71443637460542
 30
0.0
  0
SPLINE
  5
12A
330
1F
100
AcDbEntity
  8
외형선
  6
Continuous
 62
     1
370
    15
100
AcDbSpline
210
0.0
220
0.0
230
1.0
 70
     8
 71
     3
 72
     8
 73
     4
 74
     0
 42
0.000000001
 43
0.00000001
 40
0.0
 40
0.0
 40
0.0
 40
0.0
 40
1.0
 40
1.0
 40
1.0
 40
1.0
 10
36.32872876163627
 20
-6.631021351802525
 30
0.0
 10
36.37339633249649
 20
-6.670506324773479
 30
0.0
 10
36.4283582265785
 20
-6.69986133203868
 30
0.0
 10
36.48512345331999
 20
-6.714502168279575
 30
0.0
  0
SPLINE
  5
12B
330
1F
100
AcDbEntity
  8
외형선
  6
Continuous
 62
     1
370
    15
100
AcDbSpline
210
0.0
220
0.0
230
1.0
 70
     8
 71
     3
 72
    10
 73
     6
 74
     0
 42
0.000000001
 43
0.00000001
 40
0.0
 40
0.0
 40
0.0
 40
0.0
 40
0.5
 40
0.5
 40
1.0
 40
1.0
 40
1.0
 40
1.0
 10
35.70421982036348
 20
-6.467825517683775
 30
0.0
 10
35.79674069892963
 20
-6.435004528558149
 30
0.0
 10
35.90910831537442
 20
-6.434940150873551
 30
0.0
 10
36.13350031260239
 20
-6.494937779977928
 30
0.0
 10
36.24054551280815
 20
-6.553069649271729
 30
0.0
 10
36.32872876163626
 20
-6.631021351802513
 30
0.0
  0
SPLINE
  5
12C
330
1F
100
AcDbEntity
  8
외형선
  6
Continuous
 62
     1
370
    15
100
AcDbSpline
210
0.0
220
0.0
230
1.0
 70
     8
 71
     3
 72
     8
 73
     4
 74
     0
 42
0.000000001
 43
0.00000001
 40
0.0
 40
0.0
 40
0.0
 40
0.0
 40
1.0
 40
1.0
 40
1.0
 40
1.0
 10
35.54835554884713
 20
-6.468527710640573
 30
0.0
 10
35.60342630247115
 20
-6.483244931844292
 30
0.0
 10
35.65876082306529
 20
-6.483951707567634
 30
0.0
 10
35.70421982036315
 20
-6.467825517683935
 30
0.0
  0
SPLINE
  5
12D
330
1F
100
AcDbEntity
  8
외형선
  6
Continuous
 62
     1
370
    15
100
AcDbSpline
210
0.0
220
0.0
230
1.0
 70
     8
 71
     3
 72
     8
 73
     4
 74
     0
 42
0.000000001
 43
0.00000001
 40
0.0
 40
0.0
 40
0.0
 40
0.0
 40
1.0
 40
1.0
 40
1.0
 40
1.0
 10
35.54815595751247
 20
-6.468474371242489
 30
0.0
 10
35.18539915974446
 20
-6.371529778134698
 30
0.0
 10
34.82381301924237
 20
-6.272826010379969
 30
0.0
 10
34.46147144499756
 20
-6.172275675054975
 30
0.0
  0
SPLINE
  5
12E
330
1F
100
AcDbEntity
  8
외형선
  6
Continuous
 62
     1
370
    15
100
AcDbSpline
210
0.0
220
0.0
230
1.0
 70
     8
 71
     3
 72
     8
 73
     4
 74
     0
 42
0.000000001
 43
0.00000001
 40
0.0
 40
0.0
 40
0.0
 40
0.0
 40
1.0
 40
1.0
 40
1.0
 40
1.0
 10
34.30592509798855
 20
-6.088628462506453
 30
0.0
 10
34.35056594349487
 20
-6.127262111220277
 30
0.0
 10
34.40550226549809
 20
-6.156744504857642
 30
0.0
 10
34.4622406413451
 20
-6.172489125738058
 30
0.0
  0
SPLINE
  5
12F
330
1F
100
AcDbEntity
  8
외형선
  6
Continuous
 62
     1
370
    15
100
AcDbSpline
210
0.0
220
0.0
230
1.0
 70
     8
 71
     3
 72
    10
 73
     6
 74
     0
 42
0.000000001
 43
0.00000001
 40
0.0
 40
0.0
 40
0.0
 40
0.0
 40
0.5
 40
0.5
 40
1.0
 40
1.0
 40
1.0
 40
1.0
 10
33.68161335962774
 20
-5.913811855287212
 30
0.0
 10
33.77411246217783
 20
-5.8863288143546
 30
0.0
 10
33.88645598798741
 20
-5.890040023208989
 30
0.0
 10
34.11078519327027
 20
-5.954041104258226
 30
0.0
 10
34.21779175876517
 20
-6.012354986300672
 30
0.0
 10
34.30592509798853
 20
-6.088628462506438
 30
0.0
  0
SPLINE
  5
130
330
1F
100
AcDbEntity
  8
외형선
  6
Continuous
 62
     1
370
    15
100
AcDbSpline
210
0.0
220
0.0
230
1.0
 70
     8
 71
     3
 72
     8
 73
     4
 74
     0
 42
0.000000001
 43
0.00000001
 40
0.0
 40
0.0
 40
0.0
 40
0.0
 40
1.0
 40
1.0
 40
1.0
 40
1.0
 10
33.52577007941017
 20
-5.908970191426447
 30
0.0
 10
33.58083657116602
 20
-5.924680117821715
 30
0.0
 10
33.63616374450991
 20
-5.927315701251207
 30
0.0
 10
33.68161335962741
 20
-5.913811855287284
 30
0.0
  0
SPLINE
  5
131
330
1F
100
AcDbEntity
  8
외형선
  6
Continuous
 62
     1
370
    15
100
AcDbSpline
210
0.0
220
0.0
230
1.0
 70
     8
 71
     3
 72
     8
 73
     4
 74
     0
 42
0.000000001
 43
0.00000001
 40
0.0
 40
0.0
 40
0.0
 40
0.0
 40
1.0
 40
1.0
 40
1.0
 40
1.0
 10
33.52396659292822
 20
-5.908455661031081
 30
0.0
 10
33.16172270370168
 20
-5.805105629933016
 30
0.0
 10
32.79915699264718
 20
-5.700028260354382
 30
0.0
 10
32.4367376817339
 20
-5.593358459630796
 30
0.0
  0
SPLINE
  5
132
330
1F
100
AcDbEntity
  8
외형선
  6
Continuous
 62
     1
370
    15
100
AcDbSpline
210
0.0
220
0.0
230
1.0
 70
     8
 71
     3
 72
     8
 73
     4
 74
     0
 42
0.000000001
 43
0.00000001
 40
0.0
 40
0.0
 40
0.0
 40
0.0
 40
1.0
 40
1.0
 40
1.0
 40
1.0
 10
32.28315101476723
 20
-5.510551941756956
 30
0.0
 10
32.32781673738449
 20
-5.548080782905559
 30
0.0
 10
32.38277572048573
 20
-5.577477282358259
 30
0.0
 10
32.43953867022288
 20
-5.594182833715962
 30
0.0
  0
SPLINE
  5
133
330
1F
100
AcDbEntity
  8
외형선
  6
Continuous
 62
     1
370
    15
100
AcDbSpline
210
0.0
220
0.0
230
1.0
 70
     8
 71
     3
 72
    10
 73
     6
 74
     0
 42
0.000000001
 43
0.00000001
 40
0.0
 40
0.0
 40
0.0
 40
0.0
 40
0.5
 40
0.5
 40
1.0
 40
1.0
 40
1.0
 40
1.0
 10
31.65856059289879
 20
-5.325236832808945
 30
0.0
 10
31.75109760761753
 20
-5.303273081088595
 30
0.0
 10
31.86347593932101
 20
-5.310756778506808
 30
0.0
 10
32.08789740107978
 20
-5.378349025099111
 30
0.0
 10
32.19495777073593
 20
-5.436450593974211
 30
0.0
 10
32.28315101476723
 20
-5.510551941756998
 30
0.0
  0
SPLINE
  5
134
330
1F
100
AcDbEntity
  8
외형선
  6
Continuous
 62
     1
370
    15
100
AcDbSpline
210
0.0
220
0.0
230
1.0
 70
     8
 71
     3
 72
     8
 73
     4
 74
     0
 42
0.000000001
 43
0.00000001
 40
0.0
 40
0.0
 40
0.0
 40
0.0
 40
1.0
 40
1.0
 40
1.0
 40
1.0
 10
31.50265732299579
 20
-5.314810653399014
 30
0.0
 10
31.5577406789244
 20
-5.331450676018231
 30
0.0
 10
31.61308865384196
 20
-5.336029642396706
 30
0.0
 10
31.65856059289844
 20
-5.325236832809042
 30
0.0
  0
SPLINE
  5
135
330
1F
100
AcDbEntity
  8
외형선
  6
Continuous
 62
     1
370
    15
100
AcDbSpline
210
0.0
220
0.0
230
1.0
 70
     8
 71
     3
 72
     8
 73
     4
 74
     0
 42
0.000000001
 43
0.00000001
 40
0.0
 40
0.0
 40
0.0
 40
0.0
 40
1.0
 40
1.0
 40
1.0
 40
1.0
 10
31.50331864075538
 20
-5.315010427758174
 30
0.0
 10
31.1402752088242
 20
-5.205341350410201
 30
0.0
 10
30.77836121156705
 20
-5.094252591786062
 30
0.0
 10
30.41589071157387
 20
-4.981670566681324
 30
0.0
  0
SPLINE
  5
136
330
1F
100
AcDbEntity
  8
외형선
  6
Continuous
 62
     1
370
    15
100
AcDbSpline
210
0.0
220
0.0
230
1.0
 70
     8
 71
     3
 72
     8
 73
     4
 74
     0
 42
0.000000001
 43
0.00000001
 40
0.0
 40
0.0
 40
0.0
 40
0.0
 40
1.0
 40
1.0
 40
1.0
 40
1.0
 10
30.2594804480031
 20
-4.898613512955668
 30
0.0
 10
30.30417585156586
 20
-4.934859603180116
 30
0.0
 10
30.35915840811537
 20
-4.96404973776627
 30
0.0
 10
30.41594267395552
 20
-4.981686706001647
 30
0.0
  0
SPLINE
  5
137
330
1F
100
AcDbEntity
  8
외형선
  6
Continuous
 62
     1
370
    15
100
AcDbSpline
210
0.0
220
0.0
230
1.0
 70
     8
 71
     3
 72
    10
 73
     6
 74
     0
 42
0.000000001
 43
0.00000001
 40
0.0
 40
0.0
 40
0.0
 40
0.0
 40
0.5
 40
0.5
 40
1.0
 40
1.0
 40
1.0
 40
1.0
 10
29.63464453551003
 20
-4.703643623105206
 30
0.0
 10
29.72723018217989
 20
-4.687324408719921
 30
0.0
 10
29.83966367462292
 20
-4.698560713420108
 30
0.0
 10
30.06415663259927
 20
-4.769443859758499
 30
0.0
 10
30.17124713159908
 20
-4.82706000874149
 30
0.0
 10
30.25948044800311
 20
-4.898613512955689
 30
0.0
  0
SPLINE
  5
138
330
1F
100
AcDbEntity
  8
외형선
  6
Continuous
 62
     1
370
    15
100
AcDbSpline
210
0.0
220
0.0
230
1.0
 70
     8
 71
     3
 72
     8
 73
     4
 74
     0
 42
0.000000001
 43
0.00000001
 40
0.0
 40
0.0
 40
0.0
 40
0.0
 40
1.0
 40
1.0
 40
1.0
 40
1.0
 10
29.47869239272208
 20
-4.687733179982929
 30
0.0
 10
29.53379326388704
 20
-4.705181783883555
 30
0.0
 10
29.5891572661525
 20
-4.711661242759372
 30
0.0
 10
29.63464453550967
 20
-4.703643623105212
 30
0.0
  0
SPLINE
  5
139
330
1F
100
AcDbEntity
  8
외형선
  6
Continuous
 62
     1
370
    15
100
AcDbSpline
210
0.0
220
0.0
230
1.0
 70
     8
 71
     3
 72
     8
 73
     4
 74
     0
 42
0.000000001
 43
0.00000001
 40
0.0
 40
0.0
 40
0.0
 40
0.0
 40
1.0
 40
1.0
 40
1.0
 40
1.0
 10
29.47540679761883
 20
-4.686692706969537
 30
0.0
 10
29.11360828398968
 20
-4.572115530971206
 30
0.0
 10
28.7514619739556
 20
-4.45615888461923
 30
0.0
 10
28.38943446276673
 20
-4.338971366136886
 30
0.0
  0
SPLINE
  5
13A
330
1F
100
AcDbEntity
  8
외형선
  6
Continuous
 62
     1
370
    15
100
AcDbSpline
210
0.0
220
0.0
230
1.0
 70
     8
 71
     3
 72
     8
 73
     4
 74
     0
 42
0.000000001
 43
0.00000001
 40
0.0
 40
0.0
 40
0.0
 40
0.0
 40
1.0
 40
1.0
 40
1.0
 40
1.0
 10
28.23510884656588
 20
-4.257852524598157
 30
0.0
 10
28.27982169536433
 20
-4.292546953953536
 30
0.0
 10
28.33482219342663
 20
-4.321294281022896
 30
0.0
 10
28.39162559901072
 20
-4.339680616685336
 30
0.0
  0
SPLINE
  5
13B
330
1F
100
AcDbEntity
  8
외형선
  6
Continuous
 62
     1
370
    15
100
AcDbSpline
210
0.0
220
0.0
230
1.0
 70
     8
 71
     3
 72
    10
 73
     6
 74
     0
 42
0.000000001
 43
0.00000001
 40
0.0
 40
0.0
 40
0.0
 40
0.0
 40
0.5
 40
0.5
 40
1.0
 40
1.0
 40
1.0
 40
1.0
 10
27.61008407691673
 20
-4.054709587817865
 30
0.0
 10
27.7026919877723
 20
-4.044140650442163
 30
0.0
 10
27.81514491373115
 20
-4.059026641046663
 30
0.0
 10
28.03970239893003
 20
-4.132652935930659
 30
0.0
 10
28.14683262669075
 20
-4.189355590125795
 30
0.0
 10
28.23510884656585
 20
-4.257852524598088
 30
0.0
  0
SPLINE
  5
13C
330
1F
100
AcDbEntity
  8
외형선
  6
Continuous
 62
     1
370
    15
100
AcDbSpline
210
0.0
220
0.0
230
1.0
 70
     8
 71
     3
 72
     8
 73
     4
 74
     0
 42
0.000000001
 43
0.00000001
 40
0.0
 40
0.0
 40
0.0
 40
0.0
 40
1.0
 40
1.0
 40
1.0
 40
1.0
 10
27.45409126557388
 20
-4.03337775084098
 30
0.0
 10
27.50920314838752
 20
-4.051550429994045
 30
0.0
 10
27.56458147613883
 20
-4.059902601390925
 30
0.0
 10
27.6100840769164
 20
-4.05470958781789
 30
0.0
  0
SPLINE
  5
13D
330
1F
100
AcDbEntity
  8
외형선
  6
Continuous
 62
     1
370
    15
100
AcDbSpline
210
0.0
220
0.0
230
1.0
 70
     8
 71
     3
 72
     8
 73
     4
 74
     0
 42
0.000000001
 43
0.00000001
 40
0.0
 40
0.0
 40
0.0
 40
0.0
 40
1.0
 40
1.0
 40
1.0
 40
1.0
 10
27.45313045117006
 20
-4.033060927395195
 30
0.0
 10
27.09042739145252
 20
-3.913460392542781
 30
0.0
 10
26.72877690839652
 20
-3.792814238567906
 30
0.0
 10
26.36679314884065
 20
-3.671075099236912
 30
0.0
  0
SPLINE
  5
13E
330
1F
100
AcDbEntity
  8
외형선
  6
Continuous
 62
     1
370
    15
100
AcDbSpline
210
0.0
220
0.0
230
1.0
 70
     8
 71
     3
 72
     8
 73
     4
 74
     0
 42
0.000000001
 43
0.00000001
 40
0.0
 40
0.0
 40
0.0
 40
0.0
 40
1.0
 40
1.0
 40
1.0
 40
1.0
 10
26.21013078594574
 20
-3.590746275041893
 30
0.0
 10
26.2548641943156
 20
-3.623734781495054
 30
0.0
 10
26.30988006522866
 20
-3.651934575601899
 30
0.0
 10
26.36669681007077
 20
-3.671042699424143
 30
0.0
  0
SPLINE
  5
13F
330
1F
100
AcDbEntity
  8
외형선
  6
Continuous
 62
     1
370
    15
100
AcDbSpline
210
0.0
220
0.0
230
1.0
 70
     8
 71
     3
 72
    10
 73
     6
 74
     0
 42
0.000000001
 43
0.00000001
 40
0.0
 40
0.0
 40
0.0
 40
0.0
 40
0.5
 40
0.5
 40
1.0
 40
1.0
 40
1.0
 40
1.0
 10
25.58494991291191
 20
-3.380293284509738
 30
0.0
 10
25.67759256164764
 20
-3.375541911138983
 30
0.0
 10
25.79008562980795
 20
-3.394026995233752
 30
0.0
 10
26.01468597480368
 20
-3.470089315285397
 30
0.0
 10
26.12183138107714
 20
-3.525630166221514
 30
0.0
 10
26.21013078594572
 20
-3.590746275041882
 30
0.0
  0
SPLINE
  5
140
330
1F
100
AcDbEntity
  8
외형선
  6
Continuous
 62
     1
370
    15
100
AcDbSpline
210
0.0
220
0.0
230
1.0
 70
     8
 71
     3
 72
     8
 73
     4
 74
     0
 42
0.000000001
 43
0.00000001
 40
0.0
 40
0.0
 40
0.0
 40
0.0
 40
1.0
 40
1.0
 40
1.0
 40
1.0
 10
25.4289275651292
 20
-3.353693176235192
 30
0.0
 10
25.48405057540302
 20
-3.372462704386661
 30
0.0
 10
25.53943829051668
 20
-3.3826274439239
 30
0.0
 10
25.58494991291158
 20
-3.380293284509717
 30
0.0
  0
SPLINE
  5
141
330
1F
100
AcDbEntity
  8
외형선
  6
Continuous
 62
     1
370
    15
100
AcDbSpline
210
0.0
220
0.0
230
1.0
 70
     8
 71
     3
 72
     8
 73
     4
 74
     0
 42
0.000000001
 43
0.00000001
 40
0.0
 40
0.0
 40
0.0
 40
0.0
 40
1.0
 40
1.0
 40
1.0
 40
1.0
 10
25.42795803488668
 20
-3.353363046573491
 30
0.0
 10
25.06624360999567
 20
-3.230196782022559
 30
0.0
 10
24.70415430810829
 20
-3.106027518265317
 30
0.0
 10
24.34215649791416
 20
-2.981014499791444
 30
0.0
  0
SPLINE
  5
142
330
1F
100
AcDbEntity
  8
외형선
  6
Continuous
 62
     1
370
    15
100
AcDbSpline
210
0.0
220
0.0
230
1.0
 70
     8
 71
     3
 72
     8
 73
     4
 74
     0
 42
0.000000001
 43
0.00000001
 40
0.0
 40
0.0
 40
0.0
 40
0.0
 40
1.0
 40
1.0
 40
1.0
 40
1.0
 10
24.18474806690653
 20
-2.902675969421577
 30
0.0
 10
24.22948888023246
 20
-2.933699430332727
 30
0.0
 10
24.28451412312564
 20
-2.961107963840359
 30
0.0
 10
24.34134156701866
 20
-2.980733068514998
 30
0.0
  0
SPLINE
  5
143
330
1F
100
AcDbEntity
  8
외형선
  6
Continuous
 62
     1
370
    15
100
AcDbSpline
210
0.0
220
0.0
230
1.0
 70
     8
 71
     3
 72
    10
 73
     6
 74
     0
 42
0.000000001
 43
0.00000001
 40
0.0
 40
0.0
 40
0.0
 40
0.0
 40
0.5
 40
0.5
 40
1.0
 40
1.0
 40
1.0
 40
1.0
 10
23.55947333346064
 20
-2.68659401146522
 30
0.0
 10
23.65212177807027
 20
-2.687681086564095
 30
0.0
 10
23.76461804652401
 20
-2.709602926614931
 30
0.0
 10
23.98925353602098
 20
-2.787487808923028
 30
0.0
 10
24.09642377153019
 20
-2.841431545787025
 30
0.0
 10
24.18474806690677
 20
-2.902675969422316
 30
0.0
  0
SPLINE
  5
144
330
1F
100
AcDbEntity
  8
외형선
  6
Continuous
 62
     1
370
    15
100
AcDbSpline
210
0.0
220
0.0
230
1.0
 70
     8
 71
     3
 72
     8
 73
     4
 74
     0
 42
0.000000001
 43
0.00000001
 40
0.0
 40
0.0
 40
0.0
 40
0.0
 40
1.0
 40
1.0
 40
1.0
 40
1.0
 10
23.40343074645765
 20
-2.654870663247583
 30
0.0
 10
23.45855855519175
 20
-2.674139212769685
 30
0.0
 10
23.51395374473029
 20
-2.686059914949841
 30
0.0
 10
23.55947333346031
 20
-2.686594011465258
 30
0.0
  0
SPLINE
  5
145
330
1F
100
AcDbEntity
  8
외형선
  6
Continuous
 62
     1
370
    15
100
AcDbSpline
210
0.0
220
0.0
230
1.0
 70
     8
 71
     3
 72
     8
 73
     4
 74
     0
 42
0.000000001
 43
0.00000001
 40
0.0
 40
0.0
 40
0.0
 40
0.0
 40
1.0
 40
1.0
 40
1.0
 40
1.0
 10
23.40255780076478
 20
-2.654565545168309
 30
0.0
 10
23.03948389260408
 20
-2.527660708303566
 30
0.0
 10
22.67735937927546
 20
-2.400100563104219
 30
0.0
 10
22.31514848691937
 20
-2.271875793243548
 30
0.0
  0
SPLINE
  5
146
330
1F
100
AcDbEntity
  8
외형선
  6
Continuous
 62
     1
370
    15
100
AcDbSpline
210
0.0
220
0.0
230
1.0
 70
     8
 71
     3
 72
    17
 73
    13
 74
     0
 42
0.000000001
 43
0.00000001
 40
0.0
 40
0.0
 40
0.0
 40
0.0
 40
0.0000451207780745
 40
0.0000451207780745
 40
0.0000451207780745
 40
0.0000902370964933
 40
0.0000902370964933
 40
0.0000902370964933
 40
0.0001347566754297
 40
0.0001347566754297
 40
0.0001347566754297
 40
0.0001803582408543
 40
0.0001803582408543
 40
0.0001803582408543
 40
0.0001803582408543
 10
22.15906553135686
 20
-2.196479302265064
 30
0.0
 10
22.17019457556963
 20
-2.203674840629656
 30
0.0
 10
22.18204284789309
 20
-2.210766049659505
 30
0.0
 10
22.1943882197021
 20
-2.217635398178003
 30
0.0
 10
22.20673281004651
 20
-2.224504311865318
 30
0.0
 10
22.21964737148834
 20
-2.231192143032898
 30
0.0
 10
22.23290271307024
 20
-2.237586263020674
 30
0.0
 10
22.24598363938216
 20
-2.243896248461104
 30
0.0
 10
22.25947180107307
 20
-2.249956635185262
 30
0.0
 10
22.27313831388055
 20
-2.25566172242439
 30
0.0
 10
22.28713422237412
 20
-2.261504315928047
 30
0.0
 10
22.30140175676569
 20
-2.26700938815691
 30
0.0
 10
22.31568171100955
 20
-2.272064557349631
 30
0.0
  0
SPLINE
  5
147
330
1F
100
AcDbEntity
  8
외형선
  6
Continuous
 62
     1
370
    15
100
AcDbSpline
210
0.0
220
0.0
230
1.0
 70
     8
 71
     3
 72
    10
 73
     6
 74
     0
 42
0.000000001
 43
0.00000001
 40
0.0
 40
0.0
 40
0.0
 40
0.0
 40
0.5
 40
0.5
 40
1.0
 40
1.0
 40
1.0
 40
1.0
 10
21.53372818887364
 20
-1.975618154557702
 30
0.0
 10
21.62639678221132
 20
-1.982552798381911
 30
0.0
 10
21.73891745445529
 20
-2.007832950110794
 30
0.0
 10
21.96356590553524
 20
-2.087237814811449
 30
0.0
 10
22.070735727025
 20
-2.139369232104975
 30
0.0
 10
22.15906553135689
 20
-2.196479302265142
 30
0.0
  0
SPLINE
  5
148
330
1F
100
AcDbEntity
  8
외형선
  6
Continuous
 62
     1
370
    15
100
AcDbSpline
210
0.0
220
0.0
230
1.0
 70
     8
 71
     3
 72
     8
 73
     4
 74
     0
 42
0.000000001
 43
0.00000001
 40
0.0
 40
0.0
 40
0.0
 40
0.0
 40
1.0
 40
1.0
 40
1.0
 40
1.0
 10
21.37767618172124
 20
-1.938971468969831
 30
0.0
 10
21.43280849079522
 20
-1.958610089233777
 30
0.0
 10
21.48820616795479
 20
-1.972211617457436
 30
0.0
 10
21.53372818887332
 20
-1.975618154557683
 30
0.0
  0
SPLINE
  5
149
330
1F
100
AcDbEntity
  8
외형선
  6
Continuous
 62
     1
370
    15
100
AcDbSpline
210
0.0
220
0.0
230
1.0
 70
     8
 71
     3
 72
     8
 73
     4
 74
     0
 42
0.000000001
 43
0.00000001
 40
0.0
 40
0.0
 40
0.0
 40
0.0
 40
1.0
 40
1.0
 40
1.0
 40
1.0
 10
21.37705339279014
 20
-1.938749625542292
 30
0.0
 10
21.01547793837116
 20
-1.809952695642485
 30
0.0
 10
20.65350214919451
 20
-1.680553292243943
 30
0.0
 10
20.2915919484903
 20
-1.550717548919114
 30
0.0
  0
SPLINE
  5
14A
330
1F
100
AcDbEntity
  8
외형선
  6
Continuous
 62
     1
370
    15
100
AcDbSpline
210
0.0
220
0.0
230
1.0
 70
     8
 71
     3
 72
     8
 73
     4
 74
     0
 42
0.000000001
 43
0.00000001
 40
0.0
 40
0.0
 40
0.0
 40
0.0
 40
1.0
 40
1.0
 40
1.0
 40
1.0
 10
20.13328527092274
 20
-1.477709445984896
 30
0.0
 10
20.17803413786251
 20
-1.504311797962656
 30
0.0
 10
20.23306669414719
 20
-1.52972131154457
 30
0.0
 10
20.28990110884026
 20
-1.550110954707246
 30
0.0
  0
SPLINE
  5
14B
330
1F
100
AcDbEntity
  8
외형선
  6
Continuous
 62
     1
370
    15
100
AcDbSpline
210
0.0
220
0.0
230
1.0
 70
     8
 71
     3
 72
    10
 73
     6
 74
     0
 42
0.000000001
 43
0.00000001
 40
0.0
 40
0.0
 40
0.0
 40
0.0
 40
0.5
 40
0.5
 40
1.0
 40
1.0
 40
1.0
 40
1.0
 10
19.50795166324185
 20
-1.253913522404996
 30
0.0
 10
19.60060917740439
 20
-1.26662971414104
 30
0.0
 10
19.71311638789583
 20
-1.295049935606755
 30
0.0
 10
19.93776976949468
 20
-1.375309077634621
 30
0.0
 10
20.04494909192716
 20
-1.425195264359412
 30
0.0
 10
20.13328527092265
 20
-1.477709445984858
 30
0.0
  0
SPLINE
  5
14C
330
1F
100
AcDbEntity
  8
외형선
  6
Continuous
 62
     1
370
    15
100
AcDbSpline
210
0.0
220
0.0
230
1.0
 70
     8
 71
     3
 72
     8
 73
     4
 74
     0
 42
0.000000001
 43
0.00000001
 40
0.0
 40
0.0
 40
0.0
 40
0.0
 40
1.0
 40
1.0
 40
1.0
 40
1.0
 10
19.35190039971203
 20
-1.212568474729748
 30
0.0
 10
19.40703111441815
 20
-1.23246801367969
 30
0.0
 10
19.462429227421
 20
-1.247666084974479
 30
0.0
 10
19.50795166324153
 20
-1.2539135224049
 30
0.0
  0
SPLINE
  5
14D
330
1F
100
AcDbEntity
  8
외형선
  6
Continuous
 62
     1
370
    15
100
AcDbSpline
210
0.0
220
0.0
230
1.0
 70
     8
 71
     3
 72
     8
 73
     4
 74
     0
 42
0.000000001
 43
0.00000001
 40
0.0
 40
0.0
 40
0.0
 40
0.0
 40
1.0
 40
1.0
 40
1.0
 40
1.0
 10
19.35161056370913
 20
-1.212463857760651
 30
0.0
 10
18.98846655156226
 20
-1.081386071742522
 30
0.0
 10
18.62613478310752
 20
-0.9500560597705234
 30
0.0
 10
18.26399726040161
 20
-0.8185137609277877
 30
0.0
  0
SPLINE
  5
14E
330
1F
100
AcDbEntity
  8
외형선
  6
Continuous
 62
     1
370
    15
100
AcDbSpline
210
0.0
220
0.0
230
1.0
 70
     8
 71
     3
 72
    17
 73
    13
 74
     0
 42
0.000000001
 43
0.00000001
 40
0.0
 40
0.0
 40
0.0
 40
0.0
 40
0.000045120789414
 40
0.000045120789414
 40
0.000045120789414
 40
0.0000902371153179
 40
0.0000902371153179
 40
0.0000902371153179
 40
0.0001347559045496
 40
0.0001347559045496
 40
0.0001347559045496
 40
0.0001803566557543
 40
0.0001803566557543
 40
0.0001803566557543
 40
0.0001803566557543
 10
18.10752019257943
 20
-0.7495146384861894
 30
0.0
 10
18.1186488984238
 20
-0.7555280073708728
 30
0.0
 10
18.1304968653235
 20
-0.7615812509794757
 30
0.0
 10
18.14284194799486
 20
-0.7675735651502377
 30
0.0
 10
18.15518624860566
 20
-0.773565499708103
 30
0.0
 10
18.16810053984761
 20
-0.7795320372333143
 30
0.0
 10
18.18135561557836
 20
-0.7853727804257813
 30
0.0
 10
18.19443604731059
 20
-0.7911365681359768
 30
0.0
 10
18.20792370575648
 20
-0.7968111161177106
 30
0.0
 10
18.22158970994381
 20
-0.8022985867965255
 30
0.0
 10
18.23558509668668
 20
-0.8079183183096644
 30
0.0
 10
18.2498520997444
 20
-0.8133756939931094
 30
0.0
 10
18.26413152642843
 20
-0.8185625315202707
 30
0.0
  0
SPLINE
  5
14F
330
1F
100
AcDbEntity
  8
외형선
  6
Continuous
 62
     1
370
    15
100
AcDbSpline
210
0.0
220
0.0
230
1.0
 70
     8
 71
     3
 72
    10
 73
     6
 74
     0
 42
0.000000001
 43
0.00000001
 40
0.0
 40
0.0
 40
0.0
 40
0.0
 40
0.5
 40
0.5
 40
1.0
 40
1.0
 40
1.0
 40
1.0
 10
17.48221911086168
 20
-0.5235901157829532
 30
0.0
 10
17.57488191411714
 20
-0.5420399427395444
 30
0.0
 10
17.68739749243352
 20
-0.5734971524364261
 30
0.0
 10
17.91203344110842
 20
-0.6543231584708011
 30
0.0
 10
18.01919650239154
 20
-0.7017891493068085
 30
0.0
 10
18.10752019257941
 20
-0.7495146384862241
 30
0.0
  0
SPLINE
  5
150
330
1F
100
AcDbEntity
  8
외형선
  6
Continuous
 62
     1
370
    15
100
AcDbSpline
210
0.0
220
0.0
230
1.0
 70
     8
 71
     3
 72
     8
 73
     4
 74
     0
 42
0.000000001
 43
0.00000001
 40
0.0
 40
0.0
 40
0.0
 40
0.0
 40
1.0
 40
1.0
 40
1.0
 40
1.0
 10
17.32617879332487
 20
-0.4777865096944051
 30
0.0
 10
17.38130730459356
 20
-0.4978201710532889
 30
0.0
 10
17.43670092306509
 20
-0.5145271189954981
 30
0.0
 10
17.48221911086134
 20
-0.5235901157829604
 30
0.0
  0
SPLINE
  5
151
330
1F
100
AcDbEntity
  8
외형선
  6
Continuous
 62
     1
370
    15
100
AcDbSpline
210
0.0
220
0.0
230
1.0
 70
     8
 71
     3
 72
     8
 73
     4
 74
     0
 42
0.000000001
 43
0.00000001
 40
0.0
 40
0.0
 40
0.0
 40
0.0
 40
1.0
 40
1.0
 40
1.0
 40
1.0
 10
17.32575605839566
 20
-0.477632888109506
 30
0.0
 10
16.96360797911216
 20
-0.34602851030148
 30
0.0
 10
16.60103262637454
 20
-0.2142352152058233
 30
0.0
 10
16.23849823225803
 20
-0.0824231656774158
 30
0.0
  0
SPLINE
  5
152
330
1F
100
AcDbEntity
  8
외형선
  6
Continuous
 62
     1
370
    15
100
AcDbSpline
210
0.0
220
0.0
230
1.0
 70
     8
 71
     3
 72
     8
 73
     4
 74
     0
 42
0.000000001
 43
0.00000001
 40
0.0
 40
0.0
 40
0.0
 40
0.0
 40
1.0
 40
1.0
 40
1.0
 40
1.0
 10
16.08196671619239
 20
-0.0174469851525466
 30
0.0
 10
16.12670350987011
 20
-0.0389845432753288
 30
0.0
 10
16.18172575335377
 20
-0.0617815472790765
 30
0.0
 10
16.23854988112101
 20
-0.0824419444267944
 30
0.0
  0
SPLINE
  5
153
330
1F
100
AcDbEntity
  8
외형선
  6
Continuous
 62
     1
370
    15
100
AcDbSpline
210
0.0
220
0.0
230
1.0
 70
     8
 71
     3
 72
    10
 73
     6
 74
     0
 42
0.000000001
 43
0.00000001
 40
0.0
 40
0.0
 40
0.0
 40
0.0
 40
0.5
 40
0.5
 40
1.0
 40
1.0
 40
1.0
 40
1.0
 10
15.45676689954143
 20
0.2086414068813777
 30
0.0
 10
15.54940177002347
 20
0.1846100853257735
 30
0.0
 10
15.66188724294071
 20
0.1503846385375381
 30
0.0
 10
15.88649792850141
 20
0.069694001943826
 30
0.0
 10
15.99365517120235
 20
0.0250686910231031
 30
0.0
 10
16.08196671619239
 20
-0.0174469851524899
 30
0.0
  0
SPLINE
  5
154
330
1F
100
AcDbEntity
  8
외형선
  6
Continuous
 62
     1
370
    15
100
AcDbSpline
210
0.0
220
0.0
230
1.0
 70
     8
 71
     3
 72
     8
 73
     4
 74
     0
 42
0.000000001
 43
0.00000001
 40
0.0
 40
0.0
 40
0.0
 40
0.0
 40
1.0
 40
1.0
 40
1.0
 40
1.0
 10
15.30074828801484
 20
0.2586036423361885
 30
0.0
 10
15.35586881974194
 20
0.2385538213512169
 30
0.0
 10
15.4112558418217
 20
0.2204478773466877
 30
0.0
 10
15.45676689954111
 20
0.2086414068815038
 30
0.0
  0
SPLINE
  5
155
330
1F
100
AcDbEntity
  8
외형선
  6
Continuous
 62
     1
370
    15
100
AcDbSpline
210
0.0
220
0.0
230
1.0
 70
     8
 71
     3
 72
     8
 73
     4
 74
     0
 42
0.000000001
 43
0.00000001
 40
0.0
 40
0.0
 40
0.0
 40
0.0
 40
1.0
 40
1.0
 40
1.0
 40
1.0
 10
15.30106268073223
 20
0.2584892835475194
 30
0.0
 10
14.93776498620111
 20
0.3906370048208871
 30
0.0
 10
14.5751100490642
 20
0.5226320428460344
 30
0.0
 10
14.2129631026816
 20
0.6543768016094654
 30
0.0
  0
SPLINE
  5
156
330
1F
100
AcDbEntity
  8
외형선
  6
Continuous
 62
     1
370
    15
100
AcDbSpline
210
0.0
220
0.0
230
1.0
 70
     8
 71
     3
 72
     8
 73
     4
 74
     0
 42
0.000000001
 43
0.00000001
 40
0.0
 40
0.0
 40
0.0
 40
0.0
 40
1.0
 40
1.0
 40
1.0
 40
1.0
 10
13.27626766602841
 20
0.9942514206675565
 30
0.0
 10
12.91393728437277
 20
1.125379684547861
 30
0.0
 10
12.55115270880082
 20
1.256276836215462
 30
0.0
 10
12.18838297180393
 20
1.386773164271804
 30
0.0
  0
SPLINE
  5
157
330
1F
100
AcDbEntity
  8
외형선
  6
Continuous
 62
     1
370
    15
100
AcDbSpline
210
0.0
220
0.0
230
1.0
 70
     8
 71
     3
 72
     8
 73
     4
 74
     0
 42
0.000000001
 43
0.00000001
 40
0.0
 40
0.0
 40
0.0
 40
0.0
 40
1.0
 40
1.0
 40
1.0
 40
1.0
 10
11.25238108099761
 20
1.722596271495631
 30
0.0
 10
10.88913405091925
 20
1.852582931118106
 30
0.0
 10
10.52631873660568
 20
1.982020349969105
 30
0.0
 10
10.16437145822274
 20
2.110746553695329
 30
0.0
  0
SPLINE
  5
158
330
1F
100
AcDbEntity
  8
외형선
  6
Continuous
 62
     1
370
    15
100
AcDbSpline
210
0.0
220
0.0
230
1.0
 70
     8
 71
     3
 72
     8
 73
     4
 74
     0
 42
0.000000001
 43
0.00000001
 40
0.0
 40
0.0
 40
0.0
 40
0.0
 40
1.0
 40
1.0
 40
1.0
 40
1.0
 10
10.88945098474841
 20
9.226675185359499
 30
0.0
 10
10.59253771407284
 20
9.253517015443467
 30
0.0
 10
10.296332624926
 20
9.278555937971795
 30
0.0
 10
9.99999999999867
 20
9.301804455643872
 30
0.0
  0
SPLINE
  5
159
330
1F
100
AcDbEntity
  8
외형선
  6
Continuous
 62
     1
370
    15
100
AcDbSpline
210
0.0
220
0.0
230
1.0
 70
     8
 71
     3
 72
     8
 73
     4
 74
     0
 42
0.000000001
 43
0.00000001
 40
0.0
 40
0.0
 40
0.0
 40
0.0
 40
1.0
 40
1.0
 40
1.0
 40
1.0
 10
11.04644544634361
 20
9.158720464567413
 30
0.0
 10
11.00177528262677
 20
9.197572856341813
 30
0.0
 10
10.94681379481304
 20
9.221488964491028
 30
0.0
 10
10.89004991705235
 20
9.226621037737335
 30
0.0
  0
SPLINE
  5
15A
330
1F
100
AcDbEntity
  8
외형선
  6
Continuous
 62
     1
370
    15
100
AcDbSpline
210
0.0
220
0.0
230
1.0
 70
     8
 71
     3
 72
    10
 73
     6
 74
     0
 42
0.000000001
 43
0.00000001
 40
0.0
 40
0.0
 40
0.0
 40
0.0
 40
0.5
 40
0.5
 40
1.0
 40
1.0
 40
1.0
 40
1.0
 10
11.67105680195117
 20
9.098515186670612
 30
0.0
 10
11.57851189248269
 20
9.035518820672403
 30
0.0
 10
11.46611970519409
 20
9.010376866861721
 30
0.0
 10
11.24169461849829
 20
9.034284270789692
 30
0.0
 10
11.13463709649383
 20
9.082014756376868
 30
0.0
 10
11.0464454463439
 20
9.158720464567201
 30
0.0
  0
SPLINE
  5
15B
330
1F
100
AcDbEntity
  8
외형선
  6
Continuous
 62
     1
370
    15
100
AcDbSpline
210
0.0
220
0.0
230
1.0
 70
     8
 71
     3
 72
     8
 73
     4
 74
     0
 42
0.000000001
 43
0.00000001
 40
0.0
 40
0.0
 40
0.0
 40
0.0
 40
1.0
 40
1.0
 40
1.0
 40
1.0
 10
11.82696269797029
 20
9.136083718112092
 30
0.0
 10
11.77187614878029
 20
9.141749319445506
 30
0.0
 10
11.71652749248129
 20
9.129467599712912
 30
0.0
 10
11.67105680195115
 20
9.09851518667064
 30
0.0
  0
SPLINE
  5
15C
330
1F
100
AcDbEntity
  8
외형선
  6
Continuous
 62
     1
370
    15
100
AcDbSpline
210
0.0
220
0.0
230
1.0
 70
     8
 71
     3
 72
     8
 73
     4
 74
     0
 42
0.000000001
 43
0.00000001
 40
0.0
 40
0.0
 40
0.0
 40
0.0
 40
1.0
 40
1.0
 40
1.0
 40
1.0
 10
12.91610598561779
 20
9.016205252140121
 30
0.0
 10
12.55317053712966
 20
9.058772543182998
 30
0.0
 10
12.18993551331853
 20
9.098752732905407
 30
0.0
 10
11.82687173529315
 20
9.136093073485593
 30
0.0
  0
SPLINE
  5
15D
330
1F
100
AcDbEntity
  8
외형선
  6
Continuous
 62
     1
370
    15
100
AcDbSpline
210
0.0
220
0.0
230
1.0
 70
     8
 71
     3
 72
     8
 73
     4
 74
     0
 42
0.000000001
 43
0.00000001
 40
0.0
 40
0.0
 40
0.0
 40
0.0
 40
1.0
 40
1.0
 40
1.0
 40
1.0
 10
13.07014617702196
 20
8.944998001742311
 30
0.0
 10
13.02545244870105
 20
8.984658115947475
 30
0.0
 10
12.97046917781172
 20
9.00983099124737
 30
0.0
 10
12.91368202121967
 20
9.016489510550366
 30
0.0
  0
SPLINE
  5
15E
330
1F
100
AcDbEntity
  8
외형선
  6
Continuous
 62
     1
370
    15
100
AcDbSpline
210
0.0
220
0.0
230
1.0
 70
     8
 71
     3
 72
    10
 73
     6
 74
     0
 42
0.000000001
 43
0.00000001
 40
0.0
 40
0.0
 40
0.0
 40
0.0
 40
0.5
 40
0.5
 40
1.0
 40
1.0
 40
1.0
 40
1.0
 10
13.69499711053506
 20
8.868095212010145
 30
0.0
 10
13.60241604884239
 20
8.80850693128867
 30
0.0
 10
13.48999513166516
 20
8.786712711926045
 30
0.0
 10
13.26549286105745
 20
8.816521266290914
 30
0.0
 10
13.15839054543839
 20
8.86669212168128
 30
0.0
 10
13.07014617702227
 20
8.944998001742102
 30
0.0
  0
SPLINE
  5
15F
330
1F
100
AcDbEntity
  8
외형선
  6
Continuous
 62
     1
370
    15
100
AcDbSpline
210
0.0
220
0.0
230
1.0
 70
     8
 71
     3
 72
     8
 73
     4
 74
     0
 42
0.000000001
 43
0.00000001
 40
0.0
 40
0.0
 40
0.0
 40
0.0
 40
1.0
 40
1.0
 40
1.0
 40
1.0
 10
13.85095491626238
 20
8.900756326823569
 30
0.0
 10
13.7958555525529
 20
8.90790344177288
 30
0.0
 10
13.74048928049947
 20
8.897375500493604
 30
0.0
 10
13.69499711053508
 20
8.86809521201014
 30
0.0
  0
SPLINE
  5
160
330
1F
100
AcDbEntity
  8
외형선
  6
Continuous
 62
     1
370
    15
100
AcDbSpline
210
0.0
220
0.0
230
1.0
 70
     8
 71
     3
 72
     8
 73
     4
 74
     0
 42
0.000000001
 43
0.00000001
 40
0.0
 40
0.0
 40
0.0
 40
0.0
 40
1.0
 40
1.0
 40
1.0
 40
1.0
 10
14.93809555999069
 20
8.752028158815763
 30
0.0
 10
14.57549558118463
 20
8.804127706552329
 30
0.0
 10
14.21407137143415
 20
8.853651477674768
 30
0.0
 10
13.85175138637622
 20
8.900653009906222
 30
0.0
  0
SPLINE
  5
161
330
1F
100
AcDbEntity
  8
외형선
  6
Continuous
 62
     1
370
    15
100
AcDbSpline
210
0.0
220
0.0
230
1.0
 70
     8
 71
     3
 72
     8
 73
     4
 74
     0
 42
0.000000001
 43
0.00000001
 40
0.0
 40
0.0
 40
0.0
 40
0.0
 40
1.0
 40
1.0
 40
1.0
 40
1.0
 10
15.09460014079871
 20
8.677338271108665
 30
0.0
 10
15.04988331588036
 20
8.717579701497565
 30
0.0
 10
14.99488090093219
 20
8.743869068899604
 30
0.0
 10
14.93807710057564
 20
8.752030811122639
 30
0.0
  0
SPLINE
  5
162
330
1F
100
AcDbEntity
  8
외형선
  6
Continuous
 62
     1
370
    15
100
AcDbSpline
210
0.0
220
0.0
230
1.0
 70
     8
 71
     3
 72
    10
 73
     6
 74
     0
 42
0.000000001
 43
0.00000001
 40
0.0
 40
0.0
 40
0.0
 40
0.0
 40
0.4999999999999998
 40
0.4999999999999998
 40
1.0
 40
1.0
 40
1.0
 40
1.0
 10
15.71964000526653
 20
8.584223275407183
 30
0.0
 10
15.6270244866034
 20
8.528371674234215
 30
0.0
 10
15.51455857871231
 20
8.510037659846962
 30
0.0
 10
15.28999973209466
 20
8.545573586382913
 30
0.0
 10
15.18287369122314
 20
8.597899403499202
 30
0.0
 10
15.0946001407991
 20
8.677338271108358
 30
0.0
  0
SPLINE
  5
163
330
1F
100
AcDbEntity
  8
외형선
  6
Continuous
 62
     1
370
    15
100
AcDbSpline
210
0.0
220
0.0
230
1.0
 70
     8
 71
     3
 72
     8
 73
     4
 74
     0
 42
0.000000001
 43
0.00000001
 40
0.0
 40
0.0
 40
0.0
 40
0.0
 40
1.0
 40
1.0
 40
1.0
 40
1.0
 10
15.87563412399749
 20
8.611836248157317
 30
0.0
 10
15.82051968071323
 20
8.620399550008033
 30
0.0
 10
15.7651411825955
 20
8.611662668348723
 30
0.0
 10
15.7196400052665
 20
8.584223275407204
 30
0.0
  0
SPLINE
  5
164
330
1F
100
AcDbEntity
  8
외형선
  6
Continuous
 62
     1
370
    15
100
AcDbSpline
210
0.0
220
0.0
230
1.0
 70
     8
 71
     3
 72
     8
 73
     4
 74
     0
 42
0.000000001
 43
0.00000001
 40
0.0
 40
0.0
 40
0.0
 40
0.0
 40
1.0
 40
1.0
 40
1.0
 40
1.0
 10
16.96365188023731
 20
8.435421311817809
 30
0.0
 10
16.60120182955764
 20
8.49664445086462
 30
0.0
 10
16.2384802860969
 20
8.555458261853795
 30
0.0
 10
15.87595608115157
 20
8.611786224031313
 30
0.0
  0
SPLINE
  5
165
330
1F
100
AcDbEntity
  8
외형선
  6
Continuous
 62
     1
370
    15
100
AcDbSpline
210
0.0
220
0.0
230
1.0
 70
     8
 71
     3
 72
     8
 73
     4
 74
     0
 42
0.000000001
 43
0.00000001
 40
0.0
 40
0.0
 40
0.0
 40
0.0
 40
1.0
 40
1.0
 40
1.0
 40
1.0
 10
17.11958557143592
 20
8.358123907591516
 30
0.0
 10
17.07485495900436
 20
8.39869343206627
 30
0.0
 10
17.01983909321383
 20
8.425930910476437
 30
0.0
 10
16.96302022342842
 20
8.435528005449298
 30
0.0
  0
SPLINE
  5
166
330
1F
100
AcDbEntity
  8
외형선
  6
Continuous
 62
     1
370
    15
100
AcDbSpline
210
0.0
220
0.0
230
1.0
 70
     8
 71
     3
 72
    10
 73
     6
 74
     0
 42
0.000000001
 43
0.00000001
 40
0.0
 40
0.0
 40
0.0
 40
0.0
 40
0.5
 40
0.5
 40
1.0
 40
1.0
 40
1.0
 40
1.0
 10
17.74477253945966
 20
8.249314968501183
 30
0.0
 10
17.65213692073533
 20
8.197573900885196
 30
0.0
 10
17.53965809726052
 20
8.182827703367208
 30
0.0
 10
17.31505064195255
 20
8.223875533085883
 30
0.0
 10
17.20789429846354
 20
8.278030144780196
 30
0.0
 10
17.11958557143622
 20
8.358123907591345
 30
0.0
  0
SPLINE
  5
167
330
1F
100
AcDbEntity
  8
외형선
  6
Continuous
 62
     1
370
    15
100
AcDbSpline
210
0.0
220
0.0
230
1.0
 70
     8
 71
     3
 72
     8
 73
     4
 74
     0
 42
0.000000001
 43
0.00000001
 40
0.0
 40
0.0
 40
0.0
 40
0.0
 40
1.0
 40
1.0
 40
1.0
 40
1.0
 10
17.90079867947884
 20
8.271648141364482
 30
0.0
 10
17.84567745965881
 20
8.28160350428463
 30
0.0
 10
17.79028801705775
 20
8.274737364728528
 30
0.0
 10
17.74477253945968
 20
8.249314968501173
 30
0.0
  0
SPLINE
  5
168
330
1F
100
AcDbEntity
  8
외형선
  6
Continuous
 62
     1
370
    15
100
AcDbSpline
210
0.0
220
0.0
230
1.0
 70
     8
 71
     3
 72
     8
 73
     4
 74
     0
 42
0.000000001
 43
0.00000001
 40
0.0
 40
0.0
 40
0.0
 40
0.0
 40
1.0
 40
1.0
 40
1.0
 40
1.0
 10
18.98963845793723
 20
8.06776740044741
 30
0.0
 10
18.62606394452788
 20
8.138147527636086
 30
0.0
 10
18.2636450853836
 20
8.20611768030327
 30
0.0
 10
17.90020484659432
 20
8.27175539044768
 30
0.0
  0
SPLINE
  5
169
330
1F
100
AcDbEntity
  8
외형선
  6
Continuous
 62
     1
370
    15
100
AcDbSpline
210
0.0
220
0.0
230
1.0
 70
     8
 71
     3
 72
     8
 73
     4
 74
     0
 42
0.000000001
 43
0.00000001
 40
0.0
 40
0.0
 40
0.0
 40
0.0
 40
1.0
 40
1.0
 40
1.0
 40
1.0
 10
19.14502654405266
 20
7.988293632072028
 30
0.0
 10
19.10028227597809
 20
8.02896308375553
 30
0.0
 10
19.04525574848137
 20
8.057001875483232
 30
0.0
 10
18.98842848679493
 20
8.068001616243206
 30
0.0
  0
SPLINE
  5
16A
330
1F
100
AcDbEntity
  8
외형선
  6
Continuous
 62
     1
370
    15
100
AcDbSpline
210
0.0
220
0.0
230
1.0
 70
     8
 71
     3
 72
    10
 73
     6
 74
     0
 42
0.000000001
 43
0.00000001
 40
0.0
 40
0.0
 40
0.0
 40
0.0
 40
0.5
 40
0.5
 40
1.0
 40
1.0
 40
1.0
 40
1.0
 10
19.77031019591145
 20
7.86446465804084
 30
0.0
 10
19.67765450474521
 20
7.817108765121465
 30
0.0
 10
19.56514620359192
 20
7.806018431425698
 30
0.0
 10
19.34051169716962
 20
7.852338136672791
 30
0.0
 10
19.23334702625019
 20
7.908016409134185
 30
0.0
 10
19.14502654405301
 20
7.988293632071799
 30
0.0
  0
SPLINE
  5
16B
330
1F
100
AcDbEntity
  8
외형선
  6
Continuous
 62
     1
370
    15
100
AcDbSpline
210
0.0
220
0.0
230
1.0
 70
     8
 71
     3
 72
     8
 73
     4
 74
     0
 42
0.000000001
 43
0.00000001
 40
0.0
 40
0.0
 40
0.0
 40
0.0
 40
1.0
 40
1.0
 40
1.0
 40
1.0
 10
19.92635274656232
 20
7.881455253079602
 30
0.0
 10
19.87122301104016
 20
7.892713509091158
 30
0.0
 10
19.81582816916864
 20
7.887728682520609
 30
0.0
 10
19.77031019591142
 20
7.864464658040894
 30
0.0
  0
SPLINE
  5
16C
330
1F
100
AcDbEntity
  8
외형선
  6
Continuous
 62
     1
370
    15
100
AcDbSpline
210
0.0
220
0.0
230
1.0
 70
     8
 71
     3
 72
     8
 73
     4
 74
     0
 42
0.000000001
 43
0.00000001
 40
0.0
 40
0.0
 40
0.0
 40
0.0
 40
1.0
 40
1.0
 40
1.0
 40
1.0
 10
21.0130817239231
 20
7.652839651512732
 30
0.0
 10
20.65123765621639
 20
7.731188724308102
 30
0.0
 10
20.28914937424874
 20
7.80736333229006
 30
0.0
 10
19.92728326112773
 20
7.881265224202557
 30
0.0
  0
SPLINE
  5
16D
330
1F
100
AcDbEntity
  8
외형선
  6
Continuous
 62
     1
370
    15
100
AcDbSpline
210
0.0
220
0.0
230
1.0
 70
     8
 71
     3
 72
     8
 73
     4
 74
     0
 42
0.000000001
 43
0.00000001
 40
0.0
 40
0.0
 40
0.0
 40
0.0
 40
1.0
 40
1.0
 40
1.0
 40
1.0
 10
21.17069373582003
 20
7.571157379601195
 30
0.0
 10
21.12594587451684
 20
7.611664227142579
 30
0.0
 10
21.07091460293498
 20
7.640316612381068
 30
0.0
 10
21.01408084934168
 20
7.652623308052925
 30
0.0
  0
SPLINE
  5
16E
330
1F
100
AcDbEntity
  8
외형선
  6
Continuous
 62
     1
370
    15
100
AcDbSpline
210
0.0
220
0.0
230
1.0
 70
     8
 71
     3
 72
    10
 73
     6
 74
     0
 42
0.000000001
 43
0.00000001
 40
0.0
 40
0.0
 40
0.0
 40
0.0
 40
0.5
 40
0.5
 40
1.0
 40
1.0
 40
1.0
 40
1.0
 10
21.79602800873787
 20
7.433045682960488
 30
0.0
 10
21.70336891002857
 20
7.390399667690566
 30
0.0
 10
21.59086416865296
 20
7.383046428828048
 30
0.0
 10
21.3662109136349
 20
7.434346275316784
 30
0.0
 10
21.259031090053
 20
7.491192267617523
 30
0.0
 10
21.17069373582037
 20
7.57115737960097
 30
0.0
  0
SPLINE
  5
16F
330
1F
100
AcDbEntity
  8
외형선
  6
Continuous
 62
     1
370
    15
100
AcDbSpline
210
0.0
220
0.0
230
1.0
 70
     8
 71
     3
 72
     8
 73
     4
 74
     0
 42
0.000000001
 43
0.00000001
 40
0.0
 40
0.0
 40
0.0
 40
0.0
 40
1.0
 40
1.0
 40
1.0
 40
1.0
 10
21.95208182686645
 20
7.444517436707614
 30
0.0
 10
21.89695163334292
 20
7.457042529015341
 30
0.0
 10
21.84155280963285
 20
7.45399830802562
 30
0.0
 10
21.7960280087379
 20
7.433045682960526
 30
0.0
  0
SPLINE
  5
170
330
1F
100
AcDbEntity
  8
외형선
  6
Continuous
 62
     1
370
    15
100
AcDbSpline
210
0.0
220
0.0
230
1.0
 70
     8
 71
     3
 72
     8
 73
     4
 74
     0
 42
0.000000001
 43
0.00000001
 40
0.0
 40
0.0
 40
0.0
 40
0.0
 40
1.0
 40
1.0
 40
1.0
 40
1.0
 10
23.03981293260415
 20
7.190850673536732
 30
0.0
 10
22.67647571092471
 20
7.277630873199573
 30
0.0
 10
22.31423455727784
 20
7.362244476621124
 30
0.0
 10
21.95088641269076
 20
7.444789016099699
 30
0.0
  0
SPLINE
  5
171
330
1F
100
AcDbEntity
  8
외형선
  6
Continuous
 62
     1
370
    15
100
AcDbSpline
210
0.0
220
0.0
230
1.0
 70
     8
 71
     3
 72
     8
 73
     4
 74
     0
 42
0.000000001
 43
0.00000001
 40
0.0
 40
0.0
 40
0.0
 40
0.0
 40
1.0
 40
1.0
 40
1.0
 40
1.0
 10
23.19650631797912
 20
7.108018442031742
 30
0.0
 10
23.15175455750394
 20
7.148140190596689
 30
0.0
 10
23.09672138329544
 20
7.17725850115134
 30
0.0
 10
23.03988776041804
 20
7.190832801481831
 30
0.0
  0
SPLINE
  5
172
330
1F
100
AcDbEntity
  8
외형선
  6
Continuous
 62
     1
370
    15
100
AcDbSpline
210
0.0
220
0.0
230
1.0
 70
     8
 71
     3
 72
    10
 73
     6
 74
     0
 42
0.000000001
 43
0.00000001
 40
0.0
 40
0.0
 40
0.0
 40
0.0
 40
0.5
 40
0.5
 40
1.0
 40
1.0
 40
1.0
 40
1.0
 10
23.82184246258941
 20
6.956448140097428
 30
0.0
 10
23.72917810377671
 20
6.918728953856483
 30
0.0
 10
23.61665985973456
 20
6.915138595687544
 30
0.0
 10
23.39200985445684
 20
6.97112591214116
 30
0.0
 10
23.2848374989838
 20
7.028825994693398
 30
0.0
 10
23.19650631797949
 20
7.108018442031509
 30
0.0
  0
SPLINE
  5
173
330
1F
100
AcDbEntity
  8
외형선
  6
Continuous
 62
     1
370
    15
100
AcDbSpline
210
0.0
220
0.0
230
1.0
 70
     8
 71
     3
 72
     8
 73
     4
 74
     0
 42
0.000000001
 43
0.00000001
 40
0.0
 40
0.0
 40
0.0
 40
0.0
 40
1.0
 40
1.0
 40
1.0
 40
1.0
 10
23.97789234904244
 20
6.962412551274008
 30
0.0
 10
23.92276033752749
 20
6.976095485562403
 30
0.0
 10
23.86736308853459
 20
6.974977388989156
 30
0.0
 10
23.82184246258943
 20
6.956448140097474
 30
0.0
  0
SPLINE
  5
174
330
1F
100
AcDbEntity
  8
외형선
  6
Continuous
 62
     1
370
    15
100
AcDbSpline
210
0.0
220
0.0
230
1.0
 70
     8
 71
     3
 72
     8
 73
     4
 74
     0
 42
0.000000001
 43
0.00000001
 40
0.0
 40
0.0
 40
0.0
 40
0.0
 40
1.0
 40
1.0
 40
1.0
 40
1.0
 10
25.06408316833
 20
6.686974710247795
 30
0.0
 10
24.70200402498727
 20
6.78074512534274
 30
0.0
 10
24.33970607169353
 20
6.872616687305107
 30
0.0
 10
23.97765650149135
 20
6.9624710848049
 30
0.0
  0
SPLINE
  5
175
330
1F
100
AcDbEntity
  8
외형선
  6
Continuous
 62
     1
370
    15
100
AcDbSpline
210
0.0
220
0.0
230
1.0
 70
     8
 71
     3
 72
     8
 73
     4
 74
     0
 42
0.000000001
 43
0.00000001
 40
0.0
 40
0.0
 40
0.0
 40
0.0
 40
1.0
 40
1.0
 40
1.0
 40
1.0
 10
25.22223397462545
 20
6.603005513182215
 30
0.0
 10
25.1774889632472
 20
6.642475546065033
 30
0.0
 10
25.12245988537862
 20
6.671855558925597
 30
0.0
 10
25.06562848036942
 20
6.686574497058984
 30
0.0
  0
SPLINE
  5
176
330
1F
100
AcDbEntity
  8
외형선
  6
Continuous
 62
     1
370
    15
100
AcDbSpline
210
0.0
220
0.0
230
1.0
 70
     8
 71
     3
 72
    10
 73
     6
 74
     0
 42
0.000000001
 43
0.00000001
 40
0.0
 40
0.0
 40
0.0
 40
0.0
 40
0.5
 40
0.5
 40
1.0
 40
1.0
 40
1.0
 40
1.0
 10
25.84752287447647
 20
6.438933936073427
 30
0.0
 10
25.75487201905581
 20
6.406405379622695
 30
0.0
 10
25.64237403026824
 20
6.406607683044859
 30
0.0
 10
25.41773558214991
 20
6.466915209493057
 30
0.0
 10
25.31056345167046
 20
6.525089176676466
 30
0.0
 10
25.22223397462573
 20
6.603005513182084
 30
0.0
  0
SPLINE
  5
177
330
1F
100
AcDbEntity
  8
외형선
  6
Continuous
 62
     1
370
    15
100
AcDbSpline
210
0.0
220
0.0
230
1.0
 70
     8
 71
     3
 72
     8
 73
     4
 74
     0
 42
0.000000001
 43
0.00000001
 40
0.0
 40
0.0
 40
0.0
 40
0.0
 40
1.0
 40
1.0
 40
1.0
 40
1.0
 10
26.00356297534235
 20
6.439279398017801
 30
0.0
 10
25.94843692011742
 20
6.45407146672055
 30
0.0
 10
25.8930427520023
 20
6.454915395704925
 30
0.0
 10
25.84752287447649
 20
6.438933936073436
 30
0.0
  0
SPLINE
  5
178
330
1F
100
AcDbEntity
  8
외형선
  6
Continuous
 62
     1
370
    15
100
AcDbSpline
210
0.0
220
0.0
230
1.0
 70
     8
 71
     3
 72
     8
 73
     4
 74
     0
 42
0.000000001
 43
0.00000001
 40
0.0
 40
0.0
 40
0.0
 40
0.0
 40
1.0
 40
1.0
 40
1.0
 40
1.0
 10
27.08903310752544
 20
6.142310183744031
 30
0.0
 10
26.72775564722602
 20
6.242890215459444
 30
0.0
 10
26.36747551005381
 20
6.341621135185619
 30
0.0
 10
26.00604674202235
 20
6.438612893871961
 30
0.0
  0
SPLINE
  5
179
330
1F
100
AcDbEntity
  8
외형선
  6
Continuous
 62
     1
370
    15
100
AcDbSpline
210
0.0
220
0.0
230
1.0
 70
     8
 71
     3
 72
     8
 73
     4
 74
     0
 42
0.000000001
 43
0.00000001
 40
0.0
 40
0.0
 40
0.0
 40
0.0
 40
1.0
 40
1.0
 40
1.0
 40
1.0
 10
27.24779277002977
 20
6.057776361562937
 30
0.0
 10
27.20305366569881
 20
6.096385109701844
 30
0.0
 10
27.14803149387714
 20
6.125883918926418
 30
0.0
 10
27.09120878770079
 20
6.141704452313093
 30
0.0
  0
SPLINE
  5
17A
330
1F
100
AcDbEntity
  8
외형선
  6
Continuous
 62
     1
370
    15
100
AcDbSpline
210
0.0
220
0.0
230
1.0
 70
     8
 71
     3
 72
    10
 73
     6
 74
     0
 42
0.000000001
 43
0.00000001
 40
0.0
 40
0.0
 40
0.0
 40
0.0
 40
0.5
 40
0.5
 40
1.0
 40
1.0
 40
1.0
 40
1.0
 10
27.87298867993616
 20
5.882136226536611
 30
0.0
 10
27.78034737169465
 20
5.854955251056809
 30
0.0
 10
27.66785188643278
 20
5.858936799052429
 30
0.0
 10
27.44324698406358
 20
5.92323391085907
 30
0.0
 10
27.33609812014312
 20
5.981571013404108
 30
0.0
 10
27.24779277003009
 20
6.057776361562804
 30
0.0
  0
SPLINE
  5
17B
330
1F
100
AcDbEntity
  8
외형선
  6
Continuous
 62
     1
370
    15
100
AcDbSpline
210
0.0
220
0.0
230
1.0
 70
     8
 71
     3
 72
     8
 73
     4
 74
     0
 42
0.000000001
 43
0.00000001
 40
0.0
 40
0.0
 40
0.0
 40
0.0
 40
1.0
 40
1.0
 40
1.0
 40
1.0
 10
28.02900460560043
 20
5.876943131170862
 30
0.0
 10
27.97388339852133
 20
5.892719970414718
 30
0.0
 10
27.91849774613611
 20
5.8954885942435
 30
0.0
 10
27.87298867993619
 20
5.882136226536604
 30
0.0
  0
SPLINE
  5
17C
330
1F
100
AcDbEntity
  8
외형선
  6
Continuous
 62
     1
370
    15
100
AcDbSpline
210
0.0
220
0.0
230
1.0
 70
     8
 71
     3
 72
     8
 73
     4
 74
     0
 42
0.000000001
 43
0.00000001
 40
0.0
 40
0.0
 40
0.0
 40
0.0
 40
1.0
 40
1.0
 40
1.0
 40
1.0
 10
29.11465080619272
 20
5.561318348739921
 30
0.0
 10
28.75275705107101
 20
5.668159882120902
 30
0.0
 10
28.39067058559508
 20
5.773427224652003
 30
0.0
 10
28.02885778446414
 20
5.876985154353125
 30
0.0
  0
SPLINE
  5
17D
330
1F
100
AcDbEntity
  8
외형선
  6
Continuous
 62
     1
370
    15
100
AcDbSpline
210
0.0
220
0.0
230
1.0
 70
     8
 71
     3
 72
     8
 73
     4
 74
     0
 42
0.000000001
 43
0.00000001
 40
0.0
 40
0.0
 40
0.0
 40
0.0
 40
1.0
 40
1.0
 40
1.0
 40
1.0
 10
29.27295794741827
 20
5.477141662372906
 30
0.0
 10
29.22823580809042
 20
5.51462392987747
 30
0.0
 10
29.17322646106635
 20
5.544024271895929
 30
0.0
 10
29.11641457410487
 20
5.560797620384586
 30
0.0
  0
SPLINE
  5
17E
330
1F
100
AcDbEntity
  8
외형선
  6
Continuous
 62
     1
370
    15
100
AcDbSpline
210
0.0
220
0.0
230
1.0
 70
     8
 71
     3
 72
    10
 73
     6
 74
     0
 42
0.000000001
 43
0.00000001
 40
0.0
 40
0.0
 40
0.0
 40
0.0
 40
0.5
 40
0.5
 40
1.0
 40
1.0
 40
1.0
 40
1.0
 10
29.89801003700654
 20
5.291103277037941
 30
0.0
 10
29.80539893177546
 20
5.269463055534068
 30
0.0
 10
29.69294016857786
 20
5.277198860374206
 30
0.0
 10
29.46837671984914
 20
5.345046227824994
 30
0.0
 10
29.36124324708394
 20
5.403148484306441
 30
0.0
 10
29.27295794741865
 20
5.477141662372713
 30
0.0
  0
SPLINE
  5
17F
330
1F
100
AcDbEntity
  8
외형선
  6
Continuous
 62
     1
370
    15
100
AcDbSpline
210
0.0
220
0.0
230
1.0
 70
     8
 71
     3
 72
     8
 73
     4
 74
     0
 42
0.000000001
 43
0.00000001
 40
0.0
 40
0.0
 40
0.0
 40
0.0
 40
1.0
 40
1.0
 40
1.0
 40
1.0
 10
30.05399540113701
 20
5.280331668952163
 30
0.0
 10
29.99888647232385
 20
5.297031715639156
 30
0.0
 10
29.9435108689295
 20
5.301735350577833
 30
0.0
 10
29.89801003700655
 20
5.291103277037993
 30
0.0
  0
SPLINE
  5
180
330
1F
100
AcDbEntity
  8
외형선
  6
Continuous
 62
     1
370
    15
100
AcDbSpline
210
0.0
220
0.0
230
1.0
 70
     8
 71
     3
 72
     8
 73
     4
 74
     0
 42
0.000000001
 43
0.00000001
 40
0.0
 40
0.0
 40
0.0
 40
0.0
 40
1.0
 40
1.0
 40
1.0
 40
1.0
 10
31.14048272644339
 20
4.946320851171411
 30
0.0
 10
30.77745787664074
 20
5.059343020188924
 30
0.0
 10
30.41531275336806
 20
5.170845190466161
 30
0.0
 10
30.051986822202
 20
5.28094032596365
 30
0.0
  0
SPLINE
  5
181
330
1F
100
AcDbEntity
  8
외형선
  6
Continuous
 62
     1
370
    15
100
AcDbSpline
210
0.0
220
0.0
230
1.0
 70
     8
 71
     3
 72
     8
 73
     4
 74
     0
 42
0.000000001
 43
0.00000001
 40
0.0
 40
0.0
 40
0.0
 40
0.0
 40
1.0
 40
1.0
 40
1.0
 40
1.0
 10
31.29764442171985
 20
4.863095724444645
 30
0.0
 10
31.25293777791009
 20
4.899261734032208
 30
0.0
 10
31.19794396637852
 20
4.928430936242918
 30
0.0
 10
31.14114916504417
 20
4.946113364385139
 30
0.0
  0
SPLINE
  5
182
330
1F
100
AcDbEntity
  8
외형선
  6
Continuous
 62
     1
370
    15
100
AcDbSpline
210
0.0
220
0.0
230
1.0
 70
     8
 71
     3
 72
    10
 73
     6
 74
     0
 42
0.000000001
 43
0.00000001
 40
0.0
 40
0.0
 40
0.0
 40
0.0
 40
0.5
 40
0.5
 40
1.0
 40
1.0
 40
1.0
 40
1.0
 10
31.92251112768808
 20
4.667656556347631
 30
0.0
 10
31.82992393906217
 20
4.651653303357103
 30
0.0
 10
31.71748328486715
 20
4.663094640855204
 30
0.0
 10
31.49298289230125
 20
4.734139107386045
 30
0.0
 10
31.38588809250237
 20
4.791709881724021
 30
0.0
 10
31.29764442172019
 20
4.863095724444507
 30
0.0
  0
SPLINE
  5
183
330
1F
100
AcDbEntity
  8
외형선
  6
Continuous
 62
     1
370
    15
100
AcDbSpline
210
0.0
220
0.0
230
1.0
 70
     8
 71
     3
 72
     8
 73
     4
 74
     0
 42
0.000000001
 43
0.00000001
 40
0.0
 40
0.0
 40
0.0
 40
0.0
 40
1.0
 40
1.0
 40
1.0
 40
1.0
 10
32.0784527074053
 20
4.651448707168681
 30
0.0
 10
32.02335509689812
 20
4.668937019150992
 30
0.0
 10
31.96799473815458
 20
4.675518181006757
 30
0.0
 10
31.9225111276881
 20
4.66765655634767
 30
0.0
  0
SPLINE
  5
184
330
1F
100
AcDbEntity
  8
외형선
  6
Continuous
 62
     1
370
    15
100
AcDbSpline
210
0.0
220
0.0
230
1.0
 70
     8
 71
     3
 72
     8
 73
     4
 74
     0
 42
0.000000001
 43
0.00000001
 40
0.0
 40
0.0
 40
0.0
 40
0.0
 40
1.0
 40
1.0
 40
1.0
 40
1.0
 10
33.16286365072683
 20
4.303454683386102
 30
0.0
 10
32.80106274511729
 20
4.420824787201729
 30
0.0
 10
32.43909609668258
 20
4.536980719497401
 30
0.0
 10
32.07742961500806
 20
4.651773439450131
 30
0.0
  0
SPLINE
  5
185
330
1F
100
AcDbEntity
  8
외형선
  6
Continuous
 62
     1
370
    15
100
AcDbSpline
210
0.0
220
0.0
230
1.0
 70
     8
 71
     3
 72
     8
 73
     4
 74
     0
 42
0.000000001
 43
0.00000001
 40
0.0
 40
0.0
 40
0.0
 40
0.0
 40
1.0
 40
1.0
 40
1.0
 40
1.0
 10
33.3216392960552
 20
4.220970689763292
 30
0.0
 10
33.27695943668259
 20
4.25556223959819
 30
0.0
 10
33.22198682468153
 20
4.284273938830524
 30
0.0
 10
33.16521109861216
 20
4.302693141244533
 30
0.0
  0
SPLINE
  5
186
330
1F
100
AcDbEntity
  8
외형선
  6
Continuous
 62
     1
370
    15
100
AcDbSpline
210
0.0
220
0.0
230
1.0
 70
     8
 71
     3
 72
    10
 73
     6
 74
     0
 42
0.000000001
 43
0.00000001
 40
0.0
 40
0.0
 40
0.0
 40
0.0
 40
0.5
 40
0.5
 40
1.0
 40
1.0
 40
1.0
 40
1.0
 10
33.94626952452465
 20
4.017499713520977
 30
0.0
 10
33.85372860508301
 20
4.00724851174713
 30
0.0
 10
33.74134047038402
 20
4.022314044061366
 30
0.0
 10
33.51691017821258
 20
4.096050084787557
 30
0.0
 10
33.40984529232707
 20
4.152680812430957
 30
0.0
 10
33.32163929605554
 20
4.220970689763181
 30
0.0
  0
SPLINE
  5
187
330
1F
100
AcDbEntity
  8
외형선
  6
Continuous
 62
     1
370
    15
100
AcDbSpline
210
0.0
220
0.0
230
1.0
 70
     8
 71
     3
 72
     8
 73
     4
 74
     0
 42
0.000000001
 43
0.00000001
 40
0.0
 40
0.0
 40
0.0
 40
0.0
 40
1.0
 40
1.0
 40
1.0
 40
1.0
 10
34.10216061036687
 20
3.995891960508176
 30
0.0
 10
34.0470813230212
 20
4.01409439279562
 30
0.0
 10
33.99173769540973
 20
4.022536441023155
 30
0.0
 10
33.9462695245247
 20
4.017499713520965
 30
0.0
  0
SPLINE
  5
188
330
1F
100
AcDbEntity
  8
외형선
  6
Continuous
 62
     1
370
    15
100
AcDbSpline
210
0.0
220
0.0
230
1.0
 70
     8
 71
     3
 72
     8
 73
     4
 74
     0
 42
0.000000001
 43
0.00000001
 40
0.0
 40
0.0
 40
0.0
 40
0.0
 40
1.0
 40
1.0
 40
1.0
 40
1.0
 10
35.18934816218026
 20
3.63289339798389
 30
0.0
 10
34.82684005271393
 20
3.754993164369029
 30
0.0
 10
34.46504990444365
 20
3.875965587900421
 30
0.0
 10
34.10209368193707
 20
3.995914078793848
 30
0.0
  0
SPLINE
  5
189
330
1F
100
AcDbEntity
  8
외형선
  6
Continuous
 62
     1
370
    15
100
AcDbSpline
210
0.0
220
0.0
230
1.0
 70
     8
 71
     3
 72
     8
 73
     4
 74
     0
 42
0.000000001
 43
0.00000001
 40
0.0
 40
0.0
 40
0.0
 40
0.0
 40
1.0
 40
1.0
 40
1.0
 40
1.0
 10
35.34485838531758
 20
3.553073069674734
 30
0.0
 10
35.30020313329771
 20
3.585926437598674
 30
0.0
 10
35.24525428549657
 20
3.614063343769828
 30
0.0
 10
35.1885036311436
 20
3.633177850829352
 30
0.0
  0
SPLINE
  5
18A
330
1F
100
AcDbEntity
  8
외형선
  6
Continuous
 62
     1
370
    15
100
AcDbSpline
210
0.0
220
0.0
230
1.0
 70
     8
 71
     3
 72
    10
 73
     6
 74
     0
 42
0.000000001
 43
0.00000001
 40
0.0
 40
0.0
 40
0.0
 40
0.0
 40
0.5
 40
0.5
 40
1.0
 40
1.0
 40
1.0
 40
1.0
 10
35.96921572450501
 20
3.342587751394352
 30
0.0
 10
35.87671223771319
 20
3.338124955714179
 30
0.0
 10
35.76435700058436
 20
3.356735245786515
 30
0.0
 10
35.54001774005101
 20
3.432802847284926
 30
0.0
 10
35.43300616197027
 20
3.488221765358625
 30
0.0
 10
35.34485838531792
 20
3.553073069674614
 30
0.0
  0
SPLINE
  5
18B
330
1F
100
AcDbEntity
  8
외형선
  6
Continuous
 62
     1
370
    15
100
AcDbSpline
210
0.0
220
0.0
230
1.0
 70
     8
 71
     3
 72
     8
 73
     4
 74
     0
 42
0.000000001
 43
0.00000001
 40
0.0
 40
0.0
 40
0.0
 40
0.0
 40
1.0
 40
1.0
 40
1.0
 40
1.0
 10
36.12504456205784
 20
3.315775818029257
 30
0.0
 10
36.06998271048697
 20
3.334551832515984
 30
0.0
 10
36.01466067327188
 20
3.34478022573317
 30
0.0
 10
35.96921572450503
 20
3.34258775139435
 30
0.0
  0
SPLINE
  5
18C
330
1F
100
AcDbEntity
  8
외형선
  6
Continuous
 62
     1
370
    15
100
AcDbSpline
210
0.0
220
0.0
230
1.0
 70
     8
 71
     3
 72
     8
 73
     4
 74
     0
 42
0.000000001
 43
0.00000001
 40
0.0
 40
0.0
 40
0.0
 40
0.0
 40
1.0
 40
1.0
 40
1.0
 40
1.0
 10
37.21224973733626
 20
2.942408548553051
 30
0.0
 10
36.84981267525655
 20
3.067753496138374
 30
0.0
 10
36.48723573950927
 20
3.19226922495788
 30
0.0
 10
36.12498719442423
 20
3.315795380304838
 30
0.0
  0
SPLINE
  5
18D
330
1F
100
AcDbEntity
  8
외형선
  6
Continuous
 62
     1
370
    15
100
AcDbSpline
210
0.0
220
0.0
230
1.0
 70
     8
 71
     3
 72
     8
 73
     4
 74
     0
 42
0.000000001
 43
0.00000001
 40
0.0
 40
0.0
 40
0.0
 40
0.0
 40
1.0
 40
1.0
 40
1.0
 40
1.0
 10
37.36740059188028
 20
2.864976197078385
 30
0.0
 10
37.32274824552876
 20
2.895857120739478
 30
0.0
 10
37.26780101171971
 20
2.923197039674199
 30
0.0
 10
37.21104955779929
 20
2.942823614490843
 30
0.0
  0
SPLINE
  5
18E
330
1F
100
AcDbEntity
  8
외형선
  6
Continuous
 62
     1
370
    15
100
AcDbSpline
210
0.0
220
0.0
230
1.0
 70
     8
 71
     3
 72
    10
 73
     6
 74
     0
 42
0.000000001
 43
0.00000001
 40
0.0
 40
0.0
 40
0.0
 40
0.0
 40
0.5
 40
0.5
 40
1.0
 40
1.0
 40
1.0
 40
1.0
 10
37.99186649674311
 20
2.648872722035628
 30
0.0
 10
37.89934992104647
 20
2.650250925930101
 30
0.0
 10
37.78699276026296
 20
2.672300040447568
 30
0.0
 10
37.56261028944404
 20
2.750184599273067
 30
0.0
 10
37.45556999280814
 20
2.803999501299275
 30
0.0
 10
37.36740059188062
 20
2.864976197078317
 30
0.0
  0
SPLINE
  5
18F
330
1F
100
AcDbEntity
  8
외형선
  6
Continuous
 62
     1
370
    15
100
AcDbSpline
210
0.0
220
0.0
230
1.0
 70
     8
 71
     3
 72
     8
 73
     4
 74
     0
 42
0.000000001
 43
0.00000001
 40
0.0
 40
0.0
 40
0.0
 40
0.0
 40
1.0
 40
1.0
 40
1.0
 40
1.0
 10
38.14774380873892
 20
2.616928474774355
 30
0.0
 10
38.09266862395035
 20
2.636205307591284
 30
0.0
 10
38.03732943947856
 20
2.648195468210995
 30
0.0
 10
37.99186649674314
 20
2.64887272203563
 30
0.0
  0
SPLINE
  5
190
330
1F
100
AcDbEntity
  8
외형선
  6
Continuous
 62
     1
370
    15
100
AcDbSpline
210
0.0
220
0.0
230
1.0
 70
     8
 71
     3
 72
     8
 73
     4
 74
     0
 42
0.000000001
 43
0.00000001
 40
0.0
 40
0.0
 40
0.0
 40
0.0
 40
1.0
 40
1.0
 40
1.0
 40
1.0
 10
39.23634836239646
 20
2.233345760469363
 30
0.0
 10
38.87308168990582
 20
2.362037421450359
 30
0.0
 10
38.5103306942713
 20
2.490021738678018
 30
0.0
 10
38.14645860847186
 20
2.617378303270154
 30
0.0
  0
SPLINE
  5
191
330
1F
100
AcDbEntity
  8
외형선
  6
Continuous
 62
     1
370
    15
100
AcDbSpline
210
0.0
220
0.0
230
1.0
 70
     8
 71
     3
 72
     8
 73
     4
 74
     0
 42
0.000000001
 43
0.00000001
 40
0.0
 40
0.0
 40
0.0
 40
0.0
 40
1.0
 40
1.0
 40
1.0
 40
1.0
 10
39.39068972288774
 20
2.15873193136729
 30
0.0
 10
39.34600557423357
 20
2.187519052162501
 30
0.0
 10
39.29103296668131
 20
2.213973345037425
 30
0.0
 10
39.23425841980661
 20
2.234086143044629
 30
0.0
  0
SPLINE
  5
192
330
1F
100
AcDbEntity
  8
외형선
  6
Continuous
 62
     1
370
    15
100
AcDbSpline
210
0.0
220
0.0
230
1.0
 70
     8
 71
     3
 72
    10
 73
     6
 74
     0
 42
0.000000001
 43
0.00000001
 40
0.0
 40
0.0
 40
0.0
 40
0.0
 40
0.5
 40
0.5
 40
1.0
 40
1.0
 40
1.0
 40
1.0
 10
40.01542139451158
 20
1.93792966918683
 30
0.0
 10
39.92285265221314
 20
1.945141319661287
 30
0.0
 10
39.8104368781433
 20
1.970540485473373
 30
0.0
 10
39.58597664126498
 20
2.049917302389609
 30
0.0
 10
39.47890304002864
 20
2.101901769156199
 30
0.0
 10
39.39068972288808
 20
2.158731931367257
 30
0.0
  0
SPLINE
  5
193
330
1F
100
AcDbEntity
  8
외형선
  6
Continuous
 62
     1
370
    15
100
AcDbSpline
210
0.0
220
0.0
230
1.0
 70
     8
 71
     3
 72
     8
 73
     4
 74
     0
 42
0.000000001
 43
0.00000001
 40
0.0
 40
0.0
 40
0.0
 40
0.0
 40
1.0
 40
1.0
 40
1.0
 40
1.0
 10
40.17135200292167
 20
1.901081799937997
 30
0.0
 10
40.11625796332904
 20
1.920720517264522
 30
0.0
 10
40.06090126831641
 20
1.934386519033104
 30
0.0
 10
40.01542139451164
 20
1.937929669186806
 30
0.0
  0
SPLINE
  5
194
330
1F
100
AcDbEntity
  8
외형선
  6
Continuous
 62
     1
370
    15
100
AcDbSpline
210
0.0
220
0.0
230
1.0
 70
     8
 71
     3
 72
     8
 73
     4
 74
     0
 42
0.000000001
 43
0.00000001
 40
0.0
 40
0.0
 40
0.0
 40
0.0
 40
1.0
 40
1.0
 40
1.0
 40
1.0
 10
41.25891388222242
 20
1.512027091578594
 30
0.0
 10
40.89622462257933
 20
1.642233812000981
 30
0.0
 10
40.53342295462477
 20
1.772018989587706
 30
0.0
 10
40.17097800773525
 20
1.901215113392113
 30
0.0
  0
SPLINE
  5
195
330
1F
100
AcDbEntity
  8
외형선
  6
Continuous
 62
     1
370
    15
100
AcDbSpline
210
0.0
220
0.0
230
1.0
 70
     8
 71
     3
 72
     8
 73
     4
 74
     0
 42
0.000000001
 43
0.00000001
 40
0.0
 40
0.0
 40
0.0
 40
0.0
 40
1.0
 40
1.0
 40
1.0
 40
1.0
 10
41.41474658256665
 20
1.440075094797708
 30
0.0
 10
41.37004287861424
 20
1.466537208582407
 30
0.0
 10
41.31505043052627
 20
1.491873960275551
 30
0.0
 10
41.25825489908194
 20
1.512263668336765
 30
0.0
  0
SPLINE
  5
196
330
1F
100
AcDbEntity
  8
외형선
  6
Continuous
 62
     1
370
    15
100
AcDbSpline
210
0.0
220
0.0
230
1.0
 70
     8
 71
     3
 72
    10
 73
     6
 74
     0
 42
0.000000001
 43
0.00000001
 40
0.0
 40
0.0
 40
0.0
 40
0.0
 40
0.5
 40
0.5
 40
1.0
 40
1.0
 40
1.0
 40
1.0
 10
42.03968759662541
 20
1.216267395595173
 30
0.0
 10
41.94709340186498
 20
1.229270246656582
 30
0.0
 10
41.83465473749973
 20
1.257827440296984
 30
0.0
 10
41.61012342263991
 20
1.3380833571976
 30
0.0
 10
41.50300667297342
 20
1.387830015564978
 30
0.0
 10
41.41474658256701
 20
1.440075094797669
 30
0.0
  0
SPLINE
  5
197
330
1F
100
AcDbEntity
  8
외형선
  6
Continuous
 62
     1
370
    15
100
AcDbSpline
210
0.0
220
0.0
230
1.0
 70
     8
 71
     3
 72
     8
 73
     4
 74
     0
 42
0.000000001
 43
0.00000001
 40
0.0
 40
0.0
 40
0.0
 40
0.0
 40
1.0
 40
1.0
 40
1.0
 40
1.0
 10
42.195663255365
 20
1.174703443823599
 30
0.0
 10
42.14055675673222
 20
1.194607800820139
 30
0.0
 10
42.08518423207208
 20
1.209878377622294
 30
0.0
 10
42.03968759662543
 20
1.216267395595167
 30
0.0
  0
SPLINE
  5
198
330
1F
100
AcDbEntity
  8
외형선
  6
Continuous
 62
     1
370
    15
100
AcDbSpline
210
0.0
220
0.0
230
1.0
 70
     8
 71
     3
 72
     8
 73
     4
 74
     0
 42
0.000000001
 43
0.00000001
 40
0.0
 40
0.0
 40
0.0
 40
0.0
 40
1.0
 40
1.0
 40
1.0
 40
1.0
 10
43.28387408231363
 20
0.7803091279202624
 30
0.0
 10
42.92121662597661
 20
0.9120468438961268
 30
0.0
 10
42.55883810309835
 20
1.043525618542323
 30
0.0
 10
42.19542547733766
 20
1.174789328704752
 30
0.0
  0
SPLINE
  5
199
330
1F
100
AcDbEntity
  8
외형선
  6
Continuous
 62
     1
370
    15
100
AcDbSpline
210
0.0
220
0.0
230
1.0
 70
     8
 71
     3
 72
     8
 73
     4
 74
     0
 42
0.000000001
 43
0.00000001
 40
0.0
 40
0.0
 40
0.0
 40
0.0
 40
1.0
 40
1.0
 40
1.0
 40
1.0
 10
43.43947682292436
 20
0.7118345124584006
 30
0.0
 10
43.39475029126363
 20
0.7358710688017432
 30
0.0
 10
43.33974054211495
 20
0.7600152766017864
 30
0.0
 10
43.28292976890089
 20
0.780652155927002
 30
0.0
  0
SPLINE
  5
19A
330
1F
100
AcDbEntity
  8
외형선
  6
Continuous
 62
     1
370
    15
100
AcDbSpline
210
0.0
220
0.0
230
1.0
 70
     8
 71
     3
 72
    10
 73
     6
 74
     0
 42
0.000000001
 43
0.00000001
 40
0.0
 40
0.0
 40
0.0
 40
0.0
 40
0.5
 40
0.5
 40
1.0
 40
1.0
 40
1.0
 40
1.0
 10
44.06459552718223
 20
0.4859655391072054
 30
0.0
 10
43.97196283649486
 20
0.504692526194823
 30
0.0
 10
43.85948034980103
 20
0.536278491979926
 30
0.0
 10
43.63489950058792
 20
0.6170764258014007
 30
0.0
 10
43.52776419204533
 20
0.664387857341537
 30
0.0
 10
43.43947682292472
 20
0.7118345124583668
 30
0.0
  0
SPLINE
  5
19B
330
1F
100
AcDbEntity
  8
외형선
  6
Continuous
 62
     1
370
    15
100
AcDbSpline
210
0.0
220
0.0
230
1.0
 70
     8
 71
     3
 72
     8
 73
     4
 74
     0
 42
0.000000001
 43
0.00000001
 40
0.0
 40
0.0
 40
0.0
 40
0.0
 40
1.0
 40
1.0
 40
1.0
 40
1.0
 10
44.22060540523867
 20
0.4399600613298353
 30
0.0
 10
44.16548635977468
 20
0.4599912634322173
 30
0.0
 10
44.11010287823729
 20
0.476765595013216
 30
0.0
 10
44.06459552718223
 20
0.485965539107209
 30
0.0
  0
SPLINE
  5
19C
330
1F
100
AcDbEntity
  8
외형선
  6
Continuous
 62
     1
370
    15
100
AcDbSpline
210
0.0
220
0.0
230
1.0
 70
     8
 71
     3
 72
     8
 73
     4
 74
     0
 42
0.000000001
 43
0.00000001
 40
0.0
 40
0.0
 40
0.0
 40
0.0
 40
1.0
 40
1.0
 40
1.0
 40
1.0
 10
45.30818646432924
 20
0.0446135724085781
 30
0.0
 10
44.94557107707832
 20
0.1764615027127256
 30
0.0
 10
44.58286984671845
 20
0.308306982130488
 30
0.0
 10
44.22055150685016
 20
0.4399796489241077
 30
0.0
  0
SPLINE
  5
19D
330
1F
100
AcDbEntity
  8
외형선
  6
Continuous
 62
     1
370
    15
100
AcDbSpline
210
0.0
220
0.0
230
1.0
 70
     8
 71
     3
 72
     8
 73
     4
 74
     0
 42
0.000000001
 43
0.00000001
 40
0.0
 40
0.0
 40
0.0
 40
0.0
 40
1.0
 40
1.0
 40
1.0
 40
1.0
 10
45.46468214014275
 20
-0.0201407114792445
 30
0.0
 10
45.41994599591227
 20
0.0012602496258031
 30
0.0
 10
45.36492488846654
 20
0.0239833295790165
 30
0.0
 10
45.30810148539716
 20
0.0446444709762849
 30
0.0
  0
SPLINE
  5
19E
330
1F
100
AcDbEntity
  8
외형선
  6
Continuous
 62
     1
370
    15
100
AcDbSpline
210
0.0
220
0.0
230
1.0
 70
     8
 71
     3
 72
    10
 73
     6
 74
     0
 42
0.000000001
 43
0.00000001
 40
0.0
 40
0.0
 40
0.0
 40
0.0
 40
0.5
 40
0.5
 40
1.0
 40
1.0
 40
1.0
 40
1.0
 10
46.08991612081913
 20
-0.2462517445330415
 30
0.0
 10
45.99727429997839
 20
-0.22192908184802
 30
0.0
 10
45.88478500159177
 20
-0.1875582294296743
 30
0.0
 10
45.66016215941802
 20
-0.1068700850102292
 30
0.0
 10
45.55299844811932
 20
-0.0623896335635125
 30
0.0
 10
45.46468214014311
 20
-0.0201407114792536
 30
0.0
  0
SPLINE
  5
19F
330
1F
100
AcDbEntity
  8
외형선
  6
Continuous
 62
     1
370
    15
100
AcDbSpline
210
0.0
220
0.0
230
1.0
 70
     8
 71
     3
 72
     8
 73
     4
 74
     0
 42
0.000000001
 43
0.00000001
 40
0.0
 40
0.0
 40
0.0
 40
0.0
 40
1.0
 40
1.0
 40
1.0
 40
1.0
 10
46.24595081911791
 20
-0.2964351292547047
 30
0.0
 10
46.19082546293393
 20
-0.2763825728478789
 30
0.0
 10
46.13543293515016
 20
-0.2582019643303662
 30
0.0
 10
46.08991612081917
 20
-0.2462517445330615
 30
0.0
  0
SPLINE
  5
1A0
330
1F
100
AcDbEntity
  8
외형선
  6
Continuous
 62
     1
370
    15
100
AcDbSpline
210
0.0
220
0.0
230
1.0
 70
     8
 71
     3
 72
     8
 73
     4
 74
     0
 42
0.000000001
 43
0.00000001
 40
0.0
 40
0.0
 40
0.0
 40
0.0
 40
1.0
 40
1.0
 40
1.0
 40
1.0
 10
47.33355027485673
 20
-0.6921333938537739
 30
0.0
 10
46.97126335741876
 20
-0.5604136582065
 30
0.0
 10
46.60899288244445
 20
-0.4284963340852514
 30
0.0
 10
46.24580523270269
 20
-0.2963821703279003
 30
0.0
  0
SPLINE
  5
1A1
330
1F
100
AcDbEntity
  8
외형선
  6
Continuous
 62
     1
370
    15
100
AcDbSpline
210
0.0
220
0.0
230
1.0
 70
     8
 71
     3
 72
     8
 73
     4
 74
     0
 42
0.000000001
 43
0.00000001
 40
0.0
 40
0.0
 40
0.0
 40
0.0
 40
1.0
 40
1.0
 40
1.0
 40
1.0
 10
49.35798205708951
 20
-1.424054400674416
 30
0.0
 10
48.99569542580392
 20
-1.293807070347138
 30
0.0
 10
48.63334935026295
 20
-1.1631439206734
 30
0.0
 10
48.27141118184333
 20
-1.032233859178888
 30
0.0
  0
SPLINE
  5
1A2
330
1F
100
AcDbEntity
  8
외형선
  6
Continuous
370
    15
100
AcDbSpline
210
0.0
220
0.0
230
1.0
 70
    24
 71
     3
 72
    17
 73
    13
 74
     0
 42
0.000000001
 43
0.00000001
 40
0.0
 40
0.0
 40
0.0
 40
0.0
 40
0.0911297254880908
 40
0.1822594897904243
 40
0.2895328996477432
 40
0.3968062929384081
 40
0.5040796874385278
 40
0.6113530911023082
 40
0.7186264949333694
 40
0.8258999078585257
 40
0.9331733237511166
 40
1.0
 40
1.0
 40
1.0
 40
1.0
 10
10.00000004749744
 20
9.301804006099696
 30
0.0
 10
10.00000004749744
 20
8.983341074847477
 30
0.0
 10
10.00000004749744
 20
8.34641507670237
 30
0.0
 10
10.00000004749744
 20
7.34175260877667
 30
0.0
 10
10.00000004749744
 20
6.317335650265443
 30
0.0
 10
10.00000004749744
 20
5.308135019438086
 30
0.0
 10
10.00000004749744
 20
4.400307485625184
 30
0.0
 10
10.00000004749744
 20
3.615695511807838
 30
0.0
 10
10.00000004749744
 20
2.979487918919871
 30
0.0
 10
10.00000004749744
 20
2.513406065762872
 30
0.0
 10
10.00000004749744
 20
2.239425307711069
 30
0.0
 10
10.00000004749744
 20
2.199359444524637
 30
0.0
 10
10.00000004749744
 20
2.183980541303748
 30
0.0
  0
SPLINE
  5
1A3
330
1F
100
AcDbEntity
  8
외형선
  6
Continuous
 62
     1
370
    15
100
AcDbSpline
210
0.0
220
0.0
230
1.0
 70
     8
 71
     3
 72
     8
 73
     4
 74
     0
 42
0.000000001
 43
0.00000001
 40
0.0
 40
0.0
 40
0.0
 40
0.0
 40
1.0
 40
1.0
 40
1.0
 40
1.0
 10
15.60675268920935
 20
-3.96590583629246
 30
0.0
 10
15.56202983845818
 20
-3.960860596429111
 30
0.0
 10
15.50702030013904
 20
-3.948027551392046
 30
0.0
 10
15.45020961502694
 20
-3.929200100149487
 30
0.0
  0
SPLINE
  5
1A4
330
1F
100
AcDbEntity
  8
외형선
  6
Continuous
 62
     1
370
    15
100
AcDbSpline
210
0.0
220
0.0
230
1.0
 70
     8
 71
     3
 72
    10
 73
     6
 74
     0
 42
0.000000001
 43
0.00000001
 40
0.0
 40
0.0
 40
0.0
 40
0.0
 40
0.5
 40
0.5
 40
1.0
 40
1.0
 40
1.0
 40
1.0
 10
15.45017912248152
 20
-3.928380746600561
 30
0.0
 10
15.42611234242285
 20
-3.281685468981867
 30
0.0
 10
15.40100388662695
 20
-2.592592736816709
 30
0.0
 10
15.35055332557529
 20
-1.179071503224734
 30
0.0
 10
15.32522753518418
 20
-0.4550961390217038
 30
0.0
 10
15.30075257495871
 20
0.2584786550371057
 30
0.0
  0
SPLINE
  5
1A5
330
1F
100
AcDbEntity
  8
외형선
  6
Continuous
 62
     1
370
    15
100
AcDbSpline
210
0.0
220
0.0
230
1.0
 70
     8
 71
     3
 72
    10
 73
     6
 74
     0
 42
0.000000001
 43
0.00000001
 40
0.0
 40
0.0
 40
0.0
 40
0.0
 40
0.5
 40
0.5
 40
1.0
 40
1.0
 40
1.0
 40
1.0
 10
15.60675268905295
 20
-3.965905832118431
 30
0.0
 10
15.5826519431671
 20
-3.322800959308904
 30
0.0
 10
15.55747458018801
 20
-2.636522264790913
 30
0.0
 10
15.50683029996847
 20
-1.227041539967032
 30
0.0
 10
15.48138000180074
 20
-0.5042970163478342
 30
0.0
 10
15.45676689953931
 20
0.2086414069420898
 30
0.0
  0
SPLINE
  5
1A7
330
1F
100
AcDbEntity
  8
외형선
  6
Continuous
 62
     1
370
    15
100
AcDbSpline
210
0.0
220
0.0
230
1.0
 70
     8
 71
     3
 72
     8
 73
     4
 74
     0
 42
0.000000001
 43
0.00000001
 40
0.0
 40
0.0
 40
0.0
 40
0.0
 40
1.0
 40
1.0
 40
1.0
 40
1.0
 10
45.1694257591022
 20
4.199883582384884
 30
0.0
 10
44.80624729530841
 20
4.31840434444394
 30
0.0
 10
44.44304277609962
 20
4.435716569853919
 30
0.0
 10
44.08028286765963
 20
4.551669638835249
 30
0.0
  0
SPLINE
  5
1A9
330
1F
100
AcDbEntity
  8
외형선
  6
Continuous
 62
     1
370
    15
100
AcDbSpline
210
0.0
220
0.0
230
1.0
 70
     8
 71
     3
 72
     8
 73
     4
 74
     0
 42
0.000000001
 43
0.00000001
 40
0.0
 40
0.0
 40
0.0
 40
0.0
 40
1.0
 40
1.0
 40
1.0
 40
1.0
 10
17.47388465296365
 20
-4.587262202747629
 30
0.0
 10
17.11140692665358
 20
-4.471648414393083
 30
0.0
 10
16.74843699991802
 20
-4.354661846110463
 30
0.0
 10
16.38544460752689
 20
-4.236452172288498
 30
0.0
  0
SPLINE
  5
1AA
330
1F
100
AcDbEntity
  8
외형선
  6
Continuous
 62
     1
370
    15
100
AcDbSpline
210
0.0
220
0.0
230
1.0
 70
     8
 71
     3
 72
    10
 73
     6
 74
     0
 42
0.000000001
 43
0.00000001
 40
0.0
 40
0.0
 40
0.0
 40
0.0
 40
0.5
 40
0.5
 40
1.0
 40
1.0
 40
1.0
 40
1.0
 10
16.38774907556705
 20
-4.236382883752536
 30
0.0
 10
16.36401473407236
 20
-3.603155260523842
 30
0.0
 10
16.33910425585252
 20
-2.924118076165952
 30
0.0
 10
16.28873237019161
 20
-1.521879641390341
 30
0.0
 10
16.26328707821742
 20
-0.7991172164825721
 30
0.0
 10
16.23854821481333
 20
-0.082393668910219
 30
0.0
  0
SPLINE
  5
1AB
330
1F
100
AcDbEntity
  8
외형선
  6
Continuous
 62
     1
370
    15
100
AcDbSpline
210
0.0
220
0.0
230
1.0
 70
     8
 71
     3
 72
    10
 73
     6
 74
     0
 42
0.000000001
 43
0.00000001
 40
0.0
 40
0.0
 40
0.0
 40
0.0
 40
0.5
 40
0.5
 40
1.0
 40
1.0
 40
1.0
 40
1.0
 10
17.47488834555288
 20
-4.587233060333287
 30
0.0
 10
17.45157272048544
 20
-3.970470229120889
 30
0.0
 10
17.42693028606357
 20
-3.304123636325053
 30
0.0
 10
17.37672766807851
 20
-1.917150743080395
 30
0.0
 10
17.35118316679078
 20
-1.19694111331521
 30
0.0
 10
17.32617294931876
 20
-0.4776184296250527
 30
0.0
  0
SPLINE
  5
1AC
330
1F
100
AcDbEntity
  8
외형선
  6
Continuous
 62
     1
370
    15
100
AcDbSpline
210
0.0
220
0.0
230
1.0
 70
     8
 71
     3
 72
     8
 73
     4
 74
     0
 42
0.000000001
 43
0.00000001
 40
0.0
 40
0.0
 40
0.0
 40
0.0
 40
1.0
 40
1.0
 40
1.0
 40
1.0
 10
15.44794547373583
 20
-3.92844973238757
 30
0.0
 10
15.08556687720148
 20
-3.808349923054251
 30
0.0
 10
14.72357048313556
 20
-3.68716303102837
 30
0.0
 10
14.36242196939921
 20
-3.565049073320224
 30
0.0
  0
SPLINE
  5
1AD
330
1F
100
AcDbEntity
  8
외형선
  6
Continuous
 62
     1
370
    15
100
AcDbSpline
210
0.0
220
0.0
230
1.0
 70
     8
 71
     3
 72
     8
 73
     4
 74
     0
 42
0.000000001
 43
0.00000001
 40
0.0
 40
0.0
 40
0.0
 40
0.0
 40
1.0
 40
1.0
 40
1.0
 40
1.0
 10
11.39744864269572
 20
-2.543802103880857
 30
0.0
 10
11.03497376887313
 20
-2.41673151109798
 30
0.0
 10
10.67285525903667
 20
-2.288971037752201
 30
0.0
 10
10.31155929135386
 20
-2.160687808159069
 30
0.0
  0
SPLINE
  5
1AE
330
1F
100
AcDbEntity
  8
외형선
  6
Continuous
 62
     1
370
    15
100
AcDbSpline
210
0.0
220
0.0
230
1.0
 70
     8
 71
     3
 72
     8
 73
     4
 74
     0
 42
0.000000001
 43
0.00000001
 40
0.0
 40
0.0
 40
0.0
 40
0.0
 40
1.0
 40
1.0
 40
1.0
 40
1.0
 10
50.72500000000221
 20
2.304549739223313
 30
0.0
 10
50.53388003379109
 20
2.3720872174293
 30
0.0
 10
50.342579210483
 20
2.439461366227917
 30
0.0
 10
50.15116632913488
 20
2.506647607540884
 30
0.0
  0
LINE
  5
1B0
330
1F
100
AcDbEntity
  8
외형선
  6
Continuous
 62
     1
370
    15
100
AcDbLine
 10
50.72499850392339
 20
-1.81386410258711
 30
0.0
 11
50.63060709834097
 21
-1.879958668723709
 31
0.0
  0
SPLINE
  5
1B1
330
1F
100
AcDbEntity
  8
외형선
  6
Continuous
 62
     1
370
    15
100
AcDbSpline
210
0.0
220
0.0
230
1.0
 70
     8
 71
     3
 72
     8
 73
     4
 74
     0
 42
0.000000001
 43
0.00000001
 40
0.0
 40
0.0
 40
0.0
 40
0.0
 40
1.0
 40
1.0
 40
1.0
 40
1.0
 10
49.21649299333718
 20
2.8329153474625
 30
0.0
 10
48.85308222401596
 20
2.959070623454436
 30
0.0
 10
48.48967295222889
 20
3.084407574931157
 30
0.0
 10
48.12673662861226
 20
3.208764669399728
 30
0.0
  0
SPLINE
  5
1B3
330
1F
100
AcDbEntity
  8
외형선
  6
Continuous
 62
     1
370
    15
100
AcDbSpline
210
0.0
220
0.0
230
1.0
 70
     8
 71
     3
 72
     8
 73
     4
 74
     0
 42
0.000000001
 43
0.00000001
 40
0.0
 40
0.0
 40
0.0
 40
0.0
 40
1.0
 40
1.0
 40
1.0
 40
1.0
 10
47.19214920369497
 20
3.527183112926157
 30
0.0
 10
46.83065427737099
 20
3.649644536220178
 30
0.0
 10
46.4684401222537
 20
3.771173319657492
 30
0.0
 10
46.10570740688427
 20
3.891638442017756
 30
0.0
  0
SPLINE
  5
1B4
330
1F
100
AcDbEntity
  8
외형선
  6
Continuous
 62
     1
370
    15
100
AcDbSpline
210
0.0
220
0.0
230
1.0
 70
     8
 71
     3
 72
     8
 73
     4
 74
     0
 42
0.000000001
 43
0.00000001
 40
0.0
 40
0.0
 40
0.0
 40
0.0
 40
1.0
 40
1.0
 40
1.0
 40
1.0
 10
13.42198866759024
 20
-3.245071409747001
 30
0.0
 10
13.06079356030534
 20
-3.121469414399275
 30
0.0
 10
12.6990844087348
 20
-2.996881106568471
 30
0.0
 10
12.33732606065508
 20
-2.871465338804302
 30
0.0
  0
SPLINE
  5
1B6
330
1F
100
AcDbEntity
  8
외형선
  6
Continuous
 62
     1
370
    15
100
AcDbSpline
210
0.0
220
0.0
230
1.0
 70
     8
 71
     3
 72
     8
 73
     4
 74
     0
 42
0.000000001
 43
0.00000001
 40
0.0
 40
0.0
 40
0.0
 40
0.0
 40
1.0
 40
1.0
 40
1.0
 40
1.0
 10
45.9493878923335
 20
3.928603712115396
 30
0.0
 10
45.99405545386268
 20
3.923398720585977
 30
0.0
 10
46.04901534024685
 20
3.910466150101853
 30
0.0
 10
46.10577785861389
 20
3.891615044675338
 30
0.0
  0
SPLINE
  5
1B8
330
1F
100
AcDbEntity
  8
외형선
  6
Continuous
 62
     1
370
    15
100
AcDbSpline
210
0.0
220
0.0
230
1.0
 70
     8
 71
     3
 72
     8
 73
     4
 74
     0
 42
0.000000001
 43
0.00000001
 40
0.0
 40
0.0
 40
0.0
 40
0.0
 40
1.0
 40
1.0
 40
1.0
 40
1.0
 10
43.1445409530825
 20
4.848068618440109
 30
0.0
 10
42.78279431107561
 20
4.961605896418144
 30
0.0
 10
42.42067924985073
 20
5.07378730553075
 30
0.0
 10
42.05784577824104
 20
5.184547675778809
 30
0.0
  0
SPLINE
  5
1BA
330
1F
100
AcDbEntity
  8
외형선
  6
Continuous
 62
     1
370
    15
100
AcDbSpline
210
0.0
220
0.0
230
1.0
 70
     8
 71
     3
 72
     8
 73
     4
 74
     0
 42
0.000000001
 43
0.00000001
 40
0.0
 40
0.0
 40
0.0
 40
0.0
 40
1.0
 40
1.0
 40
1.0
 40
1.0
 10
19.49851547919491
 20
-5.21919373467796
 30
0.0
 10
19.13543604151631
 20
-5.108689971123316
 30
0.0
 10
18.77276639621488
 20
-4.996721354549124
 30
0.0
 10
18.41097479088537
 20
-4.883438087785164
 30
0.0
  0
SPLINE
  5
1BB
330
1F
100
AcDbEntity
  8
외형선
  6
Continuous
 62
     1
370
    15
100
AcDbSpline
210
0.0
220
0.0
230
1.0
 70
     8
 71
     3
 72
    10
 73
     6
 74
     0
 42
0.000000001
 43
0.00000001
 40
0.0
 40
0.0
 40
0.0
 40
0.0
 40
0.5
 40
0.5
 40
1.0
 40
1.0
 40
1.0
 40
1.0
 10
18.41219392100223
 20
-4.883403854910713
 30
0.0
 10
18.3892730678181
 20
-4.28168976017106
 30
0.0
 10
18.36490117980222
 20
-3.627332662954792
 30
0.0
 10
18.31492551045443
 20
-2.25577082405094
 30
0.0
 10
18.28933684403243
 20
-1.538958410429079
 30
0.0
 10
18.26412965915327
 20
-0.8185091627486144
 30
0.0
  0
SPLINE
  5
1BC
330
1F
100
AcDbEntity
  8
외형선
  6
Continuous
 62
     1
370
    15
100
AcDbSpline
210
0.0
220
0.0
230
1.0
 70
     8
 71
     3
 72
    10
 73
     6
 74
     0
 42
0.000000001
 43
0.00000001
 40
0.0
 40
0.0
 40
0.0
 40
0.0
 40
0.5000000000000001
 40
0.5000000000000001
 40
1.0
 40
1.0
 40
1.0
 40
1.0
 10
19.49897589314413
 20
-5.219181348787365
 30
0.0
 10
19.47654512855284
 20
-4.635720769115144
 30
0.0
 10
19.45252538463097
 20
-3.996274120017328
 30
0.0
 10
19.40289295251884
 20
-2.644781522945684
 30
0.0
 10
19.37729452149911
 20
-1.933094375151868
 30
0.0
 10
19.35189636335181
 20
-1.21245394828562
 30
0.0
  0
SPLINE
  5
1BD
330
1F
100
AcDbEntity
  8
외형선
  6
Continuous
 62
     1
370
    15
100
AcDbSpline
210
0.0
220
0.0
230
1.0
 70
     8
 71
     3
 72
     8
 73
     4
 74
     0
 42
0.000000001
 43
0.00000001
 40
0.0
 40
0.0
 40
0.0
 40
0.0
 40
1.0
 40
1.0
 40
1.0
 40
1.0
 10
45.16889224289262
 20
4.200057690810427
 30
0.0
 10
45.22397766963567
 20
4.182081126176792
 30
0.0
 10
45.27932531444567
 20
4.158354048788183
 30
0.0
 10
45.32479462189291
 20
4.133000294157767
 30
0.0
  0
SPLINE
  5
1BF
330
1F
100
AcDbEntity
  8
외형선
  6
Continuous
 62
     1
370
    15
100
AcDbSpline
210
0.0
220
0.0
230
1.0
 70
     8
 71
     3
 72
     8
 73
     4
 74
     0
 42
0.000000001
 43
0.00000001
 40
0.0
 40
0.0
 40
0.0
 40
0.0
 40
1.0
 40
1.0
 40
1.0
 40
1.0
 10
16.38778018025032
 20
-4.237212742504711
 30
0.0
 10
16.33266956189119
 20
-4.219266578692111
 30
0.0
 10
16.27729494118458
 20
-4.195496777707326
 30
0.0
 10
16.23179791583319
 20
-4.170014929020565
 30
0.0
  0
SPLINE
  5
1C0
330
1F
100
AcDbEntity
  8
외형선
  6
Continuous
 62
     1
370
    15
100
AcDbSpline
210
0.0
220
0.0
230
1.0
 70
     8
 71
     3
 72
    10
 73
     6
 74
     0
 42
0.000000001
 43
0.00000001
 40
0.0
 40
0.0
 40
0.0
 40
0.0
 40
0.5
 40
0.5
 40
1.0
 40
1.0
 40
1.0
 40
1.0
 10
16.23179790411613
 20
-4.170014617847031
 30
0.0
 10
16.2079209915018
 20
-3.535908300528666
 30
0.0
 10
16.18287723799181
 20
-2.856353273959752
 30
0.0
 10
16.13228686442053
 20
-1.454419203488997
 30
0.0
 10
16.10675672576144
 20
-0.732487929375254
 30
0.0
 10
16.0819667161982
 20
-0.0174469853211993
 30
0.0
  0
SPLINE
  5
1C1
330
1F
100
AcDbEntity
  8
외형선
  6
Continuous
 62
     1
370
    15
100
AcDbSpline
210
0.0
220
0.0
230
1.0
 70
     8
 71
     3
 72
    10
 73
     6
 74
     0
 42
0.000000001
 43
0.00000001
 40
0.0
 40
0.0
 40
0.0
 40
0.0
 40
0.5
 40
0.5
 40
1.0
 40
1.0
 40
1.0
 40
1.0
 10
16.23179791583319
 20
-4.17001492902054
 30
0.0
 10
16.13918684666834
 20
-4.118145576399115
 30
0.0
 10
16.02672131045849
 20
-4.07236543664937
 30
0.0
 10
15.8021609180645
 20
-4.000575209827072
 30
0.0
 10
15.69503213619952
 20
-3.975864749411572
 30
0.0
 10
15.60675268920936
 20
-3.965905836292482
 30
0.0
  0
SPLINE
  5
1C3
330
1F
100
AcDbEntity
  8
외형선
  6
Continuous
 62
     1
370
    15
100
AcDbSpline
210
0.0
220
0.0
230
1.0
 70
     8
 71
     3
 72
     8
 73
     4
 74
     0
 42
0.000000001
 43
0.00000001
 40
0.0
 40
0.0
 40
0.0
 40
0.0
 40
1.0
 40
1.0
 40
1.0
 40
1.0
 10
43.92573463480026
 20
4.582165718802467
 30
0.0
 10
43.97042747587933
 20
4.580073191909296
 30
0.0
 10
44.0254094259281
 20
4.569210118345768
 30
0.0
 10
44.08219580993244
 20
4.551058172098172
 30
0.0
  0
SPLINE
  5
1C4
330
1F
100
AcDbEntity
  8
외형선
  6
Continuous
 62
     1
370
    15
100
AcDbSpline
210
0.0
220
0.0
230
1.0
 70
     8
 71
     3
 72
    10
 73
     6
 74
     0
 42
0.000000001
 43
0.00000001
 40
0.0
 40
0.0
 40
0.0
 40
0.0
 40
0.5
 40
0.5
 40
1.0
 40
1.0
 40
1.0
 40
1.0
 10
45.32479462189313
 20
4.133000294157645
 30
0.0
 10
45.4173341995794
 20
4.08140008562171
 30
0.0
 10
45.5297210457066
 20
4.035714268101401
 30
0.0
 10
45.75414193096493
 20
3.963798926435284
 30
0.0
 10
45.86119862537411
 20
3.938880171626085
 30
0.0
 10
45.94938789233314
 20
3.928603712115271
 30
0.0
  0
SPLINE
  5
1C5
330
1F
100
AcDbEntity
  8
외형선
  6
Continuous
 62
     1
370
    15
100
AcDbSpline
210
0.0
220
0.0
230
1.0
 70
     8
 71
     3
 72
     8
 73
     4
 74
     0
 42
0.000000001
 43
0.00000001
 40
0.0
 40
0.0
 40
0.0
 40
0.0
 40
1.0
 40
1.0
 40
1.0
 40
1.0
 10
17.63139466735639
 20
-4.618373084174251
 30
0.0
 10
17.58669068137254
 20
-4.616452330334654
 30
0.0
 10
17.53169813349761
 20
-4.605701695023902
 30
0.0
 10
17.47490171033593
 20
-4.587586594265363
 30
0.0
  0
SPLINE
  5
1C6
330
1F
100
AcDbEntity
  8
외형선
  6
Continuous
 62
     1
370
    15
100
AcDbSpline
210
0.0
220
0.0
230
1.0
 70
     8
 71
     3
 72
    10
 73
     6
 74
     0
 42
0.000000001
 43
0.00000001
 40
0.0
 40
0.0
 40
0.0
 40
0.0
 40
0.5
 40
0.5
 40
1.0
 40
1.0
 40
1.0
 40
1.0
 10
17.63139466716789
 20
-4.618373079222545
 30
0.0
 10
17.60806433694179
 20
-4.005559837449967
 30
0.0
 10
17.58337263935517
 20
-3.342461237135512
 30
0.0
 10
17.53301087897084
 20
-1.960412540479976
 30
0.0
 10
17.50735671349544
 20
-1.241880892991399
 30
0.0
 10
17.48221911086088
 20
-0.5235901157595964
 30
0.0
  0
SPLINE
  5
1C7
330
1F
100
AcDbEntity
  8
외형선
  6
Continuous
 62
     1
370
    15
100
AcDbSpline
210
0.0
220
0.0
230
1.0
 70
     8
 71
     3
 72
     8
 73
     4
 74
     0
 42
0.000000001
 43
0.00000001
 40
0.0
 40
0.0
 40
0.0
 40
0.0
 40
0.5419008101527577
 40
0.5419008101527577
 40
0.5419008101527577
 40
0.5419008101527577
 10
50.72499999999998
 20
2.304549739224659
 30
0.0
 10
50.82389692200991
 20
2.259524375523626
 30
0.0
 10
50.9230170447419
 20
2.217652448433349
 30
0.0
 10
51.02239532067993
 20
2.179061728596167
 30
0.0
  0
SPLINE
  5
1C9
330
1F
100
AcDbEntity
  8
외형선
  6
Continuous
 62
     1
370
    15
100
AcDbSpline
210
0.0
220
0.0
230
1.0
 70
    24
 71
     3
 72
     8
 73
     4
 74
     0
 42
0.000000001
 43
0.00000001
 40
0.0001836937237433
 40
0.0001836937237433
 40
0.0001836937237433
 40
0.0001836937237433
 40
0.0008316029042958
 40
0.0008316029042958
 40
0.0008316029042958
 40
0.0008316029042958
 10
51.15398814062689
 20
-1.51348341614585
 30
0.0
 10
51.01136679637173
 20
-1.613347956502917
 30
0.0
 10
50.86835519948118
 20
-1.713485754697095
 30
0.0
 10
50.72499999999998
 20
-1.813864146015379
 30
0.0
  0
SPLINE
  5
1CA
330
1F
100
AcDbEntity
  8
외형선
  6
Continuous
 62
     1
370
    15
100
AcDbSpline
210
0.0
220
0.0
230
1.0
 70
     8
 71
     3
 72
     8
 73
     4
 74
     0
 42
0.000000001
 43
0.00000001
 40
0.0
 40
0.0
 40
0.0
 40
0.0
 40
1.0
 40
1.0
 40
1.0
 40
1.0
 10
43.14493494070251
 20
4.847944961575906
 30
0.0
 10
43.20003253699202
 20
4.830651975066866
 30
0.0
 10
43.2553982099476
 20
4.806300897915008
 30
0.0
 10
43.30089169084252
 20
4.77888886793608
 30
0.0
  0
SPLINE
  5
1CC
330
1F
100
AcDbEntity
  8
외형선
  6
Continuous
 62
     1
370
    15
100
AcDbSpline
210
0.0
220
0.0
230
1.0
 70
     8
 71
     3
 72
     8
 73
     4
 74
     0
 42
0.000000001
 43
0.00000001
 40
0.0
 40
0.0
 40
0.0
 40
0.0
 40
1.0
 40
1.0
 40
1.0
 40
1.0
 10
18.41220995726993
 20
-4.883824833767067
 30
0.0
 10
18.35711570698421
 20
-4.866574413023908
 30
0.0
 10
18.30175491198952
 20
-4.842188742066655
 30
0.0
 10
18.25626454529894
 20
-4.814664365317252
 30
0.0
  0
SPLINE
  5
1CD
330
1F
100
AcDbEntity
  8
외형선
  6
Continuous
 62
     1
370
    15
100
AcDbSpline
210
0.0
220
0.0
230
1.0
 70
     8
 71
     3
 72
    10
 73
     6
 74
     0
 42
0.000000001
 43
0.00000001
 40
0.0
 40
0.0
 40
0.0
 40
0.0
 40
0.5
 40
0.5
 40
1.0
 40
1.0
 40
1.0
 40
1.0
 10
18.25626451494589
 20
-4.814663572085558
 30
0.0
 10
18.23319840580782
 20
-4.211865739469892
 30
0.0
 10
18.20868747004413
 20
-3.556738783754152
 30
0.0
 10
18.15847607566788
 20
-2.184904812378528
 30
0.0
 10
18.13279113118232
 20
-1.46859985750143
 30
0.0
 10
18.10752019258361
 20
-0.7495146386050184
 30
0.0
  0
SPLINE
  5
1CE
330
1F
100
AcDbEntity
  8
외형선
  6
Continuous
 62
     1
370
    15
100
AcDbSpline
210
0.0
220
0.0
230
1.0
 70
     8
 71
     3
 72
     8
 73
     4
 74
     0
 42
0.000000001
 43
0.00000001
 40
0.0
 40
0.0
 40
0.0
 40
0.0
 40
1.0
 40
1.0
 40
1.0
 40
1.0
 10
21.5211340725521
 20
-5.818365982841457
 30
0.0
 10
21.15938781033754
 20
-5.714140096144628
 30
0.0
 10
20.79717872287502
 20
-5.60820202666335
 30
0.0
 10
20.43497361154391
 20
-5.50068630444008
 30
0.0
  0
SPLINE
  5
1CF
330
1F
100
AcDbEntity
  8
외형선
  6
Continuous
 62
     1
370
    15
100
AcDbSpline
210
0.0
220
0.0
230
1.0
 70
     8
 71
     3
 72
    10
 73
     6
 74
     0
 42
0.000000001
 43
0.00000001
 40
0.0
 40
0.0
 40
0.0
 40
0.0
 40
0.5
 40
0.5
 40
1.0
 40
1.0
 40
1.0
 40
1.0
 10
20.43590841166263
 20
-5.500662153882577
 30
0.0
 10
20.4139334520203
 20
-4.933748010281792
 30
0.0
 10
20.39025763883955
 20
-4.308196923006912
 30
0.0
 10
20.34100700789926
 20
-2.976333716799208
 30
0.0
 10
20.31544551659525
 20
-2.270346557675515
 30
0.0
 10
20.28992466427964
 20
-1.550775114614334
 30
0.0
  0
SPLINE
  5
1D0
330
1F
100
AcDbEntity
  8
외형선
  6
Continuous
 62
     1
370
    15
100
AcDbSpline
210
0.0
220
0.0
230
1.0
 70
     8
 71
     3
 72
    10
 73
     6
 74
     0
 42
0.000000001
 43
0.00000001
 40
0.0
 40
0.0
 40
0.0
 40
0.0
 40
0.5
 40
0.5
 40
1.0
 40
1.0
 40
1.0
 40
1.0
 10
21.52221635825796
 20
-5.818339420274292
 30
0.0
 10
21.50079123768969
 20
-5.27111268970892
 30
0.0
 10
21.47754080560825
 20
-4.662343673231539
 30
0.0
 10
21.42879030451775
 20
-3.354767528250239
 30
0.0
 10
21.40330232526302
 20
-2.656242110136021
 30
0.0
 10
21.37766750443243
 20
-1.938728593970848
 30
0.0
  0
SPLINE
  5
1D1
330
1F
100
AcDbEntity
  8
외형선
  6
Continuous
 62
     1
370
    15
100
AcDbSpline
210
0.0
220
0.0
230
1.0
 70
     8
 71
     3
 72
    12
 73
     8
 74
     0
 42
0.000000001
 43
0.00000001
 40
0.0
 40
0.0
 40
0.0
 40
0.0
 40
0.2500000000000001
 40
0.2500000000000001
 40
0.5000000000000001
 40
0.5000000000000001
 40
1.0
 40
1.0
 40
1.0
 40
1.0
 10
40.17134718208557
 20
1.901226890959521
 30
0.0
 10
40.15959501898649
 20
2.254928165238889
 30
0.0
 10
40.14823516869689
 20
2.60066168993636
 30
0.0
 10
40.126461001077
 20
3.270731588028728
 30
0.0
 10
40.11602537446034
 20
3.595469868027743
 30
0.0
 10
40.08239604011783
 20
4.56746786804398
 30
0.0
 10
40.05816511951296
 20
5.199283502004769
 30
0.0
 10
40.03292590281129
 20
5.786285182119769
 30
0.0
  0
SPLINE
  5
1D2
330
1F
100
AcDbEntity
  8
외형선
  6
Continuous
 62
     1
370
    15
100
AcDbSpline
210
0.0
220
0.0
230
1.0
 70
     8
 71
     3
 72
     8
 73
     4
 74
     0
 42
0.000000001
 43
0.00000001
 40
0.0
 40
0.0
 40
0.0
 40
0.0
 40
1.0
 40
1.0
 40
1.0
 40
1.0
 10
41.12024677801887
 20
5.467234224202456
 30
0.0
 10
40.75767958212029
 20
5.575184607975665
 30
0.0
 10
40.39505986978022
 20
5.681568583926485
 30
0.0
 10
40.0328560487881
 20
5.786250316854095
 30
0.0
  0
SPLINE
  5
1D3
330
1F
100
AcDbEntity
  8
외형선
  6
Continuous
 62
     1
370
    15
100
AcDbSpline
210
0.0
220
0.0
230
1.0
 70
     8
 71
     3
 72
    12
 73
     8
 74
     0
 42
0.000000001
 43
0.00000001
 40
0.0
 40
0.0
 40
0.0
 40
0.0
 40
0.2500000000000002
 40
0.2500000000000002
 40
0.5000000000000003
 40
0.5000000000000003
 40
1.0
 40
1.0
 40
1.0
 40
1.0
 10
41.25826353223484
 20
1.512005862054246
 30
0.0
 10
41.24622092044873
 20
1.871625673731959
 30
0.0
 10
41.23453636862562
 20
2.224403386179539
 30
0.0
 10
41.21206302737482
 20
2.910335131755729
 30
0.0
 10
41.20160144680428
 20
3.240351381168905
 30
0.0
 10
41.16891308745937
 20
4.2213075266973
 30
0.0
 10
41.14519748266196
 20
4.864187142255612
 30
0.0
 10
41.12029977747527
 20
5.467241075124606
 30
0.0
  0
SPLINE
  5
1D4
330
1F
100
AcDbEntity
  8
외형선
  6
Continuous
 62
     1
370
    15
100
AcDbSpline
210
0.0
220
0.0
230
1.0
 70
     8
 71
     3
 72
    10
 73
     6
 74
     0
 42
0.000000001
 43
0.00000001
 40
0.0
 40
0.0
 40
0.0
 40
0.0
 40
0.5
 40
0.5
 40
1.0
 40
1.0
 40
1.0
 40
1.0
 10
43.30089169084273
 20
4.77888886793597
 30
0.0
 10
43.39347353620879
 20
4.723103813225734
 30
0.0
 10
43.50589134857627
 20
4.676116493370044
 30
0.0
 10
43.73038994724671
 20
4.607118193189547
 30
0.0
 10
43.83749054974942
 20
4.586297322805716
 30
0.0
 10
43.92573463479992
 20
4.582165718802361
 30
0.0
  0
SPLINE
  5
1D5
330
1F
100
AcDbEntity
  8
외형선
  6
Continuous
 62
     1
370
    15
100
AcDbSpline
210
0.0
220
0.0
230
1.0
 70
     8
 71
     3
 72
    10
 73
     6
 74
     0
 42
0.000000001
 43
0.00000001
 40
0.0
 40
0.0
 40
0.0
 40
0.0
 40
0.5
 40
0.5
 40
1.0
 40
1.0
 40
1.0
 40
1.0
 10
18.25626454529894
 20
-4.814664365317211
 30
0.0
 10
18.16367971433684
 20
-4.758645037400733
 30
0.0
 10
18.05125513321614
 20
-4.711585332329636
 30
0.0
 10
17.82675156539361
 20
-4.642754902656518
 30
0.0
 10
17.71964846293762
 20
-4.622165001449401
 30
0.0
 10
17.63139466735641
 20
-4.618373084174232
 30
0.0
  0
SPLINE
  5
1D7
330
1F
100
AcDbEntity
  8
외형선
  6
Continuous
 62
     1
370
    15
100
AcDbSpline
210
0.0
220
0.0
230
1.0
 70
     8
 71
     3
 72
     8
 73
     4
 74
     0
 42
0.000000001
 43
0.00000001
 40
0.0
 40
0.0
 40
0.0
 40
0.0
 40
1.0
 40
1.0
 40
1.0
 40
1.0
 10
41.90131920082025
 20
5.209549702171005
 30
0.0
 10
41.94603391641144
 20
5.210603650778869
 30
0.0
 10
42.00103519632568
 20
5.201889956204968
 30
0.0
 10
42.05783808593032
 20
5.184550023972979
 30
0.0
  0
SPLINE
  5
1D8
330
1F
100
AcDbEntity
  8
외형선
  6
Continuous
 62
     1
370
    15
100
AcDbSpline
210
0.0
220
0.0
230
1.0
 70
     8
 71
     3
 72
     8
 73
     4
 74
     0
 42
0.000000001
 43
0.00000001
 40
0.0
 40
0.0
 40
0.0
 40
0.0
 40
1.0
 40
1.0
 40
1.0
 40
1.0
 10
19.65540944169259
 20
-5.24395132807643
 30
0.0
 10
19.61072888019513
 20
-5.245193799256139
 30
0.0
 10
19.55575623553592
 20
-5.236614829863314
 30
0.0
 10
19.49898182582493
 20
-5.219335667090417
 30
0.0
  0
SPLINE
  5
1D9
330
1F
100
AcDbEntity
  8
외형선
  6
Continuous
 62
     1
370
    15
100
AcDbSpline
210
0.0
220
0.0
230
1.0
 70
     8
 71
     3
 72
    10
 73
     6
 74
     0
 42
0.000000001
 43
0.00000001
 40
0.0
 40
0.0
 40
0.0
 40
0.0
 40
0.5
 40
0.5
 40
1.0
 40
1.0
 40
1.0
 40
1.0
 10
19.65540944157473
 20
-5.243951325031914
 30
0.0
 10
19.63297985415549
 20
-4.664685853352273
 30
0.0
 10
19.60892719161727
 20
-4.028801576052704
 30
0.0
 10
19.55916434873958
 20
-2.682889933829855
 30
0.0
 10
19.53346855019576
 20
-1.973220718745183
 30
0.0
 10
19.50795166324154
 20
-1.253913522396972
 30
0.0
  0
SPLINE
  5
1DA
330
1F
100
AcDbEntity
  8
외형선
  6
Continuous
 62
     1
370
    15
100
AcDbSpline
210
0.0
220
0.0
230
1.0
 70
     8
 71
     3
 72
     8
 73
     4
 74
     0
 42
0.000000001
 43
0.00000001
 40
0.0
 40
0.0
 40
0.0
 40
0.0
 40
1.0
 40
1.0
 40
1.0
 40
1.0
 10
41.12030072344675
 20
5.467218162536509
 30
0.0
 10
41.17541443228038
 20
5.450808639743789
 30
0.0
 10
41.23079230245153
 20
5.426066096421478
 30
0.0
 10
41.27629241494135
 20
5.396833197508687
 30
0.0
  0
SPLINE
  5
1DB
330
1F
100
AcDbEntity
  8
외형선
  6
Continuous
 62
     1
370
    15
100
AcDbSpline
210
0.0
220
0.0
230
1.0
 70
     8
 71
     3
 72
    12
 73
     8
 74
     0
 42
0.000000001
 43
0.00000001
 40
0.0
 40
0.0
 40
0.0
 40
0.0
 40
0.2499999999999999
 40
0.2499999999999999
 40
0.4999999999999999
 40
0.4999999999999999
 40
1.0
 40
1.0
 40
1.0
 40
1.0
 10
41.41474658256693
 20
1.440075094800167
 30
0.0
 10
41.40261718643619
 20
1.799804639606017
 30
0.0
 10
41.39084243550724
 20
2.152873579889179
 30
0.0
 10
41.36818667733434
 20
2.839649029846229
 30
0.0
 10
41.357621428214
 20
3.170326203709671
 30
0.0
 10
41.324958724759
 20
4.150267241111876
 30
0.0
 10
41.30123144489598
 20
4.793177299828305
 30
0.0
 10
41.27629241494154
 20
5.396833197508934
 30
0.0
  0
SPLINE
  5
1DC
330
1F
100
AcDbEntity
  8
외형선
  6
Continuous
 62
     1
370
    15
100
AcDbSpline
210
0.0
220
0.0
230
1.0
 70
     8
 71
     3
 72
     8
 73
     4
 74
     0
 42
0.000000001
 43
0.00000001
 40
0.0
 40
0.0
 40
0.0
 40
0.0
 40
1.0
 40
1.0
 40
1.0
 40
1.0
 10
20.43592023971145
 20
-5.5009672947035
 30
0.0
 10
20.38083943501098
 20
-5.484617715810815
 30
0.0
 10
20.32549684128532
 20
-5.459861922450553
 30
0.0
 10
20.28003224539152
 20
-5.43054570349903
 30
0.0
  0
SPLINE
  5
1DD
330
1F
100
AcDbEntity
  8
외형선
  6
Continuous
 62
     1
370
    15
100
AcDbSpline
210
0.0
220
0.0
230
1.0
 70
     8
 71
     3
 72
    10
 73
     6
 74
     0
 42
0.000000001
 43
0.00000001
 40
0.0
 40
0.0
 40
0.0
 40
0.0
 40
0.5000000000000001
 40
0.5000000000000001
 40
1.0
 40
1.0
 40
1.0
 40
1.0
 10
20.28003222012545
 20
-5.430545054558408
 30
0.0
 10
20.25790515612954
 20
-4.862227162477225
 30
0.0
 10
20.23407943111117
 20
-4.235505112577118
 30
0.0
 10
20.18456440474601
 20
-2.90244456145547
 30
0.0
 10
20.15888886367535
 20
-2.196441616372934
 30
0.0
 10
20.13328527092524
 20
-1.477709446055895
 30
0.0
  0
SPLINE
  5
1DE
330
1F
100
AcDbEntity
  8
외형선
  6
Continuous
 62
     1
370
    15
100
AcDbSpline
210
0.0
220
0.0
230
1.0
 70
     8
 71
     3
 72
    10
 73
     6
 74
     0
 42
0.000000001
 43
0.00000001
 40
0.0
 40
0.0
 40
0.0
 40
0.0
 40
0.5
 40
0.5
 40
1.0
 40
1.0
 40
1.0
 40
1.0
 10
41.27629241494157
 20
5.396833197508548
 30
0.0
 10
41.36890328786924
 20
5.337332591062159
 30
0.0
 10
41.48136468183486
 20
5.289453440053997
 30
0.0
 10
41.70592098527243
 20
5.223995862525956
 30
0.0
 10
41.81304708889327
 20
5.207469083558894
 30
0.0
 10
41.90131920081989
 20
5.209549702170854
 30
0.0
  0
SPLINE
  5
1DF
330
1F
100
AcDbEntity
  8
외형선
  6
Continuous
 62
     1
370
    15
100
AcDbSpline
210
0.0
220
0.0
230
1.0
 70
     8
 71
     3
 72
    10
 73
     6
 74
     0
 42
0.000000001
 43
0.00000001
 40
0.0
 40
0.0
 40
0.0
 40
0.0
 40
0.5
 40
0.5
 40
1.0
 40
1.0
 40
1.0
 40
1.0
 10
20.28003224539151
 20
-5.430545703499031
 30
0.0
 10
20.18749089956116
 20
-5.370873725708479
 30
0.0
 10
20.07509605426078
 20
-5.322964127242477
 30
0.0
 10
19.85066929459737
 20
-5.257754828358176
 30
0.0
 10
19.74360949413328
 20
-5.241498672614331
 30
0.0
 10
19.6554094416926
 20
-5.243951328076445
 30
0.0
  0
SPLINE
  5
1E5
330
1F
100
AcDbEntity
  8
외형선
  6
Continuous
 62
     1
370
    15
100
AcDbSpline
210
0.0
220
0.0
230
1.0
 70
     8
 71
     3
 72
     8
 73
     4
 74
     0
 42
0.000000001
 43
0.00000001
 40
0.0
 40
0.0
 40
0.0
 40
0.0
 40
1.0
 40
1.0
 40
1.0
 40
1.0
 10
39.87636437506255
 20
5.804987689787716
 30
0.0
 10
39.92109464627032
 20
5.809169561792392
 30
0.0
 10
39.97610970701901
 20
5.802650799098894
 30
0.0
 10
40.03292829973669
 20
5.786229435346886
 30
0.0
  0
SPLINE
  5
1E6
330
1F
100
AcDbEntity
  8
외형선
  6
Continuous
 62
     1
370
    15
100
AcDbSpline
210
0.0
220
0.0
230
1.0
 70
     8
 71
     3
 72
    10
 73
     6
 74
     0
 42
0.000000001
 43
0.00000001
 40
0.0
 40
0.0
 40
0.0
 40
0.0
 40
0.5
 40
0.5
 40
1.0
 40
1.0
 40
1.0
 40
1.0
 10
39.25117987269223
 20
5.98219825351464
 30
0.0
 10
39.34381705595612
 20
5.919217472871595
 30
0.0
 10
39.45629368767927
 20
5.870622816618238
 30
0.0
 10
39.68089929621629
 20
5.808920862450276
 30
0.0
 10
39.78805489688816
 20
5.796731559776203
 30
0.0
 10
39.87636437506219
 20
5.804987689787557
 30
0.0
  0
SPLINE
  5
1E7
330
1F
100
AcDbEntity
  8
외형선
  6
Continuous
 62
     1
370
    15
100
AcDbSpline
210
0.0
220
0.0
230
1.0
 70
     8
 71
     3
 72
     8
 73
     4
 74
     0
 42
0.000000001
 43
0.00000001
 40
0.0
 40
0.0
 40
0.0
 40
0.0
 40
1.0
 40
1.0
 40
1.0
 40
1.0
 10
39.09515358710601
 20
6.053720091477342
 30
0.0
 10
39.15027346351821
 20
6.038206148782205
 30
0.0
 10
39.2056627256649
 20
6.013143769682322
 30
0.0
 10
39.25117987269199
 20
5.982198253514797
 30
0.0
  0
SPLINE
  5
1E8
330
1F
100
AcDbEntity
  8
외형선
  6
Continuous
 62
     1
370
    15
100
AcDbSpline
210
0.0
220
0.0
230
1.0
 70
     8
 71
     3
 72
     8
 73
     4
 74
     0
 42
0.000000001
 43
0.00000001
 40
0.0
 40
0.0
 40
0.0
 40
0.0
 40
1.0
 40
1.0
 40
1.0
 40
1.0
 10
39.09512317427163
 20
6.053728651414032
 30
0.0
 10
38.73191490077089
 20
6.155956518860414
 30
0.0
 10
38.36864164889604
 20
6.256436331890945
 30
0.0
 10
38.00448680391674
 20
6.355151109445478
 30
0.0
  0
SPLINE
  5
1E9
330
1F
100
AcDbEntity
  8
외형선
  6
Continuous
 62
     1
370
    15
100
AcDbSpline
210
0.0
220
0.0
230
1.0
 70
     8
 71
     3
 72
     8
 73
     4
 74
     0
 42
0.000000001
 43
0.00000001
 40
0.0
 40
0.0
 40
0.0
 40
0.0
 40
1.0
 40
1.0
 40
1.0
 40
1.0
 10
37.85094300679137
 20
6.366707428963356
 30
0.0
 10
37.89568569691244
 20
6.374007153063382
 30
0.0
 10
37.95071158918577
 20
6.369730087959538
 30
0.0
 10
38.00753842147055
 20
6.354323834367995
 30
0.0
  0
SPLINE
  5
1EA
330
1F
100
AcDbEntity
  8
외형선
  6
Continuous
 62
     1
370
    15
100
AcDbSpline
210
0.0
220
0.0
230
1.0
 70
     8
 71
     3
 72
    10
 73
     6
 74
     0
 42
0.000000001
 43
0.00000001
 40
0.0
 40
0.0
 40
0.0
 40
0.0
 40
0.5
 40
0.5
 40
1.0
 40
1.0
 40
1.0
 40
1.0
 10
37.2256670973784
 20
6.532314679669303
 30
0.0
 10
37.31831888796936
 20
6.466343355491679
 30
0.0
 10
37.43082356073728
 20
6.41742756857981
 30
0.0
 10
37.65545728215335
 20
6.360020984248882
 30
0.0
 10
37.76262295603922
 20
6.352298103076532
 30
0.0
 10
37.85094300679082
 20
6.36670742896314
 30
0.0
  0
SPLINE
  5
1EB
330
1F
100
AcDbEntity
  8
외형선
  6
Continuous
 62
     1
370
    15
100
AcDbSpline
210
0.0
220
0.0
230
1.0
 70
     8
 71
     3
 72
     8
 73
     4
 74
     0
 42
0.000000001
 43
0.00000001
 40
0.0
 40
0.0
 40
0.0
 40
0.0
 40
1.0
 40
1.0
 40
1.0
 40
1.0
 10
37.06962582298668
 20
6.604330307674996
 30
0.0
 10
37.12475523009516
 20
6.5898859739132
 30
0.0
 10
37.18014984748169
 20
6.564724557873803
 30
0.0
 10
37.22566709737792
 20
6.532314679668548
 30
0.0
  0
SPLINE
  5
1EC
330
1F
100
AcDbEntity
  8
외형선
  6
Continuous
 62
     1
370
    15
100
AcDbSpline
210
0.0
220
0.0
230
1.0
 70
     8
 71
     3
 72
     8
 73
     4
 74
     0
 42
0.000000001
 43
0.00000001
 40
0.0
 40
0.0
 40
0.0
 40
0.0
 40
1.0
 40
1.0
 40
1.0
 40
1.0
 10
37.06935174095059
 20
6.604402118934643
 30
0.0
 10
36.70680225335195
 20
6.699391943343645
 30
0.0
 10
36.34417444753865
 20
6.792490239783914
 30
0.0
 10
35.98193677064322
 20
6.883578385935911
 30
0.0
  0
SPLINE
  5
1ED
330
1F
100
AcDbEntity
  8
외형선
  6
Continuous
 62
     1
370
    15
100
AcDbSpline
210
0.0
220
0.0
230
1.0
 70
     8
 71
     3
 72
     8
 73
     4
 74
     0
 42
0.000000001
 43
0.00000001
 40
0.0
 40
0.0
 40
0.0
 40
0.0
 40
1.0
 40
1.0
 40
1.0
 40
1.0
 10
35.82528876801629
 20
6.889523282500971
 30
0.0
 10
35.87003684923661
 20
6.899889138338299
 30
0.0
 10
35.92506784332413
 20
6.897878605118752
 30
0.0
 10
35.98190182706796
 20
6.88358717282931
 30
0.0
  0
SPLINE
  5
1EE
330
1F
100
AcDbEntity
  8
외형선
  6
Continuous
 62
     1
370
    15
100
AcDbSpline
210
0.0
220
0.0
230
1.0
 70
     8
 71
     3
 72
    10
 73
     6
 74
     0
 42
0.000000001
 43
0.00000001
 40
0.0
 40
0.0
 40
0.0
 40
0.0
 40
0.5
 40
0.5
 40
1.0
 40
1.0
 40
1.0
 40
1.0
 10
35.19995136414655
 20
7.042913208159258
 30
0.0
 10
35.29261282013517
 20
6.974251514807177
 30
0.0
 10
35.40511630192565
 20
6.925219936767196
 30
0.0
 10
35.62976955057018
 20
6.872311675662884
 30
0.0
 10
35.73694961050652
 20
6.869059590056913
 30
0.0
 10
35.82528876801591
 20
6.889523282500814
 30
0.0
  0
SPLINE
  5
1EF
330
1F
100
AcDbEntity
  8
외형선
  6
Continuous
 62
     1
370
    15
100
AcDbSpline
210
0.0
220
0.0
230
1.0
 70
     8
 71
     3
 72
     8
 73
     4
 74
     0
 42
0.000000001
 43
0.00000001
 40
0.0
 40
0.0
 40
0.0
 40
0.0
 40
1.0
 40
1.0
 40
1.0
 40
1.0
 10
35.0438962003786
 20
7.115178875266763
 30
0.0
 10
35.09902547296488
 20
7.101819503446155
 30
0.0
 10
35.15442453505194
 20
7.076648369615871
 30
0.0
 10
35.19995136414633
 20
7.042913208159409
 30
0.0
  0
SPLINE
  5
1F0
330
1F
100
AcDbEntity
  8
외형선
  6
Continuous
 62
     1
370
    15
100
AcDbSpline
210
0.0
220
0.0
230
1.0
 70
     8
 71
     3
 72
     8
 73
     4
 74
     0
 42
0.000000001
 43
0.00000001
 40
0.0
 40
0.0
 40
0.0
 40
0.0
 40
1.0
 40
1.0
 40
1.0
 40
1.0
 10
35.04385783286023
 20
7.115188172784997
 30
0.0
 10
34.68166065090539
 20
7.202958591610856
 30
0.0
 10
34.31966668621162
 20
7.288663499486453
 30
0.0
 10
33.95667182988951
 20
7.372319001730857
 30
0.0
  0
SPLINE
  5
1F1
330
1F
100
AcDbEntity
  8
외형선
  6
Continuous
 62
     1
370
    15
100
AcDbSpline
210
0.0
220
0.0
230
1.0
 70
     8
 71
     3
 72
     8
 73
     4
 74
     0
 42
0.000000001
 43
0.00000001
 40
0.0
 40
0.0
 40
0.0
 40
0.0
 40
1.0
 40
1.0
 40
1.0
 40
1.0
 10
33.79947631011672
 20
7.371900996783214
 30
0.0
 10
33.84422704783447
 20
7.385280071455433
 30
0.0
 10
33.89926010810775
 20
7.385549692359525
 30
0.0
 10
33.95609380364387
 20
7.372452211330829
 30
0.0
  0
SPLINE
  5
1F2
330
1F
100
AcDbEntity
  8
외형선
  6
Continuous
 62
     1
370
    15
100
AcDbSpline
210
0.0
220
0.0
230
1.0
 70
     8
 71
     3
 72
    10
 73
     6
 74
     0
 42
0.000000001
 43
0.00000001
 40
0.0
 40
0.0
 40
0.0
 40
0.0
 40
0.5
 40
0.5
 40
1.0
 40
1.0
 40
1.0
 40
1.0
 10
33.17414237817407
 20
7.511802118437701
 30
0.0
 10
33.26680361576795
 20
7.440950050653535
 30
0.0
 10
33.37931915151676
 20
7.392175187499766
 30
0.0
 10
33.60397018898918
 20
7.344213174865324
 30
0.0
 10
33.71114451718029
 20
7.345492546019785
 30
0.0
 10
33.79947631011636
 20
7.37190099678302
 30
0.0
  0
SPLINE
  5
1F3
330
1F
100
AcDbEntity
  8
외형선
  6
Continuous
 62
     1
370
    15
100
AcDbSpline
210
0.0
220
0.0
230
1.0
 70
     8
 71
     3
 72
     8
 73
     4
 74
     0
 42
0.000000001
 43
0.00000001
 40
0.0
 40
0.0
 40
0.0
 40
0.0
 40
1.0
 40
1.0
 40
1.0
 40
1.0
 10
33.01809258498831
 20
7.58371328872864
 30
0.0
 10
33.073224683775
 20
7.571584127242581
 30
0.0
 10
33.12862212197978
 20
7.546608520350456
 30
0.0
 10
33.17414237817385
 20
7.511802118437868
 30
0.0
  0
SPLINE
  5
1F4
330
1F
100
AcDbEntity
  8
외형선
  6
Continuous
 62
     1
370
    15
100
AcDbSpline
210
0.0
220
0.0
230
1.0
 70
     8
 71
     3
 72
     8
 73
     4
 74
     0
 42
0.000000001
 43
0.00000001
 40
0.0
 40
0.0
 40
0.0
 40
0.0
 40
1.0
 40
1.0
 40
1.0
 40
1.0
 10
33.01713603738575
 20
7.583923725838202
 30
0.0
 10
32.65479934888626
 20
7.663634595655221
 30
0.0
 10
32.292359224093
 20
7.741175616977956
 30
0.0
 10
31.93028339040221
 20
7.816448300687482
 30
0.0
  0
SPLINE
  5
1F5
330
1F
100
AcDbEntity
  8
외형선
  6
Continuous
 62
     1
370
    15
100
AcDbSpline
210
0.0
220
0.0
230
1.0
 70
     8
 71
     3
 72
     8
 73
     4
 74
     0
 42
0.000000001
 43
0.00000001
 40
0.0
 40
0.0
 40
0.0
 40
0.0
 40
1.0
 40
1.0
 40
1.0
 40
1.0
 10
31.77374362304979
 20
7.809390658091098
 30
0.0
 10
31.81848941496689
 20
7.825697751595807
 30
0.0
 10
31.87351874181188
 20
7.828249262010043
 30
0.0
 10
31.93035088301313
 20
7.81643426948719
 30
0.0
  0
SPLINE
  5
1F6
330
1F
100
AcDbEntity
  8
외형선
  6
Continuous
 62
     1
370
    15
100
AcDbSpline
210
0.0
220
0.0
230
1.0
 70
     8
 71
     3
 72
    10
 73
     6
 74
     0
 42
0.000000001
 43
0.00000001
 40
0.0
 40
0.0
 40
0.0
 40
0.0
 40
0.5
 40
0.5
 40
1.0
 40
1.0
 40
1.0
 40
1.0
 10
31.14844606736111
 20
7.935244434645942
 30
0.0
 10
31.24110005825421
 20
7.862556151000113
 30
0.0
 10
31.3535977136565
 20
7.814263296031586
 30
0.0
 10
31.57823796742253
 20
7.771426169430048
 30
0.0
 10
31.68541130060762
 20
7.777198950673287
 30
0.0
 10
31.77374362304944
 20
7.809390658090867
 30
0.0
  0
SPLINE
  5
1F7
330
1F
100
AcDbEntity
  8
외형선
  6
Continuous
 62
     1
370
    15
100
AcDbSpline
210
0.0
220
0.0
230
1.0
 70
     8
 71
     3
 72
     8
 73
     4
 74
     0
 42
0.000000001
 43
0.00000001
 40
0.0
 40
0.0
 40
0.0
 40
0.0
 40
1.0
 40
1.0
 40
1.0
 40
1.0
 10
30.99240345264928
 20
8.006517102401808
 30
0.0
 10
31.04752899899553
 20
7.995634527686234
 30
0.0
 10
31.10292381432743
 20
7.970957245381999
 30
0.0
 10
31.1484460673609
 20
7.93524443464612
 30
0.0
  0
SPLINE
  5
1F8
330
1F
100
AcDbEntity
  8
외형선
  6
Continuous
 62
     1
370
    15
100
AcDbSpline
210
0.0
220
0.0
230
1.0
 70
     8
 71
     3
 72
     8
 73
     4
 74
     0
 42
0.000000001
 43
0.00000001
 40
0.0
 40
0.0
 40
0.0
 40
0.0
 40
1.0
 40
1.0
 40
1.0
 40
1.0
 10
30.99234896065536
 20
8.006527859885225
 30
0.0
 10
30.63043930308742
 20
8.07797380405251
 30
0.0
 10
30.26896567427181
 20
8.147090093192304
 30
0.0
 10
29.9064026106792
 20
8.213909866688612
 30
0.0
  0
SPLINE
  5
1F9
330
1F
100
AcDbEntity
  8
외형선
  6
Continuous
 62
     1
370
    15
100
AcDbSpline
210
0.0
220
0.0
230
1.0
 70
     8
 71
     3
 72
     8
 73
     4
 74
     0
 42
0.000000001
 43
0.00000001
 40
0.0
 40
0.0
 40
0.0
 40
0.0
 40
1.0
 40
1.0
 40
1.0
 40
1.0
 10
29.7481654616908
 20
8.20072893115831
 30
0.0
 10
29.79290410672591
 20
8.21987082954815
 30
0.0
 10
29.84792669466229
 20
8.224685706688934
 30
0.0
 10
29.90474998351068
 20
8.214214426309283
 30
0.0
  0
SPLINE
  5
1FA
330
1F
100
AcDbEntity
  8
외형선
  6
Continuous
 62
     1
370
    15
100
AcDbSpline
210
0.0
220
0.0
230
1.0
 70
     8
 71
     3
 72
    10
 73
     6
 74
     0
 42
0.000000001
 43
0.00000001
 40
0.0
 40
0.0
 40
0.0
 40
0.0
 40
0.5
 40
0.5
 40
1.0
 40
1.0
 40
1.0
 40
1.0
 10
29.12296618417327
 20
8.311537470520156
 30
0.0
 10
29.21560515854688
 20
8.237513210711688
 30
0.0
 10
29.32809886513434
 20
8.190047284143004
 30
0.0
 10
29.55270663280981
 20
8.152686234431203
 30
0.0
 10
29.65985844730212
 20
8.16294584909954
 30
0.0
 10
29.74816546169045
 20
8.200728931158062
 30
0.0
  0
SPLINE
  5
1FB
330
1F
100
AcDbEntity
  8
외형선
  6
Continuous
 62
     1
370
    15
100
AcDbSpline
210
0.0
220
0.0
230
1.0
 70
     8
 71
     3
 72
     8
 73
     4
 74
     0
 42
0.000000001
 43
0.00000001
 40
0.0
 40
0.0
 40
0.0
 40
0.0
 40
1.0
 40
1.0
 40
1.0
 40
1.0
 10
28.9669491672034
 20
8.381616114156152
 30
0.0
 10
29.0220708781083
 20
8.37209454669933
 30
0.0
 10
29.07745713355501
 20
8.347902011571854
 30
0.0
 10
29.12296618417305
 20
8.311537470520324
 30
0.0
  0
SPLINE
  5
1FC
330
1F
100
AcDbEntity
  8
외형선
  6
Continuous
 62
     1
370
    15
100
AcDbSpline
210
0.0
220
0.0
230
1.0
 70
     8
 71
     3
 72
     8
 73
     4
 74
     0
 42
0.000000001
 43
0.00000001
 40
0.0
 40
0.0
 40
0.0
 40
0.0
 40
1.0
 40
1.0
 40
1.0
 40
1.0
 10
28.96828873750676
 20
8.381384709564681
 30
0.0
 10
28.60510542665377
 20
8.444125940582193
 30
0.0
 10
28.24179140719371
 20
8.504456928208995
 30
0.0
 10
27.87881780093819
 20
8.562300842670094
 30
0.0
  0
SPLINE
  5
1FD
330
1F
100
AcDbEntity
  8
외형선
  6
Continuous
 62
     1
370
    15
100
AcDbSpline
210
0.0
220
0.0
230
1.0
 70
     8
 71
     3
 72
     8
 73
     4
 74
     0
 42
0.000000001
 43
0.00000001
 40
0.0
 40
0.0
 40
0.0
 40
0.0
 40
1.0
 40
1.0
 40
1.0
 40
1.0
 10
27.72297740481351
 20
8.542328947474612
 30
0.0
 10
27.76770086907915
 20
8.564187542867472
 30
0.0
 10
27.82271097760136
 20
8.571242584828294
 30
0.0
 10
27.87952409270515
 20
8.562188284089563
 30
0.0
  0
SPLINE
  5
1FE
330
1F
100
AcDbEntity
  8
외형선
  6
Continuous
 62
     1
370
    15
100
AcDbSpline
210
0.0
220
0.0
230
1.0
 70
     8
 71
     3
 72
    10
 73
     6
 74
     0
 42
0.000000001
 43
0.00000001
 40
0.0
 40
0.0
 40
0.0
 40
0.0
 40
0.5000000000000003
 40
0.5000000000000003
 40
1.0
 40
1.0
 40
1.0
 40
1.0
 10
27.09791134924616
 20
8.637624498844469
 30
0.0
 10
27.19052632748649
 20
8.562659934217587
 30
0.0
 10
27.30298565251216
 20
8.516256580885575
 30
0.0
 10
27.52755264752146
 20
8.484514053707468
 30
0.0
 10
27.63468825508145
 20
8.499177621134336
 30
0.0
 10
27.72297740481316
 20
8.542328947474376
 30
0.0
  0
SPLINE
  5
1FF
330
1F
100
AcDbEntity
  8
외형선
  6
Continuous
 62
     1
370
    15
100
AcDbSpline
210
0.0
220
0.0
230
1.0
 70
     8
 71
     3
 72
     8
 73
     4
 74
     0
 42
0.000000001
 43
0.00000001
 40
0.0
 40
0.0
 40
0.0
 40
0.0
 40
1.0
 40
1.0
 40
1.0
 40
1.0
 10
26.94192236491791
 20
8.706197586105727
 30
0.0
 10
26.99703117788258
 20
8.698052136220387
 30
0.0
 10
27.05240781740869
 20
8.674456040761184
 30
0.0
 10
27.09791134924594
 20
8.637624498844648
 30
0.0
  0
SPLINE
  5
200
330
1F
100
AcDbEntity
  8
외형선
  6
Continuous
 62
     1
370
    15
100
AcDbSpline
210
0.0
220
0.0
230
1.0
 70
     8
 71
     3
 72
     8
 73
     4
 74
     0
 42
0.000000001
 43
0.00000001
 40
0.0
 40
0.0
 40
0.0
 40
0.0
 40
1.0
 40
1.0
 40
1.0
 40
1.0
 10
26.94297723419489
 20
8.706041662511412
 30
0.0
 10
26.5800286566289
 20
8.759692616978608
 30
0.0
 10
26.21772358374542
 20
8.81079667136771
 30
0.0
 10
25.85426481962996
 20
8.859390207779732
 30
0.0
  0
SPLINE
  5
201
330
1F
100
AcDbEntity
  8
외형선
  6
Continuous
 62
     1
370
    15
100
AcDbSpline
210
0.0
220
0.0
230
1.0
 70
     8
 71
     3
 72
     8
 73
     4
 74
     0
 42
0.000000001
 43
0.00000001
 40
0.0
 40
0.0
 40
0.0
 40
0.0
 40
1.0
 40
1.0
 40
1.0
 40
1.0
 10
25.69825260937603
 20
8.833227011127365
 30
0.0
 10
25.742959349842
 20
8.857672592980881
 30
0.0
 10
25.79795410335849
 20
8.866919173105098
 30
0.0
 10
25.85474999237061
 20
8.859325339835129
 30
0.0
  0
SPLINE
  5
202
330
1F
100
AcDbEntity
  8
외형선
  6
Continuous
 62
     1
370
    15
100
AcDbSpline
210
0.0
220
0.0
230
1.0
 70
     8
 71
     3
 72
    10
 73
     6
 74
     0
 42
0.000000001
 43
0.00000001
 40
0.0
 40
0.0
 40
0.0
 40
0.0
 40
0.5
 40
0.5
 40
1.0
 40
1.0
 40
1.0
 40
1.0
 10
25.07337704910191
 20
8.91229061742635
 30
0.0
 10
25.1659626728508
 20
8.836876367560887
 30
0.0
 10
25.27840246227984
 20
8.791848309977167
 30
0.0
 10
25.50290752578301
 20
8.765977143156485
 30
0.0
 10
25.61000624053982
 20
8.78497402264735
 30
0.0
 10
25.69825260937567
 20
8.833227011127095
 30
0.0
  0
SPLINE
  5
203
330
1F
100
AcDbEntity
  8
외형선
  6
Continuous
 62
     1
370
    15
100
AcDbSpline
210
0.0
220
0.0
230
1.0
 70
     8
 71
     3
 72
     8
 73
     4
 74
     0
 42
0.000000001
 43
0.00000001
 40
0.0
 40
0.0
 40
0.0
 40
0.0
 40
1.0
 40
1.0
 40
1.0
 40
1.0
 10
24.91743322224015
 20
8.978860329435749
 30
0.0
 10
24.97253174524552
 20
8.97217352223983
 30
0.0
 10
25.02789311102029
 20
8.949338886179696
 30
0.0
 10
25.07337704910169
 20
8.912290617426528
 30
0.0
  0
SPLINE
  5
204
330
1F
100
AcDbEntity
  8
외형선
  6
Continuous
 62
     1
370
    15
100
AcDbSpline
210
0.0
220
0.0
230
1.0
 70
     8
 71
     3
 72
     8
 73
     4
 74
     0
 42
0.000000001
 43
0.00000001
 40
0.0
 40
0.0
 40
0.0
 40
0.0
 40
1.0
 40
1.0
 40
1.0
 40
1.0
 10
24.91855937972992
 20
8.978723649590632
 30
0.0
 10
24.5559716769553
 20
9.022732994802844
 30
0.0
 10
24.19322736912917
 20
9.064166935807917
 30
0.0
 10
23.83079537145383
 20
9.102973024511018
 30
0.0
  0
SPLINE
  5
205
330
1F
100
AcDbEntity
  8
외형선
  6
Continuous
 62
     1
370
    15
100
AcDbSpline
210
0.0
220
0.0
230
1.0
 70
     8
 71
     3
 72
     8
 73
     4
 74
     0
 42
0.000000001
 43
0.00000001
 40
0.0
 40
0.0
 40
0.0
 40
0.0
 40
1.0
 40
1.0
 40
1.0
 40
1.0
 10
23.67421760008068
 20
9.070795961722744
 30
0.0
 10
23.71889929745737
 20
9.097678934691558
 30
0.0
 10
23.77387315717097
 20
9.109067655353728
 30
0.0
 10
23.83065057685099
 20
9.102988527730881
 30
0.0
  0
SPLINE
  5
206
330
1F
100
AcDbEntity
  8
외형선
  6
Continuous
 62
     1
370
    15
100
AcDbSpline
210
0.0
220
0.0
230
1.0
 70
     8
 71
     3
 72
    10
 73
     6
 74
     0
 42
0.000000001
 43
0.00000001
 40
0.0
 40
0.0
 40
0.0
 40
0.0
 40
0.5
 40
0.5
 40
1.0
 40
1.0
 40
1.0
 40
1.0
 10
23.04956844559425
 20
9.13328428257424
 30
0.0
 10
23.14211391026015
 20
9.05784377484563
 30
0.0
 10
23.25450344710891
 20
9.014427087106947
 30
0.0
 10
23.47893891434218
 20
8.994522394062988
 30
0.0
 10
23.58600681261936
 20
9.017723487888302
 30
0.0
 10
23.67421760008034
 20
9.070795961722508
 30
0.0
  0
SPLINE
  5
207
330
1F
100
AcDbEntity
  8
외형선
  6
Continuous
 62
     1
370
    15
100
AcDbSpline
210
0.0
220
0.0
230
1.0
 70
     8
 71
     3
 72
     8
 73
     4
 74
     0
 42
0.000000001
 43
0.00000001
 40
0.0
 40
0.0
 40
0.0
 40
0.0
 40
1.0
 40
1.0
 40
1.0
 40
1.0
 10
22.893672722899
 20
9.197525204168429
 30
0.0
 10
22.94875226044422
 20
9.192308561546366
 30
0.0
 10
23.0040972839287
 20
9.170351118160792
 30
0.0
 10
23.04956844559403
 20
9.13328428257442
 30
0.0
  0
SPLINE
  5
208
330
1F
100
AcDbEntity
  8
외형선
  6
Continuous
 62
     1
370
    15
100
AcDbSpline
210
0.0
220
0.0
230
1.0
 70
     8
 71
     3
 72
     8
 73
     4
 74
     0
 42
0.000000001
 43
0.00000001
 40
0.0
 40
0.0
 40
0.0
 40
0.0
 40
1.0
 40
1.0
 40
1.0
 40
1.0
 10
22.89415750508298
 20
9.197479288366488
 30
0.0
 10
22.53156247988577
 20
9.231823380580805
 30
0.0
 10
22.16978593229217
 20
9.26349075683961
 30
0.0
 10
21.80683165162688
 20
9.292509458256488
 30
0.0
  0
SPLINE
  5
209
330
1F
100
AcDbEntity
  8
외형선
  6
Continuous
 62
     1
370
    15
100
AcDbSpline
210
0.0
220
0.0
230
1.0
 70
     8
 71
     3
 72
     8
 73
     4
 74
     0
 42
0.000000001
 43
0.00000001
 40
0.0
 40
0.0
 40
0.0
 40
0.0
 40
1.0
 40
1.0
 40
1.0
 40
1.0
 10
21.65094229863643
 20
9.254395385046312
 30
0.0
 10
21.69559818041749
 20
9.28355453421451
 30
0.0
 10
21.75054847928792
 20
9.297009740614774
 30
0.0
 10
21.80730070871631
 20
9.292471954978405
 30
0.0
  0
SPLINE
  5
20A
330
1F
100
AcDbEntity
  8
외형선
  6
Continuous
 62
     1
370
    15
100
AcDbSpline
210
0.0
220
0.0
230
1.0
 70
     8
 71
     3
 72
    10
 73
     6
 74
     0
 42
0.000000001
 43
0.00000001
 40
0.0
 40
0.0
 40
0.0
 40
0.0
 40
0.5
 40
0.5
 40
1.0
 40
1.0
 40
1.0
 40
1.0
 10
21.02657085080811
 20
9.299863677062616
 30
0.0
 10
21.11907349798009
 20
9.224868718048539
 30
0.0
 10
21.23142874414986
 20
9.183340642290956
 30
0.0
 10
21.45577441205688
 20
9.169558822938159
 30
0.0
 10
21.56279083526412
 20
9.196834733070103
 30
0.0
 10
21.65094229863605
 20
9.254395385046026
 30
0.0
  0
SPLINE
  5
20B
330
1F
100
AcDbEntity
  8
외형선
  6
Continuous
 62
     1
370
    15
100
AcDbSpline
210
0.0
220
0.0
230
1.0
 70
     8
 71
     3
 72
     8
 73
     4
 74
     0
 42
0.000000001
 43
0.00000001
 40
0.0
 40
0.0
 40
0.0
 40
0.0
 40
1.0
 40
1.0
 40
1.0
 40
1.0
 10
20.87073866785619
 20
9.361342195003527
 30
0.0
 10
20.92580182440206
 20
9.357646337810893
 30
0.0
 10
20.98112525318913
 20
9.336707927848897
 30
0.0
 10
21.02657085080789
 20
9.2998636770628
 30
0.0
  0
SPLINE
  5
20C
330
1F
100
AcDbEntity
  8
외형선
  6
Continuous
 62
     1
370
    15
100
AcDbSpline
210
0.0
220
0.0
230
1.0
 70
     8
 71
     3
 72
     8
 73
     4
 74
     0
 42
0.000000001
 43
0.00000001
 40
0.0
 40
0.0
 40
0.0
 40
0.0
 40
1.0
 40
1.0
 40
1.0
 40
1.0
 10
20.86932371629788
 20
9.36143715331489
 30
0.0
 10
20.50724843512527
 20
9.385732753609377
 30
0.0
 10
20.14499052375701
 20
9.407348073432502
 30
0.0
 10
19.78301701829011
 20
9.426256001607547
 30
0.0
  0
SPLINE
  5
20D
330
1F
100
AcDbEntity
  8
외형선
  6
Continuous
 62
     1
370
    15
100
AcDbSpline
210
0.0
220
0.0
230
1.0
 70
     8
 71
     3
 72
     8
 73
     4
 74
     0
 42
0.000000001
 43
0.00000001
 40
0.0
 40
0.0
 40
0.0
 40
0.0
 40
1.0
 40
1.0
 40
1.0
 40
1.0
 10
19.62840543565645
 20
9.382431510496847
 30
0.0
 10
19.67305620229019
 20
9.413687342599925
 30
0.0
 10
19.72800173032649
 20
9.429131089661695
 30
0.0
 10
19.78475197600932
 20
9.426165354322844
 30
0.0
  0
SPLINE
  5
20E
330
1F
100
AcDbEntity
  8
외형선
  6
Continuous
 62
     1
370
    15
100
AcDbSpline
210
0.0
220
0.0
230
1.0
 70
     8
 71
     3
 72
    10
 73
     6
 74
     0
 42
0.000000001
 43
0.00000001
 40
0.0
 40
0.0
 40
0.0
 40
0.0
 40
0.5
 40
0.5
 40
1.0
 40
1.0
 40
1.0
 40
1.0
 10
19.00395311888777
 20
9.410706422553288
 30
0.0
 10
19.09646874246222
 20
9.336576130090506
 30
0.0
 10
19.208821774707
 20
9.297175745109667
 30
0.0
 10
19.43319928445896
 20
9.289550644130633
 30
0.0
 10
19.54023741458986
 20
9.320713312331396
 30
0.0
 10
19.6284054356561
 20
9.38243151049658
 30
0.0
  0
SPLINE
  5
20F
330
1F
100
AcDbEntity
  8
외형선
  6
Continuous
 62
     1
370
    15
100
AcDbSpline
210
0.0
220
0.0
230
1.0
 70
     8
 71
     3
 72
     8
 73
     4
 74
     0
 42
0.000000001
 43
0.00000001
 40
0.0
 40
0.0
 40
0.0
 40
0.0
 40
1.0
 40
1.0
 40
1.0
 40
1.0
 10
18.84807814493867
 20
9.469100812065879
 30
0.0
 10
18.90315141864039
 20
9.466930534652446
 30
0.0
 10
18.95848964785861
 20
9.447135084800212
 30
0.0
 10
19.00395311888756
 20
9.41070642255344
 30
0.0
  0
SPLINE
  5
210
330
1F
100
AcDbEntity
  8
외형선
  6
Continuous
 62
     1
370
    15
100
AcDbSpline
210
0.0
220
0.0
230
1.0
 70
     8
 71
     3
 72
     8
 73
     4
 74
     0
 42
0.000000001
 43
0.00000001
 40
0.0
 40
0.0
 40
0.0
 40
0.0
 40
1.0
 40
1.0
 40
1.0
 40
1.0
 10
18.84601750102327
 20
9.469181986833268
 30
0.0
 10
18.48333138798693
 20
9.483464108916642
 30
0.0
 10
18.12160564793718
 20
9.495004089064052
 30
0.0
 10
17.75871081178964
 20
9.503812947276444
 30
0.0
  0
SPLINE
  5
211
330
1F
100
AcDbEntity
  8
외형선
  6
Continuous
 62
     1
370
    15
100
AcDbSpline
210
0.0
220
0.0
230
1.0
 70
     8
 71
     3
 72
     8
 73
     4
 74
     0
 42
0.000000001
 43
0.00000001
 40
0.0
 40
0.0
 40
0.0
 40
0.0
 40
1.0
 40
1.0
 40
1.0
 40
1.0
 10
17.60516368449328
 20
9.454619389539412
 30
0.0
 10
17.64984504269817
 20
9.48779153667267
 30
0.0
 10
17.70481614602578
 20
9.505123399264834
 30
0.0
 10
17.76158936582474
 20
9.503743015907515
 30
0.0
  0
SPLINE
  5
212
330
1F
100
AcDbEntity
  8
외형선
  6
Continuous
 62
     1
370
    15
100
AcDbSpline
210
0.0
220
0.0
230
1.0
 70
     8
 71
     3
 72
    10
 73
     6
 74
     0
 42
0.000000001
 43
0.00000001
 40
0.0
 40
0.0
 40
0.0
 40
0.0
 40
0.5
 40
0.5
 40
1.0
 40
1.0
 40
1.0
 40
1.0
 10
16.98045047950957
 20
9.46548106948094
 30
0.0
 10
17.07301286849252
 20
9.392648678650438
 30
0.0
 10
17.18542310599346
 20
9.355630652184638
 30
0.0
 10
17.40987959296837
 20
9.354255109183926
 30
0.0
 10
17.51695285326257
 20
9.389130273050675
 30
0.0
 10
17.60516368449298
 20
9.454619389539172
 30
0.0
  0
SPLINE
  5
213
330
1F
100
AcDbEntity
  8
외형선
  6
Continuous
 62
     1
370
    15
100
AcDbSpline
210
0.0
220
0.0
230
1.0
 70
     8
 71
     3
 72
     8
 73
     4
 74
     0
 42
0.000000001
 43
0.00000001
 40
0.0
 40
0.0
 40
0.0
 40
0.0
 40
1.0
 40
1.0
 40
1.0
 40
1.0
 10
16.82452352109518
 20
9.520416278468074
 30
0.0
 10
16.87961669607164
 20
9.519794790588572
 30
0.0
 10
16.9349724250253
 20
9.5012653170009
 30
0.0
 10
16.98045047950941
 20
9.465481069481074
 30
0.0
  0
SPLINE
  5
214
330
1F
100
AcDbEntity
  8
외형선
  6
Continuous
 62
     1
370
    15
100
AcDbSpline
210
0.0
220
0.0
230
1.0
 70
     8
 71
     3
 72
     9
 73
     5
 74
     0
 42
0.000000001
 43
0.00000001
 40
0.0
 40
0.0
 40
0.0
 40
0.0
 40
0.7490451494703526
 40
1.0
 40
1.0
 40
1.0
 40
1.0
 10
16.82479252666233
 20
9.520413354039187
 30
0.0
 10
16.62180941563177
 20
9.522419743713229
 30
0.0
 10
16.3508202620753
 20
9.525098340157594
 30
0.0
 10
16.079834208626
 20
9.524709370122553
 30
0.0
 10
16.01182894408701
 20
9.524611756205553
 30
0.0
  0
SPLINE
  5
215
330
1F
100
AcDbEntity
  8
외형선
  6
Continuous
 62
     1
370
    15
100
AcDbSpline
210
0.0
220
0.0
230
1.0
 70
     8
 71
     3
 72
     9
 73
     5
 74
     0
 42
0.000000001
 43
0.00000001
 40
0.0
 40
0.0
 40
0.0
 40
0.0
 40
0.6067929707427127
 40
1.0
 40
1.0
 40
1.0
 40
1.0
 10
15.58115558326243
 20
9.470252320170397
 30
0.0
 10
15.59260563922255
 20
9.478592735705455
 30
0.0
 10
15.61147542926991
 20
9.492337811764672
 30
0.0
 10
15.63298412151877
 20
9.50101051493762
 30
0.0
 10
15.64144149050115
 20
9.50442068278789
 30
0.0
  0
SPLINE
  5
216
330
1F
100
AcDbEntity
  8
외형선
  6
Continuous
 62
     1
370
    15
100
AcDbSpline
210
0.0
220
0.0
230
1.0
 70
     8
 71
     3
 72
    10
 73
     6
 74
     0
 42
0.000000001
 43
0.00000001
 40
0.0
 40
0.0
 40
0.0
 40
0.0
 40
0.3923487760328349
 40
0.7838600051319279
 40
1.0
 40
1.0
 40
1.0
 40
1.0
 10
31.41100557148454
 20
8.148899301886553
 30
0.0
 10
31.3618941517543
 20
8.116240246677675
 30
0.0
 10
31.26377615044168
 20
8.050991853545199
 30
0.0
 10
31.11706804676597
 20
8.004335378744146
 30
0.0
 10
31.03396606335271
 20
8.00363283617545
 30
0.0
 10
31.00440689921377
 20
8.003382943570609
 30
0.0
  0
SPLINE
  5
217
330
1F
100
AcDbEntity
  8
외형선
  6
Continuous
 62
     1
370
    15
100
AcDbSpline
210
0.0
220
0.0
230
1.0
 70
     8
 71
     3
 72
     8
 73
     4
 74
     0
 42
0.000000001
 43
0.00000001
 40
0.0
 40
0.0
 40
0.0
 40
0.0
 40
1.0
 40
1.0
 40
1.0
 40
1.0
 10
31.56703032248678
 20
8.21956878127405
 30
0.0
 10
31.51190705712239
 20
8.209430543320867
 30
0.0
 10
31.45651882632799
 20
8.185000998557516
 30
0.0
 10
31.41100540751896
 20
8.148899510252075
 30
0.0
  0
SPLINE
  5
218
330
1F
100
AcDbEntity
  8
외형선
  6
Continuous
 62
     1
370
    15
100
AcDbSpline
210
0.0
220
0.0
230
1.0
 70
     8
 71
     3
 72
     8
 73
     4
 74
     0
 42
0.000000001
 43
0.00000001
 40
0.0
 40
0.0
 40
0.0
 40
0.0
 40
1.0
 40
1.0
 40
1.0
 40
1.0
 10
32.65583271685568
 20
8.41252432465346
 30
0.0
 10
32.29266446076749
 20
8.350595431433419
 30
0.0
 10
31.92954865029984
 20
8.286243269115209
 30
0.0
 10
31.56695557132002
 20
8.219555033049572
 30
0.0
  0
SPLINE
  5
219
330
1F
100
AcDbEntity
  8
외형선
  6
Continuous
 62
     1
370
    15
100
AcDbSpline
210
0.0
220
0.0
230
1.0
 70
     8
 71
     3
 72
     8
 73
     4
 74
     0
 42
0.000000001
 43
0.00000001
 40
0.0
 40
0.0
 40
0.0
 40
0.0
 40
1.0
 40
1.0
 40
1.0
 40
1.0
 10
32.81122506640277
 20
8.395291618158119
 30
0.0
 10
32.76648365489299
 20
8.415950463166242
 30
0.0
 10
32.71145783290994
 20
8.42201057120716
 30
0.0
 10
32.65463021540051
 20
8.412319260445239
 30
0.0
  0
SPLINE
  5
21A
330
1F
100
AcDbEntity
  8
외형선
  6
Continuous
 62
     1
370
    15
100
AcDbSpline
210
0.0
220
0.0
230
1.0
 70
     8
 71
     3
 72
    10
 73
     6
 74
     0
 42
0.000000001
 43
0.00000001
 40
0.0
 40
0.0
 40
0.0
 40
0.0
 40
0.5
 40
0.5
 40
1.0
 40
1.0
 40
1.0
 40
1.0
 10
33.43650236686855
 20
8.497574352574361
 30
0.0
 10
33.34385381827626
 20
8.422979951214534
 30
0.0
 10
33.23135516160325
 20
8.376077064503962
 30
0.0
 10
33.00671877223928
 20
8.341805903492801
 30
0.0
 10
32.8995487068978
 20
8.354509167672514
 30
0.0
 10
32.81122506640299
 20
8.39529161815796
 30
0.0
  0
SPLINE
  5
21B
330
1F
100
AcDbEntity
  8
외형선
  6
Continuous
 62
     1
370
    15
100
AcDbSpline
210
0.0
220
0.0
230
1.0
 70
     8
 71
     3
 72
     8
 73
     4
 74
     0
 42
0.000000001
 43
0.00000001
 40
0.0
 40
0.0
 40
0.0
 40
0.0
 40
1.0
 40
1.0
 40
1.0
 40
1.0
 10
33.59254493325546
 20
8.566864128365731
 30
0.0
 10
33.53741627457866
 20
8.558098205587573
 30
0.0
 10
33.48202102046572
 20
8.534222921465808
 30
0.0
 10
33.43650236686889
 20
8.497574352574636
 30
0.0
  0
SPLINE
  5
21C
330
1F
100
AcDbEntity
  8
외형선
  6
Continuous
 62
     1
370
    15
100
AcDbSpline
210
0.0
220
0.0
230
1.0
 70
     8
 71
     3
 72
     8
 73
     4
 74
     0
 42
0.000000001
 43
0.00000001
 40
0.0
 40
0.0
 40
0.0
 40
0.0
 40
1.0
 40
1.0
 40
1.0
 40
1.0
 10
34.680422069225
 20
8.732551118041709
 30
0.0
 10
34.31852693930768
 20
8.6798653025326
 30
0.0
 10
33.95580993356792
 20
8.624625464618052
 30
0.0
 10
33.59273954775672
 20
8.566895073483426
 30
0.0
  0
SPLINE
  5
21D
330
1F
100
AcDbEntity
  8
외형선
  6
Continuous
 62
     1
370
    15
100
AcDbSpline
210
0.0
220
0.0
230
1.0
 70
     8
 71
     3
 72
    17
 73
    13
 74
     0
 42
0.000000001
 43
0.00000001
 40
0.0
 40
0.0
 40
0.0
 40
0.0
 40
0.0000451207238803
 40
0.0000451207238803
 40
0.0000451207238803
 40
0.000090237000634
 40
0.000090237000634
 40
0.000090237000634
 40
0.0001347627553607
 40
0.0001347627553607
 40
0.0001347627553607
 40
0.0001803708057399
 40
0.0001803708057399
 40
0.0001803708057399
 40
0.0001803708057399
 10
34.83690816705793
 20
8.709273914153643
 30
0.0
 10
34.82578005480523
 20
8.715064291377573
 30
0.0
 10
34.8139329175183
 20
8.719959008284057
 30
0.0
 10
34.80158864851463
 20
8.723880181823418
 30
0.0
 10
34.78924515929137
 20
8.727801107664487
 30
0.0
 10
34.77633172096551
 20
8.730771974455926
 30
0.0
 10
34.76307736801555
 20
8.732742195254565
 30
0.0
 10
34.74999560488681
 20
8.734686761081083
 30
0.0
 10
34.73650638138444
 20
8.735667919513086
 30
0.0
 10
34.72283856786479
 20
8.735661277287079
 30
0.0
 10
34.70884128421722
 20
8.735654474946578
 30
0.0
 10
34.69457209901912
 20
8.734611146472927
 30
0.0
 10
34.68029028751432
 20
8.732531932744001
 30
0.0
  0
SPLINE
  5
21E
330
1F
100
AcDbEntity
  8
외형선
  6
Continuous
 62
     1
370
    15
100
AcDbSpline
210
0.0
220
0.0
230
1.0
 70
     8
 71
     3
 72
    10
 73
     6
 74
     0
 42
0.000000001
 43
0.00000001
 40
0.0
 40
0.0
 40
0.0
 40
0.0
 40
0.5
 40
0.5
 40
1.0
 40
1.0
 40
1.0
 40
1.0
 10
35.46225342283236
 20
8.79584477117342
 30
0.0
 10
35.36957921568198
 20
8.720536565121996
 30
0.0
 10
35.25705465765211
 20
8.6748530240644
 30
0.0
 10
35.03240636593828
 20
8.646286126000485
 30
0.0
 10
34.92523848289961
 20
8.663312313711376
 30
0.0
 10
34.83690816705815
 20
8.70927391415346
 30
0.0
  0
SPLINE
  5
21F
330
1F
100
AcDbEntity
  8
외형선
  6
Continuous
 62
     1
370
    15
100
AcDbSpline
210
0.0
220
0.0
230
1.0
 70
     8
 71
     3
 72
     8
 73
     4
 74
     0
 42
0.000000001
 43
0.00000001
 40
0.0
 40
0.0
 40
0.0
 40
0.0
 40
1.0
 40
1.0
 40
1.0
 40
1.0
 10
35.61830684087303
 20
8.863378601381237
 30
0.0
 10
35.56317468420119
 20
8.856029300451192
 30
0.0
 10
35.50777689684006
 20
8.832837708757182
 30
0.0
 10
35.4622534228327
 20
8.79584477117369
 30
0.0
  0
SPLINE
  5
220
330
1F
100
AcDbEntity
  8
외형선
  6
Continuous
 62
     1
370
    15
100
AcDbSpline
210
0.0
220
0.0
230
1.0
 70
     8
 71
     3
 72
     8
 73
     4
 74
     0
 42
0.000000001
 43
0.00000001
 40
0.0
 40
0.0
 40
0.0
 40
0.0
 40
1.0
 40
1.0
 40
1.0
 40
1.0
 10
36.70446123252211
 20
9.000396876920849
 30
0.0
 10
36.34270030772022
 20
8.957345628765468
 30
0.0
 10
35.98101808896313
 20
8.911721715983942
 30
0.0
 10
35.61987930413049
 20
8.86358819968341
 30
0.0
  0
SPLINE
  5
221
330
1F
100
AcDbEntity
  8
외형선
  6
Continuous
 62
     1
370
    15
100
AcDbSpline
210
0.0
220
0.0
230
1.0
 70
     8
 71
     3
 72
     8
 73
     4
 74
     0
 42
0.000000001
 43
0.00000001
 40
0.0
 40
0.0
 40
0.0
 40
0.0
 40
1.0
 40
1.0
 40
1.0
 40
1.0
 10
36.86270181861179
 20
8.971106569128496
 30
0.0
 10
36.81795291477334
 20
8.996918183471928
 30
0.0
 10
36.76292030612003
 20
9.007352549497234
 30
0.0
 10
36.70608622456079
 20
9.000590241242653
 30
0.0
  0
SPLINE
  5
222
330
1F
100
AcDbEntity
  8
외형선
  6
Continuous
 62
     1
370
    15
100
AcDbSpline
210
0.0
220
0.0
230
1.0
 70
     8
 71
     3
 72
    10
 73
     6
 74
     0
 42
0.000000001
 43
0.00000001
 40
0.0
 40
0.0
 40
0.0
 40
0.0
 40
0.5
 40
0.5
 40
1.0
 40
1.0
 40
1.0
 40
1.0
 10
37.48803242296286
 20
9.041077492319932
 30
0.0
 10
37.39537559252617
 20
8.965566329128158
 30
0.0
 10
37.28286692325428
 20
8.921412732215982
 30
0.0
 10
37.05821447058302
 20
8.89882899690578
 30
0.0
 10
36.95103629277316
 20
8.92015436282355
 30
0.0
 10
36.86270181861204
 20
8.971106569128326
 30
0.0
  0
SPLINE
  5
223
330
1F
100
AcDbEntity
  8
외형선
  6
Continuous
 62
     1
370
    15
100
AcDbSpline
210
0.0
220
0.0
230
1.0
 70
     8
 71
     3
 72
     8
 73
     4
 74
     0
 42
0.000000001
 43
0.00000001
 40
0.0
 40
0.0
 40
0.0
 40
0.0
 40
1.0
 40
1.0
 40
1.0
 40
1.0
 10
37.64408247774641
 20
9.106411947387505
 30
0.0
 10
37.58895133085978
 20
9.100532332879387
 30
0.0
 10
37.53355356843563
 20
9.078175185261307
 30
0.0
 10
37.48803242296319
 20
9.041077492320216
 30
0.0
  0
SPLINE
  5
224
330
1F
100
AcDbEntity
  8
외형선
  6
Continuous
 62
     1
370
    15
100
AcDbSpline
210
0.0
220
0.0
230
1.0
 70
     8
 71
     3
 72
     8
 73
     4
 74
     0
 42
0.000000001
 43
0.00000001
 40
0.0
 40
0.0
 40
0.0
 40
0.0
 40
1.0
 40
1.0
 40
1.0
 40
1.0
 10
38.73128743364344
 20
9.214567837205577
 30
0.0
 10
38.36933046143223
 20
9.181159657625585
 30
0.0
 10
38.0065774305109
 20
9.145074025749791
 30
0.0
 10
37.64349700395197
 20
9.106349505650064
 30
0.0
  0
SPLINE
  5
225
330
1F
100
AcDbEntity
  8
외형선
  6
Continuous
 62
     1
370
    15
100
AcDbSpline
210
0.0
220
0.0
230
1.0
 70
     8
 71
     3
 72
    17
 73
    13
 74
     0
 42
0.000000001
 43
0.00000001
 40
0.0
 40
0.0
 40
0.0
 40
0.0
 40
0.0000451207540598
 40
0.0000451207540598
 40
0.0000451207540598
 40
0.0000902370659314
 40
0.0000902370659314
 40
0.0000902370659314
 40
0.000134757531757
 40
0.000134757531757
 40
0.000134757531757
 40
0.0001803601689432
 40
0.0001803601689432
 40
0.0001803601689432
 40
0.0001803601689432
 10
38.88844803037288
 20
9.179190356076521
 30
0.0
 10
38.87731999913796
 20
9.186191481066869
 30
0.0
 10
38.86547275989859
 20
9.192267664919552
 30
0.0
 10
38.85312832963309
 20
9.197321274166734
 30
0.0
 10
38.84078467803974
 20
9.202374564638182
 30
0.0
 10
38.82787097646505
 20
9.206435546315973
 30
0.0
 10
38.81461632246965
 20
9.209435235059777
 30
0.0
 10
38.80153581699094
 20
9.212395511884909
 30
0.0
 10
38.78804789560869
 20
9.214339417747526
 30
0.0
 10
38.77438141262552
 20
9.215225656152759
 30
0.0
 10
38.76038548958687
 20
9.21613325794971
 30
0.0
 10
38.74611770340018
 20
9.215936546703814
 30
0.0
 10
38.73183730427616
 20
9.214618587580654
 30
0.0
  0
SPLINE
  5
226
330
1F
100
AcDbEntity
  8
외형선
  6
Continuous
 62
     1
370
    15
100
AcDbSpline
210
0.0
220
0.0
230
1.0
 70
     8
 71
     3
 72
    10
 73
     6
 74
     0
 42
0.000000001
 43
0.00000001
 40
0.0
 40
0.0
 40
0.0
 40
0.0
 40
0.5
 40
0.5
 40
1.0
 40
1.0
 40
1.0
 40
1.0
 10
39.5137513400372
 20
9.232439317984111
 30
0.0
 10
39.421083873082
 20
9.157128044166882
 30
0.0
 10
39.3085655983769
 20
9.114740025043044
 30
0.0
 10
39.08393198510819
 20
9.098190373161275
 30
0.0
 10
38.97677375375223
 20
9.123620829338888
 30
0.0
 10
38.88844803037311
 20
9.179190356076337
 30
0.0
  0
SPLINE
  5
227
330
1F
100
AcDbEntity
  8
외형선
  6
Continuous
 62
     1
370
    15
100
AcDbSpline
210
0.0
220
0.0
230
1.0
 70
     8
 71
     3
 72
     8
 73
     4
 74
     0
 42
0.000000001
 43
0.00000001
 40
0.0
 40
0.0
 40
0.0
 40
0.0
 40
1.0
 40
1.0
 40
1.0
 40
1.0
 10
39.66979187792207
 20
9.295214094369996
 30
0.0
 10
39.6146639374137
 20
9.290832228146183
 30
0.0
 10
39.55927062485893
 20
9.269433048748542
 30
0.0
 10
39.51375134003755
 20
9.232439317984403
 30
0.0
  0
SPLINE
  5
228
330
1F
100
AcDbEntity
  8
외형선
  6
Continuous
 62
     1
370
    15
100
AcDbSpline
210
0.0
220
0.0
230
1.0
 70
     8
 71
     3
 72
     8
 73
     4
 74
     0
 42
0.000000001
 43
0.00000001
 40
0.0
 40
0.0
 40
0.0
 40
0.0
 40
1.0
 40
1.0
 40
1.0
 40
1.0
 10
40.75722291992385
 20
9.373542416523653
 30
0.0
 10
40.39488965679178
 20
9.350141086364683
 30
0.0
 10
40.03266032389406
 20
9.324050817381387
 30
0.0
 10
39.67100174442559
 20
9.29531025103732
 30
0.0
  0
SPLINE
  5
229
330
1F
100
AcDbEntity
  8
외형선
  6
Continuous
 62
     1
370
    15
100
AcDbSpline
210
0.0
220
0.0
230
1.0
 70
     8
 71
     3
 72
     8
 73
     4
 74
     0
 42
0.000000001
 43
0.00000001
 40
0.0
 40
0.0
 40
0.0
 40
0.0
 40
1.0
 40
1.0
 40
1.0
 40
1.0
 10
40.91399674539495
 20
9.332315120631913
 30
0.0
 10
40.86926047368492
 20
9.362662664910895
 30
0.0
 10
40.81423870284242
 20
9.377224636669194
 30
0.0
 10
40.75741541288727
 20
9.373554848447558
 30
0.0
  0
SPLINE
  5
22A
330
1F
100
AcDbEntity
  8
외형선
  6
Continuous
 62
     1
370
    15
100
AcDbSpline
210
0.0
220
0.0
230
1.0
 70
     8
 71
     3
 72
    10
 73
     6
 74
     0
 42
0.000000001
 43
0.00000001
 40
0.0
 40
0.0
 40
0.0
 40
0.0
 40
0.5
 40
0.5
 40
1.0
 40
1.0
 40
1.0
 40
1.0
 10
41.53918806253322
 20
9.368288086375976
 30
0.0
 10
41.44655464857674
 20
9.293677309782478
 30
0.0
 10
41.33406863784765
 20
9.253324214516052
 30
0.0
 10
41.10946068354439
 20
9.2429672711488
 30
0.0
 10
41.00230554764212
 20
9.272409473961021
 30
0.0
 10
40.91399674539517
 20
9.332315120631735
 30
0.0
  0
SPLINE
  5
22B
330
1F
100
AcDbEntity
  8
외형선
  6
Continuous
 62
     1
370
    15
100
AcDbSpline
210
0.0
220
0.0
230
1.0
 70
     8
 71
     3
 72
     8
 73
     4
 74
     0
 42
0.000000001
 43
0.00000001
 40
0.0
 40
0.0
 40
0.0
 40
0.0
 40
1.0
 40
1.0
 40
1.0
 40
1.0
 10
41.74999999999996
 20
9.525000000000006
 30
0.0
 10
41.64008375147012
 20
9.425250598926148
 30
0.0
 10
41.5846974855484
 20
9.404943254834613
 30
0.0
 10
41.53918806253355
 20
9.368288086376246
 30
0.0
  0
SPLINE
  5
23B
330
1F
100
AcDbEntity
  8
외형선
  6
Continuous
 62
     1
370
    15
100
AcDbSpline
210
0.0
220
0.0
230
1.0
 70
     8
 71
     3
 72
     9
 73
     5
 74
     0
 42
0.000000001
 43
0.00000001
 40
0.0
 40
0.0
 40
0.0
 40
0.0
 40
0.5017549367372514
 40
1.0
 40
1.0
 40
1.0
 40
1.0
 10
30.13565616309641
 20
-8.129647001624113
 30
0.0
 10
30.18497895071927
 20
-8.096037203966665
 30
0.0
 10
30.28327950346238
 20
-8.02905271573024
 30
0.0
 10
30.3959117207538
 20
-8.001982448100526
 30
0.0
 10
30.45203016698358
 20
-7.988494820892817
 30
0.0
  0
SPLINE
  5
23C
330
1F
100
AcDbEntity
  8
외형선
  6
Continuous
 62
     1
370
    15
100
AcDbSpline
210
0.0
220
0.0
230
1.0
 70
     8
 71
     3
 72
     8
 73
     4
 74
     0
 42
0.000000001
 43
0.00000001
 40
0.0
 40
0.0
 40
0.0
 40
0.0
 40
1.0
 40
1.0
 40
1.0
 40
1.0
 10
29.97962378985526
 20
-8.200382267833964
 30
0.0
 10
30.03474895195412
 20
-8.190173014395661
 30
0.0
 10
30.0901392658686
 20
-8.165717292391259
 30
0.0
 10
30.13565545297418
 20
-8.12964722840264
 30
0.0
  0
SPLINE
  5
23D
330
1F
100
AcDbEntity
  8
외형선
  6
Continuous
 62
     1
370
    15
100
AcDbSpline
210
0.0
220
0.0
230
1.0
 70
     8
 71
     3
 72
     8
 73
     4
 74
     0
 42
0.000000001
 43
0.00000001
 40
0.0
 40
0.0
 40
0.0
 40
0.0
 40
1.0
 40
1.0
 40
1.0
 40
1.0
 10
29.98032774253791
 20
-8.200251891801454
 30
0.0
 10
29.61856945114784
 20
-8.26725315037196
 30
0.0
 10
29.25624563792759
 20
-8.3319367246488
 30
0.0
 10
28.89382349462008
 20
-8.394214774083212
 30
0.0
  0
SPLINE
  5
23E
330
1F
100
AcDbEntity
  8
외형선
  6
Continuous
 62
     1
370
    15
100
AcDbSpline
210
0.0
220
0.0
230
1.0
 70
     8
 71
     3
 72
     8
 73
     4
 74
     0
 42
0.000000001
 43
0.00000001
 40
0.0
 40
0.0
 40
0.0
 40
0.0
 40
1.0
 40
1.0
 40
1.0
 40
1.0
 10
28.73551751167751
 20
-8.377807820035532
 30
0.0
 10
28.78024806137951
 20
-8.39832904112461
 30
0.0
 10
28.83526488228987
 20
-8.404276159913614
 30
0.0
 10
28.89208331411571
 20
-8.39451378534998
 30
0.0
  0
SPLINE
  5
23F
330
1F
100
AcDbEntity
  8
외형선
  6
Continuous
 62
     1
370
    15
100
AcDbSpline
210
0.0
220
0.0
230
1.0
 70
     8
 71
     3
 72
    10
 73
     6
 74
     0
 42
0.000000001
 43
0.00000001
 40
0.0
 40
0.0
 40
0.0
 40
0.0
 40
0.5
 40
0.5
 40
1.0
 40
1.0
 40
1.0
 40
1.0
 10
28.11038481990542
 20
-8.480862803304435
 30
0.0
 10
28.20300844665069
 20
-8.406325610982428
 30
0.0
 10
28.31548456375363
 20
-8.35936698242707
 30
0.0
 10
28.5400739467826
 20
-8.324814564448204
 30
0.0
 10
28.64721956126739
 20
-8.337299000578806
 30
0.0
 10
28.7355175116775
 20
-8.377807820035523
 30
0.0
  0
SPLINE
  5
240
330
1F
100
AcDbEntity
  8
외형선
  6
Continuous
 62
     1
370
    15
100
AcDbSpline
210
0.0
220
0.0
230
1.0
 70
     8
 71
     3
 72
     8
 73
     4
 74
     0
 42
0.000000001
 43
0.00000001
 40
0.0
 40
0.0
 40
0.0
 40
0.0
 40
1.0
 40
1.0
 40
1.0
 40
1.0
 10
27.95438200434737
 20
-8.55022371201388
 30
0.0
 10
28.00949827825087
 20
-8.541389074084469
 30
0.0
 10
28.06487998209928
 20
-8.51748200043936
 30
0.0
 10
28.11038481990538
 20
-8.480862803304465
 30
0.0
  0
SPLINE
  5
241
330
1F
100
AcDbEntity
  8
외형선
  6
Continuous
 62
     1
370
    15
100
AcDbSpline
210
0.0
220
0.0
230
1.0
 70
     8
 71
     3
 72
     8
 73
     4
 74
     0
 42
0.000000001
 43
0.00000001
 40
0.0
 40
0.0
 40
0.0
 40
0.0
 40
1.0
 40
1.0
 40
1.0
 40
1.0
 10
27.95577640927851
 20
-8.550000189611046
 30
0.0
 10
27.59247536248734
 20
-8.608240278534383
 30
0.0
 10
27.22948221309163
 20
-8.663994410664499
 30
0.0
 10
26.86726657500533
 20
-8.71719773476752
 30
0.0
  0
SPLINE
  5
242
330
1F
100
AcDbEntity
  8
외형선
  6
Continuous
 62
     1
370
    15
100
AcDbSpline
210
0.0
220
0.0
230
1.0
 70
     8
 71
     3
 72
     8
 73
     4
 74
     0
 42
0.000000001
 43
0.00000001
 40
0.0
 40
0.0
 40
0.0
 40
0.0
 40
1.0
 40
1.0
 40
1.0
 40
1.0
 10
26.71054531564958
 20
-8.69427198779703
 30
0.0
 10
26.75526267782494
 20
-8.717428541203137
 30
0.0
 10
26.8102650942727
 20
-8.725570147245618
 30
0.0
 10
26.86707241860172
 20
-8.717226252813658
 30
0.0
  0
SPLINE
  5
243
330
1F
100
AcDbEntity
  8
외형선
  6
Continuous
 62
     1
370
    15
100
AcDbSpline
210
0.0
220
0.0
230
1.0
 70
     8
 71
     3
 72
    10
 73
     6
 74
     0
 42
0.000000001
 43
0.00000001
 40
0.0
 40
0.0
 40
0.0
 40
0.0
 40
0.5
 40
0.5
 40
1.0
 40
1.0
 40
1.0
 40
1.0
 10
26.08555646015676
 20
-8.781652889870687
 30
0.0
 10
26.17817180917015
 20
-8.706387739471339
 30
0.0
 10
26.29063724649112
 20
-8.660625874673386
 30
0.0
 10
26.51517005442071
 20
-8.631757230595362
 30
0.0
 10
26.62227625415545
 20
-8.648562510825192
 30
0.0
 10
26.71054531564956
 20
-8.694271987797016
 30
0.0
  0
SPLINE
  5
244
330
1F
100
AcDbEntity
  8
외형선
  6
Continuous
 62
     1
370
    15
100
AcDbSpline
210
0.0
220
0.0
230
1.0
 70
     8
 71
     3
 72
     8
 73
     4
 74
     0
 42
0.000000001
 43
0.00000001
 40
0.0
 40
0.0
 40
0.0
 40
0.0
 40
1.0
 40
1.0
 40
1.0
 40
1.0
 10
25.92958795339664
 20
-8.849282254245363
 30
0.0
 10
25.98469297549281
 20
-8.84186006861733
 30
0.0
 10
26.0400617671797
 20
-8.81862478433274
 30
0.0
 10
26.08555646015673
 20
-8.781652889870697
 30
0.0
  0
SPLINE
  5
245
330
1F
100
AcDbEntity
  8
외형선
  6
Continuous
 62
     1
370
    15
100
AcDbSpline
210
0.0
220
0.0
230
1.0
 70
     8
 71
     3
 72
     8
 73
     4
 74
     0
 42
0.000000001
 43
0.00000001
 40
0.0
 40
0.0
 40
0.0
 40
0.0
 40
1.0
 40
1.0
 40
1.0
 40
1.0
 10
25.93253731434207
 20
-8.848884942573731
 30
0.0
 10
25.56989395292151
 20
-8.897744089931278
 30
0.0
 10
25.20665494256194
 20
-8.944078230210495
 30
0.0
 10
24.84329100434023
 20
-8.987822154333001
 30
0.0
  0
SPLINE
  5
246
330
1F
100
AcDbEntity
  8
외형선
  6
Continuous
 62
     1
370
    15
100
AcDbSpline
210
0.0
220
0.0
230
1.0
 70
     8
 71
     3
 72
     8
 73
     4
 74
     0
 42
0.000000001
 43
0.00000001
 40
0.0
 40
0.0
 40
0.0
 40
0.0
 40
1.0
 40
1.0
 40
1.0
 40
1.0
 10
24.68614345289709
 20
-8.958721364624818
 30
0.0
 10
24.73083715754196
 20
-8.98440888513939
 30
0.0
 10
24.78582192947343
 20
-8.994740112839516
 30
0.0
 10
24.84260880707114
 20
-8.987904278262736
 30
0.0
  0
SPLINE
  5
247
330
1F
100
AcDbEntity
  8
외형선
  6
Continuous
 62
     1
370
    15
100
AcDbSpline
210
0.0
220
0.0
230
1.0
 70
     8
 71
     3
 72
    10
 73
     6
 74
     0
 42
0.000000001
 43
0.00000001
 40
0.0
 40
0.0
 40
0.0
 40
0.0
 40
0.5
 40
0.5
 40
1.0
 40
1.0
 40
1.0
 40
1.0
 10
24.06138108079065
 20
-9.029498406337453
 30
0.0
 10
24.1539432837939
 20
-8.95402402043544
 30
0.0
 10
24.26635753367663
 20
-8.90977547189078
 30
0.0
 10
24.49082980408134
 20
-8.886887695438519
 30
0.0
 10
24.59791501220686
 20
-8.908012435969024
 30
0.0
 10
24.6861434528971
 20
-8.958721364624816
 30
0.0
  0
SPLINE
  5
248
330
1F
100
AcDbEntity
  8
외형선
  6
Continuous
 62
     1
370
    15
100
AcDbSpline
210
0.0
220
0.0
230
1.0
 70
     8
 71
     3
 72
     8
 73
     4
 74
     0
 42
0.000000001
 43
0.00000001
 40
0.0
 40
0.0
 40
0.0
 40
0.0
 40
1.0
 40
1.0
 40
1.0
 40
1.0
 10
23.90546147297332
 20
-9.094941737886586
 30
0.0
 10
23.96055151861558
 20
-9.088989039446018
 30
0.0
 10
24.01590497331232
 20
-9.066579214418672
 30
0.0
 10
24.06138108079062
 20
-9.029498406337467
 30
0.0
  0
SPLINE
  5
249
330
1F
100
AcDbEntity
  8
외형선
  6
Continuous
 62
     1
370
    15
100
AcDbSpline
210
0.0
220
0.0
230
1.0
 70
     8
 71
     3
 72
     8
 73
     4
 74
     0
 42
0.000000001
 43
0.00000001
 40
0.0
 40
0.0
 40
0.0
 40
0.0
 40
1.0
 40
1.0
 40
1.0
 40
1.0
 10
23.90809816182332
 20
-9.09465678743185
 30
0.0
 10
23.54427346735745
 20
-9.13398211495274
 30
0.0
 10
23.18073012562132
 20
-9.170663244046493
 30
0.0
 10
22.81793991412738
 20
-9.204660004228574
 30
0.0
  0
SPLINE
  5
24A
330
1F
100
AcDbEntity
  8
외형선
  6
Continuous
 62
     1
370
    15
100
AcDbSpline
210
0.0
220
0.0
230
1.0
 70
     8
 71
     3
 72
     8
 73
     4
 74
     0
 42
0.000000001
 43
0.00000001
 40
0.0
 40
0.0
 40
0.0
 40
0.0
 40
1.0
 40
1.0
 40
1.0
 40
1.0
 10
22.6624752560619
 20
-9.169435784266733
 30
0.0
 10
22.70714592859004
 20
-9.197470422999254
 30
0.0
 10
22.76210789471454
 20
-9.209892671948138
 30
0.0
 10
22.8188753796897
 20
-9.204572336763208
 30
0.0
  0
SPLINE
  5
24B
330
1F
100
AcDbEntity
  8
외형선
  6
Continuous
 62
     1
370
    15
100
AcDbSpline
210
0.0
220
0.0
230
1.0
 70
     8
 71
     3
 72
    10
 73
     6
 74
     0
 42
0.000000001
 43
0.00000001
 40
0.0
 40
0.0
 40
0.0
 40
0.0
 40
0.5
 40
0.5
 40
1.0
 40
1.0
 40
1.0
 40
1.0
 10
22.03794726711509
 20
-9.223542253558248
 30
0.0
 10
22.1304863359528
 20
-9.148251493838737
 30
0.0
 10
22.24287328120271
 20
-9.105742193774804
 30
0.0
 10
22.4672583025325
 20
-9.088861683425646
 30
0.0
 10
22.57429056044281
 20
-9.114092402501864
 30
0.0
 10
22.66247525606187
 20
-9.169435784266714
 30
0.0
  0
SPLINE
  5
24C
330
1F
100
AcDbEntity
  8
외형선
  6
Continuous
 62
     1
370
    15
100
AcDbSpline
210
0.0
220
0.0
230
1.0
 70
     8
 71
     3
 72
     8
 73
     4
 74
     0
 42
0.000000001
 43
0.00000001
 40
0.0
 40
0.0
 40
0.0
 40
0.0
 40
1.0
 40
1.0
 40
1.0
 40
1.0
 10
21.88208103271172
 20
-9.286454267816872
 30
0.0
 10
21.93715352063627
 20
-9.281994205783077
 30
0.0
 10
21.99248752080743
 20
-9.260528781293498
 30
0.0
 10
22.03794726711509
 20
-9.223542253558254
 30
0.0
  0
SPLINE
  5
24D
330
1F
100
AcDbEntity
  8
외형선
  6
Continuous
 62
     1
370
    15
100
AcDbSpline
210
0.0
220
0.0
230
1.0
 70
     8
 71
     3
 72
     8
 73
     4
 74
     0
 42
0.000000001
 43
0.00000001
 40
0.0
 40
0.0
 40
0.0
 40
0.0
 40
1.0
 40
1.0
 40
1.0
 40
1.0
 10
21.88421838956609
 20
-9.286281141934639
 30
0.0
 10
21.52160088430926
 20
-9.315658481318922
 30
0.0
 10
21.15836067431989
 20
-9.34237444394922
 30
0.0
 10
20.79496846668427
 20
-9.36638863016952
 30
0.0
  0
SPLINE
  5
24E
330
1F
100
AcDbEntity
  8
외형선
  6
Continuous
 62
     1
370
    15
100
AcDbSpline
210
0.0
220
0.0
230
1.0
 70
     8
 71
     3
 72
     8
 73
     4
 74
     0
 42
0.000000001
 43
0.00000001
 40
0.0
 40
0.0
 40
0.0
 40
0.0
 40
1.0
 40
1.0
 40
1.0
 40
1.0
 10
20.6396631856906
 20
-9.32537459683379
 30
0.0
 10
20.68430140224472
 20
-9.355607301036816
 30
0.0
 10
20.73923778310098
 20
-9.370072278456854
 30
0.0
 10
20.79597711848296
 20
-9.366321968087966
 30
0.0
  0
SPLINE
  5
24F
330
1F
100
AcDbEntity
  8
외형선
  6
Continuous
 62
     1
370
    15
100
AcDbSpline
210
0.0
220
0.0
230
1.0
 70
     8
 71
     3
 72
    10
 73
     6
 74
     0
 42
0.000000001
 43
0.00000001
 40
0.0
 40
0.0
 40
0.0
 40
0.0
 40
0.5
 40
0.5
 40
1.0
 40
1.0
 40
1.0
 40
1.0
 10
20.01536416029284
 20
-9.36224270781673
 30
0.0
 10
20.10785303544701
 20
-9.287638394984642
 30
0.0
 10
20.22018562440197
 20
-9.24714259452213
 30
0.0
 10
20.44451586230724
 20
-9.236433240553326
 30
0.0
 10
20.55152735498119
 20
-9.26568169901617
 30
0.0
 10
20.6396631856906
 20
-9.325374596833784
 30
0.0
  0
SPLINE
  5
250
330
1F
100
AcDbEntity
  8
외형선
  6
Continuous
 62
     1
370
    15
100
AcDbSpline
210
0.0
220
0.0
230
1.0
 70
     8
 71
     3
 72
     8
 73
     4
 74
     0
 42
0.000000001
 43
0.00000001
 40
0.0
 40
0.0
 40
0.0
 40
0.0
 40
1.0
 40
1.0
 40
1.0
 40
1.0
 10
19.85952260490277
 20
-9.422219607821269
 30
0.0
 10
19.91458810946541
 20
-9.41928554021204
 30
0.0
 10
19.96991529216193
 20
-9.398903133951741
 30
0.0
 10
20.01536416029282
 20
-9.362242707816723
 30
0.0
  0
SPLINE
  5
251
330
1F
100
AcDbEntity
  8
외형선
  6
Continuous
 62
     1
370
    15
100
AcDbSpline
210
0.0
220
0.0
230
1.0
 70
     8
 71
     3
 72
     8
 73
     4
 74
     0
 42
0.000000001
 43
0.00000001
 40
0.0
 40
0.0
 40
0.0
 40
0.0
 40
1.0
 40
1.0
 40
1.0
 40
1.0
 10
19.86090219136334
 20
-9.422146085975902
 30
0.0
 10
19.49764399262116
 20
-9.441508515159354
 30
0.0
 10
19.13463872103411
 20
-9.458146352451973
 30
0.0
 10
18.7723560900442
 20
-9.47204534932044
 30
0.0
  0
SPLINE
  5
252
330
1F
100
AcDbEntity
  8
외형선
  6
Continuous
 62
     1
370
    15
100
AcDbSpline
210
0.0
220
0.0
230
1.0
 70
     8
 71
     3
 72
     8
 73
     4
 74
     0
 42
0.000000001
 43
0.00000001
 40
0.0
 40
0.0
 40
0.0
 40
0.0
 40
1.0
 40
1.0
 40
1.0
 40
1.0
 10
18.61689895179412
 20
-9.425557499071777
 30
0.0
 10
18.66156658558719
 20
-9.457792193642554
 30
0.0
 10
18.71652475062867
 20
-9.474188045296087
 30
0.0
 10
18.77328904766827
 20
-9.472009550351755
 30
0.0
  0
SPLINE
  5
253
330
1F
100
AcDbEntity
  8
외형선
  6
Continuous
 62
     1
370
    15
100
AcDbSpline
210
0.0
220
0.0
230
1.0
 70
     8
 71
     3
 72
    10
 73
     6
 74
     0
 42
0.000000001
 43
0.00000001
 40
0.0
 40
0.0
 40
0.0
 40
0.0
 40
0.5
 40
0.5
 40
1.0
 40
1.0
 40
1.0
 40
1.0
 10
17.99229768519568
 20
-9.445176698418061
 30
0.0
 10
18.08485145505767
 20
-9.371628104310703
 30
0.0
 10
18.19724573572916
 20
-9.333393089282227
 30
0.0
 10
18.42165423138434
 20
-9.328881811325594
 30
0.0
 10
18.52870377730098
 20
-9.361910865682278
 30
0.0
 10
18.61689895179422
 20
-9.425557499071829
 30
0.0
  0
SPLINE
  5
254
330
1F
100
AcDbEntity
  8
외형선
  6
Continuous
 62
     1
370
    15
100
AcDbSpline
210
0.0
220
0.0
230
1.0
 70
     8
 71
     3
 72
     8
 73
     4
 74
     0
 42
0.000000001
 43
0.00000001
 40
0.0
 40
0.0
 40
0.0
 40
0.0
 40
1.0
 40
1.0
 40
1.0
 40
1.0
 10
17.83639392001418
 20
-9.501885209122383
 30
0.0
 10
17.89147817049211
 20
-9.500488435026334
 30
0.0
 10
17.94682501339431
 20
-9.481311921070631
 30
0.0
 10
17.99229768519569
 20
-9.44517669841807
 30
0.0
  0
SPLINE
  5
255
330
1F
100
AcDbEntity
  8
외형선
  6
Continuous
 62
     1
370
    15
100
AcDbSpline
210
0.0
220
0.0
230
1.0
 70
     8
 71
     3
 72
     8
 73
     4
 74
     0
 42
0.000000001
 43
0.00000001
 40
0.0
 40
0.0
 40
0.0
 40
0.0
 40
1.0
 40
1.0
 40
1.0
 40
1.0
 10
17.83609742074722
 20
-9.501892726853814
 30
0.0
 10
17.47372425093966
 20
-9.511079942919409
 30
0.0
 10
17.11070200582007
 20
-9.517535228583897
 30
0.0
 10
16.74750052613292
 20
-9.521243962664434
 30
0.0
  0
SPLINE
  5
256
330
1F
100
AcDbEntity
  8
외형선
  6
Continuous
 62
     1
370
    15
100
AcDbSpline
210
0.0
220
0.0
230
1.0
 70
     8
 71
     3
 72
     8
 73
     4
 74
     0
 42
0.000000001
 43
0.00000001
 40
0.0
 40
0.0
 40
0.0
 40
0.0
 40
1.0
 40
1.0
 40
1.0
 40
1.0
 10
16.59324840046188
 20
-9.469506148989664
 30
0.0
 10
16.63793989673586
 20
-9.503561565456872
 30
0.0
 10
16.69292154225766
 20
-9.52180298606666
 30
0.0
 10
16.74970578363955
 20
-9.521221410514423
 30
0.0
  0
SPLINE
  5
257
330
1F
100
AcDbEntity
  8
외형선
  6
Continuous
 62
     1
370
    15
100
AcDbSpline
210
0.0
220
0.0
230
1.0
 70
     8
 71
     3
 72
    10
 73
     6
 74
     0
 42
0.000000001
 43
0.00000001
 40
0.0
 40
0.0
 40
0.0
 40
0.0
 40
0.5
 40
0.5
 40
1.0
 40
1.0
 40
1.0
 40
1.0
 10
15.96842548594197
 20
-9.471637245661844
 30
0.0
 10
16.06100031052276
 20
-9.399622652012134
 30
0.0
 10
16.17342271911498
 20
-9.363874077928353
 30
0.0
 10
16.39791699283231
 20
-9.365616757558703
 30
0.0
 10
16.50501327571554
 20
-9.402270004067347
 30
0.0
 10
16.59324840046188
 20
-9.469506148989668
 30
0.0
  0
SPLINE
  5
258
330
1F
100
AcDbEntity
  8
외형선
  6
Continuous
 62
     1
370
    15
100
AcDbSpline
210
0.0
220
0.0
230
1.0
 70
     8
 71
     3
 72
     8
 73
     4
 74
     0
 42
0.000000001
 43
0.00000001
 40
0.0
 40
0.0
 40
0.0
 40
0.0
 40
1.0
 40
1.0
 40
1.0
 40
1.0
 10
15.81247499694317
 20
-9.524724169052787
 30
0.0
 10
15.8675750787996
 20
-9.524876665033128
 30
0.0
 10
15.92293917020633
 20
-9.507021363959192
 30
0.0
 10
15.96842548594195
 20
-9.471637245661855
 30
0.0
  0
SPLINE
  5
259
330
1F
100
AcDbEntity
  8
외형선
  6
Continuous
 62
     1
370
    15
100
AcDbSpline
210
0.0
220
0.0
230
1.0
 70
     8
 71
     3
 72
     8
 73
     4
 74
     0
 42
0.000000001
 43
0.00000001
 40
0.0
 40
0.0
 40
0.0
 40
0.0
 40
1.0
 40
1.0
 40
1.0
 40
1.0
 10
15.81187675212977
 20
-9.524722510852374
 30
0.0
 10
15.44937700386368
 20
-9.523716238489454
 30
0.0
 10
15.08710249001988
 20
-9.51997221827288
 30
0.0
 10
14.72552011903676
 20
-9.513502204505235
 30
0.0
  0
SPLINE
  5
25A
330
1F
100
AcDbEntity
  8
외형선
  6
Continuous
 62
     1
370
    15
100
AcDbSpline
210
0.0
220
0.0
230
1.0
 70
     8
 71
     3
 72
     8
 73
     4
 74
     0
 42
0.000000001
 43
0.00000001
 40
0.0
 40
0.0
 40
0.0
 40
0.0
 40
1.0
 40
1.0
 40
1.0
 40
1.0
 10
14.56888448259972
 20
-9.456836184970909
 30
0.0
 10
14.61359931182429
 20
-9.492508679410237
 30
0.0
 10
14.66859920942545
 20
-9.51248359192592
 30
0.0
 10
14.72540413670226
 20
-9.513500129071026
 30
0.0
  0
SPLINE
  5
25B
330
1F
100
AcDbEntity
  8
외형선
  6
Continuous
 62
     1
370
    15
100
AcDbSpline
210
0.0
220
0.0
230
1.0
 70
     8
 71
     3
 72
    10
 73
     6
 74
     0
 42
0.000000001
 43
0.00000001
 40
0.0
 40
0.0
 40
0.0
 40
0.0
 40
0.5
 40
0.5
 40
1.0
 40
1.0
 40
1.0
 40
1.0
 10
13.94384560620539
 20
-9.441456649174505
 30
0.0
 10
14.03647028992432
 20
-9.371389026263435
 30
0.0
 10
14.14893710330839
 20
-9.338363220852022
 30
0.0
 10
14.37347842975131
 20
-9.346364831203163
 30
0.0
 10
14.48060404866025
 20
-9.38640802179954
 30
0.0
 10
14.56888448259978
 20
-9.456836184970943
 30
0.0
  0
SPLINE
  5
25C
330
1F
100
AcDbEntity
  8
외형선
  6
Continuous
 62
     1
370
    15
100
AcDbSpline
210
0.0
220
0.0
230
1.0
 70
     8
 71
     3
 72
     8
 73
     4
 74
     0
 42
0.000000001
 43
0.00000001
 40
0.0
 40
0.0
 40
0.0
 40
0.0
 40
1.0
 40
1.0
 40
1.0
 40
1.0
 10
13.78785139448187
 20
-9.490595062591234
 30
0.0
 10
13.84296410042921
 20
-9.49229976094363
 30
0.0
 10
13.89834148957034
 20
-9.475879063991679
 30
0.0
 10
13.94384560620532
 20
-9.44145664917454
 30
0.0
  0
SPLINE
  5
25D
330
1F
100
AcDbEntity
  8
외형선
  6
Continuous
 62
     1
370
    15
100
AcDbSpline
210
0.0
220
0.0
230
1.0
 70
     8
 71
     3
 72
     8
 73
     4
 74
     0
 42
0.000000001
 43
0.00000001
 40
0.0
 40
0.0
 40
0.0
 40
0.0
 40
1.0
 40
1.0
 40
1.0
 40
1.0
 10
13.78457160197425
 20
-9.4904935406292
 30
0.0
 10
13.42397713949729
 20
-9.47932361559897
 30
0.0
 10
13.06271446398237
 20
-9.46543873235301
 30
0.0
 10
12.70124660170958
 20
-9.448850178169003
 30
0.0
  0
SPLINE
  5
25E
330
1F
100
AcDbEntity
  8
외형선
  6
Continuous
 62
     1
370
    15
100
AcDbSpline
210
0.0
220
0.0
230
1.0
 70
     8
 71
     3
 72
     8
 73
     4
 74
     0
 42
0.000000001
 43
0.00000001
 40
0.0
 40
0.0
 40
0.0
 40
0.0
 40
1.0
 40
1.0
 40
1.0
 40
1.0
 10
12.54391832514654
 20
-9.387544658433615
 30
0.0
 10
12.58864775657386
 20
-9.424617840402483
 30
0.0
 10
12.64366279543996
 20
-9.446206927924802
 30
0.0
 10
12.70047956122469
 20
-9.44881497295629
 30
0.0
  0
SPLINE
  5
25F
330
1F
100
AcDbEntity
  8
외형선
  6
Continuous
 62
     1
370
    15
100
AcDbSpline
210
0.0
220
0.0
230
1.0
 70
     8
 71
     3
 72
    10
 73
     6
 74
     0
 42
0.000000001
 43
0.00000001
 40
0.0
 40
0.0
 40
0.0
 40
0.0
 40
0.5
 40
0.5
 40
1.0
 40
1.0
 40
1.0
 40
1.0
 10
11.91875012392937
 20
-9.354815108549891
 30
0.0
 10
12.01138146252802
 20
-9.287127956556464
 30
0.0
 10
12.12386341943992
 20
-9.256985716237526
 30
0.0
 10
12.34846550893473
 20
-9.271158642733093
 30
0.0
 10
12.45561706393973
 20
-9.314357751729494
 30
0.0
 10
12.54391832514652
 20
-9.387544658433608
 30
0.0
  0
SPLINE
  5
260
330
1F
100
AcDbEntity
  8
외형선
  6
Continuous
 62
     1
370
    15
100
AcDbSpline
210
0.0
220
0.0
230
1.0
 70
     8
 71
     3
 72
     8
 73
     4
 74
     0
 42
0.000000001
 43
0.00000001
 40
0.0
 40
0.0
 40
0.0
 40
0.0
 40
1.0
 40
1.0
 40
1.0
 40
1.0
 10
11.76272933311205
 20
-9.399729880192659
 30
0.0
 10
11.81785175292559
 20
-9.40297020262715
 30
0.0
 10
11.87323964306487
 20
-9.388070320902122
 30
0.0
 10
11.91875012392934
 20
-9.354815108549927
 30
0.0
  0
SPLINE
  5
261
330
1F
100
AcDbEntity
  8
외형선
  6
Continuous
 62
     1
370
    15
100
AcDbSpline
210
0.0
220
0.0
230
1.0
 70
     8
 71
     3
 72
     8
 73
     4
 74
     0
 42
0.000000001
 43
0.00000001
 40
0.0
 40
0.0
 40
0.0
 40
0.0
 40
1.0
 40
1.0
 40
1.0
 40
1.0
 10
11.76096989758164
 20
-9.399626432069342
 30
0.0
 10
11.3979227236041
 20
-9.378276249810611
 30
0.0
 10
11.03507557050398
 20
-9.35422006099554
 30
0.0
 10
10.67289758371095
 20
-9.327495474662793
 30
0.0
  0
SPLINE
  5
262
330
1F
100
AcDbEntity
  8
외형선
  6
Continuous
 62
     1
370
    15
100
AcDbSpline
210
0.0
220
0.0
230
1.0
 70
     8
 71
     3
 72
     8
 73
     4
 74
     0
 42
0.000000001
 43
0.00000001
 40
0.0
 40
0.0
 40
0.0
 40
0.0
 40
1.0
 40
1.0
 40
1.0
 40
1.0
 10
10.51854074232494
 20
-9.26212520169987
 30
0.0
 10
10.56328358240134
 20
-9.30038671780697
 30
0.0
 10
10.61830841386221
 20
-9.3234691421634
 30
0.0
 10
10.67513752690013
 20
-9.327660722175404
 30
0.0
  0
SPLINE
  5
263
330
1F
100
AcDbEntity
  8
외형선
  6
Continuous
 62
     1
370
    15
100
AcDbSpline
210
0.0
220
0.0
230
1.0
 70
     8
 71
     3
 72
    10
 73
     6
 74
     0
 42
0.000000001
 43
0.00000001
 40
0.0
 40
0.0
 40
0.0
 40
0.0
 40
0.5
 40
0.5
 40
1.0
 40
1.0
 40
1.0
 40
1.0
 10
9.999999999998535
 20
-9.156724124570454
 30
0.0
 10
10.08687613002717
 20
-9.12529345633873
 30
0.0
 10
10.18087338596543
 20
-9.12049787952693
 30
0.0
 10
10.36054147300634
 20
-9.158073717720095
 30
0.0
 10
10.44599681286408
 20
-9.200089785065623
 30
0.0
 10
10.51854074232489
 20
-9.262125201699833
 30
0.0
  0
SPLINE
  5
264
330
1F
100
AcDbEntity
  8
외형선
  6
Continuous
 62
     1
370
    15
100
AcDbSpline
210
0.0
220
0.0
230
1.0
 70
     8
 71
     3
 72
     8
 73
     4
 74
     0
 42
0.000000001
 43
0.00000001
 40
0.0
 40
0.0
 40
0.0
 40
0.0
 40
1.0
 40
1.0
 40
1.0
 40
1.0
 10
21.67858140899971
 20
-5.837036011015451
 30
0.0
 10
21.63392931089057
 20
-5.841408954330072
 30
0.0
 10
21.57898183758403
 20
-5.835032504754333
 30
0.0
 10
21.52222975798301
 20
-5.818681665549759
 30
0.0
  0
SPLINE
  5
265
330
1F
100
AcDbEntity
  8
외형선
  6
Continuous
 62
     1
370
    15
100
AcDbSpline
210
0.0
220
0.0
230
1.0
 70
     8
 71
     3
 72
    10
 73
     6
 74
     0
 42
0.000000001
 43
0.00000001
 40
0.0
 40
0.0
 40
0.0
 40
0.0
 40
0.5
 40
0.5
 40
1.0
 40
1.0
 40
1.0
 40
1.0
 10
22.3029381271926
 20
-6.013451689545422
 30
0.0
 10
22.2104388099865
 20
-5.950344563953894
 30
0.0
 10
22.09810035149772
 20
-5.901735509458386
 30
0.0
 10
21.87375847109382
 20
-5.840308455430826
 30
0.0
 10
21.76673855578305
 20
-5.828402459133437
 30
0.0
 10
21.67858140899973
 20
-5.837036011015379
 30
0.0
  0
SPLINE
  5
266
330
1F
100
AcDbEntity
  8
외형선
  6
Continuous
 62
     1
370
    15
100
AcDbSpline
210
0.0
220
0.0
230
1.0
 70
     8
 71
     3
 72
     8
 73
     4
 74
     0
 42
0.000000001
 43
0.00000001
 40
0.0
 40
0.0
 40
0.0
 40
0.0
 40
1.0
 40
1.0
 40
1.0
 40
1.0
 10
22.45876970714718
 20
-6.084975868842948
 30
0.0
 10
22.40371201155219
 20
-6.069528953172454
 30
0.0
 10
22.34838901881869
 20
-6.044460298178747
 30
0.0
 10
22.30293812719261
 20
-6.013451689545422
 30
0.0
  0
SPLINE
  5
267
330
1F
100
AcDbEntity
  8
외형선
  6
Continuous
 62
     1
370
    15
100
AcDbSpline
210
0.0
220
0.0
230
1.0
 70
     8
 71
     3
 72
     8
 73
     4
 74
     0
 42
0.000000001
 43
0.00000001
 40
0.0
 40
0.0
 40
0.0
 40
0.0
 40
1.0
 40
1.0
 40
1.0
 40
1.0
 10
23.5462978406381
 20
-6.384394877716917
 30
0.0
 10
23.18318165759723
 20
-6.28634303630261
 30
0.0
 10
22.8206296146158
 20
-6.186498956266913
 30
0.0
 10
22.45872152202159
 20
-6.084962350077172
 30
0.0
  0
SPLINE
  5
268
330
1F
100
AcDbEntity
  8
외형선
  6
Continuous
 62
     1
370
    15
100
AcDbSpline
210
0.0
220
0.0
230
1.0
 70
     8
 71
     3
 72
     8
 73
     4
 74
     0
 42
0.000000001
 43
0.00000001
 40
0.0
 40
0.0
 40
0.0
 40
0.0
 40
1.0
 40
1.0
 40
1.0
 40
1.0
 10
23.70115603694364
 20
-6.395955842133602
 30
0.0
 10
23.65650178190343
 20
-6.403444173531416
 30
0.0
 10
23.60155361736131
 20
-6.399316344472263
 30
0.0
 10
23.54480255863441
 20
-6.383991097592934
 30
0.0
  0
SPLINE
  5
269
330
1F
100
AcDbEntity
  8
외형선
  6
Continuous
 62
     1
370
    15
100
AcDbSpline
210
0.0
220
0.0
230
1.0
 70
     8
 71
     3
 72
    10
 73
     6
 74
     0
 42
0.000000001
 43
0.00000001
 40
0.0
 40
0.0
 40
0.0
 40
0.0
 40
0.5
 40
0.5
 40
1.0
 40
1.0
 40
1.0
 40
1.0
 10
24.3256253781354
 20
-6.560692275086303
 30
0.0
 10
24.2331060207964
 20
-6.49463003682904
 30
0.0
 10
24.12074023964367
 20
-6.44572180475706
 30
0.0
 10
23.89635822581504
 20
-6.388609407143578
 30
0.0
 10
23.78932157550254
 20
-6.381170850871244
 30
0.0
 10
23.70115603694364
 20
-6.395955842133601
 30
0.0
  0
SPLINE
  5
26A
330
1F
100
AcDbEntity
  8
외형선
  6
Continuous
 62
     1
370
    15
100
AcDbSpline
210
0.0
220
0.0
230
1.0
 70
     8
 71
     3
 72
     8
 73
     4
 74
     0
 42
0.000000001
 43
0.00000001
 40
0.0
 40
0.0
 40
0.0
 40
0.0
 40
1.0
 40
1.0
 40
1.0
 40
1.0
 10
24.4815019575446
 20
-6.63268325454681
 30
0.0
 10
24.42642469026753
 20
-6.618310471265561
 30
0.0
 10
24.3710857940082
 20
-6.593152691058044
 30
0.0
 10
24.32562537813539
 20
-6.560692275086277
 30
0.0
  0
SPLINE
  5
26B
330
1F
100
AcDbEntity
  8
외형선
  6
Continuous
 62
     1
370
    15
100
AcDbSpline
210
0.0
220
0.0
230
1.0
 70
     8
 71
     3
 72
     8
 73
     4
 74
     0
 42
0.000000001
 43
0.00000001
 40
0.0
 40
0.0
 40
0.0
 40
0.0
 40
1.0
 40
1.0
 40
1.0
 40
1.0
 10
25.57041704262637
 20
-6.911094468778732
 30
0.0
 10
25.20748296286543
 20
-6.820217748794128
 30
0.0
 10
24.8441096853637
 20
-6.727310760016433
 30
0.0
 10
24.48076853440717
 20
-6.632491860239933
 30
0.0
  0
SPLINE
  5
26C
330
1F
100
AcDbEntity
  8
외형선
  6
Continuous
 62
     1
370
    15
100
AcDbSpline
210
0.0
220
0.0
230
1.0
 70
     8
 71
     3
 72
     8
 73
     4
 74
     0
 42
0.000000001
 43
0.00000001
 40
0.0
 40
0.0
 40
0.0
 40
0.0
 40
1.0
 40
1.0
 40
1.0
 40
1.0
 10
25.72442971266138
 20
-6.916043521746611
 30
0.0
 10
25.67974816140303
 20
-6.926581440367095
 30
0.0
 10
25.62477611915419
 20
-6.924706991035694
 30
0.0
 10
25.56799943331056
 20
-6.910489084162142
 30
0.0
  0
SPLINE
  5
26D
330
1F
100
AcDbEntity
  8
외형선
  6
Continuous
 62
     1
370
    15
100
AcDbSpline
210
0.0
220
0.0
230
1.0
 70
     8
 71
     3
 72
    10
 73
     6
 74
     0
 42
0.000000001
 43
0.00000001
 40
0.0
 40
0.0
 40
0.0
 40
0.0
 40
0.5
 40
0.5
 40
1.0
 40
1.0
 40
1.0
 40
1.0
 10
26.34916829604245
 20
-7.068640439992312
 30
0.0
 10
26.25660363498063
 20
-6.999888829731852
 30
0.0
 10
26.14420357806051
 20
-6.950864758986921
 30
0.0
 10
25.91973759557728
 20
-6.898227714538347
 30
0.0
 10
25.81265376765531
 20
-6.895236323121831
 30
0.0
 10
25.72442971266143
 20
-6.916043521746602
 30
0.0
  0
SPLINE
  5
26E
330
1F
100
AcDbEntity
  8
외형선
  6
Continuous
 62
     1
370
    15
100
AcDbSpline
210
0.0
220
0.0
230
1.0
 70
     8
 71
     3
 72
     8
 73
     4
 74
     0
 42
0.000000001
 43
0.00000001
 40
0.0
 40
0.0
 40
0.0
 40
0.0
 40
1.0
 40
1.0
 40
1.0
 40
1.0
 10
26.50510342877331
 20
-7.140884003022219
 30
0.0
 10
26.45001260806534
 20
-7.127591163663749
 30
0.0
 10
26.3946542453289
 20
-7.102424739764992
 30
0.0
 10
26.34916829604243
 20
-7.068640439992302
 30
0.0
  0
SPLINE
  5
26F
330
1F
100
AcDbEntity
  8
외형선
  6
Continuous
 62
     1
370
    15
100
AcDbSpline
210
0.0
220
0.0
230
1.0
 70
     8
 71
     3
 72
     8
 73
     4
 74
     0
 42
0.000000001
 43
0.00000001
 40
0.0
 40
0.0
 40
0.0
 40
0.0
 40
1.0
 40
1.0
 40
1.0
 40
1.0
 10
27.59502986108471
 20
-7.397374031232883
 30
0.0
 10
27.23099799451653
 20
-7.3139223275626
 30
0.0
 10
26.86772898039478
 20
-7.22838299559162
 30
0.0
 10
26.50475479362105
 20
-7.140799880409094
 30
0.0
  0
SPLINE
  5
270
330
1F
100
AcDbEntity
  8
외형선
  6
Continuous
 62
     1
370
    15
100
AcDbSpline
210
0.0
220
0.0
230
1.0
 70
     8
 71
     3
 72
     8
 73
     4
 74
     0
 42
0.000000001
 43
0.00000001
 40
0.0
 40
0.0
 40
0.0
 40
0.0
 40
1.0
 40
1.0
 40
1.0
 40
1.0
 10
27.74853095582696
 20
-7.395765033686254
 30
0.0
 10
27.70382530857994
 20
-7.409307604969591
 30
0.0
 10
27.64883204663895
 20
-7.409709644026109
 30
0.0
 10
27.5920369904572
 20
-7.396687887069603
 30
0.0
  0
SPLINE
  5
271
330
1F
100
AcDbEntity
  8
외형선
  6
Continuous
 62
     1
370
    15
100
AcDbSpline
210
0.0
220
0.0
230
1.0
 70
     8
 71
     3
 72
    10
 73
     6
 74
     0
 42
0.000000001
 43
0.00000001
 40
0.0
 40
0.0
 40
0.0
 40
0.0
 40
0.5
 40
0.5
 40
1.0
 40
1.0
 40
1.0
 40
1.0
 10
28.37347460073372
 20
-7.53485074670766
 30
0.0
 10
28.28087721574277
 20
-7.463925209749334
 30
0.0
 10
28.16842996922747
 20
-7.415175219575355
 30
0.0
 10
27.94389971364916
 20
-7.367496437054663
 30
0.0
 10
27.83678705871703
 20
-7.369029830459788
 30
0.0
 10
27.74853095582769
 20
-7.395765033687375
 30
0.0
  0
SPLINE
  5
272
330
1F
100
AcDbEntity
  8
외형선
  6
Continuous
 62
     1
370
    15
100
AcDbSpline
210
0.0
220
0.0
230
1.0
 70
     8
 71
     3
 72
     8
 73
     4
 74
     0
 42
0.000000001
 43
0.00000001
 40
0.0
 40
0.0
 40
0.0
 40
0.0
 40
1.0
 40
1.0
 40
1.0
 40
1.0
 10
28.52944929554939
 20
-7.606718372671707
 30
0.0
 10
28.47434096169025
 20
-7.59465873868225
 30
0.0
 10
28.41896885392887
 20
-7.569697349953517
 30
0.0
 10
28.37347460073372
 20
-7.534850746707662
 30
0.0
  0
SPLINE
  5
273
330
1F
100
AcDbEntity
  8
외형선
  6
Continuous
 62
     1
370
    15
100
AcDbSpline
210
0.0
220
0.0
230
1.0
 70
     8
 71
     3
 72
     8
 73
     4
 74
     0
 42
0.000000001
 43
0.00000001
 40
0.0
 40
0.0
 40
0.0
 40
0.0
 40
1.0
 40
1.0
 40
1.0
 40
1.0
 10
29.61624804553881
 20
-7.837974740588452
 30
0.0
 10
29.25463599913684
 20
-7.763217034643116
 30
0.0
 10
28.89261590148041
 20
-7.6861870884839
 30
0.0
 10
28.53065384438982
 20
-7.606981962082329
 30
0.0
  0
SPLINE
  5
274
330
1F
100
AcDbEntity
  8
외형선
  6
Continuous
 62
     1
370
    15
100
AcDbSpline
210
0.0
220
0.0
230
1.0
 70
     8
 71
     3
 72
     8
 73
     4
 74
     0
 42
0.000000001
 43
0.00000001
 40
0.0
 40
0.0
 40
0.0
 40
0.0
 40
1.0
 40
1.0
 40
1.0
 40
1.0
 10
29.7732397900802
 20
-7.830682418009415
 30
0.0
 10
29.7285164366419
 20
-7.847139429614914
 30
0.0
 10
29.67350745974239
 20
-7.84981195605622
 30
0.0
 10
29.6166948210041
 20
-7.83806710340326
 30
0.0
  0
SPLINE
  5
275
330
1F
100
AcDbEntity
  8
외형선
  6
Continuous
 62
     1
370
    15
100
AcDbSpline
210
0.0
220
0.0
230
1.0
 70
     8
 71
     3
 72
    10
 73
     6
 74
     0
 42
0.000000001
 43
0.00000001
 40
0.0
 40
0.0
 40
0.0
 40
0.0
 40
0.5000000000000003
 40
0.5000000000000003
 40
1.0
 40
1.0
 40
1.0
 40
1.0
 10
30.39836201848986
 20
-7.955776677831101
 30
0.0
 10
30.3057350790592
 20
-7.883015610828247
 30
0.0
 10
30.19326907069285
 20
-7.834753171234725
 30
0.0
 10
29.96868283852512
 20
-7.792185030361625
 30
0.0
 10
29.8615372034237
 20
-7.798191304431936
 30
0.0
 10
29.77323979008024
 20
-7.830682418009419
 30
0.0
  0
SPLINE
  5
276
330
1F
100
AcDbEntity
  8
외형선
  6
Continuous
 62
     1
370
    15
100
AcDbSpline
210
0.0
220
0.0
230
1.0
 70
     8
 71
     3
 72
     8
 73
     4
 74
     0
 42
0.000000001
 43
0.00000001
 40
0.0
 40
0.0
 40
0.0
 40
0.0
 40
1.0
 40
1.0
 40
1.0
 40
1.0
 10
30.55437577134956
 20
-8.027003883523816
 30
0.0
 10
30.49925979463124
 20
-8.01618750673541
 30
0.0
 10
30.44387476163364
 20
-7.991528218081958
 30
0.0
 10
30.39836201848986
 20
-7.955776677831108
 30
0.0
  0
SPLINE
  5
277
330
1F
100
AcDbEntity
  8
외형선
  6
Continuous
 62
     1
370
    15
100
AcDbSpline
210
0.0
220
0.0
230
1.0
 70
     8
 71
     3
 72
     8
 73
     4
 74
     0
 42
0.000000001
 43
0.00000001
 40
0.0
 40
0.0
 40
0.0
 40
0.0
 40
1.0
 40
1.0
 40
1.0
 40
1.0
 10
31.64181526810096
 20
-8.233288714927442
 30
0.0
 10
31.2790981008912
 20
-8.166912325678277
 30
0.0
 10
30.91728926611181
 20
-8.098220295195574
 30
0.0
 10
30.55547858361776
 20
-8.027220300937573
 30
0.0
  0
SPLINE
  5
278
330
1F
100
AcDbEntity
  8
외형선
  6
Continuous
 62
     1
370
    15
100
AcDbSpline
210
0.0
220
0.0
230
1.0
 70
     8
 71
     3
 72
     8
 73
     4
 74
     0
 42
0.000000001
 43
0.00000001
 40
0.0
 40
0.0
 40
0.0
 40
0.0
 40
1.0
 40
1.0
 40
1.0
 40
1.0
 10
31.79848446896592
 20
-8.219485132998672
 30
0.0
 10
31.75374636584349
 20
-8.238770196991592
 30
0.0
 10
31.69872457274112
 20
-8.2437029233515
 30
0.0
 10
31.64190173649077
 20
-8.23330453839355
 30
0.0
  0
SPLINE
  5
279
330
1F
100
AcDbEntity
  8
외형선
  6
Continuous
 62
     1
370
    15
100
AcDbSpline
210
0.0
220
0.0
230
1.0
 70
     8
 71
     3
 72
    10
 73
     6
 74
     0
 42
0.000000001
 43
0.00000001
 40
0.0
 40
0.0
 40
0.0
 40
0.0
 40
0.5
 40
0.5
 40
1.0
 40
1.0
 40
1.0
 40
1.0
 10
32.4237202587367
 20
-8.329504485888462
 30
0.0
 10
32.33107485794029
 20
-8.255421891209485
 30
0.0
 10
32.21857703459484
 20
-8.208006297248417
 30
0.0
 10
31.99395583625008
 20
-8.170929536811446
 30
0.0
 10
31.88679665671457
 20
-8.181416773519329
 30
0.0
 10
31.79848446896595
 20
-8.219485132998658
 30
0.0
  0
SPLINE
  5
27A
330
1F
100
AcDbEntity
  8
외형선
  6
Continuous
 62
     1
370
    15
100
AcDbSpline
210
0.0
220
0.0
230
1.0
 70
     8
 71
     3
 72
     8
 73
     4
 74
     0
 42
0.000000001
 43
0.00000001
 40
0.0
 40
0.0
 40
0.0
 40
0.0
 40
1.0
 40
1.0
 40
1.0
 40
1.0
 10
32.57975379573436
 20
-8.399515480752184
 30
0.0
 10
32.52462683437938
 20
-8.390063472198731
 30
0.0
 10
32.46923483983581
 20
-8.36589958197054
 30
0.0
 10
32.42372025873668
 20
-8.329504485888442
 30
0.0
  0
SPLINE
  5
27B
330
1F
100
AcDbEntity
  8
외형선
  6
Continuous
 62
     1
370
    15
100
AcDbSpline
210
0.0
220
0.0
230
1.0
 70
     8
 71
     3
 72
     8
 73
     4
 74
     0
 42
0.000000001
 43
0.00000001
 40
0.0
 40
0.0
 40
0.0
 40
0.0
 40
1.0
 40
1.0
 40
1.0
 40
1.0
 10
33.66662252636529
 20
-8.578609323690502
 30
0.0
 10
33.30557315394564
 20
-8.521528604600075
 30
0.0
 10
32.94414290113112
 20
-8.461979673916874
 30
0.0
 10
32.58279559459704
 20
-8.400036967407269
 30
0.0
  0
SPLINE
  5
27C
330
1F
100
AcDbEntity
  8
외형선
  6
Continuous
 62
     1
370
    15
100
AcDbSpline
210
0.0
220
0.0
230
1.0
 70
     8
 71
     3
 72
     8
 73
     4
 74
     0
 42
0.000000001
 43
0.00000001
 40
0.0
 40
0.0
 40
0.0
 40
0.0
 40
1.0
 40
1.0
 40
1.0
 40
1.0
 10
33.82403290771569
 20
-8.558565424376313
 30
0.0
 10
33.77928718726795
 20
-8.580556904779625
 30
0.0
 10
33.72425829020259
 20
-8.587720782195724
 30
0.0
 10
33.66742635604691
 20
-8.5787364025443
 30
0.0
  0
SPLINE
  5
27D
330
1F
100
AcDbEntity
  8
외형선
  6
Continuous
 62
     1
370
    15
100
AcDbSpline
210
0.0
220
0.0
230
1.0
 70
     8
 71
     3
 72
    10
 73
     6
 74
     0
 42
0.000000001
 43
0.00000001
 40
0.0
 40
0.0
 40
0.0
 40
0.0
 40
0.5000000000000003
 40
0.5000000000000003
 40
1.0
 40
1.0
 40
1.0
 40
1.0
 10
34.4493517911201
 20
-8.653098075728717
 30
0.0
 10
34.35669336319175
 20
-8.57807815613154
 30
0.0
 10
34.24419308768967
 20
-8.531737369472372
 30
0.0
 10
34.01954545514018
 20
-8.500275761085977
 30
0.0
 10
33.91236828601078
 20
-8.51515064143712
 30
0.0
 10
33.82403290771575
 20
-8.558565424376289
 30
0.0
  0
SPLINE
  5
27E
330
1F
100
AcDbEntity
  8
외형선
  6
Continuous
 62
     1
370
    15
100
AcDbSpline
210
0.0
220
0.0
230
1.0
 70
     8
 71
     3
 72
     8
 73
     4
 74
     0
 42
0.000000001
 43
0.00000001
 40
0.0
 40
0.0
 40
0.0
 40
0.0
 40
1.0
 40
1.0
 40
1.0
 40
1.0
 10
34.6054038416075
 20
-8.721594885523055
 30
0.0
 10
34.55027548787596
 20
-8.71351791937724
 30
0.0
 10
34.49487746168778
 20
-8.689957455085292
 30
0.0
 10
34.4493517911201
 20
-8.653098075728728
 30
0.0
  0
SPLINE
  5
27F
330
1F
100
AcDbEntity
  8
외형선
  6
Continuous
 62
     1
370
    15
100
AcDbSpline
210
0.0
220
0.0
230
1.0
 70
     8
 71
     3
 72
     8
 73
     4
 74
     0
 42
0.000000001
 43
0.00000001
 40
0.0
 40
0.0
 40
0.0
 40
0.0
 40
1.0
 40
1.0
 40
1.0
 40
1.0
 10
35.69334327479682
 20
-8.873344073087548
 30
0.0
 10
35.33010270612596
 20
-8.825282405569315
 30
0.0
 10
34.96788958539525
 20
-8.77470336467714
 30
0.0
 10
34.60541215308803
 20
-8.721596103254331
 30
0.0
  0
SPLINE
  5
280
330
1F
100
AcDbEntity
  8
외형선
  6
Continuous
 62
     1
370
    15
100
AcDbSpline
210
0.0
220
0.0
230
1.0
 70
     8
 71
     3
 72
     8
 73
     4
 74
     0
 42
0.000000001
 43
0.00000001
 40
0.0
 40
0.0
 40
0.0
 40
0.0
 40
1.0
 40
1.0
 40
1.0
 40
1.0
 10
35.84981093033415
 20
-8.846917375885912
 30
0.0
 10
35.80506017428918
 20
-8.871490996736762
 30
0.0
 10
35.75002718377206
 20
-8.88084423725813
 30
0.0
 10
35.69319353845596
 20
-8.873324260785349
 30
0.0
  0
SPLINE
  5
281
330
1F
100
AcDbEntity
  8
외형선
  6
Continuous
 62
     1
370
    15
100
AcDbSpline
210
0.0
220
0.0
230
1.0
 70
     8
 71
     3
 72
    10
 73
     6
 74
     0
 42
0.000000001
 43
0.00000001
 40
0.0
 40
0.0
 40
0.0
 40
0.0
 40
0.5
 40
0.5
 40
1.0
 40
1.0
 40
1.0
 40
1.0
 10
36.47514884848439
 20
-8.92517476945714
 30
0.0
 10
36.38248672762743
 20
-8.849720317815615
 30
0.0
 10
36.26997055744363
 20
-8.8047782126439
 30
0.0
 10
36.0453181791642
 20
-8.779208228423247
 30
0.0
 10
35.93814321681385
 20
-8.798412181590178
 30
0.0
 10
35.84981093033419
 20
-8.846917375885884
 30
0.0
  0
SPLINE
  5
282
330
1F
100
AcDbEntity
  8
외형선
  6
Continuous
 62
     1
370
    15
100
AcDbSpline
210
0.0
220
0.0
230
1.0
 70
     8
 71
     3
 72
     8
 73
     4
 74
     0
 42
0.000000001
 43
0.00000001
 40
0.0
 40
0.0
 40
0.0
 40
0.0
 40
1.0
 40
1.0
 40
1.0
 40
1.0
 10
36.63120037246603
 20
-8.991643207786975
 30
0.0
 10
36.57606772398145
 20
-8.985029058726548
 30
0.0
 10
36.52066969888588
 20
-8.962242243992968
 30
0.0
 10
36.47514884848439
 20
-8.925174769457142
 30
0.0
  0
SPLINE
  5
283
330
1F
100
AcDbEntity
  8
외형선
  6
Continuous
 62
     1
370
    15
100
AcDbSpline
210
0.0
220
0.0
230
1.0
 70
     8
 71
     3
 72
     8
 73
     4
 74
     0
 42
0.000000001
 43
0.00000001
 40
0.0
 40
0.0
 40
0.0
 40
0.0
 40
1.0
 40
1.0
 40
1.0
 40
1.0
 10
37.71724806545315
 20
-9.11417966014606
 30
0.0
 10
37.35524812894491
 20
-9.075921846345532
 30
0.0
 10
36.99289122236362
 20
-9.035037150417724
 30
0.0
 10
36.6306447529109
 20
-8.991576549236088
 30
0.0
  0
SPLINE
  5
284
330
1F
100
AcDbEntity
  8
외형선
  6
Continuous
 62
     1
370
    15
100
AcDbSpline
210
0.0
220
0.0
230
1.0
 70
     8
 71
     3
 72
     8
 73
     4
 74
     0
 42
0.000000001
 43
0.00000001
 40
0.0
 40
0.0
 40
0.0
 40
0.0
 40
1.0
 40
1.0
 40
1.0
 40
1.0
 10
37.87558086026927
 20
-9.081873645435156
 30
0.0
 10
37.8308328090788
 20
-9.108877504712732
 30
0.0
 10
37.77580153627076
 20
-9.120366553433136
 30
0.0
 10
37.71896748519915
 20
-9.114361356849454
 30
0.0
  0
SPLINE
  5
285
330
1F
100
AcDbEntity
  8
외형선
  6
Continuous
 62
     1
370
    15
100
AcDbSpline
210
0.0
220
0.0
230
1.0
 70
     8
 71
     3
 72
    10
 73
     6
 74
     0
 42
0.000000001
 43
0.00000001
 40
0.0
 40
0.0
 40
0.0
 40
0.0
 40
0.5
 40
0.5
 40
1.0
 40
1.0
 40
1.0
 40
1.0
 10
38.50090414173363
 20
-9.143547802613313
 30
0.0
 10
38.40824588281626
 20
-9.06807507551327
 30
0.0
 10
38.29574393054639
 20
-9.024763874034472
 30
0.0
 10
38.07109538251396
 20
-9.005168887024084
 30
0.0
 10
37.96391778852171
 20
-9.028565447288383
 30
0.0
 10
37.87558086026929
 20
-9.081873645435143
 30
0.0
  0
SPLINE
  5
286
330
1F
100
AcDbEntity
  8
외형선
  6
Continuous
 62
     1
370
    15
100
AcDbSpline
210
0.0
220
0.0
230
1.0
 70
     8
 71
     3
 72
     8
 73
     4
 74
     0
 42
0.000000001
 43
0.00000001
 40
0.0
 40
0.0
 40
0.0
 40
0.0
 40
1.0
 40
1.0
 40
1.0
 40
1.0
 10
38.65695314441565
 20
-9.207670289219106
 30
0.0
 10
38.60182551141114
 20
-9.202527817797094
 30
0.0
 10
38.54642851161819
 20
-9.180628667123875
 30
0.0
 10
38.50090414173362
 20
-9.143547802613314
 30
0.0
  0
SPLINE
  5
287
330
1F
100
AcDbEntity
  8
외형선
  6
Continuous
 62
     1
370
    15
100
AcDbSpline
210
0.0
220
0.0
230
1.0
 70
     8
 71
     3
 72
     8
 73
     4
 74
     0
 42
0.000000001
 43
0.00000001
 40
0.0
 40
0.0
 40
0.0
 40
0.0
 40
1.0
 40
1.0
 40
1.0
 40
1.0
 10
39.74320741323533
 20
-9.301012550947538
 30
0.0
 10
39.38026196473231
 20
-9.272529560535887
 30
0.0
 10
39.0184261650494
 20
-9.24139367533836
 30
0.0
 10
38.65609821358996
 20
-9.207590533862662
 30
0.0
  0
SPLINE
  5
288
330
1F
100
AcDbEntity
  8
외형선
  6
Continuous
 62
     1
370
    15
100
AcDbSpline
210
0.0
220
0.0
230
1.0
 70
     8
 71
     3
 72
     8
 73
     4
 74
     0
 42
0.000000001
 43
0.00000001
 40
0.0
 40
0.0
 40
0.0
 40
0.0
 40
1.0
 40
1.0
 40
1.0
 40
1.0
 10
39.90126776903031
 20
-9.262754842590581
 30
0.0
 10
39.85652450010949
 20
-9.292031475992374
 30
0.0
 10
39.80149795026796
 20
-9.305585880468072
 30
0.0
 10
39.74467076416702
 20
-9.301127376125656
 30
0.0
  0
SPLINE
  5
289
330
1F
100
AcDbEntity
  8
외형선
  6
Continuous
 62
     1
370
    15
100
AcDbSpline
210
0.0
220
0.0
230
1.0
 70
     8
 71
     3
 72
    10
 73
     6
 74
     0
 42
0.000000001
 43
0.00000001
 40
0.0
 40
0.0
 40
0.0
 40
0.0
 40
0.5
 40
0.5
 40
1.0
 40
1.0
 40
1.0
 40
1.0
 10
40.52651503462733
 20
-9.30735001579736
 30
0.0
 10
40.43386792639679
 20
-9.232341168623522
 30
0.0
 10
40.32136611719223
 20
-9.190945604406291
 30
0.0
 10
40.0967431804745
 20
-9.177498808437958
 30
0.0
 10
39.98958362026149
 20
-9.204967585145464
 30
0.0
 10
39.90126776903033
 20
-9.262754842590576
 30
0.0
  0
SPLINE
  5
28A
330
1F
100
AcDbEntity
  8
외형선
  6
Continuous
 62
     1
370
    15
100
AcDbSpline
210
0.0
220
0.0
230
1.0
 70
     8
 71
     3
 72
     8
 73
     4
 74
     0
 42
0.000000001
 43
0.00000001
 40
0.0
 40
0.0
 40
0.0
 40
0.0
 40
1.0
 40
1.0
 40
1.0
 40
1.0
 10
40.6825432042853
 20
-9.368681064100112
 30
0.0
 10
40.62741796297423
 20
-9.36506446462973
 30
0.0
 10
40.57202792654071
 20
-9.344198111967565
 30
0.0
 10
40.52651503462733
 20
-9.307350015797354
 30
0.0
  0
SPLINE
  5
28B
330
1F
100
AcDbEntity
  8
외형선
  6
Continuous
 62
     1
370
    15
100
AcDbSpline
210
0.0
220
0.0
230
1.0
 70
     8
 71
     3
 72
     8
 73
     4
 74
     0
 42
0.000000001
 43
0.00000001
 40
0.0
 40
0.0
 40
0.0
 40
0.0
 40
1.0
 40
1.0
 40
1.0
 40
1.0
 10
41.77036082162024
 20
-9.52497823813487
 30
0.0
 10
41.40776719704186
 20
-9.48491826253188
 30
0.0
 10
41.04503967308451
 20
-9.392463826423318
 30
0.0
 10
40.68244822343997
 20
-9.368674832633882
 30
0.0
  0
SPLINE
  5
294
330
1F
100
AcDbEntity
  8
외형선
  6
Continuous
370
    15
100
AcDbSpline
210
0.0
220
0.0
230
1.0
 70
    24
 71
     3
 72
    17
 73
    13
 74
     0
 42
0.000000001
 43
0.00000001
 40
0.0
 40
0.0
 40
0.0
 40
0.0
 40
0.0735275534166085
 40
0.1830768214510519
 40
0.2926260725673715
 40
0.4021753249188051
 40
0.5117245866283109
 40
0.6212738485086463
 40
0.7308231196760129
 40
0.8403723938737693
 40
0.9499216577976897
 40
1.0
 40
1.0
 40
1.0
 40
1.0
 10
10.00000004749744
 20
-2.072641626000411
 30
0.0
 10
10.00000004749744
 20
-2.10295257734116
 30
0.0
 10
10.00000004749744
 20
-2.17842404849402
 30
0.0
 10
10.00000004749744
 20
-2.486076652334832
 30
0.0
 10
10.00000004749744
 20
-2.987902212677669
 30
0.0
 10
10.00000004749744
 20
-3.659602015274325
 30
0.0
 10
10.00000004749744
 20
-4.470243228631984
 30
0.0
 10
10.00000004749744
 20
-5.403703862224152
 30
0.0
 10
10.00000004749744
 20
-6.428788169385886
 30
0.0
 10
10.00000004749744
 20
-7.519373005261123
 30
0.0
 10
10.00000004749744
 20
-8.44040500955687
 30
0.0
 10
10.00000004749744
 20
-8.98566543972989
 30
0.0
 10
10.00000004749744
 20
-9.156724438071256
 30
0.0
  0
SPLINE
  5
295
330
1F
100
AcDbEntity
  8
외형선
  6
Continuous
 62
     1
370
    15
100
AcDbSpline
210
0.0
220
0.0
230
1.0
 70
     8
 71
     3
 72
    12
 73
     8
 74
     0
 42
0.000000001
 43
0.00000001
 40
0.0
 40
0.0
 40
0.0
 40
0.0
 40
0.2499999999999998
 40
0.2499999999999998
 40
0.4999999999999996
 40
0.4999999999999996
 40
1.0
 40
1.0
 40
1.0
 40
1.0
 10
38.14772783014959
 20
2.61741670497508
 30
0.0
 10
38.1366147798044
 20
2.956980838748311
 30
0.0
 10
38.12626837892652
 20
3.283681728087949
 30
0.0
 10
38.10455410843064
 20
3.932503038557095
 30
0.0
 10
38.09323171223302
 20
4.254020664815454
 30
0.0
 10
38.05810831723648
 20
5.199444987378474
 30
0.0
 10
38.03313372130805
 20
5.803984774210758
 30
0.0
 10
38.00749633742453
 20
6.355228767384812
 30
0.0
  0
SPLINE
  5
296
330
1F
100
AcDbEntity
  8
외형선
  6
Continuous
 62
     1
370
    15
100
AcDbSpline
210
0.0
220
0.0
230
1.0
 70
     8
 71
     3
 72
    12
 73
     8
 74
     0
 42
0.000000001
 43
0.00000001
 40
0.0
 40
0.0
 40
0.0
 40
0.0
 40
0.2500000000000002
 40
0.2500000000000002
 40
0.5000000000000003
 40
0.5000000000000003
 40
1.0
 40
1.0
 40
1.0
 40
1.0
 10
39.23428497436661
 20
2.233281414998517
 30
0.0
 10
39.22281015658935
 20
2.58101940363911
 30
0.0
 10
39.21175411038183
 20
2.919893157663489
 30
0.0
 10
39.19062366406392
 20
3.574891020089779
 30
0.0
 10
39.17960772632023
 20
3.900315862157778
 30
0.0
 10
39.14523664891531
 20
4.861845858286988
 30
0.0
 10
39.12062033726508
 20
5.482251022600966
 30
0.0
 10
39.09515233791304
 20
6.053748123120252
 30
0.0
  0
SPLINE
  5
297
330
1F
100
AcDbEntity
  8
외형선
  6
Continuous
 62
     1
370
    15
100
AcDbSpline
210
0.0
220
0.0
230
1.0
 70
     8
 71
     3
 72
    12
 73
     8
 74
     0
 42
0.000000001
 43
0.00000001
 40
0.0
 40
0.0
 40
0.0
 40
0.0
 40
0.2500000000000001
 40
0.2500000000000001
 40
0.5000000000000001
 40
0.5000000000000001
 40
1.0
 40
1.0
 40
1.0
 40
1.0
 10
40.01542139447601
 20
1.937929670252742
 30
0.0
 10
40.00366470808077
 20
2.29012861239907
 30
0.0
 10
39.99230719627174
 20
2.634213662066927
 30
0.0
 10
39.970550704546
 20
3.300729550794039
 30
0.0
 10
39.9600225032497
 20
3.624616076517475
 30
0.0
 10
39.92614105896049
 20
4.593169846096327
 30
0.0
 10
39.90174596870843
 20
5.221924249738911
 30
0.0
 10
39.87636438274225
 20
5.804987513361644
 30
0.0
  0
SPLINE
  5
298
330
1F
100
AcDbEntity
  8
외형선
  6
Continuous
 62
     1
370
    15
100
AcDbSpline
210
0.0
220
0.0
230
1.0
 70
     8
 71
     3
 72
    10
 73
     6
 74
     0
 42
0.000000001
 43
0.00000001
 40
0.0
 40
0.0
 40
0.0
 40
0.0
 40
0.5
 40
0.5
 40
1.0
 40
1.0
 40
1.0
 40
1.0
 10
21.67858140897769
 20
-5.837036010457252
 30
0.0
 10
21.65717196016678
 20
-5.29419770644096
 30
0.0
 10
21.63390355174007
 20
-4.689246674532514
 30
0.0
 10
21.58504869592656
 20
-3.38778771092473
 30
0.0
 10
21.55947436691094
 20
-2.691558423568468
 30
0.0
 10
21.53372818887412
 20
-1.975618154571183
 30
0.0
  0
SPLINE
  5
299
330
1F
100
AcDbEntity
  8
외형선
  6
Continuous
 62
     1
370
    15
100
AcDbSpline
210
0.0
220
0.0
230
1.0
 70
     8
 71
     3
 72
    10
 73
     6
 74
     0
 42
0.000000001
 43
0.00000001
 40
0.0
 40
0.0
 40
0.0
 40
0.0
 40
0.4999999999999999
 40
0.4999999999999999
 40
1.0
 40
1.0
 40
1.0
 40
1.0
 10
22.45876912903685
 20
-6.084961236779822
 30
0.0
 10
22.4378474498287
 20
-5.555430116101132
 30
0.0
 10
22.41499926043612
 20
-4.962051729505768
 30
0.0
 10
22.3667554744876
 20
-3.677472976665071
 30
0.0
 10
22.34137073256584
 20
-2.986512791821561
 30
0.0
 10
22.31567428259683
 20
-2.271857963030458
 30
0.0
  0
SPLINE
  5
29A
330
1F
100
AcDbEntity
  8
외형선
  6
Continuous
 62
     1
370
    15
100
AcDbSpline
210
0.0
220
0.0
230
1.0
 70
     8
 71
     3
 72
    12
 73
     8
 74
     0
 42
0.000000001
 43
0.00000001
 40
0.0
 40
0.0
 40
0.0
 40
0.0
 40
0.2499999999999996
 40
0.2499999999999996
 40
0.4999999999999996
 40
0.4999999999999996
 40
1.0
 40
1.0
 40
1.0
 40
1.0
 10
23.54482079663746
 20
-6.384428775375232
 30
0.0
 10
23.53402921382615
 20
-6.125462572237948
 30
0.0
 10
23.52369879865544
 20
-5.85745745652433
 30
0.0
 10
23.50151563812588
 20
-5.286415328672763
 30
0.0
 10
23.48998395456574
 20
-4.985790159034972
 30
0.0
 10
23.45432715672125
 20
-4.044587694927424
 30
0.0
 10
23.42912525084224
 20
-3.364127369979156
 30
0.0
 10
23.40341865074362
 20
-2.654536781062287
 30
0.0
  0
SPLINE
  5
29B
330
1F
100
AcDbEntity
  8
외형선
  6
Continuous
 62
     1
370
    15
100
AcDbSpline
210
0.0
220
0.0
230
1.0
 70
     8
 71
     3
 72
    12
 73
     8
 74
     0
 42
0.000000001
 43
0.00000001
 40
0.0
 40
0.0
 40
0.0
 40
0.0
 40
0.25
 40
0.25
 40
0.5
 40
0.5
 40
1.0
 40
1.0
 40
1.0
 40
1.0
 10
39.39068973097005
 20
2.158731688137379
 30
0.0
 10
39.3791204147949
 20
2.506914202382884
 30
0.0
 10
39.36796802078187
 20
2.846383764989051
 30
0.0
 10
39.34664584619334
 20
3.502768465670703
 30
0.0
 10
39.33573376045143
 20
3.827040127112149
 30
0.0
 10
39.30135987002408
 20
4.788490432557565
 30
0.0
 10
39.27671034922692
 20
5.409549842325259
 30
0.0
 10
39.25117987269223
 20
5.9821982535146
 30
0.0
  0
SPLINE
  5
29C
330
1F
100
AcDbEntity
  8
외형선
  6
Continuous
 62
     1
370
    15
100
AcDbSpline
210
0.0
220
0.0
230
1.0
 70
     8
 71
     3
 72
    10
 73
     6
 74
     0
 42
0.000000001
 43
0.00000001
 40
0.0
 40
0.0
 40
0.0
 40
0.0
 40
0.5
 40
0.5
 40
1.0
 40
1.0
 40
1.0
 40
1.0
 10
22.30293812718372
 20
-6.013451689321632
 30
0.0
 10
22.28186693993836
 20
-5.482418252587861
 30
0.0
 10
22.25886925658842
 20
-4.887746034427498
 30
0.0
 10
22.21035623009967
 20
-3.601659640765104
 30
0.0
 10
22.18485216338575
 20
-2.910495996170182
 30
0.0
 10
22.15906553135813
 20
-2.19647930230047
 30
0.0
  0
SPLINE
  5
29D
330
1F
100
AcDbEntity
  8
외형선
  6
Continuous
 62
     1
370
    15
100
AcDbSpline
210
0.0
220
0.0
230
1.0
 70
     8
 71
     3
 72
    12
 73
     8
 74
     0
 42
0.000000001
 43
0.00000001
 40
0.0
 40
0.0
 40
0.0
 40
0.0
 40
0.2500000000000003
 40
0.2500000000000003
 40
0.5000000000000002
 40
0.5000000000000002
 40
1.0
 40
1.0
 40
1.0
 40
1.0
 10
37.99186649671864
 20
2.64887272278004
 30
0.0
 10
37.98076128890563
 20
2.986641470763382
 30
0.0
 10
37.97041679041886
 20
3.311581995894198
 30
0.0
 10
37.94854849946567
 20
3.958097480581455
 30
0.0
 10
37.93714965798103
 20
4.278295997395308
 30
0.0
 10
37.90180444555966
 20
5.219207855834317
 30
0.0
 10
37.87669216679301
 20
5.819983602684413
 30
0.0
 10
37.85094300679111
 20
6.366707428961383
 30
0.0
  0
SPLINE
  5
29E
330
1F
100
AcDbEntity
  8
외형선
  6
Continuous
 62
     1
370
    15
100
AcDbSpline
210
0.0
220
0.0
230
1.0
 70
     8
 71
     3
 72
    12
 73
     8
 74
     0
 42
0.000000001
 43
0.00000001
 40
0.0
 40
0.0
 40
0.0
 40
0.0
 40
0.2499999999999999
 40
0.2499999999999999
 40
0.4999999999999998
 40
0.4999999999999998
 40
1.0
 40
1.0
 40
1.0
 40
1.0
 10
23.70115606064997
 20
-6.395956402380435
 30
0.0
 10
23.69026212080065
 20
-6.138501861219681
 30
0.0
 10
23.67993522840394
 20
-5.872624825008674
 30
0.0
 10
23.65775896906201
 20
-5.305813304541883
 30
0.0
 10
23.64622273166379
 20
-5.007167873556114
 30
0.0
 10
23.61052765392477
 20
-4.071418547890774
 30
0.0
 10
23.58526678924983
 20
-3.393930463515779
 30
0.0
 10
23.55947333346193
 20
-2.686594011500099
 30
0.0
  0
SPLINE
  5
29F
330
1F
100
AcDbEntity
  8
외형선
  6
Continuous
 62
     1
370
    15
100
AcDbSpline
210
0.0
220
0.0
230
1.0
 70
     8
 71
     3
 72
    10
 73
     6
 74
     0
 42
0.000000001
 43
0.00000001
 40
0.0
 40
0.0
 40
0.0
 40
0.0
 40
0.5
 40
0.5
 40
1.0
 40
1.0
 40
1.0
 40
1.0
 10
36.12504249563127
 20
3.315839499198063
 30
0.0
 10
36.10410280326342
 20
3.961136860238532
 30
0.0
 10
36.08124060406188
 20
4.599158076506434
 30
0.0
 10
36.0329802280414
 20
5.806386879069993
 30
0.0
 10
36.00759295070448
 20
6.375107453821359
 30
0.0
 10
35.98190014598594
 20
6.883620444981802
 30
0.0
  0
SPLINE
  5
2A0
330
1F
100
AcDbEntity
  8
외형선
  6
Continuous
 62
     1
370
    15
100
AcDbSpline
210
0.0
220
0.0
230
1.0
 70
     8
 71
     3
 72
    12
 73
     8
 74
     0
 42
0.000000001
 43
0.00000001
 40
0.0
 40
0.0
 40
0.0
 40
0.0
 40
0.2499999999999999
 40
0.2499999999999999
 40
0.5000000000000001
 40
0.5000000000000001
 40
1.0
 40
1.0
 40
1.0
 40
1.0
 10
37.21106417547374
 20
2.942373704917772
 30
0.0
 10
37.20028753971421
 20
3.274060287338237
 30
0.0
 10
37.18994705389824
 20
3.595699791275738
 30
0.0
 10
37.1677473494937
 20
4.237540465517334
 30
0.0
 10
37.15620858473864
 20
4.554505844792386
 30
0.0
 10
37.12053479524639
 20
5.483097968149865
 30
0.0
 10
37.09532733656305
 20
6.072108823546334
 30
0.0
 10
37.06962176075535
 20
6.604414427999331
 30
0.0
  0
SPLINE
  5
2A1
330
1F
100
AcDbEntity
  8
외형선
  6
Continuous
 62
     1
370
    15
100
AcDbSpline
210
0.0
220
0.0
230
1.0
 70
     8
 71
     3
 72
    12
 73
     8
 74
     0
 42
0.000000001
 43
0.00000001
 40
0.0
 40
0.0
 40
0.0
 40
0.0
 40
0.2500000000000001
 40
0.2500000000000001
 40
0.5000000000000001
 40
0.5000000000000001
 40
1.0
 40
1.0
 40
1.0
 40
1.0
 10
24.48149284192737
 20
-6.632475490242292
 30
0.0
 10
24.47037018037489
 20
-6.378960771587122
 30
0.0
 10
24.46001444599518
 20
-6.117753427021886
 30
0.0
 10
24.43832808495284
 20
-5.564267657552752
 30
0.0
 10
24.42701891521158
 20
-5.271825957456003
 30
0.0
 10
24.39193192717769
 20
-4.352742676480668
 30
0.0
 10
24.36697716009051
 20
-3.683725349500645
 30
0.0
 10
24.34135279384583
 20
-2.981040937246835
 30
0.0
  0
SPLINE
  5
2A2
330
1F
100
AcDbEntity
  8
외형선
  6
Continuous
 62
     1
370
    15
100
AcDbSpline
210
0.0
220
0.0
230
1.0
 70
     8
 71
     3
 72
    12
 73
     8
 74
     0
 42
0.000000001
 43
0.00000001
 40
0.0
 40
0.0
 40
0.0
 40
0.0
 40
0.2499999999999999
 40
0.2499999999999999
 40
0.4999999999999998
 40
0.4999999999999998
 40
1.0
 40
1.0
 40
1.0
 40
1.0
 10
25.5680301276198
 20
-6.911147189899027
 30
0.0
 10
25.55654324498291
 20
-6.664879445988299
 30
0.0
 10
25.54547427311023
 20
-6.40685622584459
 30
0.0
 10
25.52431693757213
 20
-5.873937569618779
 30
0.0
 10
25.5133316453025
 20
-5.59187419483711
 30
0.0
 10
25.47898338525371
 20
-4.700346873760976
 30
0.0
 10
25.45437768075184
 20
-4.046220283254731
 30
0.0
 10
25.42891430153268
 20
-3.353332259820123
 30
0.0
  0
SPLINE
  5
2A3
330
1F
100
AcDbEntity
  8
외형선
  6
Continuous
 62
     1
370
    15
100
AcDbSpline
210
0.0
220
0.0
230
1.0
 70
     8
 71
     3
 72
    12
 73
     8
 74
     0
 42
0.000000001
 43
0.00000001
 40
0.0
 40
0.0
 40
0.0
 40
0.0
 40
0.25
 40
0.25
 40
0.5
 40
0.5
 40
1.0
 40
1.0
 40
1.0
 40
1.0
 10
37.36740060095034
 20
2.86497591987672
 30
0.0
 10
37.35652050543749
 20
3.197508329656747
 30
0.0
 10
37.34618704270191
 20
3.519019591497384
 30
0.0
 10
37.3239919563184
 20
4.160912632783098
 30
0.0
 10
37.31244740845239
 20
4.478088600083044
 30
0.0
 10
37.27673147810205
 20
5.407804298561301
 30
0.0
 10
37.25146225236456
 20
5.998228271600128
 30
0.0
 10
37.22566709737927
 20
6.532314679667871
 30
0.0
  0
SPLINE
  5
2A4
330
1F
100
AcDbEntity
  8
외형선
  6
Continuous
 62
     1
370
    15
100
AcDbSpline
210
0.0
220
0.0
230
1.0
 70
     8
 71
     3
 72
    12
 73
     8
 74
     0
 42
0.000000001
 43
0.00000001
 40
0.0
 40
0.0
 40
0.0
 40
0.0
 40
0.2500000000000001
 40
0.2500000000000001
 40
0.5000000000000001
 40
0.5000000000000001
 40
1.0
 40
1.0
 40
1.0
 40
1.0
 10
24.32562537810772
 20
-6.560692274454521
 30
0.0
 10
24.31450718068163
 20
-6.306829556495408
 30
0.0
 10
24.30415396693494
 20
-6.045367927047777
 30
0.0
 10
24.28230605579224
 20
-5.490137914017864
 30
0.0
 10
24.270916400398
 20
-5.196879303977425
 30
0.0
 10
24.23559490684245
 20
-4.275648076413877
 30
0.0
 10
24.21049322553917
 20
-3.605606959621608
 30
0.0
 10
24.18474806690725
 20
-2.902675969435643
 30
0.0
  0
SPLINE
  5
2A5
330
1F
100
AcDbEntity
  8
외형선
  6
Continuous
 62
     1
370
    15
100
AcDbSpline
210
0.0
220
0.0
230
1.0
 70
     8
 71
     3
 72
    10
 73
     6
 74
     0
 42
0.000000001
 43
0.00000001
 40
0.0
 40
0.0
 40
0.0
 40
0.0
 40
0.4999999999999998
 40
0.4999999999999998
 40
1.0
 40
1.0
 40
1.0
 40
1.0
 10
35.96921572449137
 20
3.34258775181041
 30
0.0
 10
35.94812566816974
 20
3.985785029068291
 30
0.0
 10
35.92511290694463
 20
4.621087638508559
 30
0.0
 10
35.87658092252897
 20
5.821389643208629
 30
0.0
 10
35.85107302349564
 20
6.385896466341991
 30
0.0
 10
35.82528876801626
 20
6.88952328249383
 30
0.0
  0
SPLINE
  5
2A6
330
1F
100
AcDbEntity
  8
외형선
  6
Continuous
 62
     1
370
    15
100
AcDbSpline
210
0.0
220
0.0
230
1.0
 70
     8
 71
     3
 72
    12
 73
     8
 74
     0
 42
0.000000001
 43
0.00000001
 40
0.0
 40
0.0
 40
0.0
 40
0.0
 40
0.2500000000000001
 40
0.2500000000000001
 40
0.5000000000000002
 40
0.5000000000000002
 40
1.0
 40
1.0
 40
1.0
 40
1.0
 10
25.7244297126676
 20
-6.91604352187738
 30
0.0
 10
25.71284980821104
 20
-6.671631556450194
 30
0.0
 10
25.70168586634493
 20
-6.415244867750706
 30
0.0
 10
25.68033931258221
 20
-5.885192982233542
 30
0.0
 10
25.66945524860895
 20
-5.606057184322601
 30
0.0
 10
25.63510831810871
 20
-4.72074106534502
 30
0.0
 10
25.61047255920818
 20
-4.07023151913193
 30
0.0
 10
25.58494991291464
 20
-3.380293284583891
 30
0.0
  0
SPLINE
  5
2A7
330
1F
100
AcDbEntity
  8
외형선
  6
Continuous
 62
     1
370
    15
100
AcDbSpline
210
0.0
220
0.0
230
1.0
 70
     8
 71
     3
 72
    10
 73
     6
 74
     0
 42
0.000000001
 43
0.00000001
 40
0.0
 40
0.0
 40
0.0
 40
0.0
 40
0.5
 40
0.5
 40
1.0
 40
1.0
 40
1.0
 40
1.0
 10
34.10216001890043
 20
3.995908915740056
 30
0.0
 10
34.08016291800156
 20
4.626486698668037
 30
0.0
 10
34.0564685219807
 20
5.240604699519376
 30
0.0
 10
34.00719204124694
 20
6.382843796852984
 30
0.0
 10
33.98162333555468
 20
6.910499399467476
 30
0.0
 10
33.9561018634327
 20
7.372306372885315
 30
0.0
  0
SPLINE
  5
2A8
330
1F
100
AcDbEntity
  8
외형선
  6
Continuous
 62
     1
370
    15
100
AcDbSpline
210
0.0
220
0.0
230
1.0
 70
     8
 71
     3
 72
    10
 73
     6
 74
     0
 42
0.000000001
 43
0.00000001
 40
0.0
 40
0.0
 40
0.0
 40
0.0
 40
0.5
 40
0.5
 40
1.0
 40
1.0
 40
1.0
 40
1.0
 10
35.18851397886431
 20
3.632869478518982
 30
0.0
 10
35.16706850829122
 20
4.271976134361714
 30
0.0
 10
35.1438007970334
 20
4.899561034300551
 30
0.0
 10
35.09502577401143
 20
6.077807830436782
 30
0.0
 10
35.06953060286789
 20
6.627989526225778
 30
0.0
 10
35.04389456168051
 20
7.115210019239935
 30
0.0
  0
SPLINE
  5
2A9
330
1F
100
AcDbEntity
  8
외형선
  6
Continuous
 62
     1
370
    15
100
AcDbSpline
210
0.0
220
0.0
230
1.0
 70
     8
 71
     3
 72
    10
 73
     6
 74
     0
 42
0.000000001
 43
0.00000001
 40
0.0
 40
0.0
 40
0.0
 40
0.0
 40
0.5
 40
0.5
 40
1.0
 40
1.0
 40
1.0
 40
1.0
 10
35.34485838531372
 20
3.553073069800246
 30
0.0
 10
35.32343023324589
 20
4.192128187412164
 30
0.0
 10
35.30014689827178
 20
4.820450933901205
 30
0.0
 10
35.25127329337793
 20
6.001381190330812
 30
0.0
 10
35.22569518743748
 20
6.553500883539247
 30
0.0
 10
35.19995136414649
 20
7.042913208160479
 30
0.0
  0
SPLINE
  5
2AA
330
1F
100
AcDbEntity
  8
외형선
  6
Continuous
 62
     1
370
    15
100
AcDbSpline
210
0.0
220
0.0
230
1.0
 70
     8
 71
     3
 72
    12
 73
     8
 74
     0
 42
0.000000001
 43
0.00000001
 40
0.0
 40
0.0
 40
0.0
 40
0.0
 40
0.25
 40
0.25
 40
0.5
 40
0.5
 40
1.0
 40
1.0
 40
1.0
 40
1.0
 10
26.3491682959795
 20
-7.068640438710845
 30
0.0
 10
26.33740130305907
 20
-6.82906207245108
 30
0.0
 10
26.32603246385631
 20
-6.57678214247264
 30
0.0
 10
26.3042519131305
 20
-6.053483783274783
 30
0.0
 10
26.29373766223762
 20
-5.781955061565734
 30
0.0
 10
26.25988412217903
 20
-4.914089146869216
 30
0.0
 10
26.23550361568526
 20
-4.27351696099694
 30
0.0
 10
26.21013078594585
 20
-3.590746275045245
 30
0.0
  0
SPLINE
  5
2AB
330
1F
100
AcDbEntity
  8
외형선
  6
Continuous
 62
     1
370
    15
100
AcDbSpline
210
0.0
220
0.0
230
1.0
 70
     8
 71
     3
 72
    12
 73
     8
 74
     0
 42
0.000000001
 43
0.00000001
 40
0.0
 40
0.0
 40
0.0
 40
0.0
 40
0.2500000000000001
 40
0.2500000000000001
 40
0.5000000000000001
 40
0.5000000000000001
 40
1.0
 40
1.0
 40
1.0
 40
1.0
 10
26.5050989228407
 20
-7.140792461768289
 30
0.0
 10
26.49333673064405
 20
-6.901832442768736
 30
0.0
 10
26.48196579918515
 20
-6.650039665076684
 30
0.0
 10
26.46016799063149
 20
-6.127412095433091
 30
0.0
 10
26.44974327494317
 20
-5.856908613177545
 30
0.0
 10
26.41614306757696
 20
-4.991877482829508
 30
0.0
 10
26.39192766126451
 20
-4.352918999594904
 30
0.0
 10
26.36669816399626
 20
-3.671079289947613
 30
0.0
  0
SPLINE
  5
2AC
330
1F
100
AcDbEntity
  8
외형선
  6
Continuous
 62
     1
370
    15
100
AcDbSpline
210
0.0
220
0.0
230
1.0
 70
     8
 71
     3
 72
    12
 73
     8
 74
     0
 42
0.000000001
 43
0.00000001
 40
0.0
 40
0.0
 40
0.0
 40
0.0
 40
0.2500000000000001
 40
0.2500000000000001
 40
0.5000000000000002
 40
0.5000000000000002
 40
1.0
 40
1.0
 40
1.0
 40
1.0
 10
27.59207624928561
 20
-7.397435581202466
 30
0.0
 10
27.58002017709872
 20
-7.167847268180028
 30
0.0
 10
27.56832105156257
 20
-6.924204994880491
 30
0.0
 10
27.54581715167228
 20
-6.415354465281754
 30
0.0
 10
27.53533797826341
 20
-6.152905783001366
 30
0.0
 10
27.502674449449
 20
-5.320206871301512
 30
0.0
 10
27.4789706290975
 20
-4.700312110093873
 30
0.0
 10
27.45407836410129
 20
-4.033031905955329
 30
0.0
  0
SPLINE
  5
2AD
330
1F
100
AcDbEntity
  8
외형선
  6
Continuous
 62
     1
370
    15
100
AcDbSpline
210
0.0
220
0.0
230
1.0
 70
     8
 71
     3
 72
    10
 73
     6
 74
     0
 42
0.000000001
 43
0.00000001
 40
0.0
 40
0.0
 40
0.0
 40
0.0
 40
0.5000000000000002
 40
0.5000000000000002
 40
1.0
 40
1.0
 40
1.0
 40
1.0
 10
33.9462695245245
 20
4.017499713525293
 30
0.0
 10
33.92412389663601
 20
4.645773619205012
 30
0.0
 10
33.90028400680136
 20
5.256947253743747
 30
0.0
 10
33.85075285548042
 20
6.391843983950349
 30
0.0
 10
33.82507539404276
 20
6.915097966404486
 30
0.0
 10
33.79947631011751
 20
7.371900996762411
 30
0.0
  0
SPLINE
  5
2AE
330
1F
100
AcDbEntity
  8
외형선
  6
Continuous
 62
     1
370
    15
100
AcDbSpline
210
0.0
220
0.0
230
1.0
 70
     8
 71
     3
 72
    12
 73
     8
 74
     0
 42
0.000000001
 43
0.00000001
 40
0.0
 40
0.0
 40
0.0
 40
0.0
 40
0.2499999999999999
 40
0.2499999999999999
 40
0.4999999999999998
 40
0.4999999999999998
 40
1.0
 40
1.0
 40
1.0
 40
1.0
 10
27.74853095740029
 20
-7.39576506315373
 30
0.0
 10
27.73639242776525
 20
-7.168321849121054
 30
0.0
 10
27.72460727235347
 20
-6.926623371239875
 30
0.0
 10
27.70192878564579
 20
-6.421264000084051
 30
0.0
 10
27.6913455843468
 20
-6.160189797764508
 30
0.0
 10
27.65871728113706
 20
-5.33422974314881
 30
0.0
 10
27.63500944683322
 20
-4.71845397970506
 30
0.0
 10
27.61008407692116
 20
-4.054709587936064
 30
0.0
  0
SPLINE
  5
2AF
330
1F
100
AcDbEntity
  8
외형선
  6
Continuous
 62
     1
370
    15
100
AcDbSpline
210
0.0
220
0.0
230
1.0
 70
     8
 71
     3
 72
    10
 73
     6
 74
     0
 42
0.000000001
 43
0.00000001
 40
0.0
 40
0.0
 40
0.0
 40
0.0
 40
0.5
 40
0.5
 40
1.0
 40
1.0
 40
1.0
 40
1.0
 10
32.07843944956903
 20
4.651802274591074
 30
0.0
 10
32.05550338212485
 20
5.263461986954286
 30
0.0
 10
32.03112089383345
 20
5.849512970523833
 30
0.0
 10
31.981135827988
 20
6.919645233011946
 30
0.0
 10
31.95554838915656
 20
7.403304153052661
 30
0.0
 10
31.93034823532828
 20
7.816477680314642
 30
0.0
  0
SPLINE
  5
2B0
330
1F
100
AcDbEntity
  8
외형선
  6
Continuous
 62
     1
370
    15
100
AcDbSpline
210
0.0
220
0.0
230
1.0
 70
     8
 71
     3
 72
    10
 73
     6
 74
     0
 42
0.000000001
 43
0.00000001
 40
0.0
 40
0.0
 40
0.0
 40
0.0
 40
0.5
 40
0.5
 40
1.0
 40
1.0
 40
1.0
 40
1.0
 10
33.16518122990298
 20
4.303521216964973
 30
0.0
 10
33.14273471231017
 20
4.925796883465324
 30
0.0
 10
33.11870445950171
 20
5.527360132896998
 30
0.0
 10
33.06906416615008
 20
6.636933561493333
 30
0.0
 10
33.04346840862385
 20
7.144495843253371
 30
0.0
 10
33.01807927481865
 20
7.583943673591211
 30
0.0
  0
SPLINE
  5
2B1
330
1F
100
AcDbEntity
  8
외형선
  6
Continuous
 62
     1
370
    15
100
AcDbSpline
210
0.0
220
0.0
230
1.0
 70
     8
 71
     3
 72
    10
 73
     6
 74
     0
 42
0.000000001
 43
0.00000001
 40
0.0
 40
0.0
 40
0.0
 40
0.0
 40
0.5
 40
0.5
 40
1.0
 40
1.0
 40
1.0
 40
1.0
 10
33.32163929603146
 20
4.220970690431304
 30
0.0
 10
33.29919205064784
 20
4.843784574272983
 30
0.0
 10
33.27512635605595
 20
5.446662368976349
 30
0.0
 10
33.22534986564529
 20
6.559920466881444
 30
0.0
 10
33.19965348622096
 20
7.069843414420379
 30
0.0
 10
33.17414237817379
 20
7.511802118442555
 30
0.0
  0
SPLINE
  5
2B2
330
1F
100
AcDbEntity
  8
외형선
  6
Continuous
 62
     1
370
    15
100
AcDbSpline
210
0.0
220
0.0
230
1.0
 70
     8
 71
     3
 72
    10
 73
     6
 74
     0
 42
0.000000001
 43
0.00000001
 40
0.0
 40
0.0
 40
0.0
 40
0.0
 40
0.5
 40
0.5
 40
1.0
 40
1.0
 40
1.0
 40
1.0
 10
28.37347460067771
 20
-7.534850745697729
 30
0.0
 10
28.3489101760219
 20
-7.091880835038732
 30
0.0
 10
28.32586467830214
 20
-6.590461490276773
 30
0.0
 10
28.28315299400115
 20
-5.51555609847542
 30
0.0
 10
28.25978690492391
 20
-4.911864808716549
 30
0.0
 10
28.23510884755826
 20
-4.257852550899043
 30
0.0
  0
SPLINE
  5
2B3
330
1F
100
AcDbEntity
  8
외형선
  6
Continuous
 62
     1
370
    15
100
AcDbSpline
210
0.0
220
0.0
230
1.0
 70
     8
 71
     3
 72
    10
 73
     6
 74
     0
 42
0.000000001
 43
0.00000001
 40
0.0
 40
0.0
 40
0.0
 40
0.0
 40
0.5
 40
0.5
 40
1.0
 40
1.0
 40
1.0
 40
1.0
 10
28.52946528418014
 20
-7.60700590058329
 30
0.0
 10
28.50492472663754
 20
-7.165704425896585
 30
0.0
 10
28.4817061444763
 20
-6.664111958951312
 30
0.0
 10
28.43927997900446
 20
-5.593002926397621
 30
0.0
 10
28.41611746375887
 20
-4.991521221612248
 30
0.0
 10
28.39159653084665
 20
-4.33890698702193
 30
0.0
  0
SPLINE
  5
2B4
330
1F
100
AcDbEntity
  8
외형선
  6
Continuous
 62
     1
370
    15
100
AcDbSpline
210
0.0
220
0.0
230
1.0
 70
     8
 71
     3
 72
    12
 73
     8
 74
     0
 42
0.000000001
 43
0.00000001
 40
0.0
 40
0.0
 40
0.0
 40
0.0
 40
0.4999999999999996
 40
0.4999999999999996
 40
0.7499999999999998
 40
0.7499999999999998
 40
1.0
 40
1.0
 40
1.0
 40
1.0
 10
29.61668881127051
 20
-7.837966260002894
 30
0.0
 10
29.59173043448883
 20
-7.419157704328589
 30
0.0
 10
29.56792993496149
 20
-6.935791995139751
 30
0.0
 10
29.53509275838589
 20
-6.152448991308198
 30
0.0
 10
29.5246788592038
 20
-5.882476837926842
 30
0.0
 10
29.50229775879189
 20
-5.306742413262077
 30
0.0
 10
29.49065527674995
 20
-5.003390381484873
 30
0.0
 10
29.47864943008571
 20
-4.686599568014997
 30
0.0
  0
SPLINE
  5
2B5
330
1F
100
AcDbEntity
  8
외형선
  6
Continuous
 62
     1
370
    15
100
AcDbSpline
210
0.0
220
0.0
230
1.0
 70
     8
 71
     3
 72
    10
 73
     6
 74
     0
 42
0.000000001
 43
0.00000001
 40
0.0
 40
0.0
 40
0.0
 40
0.0
 40
0.5
 40
0.5
 40
1.0
 40
1.0
 40
1.0
 40
1.0
 10
31.92251112708133
 20
4.667656572361031
 30
0.0
 10
31.89943033384762
 20
5.276817570287874
 30
0.0
 10
31.87490941778724
 20
5.859718216307652
 30
0.0
 10
31.82468993241615
 20
6.922160932739016
 30
0.0
 10
31.79900689897194
 20
7.401279135027265
 30
0.0
 10
31.77374362305222
 20
7.809390658045772
 30
0.0
  0
SPLINE
  5
2B6
330
1F
100
AcDbEntity
  8
외형선
  6
Continuous
 62
     1
370
    15
100
AcDbSpline
210
0.0
220
0.0
230
1.0
 70
     8
 71
     3
 72
    12
 73
     8
 74
     0
 42
0.000000001
 43
0.00000001
 40
0.0
 40
0.0
 40
0.0
 40
0.0
 40
0.5000000000000001
 40
0.5000000000000001
 40
0.7499999999999999
 40
0.7499999999999999
 40
1.0
 40
1.0
 40
1.0
 40
1.0
 10
29.77323979008009
 20
-7.830682418007075
 30
0.0
 10
29.74813470951751
 20
-7.416656091861724
 30
0.0
 10
29.72416736719827
 20
-6.937324007491923
 30
0.0
 10
29.69107637348266
 20
-6.158894485061437
 30
0.0
 10
29.68066133390333
 20
-5.891034649949169
 30
0.0
 10
29.6582967400994
 20
-5.319699200956135
 30
0.0
 10
29.64665582094417
 20
-5.018452163866116
 30
0.0
 10
29.63464453551343
 20
-4.703643623195195
 30
0.0
  0
SPLINE
  5
2B7
330
1F
100
AcDbEntity
  8
외형선
  6
Continuous
 62
     1
370
    15
100
AcDbSpline
210
0.0
220
0.0
230
1.0
 70
     8
 71
     3
 72
    10
 73
     6
 74
     0
 42
0.000000001
 43
0.00000001
 40
0.0
 40
0.0
 40
0.0
 40
0.0
 40
0.5
 40
0.5
 40
1.0
 40
1.0
 40
1.0
 40
1.0
 10
31.29764442168065
 20
4.863095725464835
 30
0.0
 10
31.2742995912085
 20
5.46551984860705
 30
0.0
 10
31.24959805643633
 20
6.038873864844144
 30
0.0
 10
31.1992283497803
 20
7.077574465850414
 30
0.0
 10
31.17357609502762
 20
7.542515201137187
 30
0.0
 10
31.1484460673602
 20
7.93524443466002
 30
0.0
  0
SPLINE
  5
2B8
330
1F
100
AcDbEntity
  8
외형선
  6
Continuous
 62
     1
370
    15
100
AcDbSpline
210
0.0
220
0.0
230
1.0
 70
     8
 71
     3
 72
    12
 73
     8
 74
     0
 42
0.000000001
 43
0.00000001
 40
0.0
 40
0.0
 40
0.0
 40
0.0
 40
0.5000000000000002
 40
0.5000000000000002
 40
0.7500000000000001
 40
0.7500000000000001
 40
1.0
 40
1.0
 40
1.0
 40
1.0
 10
30.39836201844823
 20
-7.955776677172713
 30
0.0
 10
30.37306278163213
 20
-7.555630646056191
 30
0.0
 10
30.34880006905083
 20
-7.0879432842635
 30
0.0
 10
30.31516782912984
 20
-6.322816432939612
 30
0.0
 10
30.30473603725799
 20
-6.060034644768662
 30
0.0
 10
30.28277622097623
 20
-5.502206214571793
 30
0.0
 10
30.27132339408027
 20
-5.207420239773568
 30
0.0
 10
30.2594804480032
 20
-4.898613512958256
 30
0.0
  0
SPLINE
  5
2B9
330
1F
100
AcDbEntity
  8
외형선
  6
Continuous
 62
     1
370
    15
100
AcDbSpline
210
0.0
220
0.0
230
1.0
 70
     8
 71
     3
 72
    10
 73
     6
 74
     0
 42
0.000000001
 43
0.00000001
 40
0.0
 40
0.0
 40
0.0
 40
0.0
 40
0.5
 40
0.5
 40
1.0
 40
1.0
 40
1.0
 40
1.0
 10
30.05396860498309
 20
5.280995715992531
 30
0.0
 10
30.03022352315361
 20
5.869409184361364
 30
0.0
 10
30.00530774875222
 20
6.423188899027736
 30
0.0
 10
29.9549375468286
 20
7.414203885440174
 30
0.0
 10
29.92949923612786
 20
7.851079872941646
 30
0.0
 10
29.90477268267731
 20
8.213881389379944
 30
0.0
  0
SPLINE
  5
2BA
330
1F
100
AcDbEntity
  8
외형선
  6
Continuous
 62
     1
370
    15
100
AcDbSpline
210
0.0
220
0.0
230
1.0
 70
     8
 71
     3
 72
    10
 73
     6
 74
     0
 42
0.000000001
 43
0.00000001
 40
0.0
 40
0.0
 40
0.0
 40
0.0
 40
0.5
 40
0.5
 40
1.0
 40
1.0
 40
1.0
 40
1.0
 10
31.14114039529604
 20
4.946339480058707
 30
0.0
 10
31.11781030549505
 20
5.547865307379208
 30
0.0
 10
31.09315799482451
 20
6.119578455060524
 30
0.0
 10
31.04294718414961
 20
7.154074134640431
 30
0.0
 10
31.01740438586518
 20
7.616460911114775
 30
0.0
 10
30.99240147276711
 20
8.006547991946846
 30
0.0
  0
SPLINE
  5
2BB
330
1F
100
AcDbEntity
  8
외형선
  6
Continuous
 62
     1
370
    15
100
AcDbSpline
210
0.0
220
0.0
230
1.0
 70
     8
 71
     3
 72
    12
 73
     8
 74
     0
 42
0.000000001
 43
0.00000001
 40
0.0
 40
0.0
 40
0.0
 40
0.0
 40
0.5000000000000004
 40
0.5000000000000004
 40
0.7500000000000002
 40
0.7500000000000002
 40
1.0
 40
1.0
 40
1.0
 40
1.0
 10
30.55439077247651
 20
-8.027240302291762
 30
0.0
 10
30.52914465126849
 20
-7.629376142158099
 30
0.0
 10
30.50490519148633
 20
-7.163617719318133
 30
0.0
 10
30.47126202811608
 20
-6.400451635556714
 30
0.0
 10
30.46082148417477
 20
-6.138165006506769
 30
0.0
 10
30.43905122691172
 20
-5.5828971778273
 30
0.0
 10
30.42769297710962
 20
-5.289344773775996
 30
0.0
 10
30.41594200319807
 20
-4.981669143569833
 30
0.0
  0
SPLINE
  5
2BC
330
1F
100
AcDbEntity
  8
외형선
  6
Continuous
 62
     1
370
    15
100
AcDbSpline
210
0.0
220
0.0
230
1.0
 70
     8
 71
     3
 72
    12
 73
     8
 74
     0
 42
0.000000001
 43
0.00000001
 40
0.0
 40
0.0
 40
0.0
 40
0.0
 40
0.5000000000000002
 40
0.5000000000000002
 40
0.7500000000000001
 40
0.7500000000000001
 40
1.0
 40
1.0
 40
1.0
 40
1.0
 10
31.64189892933452
 20
-8.233263558389435
 30
0.0
 10
31.61640736474958
 20
-7.861124292417566
 30
0.0
 10
31.59173951361481
 20
-7.417695220421072
 30
0.0
 10
31.55725914414896
 20
-6.681066037046071
 30
0.0
 10
31.54618102457345
 20
-6.423720772909229
 30
0.0
 10
31.52500092511652
 20
-5.892043829101323
 30
0.0
 10
31.51408517106487
 20
-5.611252343309018
 30
0.0
 10
31.50266569249516
 20
-5.315027761338464
 30
0.0
  0
SPLINE
  5
2BD
330
1F
100
AcDbEntity
  8
외형선
  6
Continuous
 62
     1
370
    15
100
AcDbSpline
210
0.0
220
0.0
230
1.0
 70
     8
 71
     3
 72
    10
 73
     6
 74
     0
 42
0.000000001
 43
0.00000001
 40
0.0
 40
0.0
 40
0.0
 40
0.0
 40
0.5
 40
0.5
 40
1.0
 40
1.0
 40
1.0
 40
1.0
 10
29.89801002666207
 20
5.291103530711355
 30
0.0
 10
29.87411916122959
 20
5.876971675406108
 30
0.0
 10
29.8490667353799
 20
6.427530282424127
 30
0.0
 10
29.798471701259
 20
7.410725488755519
 30
0.0
 10
29.77294558572344
 20
7.843003119307698
 30
0.0
 10
29.74816546169608
 20
8.20072893107686
 30
0.0
  0
SPLINE
  5
2BE
330
1F
100
AcDbEntity
  8
외형선
  6
Continuous
 62
     1
370
    15
100
AcDbSpline
210
0.0
220
0.0
230
1.0
 70
     8
 71
     3
 72
    12
 73
     8
 74
     0
 42
0.000000001
 43
0.00000001
 40
0.0
 40
0.0
 40
0.0
 40
0.0
 40
0.5
 40
0.5
 40
0.75
 40
0.75
 40
1.0
 40
1.0
 40
1.0
 40
1.0
 10
31.79848446896491
 20
-8.219485132983941
 30
0.0
 10
31.77286256950623
 20
-7.852352896870948
 30
0.0
 10
31.74804006041311
 20
-7.413266697609387
 30
0.0
 10
31.71331718057899
 20
-6.682034771535627
 30
0.0
 10
31.70215649160953
 20
-6.426306612944986
 30
0.0
 10
31.68081180459606
 20
-5.897522589540316
 30
0.0
 10
31.66997938388943
 20
-5.619440802746848
 30
0.0
 10
31.65856059289972
 20
-5.325236832832878
 30
0.0
  0
SPLINE
  5
2BF
330
1F
100
AcDbEntity
  8
외형선
  6
Continuous
 62
     1
370
    15
100
AcDbSpline
210
0.0
220
0.0
230
1.0
 70
     8
 71
     3
 72
    10
 73
     6
 74
     0
 42
0.000000001
 43
0.00000001
 40
0.0
 40
0.0
 40
0.0
 40
0.0
 40
0.5
 40
0.5
 40
1.0
 40
1.0
 40
1.0
 40
1.0
 10
29.27295794738453
 20
5.477141663189603
 30
0.0
 10
29.24884427584515
 20
6.054995798087152
 30
0.0
 10
29.22365947064234
 20
6.594791171273253
 30
0.0
 10
29.17301310636254
 20
7.552272600293483
 30
0.0
 10
29.14756817185475
 20
7.969623263436577
 30
0.0
 10
29.12296618417327
 20
8.311537470520063
 30
0.0
  0
SPLINE
  5
2C0
330
1F
100
AcDbEntity
  8
외형선
  6
Continuous
 62
     1
370
    15
100
AcDbSpline
210
0.0
220
0.0
230
1.0
 70
     8
 71
     3
 72
    12
 73
     8
 74
     0
 42
0.000000001
 43
0.00000001
 40
0.0
 40
0.0
 40
0.0
 40
0.0
 40
0.5
 40
0.5
 40
0.75
 40
0.75
 40
1.0
 40
1.0
 40
1.0
 40
1.0
 10
32.42372025871001
 20
-8.329504485523708
 30
0.0
 10
32.39800516639242
 20
-7.977852815245535
 30
0.0
 10
32.37298033767597
 20
-7.552566769705358
 30
0.0
 10
32.33782929162513
 20
-6.838211140334374
 30
0.0
 10
32.32650547800186
 20
-6.587482189236505
 30
0.0
 10
32.30480335538265
 20
-6.067366610055174
 30
0.0
 10
32.29436120726245
 20
-5.797777773327303
 30
0.0
 10
32.28315101476836
 20
-5.510551941786153
 30
0.0
  0
SPLINE
  5
2C1
330
1F
100
AcDbEntity
  8
외형선
  6
Continuous
 62
     1
370
    15
100
AcDbSpline
210
0.0
220
0.0
230
1.0
 70
     8
 71
     3
 72
    10
 73
     6
 74
     0
 42
0.000000001
 43
0.00000001
 40
0.0
 40
0.0
 40
0.0
 40
0.0
 40
0.5
 40
0.5
 40
1.0
 40
1.0
 40
1.0
 40
1.0
 10
28.02900244778782
 20
5.87699272097475
 30
0.0
 10
28.00456819041364
 20
6.438527137645678
 30
0.0
 10
27.97925844678269
 20
6.956596911045366
 30
0.0
 10
27.92878659505836
 20
7.86298255261299
 30
0.0
 10
27.90364084221187
 20
8.251017940285458
 30
0.0
 10
27.87951456602537
 20
8.562311206925303
 30
0.0
  0
SPLINE
  5
2C2
330
1F
100
AcDbEntity
  8
외형선
  6
Continuous
 62
     1
370
    15
100
AcDbSpline
210
0.0
220
0.0
230
1.0
 70
     8
 71
     3
 72
    10
 73
     6
 74
     0
 42
0.000000001
 43
0.00000001
 40
0.0
 40
0.0
 40
0.0
 40
0.0
 40
0.5
 40
0.5
 40
1.0
 40
1.0
 40
1.0
 40
1.0
 10
29.11639082027148
 20
5.561366257604932
 30
0.0
 10
29.09231282648042
 20
6.137742857480858
 30
0.0
 10
29.06719865135808
 20
6.675372640298179
 30
0.0
 10
29.01674907553018
 20
7.627811735112905
 30
0.0
 10
28.99142998972418
 20
8.042296519562449
 30
0.0
 10
28.96696714746719
 20
8.381366907641576
 30
0.0
  0
SPLINE
  5
2C3
330
1F
100
AcDbEntity
  8
외형선
  6
Continuous
 62
     1
370
    15
100
AcDbSpline
210
0.0
220
0.0
230
1.0
 70
     8
 71
     3
 72
    12
 73
     8
 74
     0
 42
0.000000001
 43
0.00000001
 40
0.0
 40
0.0
 40
0.0
 40
0.0
 40
0.5
 40
0.5
 40
0.75
 40
0.75
 40
1.0
 40
1.0
 40
1.0
 40
1.0
 10
32.57979571291224
 20
-8.400085963788957
 30
0.0
 10
32.55414782174495
 20
-8.051068767021794
 30
0.0
 10
32.52916152989165
 20
-7.628141803991684
 30
0.0
 10
32.4940207463962
 20
-6.916451244071682
 30
0.0
 10
32.48269257900938
 20
-6.66646659764999
 30
0.0
 10
32.46096708935964
 20
-6.147502067605124
 30
0.0
 10
32.45061897130824
 20
-5.879225655161655
 30
0.0
 10
32.4395038857873
 20
-5.593288010022563
 30
0.0
  0
SPLINE
  5
2C4
330
1F
100
AcDbEntity
  8
외형선
  6
Continuous
 62
     1
370
    15
100
AcDbSpline
210
0.0
220
0.0
230
1.0
 70
     8
 71
     3
 72
    12
 73
     8
 74
     0
 42
0.000000001
 43
0.00000001
 40
0.0
 40
0.0
 40
0.0
 40
0.0
 40
0.4999999999999998
 40
0.4999999999999998
 40
0.7499999999999999
 40
0.7499999999999999
 40
1.0
 40
1.0
 40
1.0
 40
1.0
 10
33.6674152125526
 20
-8.578597329437166
 30
0.0
 10
33.64170608944486
 20
-8.257730442581368
 30
0.0
 10
33.61646707307379
 20
-7.860648512376645
 30
0.0
 10
33.58071032054328
 20
-7.18160341386403
 30
0.0
 10
33.56913807238668
 20
-6.941496906094549
 30
0.0
 10
33.54686181742249
 20
-6.440063466953947
 30
0.0
 10
33.53646513156405
 20
-6.181319645707258
 30
0.0
 10
33.52574818355543
 20
-5.90841261884877
 30
0.0
  0
SPLINE
  5
2C5
330
1F
100
AcDbEntity
  8
외형선
  6
Continuous
 62
     1
370
    15
100
AcDbSpline
210
0.0
220
0.0
230
1.0
 70
     8
 71
     3
 72
    10
 73
     6
 74
     0
 42
0.000000001
 43
0.00000001
 40
0.0
 40
0.0
 40
0.0
 40
0.0
 40
0.5
 40
0.5
 40
1.0
 40
1.0
 40
1.0
 40
1.0
 10
27.87298867960841
 20
5.882136233988507
 30
0.0
 10
27.84842277298806
 20
6.440681281425942
 30
0.0
 10
27.82299524379853
 20
6.955102279253902
 30
0.0
 10
27.77234207731765
 20
7.852999420232003
 30
0.0
 10
27.74713308180428
 20
8.236198289651773
 30
0.0
 10
27.72297740482163
 20
8.542328947366768
 30
0.0
  0
SPLINE
  5
2C6
330
1F
100
AcDbEntity
  8
외형선
  6
Continuous
 62
     1
370
    15
100
AcDbSpline
210
0.0
220
0.0
230
1.0
 70
     8
 71
     3
 72
    12
 73
     8
 74
     0
 42
0.000000001
 43
0.00000001
 40
0.0
 40
0.0
 40
0.0
 40
0.0
 40
0.5
 40
0.5
 40
0.75
 40
0.75
 40
1.0
 40
1.0
 40
1.0
 40
1.0
 10
33.82403290771165
 20
-8.55856542432659
 30
0.0
 10
33.79822394009081
 20
-8.243022631501605
 30
0.0
 10
33.77285678411449
 20
-7.850777687578016
 30
0.0
 10
33.7368875997273
 20
-7.177985346772118
 30
0.0
 10
33.72524123449818
 20
-6.939799759843271
 30
0.0
 10
33.70281403812232
 20
-6.44187893294107
 30
0.0
 10
33.69231680778005
 20
-6.1844941143375
 30
0.0
 10
33.68161333464769
 20
-5.913811223560305
 30
0.0
  0
SPLINE
  5
2C7
330
1F
100
AcDbEntity
  8
외형선
  6
Continuous
 62
     1
370
    15
100
AcDbSpline
210
0.0
220
0.0
230
1.0
 70
     8
 71
     3
 72
    10
 73
     6
 74
     0
 42
0.000000001
 43
0.00000001
 40
0.0
 40
0.0
 40
0.0
 40
0.0
 40
0.4999999999999998
 40
0.4999999999999998
 40
1.0
 40
1.0
 40
1.0
 40
1.0
 10
27.2477927700113
 20
6.057776361980227
 30
0.0
 10
27.22304593277169
 20
6.607087512116493
 30
0.0
 10
27.19753411797392
 20
7.109609756833105
 30
0.0
 10
27.14692623520443
 20
7.980009571985744
 30
0.0
 10
27.12184669243553
 20
8.347638025638135
 30
0.0
 10
27.09791134924616
 20
8.637624498844493
 30
0.0
  0
SPLINE
  5
2C8
330
1F
100
AcDbEntity
  8
외형선
  6
Continuous
 62
     1
370
    15
100
AcDbSpline
210
0.0
220
0.0
230
1.0
 70
     8
 71
     3
 72
    10
 73
     6
 74
     0
 42
0.000000001
 43
0.00000001
 40
0.0
 40
0.0
 40
0.0
 40
0.0
 40
0.5
 40
0.5
 40
1.0
 40
1.0
 40
1.0
 40
1.0
 10
34.44935179110561
 20
-8.65309807556098
 30
0.0
 10
34.42355269437182
 20
-8.354253106616952
 30
0.0
 10
34.39808374340007
 20
-7.977661544888165
 30
0.0
 10
34.3497261379364
 20
-7.107543539650563
 30
0.0
 10
34.32684837991156
 20
-6.614484983873789
 30
0.0
 10
34.30592509800162
 20
-6.088628462835663
 30
0.0
  0
SPLINE
  5
2C9
330
1F
100
AcDbEntity
  8
외형선
  6
Continuous
 62
     1
370
    15
100
AcDbSpline
210
0.0
220
0.0
230
1.0
 70
     8
 71
     3
 72
    10
 73
     6
 74
     0
 42
0.000000001
 43
0.00000001
 40
0.0
 40
0.0
 40
0.0
 40
0.0
 40
0.4999999999999998
 40
0.4999999999999998
 40
1.0
 40
1.0
 40
1.0
 40
1.0
 10
26.00359730852399
 20
6.438550260797195
 30
0.0
 10
25.97861492742553
 20
6.969132485417707
 30
0.0
 10
25.95307245235893
 20
7.447721235166395
 30
0.0
 10
25.90282173544098
 20
8.263587303329848
 30
0.0
 10
25.87812928035869
 20
8.60067730280212
 30
0.0
 10
25.85474360146075
 20
8.859396044865472
 30
0.0
  0
SPLINE
  5
2CA
330
1F
100
AcDbEntity
  8
외형선
  6
Continuous
 62
     1
370
    15
100
AcDbSpline
210
0.0
220
0.0
230
1.0
 70
     8
 71
     3
 72
    10
 73
     6
 74
     0
 42
0.000000001
 43
0.00000001
 40
0.0
 40
0.0
 40
0.0
 40
0.0
 40
0.5
 40
0.5
 40
1.0
 40
1.0
 40
1.0
 40
1.0
 10
27.09117891104523
 20
6.142366732449778
 30
0.0
 10
27.06648350506297
 20
6.68976804389238
 30
0.0
 10
27.04105746095815
 20
7.189743337177767
 30
0.0
 10
26.99067105908448
 20
8.054497744035242
 30
0.0
 10
26.96572685660474
 20
8.419038492435645
 30
0.0
 10
26.94193646804388
 20
8.706027464152733
 30
0.0
  0
SPLINE
  5
2CB
330
1F
100
AcDbEntity
  8
외형선
  6
Continuous
 62
     1
370
    15
100
AcDbSpline
210
0.0
220
0.0
230
1.0
 70
     8
 71
     3
 72
    10
 73
     6
 74
     0
 42
0.000000001
 43
0.00000001
 40
0.0
 40
0.0
 40
0.0
 40
0.0
 40
0.5000000000000002
 40
0.5000000000000002
 40
1.0
 40
1.0
 40
1.0
 40
1.0
 10
34.60540414550878
 20
-8.721598383508784
 30
0.0
 10
34.57970919317685
 20
-8.425842869358402
 30
0.0
 10
34.55431796946251
 20
-8.052303742682705
 30
0.0
 10
34.50604705408981
 20
-7.187455852249375
 30
0.0
 10
34.48317828115436
 20
-6.696605430668526
 30
0.0
 10
34.46223141057219
 20
-6.172258063915801
 30
0.0
  0
SPLINE
  5
2CC
330
1F
100
AcDbEntity
  8
외형선
  6
Continuous
 62
     1
370
    15
100
AcDbSpline
210
0.0
220
0.0
230
1.0
 70
     8
 71
     3
 72
    10
 73
     6
 74
     0
 42
0.000000001
 43
0.00000001
 40
0.0
 40
0.0
 40
0.0
 40
0.0
 40
0.5
 40
0.5
 40
1.0
 40
1.0
 40
1.0
 40
1.0
 10
35.6931952477395
 20
-8.873342021160875
 30
0.0
 10
35.6675747231553
 20
-8.60713282017038
 30
0.0
 10
35.64206696094359
 20
-8.261713502683874
 30
0.0
 10
35.59321428716915
 20
-7.446081891968654
 30
0.0
 10
35.56988171002536
 20
-6.976298970343241
 30
0.0
 10
35.54835309668992
 20
-6.468469868132602
 30
0.0
  0
SPLINE
  5
2CD
330
1F
100
AcDbEntity
  8
외형선
  6
Continuous
 62
     1
370
    15
100
AcDbSpline
210
0.0
220
0.0
230
1.0
 70
     8
 71
     3
 72
    10
 73
     6
 74
     0
 42
0.000000001
 43
0.00000001
 40
0.0
 40
0.0
 40
0.0
 40
0.0
 40
0.4999999999999998
 40
0.4999999999999998
 40
1.0
 40
1.0
 40
1.0
 40
1.0
 10
25.84752285323849
 20
6.438934382146649
 30
0.0
 10
25.82242055915583
 20
6.966171859527566
 30
0.0
 10
25.79677636912915
 20
7.440772248172243
 30
0.0
 10
25.74638159310426
 20
8.247635279210437
 30
0.0
 10
25.72164698853448
 20
8.579716256102579
 30
0.0
 10
25.6982526093846
 20
8.83322701103032
 30
0.0
  0
SPLINE
  5
2CE
330
1F
100
AcDbEntity
  8
외형선
  6
Continuous
 62
     1
370
    15
100
AcDbSpline
210
0.0
220
0.0
230
1.0
 70
     8
 71
     3
 72
    10
 73
     6
 74
     0
 42
0.000000001
 43
0.00000001
 40
0.0
 40
0.0
 40
0.0
 40
0.0
 40
0.5000000000000001
 40
0.5000000000000001
 40
1.0
 40
1.0
 40
1.0
 40
1.0
 10
35.84981093032229
 20
-8.846917375765306
 30
0.0
 10
35.82410811763524
 20
-8.586027382499038
 30
0.0
 10
35.79848783600915
 20
-8.245551997435284
 30
0.0
 10
35.74937575594419
 20
-7.438595496110655
 30
0.0
 10
35.725896712732
 20
-6.972544659857869
 30
0.0
 10
35.7042198203636
 20
-6.467825517686506
 30
0.0
  0
SPLINE
  5
2CF
330
1F
100
AcDbEntity
  8
외형선
  6
Continuous
 62
     1
370
    15
100
AcDbSpline
210
0.0
220
0.0
230
1.0
 70
     8
 71
     3
 72
    10
 73
     6
 74
     0
 42
0.000000001
 43
0.00000001
 40
0.0
 40
0.0
 40
0.0
 40
0.0
 40
0.4999999999999998
 40
0.4999999999999998
 40
1.0
 40
1.0
 40
1.0
 40
1.0
 10
25.2222339746357
 20
6.603005512979023
 30
0.0
 10
25.19699570242841
 20
7.119806246253082
 30
0.0
 10
25.17131764049498
 20
7.581424700211859
 30
0.0
 10
25.12106697486623
 20
8.35916786391201
 30
0.0
 10
25.09650998646881
 20
8.675142653950981
 30
0.0
 10
25.07337704910205
 20
8.912290617425045
 30
0.0
  0
SPLINE
  5
2D0
330
1F
100
AcDbEntity
  8
외형선
  6
Continuous
 62
     1
370
    15
100
AcDbSpline
210
0.0
220
0.0
230
1.0
 70
     8
 71
     3
 72
    10
 73
     6
 74
     0
 42
0.000000001
 43
0.00000001
 40
0.0
 40
0.0
 40
0.0
 40
0.0
 40
0.5
 40
0.5
 40
1.0
 40
1.0
 40
1.0
 40
1.0
 10
36.47514884847806
 20
-8.925174769396886
 30
0.0
 10
36.44951265135033
 20
-8.681308737459402
 30
0.0
 10
36.42385030783027
 20
-8.357205288294258
 30
0.0
 10
36.37444923396996
 20
-7.579213462033518
 30
0.0
 10
36.35072397890792
 20
-7.12573562129732
 30
0.0
 10
36.32872876196137
 20
-6.631021359115075
 30
0.0
  0
SPLINE
  5
2D1
330
1F
100
AcDbEntity
  8
외형선
  6
Continuous
 62
     1
370
    15
100
AcDbSpline
210
0.0
220
0.0
230
1.0
 70
     8
 71
     3
 72
    10
 73
     6
 74
     0
 42
0.000000001
 43
0.00000001
 40
0.0
 40
0.0
 40
0.0
 40
0.0
 40
0.5
 40
0.5
 40
1.0
 40
1.0
 40
1.0
 40
1.0
 10
23.97788906750467
 20
6.96247663103436
 30
0.0
 10
23.95251636951437
 20
7.457935624325724
 30
0.0
 10
23.92691677166997
 20
7.89332489518634
 30
0.0
 10
23.87722939235122
 20
8.613158027336382
 30
0.0
 10
23.85315600559366
 20
8.897518674062376
 30
0.0
 10
23.83065190592944
 20
9.102976393604866
 30
0.0
  0
SPLINE
  5
2D2
330
1F
100
AcDbEntity
  8
외형선
  6
Continuous
 62
     1
370
    15
100
AcDbSpline
210
0.0
220
0.0
230
1.0
 70
     8
 71
     3
 72
    10
 73
     6
 74
     0
 42
0.000000001
 43
0.00000001
 40
0.0
 40
0.0
 40
0.0
 40
0.0
 40
0.5
 40
0.5
 40
1.0
 40
1.0
 40
1.0
 40
1.0
 10
25.06560727001715
 20
6.687008054236096
 30
0.0
 10
25.04043514821916
 20
7.201529332132369
 30
0.0
 10
25.014856221465
 20
7.660291474621722
 30
0.0
 10
24.96484731903072
 20
8.431926104952476
 30
0.0
 10
24.94043255028719
 20
8.744658759455266
 30
0.0
 10
24.91744783979413
 20
8.978711487759211
 30
0.0
  0
SPLINE
  5
2D3
330
1F
100
AcDbEntity
  8
외형선
  6
Continuous
 62
     1
370
    15
100
AcDbSpline
210
0.0
220
0.0
230
1.0
 70
     8
 71
     3
 72
    10
 73
     6
 74
     0
 42
0.000000001
 43
0.00000001
 40
0.0
 40
0.0
 40
0.0
 40
0.0
 40
0.5
 40
0.5
 40
1.0
 40
1.0
 40
1.0
 40
1.0
 10
36.63119263197971
 20
-8.99157022343653
 30
0.0
 10
36.60567191143742
 20
-8.750929682943626
 30
0.0
 10
36.58010228352297
 20
-8.430105760660883
 30
0.0
 10
36.53082085596895
 20
-7.658025863975025
 30
0.0
 10
36.50712244661857
 20
-7.207169929600888
 30
0.0
 10
36.48512026274747
 20
-6.714430715916968
 30
0.0
  0
SPLINE
  5
2D4
330
1F
100
AcDbEntity
  8
외형선
  6
Continuous
 62
     1
370
    15
100
AcDbSpline
210
0.0
220
0.0
230
1.0
 70
     8
 71
     3
 72
    10
 73
     6
 74
     0
 42
0.000000001
 43
0.00000001
 40
0.0
 40
0.0
 40
0.0
 40
0.0
 40
0.5
 40
0.5
 40
1.0
 40
1.0
 40
1.0
 40
1.0
 10
37.71894355779291
 20
-9.114162447494486
 30
0.0
 10
37.69358007076909
 20
-8.903290347289085
 30
0.0
 10
37.66798374639317
 20
-8.61140220407403
 30
0.0
 10
37.6182903831607
 20
-7.891145386916816
 30
0.0
 10
37.59420776085809
 20
-7.463138035378965
 30
0.0
 10
37.57168936996585
 20
-6.988902426625015
 30
0.0
  0
SPLINE
  5
2D5
330
1F
100
AcDbEntity
  8
외형선
  6
Continuous
 62
     1
370
    15
100
AcDbSpline
210
0.0
220
0.0
230
1.0
 70
     8
 71
     3
 72
    10
 73
     6
 74
     0
 42
0.000000001
 43
0.00000001
 40
0.0
 40
0.0
 40
0.0
 40
0.0
 40
0.5
 40
0.5
 40
1.0
 40
1.0
 40
1.0
 40
1.0
 10
23.82184240759686
 20
6.956449201801628
 30
0.0
 10
23.79634995224421
 20
7.448614967051428
 30
0.0
 10
23.77065155915582
 20
7.880054978114493
 30
0.0
 10
23.7208304822147
 20
8.590999016423382
 30
0.0
 10
23.6967223268144
 20
8.870427174985869
 30
0.0
 10
23.67421760008606
 20
9.07079596167136
 30
0.0
  0
SPLINE
  5
2D6
330
1F
100
AcDbEntity
  8
외형선
  6
Continuous
 62
     1
370
    15
100
AcDbSpline
210
0.0
220
0.0
230
1.0
 70
     8
 71
     3
 72
    10
 73
     6
 74
     0
 42
0.000000001
 43
0.00000001
 40
0.0
 40
0.0
 40
0.0
 40
0.0
 40
0.5
 40
0.5
 40
1.0
 40
1.0
 40
1.0
 40
1.0
 10
37.87558086024204
 20
-9.081873645214847
 30
0.0
 10
37.85014527193309
 20
-8.87628122351465
 30
0.0
 10
37.82444460944592
 20
-8.589357587320638
 30
0.0
 10
37.77450202056136
 20
-7.877868910072251
 30
0.0
 10
37.75027492897414
 20
-7.45366420989507
 30
0.0
 10
37.72760752857906
 20
-6.98259886726564
 30
0.0
  0
SPLINE
  5
2D7
330
1F
100
AcDbEntity
  8
외형선
  6
Continuous
 62
     1
370
    15
100
AcDbSpline
210
0.0
220
0.0
230
1.0
 70
     8
 71
     3
 72
    10
 73
     6
 74
     0
 42
0.000000001
 43
0.00000001
 40
0.0
 40
0.0
 40
0.0
 40
0.0
 40
0.5
 40
0.5
 40
1.0
 40
1.0
 40
1.0
 40
1.0
 10
23.19650631798212
 20
7.108018441981401
 30
0.0
 10
23.17092295426515
 20
7.588617434954734
 30
0.0
 10
23.14524034484671
 20
8.006087976832406
 30
0.0
 10
23.09565876469167
 20
8.68649884463436
 30
0.0
 10
23.071773719907
 20
8.949397481463974
 30
0.0
 10
23.04956844558043
 20
9.133284282688491
 30
0.0
  0
SPLINE
  5
2D8
330
1F
100
AcDbEntity
  8
외형선
  6
Continuous
 62
     1
370
    15
100
AcDbSpline
210
0.0
220
0.0
230
1.0
 70
     8
 71
     3
 72
    10
 73
     6
 74
     0
 42
0.000000001
 43
0.00000001
 40
0.0
 40
0.0
 40
0.0
 40
0.0
 40
0.5
 40
0.5
 40
1.0
 40
1.0
 40
1.0
 40
1.0
 10
38.50090414173162
 20
-9.143547802598407
 30
0.0
 10
38.47558095817917
 20
-8.955112000545958
 30
0.0
 10
38.44988804903956
 20
-8.685018111994614
 30
0.0
 10
38.39975085668986
 20
-8.003953690901877
 30
0.0
 10
38.37532189985533
 20
-7.593318598366277
 30
0.0
 10
38.35237264539183
 20
-7.133370717854247
 30
0.0
  0
SPLINE
  5
2D9
330
1F
100
AcDbEntity
  8
외형선
  6
Continuous
 62
     1
370
    15
100
AcDbSpline
210
0.0
220
0.0
230
1.0
 70
     8
 71
     3
 72
    10
 73
     6
 74
     0
 42
0.000000001
 43
0.00000001
 40
0.0
 40
0.0
 40
0.0
 40
0.0
 40
0.5
 40
0.5
 40
1.0
 40
1.0
 40
1.0
 40
1.0
 10
23.03988475275019
 20
7.19088917073996
 30
0.0
 10
23.01437827909582
 20
7.668925231049949
 30
0.0
 10
22.98880375277527
 20
8.083304914426096
 30
0.0
 10
22.93947576796557
 20
8.757247918636596
 30
0.0
 10
22.91573581533411
 20
9.016778607637352
 30
0.0
 10
22.8936788099627
 20
9.197475338965074
 30
0.0
  0
SPLINE
  5
2DA
330
1F
100
AcDbEntity
  8
외형선
  6
Continuous
 62
     1
370
    15
100
AcDbSpline
210
0.0
220
0.0
230
1.0
 70
     8
 71
     3
 72
    10
 73
     6
 74
     0
 42
0.000000001
 43
0.00000001
 40
0.0
 40
0.0
 40
0.0
 40
0.0
 40
0.5
 40
0.5
 40
1.0
 40
1.0
 40
1.0
 40
1.0
 10
21.9520651527187
 20
7.444814739387654
 30
0.0
 10
21.92644350057122
 20
7.901638790833094
 30
0.0
 10
21.90094183075954
 20
8.290782111696394
 30
0.0
 10
21.85211418844845
 20
8.910266535792806
 30
0.0
 10
21.82880049471365
 20
9.14063511710623
 30
0.0
 10
21.80729495062105
 20
9.292512621638357
 30
0.0
  0
SPLINE
  5
2DB
330
1F
100
AcDbEntity
  8
외형선
  6
Continuous
 62
     1
370
    15
100
AcDbSpline
210
0.0
220
0.0
230
1.0
 70
     8
 71
     3
 72
    10
 73
     6
 74
     0
 42
0.000000001
 43
0.00000001
 40
0.0
 40
0.0
 40
0.0
 40
0.0
 40
0.4999999999999999
 40
0.4999999999999999
 40
1.0
 40
1.0
 40
1.0
 40
1.0
 10
38.65694126138592
 20
-9.207583011684823
 30
0.0
 10
38.63174757683199
 20
-9.022530229051453
 30
0.0
 10
38.60616520133924
 20
-8.755982721230055
 30
0.0
 10
38.55618631962719
 20
-8.081590613545389
 30
0.0
 10
38.53180494572072
 20
-7.674070260267867
 30
0.0
 10
38.50886797069944
 20
-7.21665811683483
 30
0.0
  0
SPLINE
  5
2DC
330
1F
100
AcDbEntity
  8
외형선
  6
Continuous
 62
     1
370
    15
100
AcDbSpline
210
0.0
220
0.0
230
1.0
 70
     8
 71
     3
 72
    10
 73
     6
 74
     0
 42
0.000000001
 43
0.00000001
 40
0.0
 40
0.0
 40
0.0
 40
0.0
 40
0.5
 40
0.5
 40
1.0
 40
1.0
 40
1.0
 40
1.0
 10
39.74465054753352
 20
-9.301001757259549
 30
0.0
 10
39.7196859121789
 20
-9.145859651159999
 30
0.0
 10
39.69415584964789
 20
-8.90890306584296
 30
0.0
 10
39.64391648550876
 20
-8.288537990104848
 30
0.0
 10
39.61922296000974
 20
-7.905407492474624
 30
0.0
 10
39.59582975980215
 20
-7.468245946288732
 30
0.0
  0
SPLINE
  5
2DD
330
1F
100
AcDbEntity
  8
외형선
  6
Continuous
 62
     1
370
    15
100
AcDbSpline
210
0.0
220
0.0
230
1.0
 70
     8
 71
     3
 72
    10
 73
     6
 74
     0
 42
0.000000001
 43
0.00000001
 40
0.0
 40
0.0
 40
0.0
 40
0.0
 40
0.5
 40
0.5
 40
1.0
 40
1.0
 40
1.0
 40
1.0
 10
21.79602800873762
 20
7.433045682964612
 30
0.0
 10
21.77029402138481
 20
7.886455896691849
 30
0.0
 10
21.74470442780805
 20
8.271542623171587
 30
0.0
 10
21.69576852988361
 20
8.882046958535728
 30
0.0
 10
21.6724345440101
 20
9.10750119482108
 30
0.0
 10
21.6509422986373
 20
9.254395385037586
 30
0.0
  0
SPLINE
  5
2DE
330
1F
100
AcDbEntity
  8
외형선
  6
Continuous
 62
     1
370
    15
100
AcDbSpline
210
0.0
220
0.0
230
1.0
 70
     8
 71
     3
 72
    10
 73
     6
 74
     0
 42
0.000000001
 43
0.00000001
 40
0.0
 40
0.0
 40
0.0
 40
0.0
 40
0.5
 40
0.5
 40
1.0
 40
1.0
 40
1.0
 40
1.0
 10
39.90126776897612
 20
-9.262754842265721
 30
0.0
 10
39.87624854123213
 20
-9.112825986447495
 30
0.0
 10
39.85063047197983
 20
-8.880877503639406
 30
0.0
 10
39.80016792264446
 20
-8.269510650047648
 30
0.0
 10
39.77533959683039
 20
-7.8903669080155
 30
0.0
 10
39.75180315600061
 20
-7.456574674002305
 30
0.0
  0
SPLINE
  5
2DF
330
1F
100
AcDbEntity
  8
외형선
  6
Continuous
 62
     1
370
    15
100
AcDbSpline
210
0.0
220
0.0
230
1.0
 70
     8
 71
     3
 72
    10
 73
     6
 74
     0
 42
0.000000001
 43
0.00000001
 40
0.0
 40
0.0
 40
0.0
 40
0.0
 40
0.4999999999999998
 40
0.4999999999999998
 40
1.0
 40
1.0
 40
1.0
 40
1.0
 10
21.17069373582051
 20
7.571157379598805
 30
0.0
 10
21.14491639899273
 20
8.011902641731705
 30
0.0
 10
21.11939383811431
 20
8.382099663377225
 30
0.0
 10
21.07079355694871
 20
8.960840155301662
 30
0.0
 10
21.04772732871608
 20
9.169455634992673
 30
0.0
 10
21.02657085080113
 20
9.299863677105776
 30
0.0
  0
SPLINE
  5
2E0
330
1F
100
AcDbEntity
  8
외형선
  6
Continuous
 62
     1
370
    15
100
AcDbSpline
210
0.0
220
0.0
230
1.0
 70
     8
 71
     3
 72
    10
 73
     6
 74
     0
 42
0.000000001
 43
0.00000001
 40
0.0
 40
0.0
 40
0.0
 40
0.0
 40
0.5
 40
0.5
 40
1.0
 40
1.0
 40
1.0
 40
1.0
 10
40.526515034627
 20
-9.307350015795562
 30
0.0
 10
40.50165383725095
 20
-9.1745852951703
 30
0.0
 10
40.4760942660875
 20
-8.959801133238175
 30
0.0
 10
40.4255356571809
 20
-8.380119722534578
 30
0.0
 10
40.40055301949837
 20
-8.015468031550999
 30
0.0
 10
40.37677494138401
 20
-7.593866125210511
 30
0.0
  0
SPLINE
  5
2E1
330
1F
100
AcDbEntity
  8
외형선
  6
Continuous
 62
     1
370
    15
100
AcDbSpline
210
0.0
220
0.0
230
1.0
 70
     8
 71
     3
 72
    10
 73
     6
 74
     0
 42
0.000000001
 43
0.00000001
 40
0.0
 40
0.0
 40
0.0
 40
0.0
 40
0.5
 40
0.5
 40
1.0
 40
1.0
 40
1.0
 40
1.0
 10
21.01406713006519
 20
7.652857143510029
 30
0.0
 10
20.9883790747983
 20
8.090680437147192
 30
0.0
 10
20.96297531853983
 20
8.457484053365372
 30
0.0
 10
20.9146441125414
 20
9.029282761730114
 30
0.0
 10
20.89172773068773
 20
9.234357757130542
 30
0.0
 10
20.87072144996397
 20
9.361446378449571
 30
0.0
  0
SPLINE
  5
2E2
330
1F
100
AcDbEntity
  8
외형선
  6
Continuous
 62
     1
370
    15
100
AcDbSpline
210
0.0
220
0.0
230
1.0
 70
     8
 71
     3
 72
    12
 73
     8
 74
     0
 42
0.000000001
 43
0.00000001
 40
0.0
 40
0.0
 40
0.0
 40
0.0
 40
0.5
 40
0.5
 40
0.75
 40
0.75
 40
1.0
 40
1.0
 40
1.0
 40
1.0
 10
19.92636563981287
 20
7.881247284045002
 30
0.0
 10
19.90065337720191
 20
8.295998937854506
 30
0.0
 10
19.87541766490111
 20
8.636104803077753
 30
0.0
 10
19.83967471232846
 20
9.022814650114238
 30
0.0
 10
19.82810851120937
 20
9.131357620916292
 30
0.0
 10
19.8058468412359
 20
9.30826913763806
 30
0.0
 10
19.79546342925078
 20
9.376261237585618
 30
0.0
 10
19.78473089651083
 20
9.426263588880982
 30
0.0
  0
SPLINE
  5
2E3
330
1F
100
AcDbEntity
  8
외형선
  6
Continuous
 62
     1
370
    15
100
AcDbSpline
210
0.0
220
0.0
230
1.0
 70
     8
 71
     3
 72
    10
 73
     6
 74
     0
 42
0.000000001
 43
0.00000001
 40
0.0
 40
0.0
 40
0.0
 40
0.0
 40
0.4999999999999999
 40
0.4999999999999999
 40
1.0
 40
1.0
 40
1.0
 40
1.0
 10
40.68254190105056
 20
-9.368674249423558
 30
0.0
 10
40.65781047790856
 20
-9.239351105093997
 30
0.0
 10
40.63236504168821
 20
-9.028191507122969
 30
0.0
 10
40.58197764198648
 20
-8.455433962740257
 30
0.0
 10
40.55705182364443
 20
-8.09407105147262
 30
0.0
 10
40.5332963512316
 20
-7.675224714399034
 30
0.0
  0
SPLINE
  5
2E4
330
1F
100
AcDbEntity
  8
외형선
  6
Continuous
 62
     1
370
    15
100
AcDbSpline
210
0.0
220
0.0
230
1.0
 70
     8
 71
     3
 72
    10
 73
     6
 74
     0
 42
0.000000001
 43
0.00000001
 40
0.0
 40
0.0
 40
0.0
 40
0.0
 40
0.5
 40
0.5
 40
1.0
 40
1.0
 40
1.0
 40
1.0
 10
41.77007110109347
 20
-9.431943992370762
 30
0.0
 10
41.74564977903859
 20
-9.332467932483112
 30
0.0
 10
41.72034738666519
 20
-9.151417806983844
 30
0.0
 10
41.66987731787101
 20
-8.634809195989064
 30
0.0
 10
41.64472599508755
 20
-8.29943305333793
 30
0.0
 10
41.62058838948356
 20
-7.902728278369611
 30
0.0
  0
SPLINE
  5
2E5
330
1F
100
AcDbEntity
  8
외형선
  6
Continuous
 62
     1
370
    15
100
AcDbSpline
210
0.0
220
0.0
230
1.0
 70
     8
 71
     3
 72
    12
 73
     8
 74
     0
 42
0.000000001
 43
0.00000001
 40
0.0
 40
0.0
 40
0.0
 40
0.0
 40
0.4999999999999998
 40
0.4999999999999998
 40
0.7499999999999999
 40
0.7499999999999999
 40
1.0
 40
1.0
 40
1.0
 40
1.0
 10
19.77031019591093
 20
7.864464658048687
 30
0.0
 10
19.74450967970549
 20
8.275379308233623
 30
0.0
 10
19.71921340759804
 20
8.61110911385562
 30
0.0
 10
19.68342981346239
 20
8.99085615751834
 30
0.0
 10
19.67185827866132
 20
9.097014498346947
 30
0.0
 10
19.64960201978461
 20
9.269118144372568
 30
0.0
 10
19.63924051818215
 20
9.334736391122727
 30
0.0
 10
19.62840542110415
 20
9.382431574552976
 30
0.0
  0
SPLINE
  5
2E7
330
1F
100
AcDbEntity
  8
외형선
  6
Continuous
 62
     1
370
    15
100
AcDbSpline
210
0.0
220
0.0
230
1.0
 70
     8
 71
     3
 72
    12
 73
     8
 74
     0
 42
0.000000001
 43
0.00000001
 40
0.0
 40
0.0
 40
0.0
 40
0.0
 40
0.5000000000000003
 40
0.5000000000000003
 40
0.7500000000000001
 40
0.7500000000000001
 40
1.0
 40
1.0
 40
1.0
 40
1.0
 10
19.14502654542918
 20
7.988293610879789
 30
0.0
 10
19.11926571630351
 20
8.384990049076183
 30
0.0
 10
19.09412028506972
 20
8.704697639883069
 30
0.0
 10
19.05869963382026
 20
9.059738126147488
 30
0.0
 10
19.04727143992657
 20
9.157551771938673
 30
0.0
 10
19.02533780462496
 20
9.313077405935553
 30
0.0
 10
19.01501554766156
 20
9.370918610857384
 30
0.0
 10
19.00395311888967
 20
9.410706422546413
 30
0.0
  0
SPLINE
  5
2E9
330
1F
100
AcDbEntity
  8
외형선
  6
Continuous
 62
     1
370
    15
100
AcDbSpline
210
0.0
220
0.0
230
1.0
 70
     8
 71
     3
 72
    12
 73
     8
 74
     0
 42
0.000000001
 43
0.00000001
 40
0.0
 40
0.0
 40
0.0
 40
0.0
 40
0.5000000000000001
 40
0.5000000000000001
 40
0.75
 40
0.75
 40
1.0
 40
1.0
 40
1.0
 40
1.0
 10
18.98844519456608
 20
8.067745412206317
 30
0.0
 10
18.96279120992441
 20
8.461148940395645
 30
0.0
 10
18.93777929879387
 20
8.777199590156552
 30
0.0
 10
18.90257598334007
 20
9.126797622685627
 30
0.0
 10
18.8912230283354
 20
9.222803040501601
 30
0.0
 10
18.86944159970016
 20
9.374798066865324
 30
0.0
 10
18.8591262293869
 20
9.431065739992352
 30
0.0
 10
18.84805257028009
 20
9.469188894104544
 30
0.0
  0
SPLINE
  5
2EA
330
1F
100
AcDbEntity
  8
외형선
  6
Continuous
 62
     1
370
    15
100
AcDbSpline
210
0.0
220
0.0
230
1.0
 70
     8
 71
     3
 72
    12
 73
     8
 74
     0
 42
0.000000001
 43
0.00000001
 40
0.0
 40
0.0
 40
0.0
 40
0.0
 40
0.4999999999999998
 40
0.4999999999999998
 40
0.7499999999999999
 40
0.7499999999999999
 40
1.0
 40
1.0
 40
1.0
 40
1.0
 10
17.900790536761
 20
8.271765390036544
 30
0.0
 10
17.87529905248126
 20
8.638815369670647
 30
0.0
 10
17.85063873228918
 20
8.925921537448332
 30
0.0
 10
17.81617914920299
 20
9.231835345954556
 30
0.0
 10
17.80510951103489
 20
9.31323629252601
 30
0.0
 10
17.78394893305699
 20
9.436484080557896
 30
0.0
 10
17.77298970341984
 20
9.480007984529584
 30
0.0
 10
17.76155289725173
 20
9.503819012168652
 30
0.0
  0
SPLINE
  5
2ED
330
1F
100
AcDbEntity
  8
외형선
  6
Continuous
 62
     1
370
    15
100
AcDbSpline
210
0.0
220
0.0
230
1.0
 70
     8
 71
     3
 72
    12
 73
     8
 74
     0
 42
0.000000001
 43
0.00000001
 40
0.0
 40
0.0
 40
0.0
 40
0.0
 40
0.5000000000000003
 40
0.5000000000000003
 40
0.7500000000000001
 40
0.7500000000000001
 40
1.0
 40
1.0
 40
1.0
 40
1.0
 10
17.74477253945899
 20
8.249314968510774
 30
0.0
 10
17.71921711760799
 20
8.612289495968112
 30
0.0
 10
17.69452191299037
 20
8.89491777552036
 30
0.0
 10
17.66005702375988
 20
9.193970818167443
 30
0.0
 10
17.64904194026269
 20
9.272976967345224
 30
0.0
 10
17.6278063526463
 20
9.391826047217462
 30
0.0
 10
17.61669510956006
 20
9.433202069609454
 30
0.0
 10
17.60516367828685
 20
9.454619401065699
 30
0.0
  0
SPLINE
  5
2EF
330
1F
100
AcDbEntity
  8
외형선
  6
Continuous
 62
     1
370
    15
100
AcDbSpline
210
0.0
220
0.0
230
1.0
 70
     8
 71
     3
 72
    12
 73
     8
 74
     0
 42
0.000000001
 43
0.00000001
 40
0.0
 40
0.0
 40
0.0
 40
0.0
 40
0.4999999999999998
 40
0.4999999999999998
 40
0.7499999999999999
 40
0.7499999999999999
 40
1.0
 40
1.0
 40
1.0
 40
1.0
 10
17.11958557166832
 20
8.358123904420417
 30
0.0
 10
17.09417284815515
 20
8.705334479791299
 30
0.0
 10
17.06972630544245
 20
8.971024004595783
 30
0.0
 10
17.03574675574054
 20
9.245001471510898
 30
0.0
 10
17.02516344857112
 20
9.315387835253194
 30
0.0
 10
17.00349004797606
 20
9.419159057194104
 30
0.0
 10
16.9921716279744
 20
9.452494540485452
 30
0.0
 10
16.98045047951269
 20
9.465481069477486
 30
0.0
  0
SPLINE
  5
2F2
330
1F
100
AcDbEntity
  8
외형선
  6
Continuous
 62
     1
370
    15
100
AcDbSpline
210
0.0
220
0.0
230
1.0
 70
     8
 71
     3
 72
    12
 73
     8
 74
     0
 42
0.000000001
 43
0.00000001
 40
0.0
 40
0.0
 40
0.0
 40
0.0
 40
0.5000000000000002
 40
0.5000000000000002
 40
0.7500000000000001
 40
0.7500000000000001
 40
1.0
 40
1.0
 40
1.0
 40
1.0
 10
16.96302896980435
 20
8.435409194358314
 30
0.0
 10
16.93775564417239
 20
8.77873073372344
 30
0.0
 10
16.91347061223452
 20
9.040385689381278
 30
0.0
 10
16.8797399807308
 20
9.308659060189147
 30
0.0
 10
16.86926019990707
 20
9.37721238222876
 30
0.0
 10
16.84756688412554
 20
9.477640632208187
 30
0.0
 10
16.83624490370179
 20
9.509223911459447
 30
0.0
 10
16.82452698533807
 20
9.520412971175851
 30
0.0
  0
LINE
  5
2F4
330
1F
100
AcDbEntity
  8
외형선
  6
Continuous
 62
     1
370
    15
100
AcDbLine
 10
15.59421319141982
 20
9.468070231378073
 30
0.0
 11
15.58115558326243
 21
9.470252320170397
 31
0.0
  0
LINE
  5
2F6
330
1F
100
AcDbEntity
  8
외형선
  6
Continuous
 62
     1
370
    15
100
AcDbLine
 10
14.9839286841452
 20
9.451406076550478
 30
0.0
 11
14.9821014292538
 21
9.456505067646498
 31
0.0
  0
LINE
  5
2F8
330
1F
100
AcDbEntity
  8
외형선
  6
Continuous
 62
     1
370
    15
100
AcDbLine
 10
14.82383200526236
 20
9.507285431027407
 30
0.0
 11
14.81436185166238
 21
9.510302916169161
 31
0.0
  0
LINE
  5
2F9
330
1F
100
AcDbEntity
  8
외형선
  6
Continuous
 62
     1
370
    15
100
AcDbLine
 10
13.74216695874928
 20
9.516793303191657
 30
0.0
 11
13.73982794210313
 21
9.514503180980677
 31
0.0
  0
LINE
  5
2FF
330
1F
100
AcDbEntity
  8
외형선
  6
Continuous
 62
     1
370
    15
100
AcDbLine
 10
13.5848749577999
 20
9.45645105093717
 30
0.0
 11
13.58173686638473
 21
9.458334185183043
 31
0.0
  0
LINE
  5
302
330
1F
100
AcDbEntity
  8
외형선
  6
Continuous
 62
     1
370
    15
100
AcDbLine
 10
10.9782066810876
 20
9.458974935114378
 30
0.0
 11
10.97609956376253
 21
9.46374330669641
 31
0.0
  0
LINE
  5
307
330
1F
100
AcDbEntity
  8
외형선
  6
Continuous
 62
     1
370
    15
100
AcDbLine
 10
51.27500036358831
 20
-8.728666231036192
 30
0.0
 11
51.27500036358831
 21
-8.975000120699411
 31
0.0
  0
SPLINE
  5
308
330
1F
100
AcDbEntity
  8
외형선
  6
Continuous
370
    15
100
AcDbSpline
210
0.0
220
0.0
230
1.0
 70
    24
 71
     3
 72
    10
 73
     6
 74
     0
 42
0.000000001
 43
0.00000001
 40
0.0
 40
0.0
 40
0.0
 40
0.0
 40
0.4779773065098631
 40
0.962663642492828
 40
1.0
 40
1.0
 40
1.0
 40
1.0
 10
10.00000004749744
 20
-9.156724438071256
 30
0.0
 10
10.00000004749744
 20
-9.235059768052231
 30
0.0
 10
10.00000004749744
 20
-9.392829965650112
 30
0.0
 10
10.00000004749744
 20
-9.463718585098315
 30
0.0
 10
10.00000004749744
 20
-9.449279732891496
 30
0.0
 10
10.00000004749744
 20
-9.448247030377393
 30
0.0
  0
LINE
  5
309
330
1F
100
AcDbEntity
  8
외형선
  6
Continuous
 62
     1
370
    15
100
AcDbLine
 10
11.8126761317253
 20
-9.510045871138578
 30
0.0
 11
11.81077018007634
 21
-9.51046589761973
 31
0.0
  0
LINE
  5
30E
330
1F
100
AcDbEntity
  8
외형선
  6
Continuous
 62
     1
370
    15
100
AcDbLine
 10
12.58002702705561
 20
-9.464830160140997
 30
0.0
 11
12.57735343277453
 21
-9.459108114242559
 31
0.0
  0
LINE
  5
311
330
1F
100
AcDbEntity
  8
외형선
  6
Continuous
 62
     1
370
    15
100
AcDbLine
 10
12.73922963626681
 20
-9.518580511212354
 30
0.0
 11
12.73763614334164
 21
-9.520705789327627
 31
0.0
  0
LINE
  5
312
330
1F
100
AcDbEntity
  8
외형선
  6
Continuous
 62
     1
370
    15
100
AcDbLine
 10
13.81746857985853
 20
-9.516946040093904
 30
0.0
 11
13.81380475684999
 21
-9.51368641108275
 31
0.0
  0
LINE
  5
314
330
1F
100
AcDbEntity
  8
외형선
  6
Continuous
 62
     1
370
    15
100
AcDbLine
 10
13.97864559292792
 20
-9.457361884415155
 30
0.0
 11
13.9770320765674
 21
-9.45662427693606
 31
0.0
  0
LINE
  5
316
330
1F
100
AcDbEntity
  8
외형선
  6
Continuous
 62
     1
370
    15
100
AcDbLine
 10
14.74823096394537
 20
-9.508265182375913
 30
0.0
 11
14.74039062485097
 21
-9.510063566267496
 31
0.0
  0
LINE
  5
317
330
1F
100
AcDbEntity
  8
외형선
  6
Continuous
 62
     1
370
    15
100
AcDbLine
 10
10.17245176807044
 20
-2.107866108417517
 30
0.0
 11
10.15548132453112
 21
-2.113901544362313
 31
0.0
  0
SPLINE
  5
318
330
1F
100
AcDbEntity
  8
외형선
  6
Continuous
 62
     1
370
    15
100
AcDbSpline
210
0.0
220
0.0
230
1.0
 70
     8
 71
     3
 72
    11
 73
     7
 74
     0
 42
0.000000001
 43
0.00000001
 40
0.0
 40
0.0
 40
0.0
 40
0.0
 40
0.2559230103438516
 40
0.5118460414006991
 40
0.7677691104117279
 40
1.0
 40
1.0
 40
1.0
 40
1.0
 10
15.87563419342039
 20
8.611836470663542
 30
0.0
 10
15.86413499587555
 20
8.754661564827842
 30
0.0
 10
15.84113659985518
 20
9.040311764715916
 30
0.0
 10
15.80663904857541
 20
9.321389451399176
 30
0.0
 10
15.77320587837633
 20
9.496706067530688
 30
0.0
 10
15.75127233256232
 20
9.512421197338327
 30
0.0
 10
15.74083782359956
 20
9.51989740133285
 30
0.0
  0
SPLINE
  5
31A
330
1F
100
AcDbEntity
  8
외형선
  6
Continuous
 62
     1
370
    15
100
AcDbSpline
210
0.0
220
0.0
230
1.0
 70
     8
 71
     3
 72
    12
 73
     8
 74
     0
 42
0.000000001
 43
0.00000001
 40
0.0
 40
0.0
 40
0.0
 40
0.0
 40
0.1048577195171431
 40
0.4040653802591382
 40
0.6958643936861496
 40
0.9907320941712052
 40
1.0
 40
1.0
 40
1.0
 40
1.0
 10
15.71963999047874
 20
8.584223687648768
 30
0.0
 10
15.71502671591053
 20
8.640147401133396
 30
0.0
 10
15.69724963138849
 20
8.855647382047778
 30
0.0
 10
15.66733482742804
 20
9.148895461175426
 30
0.0
 10
15.63209861597925
 20
9.385623111813208
 30
0.0
 10
15.60766177790776
 20
9.466235679657258
 30
0.0
 10
15.59461089032322
 20
9.468015980382386
 30
0.0
 10
15.59421319141982
 20
9.468070231378075
 30
0.0
  0
SPLINE
  5
31C
330
1F
100
AcDbEntity
  8
외형선
  6
Continuous
 62
     1
370
    15
100
AcDbSpline
210
0.0
220
0.0
230
1.0
 70
     8
 71
     3
 72
    11
 73
     7
 74
     0
 42
0.000000001
 43
0.00000001
 40
0.0
 40
0.0
 40
0.0
 40
0.0
 40
0.0529330203952791
 40
0.3909301526000825
 40
0.7205581757393908
 40
1.0
 40
1.0
 40
1.0
 40
1.0
 10
15.09460007399319
 20
8.677338249981398
 30
0.0
 10
15.0925484960727
 20
8.701411636706144
 30
0.0
 10
15.07739682583856
 20
8.879202601129283
 30
0.0
 10
15.04989966820525
 20
9.145689059181043
 30
0.0
 10
15.01677473144757
 20
9.38457110701499
 30
0.0
 10
14.99425894729275
 20
9.430386109782349
 30
0.0
 10
14.9839286841452
 20
9.451406076550478
 30
0.0
  0
SPLINE
  5
31E
330
1F
100
AcDbEntity
  8
외형선
  6
Continuous
 62
     1
370
    15
100
AcDbSpline
210
0.0
220
0.0
230
1.0
 70
     8
 71
     3
 72
    11
 73
     7
 74
     0
 42
0.000000001
 43
0.00000001
 40
0.0
 40
0.0
 40
0.0
 40
0.0
 40
0.3016072006093751
 40
0.6032144380659558
 40
0.9048217049369672
 40
0.9999999999999999
 40
0.9999999999999999
 40
0.9999999999999999
 40
0.9999999999999999
 10
14.93807687982915
 20
8.752031251788134
 30
0.0
 10
14.92659118949891
 20
8.883277413532722
 30
0.0
 10
14.90361980743523
 20
9.145769753056173
 30
0.0
 10
14.86916272276854
 20
9.384820348643709
 30
0.0
 10
14.84256683673654
 20
9.508358602381449
 30
0.0
 10
14.82745655875881
 20
9.50749305323041
 30
0.0
 10
14.82383200526236
 20
9.507285431027407
 30
0.0
  0
SPLINE
  5
31F
330
1F
100
AcDbEntity
  8
외형선
  6
Continuous
 62
     1
370
    15
100
AcDbSpline
210
0.0
220
0.0
230
1.0
 70
     8
 71
     3
 72
    11
 73
     7
 74
     0
 42
0.000000001
 43
0.00000001
 40
0.0
 40
0.0
 40
0.0
 40
0.0
 40
0.3170347685779668
 40
0.6340694672957159
 40
0.9511041703603117
 40
1.0
 40
1.0
 40
1.0
 40
1.0
 10
13.85095474869011
 20
8.90075601637363
 30
0.0
 10
13.8394584364362
 20
9.01813697440794
 30
0.0
 10
13.81646581446165
 20
9.252898864611067
 30
0.0
 10
13.78197528371294
 20
9.445883178870044
 30
0.0
 10
13.75721100929057
 20
9.534717534562642
 30
0.0
 10
13.74394020991924
 20
9.518906042986174
 30
0.0
 10
13.74216695874928
 20
9.516793303191658
 30
0.0
  0
SPLINE
  5
322
330
1F
100
AcDbEntity
  8
외형선
  6
Continuous
 62
     1
370
    15
100
AcDbSpline
210
0.0
220
0.0
230
1.0
 70
     8
 71
     3
 72
    11
 73
     7
 74
     0
 42
0.000000001
 43
0.00000001
 40
0.0
 40
0.0
 40
0.0
 40
0.0
 40
0.0989517254016536
 40
0.4329452364849756
 40
0.7632056321256678
 40
1.0
 40
1.0
 40
1.0
 40
1.0
 10
13.69499733299015
 20
8.868095465004439
 30
0.0
 10
13.69124169125291
 20
8.906836595522478
 30
0.0
 10
13.67480956545131
 20
9.076341349944347
 30
0.0
 10
13.64691967173466
 20
9.297867341454738
 30
0.0
 10
13.61553402070623
 20
9.45851192331805
 30
0.0
 10
13.59390637070691
 20
9.457058133726271
 30
0.0
 10
13.5848749577999
 20
9.45645105093717
 30
0.0
  0
SPLINE
  5
324
330
1F
100
AcDbEntity
  8
외형선
  6
Continuous
 62
     1
370
    15
100
AcDbSpline
210
0.0
220
0.0
230
1.0
 70
     8
 71
     3
 72
    11
 73
     7
 74
     0
 42
0.000000001
 43
0.00000001
 40
0.0
 40
0.0
 40
0.0
 40
0.0
 40
0.0383155649572184
 40
0.4228055723000352
 40
0.8029980542828751
 40
1.0
 40
1.0
 40
1.0
 40
1.0
 10
13.07014600932597
 20
8.944997563958163
 30
0.0
 10
13.06889102917708
 20
8.957425204976643
 30
0.0
 10
13.05504254225882
 20
9.094562054688376
 30
0.0
 10
13.02951108087878
 20
9.296811324015923
 30
0.0
 10
13.00051690398201
 20
9.450748785374365
 30
0.0
 10
12.98143314233872
 20
9.451679032779351
 30
0.0
 10
12.97491967305539
 20
9.451996535062786
 30
0.0
  0
SPLINE
  5
326
330
1F
100
AcDbEntity
  8
외형선
  6
Continuous
 62
     1
370
    15
100
AcDbSpline
210
0.0
220
0.0
230
1.0
 70
     8
 71
     3
 72
    10
 73
     6
 74
     0
 42
0.000000001
 43
0.00000001
 40
0.0
 40
0.0
 40
0.0
 40
0.0
 40
0.3940434089476243
 40
0.7880868507035876
 40
1.0
 40
1.0
 40
1.0
 40
1.0
 10
11.8269626200199
 20
9.136083535850043
 30
0.0
 10
11.81537077989322
 20
9.225191265677948
 30
0.0
 10
11.79218709867472
 20
9.403406732752927
 30
0.0
 10
11.76276909807964
 20
9.518742146993048
 30
0.0
 10
11.74494313362203
 20
9.512183876937588
 30
0.0
 10
11.73870909586547
 20
9.509890340268607
 30
0.0
  0
SPLINE
  5
327
330
1F
100
AcDbEntity
  8
외형선
  6
Continuous
 62
     1
370
    15
100
AcDbSpline
210
0.0
220
0.0
230
1.0
 70
     8
 71
     3
 72
    10
 73
     6
 74
     0
 42
0.000000001
 43
0.00000001
 40
0.0
 40
0.0
 40
0.0
 40
0.0
 40
0.3442112395307651
 40
0.6884224345201064
 40
1.0
 40
1.0
 40
1.0
 40
1.0
 10
12.91368195414542
 20
9.016489610075945
 30
0.0
 10
12.9021535791332
 20
9.120478686998615
 30
0.0
 10
12.87909683060055
 20
9.328456827387619
 30
0.0
 10
12.8456046532565
 20
9.495393782209021
 30
0.0
 10
12.82364090790875
 20
9.511929936330565
 30
0.0
 10
12.81320551969109
 20
9.51978657394647
 30
0.0
  0
SPLINE
  5
32A
330
1F
100
AcDbEntity
  8
외형선
  6
Continuous
 62
     1
370
    15
100
AcDbSpline
210
0.0
220
0.0
230
1.0
 70
     8
 71
     3
 72
    11
 73
     7
 74
     0
 42
0.000000001
 43
0.00000001
 40
0.0
 40
0.0
 40
0.0
 40
0.0
 40
0.0899252760659744
 40
0.475097710383093
 40
0.86639004913879
 40
1.0
 40
1.0
 40
1.0
 40
1.0
 10
11.67105689272283
 20
9.098514914512629
 30
0.0
 10
11.66822035707492
 20
9.122374229131308
 30
0.0
 10
11.65323423025167
 20
9.24842895192502
 30
0.0
 10
11.62742819184047
 20
9.403911886896347
 30
0.0
 10
11.59888808158511
 20
9.49279791241538
 30
0.0
 10
11.58145424773064
 20
9.459566787548793
 30
0.0
 10
11.57701659575103
 20
9.451108053326601
 30
0.0
  0
SPLINE
  5
32C
330
1F
100
AcDbEntity
  8
외형선
  6
Continuous
 62
     1
370
    15
100
AcDbSpline
210
0.0
220
0.0
230
1.0
 70
     8
 71
     3
 72
    10
 73
     6
 74
     0
 42
0.000000001
 43
0.00000001
 40
0.0
 40
0.0
 40
0.0
 40
0.0
 40
0.0181167788731438
 40
0.5431769151533807
 40
1.0
 40
1.0
 40
1.0
 40
1.0
 10
11.0464453846216
 20
9.158720262348647
 30
0.0
 10
11.04602975768893
 20
9.162031092183625
 30
0.0
 10
11.03356843900076
 20
9.26129632851247
 30
0.0
 10
11.01190316192977
 20
9.408705240046165
 30
0.0
 10
10.98890610616336
 20
9.443013124785187
 30
0.0
 10
10.9782066810876
 20
9.45897493511438
 30
0.0
  0
SPLINE
  5
32E
330
1F
100
AcDbEntity
  8
외형선
  6
Continuous
 62
     1
370
    15
100
AcDbSpline
210
0.0
220
0.0
230
1.0
 70
     8
 71
     3
 72
    10
 73
     6
 74
     0
 42
0.000000001
 43
0.00000001
 40
0.0
 40
0.0
 40
0.0
 40
0.0
 40
0.4563418525776778
 40
0.9126837786836245
 40
0.9999999999999999
 40
0.9999999999999999
 40
0.9999999999999999
 40
0.9999999999999999
 10
10.89004989806561
 20
9.226621128618712
 30
0.0
 10
10.87838032890335
 20
9.302372681316728
 30
0.0
 10
10.85504118869856
 20
9.453875798918265
 30
0.0
 10
10.82946894768165
 20
9.534958422161747
 30
0.0
 10
10.81556655880636
 20
9.518228565901547
 30
0.0
 10
10.81333371438084
 20
9.515541605651373
 30
0.0
  0
SPLINE
  5
32F
330
1F
100
AcDbEntity
  8
외형선
  6
Continuous
 62
     1
370
    15
100
AcDbSpline
210
0.0
220
0.0
230
1.0
 70
     8
 71
     3
 72
     9
 73
     5
 74
     0
 42
0.000000001
 43
0.00000001
 40
0.0
 40
0.0
 40
0.0
 40
0.0
 40
0.3390209337177311
 40
1.0
 40
1.0
 40
1.0
 40
1.0
 10
10.57987338025121
 20
-9.45160817354918
 30
0.0
 10
10.57313475370298
 20
-9.451136050327733
 30
0.0
 10
10.55325802669875
 20
-9.449743442454622
 30
0.0
 10
10.53235635216861
 20
-9.336786910698716
 30
0.0
 10
10.51854078285395
 20
-9.262125007808214
 30
0.0
  0
SPLINE
  5
330
330
1F
100
AcDbEntity
  8
외형선
  6
Continuous
 62
     1
370
    15
100
AcDbSpline
210
0.0
220
0.0
230
1.0
 70
     8
 71
     3
 72
     9
 73
     5
 74
     0
 42
0.000000001
 43
0.00000001
 40
0.0
 40
0.0
 40
0.0
 40
0.0
 40
0.4442695934597724
 40
0.9999999999999999
 40
0.9999999999999999
 40
0.9999999999999999
 40
0.9999999999999999
 10
10.73817202448843
 20
-9.515252895653255
 30
0.0
 10
10.72883726349939
 20
-9.512553940315769
 30
0.0
 10
10.70782578504923
 20
-9.506478900796486
 30
0.0
 10
10.68681428240685
 20
-9.39153761406492
 30
0.0
 10
10.67513755150138
 20
-9.32766124606133
 30
0.0
  0
SPLINE
  5
331
330
1F
100
AcDbEntity
  8
외형선
  6
Continuous
 62
     1
370
    15
100
AcDbSpline
210
0.0
220
0.0
230
1.0
 70
     8
 71
     3
 72
     9
 73
     5
 74
     0
 42
0.000000001
 43
0.00000001
 40
0.0
 40
0.0
 40
0.0
 40
0.0
 40
0.2764523518384082
 40
1.0
 40
1.0
 40
1.0
 40
1.0
 10
11.81077018007634
 20
-9.51046589761973
 30
0.0
 10
11.80634321943265
 20
-9.513577814024309
 30
0.0
 10
11.79032975232248
 20
-9.52483442437284
 30
0.0
 10
11.77431614372128
 20
-9.452249420801335
 30
0.0
 10
11.76272953487931
 20
-9.399730712175375
 30
0.0
  0
SPLINE
  5
334
330
1F
100
AcDbEntity
  8
외형선
  6
Continuous
 62
     1
370
    15
100
AcDbSpline
210
0.0
220
0.0
230
1.0
 70
     8
 71
     3
 72
     9
 73
     5
 74
     0
 42
0.000000001
 43
0.00000001
 40
0.0
 40
0.0
 40
0.0
 40
0.0
 40
0.2557420342742677
 40
1.0
 40
1.0
 40
1.0
 40
1.0
 10
11.97600659541784
 20
-9.450763463974004
 30
0.0
 10
11.97131349997429
 20
-9.459320266979136
 30
0.0
 10
11.95296260409254
 20
-9.492778994362041
 30
0.0
 10
11.93334821385835
 20
-9.41368283426062
 30
0.0
 10
11.9187500476837
 20
-9.35481488704682
 30
0.0
  0
LINE
  5
336
330
1F
100
AcDbEntity
  8
외형선
  6
Continuous
 62
     1
370
    15
100
AcDbLine
 10
12.57735343277453
 20
-9.459108114242559
 30
0.0
 11
12.5439182538539
 21
-9.387544356286531
 31
0.0
  0
SPLINE
  5
339
330
1F
100
AcDbEntity
  8
외형선
  6
Continuous
 62
     1
370
    15
100
AcDbSpline
210
0.0
220
0.0
230
1.0
 70
     8
 71
     3
 72
     9
 73
     5
 74
     0
 42
0.000000001
 43
0.00000001
 40
0.0
 40
0.0
 40
0.0
 40
0.0
 40
0.068929240009765
 40
0.9999999999999999
 40
0.9999999999999999
 40
0.9999999999999999
 40
0.9999999999999999
 10
12.73763614334164
 20
-9.520705789327627
 30
0.0
 10
12.73678243138865
 20
-9.521947779354333
 30
0.0
 10
12.72439709313634
 20
-9.539966112742738
 30
0.0
 10
12.71201149785501
 20
-9.492763815714902
 30
0.0
 10
12.7004796322435
 20
-9.448815137147909
 30
0.0
  0
LINE
  5
33A
330
1F
100
AcDbEntity
  8
외형선
  6
Continuous
 62
     1
370
    15
100
AcDbLine
 10
13.81380475684999
 20
-9.51368641108275
 30
0.0
 11
13.78785159066318
 21
-9.490595199167734
 31
0.0
  0
LINE
  5
33C
330
1F
100
AcDbEntity
  8
외형선
  6
Continuous
 62
     1
370
    15
100
AcDbLine
 10
13.9770320765674
 20
-9.45662427693606
 30
0.0
 11
13.94384579360483
 21
-9.441456757485872
 31
0.0
  0
LINE
  5
33E
330
1F
100
AcDbEntity
  8
외형선
  6
Continuous
 62
     1
370
    15
100
AcDbLine
 10
14.58752613142131
 20
-9.455358609557157
 30
0.0
 11
14.56888431310652
 21
-9.456836618483072
 31
0.0
  0
LINE
  5
341
330
1F
100
AcDbEntity
  8
외형선
  6
Continuous
 62
     1
370
    15
100
AcDbLine
 10
14.74039062485097
 20
-9.510063566267496
 30
0.0
 11
14.72540424764155
 21
-9.513500146567827
 31
0.0
  0
LINE
  5
342
330
1F
100
AcDbEntity
  8
외형선
  6
Continuous
 62
     1
370
    15
100
AcDbLine
 10
15.8147969432175
 20
-9.521187283098703
 30
0.0
 11
15.81247515603898
 21
-9.524724446237093
 31
0.0
  0
LINE
  5
344
330
1F
100
AcDbEntity
  8
외형선
  6
Continuous
 62
     1
370
    15
100
AcDbLine
 10
15.97612063959239
 20
-9.457437321543699
 30
0.0
 11
15.96842558681963
 21
-9.471637196838861
 31
0.0
  0
LINE
  5
345
330
1F
100
AcDbEntity
  8
중심선
100
AcDbLine
 10
-53.32500000000001
 20
-0.0000000000000066
 30
0.0
 11
54.27499999999999
 21
0.0000000000000066
 31
0.0
  0
LINE
  5
346
330
1F
100
AcDbEntity
  8
참조1
100
AcDbLine
 10
0.474999999999989
 20
-0.3168705809327406
 30
0.0
 11
0.4749999999999942
 21
-40.31687058093274
 31
0.0
  0
LINE
  5
347
330
1F
100
AcDbEntity
  8
참조1
100
AcDbLine
 10
-19.72860765519648
 20
-9.524999999999999
 30
0.0
 11
48.41397268839599
 21
-9.524999999999999
 31
0.0
  0
LINE
  5
348
330
1F
100
AcDbEntity
  8
참조1
100
AcDbLine
 10
48.41397268839599
 20
-9.524999999999999
 30
0.0
 11
48.41397268839599
 21
-6.92724860617685
 31
0.0
  0
LINE
  5
349
330
1F
100
AcDbEntity
  8
참조1
100
AcDbLine
 10
0.4749999999999942
 20
-40.31687058093274
 30
0.0
 11
-24.19604980726571
 21
-40.31687058093274
 31
0.0
  0
CIRCLE
  5
34A
330
1F
100
AcDbEntity
  8
해칭선
100
AcDbCircle
 10
0.0
 20
0.0
 30
0.0
 40
3.000000000000005
  0
INSERT
  5
34B
330
1F
100
AcDbEntity
  8
0
  6
Continuous
 62
     7
100
AcDbBlockReference
 66
     1
  2
블럭10
 10
-13.46527293212522
 20
-52.36404488257666
 30
0.0
  0
ATTRIB
  5
34C
330
34B
100
AcDbEntity
  8
FORMAT
 62
     2
100
AcDbText
 10
-23.60690894426185
 20
-50.28867796974447
 30
0.0
 40
4.233333333333333
  1
EM662048 [ 4 FLUTE ]
 41
0.75
  7
SLDTEXTSTYLE0
 11
-23.60690894426185
 21
-52.40534463641114
 31
0.0
100
AcDbAttribute
  2
AUTOATTR0
 70
     0
 74
     1
  0
SEQEND
  5
34D
330
34B
100
AcDbEntity
  8
0
  6
Continuous
 62
     7
  0
HATCH
  5
34E
330
1F
100
AcDbEntity
  8
중심선
100
AcDbHatch
 10
0.0
 20
0.0
 30
0.0
210
0.0
220
0.0
230
1.0
  2
SOLID
 70
     1
 71
     0
 91
        1
 92
        0
 93
        4
 72
     1
 10
-7.750363627744381
 20
-36.11687058093273
 11
-11.19663887158166
 21
-36.11687058093273
 72
     1
 10
-11.19663887158166
 20
-36.11687058093273
 11
-13.32486873078569
 21
-38.65319616150533
 72
     1
 10
-13.32486873078569
 20
-38.65319616150533
 11
-9.878560401835255
 21
-38.65315673220284
 72
     1
 10
-9.878560401835255
 20
-38.65315673220284
 11
-7.750363627744381
 21
-36.11687058093273
 97
        0
 75
     0
 76
     1
 98
        1
 10
-0.0000000000000142
 20
-0.3168705809327371
  0
HATCH
  5
34F
330
1F
100
AcDbEntity
  8
중심선
100
AcDbHatch
 10
0.0
 20
0.0
 30
0.0
210
0.0
220
0.0
230
1.0
  2
SOLID
 70
     1
 71
     0
 91
        1
 92
        0
 93
        4
 72
     1
 10
-2.737599636708429
 20
-36.11687058093276
 11
-6.183874880545684
 21
-36.11687058093271
 72
     1
 10
-6.183874880545684
 20
-36.11687058093271
 11
-10.7150128889031
 21
-41.51687058093275
 72
     1
 10
-10.7150128889031
 20
-41.51687058093275
 11
-7.268737645065817
 21
-41.51687058093275
 72
     1
 10
-7.268737645065817
 20
-41.51687058093275
 11
-2.737599636708429
 21
-36.11687058093276
 97
        0
 75
     0
 76
     1
 98
        1
 10
-0.0000000000000142
 20
-0.3168705809327371
  0
HATCH
  5
350
330
1F
100
AcDbEntity
  8
중심선
100
AcDbHatch
 10
0.0
 20
0.0
 30
0.0
210
0.0
220
0.0
230
1.0
  2
SOLID
 70
     1
 71
     0
 91
        1
 92
        0
 93
        4
 72
     1
 10
2.275164354327494
 20
-36.11687058093271
 11
-1.17111088950965
 21
-36.11687058093273
 72
     1
 10
-1.17111088950965
 20
-36.11687058093273
 11
-8.219547791398899
 21
-44.51687058093275
 72
     1
 10
-8.219547791398899
 20
-44.51687058093275
 11
-4.773272547561616
 21
-44.51687058093275
 72
     1
 10
-4.773272547561616
 20
-44.51687058093275
 11
2.275164354327494
 21
-36.11687058093271
 97
        0
 75
     0
 76
     1
 98
        1
 10
-0.0000000000000142
 20
-0.3168705809327371
  0
HATCH
  5
351
330
1F
100
AcDbEntity
  8
중심선
100
AcDbHatch
 10
0.0
 20
0.0
 30
0.0
210
0.0
220
0.0
230
1.0
  2
SOLID
 70
     1
 71
     0
 91
        1
 92
        0
 93
        6
 72
     3
 10
7.075054785339665
 20
-40.31687058098401
 11
3.960054785062283
 21
1.540882976769353E-10
 40
0.3939339440162628
 50
17.09539180608436
 51
320.0019657685087
 73
     0
 72
     1
 10
8.758054441040262
 20
-38.90476458557107
 11
11.0633563147413
 21
-36.97043787552312
 72
     3
 10
7.075054785286818
 20
-40.31687058093289
 11
6.600054785286829
 21
-1.278976924368180E-13
 40
0.636358354079598
 50
39.99873849337411
 51
368.4976242363724
 73
     1
 72
     1
 10
13.50038727718743
 20
-39.35687058086275
 11
5.755122092122742
 21
-39.35687058086275
 72
     1
 10
5.755122092122742
 20
-39.35687058086275
 11
5.755097047676808
 21
-41.27687058086265
 72
     1
 10
5.755097047676808
 20
-41.27687058086265
 11
10.19647681714885
 21
-41.27687058086262
 97
        0
 75
     0
 76
     1
 98
        1
 10
-0.0000000000000142
 20
-0.3168705809327371
  0
POINT
  5
352
330
1F
100
AcDbEntity
  8
치수문자_일반주서
100
AcDbPoint
 10
-0.0000000000000038
 20
-0.3168705809327406
 30
0.0
  0
DIMENSION
  5
353
330
1F
100
AcDbEntity
  8
치수문자_일반주서
100
AcDbDimension
  2
_D
 10
66.30487997019134
 20
-9.524999999999935
 30
0.0
 11
66.3048799701913
 21
1.186166785118295
 31
0.0
 70
   160
  1
%%c<>
 71
     2
 42
19.05000000000016
 52
-270.0
  3
SLDDIMSTYLE0
100
AcDbAlignedDimension
 13
51.27499999999996
 23
9.525000000000166
 33
0.0
 14
51.27499999999996
 24
-9.524999999999991
 34
0.0
 50
90.0000000000002
100
AcDbRotatedDimension
1001
ACAD
1000
DSTYLE
1002
{
1070
   273
1070
     7
1002
}
  0
DIMENSION
  5
366
330
1F
100
AcDbEntity
  8
치수문자_일반주서
100
AcDbDimension
  2
_D_1
 10
-60.13500000000001
 20
-9.525000000000048
 30
0.0
 11
-60.13500000000003
 21
-1.526016521430924
 31
0.0
 70
   160
  1
%%c<>
 71
     2
 42
19.05000000000001
 52
-270.0
  3
SLDDIMSTYLE1
100
AcDbAlignedDimension
 13
-49.32500000000001
 23
9.525
 33
0.0
 14
-49.32500000000001
 24
-9.525000000000011
 34
0.0
 50
90.0000000000002
100
AcDbRotatedDimension
1001
ACAD
1000
DSTYLE
1002
{
1070
   273
1070
     7
1002
}
  0
DIMENSION
  5
37B
330
1F
100
AcDbEntity
  8
치수문자_일반주서
100
AcDbDimension
  2
_D_2
 10
9.999999999999979
 20
26.18826246161029
 30
0.0
 11
30.63749999999996
 21
26.18826246161029
 31
0.0
 70
   160
  1
<>
 71
     2
 42
41.27499999999998
  3
SLDDIMSTYLE0
100
AcDbAlignedDimension
 13
51.27499999999996
 23
9.525000000000166
 33
0.0
 14
9.999999999999977
 24
9.3018044556438
 34
0.0
 50
0.0000000000000345
100
AcDbRotatedDimension
1001
ACAD
1000
DSTYLE
1002
{
1070
   171
1070
     5
1070
   273
1070
     7
1002
}
  0
DIMENSION
  5
38F
330
1F
100
AcDbEntity
  8
치수문자_일반주서
100
AcDbDimension
  2
_D_3
 10
-50.32500000000002
 20
42.85792746260613
 30
0.0
 11
4.917058761115993
 21
42.85792746260613
 31
0.0
 70
   160
  1
<>
 71
     2
 42
101.6
  3
SLDDIMSTYLE2
100
AcDbAlignedDimension
 13
51.27499999999996
 23
9.525000000000166
 33
0.0
 14
-50.32500000000002
 24
8.52499999999999
 34
0.0
100
AcDbRotatedDimension
1001
ACAD
1000
DSTYLE
1002
{
1070
   273
1070
     7
1002
}
  0
LINE
  5
3A3
330
1F
100
AcDbEntity
  8
참조1
100
AcDbLine
 10
73.77629082238856
 20
7.123129419067265
 30
0.0
 11
73.77629082238856
 21
-7.756870580932739
 31
0.0
  0
LINE
  5
3A4
330
1F
100
AcDbEntity
  8
참조1
100
AcDbLine
 10
86.47629082238856
 20
5.123129419067265
 30
0.0
 11
73.77629082238856
 21
5.123129419067265
 31
0.0
  0
SOLID
  5
3A5
330
1F
100
AcDbEntity
  8
참조1
100
AcDbTrace
 10
73.77629082238856
 20
5.123129419067265
 30
0.0
 11
80.12629082238855
 21
4.107129419067265
 31
0.0
 12
80.12629082238855
 22
6.139129419067265
 32
0.0
 13
80.12629082238855
 23
6.139129419067265
 33
0.0
  0
LINE
  5
3A6
330
1F
100
AcDbEntity
  8
참조1
100
AcDbLine
 10
86.47629082238856
 20
-5.756870580932739
 30
0.0
 11
73.77629082238856
 21
-5.756870580932739
 31
0.0
  0
SOLID
  5
3A7
330
1F
100
AcDbEntity
  8
참조1
100
AcDbTrace
 10
73.77629082238856
 20
-5.756870580932739
 30
0.0
 11
80.12629082238855
 21
-6.772870580932739
 31
0.0
 12
80.12629082238855
 22
-4.740870580932739
 32
0.0
 13
80.12629082238855
 23
-4.740870580932739
 33
0.0
  0
MTEXT
  5
3A8
330
1F
100
AcDbEntity
  8
참조1
100
AcDbMText
 10
83.37640563295112
 20
10.74884698508334
 30
0.0
 40
3.5
 41
0.0
 71
     1
 72
     1
  1
A
  7
SLDTEXTSTYLE0
 73
     1
 44
1.0
  0
MTEXT
  5
3A9
330
1F
100
AcDbEntity
  8
참조1
100
AcDbMText
 10
83.37640563295112
 20
-0.1311530149166635
 30
0.0
 40
3.5
 41
0.0
 71
     1
 72
     1
  1
A
  7
SLDTEXTSTYLE0
 73
     1
 44
1.0
  0
INSERT
  5
3B0
330
1F
100
AcDbEntity
  8
해칭선
100
AcDbBlockReference
  2
SW_DOWELSYMBOL_0
 10
0.0
 20
0.0
 30
0.0
  0
ARC
  5
3FC
330
1F
100
AcDbEntity
  8
외형선
  6
Continuous
 62
     1
370
    15
100
AcDbCircle
 10
41.74999999999998
 20
0.0000000000000051
 30
0.0
 40
9.525
100
AcDbArc
 50
269.9999999999999
 51
90.00000000000009
  0
SPLINE
  5
3FD
330
1F
100
AcDbEntity
  8
외형선
  6
Continuous
 62
     1
370
    15
100
AcDbSpline
210
0.0
220
0.0
230
1.0
 70
     8
 71
     3
 72
     9
 73
     5
 74
     0
 42
0.000000001
 43
0.0000000001
 40
1.191478163007637
 40
1.191478163007637
 40
1.191478163007637
 40
1.191478163007637
 40
2.199675475101952
 40
7.967031747630242
 40
7.967031747630242
 40
7.967031747630242
 40
7.967031747630242
 10
44.66346737080404
 20
4.364212423238953
 30
0.0
 10
44.94145840996241
 20
4.563119269202826
 30
0.0
 10
46.47977310262249
 20
5.944427093552922
 30
0.0
 10
43.92479730634382
 20
7.878616517504655
 30
0.0
 10
41.74999999999996
 20
9.525000000000164
 30
0.0
  0
SPLINE
  5
3FE
330
1F
100
AcDbEntity
  8
외형선
  6
Continuous
 62
     1
370
    15
100
AcDbSpline
210
0.0
220
0.0
230
1.0
 70
     8
 71
     3
 72
     9
 73
     5
 74
     3
 42
0.000000001
 43
0.0000000001
 44
0.0
 40
0.0
 40
0.0
 40
0.0
 40
0.0
 40
2.012779382270395
 40
9.955836327210296
 40
9.955836327210296
 40
9.955836327210296
 40
9.955836327210296
 10
43.64580377471222
 20
-8.290346989110363
 30
0.0
 10
44.33730923438085
 20
-8.260127693643067
 30
0.0
 10
47.75771150820952
 20
-8.110653607090846
 30
0.0
 10
49.35569188160301
 20
-4.644976796880034
 30
0.0
 10
50.63060728655699
 20
-1.879958635520227
 30
0.0
 11
43.64580377471222
 21
-8.290346989110363
 31
0.0
 11
45.64583224532282
 21
-8.064145843136673
 31
0.0
 11
50.63060728655699
 21
-1.879958635520227
 31
0.0
  0
ENDSEC
  0
SECTION
  2
OBJECTS
  0
DICTIONARY
  5
C
330
0
100
AcDbDictionary
281
     1
  3
ACAD_GROUP
350
D
  3
ACAD_IMAGE_VARS
350
3D4
  3
ACAD_LAYOUT
350
1A
  3
ACAD_MLINESTYLE
350
17
  3
ACAD_PLOTSETTINGS
350
19
  3
ACAD_PLOTSTYLENAME
350
E
  3
ACAD_SCALELIST
350
47
  3
APPDATA
350
3D2
  3
DWGPROPS
350
3FF
  0
DICTIONARY
  5
D
102
{ACAD_REACTORS
330
C
102
}
330
C
100
AcDbDictionary
281
     1
  0
RASTERVARIABLES
  5
3D4
102
{ACAD_REACTORS
330
C
102
}
330
C
100
AcDbRasterVariables
 90
        0
 70
     1
 71
     1
 72
     1
  0
DICTIONARY
  5
1A
102
{ACAD_REACTORS
330
C
102
}
330
C
100
AcDbDictionary
281
     1
  3
Layout1
350
1E
  3
Layout2
350
26
  3
Model
350
22
  0
DICTIONARY
  5
17
102
{ACAD_REACTORS
330
C
102
}
330
C
100
AcDbDictionary
281
     1
  3
Standard
350
18
  0
DICTIONARY
  5
19
102
{ACAD_REACTORS
330
C
102
}
330
C
100
AcDbDictionary
281
     1
  0
ACDBDICTIONARYWDFLT
  5
E
102
{ACAD_REACTORS
330
C
102
}
330
C
100
AcDbDictionary
281
     1
  3
Normal
350
F
100
AcDbDictionaryWithDefault
340
F
  0
DICTIONARY
  5
47
102
{ACAD_REACTORS
330
C
102
}
330
C
100
AcDbDictionary
281
     1
  3
A0
350
48
  3
A1
350
49
  3
A2
350
4A
  3
A3
350
4B
  3
A4
350
4C
  3
A5
350
4D
  3
A6
350
4E
  3
A7
350
4F
  3
A8
350
50
  3
A9
350
51
  3
B0
350
52
  3
B1
350
53
  3
B2
350
54
  3
B3
350
55
  3
B4
350
56
  3
B5
350
57
  3
B6
350
58
  3
B7
350
59
  3
B8
350
5A
  3
B9
350
5B
  3
C0
350
5C
  3
C1
350
5D
  3
C2
350
5E
  3
C3
350
5F
  3
C4
350
60
  3
C5
350
61
  3
C6
350
62
  3
C7
350
63
  3
C8
350
64
  3
C9
350
65
  3
D0
350
66
  3
D1
350
67
  3
D2
350
68
  0
DICTIONARY
  5
3D2
102
{ACAD_REACTORS
330
C
102
}
330
C
100
AcDbDictionary
281
     1
  0
XRECORD
  5
3FF
102
{ACAD_REACTORS
330
C
102
}
330
C
100
AcDbXrecord
280
     1
  1
DWGPROPS COOKIE
  2

  3

  4

  6

  7

  8
12015048
  9

300
=
301
=
302
=
303
=
304
=
305
=
306
=
307
=
308
=
309
=
 40
0.0
 41
2458298.977169433
 42
2458304.008634549
  1

 90
        0
  0
LAYOUT
  5
1E
102
{ACAD_REACTORS
330
1A
102
}
330
1A
100
AcDbPlotSettings
  1

  2
none_device
  4

  6

 40
0.0
 41
0.0
 42
0.0
 43
0.0
 44
0.0
 45
0.0
 46
0.0
 47
0.0
 48
0.0
 49
0.0
140
0.0
141
0.0
142
1.0
143
1.0
 70
   688
 72
     1
 73
     0
 74
     5
  7

 75
    16
147
1.0
148
0.0
149
0.0
100
AcDbLayout
  1
Layout1
 70
     1
 71
     1
 10
0.0
 20
0.0
 11
420.0
 21
297.0
 12
0.0
 22
0.0
 32
0.0
 14
1.000000000000000E+20
 24
1.000000000000000E+20
 34
1.000000000000000E+20
 15
-1.000000000000000E+20
 25
-1.000000000000000E+20
 35
-1.000000000000000E+20
146
0.0
 13
0.0
 23
0.0
 33
0.0
 16
1.0
 26
0.0
 36
0.0
 17
0.0
 27
1.0
 37
0.0
 76
     0
330
1B
  0
LAYOUT
  5
26
102
{ACAD_REACTORS
330
1A
102
}
330
1A
100
AcDbPlotSettings
  1

  2
none_device
  4

  6

 40
0.0
 41
0.0
 42
0.0
 43
0.0
 44
0.0
 45
0.0
 46
0.0
 47
0.0
 48
0.0
 49
0.0
140
0.0
141
0.0
142
1.0
143
1.0
 70
   688
 72
     1
 73
     0
 74
     5
  7

 75
    16
147
1.0
148
0.0
149
0.0
100
AcDbLayout
  1
Layout2
 70
     1
 71
     2
 10
0.0
 20
0.0
 11
0.0
 21
0.0
 12
0.0
 22
0.0
 32
0.0
 14
0.0
 24
0.0
 34
0.0
 15
0.0
 25
0.0
 35
0.0
146
0.0
 13
0.0
 23
0.0
 33
0.0
 16
1.0
 26
0.0
 36
0.0
 17
0.0
 27
1.0
 37
0.0
 76
     0
330
23
  0
LAYOUT
  5
22
102
{ACAD_REACTORS
330
1A
102
}
330
1A
100
AcDbPlotSettings
  1

  2
none_device
  4
ANSI_A_(11.00_x_8.50_Inches)
  6

 40
6.35
 41
19.05
 42
6.35000508
 43
19.05000254
 44
279.4
 45
215.9
 46
102.6740312265856
 47
86.43275272943815
 48
0.0
 49
0.0
140
0.0
141
0.0
142
0.0597407492151518
143
1.0
 70
  1696
 72
     0
 73
     0
 74
     0
  7

 75
     0
147
0.0235690232323232
148
0.0
149
0.0
100
AcDbLayout
  1
Model
 70
     1
 71
     0
 10
0.0
 20
0.0
 11
420.0
 21
297.0
 12
0.0
 22
0.0
 32
0.0
 14
-64.51000000000008
 24
-50.28867796974448
 34
0.0
 15
86.47629082238856
 25
47.23292746260613
 35
0.0
146
0.0
 13
0.0
 23
0.0
 33
0.0
 16
1.0
 26
0.0
 36
0.0
 17
0.0
 27
1.0
 37
0.0
 76
     0
330
1F
331
29
  0
MLINESTYLE
  5
18
102
{ACAD_REACTORS
330
17
102
}
330
17
100
AcDbMlineStyle
  2
Standard
 70
     0
  3

 62
   256
 51
90.0
 52
90.0
 71
     2
 49
0.5
 62
   256
  6
BYLAYER
 49
-0.5
 62
   256
  6
BYLAYER
  0
ACDBPLACEHOLDER
  5
F
102
{ACAD_REACTORS
330
E
102
}
330
E
  0
SCALE
  5
48
102
{ACAD_REACTORS
330
47
102
}
330
47
100
AcDbScale
 70
     0
300
1:1
140
1.0
141
1.0
290
     1
  0
SCALE
  5
49
102
{ACAD_REACTORS
330
47
102
}
330
47
100
AcDbScale
 70
     0
300
1:2
140
1.0
141
2.0
290
     0
  0
SCALE
  5
4A
102
{ACAD_REACTORS
330
47
102
}
330
47
100
AcDbScale
 70
     0
300
1:4
140
1.0
141
4.0
290
     0
  0
SCALE
  5
4B
102
{ACAD_REACTORS
330
47
102
}
330
47
100
AcDbScale
 70
     0
300
1:5
140
1.0
141
5.0
290
     0
  0
SCALE
  5
4C
102
{ACAD_REACTORS
330
47
102
}
330
47
100
AcDbScale
 70
     0
300
1:8
140
1.0
141
8.0
290
     0
  0
SCALE
  5
4D
102
{ACAD_REACTORS
330
47
102
}
330
47
100
AcDbScale
 70
     0
300
1:10
140
1.0
141
10.0
290
     0
  0
SCALE
  5
4E
102
{ACAD_REACTORS
330
47
102
}
330
47
100
AcDbScale
 70
     0
300
1:16
140
1.0
141
16.0
290
     0
  0
SCALE
  5
4F
102
{ACAD_REACTORS
330
47
102
}
330
47
100
AcDbScale
 70
     0
300
1:20
140
1.0
141
20.0
290
     0
  0
SCALE
  5
50
102
{ACAD_REACTORS
330
47
102
}
330
47
100
AcDbScale
 70
     0
300
1:30
140
1.0
141
30.0
290
     0
  0
SCALE
  5
51
102
{ACAD_REACTORS
330
47
102
}
330
47
100
AcDbScale
 70
     0
300
1:40
140
1.0
141
40.0
290
     0
  0
SCALE
  5
52
102
{ACAD_REACTORS
330
47
102
}
330
47
100
AcDbScale
 70
     0
300
1:50
140
1.0
141
50.0
290
     0
  0
SCALE
  5
53
102
{ACAD_REACTORS
330
47
102
}
330
47
100
AcDbScale
 70
     0
300
1:100
140
1.0
141
100.0
290
     0
  0
SCALE
  5
54
102
{ACAD_REACTORS
330
47
102
}
330
47
100
AcDbScale
 70
     0
300
2:1
140
2.0
141
1.0
290
     0
  0
SCALE
  5
55
102
{ACAD_REACTORS
330
47
102
}
330
47
100
AcDbScale
 70
     0
300
4:1
140
4.0
141
1.0
290
     0
  0
SCALE
  5
56
102
{ACAD_REACTORS
330
47
102
}
330
47
100
AcDbScale
 70
     0
300
8:1
140
8.0
141
1.0
290
     0
  0
SCALE
  5
57
102
{ACAD_REACTORS
330
47
102
}
330
47
100
AcDbScale
 70
     0
300
10:1
140
10.0
141
1.0
290
     0
  0
SCALE
  5
58
102
{ACAD_REACTORS
330
47
102
}
330
47
100
AcDbScale
 70
     0
300
100:1
140
100.0
141
1.0
290
     0
  0
SCALE
  5
59
102
{ACAD_REACTORS
330
47
102
}
330
47
100
AcDbScale
 70
     0
300
1/128" = 1'-0"
140
0.0078125
141
12.0
290
     0
  0
SCALE
  5
5A
102
{ACAD_REACTORS
330
47
102
}
330
47
100
AcDbScale
 70
     0
300
1/64" = 1'-0"
140
0.015625
141
12.0
290
     0
  0
SCALE
  5
5B
102
{ACAD_REACTORS
330
47
102
}
330
47
100
AcDbScale
 70
     0
300
1/32" = 1'-0"
140
0.03125
141
12.0
290
     0
  0
SCALE
  5
5C
102
{ACAD_REACTORS
330
47
102
}
330
47
100
AcDbScale
 70
     0
300
1/16" = 1'-0"
140
0.0625
141
12.0
290
     0
  0
SCALE
  5
5D
102
{ACAD_REACTORS
330
47
102
}
330
47
100
AcDbScale
 70
     0
300
3/32" = 1'-0"
140
0.09375
141
12.0
290
     0
  0
SCALE
  5
5E
102
{ACAD_REACTORS
330
47
102
}
330
47
100
AcDbScale
 70
     0
300
1/8" = 1'-0"
140
0.125
141
12.0
290
     0
  0
SCALE
  5
5F
102
{ACAD_REACTORS
330
47
102
}
330
47
100
AcDbScale
 70
     0
300
3/16" = 1'-0"
140
0.1875
141
12.0
290
     0
  0
SCALE
  5
60
102
{ACAD_REACTORS
330
47
102
}
330
47
100
AcDbScale
 70
     0
300
1/4" = 1'-0"
140
0.25
141
12.0
290
     0
  0
SCALE
  5
61
102
{ACAD_REACTORS
330
47
102
}
330
47
100
AcDbScale
 70
     0
300
3/8" = 1'-0"
140
0.375
141
12.0
290
     0
  0
SCALE
  5
62
102
{ACAD_REACTORS
330
47
102
}
330
47
100
AcDbScale
 70
     0
300
1/2" = 1'-0"
140
0.5
141
12.0
290
     0
  0
SCALE
  5
63
102
{ACAD_REACTORS
330
47
102
}
330
47
100
AcDbScale
 70
     0
300
3/4" = 1'-0"
140
0.75
141
12.0
290
     0
  0
SCALE
  5
64
102
{ACAD_REACTORS
330
47
102
}
330
47
100
AcDbScale
 70
     0
300
1" = 1'-0"
140
1.0
141
12.0
290
     0
  0
SCALE
  5
65
102
{ACAD_REACTORS
330
47
102
}
330
47
100
AcDbScale
 70
     0
300
1-1/2" = 1'-0"
140
1.5
141
12.0
290
     0
  0
SCALE
  5
66
102
{ACAD_REACTORS
330
47
102
}
330
47
100
AcDbScale
 70
     0
300
3" = 1'-0"
140
3.0
141
12.0
290
     0
  0
SCALE
  5
67
102
{ACAD_REACTORS
330
47
102
}
330
47
100
AcDbScale
 70
     0
300
6" = 1'-0"
140
6.0
141
12.0
290
     0
  0
SCALE
  5
68
102
{ACAD_REACTORS
330
47
102
}
330
47
100
AcDbScale
 70
     0
300
1'-0" = 1'-0"
140
12.0
141
12.0
290
     0
  0
ENDSEC
  0
EOF
