  0
SECTION
  2
HEADER
  9
$ACADVER
  1
AC1015
  9
$ACADMAINTVER
 70
     6
  9
$DWGCODEPAGE
  3
ANSI_949
  9
$INSBASE
 10
0.0
 20
0.0
 30
0.0
  9
$EXTMIN
 10
1.000000000000000E+20
 20
1.000000000000000E+20
 30
1.000000000000000E+20
  9
$EXTMAX
 10
-1.000000000000000E+20
 20
-1.000000000000000E+20
 30
-1.000000000000000E+20
  9
$LIMMIN
 10
0.0
 20
0.0
  9
$LIMMAX
 10
420.0
 20
297.0
  9
$ORTHOMODE
 70
     0
  9
$REGENMODE
 70
     1
  9
$FILLMODE
 70
     1
  9
$QTEXTMODE
 70
     0
  9
$MIRRTEXT
 70
     1
  9
$LTSCALE
 40
1.0
  9
$ATTMODE
 70
     1
  9
$TEXTSIZE
 40
3.5
  9
$TRACEWID
 40
1.0
  9
$TEXTSTYLE
  7
Standard
  9
$CLAYER
  8
0
  9
$CELTYPE
  6
ByLayer
  9
$CECOLOR
 62
   256
  9
$CELTSCALE
 40
1.0
  9
$DISPSILH
 70
     0
  9
$DIMSCALE
 40
1.0
  9
$DIMASZ
 40
3.302
  9
$DIMEXO
 40
1.0
  9
$DIMDLI
 40
3.75
  9
$DIMRND
 40
0.0
  9
$DIMDLE
 40
0.0
  9
$DIMEXE
 40
1.0
  9
$DIMTP
 40
0.0
  9
$DIMTM
 40
0.0
  9
$DIMTXT
 40
3.5
  9
$DIMCEN
 40
2.5
  9
$DIMTSZ
 40
0.0
  9
$DIMTOL
 70
     0
  9
$DIMLIM
 70
     0
  9
$DIMTIH
 70
     1
  9
$DIMTOH
 70
     1
  9
$DIMSE1
 70
     0
  9
$DIMSE2
 70
     0
  9
$DIMTAD
 70
     1
  9
$DIMZIN
 70
     0
  9
$DIMBLK
  1

  9
$DIMASO
 70
     1
  9
$DIMSHO
 70
     1
  9
$DIMPOST
  1

  9
$DIMAPOST
  1

  9
$DIMALT
 70
     0
  9
$DIMALTD
 70
     3
  9
$DIMALTF
 40
0.0393700787401575
  9
$DIMLFAC
 40
1.0
  9
$DIMTOFL
 70
     1
  9
$DIMTVP
 40
0.0
  9
$DIMTIX
 70
     0
  9
$DIMSOXD
 70
     0
  9
$DIMSAH
 70
     0
  9
$DIMBLK1
  1

  9
$DIMBLK2
  1

  9
$DIMSTYLE
  2
ISO-25
  9
$DIMCLRD
 70
     0
  9
$DIMCLRE
 70
     0
  9
$DIMCLRT
 70
     0
  9
$DIMTFAC
 40
1.0
  9
$DIMGAP
 40
1.524
  9
$DIMJUST
 70
     0
  9
$DIMSD1
 70
     0
  9
$DIMSD2
 70
     0
  9
$DIMTOLJ
 70
     0
  9
$DIMTZIN
 70
     0
  9
$DIMALTZ
 70
     0
  9
$DIMALTTZ
 70
     0
  9
$DIMUPT
 70
     0
  9
$DIMDEC
 70
     2
  9
$DIMTDEC
 70
     2
  9
$DIMALTU
 70
     2
  9
$DIMALTTD
 70
     3
  9
$DIMTXSTY
  7
Standard
  9
$DIMAUNIT
 70
     0
  9
$DIMADEC
 70
     2
  9
$DIMALTRND
 40
0.0
  9
$DIMAZIN
 70
     0
  9
$DIMDSEP
 70
    44
  9
$DIMATFIT
 70
     3
  9
$DIMFRAC
 70
     0
  9
$DIMLDRBLK
  1

  9
$DIMLUNIT
 70
     2
  9
$DIMLWD
 70
    -2
  9
$DIMLWE
 70
    -2
  9
$DIMTMOVE
 70
     0
  9
$LUNITS
 70
     2
  9
$LUPREC
 70
     2
  9
$SKETCHINC
 40
1.0
  9
$FILLETRAD
 40
10.0
  9
$AUNITS
 70
     0
  9
$AUPREC
 70
     2
  9
$MENU
  1
.
  9
$ELEVATION
 40
0.0
  9
$PELEVATION
 40
0.0
  9
$THICKNESS
 40
0.0
  9
$LIMCHECK
 70
     0
  9
$CHAMFERA
 40
0.0
  9
$CHAMFERB
 40
0.0
  9
$CHAMFERC
 40
0.0
  9
$CHAMFERD
 40
0.0
  9
$SKPOLY
 70
     0
  9
$TDCREATE
 40
2458299.370365683
  9
$TDUCREATE
 40
2458298.995365683
  9
$TDUPDATE
 40
2458302.73756471
  9
$TDUUPDATE
 40
2458302.36256471
  9
$TDINDWG
 40
0.0005936921
  9
$TDUSRTIMER
 40
2458302.361971308
  9
$USRTIMER
 70
     1
  9
$ANGBASE
 50
0.0
  9
$ANGDIR
 70
     0
  9
$PDMODE
 70
     0
  9
$PDSIZE
 40
-1.0
  9
$PLINEWID
 40
0.0
  9
$SPLFRAME
 70
     0
  9
$SPLINETYPE
 70
     6
  9
$SPLINESEGS
 70
     8
  9
$HANDSEED
  5
1AA
  9
$SURFTAB1
 70
     6
  9
$SURFTAB2
 70
     6
  9
$SURFTYPE
 70
     6
  9
$SURFU
 70
     6
  9
$SURFV
 70
     6
  9
$UCSBASE
  2

  9
$UCSNAME
  2

  9
$UCSORG
 10
0.0
 20
0.0
 30
0.0
  9
$UCSXDIR
 10
1.0
 20
0.0
 30
0.0
  9
$UCSYDIR
 10
0.0
 20
1.0
 30
0.0
  9
$UCSORTHOREF
  2

  9
$UCSORTHOVIEW
 70
     0
  9
$UCSORGTOP
 10
0.0
 20
0.0
 30
0.0
  9
$UCSORGBOTTOM
 10
0.0
 20
0.0
 30
0.0
  9
$UCSORGLEFT
 10
0.0
 20
0.0
 30
0.0
  9
$UCSORGRIGHT
 10
0.0
 20
0.0
 30
0.0
  9
$UCSORGFRONT
 10
0.0
 20
0.0
 30
0.0
  9
$UCSORGBACK
 10
0.0
 20
0.0
 30
0.0
  9
$PUCSBASE
  2

  9
$PUCSNAME
  2

  9
$PUCSORG
 10
0.0
 20
0.0
 30
0.0
  9
$PUCSXDIR
 10
1.0
 20
0.0
 30
0.0
  9
$PUCSYDIR
 10
0.0
 20
1.0
 30
0.0
  9
$PUCSORTHOREF
  2

  9
$PUCSORTHOVIEW
 70
     0
  9
$PUCSORGTOP
 10
0.0
 20
0.0
 30
0.0
  9
$PUCSORGBOTTOM
 10
0.0
 20
0.0
 30
0.0
  9
$PUCSORGLEFT
 10
0.0
 20
0.0
 30
0.0
  9
$PUCSORGRIGHT
 10
0.0
 20
0.0
 30
0.0
  9
$PUCSORGFRONT
 10
0.0
 20
0.0
 30
0.0
  9
$PUCSORGBACK
 10
0.0
 20
0.0
 30
0.0
  9
$USERI1
 70
     0
  9
$USERI2
 70
     0
  9
$USERI3
 70
     0
  9
$USERI4
 70
     0
  9
$USERI5
 70
     0
  9
$USERR1
 40
0.0
  9
$USERR2
 40
0.0
  9
$USERR3
 40
0.0
  9
$USERR4
 40
0.0
  9
$USERR5
 40
0.0
  9
$WORLDVIEW
 70
     1
  9
$SHADEDGE
 70
     3
  9
$SHADEDIF
 70
    70
  9
$TILEMODE
 70
     1
  9
$MAXACTVP
 70
    64
  9
$PINSBASE
 10
0.0
 20
0.0
 30
0.0
  9
$PLIMCHECK
 70
     0
  9
$PEXTMIN
 10
1.000000000000000E+20
 20
1.000000000000000E+20
 30
1.000000000000000E+20
  9
$PEXTMAX
 10
-1.000000000000000E+20
 20
-1.000000000000000E+20
 30
-1.000000000000000E+20
  9
$PLIMMIN
 10
0.0
 20
0.0
  9
$PLIMMAX
 10
0.0
 20
0.0
  9
$UNITMODE
 70
     0
  9
$VISRETAIN
 70
     1
  9
$PLINEGEN
 70
     0
  9
$PSLTSCALE
 70
     1
  9
$TREEDEPTH
 70
  3020
  9
$CMLSTYLE
  2
Standard
  9
$CMLJUST
 70
     0
  9
$CMLSCALE
 40
20.0
  9
$PROXYGRAPHICS
 70
     1
  9
$MEASUREMENT
 70
     1
  9
$CELWEIGHT
370
    -1
  9
$ENDCAPS
280
     0
  9
$JOINSTYLE
280
     0
  9
$LWDISPLAY
290
     1
  9
$INSUNITS
 70
     4
  9
$HYPERLINKBASE
  1

  9
$STYLESHEET
  1

  9
$XEDIT
290
     1
  9
$CEPSNTYPE
380
     0
  9
$PSTYLEMODE
290
     1
  9
$FINGERPRINTGUID
  2
{6BBB4317-AC66-464F-9895-C2A993DADE58}
  9
$VERSIONGUID
  2
{FAEB1C32-E019-11D5-929B-00C0DF256EC4}
  9
$EXTNAMES
290
     1
  9
$PSVPSCALE
 40
0.0
  9
$OLESTARTUP
290
     0
  0
ENDSEC
  0
SECTION
  2
CLASSES
  0
CLASS
  1
ACDBDICTIONARYWDFLT
  2
AcDbDictionaryWithDefault
  3
ObjectDBX Classes
 90
        0
280
     0
281
     0
  0
CLASS
  1
VISUALSTYLE
  2
AcDbVisualStyle
  3
ObjectDBX Classes
 90
     4095
280
     0
281
     0
  0
CLASS
  1
MATERIAL
  2
AcDbMaterial
  3
ObjectDBX Classes
 90
     1153
280
     0
281
     0
  0
CLASS
  1
SCALE
  2
AcDbScale
  3
ObjectDBX Classes
 90
     1153
280
     0
281
     0
  0
CLASS
  1
SUN
  2
AcDbSun
  3
SCENEOE
 90
     1153
280
     0
281
     0
  0
CLASS
  1
ACDBPLACEHOLDER
  2
AcDbPlaceHolder
  3
ObjectDBX Classes
 90
        0
280
     0
281
     0
  0
CLASS
  1
LAYOUT
  2
AcDbLayout
  3
ObjectDBX Classes
 90
        0
280
     0
281
     0
  0
CLASS
  1
TABLESTYLE
  2
AcDbTableStyle
  3
ObjectDBX Classes
 90
     4095
280
     0
281
     0
  0
CLASS
  1
MLEADERSTYLE
  2
AcDbMLeaderStyle
  3
ACDB_MLEADERSTYLE_CLASS
 90
     4095
280
     0
281
     0
  0
CLASS
  1
RASTERVARIABLES
  2
AcDbRasterVariables
  3
ISM
 90
        0
280
     0
281
     0
  0
ENDSEC
  0
SECTION
  2
TABLES
  0
TABLE
  2
VPORT
  5
8
330
0
100
AcDbSymbolTable
 70
     1
  0
VPORT
  5
29
330
8
100
AcDbSymbolTableRecord
100
AcDbViewportTableRecord
  2
*Active
 70
     0
 10
0.0
 20
0.0
 11
1.0
 21
1.0
 12
24.78727992467869
 22
11.24989413879672
 13
0.0
 23
0.0
 14
10.0
 24
10.0
 15
10.0
 25
10.0
 16
0.0
 26
0.0
 36
1.0
 17
0.0
 27
0.0
 37
0.0
 40
45.54675219227023
 41
1.31452581032413
 42
50.0
 43
0.0
 44
0.0
 50
0.0
 51
0.0
 71
    16
 72
  2000
 73
     1
 74
     3
 75
     0
 76
     0
 77
     0
 78
     0
281
     0
 65
     1
110
0.0
120
0.0
130
0.0
111
1.0
121
0.0
131
0.0
112
0.0
122
1.0
132
0.0
 79
     0
146
0.0
  0
ENDTAB
  0
TABLE
  2
LTYPE
  5
5
330
0
100
AcDbSymbolTable
 70
     6
  0
LTYPE
  5
14
330
5
100
AcDbSymbolTableRecord
100
AcDbLinetypeTableRecord
  2
ByBlock
 70
     0
  3

 72
    65
 73
     0
 40
0.0
  0
LTYPE
  5
15
330
5
100
AcDbSymbolTableRecord
100
AcDbLinetypeTableRecord
  2
ByLayer
 70
     0
  3

 72
    65
 73
     0
 40
0.0
  0
LTYPE
  5
16
330
5
100
AcDbSymbolTableRecord
100
AcDbLinetypeTableRecord
  2
Continuous
 70
     0
  3
Solid line
 72
    65
 73
     0
 40
0.0
  0
LTYPE
  5
6A
330
5
100
AcDbSymbolTableRecord
100
AcDbLinetypeTableRecord
  2
HIDDEN
 70
     0
  3
Hidden __ __ __ __ __ __ __ __ __ __ __ __ __ __
 72
    65
 73
     2
 40
1.905
 49
1.27
 74
     0
 49
-0.635
 74
     0
  0
LTYPE
  5
6B
330
5
100
AcDbSymbolTableRecord
100
AcDbLinetypeTableRecord
  2
PHANTOM
 70
     0
  3
Phantom ______  __  __  ______  __  __  ______
 72
    65
 73
     6
 40
12.7
 49
6.35
 74
     0
 49
-1.27
 74
     0
 49
1.27
 74
     0
 49
-1.27
 74
     0
 49
1.27
 74
     0
 49
-1.27
 74
     0
  0
LTYPE
  5
6C
330
5
100
AcDbSymbolTableRecord
100
AcDbLinetypeTableRecord
  2
CENTER
 70
     0
  3
Center ____ _ ____ _ ____ _ ____ _ ____ _ ____
 72
    65
 73
     4
 40
10.16
 49
6.35
 74
     0
 49
-1.27
 74
     0
 49
1.27
 74
     0
 49
-1.27
 74
     0
  0
LTYPE
  5
6D
330
5
100
AcDbSymbolTableRecord
100
AcDbLinetypeTableRecord
  2
CENTERX2
 70
     0
  3
Center (2x) ________  __  ________  __  _____
 72
    65
 73
     4
 40
20.32
 49
12.7
 74
     0
 49
-2.54
 74
     0
 49
2.54
 74
     0
 49
-2.54
 74
     0
  0
LTYPE
  5
6E
330
5
100
AcDbSymbolTableRecord
100
AcDbLinetypeTableRecord
  2
DOT2
 70
     0
  3
Dot (.5x) ........................................
 72
    65
 73
     2
 40
0.635
 49
0.0
 74
     0
 49
-0.635
 74
     0
  0
ENDTAB
  0
TABLE
  2
LAYER
  5
2
330
0
100
AcDbSymbolTable
 70
    18
  0
LAYER
  5
10
330
2
100
AcDbSymbolTableRecord
100
AcDbLayerTableRecord
  2
0
 70
     0
 62
     7
  6
Continuous
370
    -3
390
F
  0
LAYER
  5
6F
330
2
100
AcDbSymbolTableRecord
100
AcDbLayerTableRecord
  2
FORMAT
 70
     0
 62
     2
  6
Continuous
370
    -3
390
F
  0
LAYER
  5
70
330
2
100
AcDbSymbolTableRecord
100
AcDbLayerTableRecord
  2
외형선
 70
     0
 62
     4
  6
Continuous
370
    30
390
F
  0
LAYER
  5
71
330
2
100
AcDbSymbolTableRecord
100
AcDbLayerTableRecord
  2
숨은선
 70
     0
 62
     2
  6
HIDDEN
370
    15
390
F
  0
LAYER
  5
72
330
2
100
AcDbSymbolTableRecord
100
AcDbLayerTableRecord
  2
중심선
 70
     0
 62
     1
  6
CENTERX2
370
    -3
390
F
  0
LAYER
  5
73
330
2
100
AcDbSymbolTableRecord
100
AcDbLayerTableRecord
  2
파단선
 70
     0
 62
     4
  6
Continuous
370
    -3
390
F
  0
LAYER
  5
74
330
2
100
AcDbSymbolTableRecord
100
AcDbLayerTableRecord
  2
해칭선
 70
     0
 62
   100
  6
Continuous
370
    -3
390
F
  0
LAYER
  5
75
330
2
100
AcDbSymbolTableRecord
100
AcDbLayerTableRecord
  2
가는실선
 70
     0
 62
     4
  6
Continuous
370
    -3
390
F
  0
LAYER
  5
76
330
2
100
AcDbSymbolTableRecord
100
AcDbLayerTableRecord
  2
치수_보조선
 70
     0
 62
     4
  6
Continuous
370
    -3
390
F
  0
LAYER
  5
77
330
2
100
AcDbSymbolTableRecord
100
AcDbLayerTableRecord
  2
치수문자_일반주서
 70
     0
 62
     7
  6
Continuous
370
    15
390
F
  0
LAYER
  5
78
330
2
100
AcDbSymbolTableRecord
100
AcDbLayerTableRecord
  2
개별주서
 70
     0
 62
   100
  6
Continuous
370
    30
390
F
  0
LAYER
  5
79
330
2
100
AcDbSymbolTableRecord
100
AcDbLayerTableRecord
  2
중간선
 70
     0
 62
     2
  6
Continuous
370
    15
390
F
  0
LAYER
  5
7A
330
2
100
AcDbSymbolTableRecord
100
AcDbLayerTableRecord
  2
윤곽선
 70
     0
 62
     3
  6
Continuous
370
    40
390
F
  0
LAYER
  5
7B
330
2
100
AcDbSymbolTableRecord
100
AcDbLayerTableRecord
  2
중심마크
 70
     0
 62
   100
  6
Continuous
370
    30
390
F
  0
LAYER
  5
7C
330
2
100
AcDbSymbolTableRecord
100
AcDbLayerTableRecord
  2
가상선
 70
     0
 62
     4
  6
PHANTOM
370
    -3
390
F
  0
LAYER
  5
7D
330
2
100
AcDbSymbolTableRecord
100
AcDbLayerTableRecord
  2
특수지정선
 70
     0
 62
     5
  6
CENTERX2
370
    60
390
F
  0
LAYER
  5
7E
330
2
100
AcDbSymbolTableRecord
100
AcDbLayerTableRecord
  2
참조1
 70
     0
 62
    -4
  6
Continuous
370
    -3
390
F
  0
LAYER
  5
1A6
330
2
100
AcDbSymbolTableRecord
100
AcDbLayerTableRecord
  2
Defpoints
 70
     0
 62
     7
  6
Continuous
290
     0
370
    -3
390
F
  0
ENDTAB
  0
TABLE
  2
STYLE
  5
3
330
0
100
AcDbSymbolTable
 70
     2
  0
STYLE
  5
11
330
3
100
AcDbSymbolTableRecord
100
AcDbTextStyleTableRecord
  2
Standard
 70
     0
 40
0.0
 41
1.0
 50
0.0
 71
     0
 42
3.5
  3
txt
  4

  0
STYLE
  5
94
330
3
100
AcDbSymbolTableRecord
100
AcDbTextStyleTableRecord
  2
SLDTEXTSTYLE0
 70
     0
 40
0.0
 41
0.75
 50
0.0
 71
     0
 42
3.5
  3
TXT
  4

  0
ENDTAB
  0
TABLE
  2
VIEW
  5
6
330
0
100
AcDbSymbolTable
 70
     0
  0
ENDTAB
  0
TABLE
  2
UCS
  5
7
330
0
100
AcDbSymbolTable
 70
     0
  0
ENDTAB
  0
TABLE
  2
APPID
  5
9
330
0
100
AcDbSymbolTable
 70
     3
  0
APPID
  5
12
330
9
100
AcDbSymbolTableRecord
100
AcDbRegAppTableRecord
  2
ACAD
 70
     0
  0
APPID
  5
1A8
330
9
100
AcDbSymbolTableRecord
100
AcDbRegAppTableRecord
  2
ACAD_DSTYLE_DIMFLIPARROW_SYMBOL
 70
     0
  0
APPID
  5
1A9
330
9
100
AcDbSymbolTableRecord
100
AcDbRegAppTableRecord
  2
ACAD_DSTYLE_DIMFLIPARROW_WHICH_SYMBOL
 70
     0
  0
ENDTAB
  0
TABLE
  2
DIMSTYLE
  5
A
330
0
100
AcDbSymbolTable
 70
     3
100
AcDbDimStyleTable
  0
DIMSTYLE
105
27
330
A
100
AcDbSymbolTableRecord
100
AcDbDimStyleTableRecord
  2
ISO-25
 70
     0
 41
2.5
 42
0.625
 43
3.75
 44
1.25
 73
     0
 74
     0
 77
     1
 78
     8
140
2.5
141
2.5
143
0.03937007874016
147
0.625
171
     3
172
     1
178
     0
271
     2
272
     2
274
     3
278
    44
283
     0
284
     8
340
11
  0
DIMSTYLE
105
125
102
{ACAD_REACTORS
330
124
330
138
102
}
330
A
100
AcDbSymbolTableRecord
100
AcDbDimStyleTableRecord
  2
SLDDIMSTYLE0
 70
     0
 41
3.302
 44
0.0
 45
0.000000001
 73
     0
 74
     0
 77
     1
 78
    12
 79
     3
140
3.5
143
0.0393700787401575
147
0.875
148
0.000000001
170
     1
172
     1
173
     1
178
     0
271
     2
272
     2
276
     2
284
    12
289
     0
340
94
  0
DIMSTYLE
105
14D
102
{ACAD_REACTORS
330
14C
330
161
102
}
330
A
100
AcDbSymbolTableRecord
100
AcDbDimStyleTableRecord
  2
SLDDIMSTYLE1
 70
     0
 41
3.302
 44
0.0
 45
0.000000001
 73
     0
 74
     0
 77
     1
 78
    12
 79
     3
140
3.5
143
0.0393700787401575
147
0.875
148
0.000000001
170
     1
173
     1
178
     0
271
     2
272
     2
276
     2
284
    12
340
94
  0
ENDTAB
  0
TABLE
  2
BLOCK_RECORD
  5
1
330
0
100
AcDbSymbolTable
 70
     7
  0
BLOCK_RECORD
  5
1F
330
1
100
AcDbSymbolTableRecord
100
AcDbBlockTableRecord
  2
*Model_Space
340
22
  0
BLOCK_RECORD
  5
1B
330
1
100
AcDbSymbolTableRecord
100
AcDbBlockTableRecord
  2
*Paper_Space
340
1E
  0
BLOCK_RECORD
  5
23
330
1
100
AcDbSymbolTableRecord
100
AcDbBlockTableRecord
  2
*Paper_Space0
340
26
  0
BLOCK_RECORD
  5
7F
330
1
100
AcDbSymbolTableRecord
100
AcDbBlockTableRecord
  2
블럭10
340
0
102
{BLKREFS
331
11C
102
}
  0
BLOCK_RECORD
  5
126
330
1
100
AcDbSymbolTableRecord
100
AcDbBlockTableRecord
  2
_D
340
0
  0
BLOCK_RECORD
  5
139
330
1
100
AcDbSymbolTableRecord
100
AcDbBlockTableRecord
  2
_D_1
340
0
  0
BLOCK_RECORD
  5
14E
330
1
100
AcDbSymbolTableRecord
100
AcDbBlockTableRecord
  2
_D_2
340
0
  0
BLOCK_RECORD
  5
162
330
1
100
AcDbSymbolTableRecord
100
AcDbBlockTableRecord
  2
_D_3
340
0
  0
BLOCK_RECORD
  5
17B
330
1
100
AcDbSymbolTableRecord
100
AcDbBlockTableRecord
  2
SW_DOWELSYMBOL_0
340
0
102
{BLKREFS
331
181
102
}
  0
ENDTAB
  0
ENDSEC
  0
SECTION
  2
BLOCKS
  0
BLOCK
  5
20
330
1F
100
AcDbEntity
  8
0
100
AcDbBlockBegin
  2
*Model_Space
 70
     0
 10
0.0
 20
0.0
 30
0.0
  3
*Model_Space
  1
*Model_Space
  0
ENDBLK
  5
21
330
1F
100
AcDbEntity
  8
0
100
AcDbBlockEnd
  0
BLOCK
  5
1C
330
1B
100
AcDbEntity
 67
     1
  8
0
100
AcDbBlockBegin
  2
*Paper_Space
 70
     0
 10
0.0
 20
0.0
 30
0.0
  3
*Paper_Space
  1
*Paper_Space
  0
ENDBLK
  5
1D
330
1B
100
AcDbEntity
 67
     1
  8
0
100
AcDbBlockEnd
  0
BLOCK
  5
24
330
23
100
AcDbEntity
  8
0
100
AcDbBlockBegin
  2
*Paper_Space0
 70
     0
 10
0.0
 20
0.0
 30
0.0
  3
*Paper_Space0
  1
*Paper_Space0
  0
ENDBLK
  5
25
330
23
100
AcDbEntity
  8
0
100
AcDbBlockEnd
  0
BLOCK
  5
80
330
7F
100
AcDbEntity
  8
0
100
AcDbBlockBegin
  2
블럭10
 70
     2
 10
0.0
 20
0.0
 30
0.0
  3
블럭10
  1
블럭10
  0
ELLIPSE
  5
82
330
7F
100
AcDbEntity
  8
중심선
100
AcDbEllipse
 10
20.54032771741204
 20
12.0471743016438
 30
0.0
 11
6.600054785286829
 21
-1.261213355974178E-13
 31
0.0
210
0.0
220
0.0
230
1.0
 40
0.636358354079598
 41
0.9219305317359503
 42
6.513795318482858
  0
ELLIPSE
  5
83
330
7F
100
AcDbEntity
  8
중심선
100
AcDbEllipse
 10
20.54032771746488
 20
12.04717430159265
 30
0.0
 11
3.960054785062283
 21
1.540847449632565E-10
 31
0.0
210
0.0
220
0.0
230
1.0
 40
0.3939339440162632
 41
1.131841032648279
 42
5.62031148352944
  0
LINE
  5
84
330
7F
100
AcDbEntity
  8
중심선
100
AcDbLine
 10
2.268634060543552
 20
16.24717430164393
 30
0.0
 11
5.714909304380834
 21
16.24717430164393
 31
0.0
  0
LINE
  5
85
330
7F
100
AcDbEntity
  8
중심선
100
AcDbLine
 10
5.245725140726316
 20
7.84717430164391
 30
0.0
 11
8.692000384563599
 21
7.84717430164391
 31
0.0
  0
LINE
  5
86
330
7F
100
AcDbEntity
  8
중심선
100
AcDbLine
 10
15.74043728645272
 20
16.24717430164393
 30
0.0
 11
8.692000384563599
 21
7.84717430164391
 31
0.0
  0
LINE
  5
87
330
7F
100
AcDbEntity
  8
중심선
100
AcDbLine
 10
0.1404042013395286
 20
13.71084872107135
 30
0.0
 11
3.58671253028996
 21
13.71088815037384
 31
0.0
  0
LINE
  5
88
330
7F
100
AcDbEntity
  8
중심선
100
AcDbLine
 10
2.750260043222114
 20
10.84717430164391
 30
0.0
 11
6.196535287059397
 21
10.84717430164391
 31
0.0
  0
LINE
  5
89
330
7F
100
AcDbEntity
  8
중심선
100
AcDbLine
 10
12.29416204261559
 20
16.24717430164393
 30
0.0
 11
5.245725140726316
 21
7.84717430164391
 31
0.0
  0
LINE
  5
8A
330
7F
100
AcDbEntity
  8
중심선
100
AcDbLine
 10
10.72767329541681
 20
16.24717430164393
 30
0.0
 11
6.196535287059397
 21
10.84717430164391
 31
0.0
  0
LINE
  5
8B
330
7F
100
AcDbEntity
  8
중심선
100
AcDbLine
 10
7.28139805157953
 20
16.24717430164393
 30
0.0
 11
2.750260043222114
 21
10.84717430164391
 31
0.0
  0
LINE
  5
8C
330
7F
100
AcDbEntity
  8
중심선
100
AcDbLine
 10
5.714909304380834
 20
16.24717430164393
 30
0.0
 11
3.58671253028996
 21
13.71088815037384
 31
0.0
  0
LINE
  5
8D
330
7F
100
AcDbEntity
  8
중심선
100
AcDbLine
 10
2.268634060543552
 20
16.24717430164393
 30
0.0
 11
0.1404042013395286
 21
13.71084872107135
 31
0.0
  0
LINE
  5
8E
330
7F
100
AcDbEntity
  8
중심선
100
AcDbLine
 10
7.28139805157953
 20
16.24717430164393
 30
0.0
 11
10.72767329541681
 21
16.24717430164393
 31
0.0
  0
LINE
  5
8F
330
7F
100
AcDbEntity
  8
중심선
100
AcDbLine
 10
12.29416204261559
 20
16.24717430164393
 30
0.0
 11
15.74043728645272
 21
16.24717430164393
 31
0.0
  0
LINE
  5
90
330
7F
100
AcDbEntity
  8
중심선
100
AcDbLine
 10
19.22036997980202
 20
11.08717430171403
 30
0.0
 11
23.66174974927406
 21
11.08717430171406
 31
0.0
  0
LINE
  5
91
330
7F
100
AcDbEntity
  8
중심선
100
AcDbLine
 10
19.22039502424796
 20
13.00717430171391
 30
0.0
 11
19.22036997980202
 21
11.08717430171403
 31
0.0
  0
LINE
  5
92
330
7F
100
AcDbEntity
  8
중심선
100
AcDbLine
 10
19.22039502424796
 20
13.00717430171391
 30
0.0
 11
26.96566020931264
 21
13.00717430171391
 31
0.0
  0
LINE
  5
93
330
7F
100
AcDbEntity
  8
중심선
100
AcDbLine
 10
22.22332737316547
 20
13.45928029700563
 30
0.0
 11
24.52862924686651
 21
15.39360700705356
 31
0.0
  0
ATTDEF
  5
95
330
7F
100
AcDbEntity
  8
FORMAT
 62
     2
100
AcDbText
 10
-10.14163601213663
 20
2.075366912832191
 30
0.0
 40
4.233333333333333
  1
EM666016 [ 3 FLUTE ]
 41
0.75
  7
SLDTEXTSTYLE0
 11
-10.14163601213663
 21
-0.0412997538344756
 31
0.0
100
AcDbAttributeDefinition
  3

  2
AUTOATTR0
 70
     0
 74
     1
  0
ENDBLK
  5
81
330
7F
100
AcDbEntity
  8
0
100
AcDbBlockEnd
  0
BLOCK
  5
127
330
126
100
AcDbEntity
  8
0
100
AcDbBlockBegin
  2
_D
 70
     0
 10
0.0
 20
0.0
 30
0.0
  3
_D
  1
_D
  0
LINE
  5
129
330
126
100
AcDbEntity
  8
치수문자_일반주서
 62
     0
370
    -2
100
AcDbLine
 10
7.042449876570008
 20
3.175000000000025
 30
0.0
 11
30.82715918163134
 21
3.175000000000114
 31
0.0
  0
LINE
  5
12A
330
126
100
AcDbEntity
  8
치수문자_일반주서
 62
     0
370
    -2
100
AcDbLine
 10
13.97954204614415
 20
-3.174999999999998
 30
0.0
 11
30.82715918163136
 21
-3.174999999999937
 31
0.0
  0
LINE
  5
12B
330
126
100
AcDbEntity
  8
치수문자_일반주서
 62
     0
370
    -2
100
AcDbLine
 10
30.82715918163134
 20
3.175000000000114
 30
0.0
 11
30.82715918163123
 21
35.81025000000011
 31
0.0
  0
LINE
  5
12C
330
126
100
AcDbEntity
  8
치수문자_일반주서
 62
     0
370
    -2
100
AcDbLine
 10
30.82715918163134
 20
3.175000000000114
 30
0.0
 11
30.82715918163136
 21
-3.174999999999937
 31
0.0
  0
LINE
  5
12D
330
126
100
AcDbEntity
  8
치수문자_일반주서
 62
     0
370
    -2
100
AcDbLine
 10
30.82715918163133
 20
6.477000000000114
 30
0.0
 11
30.82715918163132
 21
9.779000000000114
 31
0.0
  0
LINE
  5
12E
330
126
100
AcDbEntity
  8
치수문자_일반주서
 62
     0
370
    -2
100
AcDbLine
 10
30.82715918163137
 20
-6.476999999999936
 30
0.0
 11
30.82715918163138
 21
-9.778999999999936
 31
0.0
  0
SOLID
  5
12F
330
126
100
AcDbEntity
  8
치수문자_일반주서
 62
     0
100
AcDbTrace
 10
30.276825848298
 20
6.477000000000112
 30
0.0
 11
31.37749251496466
 21
6.477000000000116
 31
0.0
 12
30.82715918163134
 22
3.175000000000114
 32
0.0
 13
30.82715918163134
 23
3.175000000000114
 33
0.0
  0
SOLID
  5
130
330
126
100
AcDbEntity
  8
치수문자_일반주서
 62
     0
100
AcDbTrace
 10
31.37749251496471
 20
-6.476999999999935
 30
0.0
 11
30.27682584829804
 21
-6.476999999999938
 31
0.0
 12
30.82715918163136
 22
-3.174999999999937
 32
0.0
 13
30.82715918163136
 23
-3.174999999999937
 33
0.0
  0
MTEXT
  5
131
330
126
100
AcDbEntity
  8
치수문자_일반주서
 62
     0
100
AcDbMText
 10
26.45215918163127
 20
23.12275000000009
 30
0.0
 40
3.5
 41
0.0
 71
     2
 72
     1
  1
\A1;%%c6.35 [1/4]
  7
SLDTEXTSTYLE0
 11
-3.356894814614620E-15
 21
1.0
 31
0.0
 73
     1
 44
1.0
  0
POINT
  5
132
330
126
100
AcDbEntity
  8
Defpoints
 62
     0
100
AcDbPoint
 10
6.979949876570008
 20
3.175000000000024
 30
0.0
  0
POINT
  5
133
330
126
100
AcDbEntity
  8
Defpoints
 62
     0
100
AcDbPoint
 10
13.91704204614415
 20
-3.174999999999999
 30
0.0
  0
POINT
  5
134
330
126
100
AcDbEntity
  8
Defpoints
 62
     0
100
AcDbPoint
 10
30.82715918163136
 20
-3.174999999999936
 30
0.0
  0
ENDBLK
  5
128
330
126
100
AcDbEntity
  8
0
100
AcDbBlockEnd
  0
BLOCK
  5
13A
330
139
100
AcDbEntity
  8
0
100
AcDbBlockBegin
  2
_D_1
 70
     0
 10
0.0
 20
0.0
 30
0.0
  3
_D_1
  1
_D_1
  0
LINE
  5
13C
330
139
100
AcDbEntity
  8
치수문자_일반주서
 62
     0
370
    -2
100
AcDbLine
 10
-35.28999999997404
 20
3.174999999999984
 30
0.0
 11
-46.03749999997409
 21
3.174999999999945
 31
0.0
  0
LINE
  5
13D
330
139
100
AcDbEntity
  8
치수문자_일반주서
 62
     0
370
    -2
100
AcDbLine
 10
-35.28999999997404
 20
-3.17500000000001
 30
0.0
 11
-46.03749999997407
 21
-3.17500000000005
 31
0.0
  0
LINE
  5
13E
330
139
100
AcDbEntity
  8
치수문자_일반주서
 62
     0
370
    -2
100
AcDbLine
 10
-46.03749999997407
 20
-0.1270000000000548
 30
0.0
 11
-46.03749999997408
 21
0.12699999999995
 31
0.0
  0
SOLID
  5
13F
330
139
100
AcDbEntity
  8
치수문자_일반주서
 62
     0
100
AcDbTrace
 10
-45.48716666664074
 20
-0.127000000000053
 30
0.0
 11
-46.58783333330741
 21
-0.1270000000000567
 31
0.0
 12
-46.03749999997409
 22
3.174999999999945
 32
0.0
 13
-46.03749999997409
 23
3.174999999999945
 33
0.0
  0
SOLID
  5
140
330
139
100
AcDbEntity
  8
치수문자_일반주서
 62
     0
100
AcDbTrace
 10
-46.58783333330742
 20
0.1269999999999482
 30
0.0
 11
-45.48716666664075
 21
0.1269999999999519
 31
0.0
 12
-46.03749999997407
 22
-3.17500000000005
 32
0.0
 13
-46.03749999997407
 23
-3.17500000000005
 33
0.0
  0
MTEXT
  5
141
330
139
100
AcDbEntity
  8
치수문자_일반주서
 62
     0
100
AcDbMText
 10
-50.41249999997407
 20
-0.5086721738103391
 30
0.0
 40
3.5
 41
0.0
 71
     2
 72
     1
  1
\A1;%%c6.35 [1/4]
  7
SLDTEXTSTYLE0
 11
-3.356894814614649E-15
 21
1.0
 31
0.0
 73
     1
 44
1.0
  0
POINT
  5
142
330
139
100
AcDbEntity
  8
Defpoints
 62
     0
100
AcDbPoint
 10
-35.22749999997404
 20
3.174999999999984
 30
0.0
  0
POINT
  5
143
330
139
100
AcDbEntity
  8
Defpoints
 62
     0
100
AcDbPoint
 10
-35.22749999997404
 20
-3.17500000000001
 30
0.0
  0
POINT
  5
144
330
139
100
AcDbEntity
  8
Defpoints
 62
     0
100
AcDbPoint
 10
-46.03749999997407
 20
-3.17500000000005
 30
0.0
  0
ENDBLK
  5
13B
330
139
100
AcDbEntity
  8
0
100
AcDbBlockEnd
  0
BLOCK
  5
14F
330
14E
100
AcDbEntity
  8
0
100
AcDbBlockBegin
  2
_D_2
 70
     0
 10
0.0
 20
0.0
 30
0.0
  3
_D_2
  1
_D_2
  0
LINE
  5
151
330
14E
100
AcDbEntity
  8
치수문자_일반주서
 62
     0
370
    -2
100
AcDbLine
 10
17.93750000002596
 20
2.082106629395931
 30
0.0
 11
17.93750000002596
 21
19.05790292822759
 31
0.0
  0
LINE
  5
152
330
14E
100
AcDbEntity
  8
치수문자_일반주서
 62
     0
370
    -2
100
AcDbLine
 10
10.00000000002596
 20
2.686229166487059
 30
0.0
 11
10.00000000002596
 21
19.05790292822759
 31
0.0
  0
LINE
  5
153
330
14E
100
AcDbEntity
  8
치수문자_일반주서
 62
     0
370
    -2
100
AcDbLine
 10
10.00000000002596
 20
19.05790292822759
 30
0.0
 11
-21.97899999997404
 21
19.05790292822759
 31
0.0
  0
SOLID
  5
154
330
14E
100
AcDbEntity
  8
치수문자_일반주서
 62
     0
100
AcDbTrace
 10
14.63550000002596
 20
18.50756959489425
 30
0.0
 11
14.63550000002596
 21
19.60823626156092
 31
0.0
 12
17.93750000002596
 22
19.05790292822759
 32
0.0
 13
17.93750000002596
 23
19.05790292822759
 33
0.0
  0
SOLID
  5
155
330
14E
100
AcDbEntity
  8
치수문자_일반주서
 62
     0
100
AcDbTrace
 10
13.30200000002596
 20
19.60823626156092
 30
0.0
 11
13.30200000002596
 21
18.50756959489425
 31
0.0
 12
10.00000000002596
 22
19.05790292822759
 32
0.0
 13
10.00000000002596
 23
19.05790292822759
 33
0.0
  0
MTEXT
  5
156
330
14E
100
AcDbEntity
  8
치수문자_일반주서
 62
     0
100
AcDbMText
 10
-9.291499999974038
 20
23.43290292822759
 30
0.0
 40
3.5
 41
0.0
 71
     2
 72
     1
  1
\A1;7.94 [5/16]
  7
SLDTEXTSTYLE0
 73
     1
 44
1.0
  0
POINT
  5
157
330
14E
100
AcDbEntity
  8
Defpoints
 62
     0
100
AcDbPoint
 10
17.93750000002596
 20
2.019606629395931
 30
0.0
  0
POINT
  5
158
330
14E
100
AcDbEntity
  8
Defpoints
 62
     0
100
AcDbPoint
 10
10.00000000002596
 20
2.623729166487059
 30
0.0
  0
POINT
  5
159
330
14E
100
AcDbEntity
  8
Defpoints
 62
     0
100
AcDbPoint
 10
10.00000000002596
 20
19.05790292822759
 30
0.0
  0
ENDBLK
  5
150
330
14E
100
AcDbEntity
  8
0
100
AcDbBlockEnd
  0
BLOCK
  5
163
330
162
100
AcDbEntity
  8
0
100
AcDbBlockBegin
  2
_D_3
 70
     0
 10
0.0
 20
0.0
 30
0.0
  3
_D_3
  1
_D_3
  0
LINE
  5
165
330
162
100
AcDbEntity
  8
치수문자_일반주서
 62
     0
370
    -2
100
AcDbLine
 10
17.93750000002596
 20
2.082106629395931
 30
0.0
 11
17.93750000002596
 21
36.01698679301992
 31
0.0
  0
LINE
  5
166
330
162
100
AcDbEntity
  8
치수문자_일반주서
 62
     0
370
    -2
100
AcDbLine
 10
-36.03749999997405
 20
2.427499999999995
 30
0.0
 11
-36.03749999997405
 21
36.01698679301992
 31
0.0
  0
LINE
  5
167
330
162
100
AcDbEntity
  8
치수문자_일반주서
 62
     0
370
    -2
100
AcDbLine
 10
14.63550000002596
 20
36.01698679301992
 30
0.0
 11
-32.73549999997405
 21
36.01698679301992
 31
0.0
  0
SOLID
  5
168
330
162
100
AcDbEntity
  8
치수문자_일반주서
 62
     0
100
AcDbTrace
 10
14.63550000002596
 20
35.46665345968659
 30
0.0
 11
14.63550000002596
 21
36.56732012635326
 31
0.0
 12
17.93750000002596
 22
36.01698679301992
 32
0.0
 13
17.93750000002596
 23
36.01698679301992
 33
0.0
  0
SOLID
  5
169
330
162
100
AcDbEntity
  8
치수문자_일반주서
 62
     0
100
AcDbTrace
 10
-32.73549999997405
 20
36.56732012635326
 30
0.0
 11
-32.73549999997405
 21
35.46665345968659
 31
0.0
 12
-36.03749999997405
 22
36.01698679301992
 32
0.0
 13
-36.03749999997405
 23
36.01698679301992
 33
0.0
  0
MTEXT
  5
16A
330
162
100
AcDbEntity
  8
치수문자_일반주서
 62
     0
100
AcDbMText
 10
-6.690156283131162
 20
40.39198679301992
 30
0.0
 40
3.5
 41
0.0
 71
     2
 72
     1
  1
\A1;53.98 [2 1/8]
  7
SLDTEXTSTYLE0
 73
     1
 44
1.0
  0
POINT
  5
16B
330
162
100
AcDbEntity
  8
Defpoints
 62
     0
100
AcDbPoint
 10
17.93750000002596
 20
2.019606629395931
 30
0.0
  0
POINT
  5
16C
330
162
100
AcDbEntity
  8
Defpoints
 62
     0
100
AcDbPoint
 10
-36.03749999997405
 20
2.364999999999995
 30
0.0
  0
POINT
  5
16D
330
162
100
AcDbEntity
  8
Defpoints
 62
     0
100
AcDbPoint
 10
-36.03749999997405
 20
36.01698679301992
 30
0.0
  0
ENDBLK
  5
164
330
162
100
AcDbEntity
  8
0
100
AcDbBlockEnd
  0
BLOCK
  5
17C
330
17B
100
AcDbEntity
  8
0
100
AcDbBlockBegin
  2
SW_DOWELSYMBOL_0
 70
     0
 10
0.0
 20
0.0
 30
0.0
  3
SW_DOWELSYMBOL_0
  1
SW_DOWELSYMBOL_0
  0
CIRCLE
  5
17E
330
17B
100
AcDbEntity
  8
해칭선
 62
     0
100
AcDbCircle
 10
0.0
 20
0.0
 30
0.0
 40
3.000000000024842
  0
HATCH
  5
17F
330
17B
100
AcDbEntity
  8
0
  6
Continuous
 62
     0
370
     0
100
AcDbHatch
 10
0.0
 20
0.0
 30
0.0
210
0.0
220
0.0
230
1.0
  2
SOLID
 70
     1
 71
     0
 91
        1
 92
        0
 93
        3
 72
     2
 10
-0.0000000000259671
 20
-0.0000000000000039
 40
3.000000000024842
 50
0.0
 51
90.0
 73
     1
 72
     1
 10
-0.0000000000259671
 20
3.000000000024838
 11
-0.0000000000259671
 21
-0.000000000000004
 72
     1
 10
-0.0000000000259671
 20
-0.0000000000000039
 11
2.999999999998875
 21
-0.0000000000000039
 97
        0
 75
     0
 76
     1
 98
        1
 10
0.0
 20
0.0
  0
HATCH
  5
180
330
17B
100
AcDbEntity
  8
0
  6
Continuous
 62
     0
370
     0
100
AcDbHatch
 10
0.0
 20
0.0
 30
0.0
210
0.0
220
0.0
230
1.0
  2
SOLID
 70
     1
 71
     0
 91
        1
 92
        0
 93
        3
 72
     2
 10
-0.0000000000259671
 20
-0.0000000000000039
 40
3.000000000024842
 50
180.0
 51
270.0000000000008
 73
     1
 72
     1
 10
-0.0000000000259671
 20
-3.000000000024846
 11
-0.0000000000259671
 21
-0.000000000000004
 72
     1
 10
-0.0000000000259671
 20
-0.0000000000000039
 11
-3.000000000050809
 21
-0.0000000000000039
 97
        0
 75
     0
 76
     1
 98
        1
 10
0.0
 20
0.0
  0
ENDBLK
  5
17D
330
17B
100
AcDbEntity
  8
0
100
AcDbBlockEnd
  0
ENDSEC
  0
SECTION
  2
ENTITIES
  0
LINE
  5
96
330
1F
100
AcDbEntity
  8
외형선
  6
Continuous
370
    15
100
AcDbLine
 10
6.979949876569988
 20
3.175
 30
0.0
 11
-35.22749999997403
 21
3.174999999999995
 31
0.0
  0
LINE
  5
97
330
1F
100
AcDbEntity
  8
외형선
  6
Continuous
370
    15
100
AcDbLine
 10
8.255748477476644
 20
-3.174999999999999
 30
0.0
 11
10.00000000002596
 21
-3.174999999999999
 31
0.0
  0
LINE
  5
98
330
1F
100
AcDbEntity
  8
외형선
  6
Continuous
370
    15
100
AcDbLine
 10
-35.22749999997403
 20
-3.175000000000005
 30
0.0
 11
6.979949876569988
 21
-3.174999999999999
 31
0.0
  0
LINE
  5
99
330
1F
100
AcDbEntity
  8
외형선
  6
Continuous
370
    15
100
AcDbLine
 10
-35.22749999997403
 20
3.174999999999995
 30
0.0
 11
-36.03749999997405
 21
2.364999999999994
 31
0.0
  0
LINE
  5
9A
330
1F
100
AcDbEntity
  8
외형선
  6
Continuous
370
    15
100
AcDbLine
 10
-36.03749999997405
 20
-2.365000000000005
 30
0.0
 11
-35.22749999997403
 21
-3.175000000000005
 31
0.0
  0
LINE
  5
9B
330
1F
100
AcDbEntity
  8
외형선
  6
Continuous
 62
     1
370
    15
100
AcDbLine
 10
10.00000000002596
 20
-3.174999999999999
 30
0.0
 11
10.47494324005983
 21
-3.174999999999999
 31
0.0
  0
SPLINE
  5
9C
330
1F
100
AcDbEntity
  8
외형선
  6
Continuous
 62
     1
370
    15
100
AcDbSpline
210
0.0
220
0.0
230
1.0
 70
     8
 71
     3
 72
     9
 73
     5
 74
     0
 42
0.000000001
 43
0.00000001
 40
0.0
 40
0.0
 40
0.0
 40
0.0
 40
0.5033496126863257
 40
0.9999999999999999
 40
0.9999999999999999
 40
0.9999999999999999
 40
0.9999999999999999
 10
10.47514080431455
 20
-3.174999897727383
 30
0.0
 10
10.50769952011225
 20
-3.172125456239031
 30
0.0
 10
10.5723836183555
 20
-3.166414830034294
 30
0.0
 10
10.62916345180544
 20
-3.128462688251505
 30
0.0
 10
10.65736317807997
 20
-3.1096137423357
 30
0.0
  0
SPLINE
  5
9D
330
1F
100
AcDbEntity
  8
외형선
  6
Continuous
 62
     1
370
    15
100
AcDbSpline
210
0.0
220
0.0
230
1.0
 70
     8
 71
     3
 72
    11
 73
     7
 74
     0
 42
0.000000001
 43
0.00000001
 40
0.0
 40
0.0
 40
0.0
 40
0.0
 40
0.2031432625988095
 40
0.4407693988827903
 40
0.7094293292429867
 40
0.9999999999999999
 40
0.9999999999999999
 40
0.9999999999999999
 40
0.9999999999999999
 10
10.65475742082592
 20
-3.1117706901885
 30
0.0
 10
10.68713941186247
 20
-3.090071370841078
 30
0.0
 10
10.7574001261053
 20
-3.042989346940452
 30
0.0
 10
10.90350703821036
 20
-3.007577960963122
 30
0.0
 10
11.07694281961109
 20
-3.021824357709554
 30
0.0
 10
11.17309849523767
 20
-3.081949660516015
 30
0.0
 10
11.22306003008232
 20
-3.113190171194508
 30
0.0
  0
SPLINE
  5
9E
330
1F
100
AcDbEntity
  8
외형선
  6
Continuous
 62
     1
370
    15
100
AcDbSpline
210
0.0
220
0.0
230
1.0
 70
     8
 71
     3
 72
     9
 73
     5
 74
     0
 42
0.000000001
 43
0.00000001
 40
0.0
 40
0.0
 40
0.0
 40
0.0
 40
0.4978869747759985
 40
1.0
 40
1.0
 40
1.0
 40
1.0
 10
11.21756011794164
 20
-3.108825606835754
 30
0.0
 10
11.24600627766879
 20
-3.127919075409559
 30
0.0
 10
11.30314004731592
 20
-3.166268077374104
 30
0.0
 10
11.36835929221677
 20
-3.172081166324539
 30
0.0
 10
11.40110672457676
 20
-3.174999994003338
 30
0.0
  0
LINE
  5
9F
330
1F
100
AcDbEntity
  8
외형선
  6
Continuous
 62
     1
370
    15
100
AcDbLine
 10
11.40109475637739
 20
-3.174999999999999
 30
0.0
 11
12.47505554655388
 21
-3.174999999999999
 31
0.0
  0
SPLINE
  5
A0
330
1F
100
AcDbEntity
  8
외형선
  6
Continuous
 62
     1
370
    15
100
AcDbSpline
210
0.0
220
0.0
230
1.0
 70
     8
 71
     3
 72
     9
 73
     5
 74
     0
 42
0.000000001
 43
0.00000001
 40
0.0
 40
0.0
 40
0.0
 40
0.0
 40
0.5030516472210439
 40
1.0
 40
1.0
 40
1.0
 40
1.0
 10
12.47516827009982
 20
-3.174999816992005
 30
0.0
 10
12.50694646259738
 20
-3.172276713318473
 30
0.0
 10
12.57011729738761
 20
-3.166863544136792
 30
0.0
 10
12.62530385647895
 20
-3.131082166574393
 30
0.0
 10
12.65272872611493
 20
-3.113300669934597
 30
0.0
  0
SPLINE
  5
A1
330
1F
100
AcDbEntity
  8
외형선
  6
Continuous
 62
     1
370
    15
100
AcDbSpline
210
0.0
220
0.0
230
1.0
 70
     8
 71
     3
 72
    11
 73
     7
 74
     0
 42
0.000000001
 43
0.00000001
 40
0.0
 40
0.0
 40
0.0
 40
0.0
 40
0.2449153691216296
 40
0.4999211482751398
 40
0.7549552552974484
 40
1.0
 40
1.0
 40
1.0
 40
1.0
 10
12.65126653590587
 20
-3.114322698903972
 30
0.0
 10
12.69396182602338
 20
-3.086689559849967
 30
0.0
 10
12.78111143422491
 20
-3.030284808053993
 30
0.0
 10
12.94426870465175
 20
-3.005643824748368
 30
0.0
 10
13.10740934752251
 20
-3.03309391217867
 30
0.0
 10
13.19441999964346
 20
-3.091577241020982
 30
0.0
 10
13.23705628182543
 20
-3.120234786398255
 30
0.0
  0
LINE
  5
A2
330
1F
100
AcDbEntity
  8
외형선
  6
Continuous
 62
     1
370
    15
100
AcDbLine
 10
17.93750000002596
 20
2.074999999999999
 30
0.0
 11
17.18453157238547
 21
2.827968427640487
 31
0.0
  0
LINE
  5
A3
330
1F
100
AcDbEntity
  8
외형선
  6
Continuous
 62
     1
370
    15
100
AcDbLine
 10
13.38944881697017
 20
-3.169178583035665
 30
0.0
 11
13.41376775870108
 21
-3.172514867471563
 31
0.0
  0
LINE
  5
A4
330
1F
100
AcDbEntity
  8
외형선
  6
Continuous
 62
     1
370
    15
100
AcDbLine
 10
13.40104844806717
 20
-3.174999999999999
 30
0.0
 11
13.91704204614415
 21
-3.174999999999999
 31
0.0
  0
SPLINE
  5
A5
330
1F
100
AcDbEntity
  8
외형선
  6
Continuous
 62
     1
370
    15
100
AcDbSpline
210
0.0
220
0.0
230
1.0
 70
     8
 71
     3
 72
     9
 73
     5
 74
     0
 42
0.000000001
 43
0.00000001
 40
0.0
 40
0.0
 40
0.0
 40
0.0
 40
0.3943928618499113
 40
1.0
 40
1.0
 40
1.0
 40
1.0
 10
14.61654251899369
 20
-3.135258583813096
 30
0.0
 10
14.62502310630419
 20
-3.130084048352046
 30
0.0
 10
14.64652599880261
 20
-3.116963791974234
 30
0.0
 10
14.66663242046458
 20
-3.096123821362203
 30
0.0
 10
14.67880901294572
 20
-3.083502986400717
 30
0.0
  0
LINE
  5
A6
330
1F
100
AcDbEntity
  8
외형선
  6
Continuous
370
    15
100
AcDbLine
 10
6.979949876569988
 20
3.175
 30
0.0
 11
6.979949876569988
 21
3.074682740948922
 31
0.0
  0
SPLINE
  5
A7
330
1F
100
AcDbEntity
  8
외형선
  6
Continuous
370
    15
100
AcDbSpline
210
0.0
220
0.0
230
1.0
 70
     8
 71
     3
 72
    12
 73
     8
 74
     0
 42
0.000000001
 43
0.00000001
 40
0.0
 40
0.0
 40
0.0
 40
0.0
 40
0.5
 40
0.5
 40
0.75
 40
0.75
 40
1.0
 40
1.0
 40
1.0
 40
1.0
 10
10.00000000002596
 20
2.623729166487283
 30
0.0
 10
9.499026360921306
 20
2.726706578457533
 30
0.0
 10
8.991530556265758
 20
2.816973386689192
 30
0.0
 10
8.23747010447162
 20
2.930218550893089
 30
0.0
 10
7.988017420675492
 20
2.964275998141945
 30
0.0
 10
7.484863366017823
 20
3.025111643804248
 30
0.0
 10
7.232227575560411
 20
3.051828900910545
 30
0.0
 10
6.979949876569988
 20
3.074685159842799
 30
0.0
  0
LINE
  5
A8
330
1F
100
AcDbEntity
  8
외형선
  6
Continuous
370
    15
100
AcDbLine
 10
10.00000000002596
 20
2.623729166487303
 30
0.0
 11
10.00000000002596
 21
1.009912917097291
 31
0.0
  0
SPLINE
  5
A9
330
1F
100
AcDbEntity
  8
외형선
  6
Continuous
370
    15
100
AcDbSpline
210
0.0
220
0.0
230
1.0
 70
     8
 71
     3
 72
    12
 73
     8
 74
     0
 42
0.000000001
 43
0.00000001
 40
0.0
 40
0.0
 40
0.0
 40
0.0
 40
0.5
 40
0.5
 40
0.75
 40
0.75
 40
1.0
 40
1.0
 40
1.0
 40
1.0
 10
10.00000000002596
 20
1.009912917097291
 30
0.0
 10
9.499026360921306
 20
1.183282917298508
 30
0.0
 10
8.991530556265758
 20
1.352335563114492
 30
0.0
 10
8.23747010447162
 20
1.593753375716839
 30
0.0
 10
7.988017420675492
 20
1.672142099144098
 30
0.0
 10
7.484863366017823
 20
1.824999411539671
 30
0.0
 10
7.232227575560411
 20
1.899349520186645
 30
0.0
 10
6.979949876569988
 20
1.971197462601743
 30
0.0
  0
SPLINE
  5
AA
330
1F
100
AcDbEntity
  8
외형선
  6
Continuous
370
    15
100
AcDbSpline
210
0.0
220
0.0
230
1.0
 70
     8
 71
     3
 72
    12
 73
     8
 74
     0
 42
0.000000001
 43
0.00000001
 40
0.0
 40
0.0
 40
0.0
 40
0.0
 40
0.5000000000000001
 40
0.5000000000000001
 40
0.75
 40
0.75
 40
1.0
 40
1.0
 40
1.0
 40
1.0
 10
10.00000000002596
 20
-2.860251710448264
 30
0.0
 10
9.49902636092131
 20
-2.780869637481213
 30
0.0
 10
8.991530556265761
 20
-2.686806926594004
 30
0.0
 10
8.23747010447162
 20
-2.526767282613553
 30
0.0
 10
7.988017420675492
 20
-2.47034742471302
 30
0.0
 10
7.484863366017823
 20
-2.351174728610096
 30
0.0
 10
7.232227575560411
 20
-2.288491626365811
 30
0.0
 10
6.979949876569988
 20
-2.22305543956592
 30
0.0
  0
LINE
  5
AB
330
1F
100
AcDbEntity
  8
외형선
  6
Continuous
370
    15
100
AcDbLine
 10
10.00000000002596
 20
-2.860251710448261
 30
0.0
 11
10.00000000002596
 21
-3.174999999999999
 31
0.0
  0
LINE
  5
AC
330
1F
100
AcDbEntity
  8
외형선
  6
Continuous
370
    15
100
AcDbLine
 10
6.979949876569988
 20
-3.141115878663506
 30
0.0
 11
8.255748477476644
 21
-3.163985286176958
 31
0.0
  0
LINE
  5
AD
330
1F
100
AcDbEntity
  8
외형선
  6
Continuous
370
    15
100
AcDbLine
 10
6.979949876569988
 20
-3.141113705827806
 30
0.0
 11
6.979949876569988
 21
-3.174999999999999
 31
0.0
  0
LINE
  5
AE
330
1F
100
AcDbEntity
  8
외형선
  6
Continuous
370
    15
100
AcDbLine
 10
-35.22749999997403
 20
3.174999999999995
 30
0.0
 11
-35.22749999997403
 21
-3.175000000000005
 31
0.0
  0
LINE
  5
AF
330
1F
100
AcDbEntity
  8
외형선
  6
Continuous
370
    15
100
AcDbLine
 10
6.979949876569988
 20
1.971209152664617
 30
0.0
 11
6.979949876569988
 21
-2.223062364671908
 31
0.0
  0
LINE
  5
B0
330
1F
100
AcDbEntity
  8
외형선
  6
Continuous
370
    15
100
AcDbLine
 10
-36.03749999997405
 20
2.364999999999995
 30
0.0
 11
-36.03749999997405
 21
-2.365000000000005
 31
0.0
  0
SPLINE
  5
B1
330
1F
100
AcDbEntity
  8
외형선
  6
Continuous
370
    15
100
AcDbSpline
210
0.0
220
0.0
230
1.0
 70
    24
 71
     3
 72
    14
 73
    10
 74
     0
 42
0.000000001
 43
0.00000001
 40
0.0
 40
0.0
 40
0.0
 40
0.0
 40
0.25
 40
0.25
 40
0.5
 40
0.5
 40
0.75
 40
0.75
 40
1.0
 40
1.0
 40
1.0
 40
1.0
 10
10.00000000002596
 20
1.009912917097185
 30
0.0
 10
10.00000000002596
 20
0.8991090396586998
 30
0.0
 10
10.00000000002596
 20
0.7479851402125792
 30
0.0
 10
10.00000000002596
 20
0.3279609634214839
 30
0.0
 10
10.00000000002596
 20
0.0576164436037893
 30
0.0
 10
10.00000000002596
 20
-0.6183455402318031
 30
0.0
 10
10.00000000002596
 20
-1.025596740918559
 30
0.0
 10
10.00000000002596
 20
-1.91994128797649
 30
0.0
 10
10.00000000002596
 20
-2.405231299076549
 30
0.0
 10
10.00000000002596
 20
-2.860251710447983
 30
0.0
  0
SPLINE
  5
B2
330
1F
100
AcDbEntity
  8
외형선
  6
Continuous
 62
     1
370
    15
100
AcDbSpline
210
0.0
220
0.0
230
1.0
 70
     8
 71
     3
 72
    10
 73
     6
 74
     0
 42
0.000000001
 43
0.00000001
 40
0.0
 40
0.0
 40
0.0
 40
0.0
 40
0.5
 40
0.5
 40
1.0
 40
1.0
 40
1.0
 40
1.0
 10
16.8375111465324
 20
0.5956781573291472
 30
0.0
 10
17.02208488004445
 20
0.5180369572584078
 30
0.0
 10
17.20636117358351
 20
0.467618771651103
 30
0.0
 10
17.57577627129088
 20
0.4286026112841767
 30
0.0
 10
17.76338959195331
 20
0.440015539203534
 30
0.0
 10
17.93750000002596
 20
0.4950880597006298
 30
0.0
  0
LINE
  5
B3
330
1F
100
AcDbEntity
  8
외형선
  6
Continuous
 62
     1
370
    15
100
AcDbLine
 10
17.93750000002596
 20
0.4950880597006291
 30
0.0
 11
17.93750000002596
 21
-1.422247913250309
 31
0.0
  0
SPLINE
  5
B4
330
1F
100
AcDbEntity
  8
외형선
  6
Continuous
 62
     1
370
    15
100
AcDbSpline
210
0.0
220
0.0
230
1.0
 70
     8
 71
     3
 72
     8
 73
     4
 74
     0
 42
0.000000001
 43
0.00000001
 40
0.000000298923855
 40
0.000000298923855
 40
0.000000298923855
 40
0.000000298923855
 40
0.0000193564464021
 40
0.0000193564464021
 40
0.0000193564464021
 40
0.0000193564464021
 10
17.93750000002596
 20
-1.42224791325031
 30
0.0
 10
17.93324973084712
 20
-1.426657789854359
 30
0.0
 10
17.92899825010936
 20
-1.431067354638651
 30
0.0
 10
17.92474557738414
 20
-1.435476610010809
 30
0.0
  0
SPLINE
  5
B5
330
1F
100
AcDbEntity
  8
외형선
  6
Continuous
 62
     1
370
    15
100
AcDbSpline
210
0.0
220
0.0
230
1.0
 70
     8
 71
     3
 72
    10
 73
     6
 74
     0
 42
0.000000001
 43
0.00000001
 40
0.0
 40
0.0
 40
0.0
 40
0.0
 40
0.5
 40
0.5
 40
1.0
 40
1.0
 40
1.0
 40
1.0
 10
17.92474557738411
 20
-1.435476610010752
 30
0.0
 10
17.76879711492191
 20
-1.425609666459416
 30
0.0
 10
17.60028498541031
 20
-1.419398379948398
 30
0.0
 10
17.25339827376878
 20
-1.411159182224413
 30
0.0
 10
17.07457676602315
 20
-1.40929088132778
 30
0.0
 10
16.89294026123012
 20
-1.409836462837024
 30
0.0
  0
SPLINE
  5
B6
330
1F
100
AcDbEntity
  8
외형선
  6
Continuous
 62
     1
370
    15
100
AcDbSpline
210
0.0
220
0.0
230
1.0
 70
     8
 71
     3
 72
     8
 73
     4
 74
     0
 42
0.000000001
 43
0.00000001
 40
0.0
 40
0.0
 40
0.0
 40
0.0
 40
0.0000484551563024
 40
0.0000484551563024
 40
0.0000484551563024
 40
0.0000484551563024
 10
16.89083333335929
 20
-1.367463279582696
 30
0.0
 10
16.89153976714516
 20
-1.381645574526116
 30
0.0
 10
16.89224211126647
 20
-1.395770766202572
 30
0.0
 10
16.89294026123012
 20
-1.409836462837023
 30
0.0
  0
SPLINE
  5
B7
330
1F
100
AcDbEntity
  8
외형선
  6
Continuous
 62
     1
370
    15
100
AcDbSpline
210
0.0
220
0.0
230
1.0
 70
     8
 71
     3
 72
     8
 73
     4
 74
     0
 42
0.000000001
 43
0.00000001
 40
0.0
 40
0.0
 40
0.0
 40
0.0
 40
1.0
 40
1.0
 40
1.0
 40
1.0
 10
16.83752229304569
 20
0.5956734685661953
 30
0.0
 10
16.8384039984737
 20
-0.0725394537282823
 30
0.0
 10
16.86107780415827
 20
-0.7700942129137436
 30
0.0
 10
16.89083333335929
 20
-1.367463279582696
 30
0.0
  0
SPLINE
  5
B8
330
1F
100
AcDbEntity
  8
외형선
  6
Continuous
 62
     1
370
    15
100
AcDbSpline
210
0.0
220
0.0
230
1.0
 70
     8
 71
     3
 72
     8
 73
     4
 74
     0
 42
0.000000001
 43
0.00000001
 40
0.0
 40
0.0
 40
0.0
 40
0.0
 40
1.0
 40
1.0
 40
1.0
 40
1.0
 10
16.68015763688247
 20
0.6478096559190614
 30
0.0
 10
16.72647119043107
 20
0.6338776600035152
 30
0.0
 10
16.78296724797902
 20
0.6151410959637391
 30
0.0
 10
16.84098484321774
 20
0.5944394392203263
 30
0.0
  0
SPLINE
  5
B9
330
1F
100
AcDbEntity
  8
외형선
  6
Continuous
 62
     1
370
    15
100
AcDbSpline
210
0.0
220
0.0
230
1.0
 70
     8
 71
     3
 72
    12
 73
     8
 74
     0
 42
0.000000001
 43
0.00000001
 40
0.0
 40
0.0
 40
0.0
 40
0.0
 40
0.5
 40
0.5
 40
0.75
 40
0.75
 40
1.0
 40
1.0
 40
1.0
 40
1.0
 10
16.89083333335926
 20
-1.36746327958243
 30
0.0
 10
16.85685211893516
 20
-1.060943471634297
 30
0.0
 10
16.8204367257344
 20
-0.7220931514911155
 30
0.0
 10
16.76648675203981
 20
-0.2047415742892766
 30
0.0
 10
16.74862680530664
 20
-0.0309356884201871
 30
0.0
 10
16.71387105287863
 20
0.3122352597548061
 30
0.0
 10
16.69738179177661
 20
0.4802811607180558
 30
0.0
 10
16.68015764455124
 20
0.6478095813295741
 30
0.0
  0
SPLINE
  5
BA
330
1F
100
AcDbEntity
  8
외형선
  6
Continuous
 62
     1
370
    15
100
AcDbSpline
210
0.0
220
0.0
230
1.0
 70
     8
 71
     3
 72
     8
 73
     4
 74
     0
 42
0.000000001
 43
0.00000001
 40
0.0
 40
0.0
 40
0.0
 40
0.0
 40
1.0
 40
1.0
 40
1.0
 40
1.0
 10
16.25539168917006
 20
-1.203588288677238
 30
0.0
 10
16.20904069829714
 20
-1.196972911342839
 30
0.0
 10
16.15250926359717
 20
-1.182717126461342
 30
0.0
 10
16.09447063930427
 20
-1.163005646329863
 30
0.0
  0
SPLINE
  5
BB
330
1F
100
AcDbEntity
  8
외형선
  6
Continuous
 62
     1
370
    15
100
AcDbSpline
210
0.0
220
0.0
230
1.0
 70
     8
 71
     3
 72
    10
 73
     6
 74
     0
 42
0.000000001
 43
0.00000001
 40
0.0
 40
0.0
 40
0.0
 40
0.0
 40
0.5000000000000001
 40
0.5000000000000001
 40
1.0
 40
1.0
 40
1.0
 40
1.0
 10
16.09447000414658
 20
-1.162999729212747
 30
0.0
 10
16.05873360098554
 20
-0.8313310593681842
 30
0.0
 10
16.0229971978245
 20
-0.4775408378229701
 30
0.0
 10
15.95152439150242
 20
0.2348230714329172
 30
0.0
 10
15.91578798834139
 20
0.5932448192816844
 30
0.0
 10
15.88005158518035
 20
0.9339182554147154
 30
0.0
  0
SPLINE
  5
BC
330
1F
100
AcDbEntity
  8
외형선
  6
Continuous
 62
     1
370
    15
100
AcDbSpline
210
0.0
220
0.0
230
1.0
 70
     8
 71
     3
 72
     8
 73
     4
 74
     0
 42
0.000000001
 43
0.00000001
 40
0.0
 40
0.0
 40
0.0
 40
0.0
 40
1.0
 40
1.0
 40
1.0
 40
1.0
 10
15.88005162133223
 20
0.9339179122838623
 30
0.0
 10
15.93626211714791
 20
0.9143057136253863
 30
0.0
 10
15.9928426656571
 20
0.8912919089149238
 30
0.0
 10
16.03952027188134
 20
0.8702333760282692
 30
0.0
  0
SPLINE
  5
BD
330
1F
100
AcDbEntity
  8
외형선
  6
Continuous
 62
     1
370
    15
100
AcDbSpline
210
0.0
220
0.0
230
1.0
 70
     8
 71
     3
 72
    10
 73
     6
 74
     0
 42
0.000000001
 43
0.00000001
 40
0.0
 40
0.0
 40
0.0
 40
0.0
 40
0.5
 40
0.5
 40
1.0
 40
1.0
 40
1.0
 40
1.0
 10
16.25539136218524
 20
-1.203585305552647
 30
0.0
 10
16.2198368209376
 20
-0.8792170036736164
 30
0.0
 10
16.1822257738289
 20
-0.5252080149403406
 30
0.0
 10
16.10922940041429
 20
0.1829563310411437
 30
0.0
 10
16.07560756062657
 20
0.5309535274894053
 30
0.0
 10
16.03952034804569
 20
0.8702326599625416
 30
0.0
  0
SPLINE
  5
BE
330
1F
100
AcDbEntity
  8
외형선
  6
Continuous
 62
     1
370
    15
100
AcDbSpline
210
0.0
220
0.0
230
1.0
 70
     8
 71
     3
 72
    10
 73
     6
 74
     0
 42
0.000000001
 43
0.00000001
 40
0.0
 40
0.0
 40
0.0
 40
0.0
 40
0.5
 40
0.5
 40
1.0
 40
1.0
 40
1.0
 40
1.0
 10
12.90280974726412
 20
-0.0290121091902251
 30
0.0
 10
12.86693014060284
 20
0.3278678732740719
 30
0.0
 10
12.83359073447947
 20
0.6769637943070714
 30
0.0
 10
12.76123641201786
 20
1.355076641575765
 30
0.0
 10
12.72388268532455
 20
1.677659754104258
 30
0.0
 10
12.68846088292587
 20
1.957463024809904
 30
0.0
  0
SPLINE
  5
BF
330
1F
100
AcDbEntity
  8
외형선
  6
Continuous
 62
     1
370
    15
100
AcDbSpline
210
0.0
220
0.0
230
1.0
 70
     8
 71
     3
 72
     8
 73
     4
 74
     0
 42
0.000000001
 43
0.00000001
 40
0.0
 40
0.0
 40
0.0
 40
0.0
 40
1.0
 40
1.0
 40
1.0
 40
1.0
 10
13.80322950651875
 20
1.623315997854616
 30
0.0
 10
13.43321934352627
 20
1.739251244524578
 30
0.0
 10
13.06011768682058
 20
1.851094467004015
 30
0.0
 10
12.68846081162791
 20
1.957463616051536
 30
0.0
  0
SPLINE
  5
C0
330
1F
100
AcDbEntity
  8
외형선
  6
Continuous
 62
     1
370
    15
100
AcDbSpline
210
0.0
220
0.0
230
1.0
 70
     8
 71
     3
 72
    10
 73
     6
 74
     0
 42
0.000000001
 43
0.00000001
 40
0.0
 40
0.0
 40
0.0
 40
0.0
 40
0.5
 40
0.5
 40
1.0
 40
1.0
 40
1.0
 40
1.0
 10
14.01785543722522
 20
-0.4333855987698739
 30
0.0
 10
13.9820844489526
 20
-0.0802746292128808
 30
0.0
 10
13.94631346067998
 20
0.2810310861804924
 30
0.0
 10
13.87477148413474
 20
0.9797330651572516
 30
0.0
 10
13.83900049586212
 20
1.316980294776478
 30
0.0
 10
13.8032295075895
 20
1.623315998046383
 30
0.0
  0
SPLINE
  5
C1
330
1F
100
AcDbEntity
  8
외형선
  6
Continuous
 62
     1
370
    15
100
AcDbSpline
210
0.0
220
0.0
230
1.0
 70
     8
 71
     3
 72
     8
 73
     4
 74
     0
 42
0.000000001
 43
0.00000001
 40
0.0
 40
0.0
 40
0.0
 40
0.0
 40
1.0
 40
1.0
 40
1.0
 40
1.0
 10
14.01785535779474
 20
-0.4333857339754644
 30
0.0
 10
13.64863071866159
 20
-0.2997033914376699
 30
0.0
 10
13.27543637720943
 20
-0.1643641820464377
 30
0.0
 10
12.90280999520302
 20
-0.0290117009764663
 30
0.0
  0
SPLINE
  5
C2
330
1F
100
AcDbEntity
  8
외형선
  6
Continuous
 62
     1
370
    15
100
AcDbSpline
210
0.0
220
0.0
230
1.0
 70
     8
 71
     3
 72
    12
 73
     8
 74
     0
 42
0.000000001
 43
0.00000001
 40
0.0
 40
0.0
 40
0.0
 40
0.0
 40
0.5
 40
0.5
 40
0.75
 40
0.75
 40
1.0
 40
1.0
 40
1.0
 40
1.0
 10
14.97957816705219
 20
-0.7768356488236383
 30
0.0
 10
14.94311611623093
 20
-0.4290514455121848
 30
0.0
 10
14.90600699966497
 20
-0.0642217215665047
 30
0.0
 10
14.85394073444761
 20
0.4629375076498159
 30
0.0
 10
14.83705954081565
 20
0.6357839801689251
 30
0.0
 10
14.80150317853082
 20
0.9797816324283612
 30
0.0
 10
14.78327678373077
 20
1.14938916200819
 30
0.0
 10
14.76498375728991
 20
1.312866501062598
 30
0.0
  0
SPLINE
  5
C3
330
1F
100
AcDbEntity
  8
외형선
  6
Continuous
 62
     1
370
    15
100
AcDbSpline
210
0.0
220
0.0
230
1.0
 70
     8
 71
     3
 72
     8
 73
     4
 74
     0
 42
0.000000001
 43
0.00000001
 40
0.0
 40
0.0
 40
0.0
 40
0.0
 40
1.0
 40
1.0
 40
1.0
 40
1.0
 10
15.88005149063633
 20
0.9339179578844932
 30
0.0
 10
15.51042943106376
 20
1.062881439013183
 30
0.0
 10
15.13722721202164
 20
1.189719483435006
 30
0.0
 10
14.76498382842613
 20
1.31286586508205
 30
0.0
  0
SPLINE
  5
C4
330
1F
100
AcDbEntity
  8
외형선
  6
Continuous
 62
     1
370
    15
100
AcDbSpline
210
0.0
220
0.0
230
1.0
 70
     8
 71
     3
 72
     8
 73
     4
 74
     0
 42
0.000000001
 43
0.00000001
 40
0.0
 40
0.0
 40
0.0
 40
0.0
 40
1.0
 40
1.0
 40
1.0
 40
1.0
 10
16.09446852420564
 20
-1.163004927983955
 30
0.0
 10
15.72422460384624
 20
-1.037260104707904
 30
0.0
 10
15.35255641694062
 20
-0.9081888837223457
 30
0.0
 10
14.97957744258596
 20
-0.7768373694518205
 30
0.0
  0
SPLINE
  5
C5
330
1F
100
AcDbEntity
  8
외형선
  6
Continuous
 62
     1
370
    15
100
AcDbSpline
210
0.0
220
0.0
230
1.0
 70
     8
 71
     3
 72
     8
 73
     4
 74
     0
 42
0.000000001
 43
0.00000001
 40
0.0
 40
0.0
 40
0.0
 40
0.0
 40
1.0
 40
1.0
 40
1.0
 40
1.0
 10
14.97957838213436
 20
-0.7768377003313383
 30
0.0
 10
14.92335553083249
 20
-0.75703777336328
 30
0.0
 10
14.8667598989134
 20
-0.7347759816223773
 30
0.0
 10
14.82008423343979
 20
-0.715425735180043
 30
0.0
  0
SPLINE
  5
C6
330
1F
100
AcDbEntity
  8
외형선
  6
Continuous
 62
     1
370
    15
100
AcDbSpline
210
0.0
220
0.0
230
1.0
 70
     8
 71
     3
 72
    12
 73
     8
 74
     0
 42
0.000000001
 43
0.00000001
 40
0.0
 40
0.0
 40
0.0
 40
0.0
 40
0.4999999999999999
 40
0.4999999999999999
 40
0.7499999999999999
 40
0.7499999999999999
 40
1.0
 40
1.0
 40
1.0
 40
1.0
 10
14.82008421650555
 20
-0.7154255758924073
 30
0.0
 10
14.78330879078984
 20
-0.3695581813039703
 30
0.0
 10
14.74603418776873
 20
-0.0081527811526775
 30
0.0
 10
14.69399594087218
 20
0.511566084125201
 30
0.0
 10
14.67677840535503
 20
0.6828404083696813
 30
0.0
 10
14.6407752589921
 20
1.022254385023768
 30
0.0
 10
14.62236185593666
 20
1.189135247214075
 30
0.0
 10
14.6039303445995
 20
1.349466592802799
 30
0.0
  0
SPLINE
  5
C7
330
1F
100
AcDbEntity
  8
외형선
  6
Continuous
 62
     1
370
    15
100
AcDbSpline
210
0.0
220
0.0
230
1.0
 70
     8
 71
     3
 72
     8
 73
     4
 74
     0
 42
0.000000001
 43
0.00000001
 40
0.0
 40
0.0
 40
0.0
 40
0.0
 40
1.0
 40
1.0
 40
1.0
 40
1.0
 10
14.6039300017456
 20
1.34946957520694
 30
0.0
 10
14.65032380194699
 20
1.344944465988818
 30
0.0
 10
14.70689514401577
 20
1.332082892477671
 30
0.0
 10
14.76498382845561
 20
1.312865865074046
 30
0.0
  0
SPLINE
  5
C8
330
1F
100
AcDbEntity
  8
외형선
  6
Continuous
 62
     1
370
    15
100
AcDbSpline
210
0.0
220
0.0
230
1.0
 70
     8
 71
     3
 72
    10
 73
     6
 74
     0
 42
0.000000001
 43
0.00000001
 40
0.0
 40
0.0
 40
0.0
 40
0.0
 40
0.5
 40
0.5
 40
1.0
 40
1.0
 40
1.0
 40
1.0
 10
16.89294026123012
 20
-1.409836462837023
 30
0.0
 10
16.79821138058224
 20
-1.356700386622576
 30
0.0
 10
16.68328496325534
 20
-1.312782140559694
 30
0.0
 10
16.45515348801611
 20
-1.242332684256537
 30
0.0
 10
16.34608540887989
 20
-1.21653241708588
 30
0.0
 10
16.25539168917043
 20
-1.203588288677126
 30
0.0
  0
SPLINE
  5
C9
330
1F
100
AcDbEntity
  8
외형선
  6
Continuous
 62
     1
370
    15
100
AcDbSpline
210
0.0
220
0.0
230
1.0
 70
     8
 71
     3
 72
    10
 73
     6
 74
     0
 42
0.000000001
 43
0.00000001
 40
0.0
 40
0.0
 40
0.0
 40
0.0
 40
0.5
 40
0.5
 40
1.0
 40
1.0
 40
1.0
 40
1.0
 10
16.03952027188184
 20
0.8702333760280438
 30
0.0
 10
16.13441054020726
 20
0.82742377207028
 30
0.0
 10
16.24981545731229
 20
0.787062914397217
 30
0.0
 10
16.47906854387816
 20
0.7104766694983033
 30
0.0
 10
16.58895845865498
 20
0.675244099644754
 30
0.0
 10
16.68015763688245
 20
0.6478096559190589
 30
0.0
  0
SPLINE
  5
CA
330
1F
100
AcDbEntity
  8
외형선
  6
Continuous
 62
     1
370
    15
100
AcDbSpline
210
0.0
220
0.0
230
1.0
 70
     8
 71
     3
 72
    12
 73
     8
 74
     0
 42
0.000000001
 43
0.00000001
 40
0.0
 40
0.0
 40
0.0
 40
0.0
 40
0.5
 40
0.5
 40
0.75
 40
0.75
 40
1.0
 40
1.0
 40
1.0
 40
1.0
 10
10.82833109487702
 20
0.7196488397842025
 30
0.0
 10
10.79307646724335
 20
1.065262960037784
 30
0.0
 10
10.75576100141075
 20
1.403552394252069
 30
0.0
 10
10.70134415549633
 20
1.856771367863163
 30
0.0
 10
10.68347179488377
 20
1.998891879010089
 30
0.0
 10
10.64897464172995
 20
2.260208315074315
 30
0.0
 10
10.63189476635788
 20
2.380726748648878
 30
0.0
 10
10.61402138070991
 20
2.49122772798797
 30
0.0
  0
SPLINE
  5
CB
330
1F
100
AcDbEntity
  8
외형선
  6
Continuous
 62
     1
370
    15
100
AcDbSpline
210
0.0
220
0.0
230
1.0
 70
     8
 71
     3
 72
     8
 73
     4
 74
     0
 42
0.000000001
 43
0.00000001
 40
0.0
 40
0.0
 40
0.0
 40
0.0
 40
1.0
 40
1.0
 40
1.0
 40
1.0
 10
11.72797494446737
 20
2.220666117417398
 30
0.0
 10
11.3577561127838
 20
2.317030166745803
 30
0.0
 10
10.98492933553236
 20
2.407587928841809
 30
0.0
 10
10.61402143623414
 20
2.491227931798289
 30
0.0
  0
SPLINE
  5
CC
330
1F
100
AcDbEntity
  8
외형선
  6
Continuous
 62
     1
370
    15
100
AcDbSpline
210
0.0
220
0.0
230
1.0
 70
     8
 71
     3
 72
    10
 73
     6
 74
     0
 42
0.000000001
 43
0.00000001
 40
0.0
 40
0.0
 40
0.0
 40
0.0
 40
0.5
 40
0.5
 40
1.0
 40
1.0
 40
1.0
 40
1.0
 10
11.94195280155993
 20
0.3204221301567887
 30
0.0
 10
11.90628981956929
 20
0.6749944963309662
 30
0.0
 10
11.87062683757864
 20
1.023378750831576
 30
0.0
 10
11.79930087359735
 20
1.668925176297539
 30
0.0
 10
11.76363789160671
 20
1.965949736700592
 30
0.0
 10
11.72797490961606
 20
2.220666092502338
 30
0.0
  0
SPLINE
  5
CD
330
1F
100
AcDbEntity
  8
외형선
  6
Continuous
 62
     1
370
    15
100
AcDbSpline
210
0.0
220
0.0
230
1.0
 70
     8
 71
     3
 72
     8
 73
     4
 74
     0
 42
0.000000001
 43
0.00000001
 40
0.0
 40
0.0
 40
0.0
 40
0.0
 40
1.0
 40
1.0
 40
1.0
 40
1.0
 10
11.94195332810994
 20
0.3204246249068131
 30
0.0
 10
11.57271564015933
 20
0.4544934899385969
 30
0.0
 10
11.20000124580741
 20
0.5881124295364333
 30
0.0
 10
10.82833169984945
 20
0.7196493390741066
 30
0.0
  0
SPLINE
  5
CE
330
1F
100
AcDbEntity
  8
외형선
  6
Continuous
 62
     1
370
    15
100
AcDbSpline
210
0.0
220
0.0
230
1.0
 70
     8
 71
     3
 72
     8
 73
     4
 74
     0
 42
0.000000001
 43
0.00000001
 40
0.0
 40
0.0
 40
0.0
 40
0.0
 40
1.0
 40
1.0
 40
1.0
 40
1.0
 10
14.17893693626373
 20
-0.4904136448330162
 30
0.0
 10
14.13252468613354
 20
-0.4744338335362374
 30
0.0
 10
14.07594300745299
 20
-0.4544170852278411
 30
0.0
 10
14.01785545473749
 20
-0.4333857690748525
 30
0.0
  0
SPLINE
  5
CF
330
1F
100
AcDbEntity
  8
외형선
  6
Continuous
 62
     1
370
    15
100
AcDbSpline
210
0.0
220
0.0
230
1.0
 70
     8
 71
     3
 72
     8
 73
     4
 74
     0
 42
0.000000001
 43
0.00000001
 40
0.0
 40
0.0
 40
0.0
 40
0.0
 40
1.0
 40
1.0
 40
1.0
 40
1.0
 10
13.80322950765422
 20
1.623315997498836
 30
0.0
 10
13.85945777605391
 20
1.605697999888711
 30
0.0
 10
13.91605742717916
 20
1.580626423095989
 30
0.0
 10
13.96274782126877
 20
1.552830849359583
 30
0.0
  0
SPLINE
  5
D0
330
1F
100
AcDbEntity
  8
외형선
  6
Continuous
 62
     1
370
    15
100
AcDbSpline
210
0.0
220
0.0
230
1.0
 70
     8
 71
     3
 72
    12
 73
     8
 74
     0
 42
0.000000001
 43
0.00000001
 40
0.0
 40
0.0
 40
0.0
 40
0.0
 40
0.2500000000000001
 40
0.2500000000000001
 40
0.5000000000000001
 40
0.5000000000000001
 40
1.0
 40
1.0
 40
1.0
 40
1.0
 10
14.17893688407695
 20
-0.4904131475918406
 30
0.0
 10
14.16050494903041
 20
-0.3147929901677383
 30
0.0
 10
14.14211503113952
 20
-0.1369156331276533
 30
0.0
 10
14.10620330381328
 20
0.2156332640012505
 30
0.0
 10
14.08911089014198
 20
0.388884649130663
 30
0.0
 10
14.03684305856569
 20
0.9039983357386281
 30
0.0
 10
13.99949615273602
 20
1.244620505219574
 30
0.0
 10
13.96274792622476
 20
1.552829969091676
 30
0.0
  0
SPLINE
  5
D1
330
1F
100
AcDbEntity
  8
외형선
  6
Continuous
 62
     1
370
    15
100
AcDbSpline
210
0.0
220
0.0
230
1.0
 70
     8
 71
     3
 72
    10
 73
     6
 74
     0
 42
0.000000001
 43
0.00000001
 40
0.0
 40
0.0
 40
0.0
 40
0.0
 40
0.3861900927635606
 40
0.8824634832715831
 40
1.0
 40
1.0
 40
1.0
 40
1.0
 10
17.48172443932837
 20
-1.41711526521565
 30
0.0
 10
17.41642930877531
 20
-1.428311755521111
 30
0.0
 10
17.2672267025246
 20
-1.453896290237343
 30
0.0
 10
17.07674298968474
 20
-1.51714838182667
 30
0.0
 10
16.95708442666999
 20
-1.563388322748646
 30
0.0
 10
16.93417138709915
 20
-1.572242662708987
 30
0.0
  0
SPLINE
  5
D2
330
1F
100
AcDbEntity
  8
외형선
  6
Continuous
 62
     1
370
    15
100
AcDbSpline
210
0.0
220
0.0
230
1.0
 70
     8
 71
     3
 72
     8
 73
     4
 74
     0
 42
0.000000001
 43
0.00000001
 40
0.0
 40
0.0
 40
0.0
 40
0.0
 40
1.0
 40
1.0
 40
1.0
 40
1.0
 10
17.93750000002596
 20
-1.856130954124575
 30
0.0
 10
17.60090223833348
 20
-1.770033440771577
 30
0.0
 10
17.2665808284824
 20
-1.674923105983076
 30
0.0
 10
16.93417138709915
 20
-1.572242662708985
 30
0.0
  0
LINE
  5
D3
330
1F
100
AcDbEntity
  8
외형선
  6
Continuous
 62
     1
370
    15
100
AcDbLine
 10
17.93750000002596
 20
-1.99264706688176
 30
0.0
 11
17.93750000002596
 21
-1.856130954124574
 31
0.0
  0
SPLINE
  5
D4
330
1F
100
AcDbEntity
  8
외형선
  6
Continuous
 62
     1
370
    15
100
AcDbSpline
210
0.0
220
0.0
230
1.0
 70
     8
 71
     3
 72
    10
 73
     6
 74
     0
 42
0.000000001
 43
0.00000001
 40
0.0
 40
0.0
 40
0.0
 40
0.0
 40
0.5
 40
0.5
 40
1.0
 40
1.0
 40
1.0
 40
1.0
 10
16.99479886909234
 20
-2.839931066232039
 30
0.0
 10
17.15302594804661
 20
-2.682477228567182
 30
0.0
 10
17.3113143413524
 20
-2.531883354009351
 30
0.0
 10
17.62832409185047
 20
-2.246931551100213
 30
0.0
 10
17.78812989628575
 20
-2.112282048524206
 30
0.0
 10
17.93750000002596
 20
-1.99264706688176
 30
0.0
  0
SPLINE
  5
D5
330
1F
100
AcDbEntity
  8
외형선
  6
Continuous
 62
     1
370
    15
100
AcDbSpline
210
0.0
220
0.0
230
1.0
 70
     8
 71
     3
 72
     8
 73
     4
 74
     0
 42
0.000000001
 43
0.00000001
 40
0.0
 40
0.0
 40
0.0
 40
0.0
 40
1.0
 40
1.0
 40
1.0
 40
1.0
 10
16.73012373411573
 20
-2.962923885713482
 30
0.0
 10
16.8083177317092
 20
-2.900089120330068
 30
0.0
 10
16.90108179557438
 20
-2.85916495674813
 30
0.0
 10
16.9947988690923
 20
-2.839931066231947
 30
0.0
  0
SPLINE
  5
D6
330
1F
100
AcDbEntity
  8
외형선
  6
Continuous
 62
     1
370
    15
100
AcDbSpline
210
0.0
220
0.0
230
1.0
 70
     8
 71
     3
 72
     8
 73
     4
 74
     0
 42
0.000000001
 43
0.00000001
 40
0.0
 40
0.0
 40
0.0
 40
0.0
 40
1.0
 40
1.0
 40
1.0
 40
1.0
 10
16.57069812241069
 20
-3.029103675624838
 30
0.0
 10
16.62689630164057
 20
-3.022981259582272
 30
0.0
 10
16.68346874623296
 20
-3.00041468178225
 30
0.0
 10
16.73012373411573
 20
-2.962923885713481
 30
0.0
  0
SPLINE
  5
D7
330
1F
100
AcDbEntity
  8
외형선
  6
Continuous
 62
     1
370
    15
100
AcDbSpline
210
0.0
220
0.0
230
1.0
 70
     8
 71
     3
 72
     8
 73
     4
 74
     0
 42
0.000000001
 43
0.00000001
 40
0.0
 40
0.0
 40
0.0
 40
0.0
 40
1.0
 40
1.0
 40
1.0
 40
1.0
 10
16.57069659861757
 20
-3.029103841631677
 30
0.0
 10
16.19801887627855
 20
-3.069704566549732
 30
0.0
 10
15.82915051034376
 20
-3.101917626136007
 30
0.0
 10
15.45668099503783
 20
-3.125697972828629
 30
0.0
  0
SPLINE
  5
D8
330
1F
100
AcDbEntity
  8
외형선
  6
Continuous
 62
     1
370
    15
100
AcDbSpline
210
0.0
220
0.0
230
1.0
 70
     8
 71
     3
 72
     8
 73
     4
 74
     0
 42
0.000000001
 43
0.00000001
 40
0.0
 40
0.0
 40
0.0
 40
0.0
 40
1.0
 40
1.0
 40
1.0
 40
1.0
 10
15.29594710066743
 20
-3.083879163480774
 30
0.0
 10
15.34223007728868
 20
-3.114755320480419
 30
0.0
 10
15.39869684582612
 20
-3.129399976304038
 30
0.0
 10
15.45668129404413
 20
-3.125697953744047
 30
0.0
  0
SPLINE
  5
D9
330
1F
100
AcDbEntity
  8
외형선
  6
Continuous
 62
     1
370
    15
100
AcDbSpline
210
0.0
220
0.0
230
1.0
 70
     8
 71
     3
 72
    10
 73
     6
 74
     0
 42
0.000000001
 43
0.00000001
 40
0.0
 40
0.0
 40
0.0
 40
0.0
 40
0.5
 40
0.5
 40
1.0
 40
1.0
 40
1.0
 40
1.0
 10
14.65565499345645
 20
-3.111052110691507
 30
0.0
 10
14.75049113469904
 20
-3.036800387242604
 30
0.0
 10
14.86585186408691
 20
-2.998662643962456
 30
0.0
 10
15.09502391776537
 20
-2.99235260065606
 30
0.0
 10
15.20483107133352
 20
-3.023094118259486
 30
0.0
 10
15.29594710066743
 20
-3.083879163480769
 30
0.0
  0
SPLINE
  5
DA
330
1F
100
AcDbEntity
  8
외형선
  6
Continuous
 62
     1
370
    15
100
AcDbSpline
210
0.0
220
0.0
230
1.0
 70
     8
 71
     3
 72
     8
 73
     4
 74
     0
 42
0.000000001
 43
0.00000001
 40
0.0
 40
0.0
 40
0.0
 40
0.0
 40
1.0
 40
1.0
 40
1.0
 40
1.0
 10
14.49626525826339
 20
-3.167975159953576
 30
0.0
 10
14.55245079793194
 20
-3.166616140291795
 30
0.0
 10
14.6090118577501
 20
-3.147571239030835
 30
0.0
 10
14.65565499345609
 20
-3.111052110691786
 30
0.0
  0
SPLINE
  5
DB
330
1F
100
AcDbEntity
  8
외형선
  6
Continuous
 62
     1
370
    15
100
AcDbSpline
210
0.0
220
0.0
230
1.0
 70
     8
 71
     3
 72
     8
 73
     4
 74
     0
 42
0.000000001
 43
0.00000001
 40
0.0
 40
0.0
 40
0.0
 40
0.0
 40
1.0
 40
1.0
 40
1.0
 40
1.0
 10
14.49626474611968
 20
-3.1679751723413
 30
0.0
 10
14.12369199373916
 20
-3.176986979550147
 30
0.0
 10
13.75445661317633
 20
-3.177336218838241
 30
0.0
 10
13.38136655663756
 20
-3.16901026035495
 30
0.0
  0
SPLINE
  5
DC
330
1F
100
AcDbEntity
  8
외형선
  6
Continuous
 62
     1
370
    15
100
AcDbSpline
210
0.0
220
0.0
230
1.0
 70
     8
 71
     3
 72
     8
 73
     4
 74
     0
 42
0.000000001
 43
0.00000001
 40
0.0
 40
0.0
 40
0.0
 40
0.0
 40
1.0
 40
1.0
 40
1.0
 40
1.0
 10
13.22032914645105
 20
-3.111135190518778
 30
0.0
 10
13.26671957617252
 20
-3.147444003759058
 30
0.0
 10
13.32328701206184
 20
-3.167714144727059
 30
0.0
 10
13.38136658110216
 20
-3.169010260906791
 30
0.0
  0
SPLINE
  5
DD
330
1F
100
AcDbEntity
  8
외형선
  6
Continuous
 62
     1
370
    15
100
AcDbSpline
210
0.0
220
0.0
230
1.0
 70
     8
 71
     3
 72
    10
 73
     6
 74
     0
 42
0.000000001
 43
0.00000001
 40
0.0
 40
0.0
 40
0.0
 40
0.0
 40
0.4999999999999991
 40
0.4999999999999991
 40
1.0
 40
1.0
 40
1.0
 40
1.0
 10
12.57921965938896
 20
-3.083985819173098
 30
0.0
 10
12.67418182195314
 20
-3.015860828711798
 30
0.0
 10
12.78968258528351
 20
-2.985549302839027
 30
0.0
 10
13.01910602127567
 20
-2.998172850612674
 30
0.0
 10
13.12904350748577
 20
-3.039687841645084
 30
0.0
 10
13.22032914645105
 20
-3.111135190518771
 30
0.0
  0
SPLINE
  5
DE
330
1F
100
AcDbEntity
  8
외형선
  6
Continuous
 62
     1
370
    15
100
AcDbSpline
210
0.0
220
0.0
230
1.0
 70
     8
 71
     3
 72
     8
 73
     4
 74
     0
 42
0.000000001
 43
0.00000001
 40
0.0
 40
0.0
 40
0.0
 40
0.0
 40
1.0
 40
1.0
 40
1.0
 40
1.0
 10
12.41970432349946
 20
-3.128413950669632
 30
0.0
 10
12.47592678439389
 20
-3.131908135011626
 30
0.0
 10
12.5325318435152
 20
-3.117479233025128
 30
0.0
 10
12.57921965938861
 20
-3.083985819173348
 30
0.0
  0
SPLINE
  5
DF
330
1F
100
AcDbEntity
  8
외형선
  6
Continuous
 62
     1
370
    15
100
AcDbSpline
210
0.0
220
0.0
230
1.0
 70
     8
 71
     3
 72
     8
 73
     4
 74
     0
 42
0.000000001
 43
0.00000001
 40
0.0
 40
0.0
 40
0.0
 40
0.0
 40
1.0
 40
1.0
 40
1.0
 40
1.0
 10
12.41970522583123
 20
-3.128414006748982
 30
0.0
 10
12.04764397193324
 20
-3.10529068911208
 30
0.0
 10
11.67789380208265
 20
-3.073688856113447
 30
0.0
 10
11.30457897350724
 20
-3.033672882482083
 30
0.0
  0
SPLINE
  5
E0
330
1F
100
AcDbEntity
  8
외형선
  6
Continuous
 62
     1
370
    15
100
AcDbSpline
210
0.0
220
0.0
230
1.0
 70
     8
 71
     3
 72
     8
 73
     4
 74
     0
 42
0.000000001
 43
0.00000001
 40
0.0
 40
0.0
 40
0.0
 40
0.0
 40
1.0
 40
1.0
 40
1.0
 40
1.0
 10
11.14362557930425
 20
-2.962996583731496
 30
0.0
 10
11.18998227672144
 20
-3.002686157264866
 30
0.0
 10
11.24652258318648
 20
-3.02744975689355
 30
0.0
 10
11.30457653872917
 20
-3.033672621501541
 30
0.0
  0
SPLINE
  5
E1
330
1F
100
AcDbEntity
  8
외형선
  6
Continuous
 62
     1
370
    15
100
AcDbSpline
210
0.0
220
0.0
230
1.0
 70
     8
 71
     3
 72
    10
 73
     6
 74
     0
 42
0.000000001
 43
0.00000001
 40
0.0
 40
0.0
 40
0.0
 40
0.0
 40
0.5
 40
0.5
 40
1.0
 40
1.0
 40
1.0
 40
1.0
 10
10.50308191064837
 20
-2.883051744170877
 30
0.0
 10
10.59794181744933
 20
-2.824961299479346
 30
0.0
 10
10.7133417868239
 20
-2.804138324837017
 30
0.0
 10
10.94259265697922
 20
-2.834950472201726
 30
0.0
 10
11.05243026337013
 20
-2.88491718206289
 30
0.0
 10
11.14362557930425
 20
-2.962996583731494
 30
0.0
  0
SPLINE
  5
E2
330
1F
100
AcDbEntity
  8
외형선
  6
Continuous
 62
     1
370
    15
100
AcDbSpline
210
0.0
220
0.0
230
1.0
 70
     8
 71
     3
 72
     8
 73
     4
 74
     0
 42
0.000000001
 43
0.00000001
 40
0.0
 40
0.0
 40
0.0
 40
0.0
 40
1.0
 40
1.0
 40
1.0
 40
1.0
 10
10.34374237360778
 20
-2.912479192475795
 30
0.0
 10
10.39990821462587
 20
-2.920631037475445
 30
0.0
 10
10.45645053757765
 20
-2.911607930757962
 30
0.0
 10
10.50308191064801
 20
-2.88305174417109
 30
0.0
  0
SPLINE
  5
E3
330
1F
100
AcDbEntity
  8
외형선
  6
Continuous
 62
     1
370
    15
100
AcDbSpline
210
0.0
220
0.0
230
1.0
 70
     8
 71
     3
 72
     8
 73
     4
 74
     0
 42
0.000000001
 43
0.00000001
 40
0.0
 40
0.0
 40
0.0
 40
0.0
 40
1.0
 40
1.0
 40
1.0
 40
1.0
 10
10.34374326027621
 20
-2.912479321166072
 30
0.0
 10
10.22890236394539
 20
-2.895811450767645
 30
0.0
 10
10.11460524546925
 20
-2.87841155209671
 30
0.0
 10
10.00000000002595
 20
-2.860251710448262
 30
0.0
  0
SPLINE
  5
E4
330
1F
100
AcDbEntity
  8
외형선
  6
Continuous
370
    15
100
AcDbSpline
210
0.0
220
0.0
230
1.0
 70
    24
 71
     3
 72
    14
 73
    10
 74
     0
 42
0.000000001
 43
0.00000001
 40
0.0
 40
0.0
 40
0.0
 40
0.0
 40
0.25
 40
0.25
 40
0.5
 40
0.5
 40
0.75
 40
0.75
 40
1.0
 40
1.0
 40
1.0
 40
1.0
 10
10.00000000002596
 20
0.9944215590951491
 30
0.0
 10
10.00000000002596
 20
0.8811992280774246
 30
0.0
 10
10.00000000002596
 20
0.7277156438370749
 30
0.0
 10
10.00000000002596
 20
0.304497901912086
 30
0.0
 10
10.00000000002596
 20
0.0333658355712206
 30
0.0
 10
10.00000000002596
 20
-0.6407740276982922
 30
0.0
 10
10.00000000002596
 20
-1.045298454538235
 30
0.0
 10
10.00000000002596
 20
-1.931011268789885
 30
0.0
 10
10.00000000002596
 20
-2.410445146099268
 30
0.0
 10
10.00000000002596
 20
-2.860251710447983
 30
0.0
  0
SPLINE
  5
E5
330
1F
100
AcDbEntity
  8
외형선
  6
Continuous
370
    15
100
AcDbSpline
210
0.0
220
0.0
230
1.0
 70
     8
 71
     3
 72
     8
 73
     4
 74
     0
 42
0.000000001
 43
0.00000001
 40
0.0
 40
0.0
 40
0.0
 40
0.0
 40
0.0000359127599113
 40
0.0000359127599113
 40
0.0000359127599113
 40
0.0000359127599113
 10
10.02811726547377
 20
0.9765575323688038
 30
0.0
 10
10.01913704332139
 20
0.9826463143913315
 30
0.0
 10
10.00972844996489
 20
0.9886196363953061
 30
0.0
 10
9.99999999999151
 20
0.9944215591113288
 30
0.0
  0
SPLINE
  5
E6
330
1F
100
AcDbEntity
  8
외형선
  6
Continuous
 62
     1
370
    15
100
AcDbSpline
210
0.0
220
0.0
230
1.0
 70
     8
 71
     3
 72
    10
 73
     6
 74
     0
 42
0.000000001
 43
0.00000001
 40
0.0
 40
0.0
 40
0.0
 40
0.0
 40
0.5
 40
0.5
 40
1.0
 40
1.0
 40
1.0
 40
1.0
 10
10.6689473773822
 20
0.7559532917422342
 30
0.0
 10
10.57400596419576
 20
0.7610296519547837
 30
0.0
 10
10.45851652598294
 20
0.7830900082131727
 30
0.0
 10
10.22917021111541
 20
0.860753735781471
 30
0.0
 10
10.1193489991056
 20
0.9147004724658212
 30
0.0
 10
10.02811726547414
 20
0.9765575323687148
 30
0.0
  0
SPLINE
  5
E7
330
1F
100
AcDbEntity
  8
외형선
  6
Continuous
 62
     1
370
    15
100
AcDbSpline
210
0.0
220
0.0
230
1.0
 70
     8
 71
     3
 72
     8
 73
     4
 74
     0
 42
0.000000001
 43
0.00000001
 40
0.0
 40
0.0
 40
0.0
 40
0.0
 40
1.0
 40
1.0
 40
1.0
 40
1.0
 10
10.82833101938121
 20
0.7196495798974087
 30
0.0
 10
10.77214189756341
 20
0.7395353719860329
 30
0.0
 10
10.71558693106544
 20
0.7534595520088616
 30
0.0
 10
10.66894737737971
 20
0.7559532917452483
 30
0.0
  0
SPLINE
  5
E8
330
1F
100
AcDbEntity
  8
외형선
  6
Continuous
 62
     1
370
    15
100
AcDbSpline
210
0.0
220
0.0
230
1.0
 70
     8
 71
     3
 72
     8
 73
     4
 74
     0
 42
0.000000001
 43
0.00000001
 40
0.0
 40
0.0
 40
0.0
 40
0.0
 40
1.0
 40
1.0
 40
1.0
 40
1.0
 10
12.1027939237214
 20
0.2503664834145878
 30
0.0
 10
12.05647101075902
 20
0.2747588038663833
 30
0.0
 10
11.99997711188185
 20
0.2993563998975914
 30
0.0
 10
11.94195252695353
 20
0.3204249158050598
 30
0.0
  0
SPLINE
  5
E9
330
1F
100
AcDbEntity
  8
외형선
  6
Continuous
 62
     1
370
    15
100
AcDbSpline
210
0.0
220
0.0
230
1.0
 70
     8
 71
     3
 72
    10
 73
     6
 74
     0
 42
0.000000001
 43
0.00000001
 40
0.0
 40
0.0
 40
0.0
 40
0.0
 40
0.5
 40
0.5
 40
1.0
 40
1.0
 40
1.0
 40
1.0
 10
12.74338310092664
 20
0.0212460828116292
 30
0.0
 10
12.64847494236403
 20
0.044090936972723
 30
0.0
 10
12.53303441041824
 20
0.0754307034387123
 30
0.0
 10
12.30376510327799
 20
0.1552789575105148
 30
0.0
 10
12.19394832465762
 20
0.2023671842333913
 30
0.0
 10
12.10279392372177
 20
0.250366483414561
 30
0.0
  0
SPLINE
  5
EA
330
1F
100
AcDbEntity
  8
외형선
  6
Continuous
 62
     1
370
    15
100
AcDbSpline
210
0.0
220
0.0
230
1.0
 70
     8
 71
     3
 72
     8
 73
     4
 74
     0
 42
0.000000001
 43
0.00000001
 40
0.0
 40
0.0
 40
0.0
 40
0.0
 40
1.0
 40
1.0
 40
1.0
 40
1.0
 10
12.90280969527036
 20
-0.0290115920291901
 30
0.0
 10
12.84660733118728
 20
-0.0085966944412163
 30
0.0
 10
12.79003550237231
 20
0.0100166234760048
 30
0.0
 10
12.74338310092412
 20
0.021246082813406
 30
0.0
  0
SPLINE
  5
EB
330
1F
100
AcDbEntity
  8
외형선
  6
Continuous
 62
     1
370
    15
100
AcDbSpline
210
0.0
220
0.0
230
1.0
 70
     8
 71
     3
 72
    10
 73
     6
 74
     0
 42
0.000000001
 43
0.00000001
 40
0.0
 40
0.0
 40
0.0
 40
0.0
 40
0.5
 40
0.5
 40
1.0
 40
1.0
 40
1.0
 40
1.0
 10
14.82008423344234
 20
-0.7154257351804263
 30
0.0
 10
14.72509750835505
 20
-0.6760472598970666
 30
0.0
 10
14.60956402171876
 20
-0.6371311990527873
 30
0.0
 10
14.38011805360812
 20
-0.5594807719076385
 30
0.0
 10
14.27021282773918
 20
-0.5218400789667482
 30
0.0
 10
14.1789369362641
 20
-0.490413644832971
 30
0.0
  0
SPLINE
  5
EC
330
1F
100
AcDbEntity
  8
외형선
  6
Continuous
 62
     1
370
    15
100
AcDbSpline
210
0.0
220
0.0
230
1.0
 70
     8
 71
     3
 72
    12
 73
     8
 74
     0
 42
0.000000001
 43
0.00000001
 40
0.0
 40
0.0
 40
0.0
 40
0.0
 40
0.25
 40
0.25
 40
0.5
 40
0.5
 40
1.0
 40
1.0
 40
1.0
 40
1.0
 10
12.74338305344325
 20
0.0212465484832046
 30
0.0
 10
12.72538867613584
 20
0.1977181312242064
 30
0.0
 10
12.7082165381666
 20
0.3713860943305798
 30
0.0
 10
12.67343611771203
 20
0.7150547747095657
 30
0.0
 10
12.6554180829275
 20
0.8863732825393478
 30
0.0
 10
12.60057862890843
 20
1.387359717017458
 30
0.0
 10
12.5630032722726
 20
1.703193688428706
 30
0.0
 10
12.52757218257472
 20
1.975106729206723
 30
0.0
  0
SPLINE
  5
ED
330
1F
100
AcDbEntity
  8
외형선
  6
Continuous
 62
     1
370
    15
100
AcDbSpline
210
0.0
220
0.0
230
1.0
 70
     8
 71
     3
 72
     8
 73
     4
 74
     0
 42
0.000000001
 43
0.00000001
 40
0.0
 40
0.0
 40
0.0
 40
0.0
 40
1.0
 40
1.0
 40
1.0
 40
1.0
 10
12.52757156712766
 20
1.975111452403023
 30
0.0
 10
12.57390394834065
 20
1.980292916718026
 30
0.0
 10
12.63042225982527
 20
1.97407439814213
 30
0.0
 10
12.68846080794262
 20
1.957463617109269
 30
0.0
  0
SPLINE
  5
EE
330
1F
100
AcDbEntity
  8
외형선
  6
Continuous
 62
     1
370
    15
100
AcDbSpline
210
0.0
220
0.0
230
1.0
 70
     8
 71
     3
 72
    10
 73
     6
 74
     0
 42
0.000000001
 43
0.00000001
 40
0.0
 40
0.0
 40
0.0
 40
0.0
 40
0.5
 40
0.5
 40
1.0
 40
1.0
 40
1.0
 40
1.0
 10
13.96274782126927
 20
1.552830849359285
 30
0.0
 10
14.0577296786304
 20
1.496286558582015
 30
0.0
 10
14.17322231733993
 20
1.450980542501069
 30
0.0
 10
14.40264460285408
 20
1.381738097120552
 30
0.0
 10
14.51261292507651
 20
1.35837636326079
 30
0.0
 10
14.60393000174558
 20
1.349469575206932
 30
0.0
  0
SPLINE
  5
EF
330
1F
100
AcDbEntity
  8
외형선
  6
Continuous
 62
     1
370
    15
100
AcDbSpline
210
0.0
220
0.0
230
1.0
 70
     8
 71
     3
 72
     8
 73
     4
 74
     0
 42
0.000000001
 43
0.00000001
 40
0.0
 40
0.0
 40
0.0
 40
0.0
 40
1.0
 40
1.0
 40
1.0
 40
1.0
 10
16.3631774918453
 20
3.153025730612751
 30
0.0
 10
16.30694644993572
 20
3.15062143232933
 30
0.0
 10
16.25034380387381
 20
3.130719901290332
 30
0.0
 10
16.20365468348609
 20
3.093797309380258
 30
0.0
  0
SPLINE
  5
F0
330
1F
100
AcDbEntity
  8
외형선
  6
Continuous
 62
     1
370
    15
100
AcDbSpline
210
0.0
220
0.0
230
1.0
 70
     8
 71
     3
 72
     8
 73
     4
 74
     0
 42
0.000000001
 43
0.00000001
 40
0.0
 40
0.0
 40
0.0
 40
0.0
 40
1.0
 40
1.0
 40
1.0
 40
1.0
 10
16.837500000026
 20
3.168619615689993
 30
0.0
 10
16.67918605807245
 20
3.164975740588075
 30
0.0
 10
16.52096189676536
 20
3.159772202068126
 30
0.0
 10
16.36317656067699
 20
3.153025690798315
 30
0.0
  0
SPLINE
  5
F1
330
1F
100
AcDbEntity
  8
외형선
  6
Continuous
 62
     1
370
    15
100
AcDbSpline
210
0.0
220
0.0
230
1.0
 70
     8
 71
     3
 72
    10
 73
     6
 74
     0
 42
0.000000001
 43
0.00000001
 40
0.0
 40
0.0
 40
0.0
 40
0.0
 40
0.5
 40
0.5
 40
1.0
 40
1.0
 40
1.0
 40
1.0
 10
17.92474557738411
 20
2.030595522500662
 30
0.0
 10
17.76087689225143
 20
2.229356374222828
 30
0.0
 10
17.58321216611188
 20
2.420433849264595
 30
0.0
 10
17.21753291715109
 20
2.797623688267474
 30
0.0
 10
17.0289844912099
 20
2.983455942281569
 30
0.0
 10
16.83750000002596
 20
3.168619615689985
 30
0.0
  0
SPLINE
  5
F2
330
1F
100
AcDbEntity
  8
외형선
  6
Continuous
 62
     1
370
    15
100
AcDbSpline
210
0.0
220
0.0
230
1.0
 70
     8
 71
     3
 72
    10
 73
     6
 74
     0
 42
0.000000001
 43
0.00000001
 40
0.0
 40
0.0
 40
0.0
 40
0.0
 40
0.5
 40
0.5
 40
1.0
 40
1.0
 40
1.0
 40
1.0
 10
17.92474557738421
 20
2.030595522500614
 30
0.0
 10
17.81117537767791
 20
1.809503459258803
 30
0.0
 10
17.66608149272956
 20
1.619933496234109
 30
0.0
 10
17.32515108918581
 20
1.306715502672477
 30
0.0
 10
17.13507583545745
 20
1.188082395917793
 30
0.0
 10
16.93417138709916
 20
1.102764171070184
 30
0.0
  0
SPLINE
  5
F3
330
1F
100
AcDbEntity
  8
외형선
  6
Continuous
 62
     1
370
    15
100
AcDbSpline
210
0.0
220
0.0
230
1.0
 70
     8
 71
     3
 72
     8
 73
     4
 74
     0
 42
0.000000001
 43
0.00000001
 40
0.0
 40
0.0
 40
0.0
 40
0.0
 40
1.0
 40
1.0
 40
1.0
 40
1.0
 10
17.93750000002596
 20
0.6124588087644218
 30
0.0
 10
17.60090223833348
 20
0.7808251587088881
 30
0.0
 10
17.2665808284824
 20
0.9439823291218918
 30
0.0
 10
16.93417138709915
 20
1.102764171070191
 30
0.0
  0
LINE
  5
F4
330
1F
100
AcDbEntity
  8
외형선
  6
Continuous
 62
     1
370
    15
100
AcDbLine
 10
17.93750000002596
 20
0.4950880597006291
 30
0.0
 11
17.93750000002596
 21
0.6124588087644216
 31
0.0
  0
SPLINE
  5
F5
330
1F
100
AcDbEntity
  8
외형선
  6
Continuous
 62
     1
370
    15
100
AcDbSpline
210
0.0
220
0.0
230
1.0
 70
     8
 71
     3
 72
    10
 73
     6
 74
     0
 42
0.000000001
 43
0.00000001
 40
0.0
 40
0.0
 40
0.0
 40
0.0
 40
0.5
 40
0.5
 40
1.0
 40
1.0
 40
1.0
 40
1.0
 10
11.88724475840262
 20
2.147428439782053
 30
0.0
 10
11.98208834147557
 20
2.080463631431926
 30
0.0
 10
12.09743618905173
 20
2.032876676518275
 30
0.0
 10
12.32659921665368
 20
1.975011634227968
 30
0.0
 10
12.43640198583072
 20
1.964915733561525
 30
0.0
 10
12.52757156712765
 20
1.975111452403015
 30
0.0
  0
SPLINE
  5
F6
330
1F
100
AcDbEntity
  8
외형선
  6
Continuous
 62
     1
370
    15
100
AcDbSpline
210
0.0
220
0.0
230
1.0
 70
     8
 71
     3
 72
     8
 73
     4
 74
     0
 42
0.000000001
 43
0.00000001
 40
0.0
 40
0.0
 40
0.0
 40
0.0
 40
1.0
 40
1.0
 40
1.0
 40
1.0
 10
11.72797490482728
 20
2.220666127735292
 30
0.0
 10
11.78412726241007
 20
2.206050262557609
 30
0.0
 10
11.84063956931857
 20
2.180334277520432
 30
0.0
 10
11.88724475840212
 20
2.147428439782403
 30
0.0
  0
SPLINE
  5
F7
330
1F
100
AcDbEntity
  8
외형선
  6
Continuous
 62
     1
370
    15
100
AcDbSpline
210
0.0
220
0.0
230
1.0
 70
     8
 71
     3
 72
     8
 73
     4
 74
     0
 42
0.000000001
 43
0.00000001
 40
0.0
 40
0.0
 40
0.0
 40
0.0
 40
1.0
 40
1.0
 40
1.0
 40
1.0
 10
10.45305823785294
 20
2.489009173116284
 30
0.0
 10
10.49942019160919
 20
2.503570815536231
 30
0.0
 10
10.5559596936578
 20
2.504320897112407
 30
0.0
 10
10.61402134439273
 20
2.491227952512708
 30
0.0
  0
SPLINE
  5
F8
330
1F
100
AcDbEntity
  8
외형선
  6
Continuous
 62
     1
370
    15
100
AcDbSpline
210
0.0
220
0.0
230
1.0
 70
     8
 71
     3
 72
     8
 73
     4
 74
     0
 42
0.000000001
 43
0.00000001
 40
0.0
 40
0.0
 40
0.0
 40
0.0
 40
1.0
 40
1.0
 40
1.0
 40
1.0
 10
10.00000000002614
 20
2.516911222356069
 30
0.0
 10
10.15888496709706
 20
2.456795331165572
 30
0.0
 10
10.32503789492827
 20
2.448799770683628
 30
0.0
 10
10.45305823785292
 20
2.489009173116274
 30
0.0
  0
LINE
  5
F9
330
1F
100
AcDbEntity
  8
외형선
  6
Continuous
 62
     1
370
    15
100
AcDbLine
 10
11.08776880055696
 20
2.380770471588104
 30
0.0
 11
11.2507264066623
 21
2.420334399855203
 31
0.0
  0
SPLINE
  5
FA
330
1F
100
AcDbEntity
  8
외형선
  6
Continuous
 62
     1
370
    15
100
AcDbSpline
210
0.0
220
0.0
230
1.0
 70
     8
 71
     3
 72
     8
 73
     4
 74
     0
 42
0.000000001
 43
0.00000001
 40
0.0
 40
0.0
 40
0.0
 40
0.0
 40
1.0
 40
1.0
 40
1.0
 40
1.0
 10
11.4117603420076
 20
2.421044571254629
 30
0.0
 10
11.36537428565071
 20
2.434269767025671
 30
0.0
 10
11.30880859063777
 20
2.433990309862688
 30
0.0
 10
11.25072640125883
 20
2.420334398588611
 30
0.0
  0
SPLINE
  5
FB
330
1F
100
AcDbEntity
  8
외형선
  6
Continuous
 62
     1
370
    15
100
AcDbSpline
210
0.0
220
0.0
230
1.0
 70
     8
 71
     3
 72
    10
 73
     6
 74
     0
 42
0.000000001
 43
0.00000001
 40
0.0
 40
0.0
 40
0.0
 40
0.0
 40
0.5
 40
0.5
 40
1.0
 40
1.0
 40
1.0
 40
1.0
 10
12.05275718594479
 20
2.559299204778509
 30
0.0
 10
11.95781720676037
 20
2.486284936229418
 30
0.0
 10
11.84234854721369
 20
2.438903783602883
 30
0.0
 10
11.61298146412951
 20
2.393369376488112
 30
0.0
 10
11.50304600647133
 20
2.395017983127267
 30
0.0
 10
11.41176034200813
 20
2.421044571254311
 30
0.0
  0
SPLINE
  5
FC
330
1F
100
AcDbEntity
  8
외형선
  6
Continuous
 62
     1
370
    15
100
AcDbSpline
210
0.0
220
0.0
230
1.0
 70
     8
 71
     3
 72
     8
 73
     4
 74
     0
 42
0.000000001
 43
0.00000001
 40
0.0
 40
0.0
 40
0.0
 40
0.0
 40
1.0
 40
1.0
 40
1.0
 40
1.0
 10
12.21222124250041
 20
2.631851492449747
 30
0.0
 10
12.1560105942934
 20
2.620379662378377
 30
0.0
 10
12.09943162224777
 20
2.595194513123653
 30
0.0
 10
12.05275718594222
 20
2.559299204782273
 30
0.0
  0
SPLINE
  5
FD
330
1F
100
AcDbEntity
  8
외형선
  6
Continuous
 62
     1
370
    15
100
AcDbSpline
210
0.0
220
0.0
230
1.0
 70
     8
 71
     3
 72
     8
 73
     4
 74
     0
 42
0.000000001
 43
0.00000001
 40
0.0
 40
0.0
 40
0.0
 40
0.0
 40
1.0
 40
1.0
 40
1.0
 40
1.0
 10
13.32625078228609
 20
2.836437082721473
 30
0.0
 10
12.95454445843434
 20
2.77574301950748
 30
0.0
 10
12.58169236903016
 20
2.707255532582552
 30
0.0
 10
12.21222125100442
 20
2.6318514941853
 30
0.0
  0
SPLINE
  5
FE
330
1F
100
AcDbEntity
  8
외형선
  6
Continuous
 62
     1
370
    15
100
AcDbSpline
210
0.0
220
0.0
230
1.0
 70
     8
 71
     3
 72
     8
 73
     4
 74
     0
 42
0.000000001
 43
0.00000001
 40
0.0
 40
0.0
 40
0.0
 40
0.0
 40
1.0
 40
1.0
 40
1.0
 40
1.0
 10
13.4869778825137
 20
2.817230094606708
 30
0.0
 10
13.44070200472792
 20
2.839194108350029
 30
0.0
 10
13.38423856554937
 20
2.845905617283586
 30
0.0
 10
13.32625079531228
 20
2.836437084853058
 30
0.0
  0
SPLINE
  5
FF
330
1F
100
AcDbEntity
  8
외형선
  6
Continuous
 62
     1
370
    15
100
AcDbSpline
210
0.0
220
0.0
230
1.0
 70
     8
 71
     3
 72
    10
 73
     6
 74
     0
 42
0.000000001
 43
0.00000001
 40
0.0
 40
0.0
 40
0.0
 40
0.0
 40
0.5
 40
0.5
 40
1.0
 40
1.0
 40
1.0
 40
1.0
 10
14.12729053694788
 20
2.908399556887987
 30
0.0
 10
14.03243845732054
 20
2.83224870414767
 30
0.0
 10
13.9171010578396
 20
2.787490806979376
 30
0.0
 10
13.68795111691657
 20
2.758658406502656
 30
0.0
 10
13.57811618375439
 20
2.773972937815556
 30
0.0
 10
13.48697788251422
 20
2.817230094606345
 30
0.0
  0
SPLINE
  5
100
330
1F
100
AcDbEntity
  8
외형선
  6
Continuous
 62
     1
370
    15
100
AcDbSpline
210
0.0
220
0.0
230
1.0
 70
     8
 71
     3
 72
     8
 73
     4
 74
     0
 42
0.000000001
 43
0.00000001
 40
0.0
 40
0.0
 40
0.0
 40
0.0
 40
1.0
 40
1.0
 40
1.0
 40
1.0
 10
14.28668635885872
 20
2.976175419697837
 30
0.0
 10
14.2304955325489
 20
2.969042851148838
 30
0.0
 10
14.17393802782785
 20
2.945849934605062
 30
0.0
 10
14.12729053694536
 20
2.90839955689272
 30
0.0
  0
SPLINE
  5
101
330
1F
100
AcDbEntity
  8
외형선
  6
Continuous
 62
     1
370
    15
100
AcDbSpline
210
0.0
220
0.0
230
1.0
 70
     8
 71
     3
 72
     8
 73
     4
 74
     0
 42
0.000000001
 43
0.00000001
 40
0.0
 40
0.0
 40
0.0
 40
0.0
 40
1.0
 40
1.0
 40
1.0
 40
1.0
 10
15.4016987763332
 20
3.092752487542938
 30
0.0
 10
15.03014435772075
 20
3.062202824705855
 30
0.0
 10
14.65696034604047
 20
3.023176057908803
 30
0.0
 10
14.28668623671984
 20
2.976175404194191
 30
0.0
  0
SPLINE
  5
102
330
1F
100
AcDbEntity
  8
외형선
  6
Continuous
 62
     1
370
    15
100
AcDbSpline
210
0.0
220
0.0
230
1.0
 70
     8
 71
     3
 72
     8
 73
     4
 74
     0
 42
0.000000001
 43
0.00000001
 40
0.0
 40
0.0
 40
0.0
 40
0.0
 40
1.0
 40
1.0
 40
1.0
 40
1.0
 10
15.56245359564768
 20
3.054772490008592
 30
0.0
 10
15.51606486345279
 20
3.084222239300895
 30
0.0
 10
15.45949957123922
 20
3.097505600708019
 30
0.0
 10
15.4014147070615
 20
3.092729129403181
 30
0.0
  0
SPLINE
  5
103
330
1F
100
AcDbEntity
  8
외형선
  6
Continuous
 62
     1
370
    15
100
AcDbSpline
210
0.0
220
0.0
230
1.0
 70
     8
 71
     3
 72
    10
 73
     6
 74
     0
 42
0.000000001
 43
0.00000001
 40
0.0
 40
0.0
 40
0.0
 40
0.0
 40
0.5
 40
0.5
 40
1.0
 40
1.0
 40
1.0
 40
1.0
 10
16.20365468348866
 20
3.093797309374676
 30
0.0
 10
16.10865285259121
 20
3.018668161430388
 30
0.0
 10
15.99314626851434
 20
2.979132244658506
 30
0.0
 10
15.76372661172178
 20
2.968698650311633
 30
0.0
 10
15.65377034474504
 20
2.996800322201929
 30
0.0
 10
15.56245359564821
 20
3.054772490008193
 30
0.0
  0
SPLINE
  5
104
330
1F
100
AcDbEntity
  8
외형선
  6
Continuous
 62
     1
370
    15
100
AcDbSpline
210
0.0
220
0.0
230
1.0
 70
     8
 71
     3
 72
    12
 73
     8
 74
     0
 42
0.000000001
 43
0.00000001
 40
0.0
 40
0.0
 40
0.0
 40
0.0
 40
0.2499999999999999
 40
0.2499999999999999
 40
0.4999999999999999
 40
0.4999999999999999
 40
1.0
 40
1.0
 40
1.0
 40
1.0
 10
12.10279391580644
 20
0.2503665620630965
 30
0.0
 10
12.08521844939749
 20
0.4250004841719875
 30
0.0
 10
12.06827239613648
 20
0.5964237723233372
 30
0.0
 10
12.0325094361739
 20
0.9380150115892394
 30
0.0
 10
12.01415248612442
 20
1.106622988037116
 30
0.0
 10
11.95882382137958
 20
1.594539851276491
 30
0.0
 10
11.92165105796238
 20
1.894896637008633
 30
0.0
 10
11.88724476985122
 20
2.147428355752804
 30
0.0
  0
SPLINE
  5
105
330
1F
100
AcDbEntity
  8
외형선
  6
Continuous
 62
     1
370
    15
100
AcDbSpline
210
0.0
220
0.0
230
1.0
 70
     8
 71
     3
 72
    10
 73
     6
 74
     0
 42
0.000000001
 43
0.00000001
 40
0.0
 40
0.0
 40
0.0
 40
0.0
 40
0.5
 40
0.5
 40
1.0
 40
1.0
 40
1.0
 40
1.0
 10
10.66894732167117
 20
0.7559538247837951
 30
0.0
 10
10.63325823359434
 20
1.097425958047102
 30
0.0
 10
10.59562140899878
 20
1.430079608914896
 30
0.0
 10
10.52280497475998
 20
2.020587597994267
 30
0.0
 10
10.48924776511818
 20
2.27561240694564
 30
0.0
 10
10.45305825947135
 20
2.489009045640103
 30
0.0
  0
SPLINE
  5
106
330
1F
100
AcDbEntity
  8
외형선
  6
Continuous
370
    15
100
AcDbSpline
210
0.0
220
0.0
230
1.0
 70
     8
 71
     3
 72
     8
 73
     4
 74
     0
 42
0.000000001
 43
0.00000001
 40
0.0
 40
0.0
 40
0.0
 40
0.0
 40
1.0
 40
1.0
 40
1.0
 40
1.0
 10
10.02811711596923
 20
0.9765589148741995
 30
0.0
 10
10.01881010102794
 20
1.062622962218468
 30
0.0
 10
10.00942007067323
 20
1.147705783841194
 30
0.0
 10
10.00000000002596
 20
1.231306393765681
 30
0.0
  0
SPLINE
  5
107
330
1F
100
AcDbEntity
  8
외형선
  6
Continuous
370
    15
100
AcDbSpline
210
0.0
220
0.0
230
1.0
 70
    24
 71
     3
 72
    12
 73
     8
 74
     0
 42
0.000000001
 43
0.00000001
 40
0.0
 40
0.0
 40
0.0
 40
0.0
 40
0.2500000000000002
 40
0.2500000000000002
 40
0.5000000000000001
 40
0.5000000000000001
 40
1.0
 40
1.0
 40
1.0
 40
1.0
 10
10.00000000002597
 20
2.516911222356212
 30
0.0
 10
10.00000000002597
 20
2.438484827008018
 30
0.0
 10
10.00000000002595
 20
2.352078579616048
 30
0.0
 10
10.00000000002595
 20
2.163302463087938
 30
0.0
 10
10.00000000002606
 20
2.060085232786617
 30
0.0
 10
10.00000000002606
 20
1.733536788194072
 30
0.0
 10
10.00000000002596
 20
1.493304575083747
 30
0.0
 10
10.00000000002596
 20
1.23130639376567
 30
0.0
  0
SPLINE
  5
108
330
1F
100
AcDbEntity
  8
외형선
  6
Continuous
370
    15
100
AcDbSpline
210
0.0
220
0.0
230
1.0
 70
    24
 71
     3
 72
     8
 73
     4
 74
     0
 42
0.000000001
 43
0.00000001
 40
0.0
 40
0.0
 40
0.0
 40
0.0
 40
1.0
 40
1.0
 40
1.0
 40
1.0
 10
10.00000000002596
 20
1.231306393765669
 30
0.0
 10
10.00000000002596
 20
1.154196702799955
 30
0.0
 10
10.00000000002596
 20
1.075196736226113
 30
0.0
 10
10.00000000002596
 20
0.9944215590906864
 30
0.0
  0
SPLINE
  5
109
330
1F
100
AcDbEntity
  8
외형선
  6
Continuous
 62
     1
370
    15
100
AcDbSpline
210
0.0
220
0.0
230
1.0
 70
     8
 71
     3
 72
     8
 73
     4
 74
     0
 42
0.000000001
 43
0.00000001
 40
0.000000298923855
 40
0.000000298923855
 40
0.000000298923855
 40
0.000000298923855
 40
0.0000193564464021
 40
0.0000193564464021
 40
0.0000193564464021
 40
0.0000193564464021
 10
17.93750000002596
 20
2.019606629395932
 30
0.0
 10
17.93324973084713
 20
2.023271677259183
 30
0.0
 10
17.92899825010936
 20
2.026934632110267
 30
0.0
 10
17.92474557738414
 20
2.030595522500618
 30
0.0
  0
LINE
  5
10A
330
1F
100
AcDbEntity
  8
외형선
  6
Continuous
 62
     1
370
    15
100
AcDbLine
 10
17.93750000002596
 20
0.6124588087644218
 30
0.0
 11
17.93750000002596
 21
2.019606629395931
 31
0.0
  0
LINE
  5
10B
330
1F
100
AcDbEntity
  8
외형선
  6
Continuous
 62
     1
370
    15
100
AcDbLine
 10
11.22330478285519
 20
-3.102742998839037
 30
0.0
 11
11.21947657074973
 21
-3.100083096284669
 31
0.0
  0
LINE
  5
10C
330
1F
100
AcDbEntity
  8
외형선
  6
Continuous
 62
     1
370
    15
100
AcDbLine
 10
17.93750000002596
 20
2.074999999999999
 30
0.0
 11
17.93750000002596
 21
2.019606629395931
 31
0.0
  0
LINE
  5
10D
330
1F
100
AcDbEntity
  8
외형선
  6
Continuous
 62
     1
370
    15
100
AcDbLine
 10
17.93750000002596
 20
-1.422247913250309
 30
0.0
 11
17.93750000002596
 21
-1.856130954124576
 31
0.0
  0
LINE
  5
10E
330
1F
100
AcDbEntity
  8
외형선
  6
Continuous
 62
     1
370
    15
100
AcDbLine
 10
13.41369289057977
 20
-3.169683584194264
 30
0.0
 11
13.40104844806717
 21
-3.169420201966445
 31
0.0
  0
SPLINE
  5
10F
330
1F
100
AcDbEntity
  8
외형선
  6
Continuous
 62
     1
370
    15
100
AcDbSpline
210
0.0
220
0.0
230
1.0
 70
     8
 71
     3
 72
    10
 73
     6
 74
     0
 42
0.000000001
 43
0.00000001
 40
0.0
 40
0.0
 40
0.0
 40
0.0
 40
0.0465646378822173
 40
0.5250613334613217
 40
1.0
 40
1.0
 40
1.0
 40
1.0
 10
10.47494324005983
 20
-3.169727663038546
 30
0.0
 10
10.4729405471768
 20
-3.171439735170791
 30
0.0
 10
10.45035824774312
 20
-3.190745004525889
 30
0.0
 10
10.40535765299206
 20
-3.120056411295498
 30
0.0
 10
10.36422977571392
 20
-2.981499794706602
 30
0.0
 10
10.34374257755855
 20
-2.912480019127193
 30
0.0
  0
SPLINE
  5
110
330
1F
100
AcDbEntity
  8
외형선
  6
Continuous
 62
     1
370
    15
100
AcDbSpline
210
0.0
220
0.0
230
1.0
 70
     8
 71
     3
 72
    10
 73
     6
 74
     0
 42
0.000000001
 43
0.00000001
 40
0.0
 40
0.0
 40
0.0
 40
0.0
 40
0.2024114739036998
 40
0.602446866378648
 40
1.0
 40
1.0
 40
1.0
 40
1.0
 10
10.65540516082915
 20
-3.097238106704213
 30
0.0
 10
10.64532210338091
 20
-3.107898120847232
 30
0.0
 10
10.61531142144647
 20
-3.139626026346646
 30
0.0
 10
10.56327956335293
 20
-3.076934496461401
 30
0.0
 10
10.52310618376764
 20
-2.947545347435744
 30
0.0
 10
10.50308200786774
 20
-2.883052115689404
 30
0.0
  0
SPLINE
  5
111
330
1F
100
AcDbEntity
  8
외형선
  6
Continuous
 62
     1
370
    15
100
AcDbSpline
210
0.0
220
0.0
230
1.0
 70
     8
 71
     3
 72
     9
 73
     5
 74
     0
 42
0.000000001
 43
0.00000001
 40
0.0
 40
0.0
 40
0.0
 40
0.0
 40
0.2977905951260562
 40
1.0
 40
1.0
 40
1.0
 40
1.0
 10
11.21947657074973
 20
-3.100083096284669
 30
0.0
 10
11.2119315014823
 20
-3.096616737605641
 30
0.0
 10
11.18659467288221
 20
-3.084976481883123
 30
0.0
 10
11.16135168647896
 20
-3.013317176929872
 30
0.0
 10
11.14362582401949
 20
-2.962997339044969
 30
0.0
  0
SPLINE
  5
112
330
1F
100
AcDbEntity
  8
외형선
  6
Continuous
 62
     1
370
    15
100
AcDbSpline
210
0.0
220
0.0
230
1.0
 70
     8
 71
     3
 72
     9
 73
     5
 74
     0
 42
0.000000001
 43
0.00000001
 40
0.0
 40
0.0
 40
0.0
 40
0.0
 40
0.4697705622760047
 40
1.0
 40
1.0
 40
1.0
 40
1.0
 10
11.40099394863499
 20
-3.170966085502143
 30
0.0
 10
11.38589381417122
 20
-3.167308179456281
 30
0.0
 10
11.35375017709313
 20
-3.15952159949661
 30
0.0
 10
11.32161564185867
 20
-3.077280515799508
 30
0.0
 10
11.30457696530978
 20
-3.033673872232981
 30
0.0
  0
LINE
  5
113
330
1F
100
AcDbEntity
  8
외형선
  6
Continuous
 62
     1
370
    15
100
AcDbLine
 10
12.47505554655388
 20
-3.174304689407385
 30
0.0
 11
12.41970445629347
 21
-3.128414173155649
 31
0.0
  0
SPLINE
  5
114
330
1F
100
AcDbEntity
  8
외형선
  6
Continuous
 62
     1
370
    15
100
AcDbSpline
210
0.0
220
0.0
230
1.0
 70
     8
 71
     3
 72
     9
 73
     5
 74
     0
 42
0.000000001
 43
0.00000001
 40
0.0
 40
0.0
 40
0.0
 40
0.0
 40
0.2572172301154002
 40
1.0
 40
1.0
 40
1.0
 40
1.0
 10
12.65086359172104
 20
-3.10492572224065
 30
0.0
 10
12.64485222752338
 20
-3.111715596363944
 30
0.0
 10
12.62148145957379
 20
-3.138113027516777
 30
0.0
 10
12.597231861649
 20
-3.107055123304562
 30
0.0
 10
12.57921967813383
 20
-3.083985847187002
 30
0.0
  0
LINE
  5
115
330
1F
100
AcDbEntity
  8
외형선
  6
Continuous
 62
     1
370
    15
100
AcDbLine
 10
13.40104844806717
 20
-3.169420201966445
 30
0.0
 11
13.38136652989735
 21
-3.169010229960945
 31
0.0
  0
LINE
  5
116
330
1F
100
AcDbEntity
  8
중심선
100
AcDbLine
 10
-39.03749999997404
 20
-0.0000000000000047
 30
0.0
 11
20.93750000002597
 21
0.0000000000000026
 31
0.0
  0
LINE
  5
117
330
1F
100
AcDbEntity
  8
참조1
100
AcDbLine
 10
-9.049999999974032
 20
-0.3168705809327334
 30
0.0
 11
-9.049999999974029
 21
-40.31687058093273
 31
0.0
  0
LINE
  5
118
330
1F
100
AcDbEntity
  8
참조1
100
AcDbLine
 10
-19.72860765517051
 20
-3.174999999999993
 30
0.0
 11
48.41397268842196
 21
-3.174999999999993
 31
0.0
  0
LINE
  5
119
330
1F
100
AcDbEntity
  8
참조1
100
AcDbLine
 10
48.41397268842196
 20
-3.174999999999993
 30
0.0
 11
48.41397268842196
 21
-6.927248606176843
 31
0.0
  0
LINE
  5
11A
330
1F
100
AcDbEntity
  8
참조1
100
AcDbLine
 10
-9.049999999974029
 20
-40.31687058093273
 30
0.0
 11
-24.19604980723973
 21
-40.31687058093273
 31
0.0
  0
CIRCLE
  5
11B
330
1F
100
AcDbEntity
  8
해칭선
100
AcDbCircle
 10
0.0
 20
0.0
 30
0.0
 40
3.000000000024842
  0
INSERT
  5
11C
330
1F
100
AcDbEntity
  8
0
  6
Continuous
 62
     7
100
AcDbBlockReference
 66
     1
  2
블럭10
 10
-22.99027293209924
 20
-52.36404488257666
 30
0.0
  0
ATTRIB
  5
11D
330
11C
100
AcDbEntity
  8
FORMAT
 62
     2
100
AcDbText
 10
-33.13190894423587
 20
-50.28867796974446
 30
0.0
 40
4.233333333333333
  1
EM666016 [ 3 FLUTE ]
 41
0.75
  7
SLDTEXTSTYLE0
 11
-33.13190894423587
 21
-52.40534463641113
 31
0.0
100
AcDbAttribute
  2
AUTOATTR0
 70
     0
 74
     1
  0
SEQEND
  5
11E
330
11C
100
AcDbEntity
  8
0
  6
Continuous
 62
     7
  0
HATCH
  5
11F
330
1F
100
AcDbEntity
  8
중심선
100
AcDbHatch
 10
0.0
 20
0.0
 30
0.0
210
0.0
220
0.0
230
1.0
  2
SOLID
 70
     1
 71
     0
 91
        1
 92
        0
 93
        4
 72
     1
 10
-17.27536362771838
 20
-36.11687058093273
 11
-20.72163887155566
 21
-36.11687058093273
 72
     1
 10
-20.72163887155566
 20
-36.11687058093273
 11
-22.84986873075969
 21
-38.65319616150532
 72
     1
 10
-22.84986873075969
 20
-38.65319616150532
 11
-19.40356040180925
 21
-38.65315673220283
 72
     1
 10
-19.40356040180925
 20
-38.65315673220283
 11
-17.27536362771838
 21
-36.11687058093273
 97
        0
 75
     0
 76
     1
 98
        1
 10
0.0000000000259632
 20
-0.31687058093273
  0
HATCH
  5
120
330
1F
100
AcDbEntity
  8
중심선
100
AcDbHatch
 10
0.0
 20
0.0
 30
0.0
210
0.0
220
0.0
230
1.0
  2
SOLID
 70
     1
 71
     0
 91
        1
 92
        0
 93
        4
 72
     1
 10
-12.26259963668243
 20
-36.11687058093273
 11
-15.70887488051971
 21
-36.11687058093273
 72
     1
 10
-15.70887488051971
 20
-36.11687058093273
 11
-20.2400128888771
 21
-41.51687058093275
 72
     1
 10
-20.2400128888771
 20
-41.51687058093275
 11
-16.79373764503982
 21
-41.51687058093275
 72
     1
 10
-16.79373764503982
 20
-41.51687058093275
 11
-12.26259963668243
 21
-36.11687058093273
 97
        0
 75
     0
 76
     1
 98
        1
 10
0.0000000000259632
 20
-0.31687058093273
  0
HATCH
  5
121
330
1F
100
AcDbEntity
  8
중심선
100
AcDbHatch
 10
0.0
 20
0.0
 30
0.0
210
0.0
220
0.0
230
1.0
  2
SOLID
 70
     1
 71
     0
 91
        1
 92
        0
 93
        4
 72
     1
 10
-7.249835645646562
 20
-36.11687058093273
 11
-10.69611088948368
 21
-36.11687058093273
 72
     1
 10
-10.69611088948368
 20
-36.11687058093273
 11
-17.7445477913729
 21
-44.51687058093275
 72
     1
 10
-17.7445477913729
 20
-44.51687058093275
 11
-14.29827254753562
 21
-44.51687058093275
 72
     1
 10
-14.29827254753562
 20
-44.51687058093275
 11
-7.249835645646562
 21
-36.11687058093273
 97
        0
 75
     0
 76
     1
 98
        1
 10
0.0000000000259632
 20
-0.31687058093273
  0
HATCH
  5
122
330
1F
100
AcDbEntity
  8
중심선
100
AcDbHatch
 10
0.0
 20
0.0
 30
0.0
210
0.0
220
0.0
230
1.0
  2
SOLID
 70
     1
 71
     0
 91
        1
 92
        0
 93
        6
 72
     3
 10
-2.449945214634335
 20
-40.316870580984
 11
3.960054785062284
 21
1.540882976769353E-10
 40
0.3939339440162627
 50
17.09539180608437
 51
320.0019657685086
 73
     0
 72
     1
 10
-0.7669455589337397
 20
-38.90476458557106
 11
1.538356314767298
 21
-36.97043787552311
 72
     3
 10
-2.449945214687182
 20
-40.31687058093288
 11
6.600054785286829
 21
-1.278976924368180E-13
 40
0.636358354079598
 50
39.9987384933741
 51
368.4976242363725
 73
     1
 72
     1
 10
3.975387277213428
 20
-39.35687058086275
 11
-3.769877907851259
 21
-39.35687058086272
 72
     1
 10
-3.769877907851259
 20
-39.35687058086272
 11
-3.769902952297193
 21
-41.27687058086264
 72
     1
 10
-3.769902952297193
 20
-41.27687058086264
 11
0.6714768171748435
 21
-41.27687058086261
 97
        0
 75
     0
 76
     1
 98
        1
 10
0.0000000000259632
 20
-0.31687058093273
  0
POINT
  5
123
330
1F
100
AcDbEntity
  8
치수문자_일반주서
100
AcDbPoint
 10
-0.0000000000000038
 20
-0.3168705809327339
 30
0.0
  0
DIMENSION
  5
124
330
1F
100
AcDbEntity
  8
치수문자_일반주서
100
AcDbDimension
  2
_D
 10
30.82715918163136
 20
-3.174999999999937
 30
0.0
 11
30.82715918163127
 21
23.12275000000011
 31
0.0
 70
   160
  1
%%c<>
 71
     2
 42
6.350000000000047
 52
-270.0
  3
SLDDIMSTYLE0
100
AcDbAlignedDimension
 13
6.979949876570008
 23
3.175000000000024
 33
0.0
 14
13.91704204614415
 24
-3.174999999999999
 34
0.0
 50
90.0000000000002
100
AcDbRotatedDimension
1001
ACAD
1000
DSTYLE
1002
{
1070
   171
1070
     6
1070
   273
1070
     7
1002
}
  0
DIMENSION
  5
138
330
1F
100
AcDbEntity
  8
치수문자_일반주서
100
AcDbDimension
  2
_D_1
 10
-46.03749999997407
 20
-3.17500000000005
 30
0.0
 11
-46.03749999997407
 21
-0.5086721738103246
 31
0.0
 70
   160
  1
%%c<>
 71
     2
 42
6.349999999999994
 52
-270.0
  3
SLDDIMSTYLE0
100
AcDbAlignedDimension
 13
-35.22749999997404
 23
3.174999999999984
 33
0.0
 14
-35.22749999997404
 24
-3.17500000000001
 34
0.0
 50
90.0000000000002
100
AcDbRotatedDimension
1001
ACAD
1000
DSTYLE
1002
{
1070
   171
1070
     6
1070
   273
1070
     7
1002
}
  0
DIMENSION
  5
14C
330
1F
100
AcDbEntity
  8
치수문자_일반주서
100
AcDbDimension
  2
_D_2
 10
10.00000000002596
 20
19.05790292822759
 30
0.0
 11
-9.291499999974038
 21
19.05790292822759
 31
0.0
 70
   160
  1
<>
 71
     2
 42
7.937499999999999
  3
SLDDIMSTYLE1
100
AcDbAlignedDimension
 13
17.93750000002596
 23
2.019606629395931
 33
0.0
 14
10.00000000002596
 24
2.623729166487059
 34
0.0
 50
-0.0000000000000513
100
AcDbRotatedDimension
1001
ACAD
1000
DSTYLE
1002
{
1070
   171
1070
     6
1070
   273
1070
     7
1002
}
1001
ACAD_DSTYLE_DIMFLIPARROW_SYMBOL
1070
   385
1070
     0
1001
ACAD_DSTYLE_DIMFLIPARROW_WHICH_SYMBOL
1070
   386
1070
     3
  0
DIMENSION
  5
161
330
1F
100
AcDbEntity
  8
치수문자_일반주서
100
AcDbDimension
  2
_D_3
 10
-36.03749999997405
 20
36.01698679301992
 30
0.0
 11
-6.690156283131162
 21
36.01698679301992
 31
0.0
 70
   160
  1
<>
 71
     2
 42
53.97500000000001
  3
SLDDIMSTYLE1
100
AcDbAlignedDimension
 13
17.93750000002596
 23
2.019606629395931
 33
0.0
 14
-36.03749999997405
 24
2.364999999999995
 34
0.0
100
AcDbRotatedDimension
1001
ACAD
1000
DSTYLE
1002
{
1070
   171
1070
     6
1070
   273
1070
     7
1002
}
  0
LINE
  5
174
330
1F
100
AcDbEntity
  8
참조1
100
AcDbLine
 10
73.77629082241454
 20
7.123129419067272
 30
0.0
 11
73.77629082241454
 21
-7.756870580932732
 31
0.0
  0
LINE
  5
175
330
1F
100
AcDbEntity
  8
참조1
100
AcDbLine
 10
86.47629082241454
 20
5.123129419067272
 30
0.0
 11
73.77629082241454
 21
5.123129419067272
 31
0.0
  0
SOLID
  5
176
330
1F
100
AcDbEntity
  8
참조1
100
AcDbTrace
 10
73.77629082241454
 20
5.123129419067272
 30
0.0
 11
80.12629082241453
 21
4.107129419067272
 31
0.0
 12
80.12629082241453
 22
6.139129419067272
 32
0.0
 13
80.12629082241453
 23
6.139129419067272
 33
0.0
  0
LINE
  5
177
330
1F
100
AcDbEntity
  8
참조1
100
AcDbLine
 10
86.47629082241454
 20
-5.756870580932732
 30
0.0
 11
73.77629082241454
 21
-5.756870580932732
 31
0.0
  0
SOLID
  5
178
330
1F
100
AcDbEntity
  8
참조1
100
AcDbTrace
 10
73.77629082241454
 20
-5.756870580932732
 30
0.0
 11
80.12629082241453
 21
-6.772870580932732
 31
0.0
 12
80.12629082241453
 22
-4.740870580932732
 32
0.0
 13
80.12629082241453
 23
-4.740870580932732
 33
0.0
  0
MTEXT
  5
179
330
1F
100
AcDbEntity
  8
참조1
100
AcDbMText
 10
83.3764056329771
 20
10.74884698508335
 30
0.0
 40
3.5
 41
0.0
 71
     1
 72
     1
  1
A
  7
SLDTEXTSTYLE0
 73
     1
 44
1.0
  0
MTEXT
  5
17A
330
1F
100
AcDbEntity
  8
참조1
100
AcDbMText
 10
83.3764056329771
 20
-0.1311530149166564
 30
0.0
 40
3.5
 41
0.0
 71
     1
 72
     1
  1
A
  7
SLDTEXTSTYLE0
 73
     1
 44
1.0
  0
INSERT
  5
181
330
1F
100
AcDbEntity
  8
해칭선
100
AcDbBlockReference
  2
SW_DOWELSYMBOL_0
 10
0.0
 20
0.0000000000000001
 30
0.0
  0
ENDSEC
  0
SECTION
  2
OBJECTS
  0
DICTIONARY
  5
C
330
0
100
AcDbDictionary
281
     1
  3
ACAD_GROUP
350
D
  3
ACAD_IMAGE_VARS
350
1A5
  3
ACAD_LAYOUT
350
1A
  3
ACAD_MLINESTYLE
350
17
  3
ACAD_PLOTSETTINGS
350
19
  3
ACAD_PLOTSTYLENAME
350
E
  3
ACAD_SCALELIST
350
47
  3
APPDATA
350
1A3
  3
DWGPROPS
350
1A7
  0
DICTIONARY
  5
D
102
{ACAD_REACTORS
330
C
102
}
330
C
100
AcDbDictionary
281
     1
  0
RASTERVARIABLES
  5
1A5
102
{ACAD_REACTORS
330
C
102
}
330
C
100
AcDbRasterVariables
 90
        0
 70
     1
 71
     1
 72
     1
  0
DICTIONARY
  5
1A
102
{ACAD_REACTORS
330
C
102
}
330
C
100
AcDbDictionary
281
     1
  3
Layout1
350
1E
  3
Layout2
350
26
  3
Model
350
22
  0
DICTIONARY
  5
17
102
{ACAD_REACTORS
330
C
102
}
330
C
100
AcDbDictionary
281
     1
  3
Standard
350
18
  0
DICTIONARY
  5
19
102
{ACAD_REACTORS
330
C
102
}
330
C
100
AcDbDictionary
281
     1
  0
ACDBDICTIONARYWDFLT
  5
E
102
{ACAD_REACTORS
330
C
102
}
330
C
100
AcDbDictionary
281
     1
  3
Normal
350
F
100
AcDbDictionaryWithDefault
340
F
  0
DICTIONARY
  5
47
102
{ACAD_REACTORS
330
C
102
}
330
C
100
AcDbDictionary
281
     1
  3
A0
350
48
  3
A1
350
49
  3
A2
350
4A
  3
A3
350
4B
  3
A4
350
4C
  3
A5
350
4D
  3
A6
350
4E
  3
A7
350
4F
  3
A8
350
50
  3
A9
350
51
  3
B0
350
52
  3
B1
350
53
  3
B2
350
54
  3
B3
350
55
  3
B4
350
56
  3
B5
350
57
  3
B6
350
58
  3
B7
350
59
  3
B8
350
5A
  3
B9
350
5B
  3
C0
350
5C
  3
C1
350
5D
  3
C2
350
5E
  3
C3
350
5F
  3
C4
350
60
  3
C5
350
61
  3
C6
350
62
  3
C7
350
63
  3
C8
350
64
  3
C9
350
65
  3
D0
350
66
  3
D1
350
67
  3
D2
350
68
  0
DICTIONARY
  5
1A3
102
{ACAD_REACTORS
330
C
102
}
330
C
100
AcDbDictionary
281
     1
  0
XRECORD
  5
1A7
102
{ACAD_REACTORS
330
C
102
}
330
C
100
AcDbXrecord
280
     1
  1
DWGPROPS COOKIE
  2

  3

  4

  6

  7

  8
12016016
  9

300
=
301
=
302
=
303
=
304
=
305
=
306
=
307
=
308
=
309
=
 40
0.0
 41
2458298.995365683
 42
2458302.36256471
  1

 90
        0
  0
LAYOUT
  5
1E
102
{ACAD_REACTORS
330
1A
102
}
330
1A
100
AcDbPlotSettings
  1

  2
none_device
  4

  6

 40
0.0
 41
0.0
 42
0.0
 43
0.0
 44
0.0
 45
0.0
 46
0.0
 47
0.0
 48
0.0
 49
0.0
140
0.0
141
0.0
142
1.0
143
1.0
 70
   688
 72
     1
 73
     0
 74
     5
  7

 75
    16
147
1.0
148
0.0
149
0.0
100
AcDbLayout
  1
Layout1
 70
     1
 71
     1
 10
0.0
 20
0.0
 11
420.0
 21
297.0
 12
0.0
 22
0.0
 32
0.0
 14
1.000000000000000E+20
 24
1.000000000000000E+20
 34
1.000000000000000E+20
 15
-1.000000000000000E+20
 25
-1.000000000000000E+20
 35
-1.000000000000000E+20
146
0.0
 13
0.0
 23
0.0
 33
0.0
 16
1.0
 26
0.0
 36
0.0
 17
0.0
 27
1.0
 37
0.0
 76
     0
330
1B
  0
LAYOUT
  5
26
102
{ACAD_REACTORS
330
1A
102
}
330
1A
100
AcDbPlotSettings
  1

  2
none_device
  4

  6

 40
0.0
 41
0.0
 42
0.0
 43
0.0
 44
0.0
 45
0.0
 46
0.0
 47
0.0
 48
0.0
 49
0.0
140
0.0
141
0.0
142
1.0
143
1.0
 70
   688
 72
     1
 73
     0
 74
     5
  7

 75
    16
147
1.0
148
0.0
149
0.0
100
AcDbLayout
  1
Layout2
 70
     1
 71
     2
 10
0.0
 20
0.0
 11
0.0
 21
0.0
 12
0.0
 22
0.0
 32
0.0
 14
0.0
 24
0.0
 34
0.0
 15
0.0
 25
0.0
 35
0.0
146
0.0
 13
0.0
 23
0.0
 33
0.0
 16
1.0
 26
0.0
 36
0.0
 17
0.0
 27
1.0
 37
0.0
 76
     0
330
23
  0
LAYOUT
  5
22
102
{ACAD_REACTORS
330
1A
102
}
330
1A
100
AcDbPlotSettings
  1

  2
none_device
  4
ANSI_A_(11.00_x_8.50_Inches)
  6

 40
6.35
 41
19.05
 42
6.35000508
 43
19.05000254
 44
279.4
 45
215.9
 46
104.7392001083597
 47
92.36371863629593
 48
0.0
 49
0.0
140
0.0
141
0.0
142
0.0759908789109562
143
1.0
 70
  1696
 72
     0
 73
     0
 74
     0
  7

 75
     0
147
0.0235690232323232
148
0.0
149
0.0
100
AcDbLayout
  1
Model
 70
     1
 71
     0
 10
0.0
 20
0.0
 11
420.0
 21
297.0
 12
0.0
 22
0.0
 32
0.0
 14
1.000000000000000E+20
 24
1.000000000000000E+20
 34
1.000000000000000E+20
 15
-1.000000000000000E+20
 25
-1.000000000000000E+20
 35
-1.000000000000000E+20
146
0.0
 13
0.0
 23
0.0
 33
0.0
 16
1.0
 26
0.0
 36
0.0
 17
0.0
 27
1.0
 37
0.0
 76
     0
330
1F
331
29
  0
MLINESTYLE
  5
18
102
{ACAD_REACTORS
330
17
102
}
330
17
100
AcDbMlineStyle
  2
Standard
 70
     0
  3

 62
   256
 51
90.0
 52
90.0
 71
     2
 49
0.5
 62
   256
  6
BYLAYER
 49
-0.5
 62
   256
  6
BYLAYER
  0
ACDBPLACEHOLDER
  5
F
102
{ACAD_REACTORS
330
E
102
}
330
E
  0
SCALE
  5
48
102
{ACAD_REACTORS
330
47
102
}
330
47
100
AcDbScale
 70
     0
300
1:1
140
1.0
141
1.0
290
     1
  0
SCALE
  5
49
102
{ACAD_REACTORS
330
47
102
}
330
47
100
AcDbScale
 70
     0
300
1:2
140
1.0
141
2.0
290
     0
  0
SCALE
  5
4A
102
{ACAD_REACTORS
330
47
102
}
330
47
100
AcDbScale
 70
     0
300
1:4
140
1.0
141
4.0
290
     0
  0
SCALE
  5
4B
102
{ACAD_REACTORS
330
47
102
}
330
47
100
AcDbScale
 70
     0
300
1:5
140
1.0
141
5.0
290
     0
  0
SCALE
  5
4C
102
{ACAD_REACTORS
330
47
102
}
330
47
100
AcDbScale
 70
     0
300
1:8
140
1.0
141
8.0
290
     0
  0
SCALE
  5
4D
102
{ACAD_REACTORS
330
47
102
}
330
47
100
AcDbScale
 70
     0
300
1:10
140
1.0
141
10.0
290
     0
  0
SCALE
  5
4E
102
{ACAD_REACTORS
330
47
102
}
330
47
100
AcDbScale
 70
     0
300
1:16
140
1.0
141
16.0
290
     0
  0
SCALE
  5
4F
102
{ACAD_REACTORS
330
47
102
}
330
47
100
AcDbScale
 70
     0
300
1:20
140
1.0
141
20.0
290
     0
  0
SCALE
  5
50
102
{ACAD_REACTORS
330
47
102
}
330
47
100
AcDbScale
 70
     0
300
1:30
140
1.0
141
30.0
290
     0
  0
SCALE
  5
51
102
{ACAD_REACTORS
330
47
102
}
330
47
100
AcDbScale
 70
     0
300
1:40
140
1.0
141
40.0
290
     0
  0
SCALE
  5
52
102
{ACAD_REACTORS
330
47
102
}
330
47
100
AcDbScale
 70
     0
300
1:50
140
1.0
141
50.0
290
     0
  0
SCALE
  5
53
102
{ACAD_REACTORS
330
47
102
}
330
47
100
AcDbScale
 70
     0
300
1:100
140
1.0
141
100.0
290
     0
  0
SCALE
  5
54
102
{ACAD_REACTORS
330
47
102
}
330
47
100
AcDbScale
 70
     0
300
2:1
140
2.0
141
1.0
290
     0
  0
SCALE
  5
55
102
{ACAD_REACTORS
330
47
102
}
330
47
100
AcDbScale
 70
     0
300
4:1
140
4.0
141
1.0
290
     0
  0
SCALE
  5
56
102
{ACAD_REACTORS
330
47
102
}
330
47
100
AcDbScale
 70
     0
300
8:1
140
8.0
141
1.0
290
     0
  0
SCALE
  5
57
102
{ACAD_REACTORS
330
47
102
}
330
47
100
AcDbScale
 70
     0
300
10:1
140
10.0
141
1.0
290
     0
  0
SCALE
  5
58
102
{ACAD_REACTORS
330
47
102
}
330
47
100
AcDbScale
 70
     0
300
100:1
140
100.0
141
1.0
290
     0
  0
SCALE
  5
59
102
{ACAD_REACTORS
330
47
102
}
330
47
100
AcDbScale
 70
     0
300
1/128" = 1'-0"
140
0.0078125
141
12.0
290
     0
  0
SCALE
  5
5A
102
{ACAD_REACTORS
330
47
102
}
330
47
100
AcDbScale
 70
     0
300
1/64" = 1'-0"
140
0.015625
141
12.0
290
     0
  0
SCALE
  5
5B
102
{ACAD_REACTORS
330
47
102
}
330
47
100
AcDbScale
 70
     0
300
1/32" = 1'-0"
140
0.03125
141
12.0
290
     0
  0
SCALE
  5
5C
102
{ACAD_REACTORS
330
47
102
}
330
47
100
AcDbScale
 70
     0
300
1/16" = 1'-0"
140
0.0625
141
12.0
290
     0
  0
SCALE
  5
5D
102
{ACAD_REACTORS
330
47
102
}
330
47
100
AcDbScale
 70
     0
300
3/32" = 1'-0"
140
0.09375
141
12.0
290
     0
  0
SCALE
  5
5E
102
{ACAD_REACTORS
330
47
102
}
330
47
100
AcDbScale
 70
     0
300
1/8" = 1'-0"
140
0.125
141
12.0
290
     0
  0
SCALE
  5
5F
102
{ACAD_REACTORS
330
47
102
}
330
47
100
AcDbScale
 70
     0
300
3/16" = 1'-0"
140
0.1875
141
12.0
290
     0
  0
SCALE
  5
60
102
{ACAD_REACTORS
330
47
102
}
330
47
100
AcDbScale
 70
     0
300
1/4" = 1'-0"
140
0.25
141
12.0
290
     0
  0
SCALE
  5
61
102
{ACAD_REACTORS
330
47
102
}
330
47
100
AcDbScale
 70
     0
300
3/8" = 1'-0"
140
0.375
141
12.0
290
     0
  0
SCALE
  5
62
102
{ACAD_REACTORS
330
47
102
}
330
47
100
AcDbScale
 70
     0
300
1/2" = 1'-0"
140
0.5
141
12.0
290
     0
  0
SCALE
  5
63
102
{ACAD_REACTORS
330
47
102
}
330
47
100
AcDbScale
 70
     0
300
3/4" = 1'-0"
140
0.75
141
12.0
290
     0
  0
SCALE
  5
64
102
{ACAD_REACTORS
330
47
102
}
330
47
100
AcDbScale
 70
     0
300
1" = 1'-0"
140
1.0
141
12.0
290
     0
  0
SCALE
  5
65
102
{ACAD_REACTORS
330
47
102
}
330
47
100
AcDbScale
 70
     0
300
1-1/2" = 1'-0"
140
1.5
141
12.0
290
     0
  0
SCALE
  5
66
102
{ACAD_REACTORS
330
47
102
}
330
47
100
AcDbScale
 70
     0
300
3" = 1'-0"
140
3.0
141
12.0
290
     0
  0
SCALE
  5
67
102
{ACAD_REACTORS
330
47
102
}
330
47
100
AcDbScale
 70
     0
300
6" = 1'-0"
140
6.0
141
12.0
290
     0
  0
SCALE
  5
68
102
{ACAD_REACTORS
330
47
102
}
330
47
100
AcDbScale
 70
     0
300
1'-0" = 1'-0"
140
12.0
141
12.0
290
     0
  0
ENDSEC
  0
EOF
