  0
SECTION
  2
HEADER
  9
$ACADVER
  1
AC1015
  9
$ACADMAINTVER
 70
     6
  9
$DWGCODEPAGE
  3
ANSI_949
  9
$INSBASE
 10
0.0
 20
0.0
 30
0.0
  9
$EXTMIN
 10
-52.00000000000009
 20
-50.28867796974447
 30
0.0
  9
$EXTMAX
 10
86.47629082238856
 20
41.19907034213168
 30
0.0
  9
$LIMMIN
 10
0.0
 20
0.0
  9
$LIMMAX
 10
420.0
 20
297.0
  9
$ORTHOMODE
 70
     0
  9
$REGENMODE
 70
     1
  9
$FILLMODE
 70
     1
  9
$QTEXTMODE
 70
     0
  9
$MIRRTEXT
 70
     1
  9
$LTSCALE
 40
1.0
  9
$ATTMODE
 70
     1
  9
$TEXTSIZE
 40
3.5
  9
$TRACEWID
 40
1.0
  9
$TEXTSTYLE
  7
Standard
  9
$CLAYER
  8
0
  9
$CELTYPE
  6
ByLayer
  9
$CECOLOR
 62
   256
  9
$CELTSCALE
 40
1.0
  9
$DISPSILH
 70
     0
  9
$DIMSCALE
 40
1.0
  9
$DIMASZ
 40
3.302
  9
$DIMEXO
 40
1.0
  9
$DIMDLI
 40
3.75
  9
$DIMRND
 40
0.0
  9
$DIMDLE
 40
0.0
  9
$DIMEXE
 40
1.0
  9
$DIMTP
 40
0.0
  9
$DIMTM
 40
0.0
  9
$DIMTXT
 40
3.5
  9
$DIMCEN
 40
2.5
  9
$DIMTSZ
 40
0.0
  9
$DIMTOL
 70
     0
  9
$DIMLIM
 70
     0
  9
$DIMTIH
 70
     1
  9
$DIMTOH
 70
     1
  9
$DIMSE1
 70
     0
  9
$DIMSE2
 70
     0
  9
$DIMTAD
 70
     1
  9
$DIMZIN
 70
     0
  9
$DIMBLK
  1

  9
$DIMASO
 70
     1
  9
$DIMSHO
 70
     1
  9
$DIMPOST
  1

  9
$DIMAPOST
  1

  9
$DIMALT
 70
     0
  9
$DIMALTD
 70
     3
  9
$DIMALTF
 40
0.0393700787401575
  9
$DIMLFAC
 40
1.0
  9
$DIMTOFL
 70
     1
  9
$DIMTVP
 40
0.0
  9
$DIMTIX
 70
     0
  9
$DIMSOXD
 70
     0
  9
$DIMSAH
 70
     0
  9
$DIMBLK1
  1

  9
$DIMBLK2
  1

  9
$DIMSTYLE
  2
ISO-25
  9
$DIMCLRD
 70
     0
  9
$DIMCLRE
 70
     0
  9
$DIMCLRT
 70
     0
  9
$DIMTFAC
 40
1.0
  9
$DIMGAP
 40
1.524
  9
$DIMJUST
 70
     0
  9
$DIMSD1
 70
     0
  9
$DIMSD2
 70
     0
  9
$DIMTOLJ
 70
     0
  9
$DIMTZIN
 70
     0
  9
$DIMALTZ
 70
     0
  9
$DIMALTTZ
 70
     0
  9
$DIMUPT
 70
     0
  9
$DIMDEC
 70
     2
  9
$DIMTDEC
 70
     2
  9
$DIMALTU
 70
     2
  9
$DIMALTTD
 70
     3
  9
$DIMTXSTY
  7
Standard
  9
$DIMAUNIT
 70
     0
  9
$DIMADEC
 70
     2
  9
$DIMALTRND
 40
0.0
  9
$DIMAZIN
 70
     0
  9
$DIMDSEP
 70
    44
  9
$DIMATFIT
 70
     3
  9
$DIMFRAC
 70
     0
  9
$DIMLDRBLK
  1

  9
$DIMLUNIT
 70
     2
  9
$DIMLWD
 70
    -2
  9
$DIMLWE
 70
    -2
  9
$DIMTMOVE
 70
     0
  9
$LUNITS
 70
     2
  9
$LUPREC
 70
     2
  9
$SKETCHINC
 40
1.0
  9
$FILLETRAD
 40
10.0
  9
$AUNITS
 70
     0
  9
$AUPREC
 70
     2
  9
$MENU
  1
.
  9
$ELEVATION
 40
0.0
  9
$PELEVATION
 40
0.0
  9
$THICKNESS
 40
0.0
  9
$LIMCHECK
 70
     0
  9
$CHAMFERA
 40
0.0
  9
$CHAMFERB
 40
0.0
  9
$CHAMFERC
 40
0.0
  9
$CHAMFERD
 40
0.0
  9
$SKPOLY
 70
     0
  9
$TDCREATE
 40
2458299.370453611
  9
$TDUCREATE
 40
2458298.995453611
  9
$TDUPDATE
 40
2458302.736959282
  9
$TDUUPDATE
 40
2458302.361959282
  9
$TDINDWG
 40
0.0006182986
  9
$TDUSRTIMER
 40
2458302.361341227
  9
$USRTIMER
 70
     1
  9
$ANGBASE
 50
0.0
  9
$ANGDIR
 70
     0
  9
$PDMODE
 70
     0
  9
$PDSIZE
 40
-1.0
  9
$PLINEWID
 40
0.0
  9
$SPLFRAME
 70
     0
  9
$SPLINETYPE
 70
     6
  9
$SPLINESEGS
 70
     8
  9
$HANDSEED
  5
1A5
  9
$SURFTAB1
 70
     6
  9
$SURFTAB2
 70
     6
  9
$SURFTYPE
 70
     6
  9
$SURFU
 70
     6
  9
$SURFV
 70
     6
  9
$UCSBASE
  2

  9
$UCSNAME
  2

  9
$UCSORG
 10
0.0
 20
0.0
 30
0.0
  9
$UCSXDIR
 10
1.0
 20
0.0
 30
0.0
  9
$UCSYDIR
 10
0.0
 20
1.0
 30
0.0
  9
$UCSORTHOREF
  2

  9
$UCSORTHOVIEW
 70
     0
  9
$UCSORGTOP
 10
0.0
 20
0.0
 30
0.0
  9
$UCSORGBOTTOM
 10
0.0
 20
0.0
 30
0.0
  9
$UCSORGLEFT
 10
0.0
 20
0.0
 30
0.0
  9
$UCSORGRIGHT
 10
0.0
 20
0.0
 30
0.0
  9
$UCSORGFRONT
 10
0.0
 20
0.0
 30
0.0
  9
$UCSORGBACK
 10
0.0
 20
0.0
 30
0.0
  9
$PUCSBASE
  2

  9
$PUCSNAME
  2

  9
$PUCSORG
 10
0.0
 20
0.0
 30
0.0
  9
$PUCSXDIR
 10
1.0
 20
0.0
 30
0.0
  9
$PUCSYDIR
 10
0.0
 20
1.0
 30
0.0
  9
$PUCSORTHOREF
  2

  9
$PUCSORTHOVIEW
 70
     0
  9
$PUCSORGTOP
 10
0.0
 20
0.0
 30
0.0
  9
$PUCSORGBOTTOM
 10
0.0
 20
0.0
 30
0.0
  9
$PUCSORGLEFT
 10
0.0
 20
0.0
 30
0.0
  9
$PUCSORGRIGHT
 10
0.0
 20
0.0
 30
0.0
  9
$PUCSORGFRONT
 10
0.0
 20
0.0
 30
0.0
  9
$PUCSORGBACK
 10
0.0
 20
0.0
 30
0.0
  9
$USERI1
 70
     0
  9
$USERI2
 70
     0
  9
$USERI3
 70
     0
  9
$USERI4
 70
     0
  9
$USERI5
 70
     0
  9
$USERR1
 40
0.0
  9
$USERR2
 40
0.0
  9
$USERR3
 40
0.0
  9
$USERR4
 40
0.0
  9
$USERR5
 40
0.0
  9
$WORLDVIEW
 70
     1
  9
$SHADEDGE
 70
     3
  9
$SHADEDIF
 70
    70
  9
$TILEMODE
 70
     1
  9
$MAXACTVP
 70
    64
  9
$PINSBASE
 10
0.0
 20
0.0
 30
0.0
  9
$PLIMCHECK
 70
     0
  9
$PEXTMIN
 10
1.000000000000000E+20
 20
1.000000000000000E+20
 30
1.000000000000000E+20
  9
$PEXTMAX
 10
-1.000000000000000E+20
 20
-1.000000000000000E+20
 30
-1.000000000000000E+20
  9
$PLIMMIN
 10
0.0
 20
0.0
  9
$PLIMMAX
 10
0.0
 20
0.0
  9
$UNITMODE
 70
     0
  9
$VISRETAIN
 70
     1
  9
$PLINEGEN
 70
     0
  9
$PSLTSCALE
 70
     1
  9
$TREEDEPTH
 70
  3020
  9
$CMLSTYLE
  2
Standard
  9
$CMLJUST
 70
     0
  9
$CMLSCALE
 40
20.0
  9
$PROXYGRAPHICS
 70
     1
  9
$MEASUREMENT
 70
     1
  9
$CELWEIGHT
370
    -1
  9
$ENDCAPS
280
     0
  9
$JOINSTYLE
280
     0
  9
$LWDISPLAY
290
     1
  9
$INSUNITS
 70
     4
  9
$HYPERLINKBASE
  1

  9
$STYLESHEET
  1

  9
$XEDIT
290
     1
  9
$CEPSNTYPE
380
     0
  9
$PSTYLEMODE
290
     1
  9
$FINGERPRINTGUID
  2
{B83146E1-BA07-4494-B5C2-CAA15DB1CA25}
  9
$VERSIONGUID
  2
{FAEB1C32-E019-11D5-929B-00C0DF256EC4}
  9
$EXTNAMES
290
     1
  9
$PSVPSCALE
 40
0.0
  9
$OLESTARTUP
290
     0
  0
ENDSEC
  0
SECTION
  2
CLASSES
  0
CLASS
  1
ACDBDICTIONARYWDFLT
  2
AcDbDictionaryWithDefault
  3
ObjectDBX Classes
 90
        0
280
     0
281
     0
  0
CLASS
  1
VISUALSTYLE
  2
AcDbVisualStyle
  3
ObjectDBX Classes
 90
     4095
280
     0
281
     0
  0
CLASS
  1
MATERIAL
  2
AcDbMaterial
  3
ObjectDBX Classes
 90
     1153
280
     0
281
     0
  0
CLASS
  1
SCALE
  2
AcDbScale
  3
ObjectDBX Classes
 90
     1153
280
     0
281
     0
  0
CLASS
  1
SUN
  2
AcDbSun
  3
SCENEOE
 90
     1153
280
     0
281
     0
  0
CLASS
  1
ACDBPLACEHOLDER
  2
AcDbPlaceHolder
  3
ObjectDBX Classes
 90
        0
280
     0
281
     0
  0
CLASS
  1
LAYOUT
  2
AcDbLayout
  3
ObjectDBX Classes
 90
        0
280
     0
281
     0
  0
CLASS
  1
TABLESTYLE
  2
AcDbTableStyle
  3
ObjectDBX Classes
 90
     4095
280
     0
281
     0
  0
CLASS
  1
MLEADERSTYLE
  2
AcDbMLeaderStyle
  3
ACDB_MLEADERSTYLE_CLASS
 90
     4095
280
     0
281
     0
  0
CLASS
  1
RASTERVARIABLES
  2
AcDbRasterVariables
  3
ISM
 90
        0
280
     0
281
     0
  0
ENDSEC
  0
SECTION
  2
TABLES
  0
TABLE
  2
VPORT
  5
8
330
0
100
AcDbSymbolTable
 70
     1
  0
VPORT
  5
29
330
8
100
AcDbSymbolTableRecord
100
AcDbViewportTableRecord
  2
*Active
 70
     0
 10
0.0
 20
0.0
 11
1.0
 21
1.0
 12
-0.277856758026477
 22
1.171956044547329
 13
0.0
 23
0.0
 14
10.0
 24
10.0
 15
10.0
 25
10.0
 16
0.0
 26
0.0
 36
1.0
 17
0.0
 27
0.0
 37
0.0
 40
18.86261362797821
 41
1.31452581032413
 42
50.0
 43
0.0
 44
0.0
 50
0.0
 51
0.0
 71
    16
 72
  2000
 73
     1
 74
     3
 75
     0
 76
     0
 77
     0
 78
     0
281
     0
 65
     1
110
0.0
120
0.0
130
0.0
111
1.0
121
0.0
131
0.0
112
0.0
122
1.0
132
0.0
 79
     0
146
0.0
  0
ENDTAB
  0
TABLE
  2
LTYPE
  5
5
330
0
100
AcDbSymbolTable
 70
     6
  0
LTYPE
  5
14
330
5
100
AcDbSymbolTableRecord
100
AcDbLinetypeTableRecord
  2
ByBlock
 70
     0
  3

 72
    65
 73
     0
 40
0.0
  0
LTYPE
  5
15
330
5
100
AcDbSymbolTableRecord
100
AcDbLinetypeTableRecord
  2
ByLayer
 70
     0
  3

 72
    65
 73
     0
 40
0.0
  0
LTYPE
  5
16
330
5
100
AcDbSymbolTableRecord
100
AcDbLinetypeTableRecord
  2
Continuous
 70
     0
  3
Solid line
 72
    65
 73
     0
 40
0.0
  0
LTYPE
  5
6A
330
5
100
AcDbSymbolTableRecord
100
AcDbLinetypeTableRecord
  2
HIDDEN
 70
     0
  3
Hidden __ __ __ __ __ __ __ __ __ __ __ __ __ __
 72
    65
 73
     2
 40
1.905
 49
1.27
 74
     0
 49
-0.635
 74
     0
  0
LTYPE
  5
6B
330
5
100
AcDbSymbolTableRecord
100
AcDbLinetypeTableRecord
  2
PHANTOM
 70
     0
  3
Phantom ______  __  __  ______  __  __  ______
 72
    65
 73
     6
 40
12.7
 49
6.35
 74
     0
 49
-1.27
 74
     0
 49
1.27
 74
     0
 49
-1.27
 74
     0
 49
1.27
 74
     0
 49
-1.27
 74
     0
  0
LTYPE
  5
6C
330
5
100
AcDbSymbolTableRecord
100
AcDbLinetypeTableRecord
  2
CENTER
 70
     0
  3
Center ____ _ ____ _ ____ _ ____ _ ____ _ ____
 72
    65
 73
     4
 40
10.16
 49
6.35
 74
     0
 49
-1.27
 74
     0
 49
1.27
 74
     0
 49
-1.27
 74
     0
  0
LTYPE
  5
6D
330
5
100
AcDbSymbolTableRecord
100
AcDbLinetypeTableRecord
  2
CENTERX2
 70
     0
  3
Center (2x) ________  __  ________  __  _____
 72
    65
 73
     4
 40
20.32
 49
12.7
 74
     0
 49
-2.54
 74
     0
 49
2.54
 74
     0
 49
-2.54
 74
     0
  0
LTYPE
  5
6E
330
5
100
AcDbSymbolTableRecord
100
AcDbLinetypeTableRecord
  2
DOT2
 70
     0
  3
Dot (.5x) ........................................
 72
    65
 73
     2
 40
0.635
 49
0.0
 74
     0
 49
-0.635
 74
     0
  0
ENDTAB
  0
TABLE
  2
LAYER
  5
2
330
0
100
AcDbSymbolTable
 70
    18
  0
LAYER
  5
10
330
2
100
AcDbSymbolTableRecord
100
AcDbLayerTableRecord
  2
0
 70
     0
 62
     7
  6
Continuous
370
    -3
390
F
  0
LAYER
  5
6F
330
2
100
AcDbSymbolTableRecord
100
AcDbLayerTableRecord
  2
FORMAT
 70
     0
 62
     2
  6
Continuous
370
    -3
390
F
  0
LAYER
  5
70
330
2
100
AcDbSymbolTableRecord
100
AcDbLayerTableRecord
  2
외형선
 70
     0
 62
     4
  6
Continuous
370
    30
390
F
  0
LAYER
  5
71
330
2
100
AcDbSymbolTableRecord
100
AcDbLayerTableRecord
  2
숨은선
 70
     0
 62
     2
  6
HIDDEN
370
    15
390
F
  0
LAYER
  5
72
330
2
100
AcDbSymbolTableRecord
100
AcDbLayerTableRecord
  2
중심선
 70
     0
 62
     1
  6
CENTERX2
370
    -3
390
F
  0
LAYER
  5
73
330
2
100
AcDbSymbolTableRecord
100
AcDbLayerTableRecord
  2
파단선
 70
     0
 62
     4
  6
Continuous
370
    -3
390
F
  0
LAYER
  5
74
330
2
100
AcDbSymbolTableRecord
100
AcDbLayerTableRecord
  2
해칭선
 70
     0
 62
   100
  6
Continuous
370
    -3
390
F
  0
LAYER
  5
75
330
2
100
AcDbSymbolTableRecord
100
AcDbLayerTableRecord
  2
가는실선
 70
     0
 62
     4
  6
Continuous
370
    -3
390
F
  0
LAYER
  5
76
330
2
100
AcDbSymbolTableRecord
100
AcDbLayerTableRecord
  2
치수_보조선
 70
     0
 62
     4
  6
Continuous
370
    -3
390
F
  0
LAYER
  5
77
330
2
100
AcDbSymbolTableRecord
100
AcDbLayerTableRecord
  2
치수문자_일반주서
 70
     0
 62
     7
  6
Continuous
370
    15
390
F
  0
LAYER
  5
78
330
2
100
AcDbSymbolTableRecord
100
AcDbLayerTableRecord
  2
개별주서
 70
     0
 62
   100
  6
Continuous
370
    30
390
F
  0
LAYER
  5
79
330
2
100
AcDbSymbolTableRecord
100
AcDbLayerTableRecord
  2
중간선
 70
     0
 62
     2
  6
Continuous
370
    15
390
F
  0
LAYER
  5
7A
330
2
100
AcDbSymbolTableRecord
100
AcDbLayerTableRecord
  2
윤곽선
 70
     0
 62
     3
  6
Continuous
370
    40
390
F
  0
LAYER
  5
7B
330
2
100
AcDbSymbolTableRecord
100
AcDbLayerTableRecord
  2
중심마크
 70
     0
 62
   100
  6
Continuous
370
    30
390
F
  0
LAYER
  5
7C
330
2
100
AcDbSymbolTableRecord
100
AcDbLayerTableRecord
  2
가상선
 70
     0
 62
     4
  6
PHANTOM
370
    -3
390
F
  0
LAYER
  5
7D
330
2
100
AcDbSymbolTableRecord
100
AcDbLayerTableRecord
  2
특수지정선
 70
     0
 62
     5
  6
CENTERX2
370
    60
390
F
  0
LAYER
  5
7E
330
2
100
AcDbSymbolTableRecord
100
AcDbLayerTableRecord
  2
참조1
 70
     0
 62
    -4
  6
Continuous
370
    -3
390
F
  0
LAYER
  5
1A2
330
2
100
AcDbSymbolTableRecord
100
AcDbLayerTableRecord
  2
Defpoints
 70
     0
 62
     7
  6
Continuous
290
     0
370
    -3
390
F
  0
ENDTAB
  0
TABLE
  2
STYLE
  5
3
330
0
100
AcDbSymbolTable
 70
     2
  0
STYLE
  5
11
330
3
100
AcDbSymbolTableRecord
100
AcDbTextStyleTableRecord
  2
Standard
 70
     0
 40
0.0
 41
1.0
 50
0.0
 71
     0
 42
3.5
  3
txt
  4

  0
STYLE
  5
94
330
3
100
AcDbSymbolTableRecord
100
AcDbTextStyleTableRecord
  2
SLDTEXTSTYLE0
 70
     0
 40
0.0
 41
0.75
 50
0.0
 71
     0
 42
3.5
  3
TXT
  4

  0
ENDTAB
  0
TABLE
  2
VIEW
  5
6
330
0
100
AcDbSymbolTable
 70
     0
  0
ENDTAB
  0
TABLE
  2
UCS
  5
7
330
0
100
AcDbSymbolTable
 70
     0
  0
ENDTAB
  0
TABLE
  2
APPID
  5
9
330
0
100
AcDbSymbolTable
 70
     1
  0
APPID
  5
12
330
9
100
AcDbSymbolTableRecord
100
AcDbRegAppTableRecord
  2
ACAD
 70
     0
  0
ENDTAB
  0
TABLE
  2
DIMSTYLE
  5
A
330
0
100
AcDbSymbolTable
 70
     3
100
AcDbDimStyleTable
  0
DIMSTYLE
105
27
330
A
100
AcDbSymbolTableRecord
100
AcDbDimStyleTableRecord
  2
ISO-25
 70
     0
 41
2.5
 42
0.625
 43
3.75
 44
1.25
 73
     0
 74
     0
 77
     1
 78
     8
140
2.5
141
2.5
143
0.03937007874016
147
0.625
171
     3
172
     1
178
     0
271
     2
272
     2
274
     3
278
    44
283
     0
284
     8
340
11
  0
DIMSTYLE
105
122
102
{ACAD_REACTORS
330
121
330
149
330
15D
102
}
330
A
100
AcDbSymbolTableRecord
100
AcDbDimStyleTableRecord
  2
SLDDIMSTYLE0
 70
     0
 41
3.302
 44
0.0
 45
0.000000001
 73
     0
 74
     0
 77
     1
 78
    12
 79
     3
140
3.5
143
0.0393700787401575
147
0.875
148
0.000000001
170
     1
173
     1
178
     0
271
     2
272
     2
276
     2
284
    12
340
94
  0
DIMSTYLE
105
135
102
{ACAD_REACTORS
330
134
102
}
330
A
100
AcDbSymbolTableRecord
100
AcDbDimStyleTableRecord
  2
SLDDIMSTYLE1
 70
     0
 41
3.302
 44
0.0
 45
0.000000001
 73
     0
 74
     0
 77
     1
 78
    12
 79
     3
140
3.5
143
0.0393700787401575
147
0.875
148
0.000000001
170
     1
172
     1
173
     1
178
     0
271
     2
272
     2
276
     2
284
    12
289
     0
340
94
  0
ENDTAB
  0
TABLE
  2
BLOCK_RECORD
  5
1
330
0
100
AcDbSymbolTable
 70
     7
  0
BLOCK_RECORD
  5
1F
330
1
100
AcDbSymbolTableRecord
100
AcDbBlockTableRecord
  2
*Model_Space
340
22
  0
BLOCK_RECORD
  5
1B
330
1
100
AcDbSymbolTableRecord
100
AcDbBlockTableRecord
  2
*Paper_Space
340
1E
  0
BLOCK_RECORD
  5
23
330
1
100
AcDbSymbolTableRecord
100
AcDbBlockTableRecord
  2
*Paper_Space0
340
26
  0
BLOCK_RECORD
  5
7F
330
1
100
AcDbSymbolTableRecord
100
AcDbBlockTableRecord
  2
블럭10
340
0
102
{BLKREFS
331
119
102
}
  0
BLOCK_RECORD
  5
123
330
1
100
AcDbSymbolTableRecord
100
AcDbBlockTableRecord
  2
_D
340
0
  0
BLOCK_RECORD
  5
136
330
1
100
AcDbSymbolTableRecord
100
AcDbBlockTableRecord
  2
_D_1
340
0
  0
BLOCK_RECORD
  5
14A
330
1
100
AcDbSymbolTableRecord
100
AcDbBlockTableRecord
  2
_D_2
340
0
  0
BLOCK_RECORD
  5
15E
330
1
100
AcDbSymbolTableRecord
100
AcDbBlockTableRecord
  2
_D_3
340
0
  0
BLOCK_RECORD
  5
177
330
1
100
AcDbSymbolTableRecord
100
AcDbBlockTableRecord
  2
SW_DOWELSYMBOL_0
340
0
102
{BLKREFS
331
17D
102
}
  0
ENDTAB
  0
ENDSEC
  0
SECTION
  2
BLOCKS
  0
BLOCK
  5
20
330
1F
100
AcDbEntity
  8
0
100
AcDbBlockBegin
  2
*Model_Space
 70
     0
 10
0.0
 20
0.0
 30
0.0
  3
*Model_Space
  1
*Model_Space
  0
ENDBLK
  5
21
330
1F
100
AcDbEntity
  8
0
100
AcDbBlockEnd
  0
BLOCK
  5
1C
330
1B
100
AcDbEntity
 67
     1
  8
0
100
AcDbBlockBegin
  2
*Paper_Space
 70
     0
 10
0.0
 20
0.0
 30
0.0
  3
*Paper_Space
  1
*Paper_Space
  0
ENDBLK
  5
1D
330
1B
100
AcDbEntity
 67
     1
  8
0
100
AcDbBlockEnd
  0
BLOCK
  5
24
330
23
100
AcDbEntity
  8
0
100
AcDbBlockBegin
  2
*Paper_Space0
 70
     0
 10
0.0
 20
0.0
 30
0.0
  3
*Paper_Space0
  1
*Paper_Space0
  0
ENDBLK
  5
25
330
23
100
AcDbEntity
  8
0
100
AcDbBlockEnd
  0
BLOCK
  5
80
330
7F
100
AcDbEntity
  8
0
100
AcDbBlockBegin
  2
블럭10
 70
     2
 10
0.0
 20
0.0
 30
0.0
  3
블럭10
  1
블럭10
  0
ELLIPSE
  5
82
330
7F
100
AcDbEntity
  8
중심선
100
AcDbEllipse
 10
20.54032771741204
 20
12.0471743016438
 30
0.0
 11
6.600054785286829
 21
-1.261213355974178E-13
 31
0.0
210
0.0
220
0.0
230
1.0
 40
0.636358354079598
 41
0.9219305317359503
 42
6.513795318482858
  0
ELLIPSE
  5
83
330
7F
100
AcDbEntity
  8
중심선
100
AcDbEllipse
 10
20.54032771746488
 20
12.04717430159265
 30
0.0
 11
3.960054785062283
 21
1.540847449632565E-10
 31
0.0
210
0.0
220
0.0
230
1.0
 40
0.3939339440162632
 41
1.131841032648279
 42
5.62031148352944
  0
LINE
  5
84
330
7F
100
AcDbEntity
  8
중심선
100
AcDbLine
 10
2.268634060543552
 20
16.24717430164393
 30
0.0
 11
5.714909304380834
 21
16.24717430164393
 31
0.0
  0
LINE
  5
85
330
7F
100
AcDbEntity
  8
중심선
100
AcDbLine
 10
5.245725140726316
 20
7.84717430164391
 30
0.0
 11
8.692000384563599
 21
7.84717430164391
 31
0.0
  0
LINE
  5
86
330
7F
100
AcDbEntity
  8
중심선
100
AcDbLine
 10
15.74043728645272
 20
16.24717430164393
 30
0.0
 11
8.692000384563599
 21
7.84717430164391
 31
0.0
  0
LINE
  5
87
330
7F
100
AcDbEntity
  8
중심선
100
AcDbLine
 10
0.1404042013395286
 20
13.71084872107135
 30
0.0
 11
3.58671253028996
 21
13.71088815037384
 31
0.0
  0
LINE
  5
88
330
7F
100
AcDbEntity
  8
중심선
100
AcDbLine
 10
2.750260043222114
 20
10.84717430164391
 30
0.0
 11
6.196535287059397
 21
10.84717430164391
 31
0.0
  0
LINE
  5
89
330
7F
100
AcDbEntity
  8
중심선
100
AcDbLine
 10
12.29416204261559
 20
16.24717430164393
 30
0.0
 11
5.245725140726316
 21
7.84717430164391
 31
0.0
  0
LINE
  5
8A
330
7F
100
AcDbEntity
  8
중심선
100
AcDbLine
 10
10.72767329541681
 20
16.24717430164393
 30
0.0
 11
6.196535287059397
 21
10.84717430164391
 31
0.0
  0
LINE
  5
8B
330
7F
100
AcDbEntity
  8
중심선
100
AcDbLine
 10
7.28139805157953
 20
16.24717430164393
 30
0.0
 11
2.750260043222114
 21
10.84717430164391
 31
0.0
  0
LINE
  5
8C
330
7F
100
AcDbEntity
  8
중심선
100
AcDbLine
 10
5.714909304380834
 20
16.24717430164393
 30
0.0
 11
3.58671253028996
 21
13.71088815037384
 31
0.0
  0
LINE
  5
8D
330
7F
100
AcDbEntity
  8
중심선
100
AcDbLine
 10
2.268634060543552
 20
16.24717430164393
 30
0.0
 11
0.1404042013395286
 21
13.71084872107135
 31
0.0
  0
LINE
  5
8E
330
7F
100
AcDbEntity
  8
중심선
100
AcDbLine
 10
7.28139805157953
 20
16.24717430164393
 30
0.0
 11
10.72767329541681
 21
16.24717430164393
 31
0.0
  0
LINE
  5
8F
330
7F
100
AcDbEntity
  8
중심선
100
AcDbLine
 10
12.29416204261559
 20
16.24717430164393
 30
0.0
 11
15.74043728645272
 21
16.24717430164393
 31
0.0
  0
LINE
  5
90
330
7F
100
AcDbEntity
  8
중심선
100
AcDbLine
 10
19.22036997980202
 20
11.08717430171403
 30
0.0
 11
23.66174974927406
 21
11.08717430171406
 31
0.0
  0
LINE
  5
91
330
7F
100
AcDbEntity
  8
중심선
100
AcDbLine
 10
19.22039502424796
 20
13.00717430171391
 30
0.0
 11
19.22036997980202
 21
11.08717430171403
 31
0.0
  0
LINE
  5
92
330
7F
100
AcDbEntity
  8
중심선
100
AcDbLine
 10
19.22039502424796
 20
13.00717430171391
 30
0.0
 11
26.96566020931264
 21
13.00717430171391
 31
0.0
  0
LINE
  5
93
330
7F
100
AcDbEntity
  8
중심선
100
AcDbLine
 10
22.22332737316547
 20
13.45928029700563
 30
0.0
 11
24.52862924686651
 21
15.39360700705356
 31
0.0
  0
ATTDEF
  5
95
330
7F
100
AcDbEntity
  8
FORMAT
 62
     2
100
AcDbText
 10
-10.14163601213663
 20
2.075366912832191
 30
0.0
 40
4.233333333333333
  1
EM666020 [ 3 FLUTE ]
 41
0.75
  7
SLDTEXTSTYLE0
 11
-10.14163601213663
 21
-0.0412997538344756
 31
0.0
100
AcDbAttributeDefinition
  3

  2
AUTOATTR0
 70
     0
 74
     1
  0
ENDBLK
  5
81
330
7F
100
AcDbEntity
  8
0
100
AcDbBlockEnd
  0
BLOCK
  5
124
330
123
100
AcDbEntity
  8
0
100
AcDbBlockBegin
  2
_D
 70
     0
 10
0.0
 20
0.0
 30
0.0
  3
_D
  1
_D
  0
LINE
  5
126
330
123
100
AcDbEntity
  8
치수문자_일반주서
 62
     0
370
    -2
100
AcDbLine
 10
18.48749999999998
 20
3.965851181313581
 30
0.0
 11
43.30001373807487
 21
3.965851181313674
 31
0.0
  0
LINE
  5
127
330
123
100
AcDbEntity
  8
치수문자_일반주서
 62
     0
370
    -2
100
AcDbLine
 10
14.56209020592331
 20
-3.968749999999994
 30
0.0
 11
43.3000137380749
 21
-3.96874999999989
 31
0.0
  0
LINE
  5
128
330
123
100
AcDbEntity
  8
치수문자_일반주서
 62
     0
370
    -2
100
AcDbLine
 10
43.30001373807487
 20
3.965851181313674
 30
0.0
 11
43.30001373807475
 21
38.57275000000014
 31
0.0
  0
LINE
  5
129
330
123
100
AcDbEntity
  8
치수문자_일반주서
 62
     0
370
    -2
100
AcDbLine
 10
43.30001373807485
 20
7.267851181313674
 30
0.0
 11
43.30001373807484
 21
10.56985118131367
 31
0.0
  0
LINE
  5
12A
330
123
100
AcDbEntity
  8
치수문자_일반주서
 62
     0
370
    -2
100
AcDbLine
 10
43.30001373807491
 20
-7.270749999999889
 30
0.0
 11
43.30001373807492
 21
-10.57274999999989
 31
0.0
  0
SOLID
  5
12B
330
123
100
AcDbEntity
  8
치수문자_일반주서
 62
     0
100
AcDbTrace
 10
42.74968040474152
 20
7.267851181313672
 30
0.0
 11
43.85034707140819
 21
7.267851181313675
 31
0.0
 12
43.30001373807487
 22
3.965851181313674
 32
0.0
 13
43.30001373807487
 23
3.965851181313674
 33
0.0
  0
SOLID
  5
12C
330
123
100
AcDbEntity
  8
치수문자_일반주서
 62
     0
100
AcDbTrace
 10
43.85034707140824
 20
-7.270749999999888
 30
0.0
 11
42.74968040474158
 21
-7.270749999999891
 31
0.0
 12
43.3000137380749
 22
-3.96874999999989
 32
0.0
 13
43.3000137380749
 23
-3.96874999999989
 33
0.0
  0
MTEXT
  5
12D
330
123
100
AcDbEntity
  8
치수문자_일반주서
 62
     0
100
AcDbMText
 10
38.9250137380748
 20
24.57275000000012
 30
0.0
 40
3.5
 41
0.0
 71
     2
 72
     1
  1
\A1;%%c7.93 [5/16]
  7
SLDTEXTSTYLE0
 11
-3.581995966897335E-15
 21
1.0
 31
0.0
 73
     1
 44
1.0
  0
POINT
  5
12E
330
123
100
AcDbEntity
  8
Defpoints
 62
     0
100
AcDbPoint
 10
18.42499999999998
 20
3.965851181313581
 30
0.0
  0
POINT
  5
12F
330
123
100
AcDbEntity
  8
Defpoints
 62
     0
100
AcDbPoint
 10
14.49959020592331
 20
-3.968749999999995
 30
0.0
  0
POINT
  5
130
330
123
100
AcDbEntity
  8
Defpoints
 62
     0
100
AcDbPoint
 10
43.3000137380749
 20
-3.968749999999887
 30
0.0
  0
ENDBLK
  5
125
330
123
100
AcDbEntity
  8
0
100
AcDbBlockEnd
  0
BLOCK
  5
137
330
136
100
AcDbEntity
  8
0
100
AcDbBlockBegin
  2
_D_1
 70
     0
 10
0.0
 20
0.0
 30
0.0
  3
_D_1
  1
_D_1
  0
LINE
  5
139
330
136
100
AcDbEntity
  8
치수문자_일반주서
 62
     0
370
    -2
100
AcDbLine
 10
-36.87750000000001
 20
3.968749999999998
 30
0.0
 11
-47.62500000000006
 21
3.968749999999959
 31
0.0
  0
LINE
  5
13A
330
136
100
AcDbEntity
  8
치수문자_일반주서
 62
     0
370
    -2
100
AcDbLine
 10
-36.87750000000001
 20
-3.968749999999988
 30
0.0
 11
-47.62500000000003
 21
-3.968750000000027
 31
0.0
  0
LINE
  5
13B
330
136
100
AcDbEntity
  8
치수문자_일반주서
 62
     0
370
    -2
100
AcDbLine
 10
-47.62500000000004
 20
0.6667499999999595
 30
0.0
 11
-47.62500000000004
 21
-0.666750000000027
 31
0.0
  0
SOLID
  5
13C
330
136
100
AcDbEntity
  8
치수문자_일반주서
 62
     0
100
AcDbTrace
 10
-47.07466666666671
 20
0.6667499999999615
 30
0.0
 11
-48.17533333333338
 21
0.6667499999999575
 31
0.0
 12
-47.62500000000006
 22
3.968749999999959
 32
0.0
 13
-47.62500000000006
 23
3.968749999999959
 33
0.0
  0
SOLID
  5
13D
330
136
100
AcDbEntity
  8
치수문자_일반주서
 62
     0
100
AcDbTrace
 10
-48.17533333333338
 20
-0.666750000000029
 30
0.0
 11
-47.07466666666671
 21
-0.666750000000025
 31
0.0
 12
-47.62500000000003
 22
-3.968750000000027
 32
0.0
 13
-47.62500000000003
 23
-3.968750000000027
 33
0.0
  0
MTEXT
  5
13E
330
136
100
AcDbEntity
  8
치수문자_일반주서
 62
     0
100
AcDbMText
 10
-52.00000000000004
 20
-0.635840217262903
 30
0.0
 40
3.5
 41
0.0
 71
     2
 72
     1
  1
\A1;%%c7.94 [5/16]
  7
SLDTEXTSTYLE0
 11
-3.580687802255629E-15
 21
1.0
 31
0.0
 73
     1
 44
1.0
  0
POINT
  5
13F
330
136
100
AcDbEntity
  8
Defpoints
 62
     0
100
AcDbPoint
 10
-36.81500000000001
 20
3.968749999999998
 30
0.0
  0
POINT
  5
140
330
136
100
AcDbEntity
  8
Defpoints
 62
     0
100
AcDbPoint
 10
-36.81500000000001
 20
-3.968749999999988
 30
0.0
  0
POINT
  5
141
330
136
100
AcDbEntity
  8
Defpoints
 62
     0
100
AcDbPoint
 10
-47.62500000000003
 20
-3.968750000000028
 30
0.0
  0
ENDBLK
  5
138
330
136
100
AcDbEntity
  8
0
100
AcDbBlockEnd
  0
BLOCK
  5
14B
330
14A
100
AcDbEntity
  8
0
100
AcDbBlockBegin
  2
_D_2
 70
     0
 10
0.0
 20
0.0
 30
0.0
  3
_D_2
  1
_D_2
  0
LINE
  5
14D
330
14A
100
AcDbEntity
  8
치수문자_일반주서
 62
     0
370
    -2
100
AcDbLine
 10
19.52499999999998
 20
2.632281359493131
 30
0.0
 11
19.52499999999998
 21
19.82143311633117
 31
0.0
  0
LINE
  5
14E
330
14A
100
AcDbEntity
  8
치수문자_일반주서
 62
     0
370
    -2
100
AcDbLine
 10
9.99999999999998
 20
3.258728881516959
 30
0.0
 11
9.99999999999998
 21
19.82143311633117
 31
0.0
  0
LINE
  5
14F
330
14A
100
AcDbEntity
  8
치수문자_일반주서
 62
     0
370
    -2
100
AcDbLine
 10
9.99999999999998
 20
19.82143311633117
 30
0.0
 11
-17.14575000000002
 21
19.82143311633117
 31
0.0
  0
LINE
  5
150
330
14A
100
AcDbEntity
  8
치수문자_일반주서
 62
     0
370
    -2
100
AcDbLine
 10
16.22299999999998
 20
19.82143311633117
 30
0.0
 11
13.30199999999998
 21
19.82143311633117
 31
0.0
  0
SOLID
  5
151
330
14A
100
AcDbEntity
  8
치수문자_일반주서
 62
     0
100
AcDbTrace
 10
16.22299999999998
 20
19.27109978299784
 30
0.0
 11
16.22299999999998
 21
20.37176644966451
 31
0.0
 12
19.52499999999998
 22
19.82143311633117
 32
0.0
 13
19.52499999999998
 23
19.82143311633117
 33
0.0
  0
SOLID
  5
152
330
14A
100
AcDbEntity
  8
치수문자_일반주서
 62
     0
100
AcDbTrace
 10
13.30199999999998
 20
20.37176644966451
 30
0.0
 11
13.30199999999998
 21
19.27109978299784
 31
0.0
 12
9.99999999999998
 22
19.82143311633117
 32
0.0
 13
9.99999999999998
 23
19.82143311633117
 33
0.0
  0
MTEXT
  5
153
330
14A
100
AcDbEntity
  8
치수문자_일반주서
 62
     0
100
AcDbMText
 10
-5.333250000000019
 20
24.19643311633117
 30
0.0
 40
3.5
 41
0.0
 71
     2
 72
     1
  1
\A1;9.53 [3/8]
  7
SLDTEXTSTYLE0
 73
     1
 44
1.0
  0
POINT
  5
154
330
14A
100
AcDbEntity
  8
Defpoints
 62
     0
100
AcDbPoint
 10
19.52499999999998
 20
2.569781359493131
 30
0.0
  0
POINT
  5
155
330
14A
100
AcDbEntity
  8
Defpoints
 62
     0
100
AcDbPoint
 10
9.99999999999998
 20
3.196228881516959
 30
0.0
  0
POINT
  5
156
330
14A
100
AcDbEntity
  8
Defpoints
 62
     0
100
AcDbPoint
 10
9.99999999999998
 20
19.82143311633117
 30
0.0
  0
ENDBLK
  5
14C
330
14A
100
AcDbEntity
  8
0
100
AcDbBlockEnd
  0
BLOCK
  5
15F
330
15E
100
AcDbEntity
  8
0
100
AcDbBlockBegin
  2
_D_3
 70
     0
 10
0.0
 20
0.0
 30
0.0
  3
_D_3
  1
_D_3
  0
LINE
  5
161
330
15E
100
AcDbEntity
  8
치수문자_일반주서
 62
     0
370
    -2
100
AcDbLine
 10
19.52499999999998
 20
2.889190178507692
 30
0.0
 11
19.52499999999998
 21
36.82407034213168
 31
0.0
  0
LINE
  5
162
330
15E
100
AcDbEntity
  8
치수문자_일반주서
 62
     0
370
    -2
100
AcDbLine
 10
-37.62500000000002
 20
3.22125
 30
0.0
 11
-37.62500000000002
 21
36.82407034213168
 31
0.0
  0
LINE
  5
163
330
15E
100
AcDbEntity
  8
치수문자_일반주서
 62
     0
370
    -2
100
AcDbLine
 10
16.22299999999998
 20
36.82407034213168
 30
0.0
 11
-34.32300000000002
 21
36.82407034213168
 31
0.0
  0
SOLID
  5
164
330
15E
100
AcDbEntity
  8
치수문자_일반주서
 62
     0
100
AcDbTrace
 10
16.22299999999998
 20
36.27373700879834
 30
0.0
 11
16.22299999999998
 21
37.37440367546501
 31
0.0
 12
19.52499999999998
 22
36.82407034213168
 32
0.0
 13
19.52499999999998
 23
36.82407034213168
 33
0.0
  0
SOLID
  5
165
330
15E
100
AcDbEntity
  8
치수문자_일반주서
 62
     0
100
AcDbTrace
 10
-34.32300000000002
 20
37.37440367546501
 30
0.0
 11
-34.32300000000002
 21
36.27373700879834
 31
0.0
 12
-37.62500000000002
 22
36.82407034213168
 32
0.0
 13
-37.62500000000002
 23
36.82407034213168
 33
0.0
  0
MTEXT
  5
166
330
15E
100
AcDbEntity
  8
치수문자_일반주서
 62
     0
100
AcDbMText
 10
-6.551341946872259
 20
41.19907034213168
 30
0.0
 40
3.5
 41
0.0
 71
     2
 72
     1
  1
\A1;57.15 [2 1/4]
  7
SLDTEXTSTYLE0
 73
     1
 44
1.0
  0
POINT
  5
167
330
15E
100
AcDbEntity
  8
Defpoints
 62
     0
100
AcDbPoint
 10
19.52499999999998
 20
2.826690178507692
 30
0.0
  0
POINT
  5
168
330
15E
100
AcDbEntity
  8
Defpoints
 62
     0
100
AcDbPoint
 10
-37.62500000000002
 20
3.15875
 30
0.0
  0
POINT
  5
169
330
15E
100
AcDbEntity
  8
Defpoints
 62
     0
100
AcDbPoint
 10
-37.62500000000002
 20
36.82407034213168
 30
0.0
  0
ENDBLK
  5
160
330
15E
100
AcDbEntity
  8
0
100
AcDbBlockEnd
  0
BLOCK
  5
178
330
177
100
AcDbEntity
  8
0
100
AcDbBlockBegin
  2
SW_DOWELSYMBOL_0
 70
     0
 10
0.0
 20
0.0
 30
0.0
  3
SW_DOWELSYMBOL_0
  1
SW_DOWELSYMBOL_0
  0
CIRCLE
  5
17A
330
177
100
AcDbEntity
  8
해칭선
 62
     0
100
AcDbCircle
 10
0.0
 20
0.0
 30
0.0
 40
3.000000000000001
  0
HATCH
  5
17B
330
177
100
AcDbEntity
  8
0
  6
Continuous
 62
     0
370
     0
100
AcDbHatch
 10
0.0
 20
0.0
 30
0.0
210
0.0
220
0.0
230
1.0
  2
SOLID
 70
     1
 71
     0
 91
        1
 92
        0
 93
        3
 72
     2
 10
0.0000000000000087
 20
-0.0000000000000035
 40
3.000000000000001
 50
0.0
 51
90.0
 73
     1
 72
     1
 10
0.0000000000000087
 20
2.999999999999998
 11
0.0000000000000087
 21
-0.0000000000000036
 72
     1
 10
0.0000000000000087
 20
-0.0000000000000035
 11
3.00000000000001
 21
-0.0000000000000035
 97
        0
 75
     0
 76
     1
 98
        1
 10
0.0
 20
0.0
  0
HATCH
  5
17C
330
177
100
AcDbEntity
  8
0
  6
Continuous
 62
     0
370
     0
100
AcDbHatch
 10
0.0
 20
0.0
 30
0.0
210
0.0
220
0.0
230
1.0
  2
SOLID
 70
     1
 71
     0
 91
        1
 92
        0
 93
        3
 72
     2
 10
0.0000000000000087
 20
-0.0000000000000035
 40
3.000000000000001
 50
180.0
 51
270.0000000000008
 73
     1
 72
     1
 10
0.0000000000000087
 20
-3.000000000000005
 11
0.0000000000000087
 21
-0.0000000000000036
 72
     1
 10
0.0000000000000087
 20
-0.0000000000000035
 11
-2.999999999999993
 21
-0.0000000000000035
 97
        0
 75
     0
 76
     1
 98
        1
 10
0.0
 20
0.0
  0
ENDBLK
  5
179
330
177
100
AcDbEntity
  8
0
100
AcDbBlockEnd
  0
ENDSEC
  0
SECTION
  2
ENTITIES
  0
LINE
  5
96
330
1F
100
AcDbEntity
  8
외형선
  6
Continuous
370
    15
100
AcDbLine
 10
6.98000369232803
 20
3.968750000000005
 30
0.0
 11
-36.81500000000001
 21
3.96875
 31
0.0
  0
LINE
  5
97
330
1F
100
AcDbEntity
  8
외형선
  6
Continuous
370
    15
100
AcDbLine
 10
7.422517303596398
 20
-3.968749999999995
 30
0.0
 11
9.999999999999984
 21
-3.968749999999995
 31
0.0
  0
LINE
  5
98
330
1F
100
AcDbEntity
  8
외형선
  6
Continuous
370
    15
100
AcDbLine
 10
-36.81500000000001
 20
-3.96875
 30
0.0
 11
6.98000369232803
 21
-3.968749999999995
 31
0.0
  0
LINE
  5
99
330
1F
100
AcDbEntity
  8
외형선
  6
Continuous
370
    15
100
AcDbLine
 10
-36.81500000000001
 20
3.968749999999998
 30
0.0
 11
-37.62500000000002
 21
3.15875
 31
0.0
  0
LINE
  5
9A
330
1F
100
AcDbEntity
  8
외형선
  6
Continuous
370
    15
100
AcDbLine
 10
-37.62500000000002
 20
-3.15875
 30
0.0
 11
-36.81500000000001
 21
-3.96875
 31
0.0
  0
LINE
  5
9B
330
1F
100
AcDbEntity
  8
외형선
  6
Continuous
 62
     1
370
    15
100
AcDbLine
 10
9.999999999999984
 20
-3.968749999999995
 30
0.0
 11
10.3125893739601
 21
-3.968749999999995
 31
0.0
  0
SPLINE
  5
9C
330
1F
100
AcDbEntity
  8
외형선
  6
Continuous
 62
     1
370
    15
100
AcDbSpline
210
0.0
220
0.0
230
1.0
 70
     8
 71
     3
 72
     9
 73
     5
 74
     0
 42
0.000000001
 43
0.00000001
 40
0.0
 40
0.0
 40
0.0
 40
0.0
 40
0.5031489491425711
 40
1.0
 40
1.0
 40
1.0
 40
1.0
 10
10.3127974843641
 20
-3.968749900312799
 30
0.0
 10
10.34657709049167
 20
-3.965733975734112
 30
0.0
 10
10.41371348456569
 20
-3.959739876802124
 30
0.0
 10
10.47287192375988
 20
-3.91987505869606
 30
0.0
 10
10.5022648564406
 20
-3.900068181927822
 30
0.0
  0
SPLINE
  5
9D
330
1F
100
AcDbEntity
  8
외형선
  6
Continuous
 62
     1
370
    15
100
AcDbSpline
210
0.0
220
0.0
230
1.0
 70
     8
 71
     3
 72
    11
 73
     7
 74
     0
 42
0.000000001
 43
0.00000001
 40
0.0
 40
0.0
 40
0.0
 40
0.0
 40
0.2060446065304639
 40
0.4436067041078883
 40
0.710446704041003
 40
1.0
 40
1.0
 40
1.0
 40
1.0
 10
10.49912642495131
 20
-3.902700843927914
 30
0.0
 10
10.5304429677176
 20
-3.881725695138982
 30
0.0
 10
10.59786636964271
 20
-3.836566946365548
 30
0.0
 10
10.74140896946367
 20
-3.801390363709901
 30
0.0
 10
10.91251583792421
 20
-3.815617952952605
 30
0.0
 10
11.00610032271183
 20
-3.874276230334178
 30
0.0
 10
11.05480273559306
 20
-3.90480265413639
 30
0.0
  0
SPLINE
  5
9E
330
1F
100
AcDbEntity
  8
외형선
  6
Continuous
 62
     1
370
    15
100
AcDbSpline
210
0.0
220
0.0
230
1.0
 70
     8
 71
     3
 72
     9
 73
     5
 74
     0
 42
0.000000001
 43
0.00000001
 40
0.0
 40
0.0
 40
0.0
 40
0.0
 40
0.498200313912911
 40
0.9999999999999999
 40
0.9999999999999999
 40
0.9999999999999999
 40
0.9999999999999999
 10
11.0489461673682
 20
-3.900213645008333
 30
0.0
 10
11.07843174677345
 20
-3.919997382376682
 30
0.0
 10
11.13761593149157
 20
-3.959707789648342
 30
0.0
 10
11.20495964566286
 20
-3.965728702073424
 30
0.0
 10
11.23875270029396
 20
-3.968749994038288
 30
0.0
  0
LINE
  5
9F
330
1F
100
AcDbEntity
  8
외형선
  6
Continuous
 62
     1
370
    15
100
AcDbLine
 10
11.23874384342357
 20
-3.968749999999995
 30
0.0
 11
12.81269123826176
 21
-3.968749999999995
 31
0.0
  0
SPLINE
  5
A0
330
1F
100
AcDbEntity
  8
외형선
  6
Continuous
 62
     1
370
    15
100
AcDbSpline
210
0.0
220
0.0
230
1.0
 70
     8
 71
     3
 72
     9
 73
     5
 74
     0
 42
0.000000001
 43
0.00000001
 40
0.0
 40
0.0
 40
0.0
 40
0.0
 40
0.5028128654231397
 40
1.0
 40
1.0
 40
1.0
 40
1.0
 10
12.81423145407152
 20
-3.968721270656833
 30
0.0
 10
12.84654014564348
 20
-3.965830232981616
 30
0.0
 10
12.91079604240693
 20
-3.960080504058543
 30
0.0
 10
12.9669969676607
 20
-3.923840416914151
 30
0.0
 10
12.99493934464819
 20
-3.905822311830017
 30
0.0
  0
SPLINE
  5
A1
330
1F
100
AcDbEntity
  8
외형선
  6
Continuous
 62
     1
370
    15
100
AcDbSpline
210
0.0
220
0.0
230
1.0
 70
     8
 71
     3
 72
    11
 73
     7
 74
     0
 42
0.000000001
 43
0.00000001
 40
0.0
 40
0.0
 40
0.0
 40
0.0
 40
0.2454898943192333
 40
0.4998610449073098
 40
0.7542888198400246
 40
1.0
 40
1.0
 40
1.0
 40
1.0
 10
12.99447503528161
 20
-3.906141053521422
 30
0.0
 10
13.03652202500263
 20
-3.878891246761794
 30
0.0
 10
13.12213716722851
 20
-3.823405798294911
 30
0.0
 10
13.28400386637007
 20
-3.799125579596727
 30
0.0
 10
13.44584825718353
 20
-3.827135266881613
 30
0.0
 10
13.53128525811872
 20
-3.885316275654944
 30
0.0
 10
13.57325924577826
 20
-3.913899780664953
 30
0.0
  0
LINE
  5
A2
330
1F
100
AcDbEntity
  8
외형선
  6
Continuous
 62
     1
370
    15
100
AcDbLine
 10
19.52499999999998
 20
2.868750000000005
 30
0.0
 11
18.70172864340229
 21
3.692021356597699
 31
0.0
  0
SPLINE
  5
A3
330
1F
100
AcDbEntity
  8
외형선
  6
Continuous
 62
     1
370
    15
100
AcDbSpline
210
0.0
220
0.0
230
1.0
 70
     8
 71
     3
 72
     9
 73
     5
 74
     0
 42
0.000000001
 43
0.00000001
 40
0.0
 40
0.0
 40
0.0
 40
0.0
 40
0.5206127837698619
 40
1.0
 40
1.0
 40
1.0
 40
1.0
 10
13.58430957430149
 20
-3.915416489250508
 30
0.0
 10
13.61021606427173
 20
-3.930785526823757
 30
0.0
 10
13.65997759679241
 20
-3.960306579806667
 30
0.0
 10
13.71773270809152
 20
-3.963630033833783
 30
0.0
 10
13.74541977012026
 20
-3.96522325520811
 30
0.0
  0
LINE
  5
A4
330
1F
100
AcDbEntity
  8
외형선
  6
Continuous
 62
     1
370
    15
100
AcDbLine
 10
13.73867687168932
 20
-3.968749999999995
 30
0.0
 11
14.49959020592331
 21
-3.968749999999995
 31
0.0
  0
LINE
  5
A5
330
1F
100
AcDbEntity
  8
외형선
  6
Continuous
370
    15
100
AcDbLine
 10
6.98000369232803
 20
3.968750000000005
 30
0.0
 11
6.98000369232803
 21
3.717627981759936
 31
0.0
  0
SPLINE
  5
A6
330
1F
100
AcDbEntity
  8
외형선
  6
Continuous
370
    15
100
AcDbSpline
210
0.0
220
0.0
230
1.0
 70
     8
 71
     3
 72
    12
 73
     8
 74
     0
 42
0.000000001
 43
0.00000001
 40
0.0
 40
0.0
 40
0.0
 40
0.0
 40
0.5
 40
0.5
 40
0.75
 40
0.75
 40
1.0
 40
1.0
 40
1.0
 40
1.0
 10
9.99999999999998
 20
3.196228881516959
 30
0.0
 10
9.497266172561808
 20
3.304758883854181
 30
0.0
 10
8.99092836979945
 20
3.403295018750279
 30
0.0
 10
8.236886023231856
 20
3.533994230849959
 30
0.0
 10
7.987149574222761
 20
3.574689138416224
 30
0.0
 10
7.484510341665213
 20
3.650486947160003
 30
0.0
 10
7.23226673795831
 20
3.685546299570508
 30
0.0
 10
6.98000369232803
 20
3.717629253697854
 30
0.0
  0
LINE
  5
A7
330
1F
100
AcDbEntity
  8
외형선
  6
Continuous
370
    15
100
AcDbLine
 10
9.99999999999998
 20
3.196228881516958
 30
0.0
 11
9.999999999999984
 21
1.124742830190576
 31
0.0
  0
SPLINE
  5
A8
330
1F
100
AcDbEntity
  8
외형선
  6
Continuous
370
    15
100
AcDbSpline
210
0.0
220
0.0
230
1.0
 70
     8
 71
     3
 72
    12
 73
     8
 74
     0
 42
0.000000001
 43
0.00000001
 40
0.0
 40
0.0
 40
0.0
 40
0.0
 40
0.5
 40
0.5
 40
0.75
 40
0.75
 40
1.0
 40
1.0
 40
1.0
 40
1.0
 10
9.99999999999998
 20
1.124742830190576
 30
0.0
 10
9.497266172561808
 20
1.300316896589545
 30
0.0
 10
8.99092836979945
 20
1.472700063663869
 30
0.0
 10
8.236886023231856
 20
1.7227881650295
 30
0.0
 10
7.987149574222761
 20
1.804667860397445
 30
0.0
 10
7.484510341665216
 20
1.965764080700289
 30
0.0
 10
7.23226673795831
 20
2.044904796656251
 30
0.0
 10
6.98000369232803
 20
2.122347958652594
 30
0.0
  0
SPLINE
  5
A9
330
1F
100
AcDbEntity
  8
외형선
  6
Continuous
370
    15
100
AcDbSpline
210
0.0
220
0.0
230
1.0
 70
     8
 71
     3
 72
    12
 73
     8
 74
     0
 42
0.000000001
 43
0.00000001
 40
0.0
 40
0.0
 40
0.0
 40
0.0
 40
0.5
 40
0.5
 40
0.75
 40
0.75
 40
1.0
 40
1.0
 40
1.0
 40
1.0
 10
9.999999999999984
 20
-3.635594041783399
 30
0.0
 10
9.497266172561808
 20
-3.562169398424957
 30
0.0
 10
8.99092836979945
 20
-3.476910054189794
 30
0.0
 10
8.236886023231856
 20
-3.333100674907272
 30
0.0
 10
7.987149574222765
 20
-3.282575148750029
 30
0.0
 10
7.484510341665216
 20
-3.176159866141465
 30
0.0
 10
7.232266737958313
 20
-3.120307250393703
 30
0.0
 10
6.98000369232803
 20
-3.062000801517046
 30
0.0
  0
LINE
  5
AA
330
1F
100
AcDbEntity
  8
외형선
  6
Continuous
370
    15
100
AcDbLine
 10
9.999999999999984
 20
-3.635594041783395
 30
0.0
 11
9.999999999999984
 21
-3.968749999999995
 31
0.0
  0
LINE
  5
AB
330
1F
100
AcDbEntity
  8
외형선
  6
Continuous
370
    15
100
AcDbLine
 10
6.98000369232803
 20
-3.965474545500081
 30
0.0
 11
7.422517303596394
 21
-3.959540493012134
 31
0.0
  0
LINE
  5
AC
330
1F
100
AcDbEntity
  8
외형선
  6
Continuous
370
    15
100
AcDbLine
 10
6.98000369232803
 20
-3.965474302264849
 30
0.0
 11
6.98000369232803
 21
-3.968749999999995
 31
0.0
  0
LINE
  5
AD
330
1F
100
AcDbEntity
  8
외형선
  6
Continuous
370
    15
100
AcDbLine
 10
-36.81500000000001
 20
3.968749999999999
 30
0.0
 11
-36.81500000000001
 21
-3.968750000000004
 31
0.0
  0
LINE
  5
AE
330
1F
100
AcDbEntity
  8
외형선
  6
Continuous
370
    15
100
AcDbLine
 10
6.98000369232803
 20
2.122353018543023
 30
0.0
 11
6.98000369232803
 21
-3.062003113088815
 31
0.0
  0
LINE
  5
AF
330
1F
100
AcDbEntity
  8
외형선
  6
Continuous
370
    15
100
AcDbLine
 10
-37.62500000000002
 20
3.15875
 30
0.0
 11
-37.62500000000002
 21
-3.15875
 31
0.0
  0
SPLINE
  5
B0
330
1F
100
AcDbEntity
  8
외형선
  6
Continuous
370
    15
100
AcDbSpline
210
0.0
220
0.0
230
1.0
 70
    24
 71
     3
 72
    16
 73
    12
 74
     0
 42
0.000000001
 43
0.00000001
 40
0.0
 40
0.0
 40
0.0
 40
0.0
 40
0.2499999999999999
 40
0.2499999999999999
 40
0.4999999999999998
 40
0.4999999999999998
 40
0.7499999999999998
 40
0.7499999999999998
 40
0.8749999999999999
 40
0.8749999999999999
 40
1.0
 40
1.0
 40
1.0
 40
1.0
 10
9.999999999999984
 20
1.124742830190575
 30
0.0
 10
9.999999999999984
 20
0.9967810580500684
 30
0.0
 10
9.99999999999998
 20
0.8190945934411464
 30
0.0
 10
9.99999999999998
 20
0.316205992869612
 30
0.0
 10
9.999999999999984
 20
-0.0107922320637291
 30
0.0
 10
9.999999999999984
 20
-0.8377074234902695
 30
0.0
 10
9.999999999999984
 20
-1.339755214760399
 30
0.0
 10
9.999999999999984
 20
-2.173997363837867
 30
0.0
 10
9.999999999999984
 20
-2.464609997555952
 30
0.0
 10
9.999999999999984
 20
-3.051653720612612
 30
0.0
 10
9.999999999999984
 20
-3.347924965387878
 30
0.0
 10
9.999999999999984
 20
-3.635594041783399
 30
0.0
  0
SPLINE
  5
B1
330
1F
100
AcDbEntity
  8
외형선
  6
Continuous
 62
     1
370
    15
100
AcDbSpline
210
0.0
220
0.0
230
1.0
 70
     8
 71
     3
 72
     8
 73
     4
 74
     0
 42
0.000000001
 43
0.00000001
 40
0.0
 40
0.0
 40
0.0
 40
0.0
 40
1.0
 40
1.0
 40
1.0
 40
1.0
 10
18.30185186728387
 20
-1.811893624406744
 30
0.0
 10
18.24568123696923
 20
-1.793736874850815
 30
0.0
 10
18.18915213745212
 20
-1.76921186298471
 30
0.0
 10
18.14256103708485
 20
-1.74290404246455
 30
0.0
  0
SPLINE
  5
B2
330
1F
100
AcDbEntity
  8
외형선
  6
Continuous
 62
     1
370
    15
100
AcDbSpline
210
0.0
220
0.0
230
1.0
 70
     8
 71
     3
 72
    12
 73
     8
 74
     0
 42
0.000000001
 43
0.00000001
 40
0.0
 40
0.0
 40
0.0
 40
0.0
 40
0.5
 40
0.5
 40
0.75
 40
0.75
 40
1.0
 40
1.0
 40
1.0
 40
1.0
 10
18.14256098733077
 20
-1.742903592832621
 30
0.0
 10
18.09928044481255
 20
-1.351790101100949
 30
0.0
 10
18.05273623701592
 20
-0.9175651320537483
 30
0.0
 10
17.98378385155611
 20
-0.2541545289271777
 30
0.0
 10
17.96095949614179
 20
-0.0312255984962584
 30
0.0
 10
17.91658771934493
 20
0.4086351922672033
 30
0.0
 10
17.89553658118985
 20
0.6239584473126205
 30
0.0
 10
17.87346845182205
 20
0.8386566801281343
 30
0.0
  0
SPLINE
  5
B3
330
1F
100
AcDbEntity
  8
외형선
  6
Continuous
 62
     1
370
    15
100
AcDbSpline
210
0.0
220
0.0
230
1.0
 70
     8
 71
     3
 72
     8
 73
     4
 74
     0
 42
0.000000001
 43
0.00000001
 40
0.0
 40
0.0
 40
0.0
 40
0.0
 40
1.0
 40
1.0
 40
1.0
 40
1.0
 10
17.87346844424388
 20
0.8386567538605292
 30
0.0
 10
17.91979820933895
 20
0.8250479466096337
 30
0.0
 10
17.97628868069929
 20
0.8064989504735016
 30
0.0
 10
18.03430357434035
 20
0.7858285887711878
 30
0.0
  0
SPLINE
  5
B4
330
1F
100
AcDbEntity
  8
외형선
  6
Continuous
 62
     1
370
    15
100
AcDbSpline
210
0.0
220
0.0
230
1.0
 70
     8
 71
     3
 72
    12
 73
     8
 74
     0
 42
0.000000001
 43
0.00000001
 40
0.0
 40
0.0
 40
0.0
 40
0.0
 40
0.5000000000000001
 40
0.5000000000000001
 40
0.75
 40
0.75
 40
1.0
 40
1.0
 40
1.0
 40
1.0
 10
18.30185164361585
 20
-1.811891580963829
 30
0.0
 10
18.25905492506834
 20
-1.420898445733401
 30
0.0
 10
18.21290295648845
 20
-0.9856018153203394
 30
0.0
 10
18.14425905320497
 20
-0.3179111416864944
 30
0.0
 10
18.12149190173167
 20
-0.0931202743354636
 30
0.0
 10
18.07713725382688
 20
0.351318674336546
 30
0.0
 10
18.05611509714775
 20
0.5690861302305361
 30
0.0
 10
18.03430376438445
 20
0.7858267002997275
 30
0.0
  0
SPLINE
  5
B5
330
1F
100
AcDbEntity
  8
외형선
  6
Continuous
 62
     1
370
    15
100
AcDbSpline
210
0.0
220
0.0
230
1.0
 70
     8
 71
     3
 72
     8
 73
     4
 74
     0
 42
0.000000001
 43
0.00000001
 40
0.0
 40
0.0
 40
0.0
 40
0.0
 40
1.0
 40
1.0
 40
1.0
 40
1.0
 10
17.50222300487379
 20
-1.534199763775589
 30
0.0
 10
17.45586782703872
 20
-1.52793224215008
 30
0.0
 10
17.39935335716273
 20
-1.513905698110122
 30
0.0
 10
17.34132671799143
 20
-1.494286236080759
 30
0.0
  0
SPLINE
  5
B6
330
1F
100
AcDbEntity
  8
외형선
  6
Continuous
 62
     1
370
    15
100
AcDbSpline
210
0.0
220
0.0
230
1.0
 70
     8
 71
     3
 72
    12
 73
     8
 74
     0
 42
0.000000001
 43
0.00000001
 40
0.0
 40
0.0
 40
0.0
 40
0.0
 40
0.4999999999999999
 40
0.4999999999999999
 40
0.7499999999999999
 40
0.7499999999999999
 40
1.0
 40
1.0
 40
1.0
 40
1.0
 10
17.34132637890851
 20
-1.494283083825592
 30
0.0
 10
17.29705506362714
 20
-1.082716531655002
 30
0.0
 10
17.25035705326798
 20
-0.6349602630186199
 30
0.0
 10
17.18250039401606
 20
0.0354640047358259
 30
0.0
 10
17.1602540735992
 20
0.2585912470131277
 30
0.0
 10
17.11738678448573
 20
0.6949724103147357
 30
0.0
 10
17.0957704171564
 20
0.911617653898529
 30
0.0
 10
17.07334646474158
 20
1.125542094897712
 30
0.0
  0
SPLINE
  5
B7
330
1F
100
AcDbEntity
  8
외형선
  6
Continuous
 62
     1
370
    15
100
AcDbSpline
210
0.0
220
0.0
230
1.0
 70
     8
 71
     3
 72
     8
 73
     4
 74
     0
 42
0.000000001
 43
0.00000001
 40
0.0
 40
0.0
 40
0.0
 40
0.0
 40
1.0
 40
1.0
 40
1.0
 40
1.0
 10
17.0733464910426
 20
1.125541843986103
 30
0.0
 10
17.12956880640554
 20
1.105876296320235
 30
0.0
 10
17.18615765854068
 20
1.083052468654313
 30
0.0
 10
17.23281404237672
 20
1.062055434207769
 30
0.0
  0
SPLINE
  5
B8
330
1F
100
AcDbEntity
  8
외형선
  6
Continuous
 62
     1
370
    15
100
AcDbSpline
210
0.0
220
0.0
230
1.0
 70
     8
 71
     3
 72
    12
 73
     8
 74
     0
 42
0.000000001
 43
0.00000001
 40
0.0
 40
0.0
 40
0.0
 40
0.0
 40
0.5
 40
0.5
 40
0.75
 40
0.75
 40
1.0
 40
1.0
 40
1.0
 40
1.0
 10
17.50222300486759
 20
-1.534199763714399
 30
0.0
 10
17.45794690580564
 20
-1.1294168660567
 30
0.0
 10
17.41103242365417
 20
-0.6869078660394141
 30
0.0
 10
17.34260889619736
 20
-0.021696883055816
 30
0.0
 10
17.32013518944814
 20
0.2001180893220717
 30
0.0
 10
17.27676498261873
 20
0.6346052179262085
 30
0.0
 10
17.25528948689648
 20
0.849257720363239
 30
0.0
 10
17.23281406665713
 20
1.062055204306768
 30
0.0
  0
SPLINE
  5
B9
330
1F
100
AcDbEntity
  8
외형선
  6
Continuous
 62
     1
370
    15
100
AcDbSpline
210
0.0
220
0.0
230
1.0
 70
     8
 71
     3
 72
    10
 73
     6
 74
     0
 42
0.000000001
 43
0.00000001
 40
0.0
 40
0.0
 40
0.0
 40
0.0
 40
0.5
 40
0.5
 40
1.0
 40
1.0
 40
1.0
 40
1.0
 10
18.14256103708687
 20
-1.742904042463777
 30
0.0
 10
18.04769587303344
 20
-1.689338110561073
 30
0.0
 10
17.93250308688063
 20
-1.64423673624579
 30
0.0
 10
17.70336624654685
 20
-1.572428038656755
 30
0.0
 10
17.59346095969778
 20
-1.546535728852532
 30
0.0
 10
17.50222300487426
 20
-1.534199763775446
 30
0.0
  0
SPLINE
  5
BA
330
1F
100
AcDbEntity
  8
외형선
  6
Continuous
 62
     1
370
    15
100
AcDbSpline
210
0.0
220
0.0
230
1.0
 70
     8
 71
     3
 72
    10
 73
     6
 74
     0
 42
0.000000001
 43
0.00000001
 40
0.0
 40
0.0
 40
0.0
 40
0.0
 40
0.5
 40
0.5
 40
1.0
 40
1.0
 40
1.0
 40
1.0
 10
17.23281404237529
 20
1.062055434207455
 30
0.0
 10
17.32773306761806
 20
1.019338492198764
 30
0.0
 10
17.44294752067954
 20
0.978076206937101
 30
0.0
 10
17.6721431869037
 20
0.9006146802367039
 30
0.0
 10
17.78216548289394
 20
0.8654758926988886
 30
0.0
 10
17.87346844424335
 20
0.8386567538604421
 30
0.0
  0
SPLINE
  5
BB
330
1F
100
AcDbEntity
  8
외형선
  6
Continuous
 62
     1
370
    15
100
AcDbSpline
210
0.0
220
0.0
230
1.0
 70
     8
 71
     3
 72
     8
 73
     4
 74
     0
 42
0.000000001
 43
0.00000001
 40
0.0
 40
0.0
 40
0.0
 40
0.0
 40
1.0
 40
1.0
 40
1.0
 40
1.0
 10
15.70741244542244
 20
-0.9287781623982274
 30
0.0
 10
15.65117185229574
 20
-0.9089002403574598
 30
0.0
 10
15.59456348297629
 20
-0.8867838932813876
 30
0.0
 10
15.54789580011539
 20
-0.867474970614061
 30
0.0
  0
SPLINE
  5
BC
330
1F
100
AcDbEntity
  8
외형선
  6
Continuous
 62
     1
370
    15
100
AcDbSpline
210
0.0
220
0.0
230
1.0
 70
     8
 71
     3
 72
    12
 73
     8
 74
     0
 42
0.000000001
 43
0.00000001
 40
0.0
 40
0.0
 40
0.0
 40
0.0
 40
0.5
 40
0.5
 40
0.75
 40
0.75
 40
1.0
 40
1.0
 40
1.0
 40
1.0
 10
15.54789574638665
 20
-0.867474462848161
 30
0.0
 10
15.50196373840862
 20
-0.4334086618210207
 30
0.0
 10
15.45550514707681
 20
0.0191924750974979
 30
0.0
 10
15.39075532636896
 20
0.6689257091655105
 30
0.0
 10
15.36912739273551
 20
0.883588971896407
 30
0.0
 10
15.3241046441669
 20
1.308096378983824
 30
0.0
 10
15.30109956269444
 20
1.51661499747201
 30
0.0
 10
15.2780923440411
 20
1.716763840725036
 30
0.0
  0
SPLINE
  5
BD
330
1F
100
AcDbEntity
  8
외형선
  6
Continuous
 62
     1
370
    15
100
AcDbSpline
210
0.0
220
0.0
230
1.0
 70
     8
 71
     3
 72
     8
 73
     4
 74
     0
 42
0.000000001
 43
0.00000001
 40
0.0
 40
0.0
 40
0.0
 40
0.0
 40
1.0
 40
1.0
 40
1.0
 40
1.0
 10
15.27809234403948
 20
1.716763840743869
 30
0.0
 10
15.32450021127894
 20
1.712560343207334
 30
0.0
 10
15.38106258640048
 20
1.699897041164818
 30
0.0
 10
15.43914632331447
 20
1.680745639231615
 30
0.0
  0
SPLINE
  5
BE
330
1F
100
AcDbEntity
  8
외형선
  6
Continuous
 62
     1
370
    15
100
AcDbSpline
210
0.0
220
0.0
230
1.0
 70
     8
 71
     3
 72
    12
 73
     8
 74
     0
 42
0.000000001
 43
0.00000001
 40
0.0
 40
0.0
 40
0.0
 40
0.0
 40
0.5
 40
0.5
 40
0.75
 40
0.75
 40
1.0
 40
1.0
 40
1.0
 40
1.0
 10
15.70741231637545
 20
-0.9287769290932795
 30
0.0
 10
15.66178268471229
 20
-0.4926934987669881
 30
0.0
 10
15.61547647992519
 20
-0.036553052826881
 30
0.0
 10
15.55068110880784
 20
0.6207685621888361
 30
0.0
 10
15.52943349059404
 20
0.836899565194883
 30
0.0
 10
15.48484610231618
 20
1.266101378573701
 30
0.0
 10
15.46202163144275
 20
1.477401513411172
 30
0.0
 10
15.43914623708753
 20
1.680746405730287
 30
0.0
  0
SPLINE
  5
BF
330
1F
100
AcDbEntity
  8
외형선
  6
Continuous
 62
     1
370
    15
100
AcDbSpline
210
0.0
220
0.0
230
1.0
 70
     8
 71
     3
 72
     8
 73
     4
 74
     0
 42
0.000000001
 43
0.00000001
 40
0.0
 40
0.0
 40
0.0
 40
0.0
 40
1.0
 40
1.0
 40
1.0
 40
1.0
 10
14.74563885974466
 20
-0.5848383974511617
 30
0.0
 10
14.20308615259984
 20
-0.3891676478323756
 30
0.0
 10
13.65532291561189
 20
-0.1906828274759438
 30
0.0
 10
13.11150370227021
 20
0.0073010116905445
 30
0.0
  0
SPLINE
  5
C0
330
1F
100
AcDbEntity
  8
외형선
  6
Continuous
 62
     1
370
    15
100
AcDbSpline
210
0.0
220
0.0
230
1.0
 70
     8
 71
     3
 72
    12
 73
     8
 74
     0
 42
0.000000001
 43
0.00000001
 40
0.0
 40
0.0
 40
0.0
 40
0.0
 40
0.2500000000000001
 40
0.2500000000000001
 40
0.4999999999999999
 40
0.4999999999999999
 40
1.0
 40
1.0
 40
1.0
 40
1.0
 10
13.11150304826223
 20
0.0073009460658862
 30
0.0
 10
13.08913789012684
 20
0.2301888637003157
 30
0.0
 10
13.06772261163254
 20
0.4498653825987914
 30
0.0
 10
13.02466535376925
 20
0.8838083466564837
 30
0.0
 10
13.00234813875634
 20
1.100304794080471
 30
0.0
 10
12.93436545533296
 20
1.734158660874564
 30
0.0
 10
12.88770337364463
 20
2.134841022496248
 30
0.0
 10
12.84357856204376
 20
2.481193642695376
 30
0.0
  0
SPLINE
  5
C1
330
1F
100
AcDbEntity
  8
외형선
  6
Continuous
 62
     1
370
    15
100
AcDbSpline
210
0.0
220
0.0
230
1.0
 70
     8
 71
     3
 72
     8
 73
     4
 74
     0
 42
0.000000001
 43
0.00000001
 40
0.0
 40
0.0
 40
0.0
 40
0.0
 40
1.0
 40
1.0
 40
1.0
 40
1.0
 10
14.47736575843069
 20
1.991425529036079
 30
0.0
 10
13.93342484166276
 20
2.162677874573042
 30
0.0
 10
13.38577964233468
 20
2.326839440071459
 30
0.0
 10
12.84357864327246
 20
2.481193947848527
 30
0.0
  0
SPLINE
  5
C2
330
1F
100
AcDbEntity
  8
외형선
  6
Continuous
 62
     1
370
    15
100
AcDbSpline
210
0.0
220
0.0
230
1.0
 70
     8
 71
     3
 72
    12
 73
     8
 74
     0
 42
0.000000001
 43
0.00000001
 40
0.0
 40
0.0
 40
0.0
 40
0.0
 40
0.25
 40
0.25
 40
0.5
 40
0.5
 40
1.0
 40
1.0
 40
1.0
 40
1.0
 10
14.74563880230414
 20
-0.5848378100697879
 30
0.0
 10
14.72276928965898
 20
-0.3628293284605281
 30
0.0
 10
14.69998049425091
 20
-0.1382738104573411
 30
0.0
 10
14.6555190625729
 20
0.306338838636344
 30
0.0
 10
14.63440551414233
 20
0.524523805613301
 30
0.0
 10
14.56933773738429
 20
1.174540856677625
 30
0.0
 10
14.52295212038712
 20
1.603545121032561
 30
0.0
 10
14.47736574994038
 20
1.99142560227089
 30
0.0
  0
SPLINE
  5
C3
330
1F
100
AcDbEntity
  8
외형선
  6
Continuous
 62
     1
370
    15
100
AcDbSpline
210
0.0
220
0.0
230
1.0
 70
     8
 71
     3
 72
     8
 73
     4
 74
     0
 42
0.000000001
 43
0.00000001
 40
0.0
 40
0.0
 40
0.0
 40
0.0
 40
1.0
 40
1.0
 40
1.0
 40
1.0
 10
18.42499999999998
 20
0.6462025909696285
 30
0.0
 10
18.29473953383227
 20
0.6928957338039397
 30
0.0
 10
18.16446569201313
 20
0.7394526001796233
 30
0.0
 10
18.03430341648981
 20
0.7858286450121024
 30
0.0
  0
LINE
  5
C4
330
1F
100
AcDbEntity
  8
외형선
  6
Continuous
 62
     1
370
    15
100
AcDbLine
 10
18.42499999999998
 20
-1.851583565279191
 30
0.0
 11
18.42499999999998
 21
0.6462025909696287
 31
0.0
  0
SPLINE
  5
C5
330
1F
100
AcDbEntity
  8
외형선
  6
Continuous
 62
     1
370
    15
100
AcDbSpline
210
0.0
220
0.0
230
1.0
 70
     8
 71
     3
 72
     8
 73
     4
 74
     0
 42
0.000000001
 43
0.00000001
 40
0.0
 40
0.0
 40
0.0
 40
0.0
 40
1.0
 40
1.0
 40
1.0
 40
1.0
 10
18.42499999999998
 20
-1.851583565279191
 30
0.0
 10
18.38395016786936
 20
-1.838392371924907
 30
0.0
 10
18.34289900546342
 20
-1.825161815540581
 30
0.0
 10
18.3018504254952
 20
-1.811893158358982
 30
0.0
  0
SPLINE
  5
C6
330
1F
100
AcDbEntity
  8
외형선
  6
Continuous
 62
     1
370
    15
100
AcDbSpline
210
0.0
220
0.0
230
1.0
 70
     8
 71
     3
 72
     8
 73
     4
 74
     0
 42
0.000000001
 43
0.00000001
 40
0.0
 40
0.0
 40
0.0
 40
0.0
 40
1.0
 40
1.0
 40
1.0
 40
1.0
 10
17.34132453491238
 20
-1.494285497956018
 30
0.0
 10
16.79907452735026
 20
-1.310944627996376
 30
0.0
 10
16.25286198623949
 20
-1.121564243345129
 30
0.0
 10
15.7074121196709
 20
-0.9287780472631695
 30
0.0
  0
SPLINE
  5
C7
330
1F
100
AcDbEntity
  8
외형선
  6
Continuous
 62
     1
370
    15
100
AcDbSpline
210
0.0
220
0.0
230
1.0
 70
     8
 71
     3
 72
     8
 73
     4
 74
     0
 42
0.000000001
 43
0.00000001
 40
0.0
 40
0.0
 40
0.0
 40
0.0
 40
1.0
 40
1.0
 40
1.0
 40
1.0
 10
17.07334642110079
 20
1.12554186845048
 30
0.0
 10
16.53101875497619
 20
1.315238263439391
 30
0.0
 10
15.98323358126951
 20
1.501348886960408
 30
0.0
 10
15.43914631866686
 20
1.68074564076277
 30
0.0
  0
SPLINE
  5
C8
330
1F
100
AcDbEntity
  8
외형선
  6
Continuous
 62
     1
370
    15
100
AcDbSpline
210
0.0
220
0.0
230
1.0
 70
     8
 71
     3
 72
     8
 73
     4
 74
     0
 42
0.000000001
 43
0.00000001
 40
0.0
 40
0.0
 40
0.0
 40
0.0
 40
1.0
 40
1.0
 40
1.0
 40
1.0
 10
12.15060766640696
 20
0.3571364958226047
 30
0.0
 10
11.60696181497385
 20
0.5541608897686732
 30
0.0
 10
11.05985991394469
 20
0.7502590113534742
 30
0.0
 10
10.51842323966883
 20
0.9421702554741944
 30
0.0
  0
SPLINE
  5
C9
330
1F
100
AcDbEntity
  8
외형선
  6
Continuous
 62
     1
370
    15
100
AcDbSpline
210
0.0
220
0.0
230
1.0
 70
     8
 71
     3
 72
    12
 73
     8
 74
     0
 42
0.000000001
 43
0.00000001
 40
0.0
 40
0.0
 40
0.0
 40
0.0
 40
0.4999999999999998
 40
0.4999999999999998
 40
0.7499999999999999
 40
0.7499999999999999
 40
1.0
 40
1.0
 40
1.0
 40
1.0
 10
10.5184230753621
 20
0.942169765940146
 30
0.0
 10
10.47418816858272
 20
1.373616261750617
 30
0.0
 10
10.4274977277731
 20
1.794598901513629
 30
0.0
 10
10.35960616802086
 20
2.356737645398248
 30
0.0
 10
10.33734079067213
 20
2.532677448335487
 30
0.0
 10
10.29442310797002
 20
2.855574305754765
 30
0.0
 10
10.27286135764144
 20
3.004959055599421
 30
0.0
 10
10.2504517685382
 20
3.141273095052558
 30
0.0
  0
SPLINE
  5
CA
330
1F
100
AcDbEntity
  8
외형선
  6
Continuous
 62
     1
370
    15
100
AcDbSpline
210
0.0
220
0.0
230
1.0
 70
     8
 71
     3
 72
     8
 73
     4
 74
     0
 42
0.000000001
 43
0.00000001
 40
0.0
 40
0.0
 40
0.0
 40
0.0
 40
1.0
 40
1.0
 40
1.0
 40
1.0
 10
11.88310346982553
 20
2.744346742671929
 30
0.0
 10
11.33789423318959
 20
2.88750932134908
 30
0.0
 10
10.79263674716787
 20
3.020376257817748
 30
0.0
 10
10.25045183357578
 20
3.141273018323017
 30
0.0
  0
SPLINE
  5
CB
330
1F
100
AcDbEntity
  8
외형선
  6
Continuous
 62
     1
370
    15
100
AcDbSpline
210
0.0
220
0.0
230
1.0
 70
     8
 71
     3
 72
    12
 73
     8
 74
     0
 42
0.000000001
 43
0.00000001
 40
0.0
 40
0.0
 40
0.0
 40
0.0
 40
0.25
 40
0.25
 40
0.5000000000000001
 40
0.5000000000000001
 40
1.0
 40
1.0
 40
1.0
 40
1.0
 10
12.15060640580921
 20
0.357133688306751
 30
0.0
 10
12.12887991929797
 20
0.5770904891212367
 30
0.0
 10
12.10775601821311
 20
0.7934273551560176
 30
0.0
 10
12.06325668893201
 20
1.223998323193499
 30
0.0
 10
12.04044458575664
 20
1.436294470284589
 30
0.0
 10
11.97175730203562
 20
2.050139017212869
 30
0.0
 10
11.92570242855266
 20
2.427337965550355
 30
0.0
 10
11.88310363698024
 20
2.744345493177238
 30
0.0
  0
SPLINE
  5
CC
330
1F
100
AcDbEntity
  8
외형선
  6
Continuous
 62
     1
370
    15
100
AcDbSpline
210
0.0
220
0.0
230
1.0
 70
     8
 71
     3
 72
     8
 73
     4
 74
     0
 42
0.000000001
 43
0.00000001
 40
0.0
 40
0.0
 40
0.0
 40
0.0
 40
1.0
 40
1.0
 40
1.0
 40
1.0
 10
14.90670428903613
 20
-0.6412527299197315
 30
0.0
 10
14.86029156681111
 20
-0.6255935615629149
 30
0.0
 10
14.80372667754493
 20
-0.6057876742732331
 30
0.0
 10
14.7456388629316
 20
-0.5848383986006158
 30
0.0
  0
SPLINE
  5
CD
330
1F
100
AcDbEntity
  8
외형선
  6
Continuous
 62
     1
370
    15
100
AcDbSpline
210
0.0
220
0.0
230
1.0
 70
     8
 71
     3
 72
     8
 73
     4
 74
     0
 42
0.000000001
 43
0.00000001
 40
0.0
 40
0.0
 40
0.0
 40
0.0
 40
1.0
 40
1.0
 40
1.0
 40
1.0
 10
14.47736575855192
 20
1.991425528997913
 30
0.0
 10
14.53360702303267
 20
1.97371873739343
 30
0.0
 10
14.59021606069622
 20
1.94878253174273
 30
0.0
 10
14.63688754402859
 20
1.921062535350362
 30
0.0
  0
SPLINE
  5
CE
330
1F
100
AcDbEntity
  8
외형선
  6
Continuous
 62
     1
370
    15
100
AcDbSpline
210
0.0
220
0.0
230
1.0
 70
     8
 71
     3
 72
    12
 73
     8
 74
     0
 42
0.000000001
 43
0.00000001
 40
0.0
 40
0.0
 40
0.0
 40
0.0
 40
0.2500000000000001
 40
0.2500000000000001
 40
0.5000000000000001
 40
0.5000000000000001
 40
1.0
 40
1.0
 40
1.0
 40
1.0
 10
14.90670428865051
 20
-0.6412527262327579
 30
0.0
 10
14.8836969546295
 20
-0.4215505563013729
 30
0.0
 10
14.86072182342211
 20
-0.1988329588134675
 30
0.0
 10
14.8158148600029
 20
0.2429851929036496
 30
0.0
 10
14.79437057294206
 20
0.4604608199018927
 30
0.0
 10
14.72933438628841
 20
1.105734323078159
 30
0.0
 10
14.68278564194801
 20
1.533268857100466
 30
0.0
 10
14.63688766488064
 20
1.921061514255927
 30
0.0
  0
SPLINE
  5
CF
330
1F
100
AcDbEntity
  8
외형선
  6
Continuous
 62
     1
370
    15
100
AcDbSpline
210
0.0
220
0.0
230
1.0
 70
     8
 71
     3
 72
     8
 73
     4
 74
     0
 42
0.000000001
 43
0.00000001
 40
0.0
 40
0.0
 40
0.0
 40
0.0
 40
1.0
 40
1.0
 40
1.0
 40
1.0
 10
16.14326367042439
 20
-3.872044683223271
 30
0.0
 10
16.18955903540465
 20
-3.903130485716942
 30
0.0
 10
16.24601821612226
 20
-3.917988057023831
 30
0.0
 10
16.30400031909718
 20
-3.914516905785215
 30
0.0
  0
SPLINE
  5
D0
330
1F
100
AcDbEntity
  8
외형선
  6
Continuous
 62
     1
370
    15
100
AcDbSpline
210
0.0
220
0.0
230
1.0
 70
     8
 71
     3
 72
    10
 73
     6
 74
     0
 42
0.000000001
 43
0.00000001
 40
0.0
 40
0.0
 40
0.0
 40
0.0
 40
0.5
 40
0.5
 40
1.0
 40
1.0
 40
1.0
 40
1.0
 10
15.50296102222944
 20
-3.899450032616297
 30
0.0
 10
15.59781811379423
 20
-3.825033899626311
 30
0.0
 10
15.71298102142435
 20
-3.786651927789876
 30
0.0
 10
15.94208856926789
 20
-3.779970440927902
 30
0.0
 10
16.05203860914557
 20
-3.810790079471996
 30
0.0
 10
16.14326367042438
 20
-3.872044683223264
 30
0.0
  0
SPLINE
  5
D1
330
1F
100
AcDbEntity
  8
외형선
  6
Continuous
 62
     1
370
    15
100
AcDbSpline
210
0.0
220
0.0
230
1.0
 70
     8
 71
     3
 72
     8
 73
     4
 74
     0
 42
0.000000001
 43
0.00000001
 40
0.0
 40
0.0
 40
0.0
 40
0.0
 40
1.0
 40
1.0
 40
1.0
 40
1.0
 10
15.34356402909756
 20
-3.956827877761877
 30
0.0
 10
15.39976144262671
 20
-3.955242733919406
 30
0.0
 10
15.45633064306252
 20
-3.936031931141589
 30
0.0
 10
15.50296102223098
 20
-3.899450032621921
 30
0.0
  0
SPLINE
  5
D2
330
1F
100
AcDbEntity
  8
외형선
  6
Continuous
 62
     1
370
    15
100
AcDbSpline
210
0.0
220
0.0
230
1.0
 70
     8
 71
     3
 72
    10
 73
     6
 74
     0
 42
0.000000001
 43
0.00000001
 40
0.0
 40
0.0
 40
0.0
 40
0.0
 40
0.5
 40
0.5
 40
1.0
 40
1.0
 40
1.0
 40
1.0
 10
15.34356357465237
 20
-3.956827890580238
 30
0.0
 10
15.07133373578497
 20
-3.964506593125217
 30
0.0
 10
14.80087340501021
 20
-3.968474309606133
 30
0.0
 10
14.25619695616039
 20
-3.968998011513154
 30
0.0
 10
13.98285664906157
 20
-3.965539169851349
 30
0.0
 10
13.70966476888584
 20
-3.958362591742208
 30
0.0
  0
SPLINE
  5
D3
330
1F
100
AcDbEntity
  8
외형선
  6
Continuous
 62
     1
370
    15
100
AcDbSpline
210
0.0
220
0.0
230
1.0
 70
     8
 71
     3
 72
     8
 73
     4
 74
     0
 42
0.000000001
 43
0.00000001
 40
0.0
 40
0.0
 40
0.0
 40
0.0
 40
1.0
 40
1.0
 40
1.0
 40
1.0
 10
13.54863600087348
 20
-3.899947839609613
 30
0.0
 10
13.59503499365577
 20
-3.936393564097301
 30
0.0
 10
13.65159060958937
 20
-3.95683702019563
 30
0.0
 10
13.70966473118372
 20
-3.958362590755875
 30
0.0
  0
SPLINE
  5
D4
330
1F
100
AcDbEntity
  8
외형선
  6
Continuous
 62
     1
370
    15
100
AcDbSpline
210
0.0
220
0.0
230
1.0
 70
     8
 71
     3
 72
    10
 73
     6
 74
     0
 42
0.000000001
 43
0.00000001
 40
0.0
 40
0.0
 40
0.0
 40
0.0
 40
0.5
 40
0.5
 40
1.0
 40
1.0
 40
1.0
 40
1.0
 10
12.9074877056194
 20
-3.872783412922402
 30
0.0
 10
13.00248005246196
 20
-3.804474624593594
 30
0.0
 10
13.11778584455237
 20
-3.7741408755419
 30
0.0
 10
13.34714578807056
 20
-3.786587450567417
 30
0.0
 10
13.4572366511897
 20
-3.82815499848998
 30
0.0
 10
13.54863600087347
 20
-3.899947839609581
 30
0.0
  0
SPLINE
  5
D5
330
1F
100
AcDbEntity
  8
외형선
  6
Continuous
 62
     1
370
    15
100
AcDbSpline
210
0.0
220
0.0
230
1.0
 70
     8
 71
     3
 72
     8
 73
     4
 74
     0
 42
0.000000001
 43
0.00000001
 40
0.0
 40
0.0
 40
0.0
 40
0.0
 40
1.0
 40
1.0
 40
1.0
 40
1.0
 10
12.74794388992866
 20
-3.917703682140087
 30
0.0
 10
12.80418214019409
 20
-3.92098582401038
 30
0.0
 10
12.86080273275803
 20
-3.906354474549202
 30
0.0
 10
12.90748770562101
 20
-3.872783412928489
 30
0.0
  0
SPLINE
  5
D6
330
1F
100
AcDbEntity
  8
외형선
  6
Continuous
 62
     1
370
    15
100
AcDbSpline
210
0.0
220
0.0
230
1.0
 70
     8
 71
     3
 72
     8
 73
     4
 74
     0
 42
0.000000001
 43
0.00000001
 40
0.0
 40
0.0
 40
0.0
 40
0.0
 40
1.0
 40
1.0
 40
1.0
 40
1.0
 10
12.74794388993151
 20
-3.917703682140317
 30
0.0
 10
12.20583550236925
 20
-3.886065488758627
 30
0.0
 10
11.65915995577202
 20
-3.839664977436974
 30
0.0
 10
11.11373648100052
 20
-3.779097389083292
 30
0.0
  0
SPLINE
  5
D7
330
1F
100
AcDbEntity
  8
외형선
  6
Continuous
 62
     1
370
    15
100
AcDbSpline
210
0.0
220
0.0
230
1.0
 70
     8
 71
     3
 72
     8
 73
     4
 74
     0
 42
0.000000001
 43
0.00000001
 40
0.0
 40
0.0
 40
0.0
 40
0.0
 40
1.0
 40
1.0
 40
1.0
 40
1.0
 10
10.95280127038603
 20
-3.708000817100081
 30
0.0
 10
10.99916487769125
 20
-3.747755112516192
 30
0.0
 10
11.05569007146968
 20
-3.772651515008336
 30
0.0
 10
11.11373648098316
 20
-3.779097389085355
 30
0.0
  0
SPLINE
  5
D8
330
1F
100
AcDbEntity
  8
외형선
  6
Continuous
 62
     1
370
    15
100
AcDbSpline
210
0.0
220
0.0
230
1.0
 70
     8
 71
     3
 72
    10
 73
     6
 74
     0
 42
0.000000001
 43
0.00000001
 40
0.0
 40
0.0
 40
0.0
 40
0.0
 40
0.5
 40
0.5
 40
1.0
 40
1.0
 40
1.0
 40
1.0
 10
10.31217963744104
 20
-3.627627692626244
 30
0.0
 10
10.40708927447498
 20
-3.569350570461302
 30
0.0
 10
10.52229494803953
 20
-3.548785149133606
 30
0.0
 10
10.75148914804603
 20
-3.579689485831181
 30
0.0
 10
10.86148552719393
 20
-3.629702486965782
 30
0.0
 10
10.95280127038602
 20
-3.708000817100072
 30
0.0
  0
SPLINE
  5
D9
330
1F
100
AcDbEntity
  8
외형선
  6
Continuous
 62
     1
370
    15
100
AcDbSpline
210
0.0
220
0.0
230
1.0
 70
     8
 71
     3
 72
     8
 73
     4
 74
     0
 42
0.000000001
 43
0.00000001
 40
0.0
 40
0.0
 40
0.0
 40
0.0
 40
1.0
 40
1.0
 40
1.0
 40
1.0
 10
10.15280658117355
 20
-3.657564617954569
 30
0.0
 10
10.20900018885439
 20
-3.665516431870143
 30
0.0
 10
10.26555510071266
 20
-3.656256437907283
 30
0.0
 10
10.31217963744254
 20
-3.627627692632031
 30
0.0
  0
SPLINE
  5
DA
330
1F
100
AcDbEntity
  8
외형선
  6
Continuous
 62
     1
370
    15
100
AcDbSpline
210
0.0
220
0.0
230
1.0
 70
     8
 71
     3
 72
     8
 73
     4
 74
     0
 42
0.000000001
 43
0.00000001
 40
0.0
 40
0.0
 40
0.0
 40
0.0
 40
1.0
 40
1.0
 40
1.0
 40
1.0
 10
10.15280676746151
 20
-3.657564644315881
 30
0.0
 10
10.10191315244148
 20
-3.650362819108487
 30
0.0
 10
10.05097507530638
 20
-3.643038988831452
 30
0.0
 10
9.999999999999984
 20
-3.6355940417834
 30
0.0
  0
SPLINE
  5
DB
330
1F
100
AcDbEntity
  8
외형선
  6
Continuous
370
    15
100
AcDbSpline
210
0.0
220
0.0
230
1.0
 70
    24
 71
     3
 72
    16
 73
    12
 74
     0
 42
0.000000001
 43
0.00000001
 40
0.0
 40
0.0
 40
0.0
 40
0.0
 40
0.25
 40
0.25
 40
0.5
 40
0.5
 40
0.75
 40
0.75
 40
0.875
 40
0.875
 40
1.0
 40
1.0
 40
1.0
 40
1.0
 10
9.999999999999984
 20
1.057523871251522
 30
0.0
 10
9.999999999999984
 20
0.9185334577521136
 30
0.0
 10
9.999999999999984
 20
0.7300839068557063
 30
0.0
 10
9.999999999999984
 20
0.2124955467445582
 30
0.0
 10
9.999999999999984
 20
-0.1182353653315421
 30
0.0
 10
9.999999999999984
 20
-0.9374845645386736
 30
0.0
 10
9.999999999999984
 20
-1.427629827461486
 30
0.0
 10
9.999999999999984
 20
-2.233246579957648
 30
0.0
 10
9.999999999999984
 20
-2.512663969489901
 30
0.0
 10
9.999999999999984
 20
-3.075978465407793
 30
0.0
 10
9.999999999999984
 20
-3.359743347081042
 30
0.0
 10
9.999999999999984
 20
-3.635594041783403
 30
0.0
  0
SPLINE
  5
DC
330
1F
100
AcDbEntity
  8
외형선
  6
Continuous
 62
     1
370
    15
100
AcDbSpline
210
0.0
220
0.0
230
1.0
 70
     8
 71
     3
 72
     8
 73
     4
 74
     0
 42
0.000000001
 43
0.00000001
 40
0.0
 40
0.0
 40
0.0
 40
0.0
 40
1.0
 40
1.0
 40
1.0
 40
1.0
 10
10.35898936638363
 20
0.9783341747437029
 30
0.0
 10
10.25460473399927
 20
0.9838545958338658
 30
0.0
 10
10.12548574219854
 20
1.011189649775794
 30
0.0
 10
9.99999999999998
 20
1.057523871251524
 30
0.0
  0
SPLINE
  5
DD
330
1F
100
AcDbEntity
  8
외형선
  6
Continuous
 62
     1
370
    15
100
AcDbSpline
210
0.0
220
0.0
230
1.0
 70
     8
 71
     3
 72
     8
 73
     4
 74
     0
 42
0.000000001
 43
0.00000001
 40
0.0
 40
0.0
 40
0.0
 40
0.0
 40
1.0
 40
1.0
 40
1.0
 40
1.0
 10
10.51842301708276
 20
0.9421703343694245
 30
0.0
 10
10.46221180026815
 20
0.9620942978384304
 30
0.0
 10
10.4056369057418
 20
0.9758672018381287
 30
0.0
 10
10.35898936638152
 20
0.9783341747462706
 30
0.0
  0
SPLINE
  5
DE
330
1F
100
AcDbEntity
  8
외형선
  6
Continuous
 62
     1
370
    15
100
AcDbSpline
210
0.0
220
0.0
230
1.0
 70
     8
 71
     3
 72
     8
 73
     4
 74
     0
 42
0.000000001
 43
0.00000001
 40
0.0
 40
0.0
 40
0.0
 40
0.0
 40
1.0
 40
1.0
 40
1.0
 40
1.0
 10
12.31143135062805
 20
0.2877052047138244
 30
0.0
 10
12.26510492060735
 20
0.311750229461315
 30
0.0
 10
12.20861867790019
 20
0.3361125440987238
 30
0.0
 10
12.15060607139762
 20
0.3571370738757645
 30
0.0
  0
SPLINE
  5
DF
330
1F
100
AcDbEntity
  8
외형선
  6
Continuous
 62
     1
370
    15
100
AcDbSpline
210
0.0
220
0.0
230
1.0
 70
     8
 71
     3
 72
    10
 73
     6
 74
     0
 42
0.000000001
 43
0.00000001
 40
0.0
 40
0.0
 40
0.0
 40
0.0
 40
0.5
 40
0.5
 40
1.0
 40
1.0
 40
1.0
 40
1.0
 10
12.95205775332375
 20
0.0574103517394767
 30
0.0
 10
12.85712298131808
 20
0.0801935401487436
 30
0.0
 10
12.7418971790185
 20
0.1125408392887
 30
0.0
 10
12.51272253778309
 20
0.1933478486940574
 30
0.0
 10
12.40272691993527
 20
0.2403196362091151
 30
0.0
 10
12.31143135062852
 20
0.2877052047137954
 30
0.0
  0
SPLINE
  5
E0
330
1F
100
AcDbEntity
  8
외형선
  6
Continuous
 62
     1
370
    15
100
AcDbSpline
210
0.0
220
0.0
230
1.0
 70
     8
 71
     3
 72
     8
 73
     4
 74
     0
 42
0.000000001
 43
0.00000001
 40
0.0
 40
0.0
 40
0.0
 40
0.0
 40
1.0
 40
1.0
 40
1.0
 40
1.0
 10
13.11150301663023
 20
0.0073012613059183
 30
0.0
 10
13.05528563450291
 20
0.0277678665900383
 30
0.0
 10
12.99870326048024
 20
0.0462159984434137
 30
0.0
 10
12.95205775332166
 20
0.0574103517409678
 30
0.0
  0
SPLINE
  5
E1
330
1F
100
AcDbEntity
  8
외형선
  6
Continuous
 62
     1
370
    15
100
AcDbSpline
210
0.0
220
0.0
230
1.0
 70
     8
 71
     3
 72
    10
 73
     6
 74
     0
 42
0.000000001
 43
0.00000001
 40
0.0
 40
0.0
 40
0.0
 40
0.0
 40
0.5
 40
0.5
 40
1.0
 40
1.0
 40
1.0
 40
1.0
 10
15.5478958001175
 20
-0.8674749706144012
 30
0.0
 10
15.45287078678986
 20
-0.8281580274682616
 30
0.0
 10
15.33752071699466
 20
-0.7883019563171838
 30
0.0
 10
15.10813132853057
 20
-0.7097006795834679
 30
0.0
 10
14.99809342214802
 20
-0.6720864701695113
 30
0.0
 10
14.90670428903661
 20
-0.6412527299196722
 30
0.0
  0
SPLINE
  5
E2
330
1F
100
AcDbEntity
  8
외형선
  6
Continuous
 62
     1
370
    15
100
AcDbSpline
210
0.0
220
0.0
230
1.0
 70
     8
 71
     3
 72
     8
 73
     4
 74
     0
 42
0.000000001
 43
0.00000001
 40
0.0
 40
0.0
 40
0.0
 40
0.0
 40
1.0
 40
1.0
 40
1.0
 40
1.0
 10
19.52499999999998
 20
-1.8372105135587
 30
0.0
 10
19.1790502131365
 20
-1.83387750217429
 30
0.0
 10
18.80578423793123
 20
-1.838728899374201
 30
0.0
 10
18.42499999999998
 20
-1.85158356527919
 30
0.0
  0
SPLINE
  5
E3
330
1F
100
AcDbEntity
  8
외형선
  6
Continuous
 62
     1
370
    15
100
AcDbSpline
210
0.0
220
0.0
230
1.0
 70
     8
 71
     3
 72
     9
 73
     5
 74
     0
 42
0.000000001
 43
0.00000001
 40
0.0
 40
0.0
 40
0.0
 40
0.0
 40
0.7641200155777833
 40
1.0
 40
1.0
 40
1.0
 40
1.0
 10
18.62360788264837
 20
-1.846963106529808
 30
0.0
 10
18.53580466828017
 20
-1.872859766969459
 30
0.0
 10
18.42089704568399
 20
-1.906750595519564
 30
0.0
 10
18.29948290913962
 20
-1.954123738141804
 30
0.0
 10
18.27084374450289
 20
-1.965298114285569
 30
0.0
  0
SPLINE
  5
E4
330
1F
100
AcDbEntity
  8
외형선
  6
Continuous
 62
     1
370
    15
100
AcDbSpline
210
0.0
220
0.0
230
1.0
 70
     8
 71
     3
 72
     8
 73
     4
 74
     0
 42
0.000000001
 43
0.00000001
 40
0.0
 40
0.0
 40
0.0
 40
0.0
 40
1.0
 40
1.0
 40
1.0
 40
1.0
 10
19.52499999999998
 20
-2.320163692655716
 30
0.0
 10
19.10427456286168
 20
-2.212507283913367
 30
0.0
 10
18.68636790451009
 20
-2.09364038465624
 30
0.0
 10
18.27084374450289
 20
-1.965298114285566
 30
0.0
  0
LINE
  5
E5
330
1F
100
AcDbEntity
  8
외형선
  6
Continuous
 62
     1
370
    15
100
AcDbLine
 10
19.52499999999998
 20
-2.692704320038201
 30
0.0
 11
19.52499999999998
 21
-2.320163692655715
 31
0.0
  0
SPLINE
  5
E6
330
1F
100
AcDbEntity
  8
외형선
  6
Continuous
 62
     1
370
    15
100
AcDbSpline
210
0.0
220
0.0
230
1.0
 70
     8
 71
     3
 72
    10
 73
     6
 74
     0
 42
0.000000001
 43
0.00000001
 40
0.0
 40
0.0
 40
0.0
 40
0.0
 40
0.5
 40
0.5
 40
1.0
 40
1.0
 40
1.0
 40
1.0
 10
18.56398679383144
 20
-3.573984266326456
 30
0.0
 10
18.72442463203577
 20
-3.41370391198064
 30
0.0
 10
18.88462833240727
 20
-3.259565129193444
 30
0.0
 10
19.20509392009418
 20
-2.965186042427127
 30
0.0
 10
19.36545251213165
 20
-2.824945252662048
 30
0.0
 10
19.52499999999998
 20
-2.692704320038209
 30
0.0
  0
SPLINE
  5
E7
330
1F
100
AcDbEntity
  8
외형선
  6
Continuous
 62
     1
370
    15
100
AcDbSpline
210
0.0
220
0.0
230
1.0
 70
     8
 71
     3
 72
     8
 73
     4
 74
     0
 42
0.000000001
 43
0.00000001
 40
0.0
 40
0.0
 40
0.0
 40
0.0
 40
1.0
 40
1.0
 40
1.0
 40
1.0
 10
18.09608346867953
 20
-3.706522216150935
 30
0.0
 10
18.23160476129827
 20
-3.597479853656361
 30
0.0
 10
18.4095573205693
 20
-3.554757390309777
 30
0.0
 10
18.56398679383144
 20
-3.573984266326421
 30
0.0
  0
SPLINE
  5
E8
330
1F
100
AcDbEntity
  8
외형선
  6
Continuous
 62
     1
370
    15
100
AcDbSpline
210
0.0
220
0.0
230
1.0
 70
     8
 71
     3
 72
     8
 73
     4
 74
     0
 42
0.000000001
 43
0.00000001
 40
0.0
 40
0.0
 40
0.0
 40
0.0
 40
1.0
 40
1.0
 40
1.0
 40
1.0
 10
17.93663559733189
 20
-3.773066049088203
 30
0.0
 10
17.99285200096205
 20
-3.766726721032009
 30
0.0
 10
18.04943799719097
 20
-3.744053826964742
 30
0.0
 10
18.09608346868151
 20
-3.706522216155587
 30
0.0
  0
SPLINE
  5
E9
330
1F
100
AcDbEntity
  8
외형선
  6
Continuous
 62
     1
370
    15
100
AcDbSpline
210
0.0
220
0.0
230
1.0
 70
     8
 71
     3
 72
     8
 73
     4
 74
     0
 42
0.000000001
 43
0.00000001
 40
0.0
 40
0.0
 40
0.0
 40
0.0
 40
1.0
 40
1.0
 40
1.0
 40
1.0
 10
17.93663408387495
 20
-3.773066219755294
 30
0.0
 10
17.39108468806693
 20
-3.834585899366325
 30
0.0
 10
16.85009044679602
 20
-3.88182472518105
 30
0.0
 10
16.30400027948065
 20
-3.914516908153072
 30
0.0
  0
SPLINE
  5
EA
330
1F
100
AcDbEntity
  8
외형선
  6
Continuous
 62
     1
370
    15
100
AcDbSpline
210
0.0
220
0.0
230
1.0
 70
     8
 71
     3
 72
    10
 73
     6
 74
     0
 42
0.000000001
 43
0.00000001
 40
0.0
 40
0.0
 40
0.0
 40
0.0
 40
0.5
 40
0.5
 40
1.0
 40
1.0
 40
1.0
 40
1.0
 10
14.63688754402716
 20
1.921062535348604
 30
0.0
 10
14.73191349764263
 20
1.864622951616733
 30
0.0
 10
14.84725308290761
 20
1.818547193745955
 30
0.0
 10
15.07660134393655
 20
1.748342623092757
 30
0.0
 10
15.18667908534772
 20
1.725043803400058
 30
0.0
 10
15.27809234403896
 20
1.716763840743688
 30
0.0
  0
SPLINE
  5
EB
330
1F
100
AcDbEntity
  8
외형선
  6
Continuous
 62
     1
370
    15
100
AcDbSpline
210
0.0
220
0.0
230
1.0
 70
     8
 71
     3
 72
    12
 73
     8
 74
     0
 42
0.000000001
 43
0.00000001
 40
0.0
 40
0.0
 40
0.0
 40
0.0
 40
0.25
 40
0.25
 40
0.5
 40
0.5
 40
1.0
 40
1.0
 40
1.0
 40
1.0
 10
12.95205771132808
 20
0.0574107655740702
 30
0.0
 10
12.92964384295991
 20
0.278281950236459
 30
0.0
 10
12.90832294112195
 20
0.4952795815906223
 30
0.0
 10
12.86476658688149
 20
0.9256272494685491
 30
0.0
 10
12.84222456475608
 20
1.139942652134805
 30
0.0
 10
12.77368441715073
 20
1.766039500395337
 30
0.0
 10
12.72681441791823
 20
2.159868880512754
 30
0.0
 10
12.68269323907899
 20
2.498259509822712
 30
0.0
  0
SPLINE
  5
EC
330
1F
100
AcDbEntity
  8
외형선
  6
Continuous
 62
     1
370
    15
100
AcDbSpline
210
0.0
220
0.0
230
1.0
 70
     8
 71
     3
 72
     8
 73
     4
 74
     0
 42
0.000000001
 43
0.00000001
 40
0.0
 40
0.0
 40
0.0
 40
0.0
 40
1.0
 40
1.0
 40
1.0
 40
1.0
 10
12.68269317006211
 20
2.498260039157042
 30
0.0
 10
12.72903947719951
 20
2.503740388152842
 30
0.0
 10
12.78554626956632
 20
2.497714681713058
 30
0.0
 10
12.84357851864691
 20
2.481193983329216
 30
0.0
  0
SPLINE
  5
ED
330
1F
100
AcDbEntity
  8
외형선
  6
Continuous
 62
     1
370
    15
100
AcDbSpline
210
0.0
220
0.0
230
1.0
 70
     8
 71
     3
 72
     8
 73
     4
 74
     0
 42
0.000000001
 43
0.00000001
 40
0.0
 40
0.0
 40
0.0
 40
0.0
 40
1.0
 40
1.0
 40
1.0
 40
1.0
 10
17.43686238411933
 20
3.935882266044641
 30
0.0
 10
17.38061546063998
 20
3.933247888150221
 30
0.0
 10
17.32399904539005
 20
3.913189531059706
 30
0.0
 10
17.27731605546277
 20
3.876202972959546
 30
0.0
  0
SPLINE
  5
EE
330
1F
100
AcDbEntity
  8
외형선
  6
Continuous
 62
     1
370
    15
100
AcDbSpline
210
0.0
220
0.0
230
1.0
 70
     8
 71
     3
 72
     8
 73
     4
 74
     0
 42
0.000000001
 43
0.00000001
 40
0.0
 40
0.0
 40
0.0
 40
0.0
 40
1.0
 40
1.0
 40
1.0
 40
1.0
 10
18.42499999999998
 20
3.965851181313581
 30
0.0
 10
18.09502974422185
 20
3.961270088043186
 30
0.0
 10
17.76497601143288
 20
3.951249801669788
 30
0.0
 10
17.43686026592119
 20
3.935882166836749
 30
0.0
  0
SPLINE
  5
EF
330
1F
100
AcDbEntity
  8
외형선
  6
Continuous
 62
     1
370
    15
100
AcDbSpline
210
0.0
220
0.0
230
1.0
 70
     8
 71
     3
 72
     8
 73
     4
 74
     0
 42
0.000000001
 43
0.00000001
 40
0.0
 40
0.0
 40
0.0
 40
0.0
 40
1.0
 40
1.0
 40
1.0
 40
1.0
 10
19.52499999999998
 20
2.826690178507692
 30
0.0
 10
19.1790502131365
 20
3.217524636707611
 30
0.0
 10
18.80578423793123
 20
3.592464910779572
 30
0.0
 10
18.42499999999998
 20
3.965851181313577
 30
0.0
  0
LINE
  5
F0
330
1F
100
AcDbEntity
  8
외형선
  6
Continuous
 62
     1
370
    15
100
AcDbLine
 10
19.52499999999998
 20
2.569781359493131
 30
0.0
 11
19.52499999999998
 21
2.826690178507692
 31
0.0
  0
SPLINE
  5
F1
330
1F
100
AcDbEntity
  8
외형선
  6
Continuous
 62
     1
370
    15
100
AcDbSpline
210
0.0
220
0.0
230
1.0
 70
     8
 71
     3
 72
    12
 73
     8
 74
     0
 42
0.000000001
 43
0.00000001
 40
0.0
 40
0.0
 40
0.0
 40
0.0
 40
0.4999999999999991
 40
0.4999999999999991
 40
0.7499999999999996
 40
0.7499999999999996
 40
1.0
 40
1.0
 40
1.0
 40
1.0
 10
19.52499999999998
 20
2.569781359493132
 30
0.0
 10
19.38330786560536
 20
2.284989405397292
 30
0.0
 10
19.20092692596205
 20
2.041707999813415
 30
0.0
 10
18.87658830250126
 20
1.739638087063785
 30
0.0
 10
18.76255315958979
 20
1.651768686197386
 30
0.0
 10
18.52410033791376
 20
1.498506074103518
 30
0.0
 10
18.39878452103993
 20
1.432783950815883
 30
0.0
 10
18.27084374450289
 20
1.378450256144172
 30
0.0
  0
SPLINE
  5
F2
330
1F
100
AcDbEntity
  8
외형선
  6
Continuous
 62
     1
370
    15
100
AcDbSpline
210
0.0
220
0.0
230
1.0
 70
     8
 71
     3
 72
     8
 73
     4
 74
     0
 42
0.000000001
 43
0.00000001
 40
0.0
 40
0.0
 40
0.0
 40
0.0
 40
1.0
 40
1.0
 40
1.0
 40
1.0
 10
19.52499999999998
 20
0.7655735109555319
 30
0.0
 10
19.10427456286168
 20
0.9760035564846994
 30
0.0
 10
18.68636790451009
 20
1.179961916828814
 30
0.0
 10
18.27084374450288
 20
1.378450256144181
 30
0.0
  0
LINE
  5
F3
330
1F
100
AcDbEntity
  8
외형선
  6
Continuous
 62
     1
370
    15
100
AcDbLine
 10
19.52499999999998
 20
0.4894376336451777
 30
0.0
 11
19.52499999999998
 21
0.7655735109555317
 31
0.0
  0
SPLINE
  5
F4
330
1F
100
AcDbEntity
  8
외형선
  6
Continuous
 62
     1
370
    15
100
AcDbSpline
210
0.0
220
0.0
230
1.0
 70
     8
 71
     3
 72
    10
 73
     6
 74
     0
 42
0.000000001
 43
0.00000001
 40
0.0
 40
0.0
 40
0.0
 40
0.0
 40
0.5
 40
0.5
 40
1.0
 40
1.0
 40
1.0
 40
1.0
 10
18.42499999999998
 20
0.6462025909696267
 30
0.0
 10
18.60882894852855
 20
0.5732269787241393
 30
0.0
 10
18.79213546809108
 20
0.522205182880733
 30
0.0
 10
19.15885838624548
 20
0.4674407453895812
 30
0.0
 10
19.3424305158136
 20
0.4633278581212841
 30
0.0
 10
19.52499999999998
 20
0.4894376336451738
 30
0.0
  0
SPLINE
  5
F5
330
1F
100
AcDbEntity
  8
외형선
  6
Continuous
 62
     1
370
    15
100
AcDbSpline
210
0.0
220
0.0
230
1.0
 70
     8
 71
     3
 72
    10
 73
     6
 74
     0
 42
0.000000001
 43
0.00000001
 40
0.0
 40
0.0
 40
0.0
 40
0.0
 40
0.5
 40
0.5
 40
1.0
 40
1.0
 40
1.0
 40
1.0
 10
12.04238221202223
 20
2.67109434297159
 30
0.0
 10
12.13725313802404
 20
2.604187599494647
 30
0.0
 10
12.25245016263916
 20
2.555992407544717
 30
0.0
 10
12.48157628452126
 20
2.4974700917804
 30
0.0
 10
12.59146388535745
 20
2.48747237667157
 30
0.0
 10
12.68269317006158
 20
2.498260039156781
 30
0.0
  0
SPLINE
  5
F6
330
1F
100
AcDbEntity
  8
외형선
  6
Continuous
 62
     1
370
    15
100
AcDbSpline
210
0.0
220
0.0
230
1.0
 70
     8
 71
     3
 72
     8
 73
     4
 74
     0
 42
0.000000001
 43
0.00000001
 40
0.0
 40
0.0
 40
0.0
 40
0.0
 40
1.0
 40
1.0
 40
1.0
 40
1.0
 10
11.88310346904838
 20
2.744346742875993
 30
0.0
 10
11.93927047079316
 20
2.72959825318533
 30
0.0
 10
11.99579440497579
 20
2.703949914081671
 30
0.0
 10
12.04238221202353
 20
2.671094342974509
 30
0.0
  0
SPLINE
  5
F7
330
1F
100
AcDbEntity
  8
외형선
  6
Continuous
 62
     1
370
    15
100
AcDbSpline
210
0.0
220
0.0
230
1.0
 70
     8
 71
     3
 72
     8
 73
     4
 74
     0
 42
0.000000001
 43
0.00000001
 40
0.0
 40
0.0
 40
0.0
 40
0.0
 40
1.0
 40
1.0
 40
1.0
 40
1.0
 10
10.08947937235089
 20
3.138351271980091
 30
0.0
 10
10.1358639053103
 20
3.153235800265144
 30
0.0
 10
10.19240152077665
 20
3.154217116435177
 30
0.0
 10
10.25045177915655
 20
3.141273030460346
 30
0.0
  0
SPLINE
  5
F8
330
1F
100
AcDbEntity
  8
외형선
  6
Continuous
370
    15
100
AcDbSpline
210
0.0
220
0.0
230
1.0
 70
     8
 71
     3
 72
     8
 73
     4
 74
     0
 42
0.000000001
 43
0.00000001
 40
0.0
 40
0.0
 40
0.0
 40
0.0
 40
1.0
 40
1.0
 40
1.0
 40
1.0
 10
9.999999999999977
 20
3.11865377865536
 30
0.0
 10
10.03152258255514
 20
3.122812032363242
 30
0.0
 10
10.06136317250507
 20
3.12932894610592
 30
0.0
 10
10.08947937235089
 20
3.138351271980092
 30
0.0
  0
LINE
  5
F9
330
1F
100
AcDbEntity
  8
외형선
  6
Continuous
 62
     1
370
    15
100
AcDbLine
 10
10.96225440415874
 20
2.976026869442753
 30
0.0
 11
11.28677240663284
 21
3.053754509866712
 31
0.0
  0
SPLINE
  5
FA
330
1F
100
AcDbEntity
  8
외형선
  6
Continuous
 62
     1
370
    15
100
AcDbSpline
210
0.0
220
0.0
230
1.0
 70
     8
 71
     3
 72
     8
 73
     4
 74
     0
 42
0.000000001
 43
0.00000001
 40
0.0
 40
0.0
 40
0.0
 40
0.0
 40
1.0
 40
1.0
 40
1.0
 40
1.0
 10
11.44778885010689
 20
3.053695266026446
 30
0.0
 10
11.40139419896718
 20
3.067254579048798
 30
0.0
 10
11.34484123065314
 20
3.067232526038016
 30
0.0
 10
11.28677239751029
 20
3.053754507752051
 30
0.0
  0
SPLINE
  5
FB
330
1F
100
AcDbEntity
  8
외형선
  6
Continuous
 62
     1
370
    15
100
AcDbSpline
210
0.0
220
0.0
230
1.0
 70
     8
 71
     3
 72
    10
 73
     6
 74
     0
 42
0.000000001
 43
0.00000001
 40
0.0
 40
0.0
 40
0.0
 40
0.0
 40
0.5
 40
0.5
 40
1.0
 40
1.0
 40
1.0
 40
1.0
 10
12.08873239680287
 20
3.192192190490586
 30
0.0
 10
11.99377842943952
 20
3.11921403668604
 30
0.0
 10
11.87850120597749
 20
3.071279205794632
 30
0.0
 10
11.64918998701603
 20
3.025181059582069
 30
0.0
 10
11.53914961730237
 20
3.026994144022699
 30
0.0
 10
11.44778885010751
 20
3.053695266026069
 30
0.0
  0
SPLINE
  5
FC
330
1F
100
AcDbEntity
  8
외형선
  6
Continuous
 62
     1
370
    15
100
AcDbSpline
210
0.0
220
0.0
230
1.0
 70
     8
 71
     3
 72
     8
 73
     4
 74
     0
 42
0.000000001
 43
0.00000001
 40
0.0
 40
0.0
 40
0.0
 40
0.0
 40
1.0
 40
1.0
 40
1.0
 40
1.0
 10
12.24819595217492
 20
3.264852077847201
 30
0.0
 10
12.19197749733839
 20
3.253214442718171
 30
0.0
 10
12.13538565012876
 20
3.228048178308993
 30
0.0
 10
12.08873239680127
 20
3.192192190493992
 30
0.0
  0
SPLINE
  5
FD
330
1F
100
AcDbEntity
  8
외형선
  6
Continuous
 62
     1
370
    15
100
AcDbSpline
210
0.0
220
0.0
230
1.0
 70
     8
 71
     3
 72
    10
 73
     6
 74
     0
 42
0.000000001
 43
0.00000001
 40
0.0
 40
0.0
 40
0.0
 40
0.0
 40
0.5
 40
0.5
 40
1.0
 40
1.0
 40
1.0
 40
1.0
 10
13.88096027193831
 20
3.565049445444838
 30
0.0
 10
13.60792329212109
 20
3.521459732778808
 30
0.0
 10
13.33479537436503
 20
3.474519798595805
 30
0.0
 10
12.79065321019024
 20
3.374357551912167
 30
0.0
 10
12.52035951453191
 20
3.321191944100459
 30
0.0
 10
12.24819597129453
 20
3.264852081805103
 30
0.0
  0
SPLINE
  5
FE
330
1F
100
AcDbEntity
  8
외형선
  6
Continuous
 62
     1
370
    15
100
AcDbSpline
210
0.0
220
0.0
230
1.0
 70
     8
 71
     3
 72
     8
 73
     4
 74
     0
 42
0.000000001
 43
0.00000001
 40
0.0
 40
0.0
 40
0.0
 40
0.0
 40
1.0
 40
1.0
 40
1.0
 40
1.0
 10
14.04167629336379
 20
3.545089451293545
 30
0.0
 10
13.99538905792427
 20
3.567342921584643
 30
0.0
 10
13.93893720748843
 20
3.574305327030765
 30
0.0
 10
13.88096029090067
 20
3.565049448475384
 30
0.0
  0
SPLINE
  5
FF
330
1F
100
AcDbEntity
  8
외형선
  6
Continuous
 62
     1
370
    15
100
AcDbSpline
210
0.0
220
0.0
230
1.0
 70
     8
 71
     3
 72
    10
 73
     6
 74
     0
 42
0.000000001
 43
0.00000001
 40
0.0
 40
0.0
 40
0.0
 40
0.0
 40
0.5
 40
0.5
 40
1.0
 40
1.0
 40
1.0
 40
1.0
 10
14.68193583303457
 20
3.636485943166354
 30
0.0
 10
14.58708514115386
 20
3.560260489253026
 30
0.0
 10
14.47193462597725
 20
3.515080516362034
 30
0.0
 10
14.24284912590884
 20
3.485775368036466
 30
0.0
 10
14.13289765085596
 20
3.501233045750411
 30
0.0
 10
14.04167629336441
 20
3.545089451293107
 30
0.0
  0
SPLINE
  5
100
330
1F
100
AcDbEntity
  8
외형선
  6
Continuous
 62
     1
370
    15
100
AcDbSpline
210
0.0
220
0.0
230
1.0
 70
     8
 71
     3
 72
     8
 73
     4
 74
     0
 42
0.000000001
 43
0.00000001
 40
0.0
 40
0.0
 40
0.0
 40
0.0
 40
1.0
 40
1.0
 40
1.0
 40
1.0
 10
14.84133152988958
 20
3.7045994953053
 30
0.0
 10
14.78513839684119
 20
3.697243484878756
 30
0.0
 10
14.72856956339396
 20
3.673962499154467
 30
0.0
 10
14.68193583303297
 20
3.636485943170608
 30
0.0
  0
SPLINE
  5
101
330
1F
100
AcDbEntity
  8
외형선
  6
Continuous
 62
     1
370
    15
100
AcDbSpline
210
0.0
220
0.0
230
1.0
 70
     8
 71
     3
 72
     8
 73
     4
 74
     0
 42
0.000000001
 43
0.00000001
 40
0.0
 40
0.0
 40
0.0
 40
0.0
 40
1.0
 40
1.0
 40
1.0
 40
1.0
 10
16.47510559333161
 20
3.875592574021832
 30
0.0
 10
15.92962762582633
 20
3.832881615275387
 30
0.0
 10
15.38368144527768
 20
3.775596277628786
 30
0.0
 10
14.84133152697455
 20
3.704599494923703
 30
0.0
  0
SPLINE
  5
102
330
1F
100
AcDbEntity
  8
외형선
  6
Continuous
 62
     1
370
    15
100
AcDbSpline
210
0.0
220
0.0
230
1.0
 70
     8
 71
     3
 72
     8
 73
     4
 74
     0
 42
0.000000001
 43
0.00000001
 40
0.0
 40
0.0
 40
0.0
 40
0.0
 40
1.0
 40
1.0
 40
1.0
 40
1.0
 10
16.63613428542748
 20
3.836955373708976
 30
0.0
 10
16.58973545846051
 20
3.866634977148983
 30
0.0
 10
16.53318066190842
 20
3.880139855503014
 30
0.0
 10
16.47510559337592
 20
3.87559257402906
 30
0.0
  0
SPLINE
  5
103
330
1F
100
AcDbEntity
  8
외형선
  6
Continuous
 62
     1
370
    15
100
AcDbSpline
210
0.0
220
0.0
230
1.0
 70
     8
 71
     3
 72
    10
 73
     6
 74
     0
 42
0.000000001
 43
0.00000001
 40
0.0
 40
0.0
 40
0.0
 40
0.0
 40
0.5
 40
0.5
 40
1.0
 40
1.0
 40
1.0
 40
1.0
 10
17.27731605546441
 20
3.876202972954551
 30
0.0
 10
17.18231089860487
 20
3.80093114997263
 30
0.0
 10
17.06700658840989
 20
3.761099464175941
 30
0.0
 10
16.83764598214779
 20
3.750279019834763
 30
0.0
 10
16.72754410091258
 20
3.778483915452158
 30
0.0
 10
16.63613428542809
 20
3.836955373708503
 30
0.0
  0
SPLINE
  5
104
330
1F
100
AcDbEntity
  8
외형선
  6
Continuous
 62
     1
370
    15
100
AcDbSpline
210
0.0
220
0.0
230
1.0
 70
     8
 71
     3
 72
    12
 73
     8
 74
     0
 42
0.000000001
 43
0.00000001
 40
0.0
 40
0.0
 40
0.0
 40
0.0
 40
0.25
 40
0.25
 40
0.5
 40
0.5
 40
1.0
 40
1.0
 40
1.0
 40
1.0
 10
12.3114313395373
 20
0.2877053151613471
 30
0.0
 10
12.28944281837277
 20
0.5066692974018021
 30
0.0
 10
12.26834534638162
 20
0.7213857493788729
 30
0.0
 10
12.22381791920239
 20
1.149539383723909
 30
0.0
 10
12.20094283183467
 20
1.361083720951007
 30
0.0
 10
12.13193011098715
 20
1.973933138833772
 30
0.0
 10
12.08547239060879
 20
2.352173165725242
 30
0.0
 10
12.04238228987854
 20
2.671093766737616
 30
0.0
  0
LINE
  5
105
330
1F
100
AcDbEntity
  8
외형선
  6
Continuous
 62
     1
370
    15
100
AcDbLine
 10
19.52499999999998
 20
0.4894376336451777
 30
0.0
 11
19.52499999999998
 21
-1.837210513558701
 31
0.0
  0
SPLINE
  5
106
330
1F
100
AcDbEntity
  8
외형선
  6
Continuous
 62
     1
370
    15
100
AcDbSpline
210
0.0
220
0.0
230
1.0
 70
     8
 71
     3
 72
    10
 73
     6
 74
     0
 42
0.000000001
 43
0.00000001
 40
0.0
 40
0.0
 40
0.0
 40
0.0
 40
0.5000000000000001
 40
0.5000000000000001
 40
1.0
 40
1.0
 40
1.0
 40
1.0
 10
10.35898931809356
 20
0.9783346366611794
 30
0.0
 10
10.31433240948016
 20
1.405499237824526
 30
0.0
 10
10.26733730737291
 20
1.820699123955309
 30
0.0
 10
10.17658802884009
 20
2.556206556325174
 30
0.0
 10
10.13472502840271
 20
2.873414555205806
 30
0.0
 10
10.0894794461468
 20
3.1383508398669
 30
0.0
  0
SPLINE
  5
107
330
1F
100
AcDbEntity
  8
외형선
  6
Continuous
370
    15
100
AcDbSpline
210
0.0
220
0.0
230
1.0
 70
    24
 71
     3
 72
    14
 73
    10
 74
     0
 42
0.000000001
 43
0.00000001
 40
0.0
 40
0.0
 40
0.0
 40
0.0
 40
0.25
 40
0.25
 40
0.5
 40
0.5
 40
0.75
 40
0.75
 40
1.0
 40
1.0
 40
1.0
 40
1.0
 10
9.99999999999998
 20
3.11865377865536
 30
0.0
 10
9.99999999999998
 20
2.985775563697049
 30
0.0
 10
9.999999999999984
 20
2.841861798153228
 30
0.0
 10
9.999999999999984
 20
2.531261254758018
 30
0.0
 10
9.999999999999977
 20
2.364647367950509
 30
0.0
 10
9.999999999999977
 20
2.017635796850807
 30
0.0
 10
9.999999999999984
 20
1.836185472810939
 30
0.0
 10
9.999999999999984
 20
1.457267828360015
 30
0.0
 10
9.999999999999991
 20
1.258359340883709
 30
0.0
 10
9.999999999999991
 20
1.057523871251519
 30
0.0
  0
LINE
  5
108
330
1F
100
AcDbEntity
  8
외형선
  6
Continuous
 62
     1
370
    15
100
AcDbLine
 10
19.52499999999998
 20
0.7655735109555319
 30
0.0
 11
19.52499999999998
 21
2.569781359493131
 31
0.0
  0
LINE
  5
109
330
1F
100
AcDbEntity
  8
외형선
  6
Continuous
 62
     1
370
    15
100
AcDbLine
 10
11.05524774267412
 20
-3.891443720256992
 30
0.0
 11
11.05114481658076
 21
-3.888449052371515
 31
0.0
  0
LINE
  5
10A
330
1F
100
AcDbEntity
  8
외형선
  6
Continuous
 62
     1
370
    15
100
AcDbLine
 10
19.52499999999998
 20
2.868750000000005
 30
0.0
 11
19.52499999999998
 21
2.826690178507692
 31
0.0
  0
LINE
  5
10B
330
1F
100
AcDbEntity
  8
외형선
  6
Continuous
 62
     1
370
    15
100
AcDbLine
 10
19.52499999999998
 20
-1.837210513558701
 30
0.0
 11
19.52499999999998
 21
-2.320163692655717
 31
0.0
  0
SPLINE
  5
10C
330
1F
100
AcDbEntity
  8
외형선
  6
Continuous
 62
     1
370
    15
100
AcDbSpline
210
0.0
220
0.0
230
1.0
 70
     8
 71
     3
 72
    10
 73
     6
 74
     0
 42
0.000000001
 43
0.00000001
 40
0.0
 40
0.0
 40
0.0
 40
0.0
 40
0.0386352007612478
 40
0.5209065385261837
 40
1.0
 40
1.0
 40
1.0
 40
1.0
 10
10.3125893739601
 20
-3.963427349213328
 30
0.0
 10
10.31056763849031
 20
-3.965166666534203
 30
0.0
 10
10.28330920046916
 20
-3.988617347446012
 30
0.0
 10
10.22856627752828
 20
-3.905134389012088
 30
0.0
 10
10.17800415916854
 20
-3.739906046071314
 30
0.0
 10
10.15280666876365
 20
-3.657564963044599
 30
0.0
  0
SPLINE
  5
10D
330
1F
100
AcDbEntity
  8
외형선
  6
Continuous
 62
     1
370
    15
100
AcDbSpline
210
0.0
220
0.0
230
1.0
 70
     8
 71
     3
 72
    10
 73
     6
 74
     0
 42
0.000000001
 43
0.00000001
 40
0.0
 40
0.0
 40
0.0
 40
0.0
 40
0.2017839196165298
 40
0.6020180236127807
 40
1.0
 40
1.0
 40
1.0
 40
1.0
 10
10.49993230742814
 20
-3.884945074689264
 30
0.0
 10
10.4875494379419
 20
-3.89819235992935
 30
0.0
 10
10.45060541074228
 20
-3.937715353107534
 30
0.0
 10
10.38651899452808
 20
-3.862729896855171
 30
0.0
 10
10.33691278573204
 20
-3.705847610491765
 30
0.0
 10
10.31217966207931
 20
-3.627627785156926
 30
0.0
  0
SPLINE
  5
10E
330
1F
100
AcDbEntity
  8
외형선
  6
Continuous
 62
     1
370
    15
100
AcDbSpline
210
0.0
220
0.0
230
1.0
 70
     8
 71
     3
 72
     9
 73
     5
 74
     0
 42
0.000000001
 43
0.00000001
 40
0.0
 40
0.0
 40
0.0
 40
0.0
 40
0.3141611542544599
 40
1.0
 40
1.0
 40
1.0
 40
1.0
 10
11.05114481658076
 20
-3.888449052371515
 30
0.0
 10
11.04081795361397
 20
-3.883517977630335
 30
0.0
 10
11.00794672549765
 20
-3.867821973606921
 30
0.0
 10
10.97523586498025
 20
-3.773020223006553
 30
0.0
 10
10.95280148615965
 20
-3.708001499800139
 30
0.0
  0
SPLINE
  5
10F
330
1F
100
AcDbEntity
  8
외형선
  6
Continuous
 62
     1
370
    15
100
AcDbSpline
210
0.0
220
0.0
230
1.0
 70
     8
 71
     3
 72
     9
 73
     5
 74
     0
 42
0.000000001
 43
0.00000001
 40
0.0
 40
0.0
 40
0.0
 40
0.0
 40
0.4769738362602234
 40
0.9999999999999999
 40
0.9999999999999999
 40
0.9999999999999999
 40
0.9999999999999999
 10
11.23864623230976
 20
-3.964529993643543
 30
0.0
 10
11.21876598562617
 20
-3.95891836458508
 30
0.0
 10
11.17708603345213
 20
-3.947153297757805
 30
0.0
 10
11.13549150539208
 20
-3.836809878276168
 30
0.0
 10
11.11373647894826
 20
-3.779097382890756
 30
0.0
  0
LINE
  5
110
330
1F
100
AcDbEntity
  8
외형선
  6
Continuous
 62
     1
370
    15
100
AcDbLine
 10
12.81269123826176
 20
-3.96620624754521
 30
0.0
 11
12.74794387884946
 21
-3.917703664760067
 31
0.0
  0
SPLINE
  5
111
330
1F
100
AcDbEntity
  8
외형선
  6
Continuous
 62
     1
370
    15
100
AcDbSpline
210
0.0
220
0.0
230
1.0
 70
     8
 71
     3
 72
     9
 73
     5
 74
     0
 42
0.000000001
 43
0.00000001
 40
0.0
 40
0.0
 40
0.0
 40
0.0
 40
0.2386685577118116
 40
1.0
 40
1.0
 40
1.0
 40
1.0
 10
12.99279697686782
 20
-3.896257384109056
 30
0.0
 10
12.98615698407488
 20
-3.903780881788232
 30
0.0
 10
12.95833600565775
 20
-3.935303666990053
 30
0.0
 10
12.92946684777304
 20
-3.899807765051049
 30
0.0
 10
12.90748785016303
 20
-3.872783618832506
 30
0.0
  0
LINE
  5
112
330
1F
100
AcDbEntity
  8
외형선
  6
Continuous
 62
     1
370
    15
100
AcDbLine
 10
13.73867687168932
 20
-3.961313168908976
 30
0.0
 11
13.70966461945722
 21
-3.958362511313962
 31
0.0
  0
LINE
  5
113
330
1F
100
AcDbEntity
  8
중심선
100
AcDbLine
 10
-40.62500000000001
 20
-0.0000000000000049
 30
0.0
 11
22.525
 21
0.0000000000000028
 31
0.0
  0
LINE
  5
114
330
1F
100
AcDbEntity
  8
참조1
100
AcDbLine
 10
-9.05000000000001
 20
-0.3168705809327293
 30
0.0
 11
-9.050000000000006
 21
-40.31687058093273
 31
0.0
  0
LINE
  5
115
330
1F
100
AcDbEntity
  8
참조1
100
AcDbLine
 10
-19.72860765519648
 20
-3.968749999999988
 30
0.0
 11
48.41397268839599
 21
-3.968749999999988
 31
0.0
  0
LINE
  5
116
330
1F
100
AcDbEntity
  8
참조1
100
AcDbLine
 10
48.41397268839599
 20
-3.968749999999988
 30
0.0
 11
48.41397268839599
 21
-6.927248606176838
 31
0.0
  0
LINE
  5
117
330
1F
100
AcDbEntity
  8
참조1
100
AcDbLine
 10
-9.050000000000006
 20
-40.31687058093273
 30
0.0
 11
-24.19604980726571
 21
-40.31687058093273
 31
0.0
  0
CIRCLE
  5
118
330
1F
100
AcDbEntity
  8
해칭선
100
AcDbCircle
 10
0.0
 20
0.0
 30
0.0
 40
3.000000000000001
  0
INSERT
  5
119
330
1F
100
AcDbEntity
  8
0
  6
Continuous
 62
     7
100
AcDbBlockReference
 66
     1
  2
블럭10
 10
-22.99027293212522
 20
-52.36404488257666
 30
0.0
  0
ATTRIB
  5
11A
330
119
100
AcDbEntity
  8
FORMAT
 62
     2
100
AcDbText
 10
-33.13190894426184
 20
-50.28867796974446
 30
0.0
 40
4.233333333333333
  1
EM666020 [ 3 FLUTE ]
 41
0.75
  7
SLDTEXTSTYLE0
 11
-33.13190894426184
 21
-52.40534463641113
 31
0.0
100
AcDbAttribute
  2
AUTOATTR0
 70
     0
 74
     1
  0
SEQEND
  5
11B
330
119
100
AcDbEntity
  8
0
  6
Continuous
 62
     7
  0
HATCH
  5
11C
330
1F
100
AcDbEntity
  8
중심선
100
AcDbHatch
 10
0.0
 20
0.0
 30
0.0
210
0.0
220
0.0
230
1.0
  2
SOLID
 70
     1
 71
     0
 91
        1
 92
        0
 93
        4
 72
     1
 10
-17.27536362774436
 20
-36.11687058093273
 11
-20.72163887158164
 21
-36.11687058093273
 72
     1
 10
-20.72163887158164
 20
-36.11687058093273
 11
-22.84986873078567
 21
-38.65319616150532
 72
     1
 10
-22.84986873078567
 20
-38.65319616150532
 11
-19.40356040183523
 21
-38.65315673220283
 72
     1
 10
-19.40356040183523
 20
-38.65315673220283
 11
-17.27536362774436
 21
-36.11687058093273
 97
        0
 75
     0
 76
     1
 98
        1
 10
-0.0000000000000142
 20
-0.3168705809327259
  0
HATCH
  5
11D
330
1F
100
AcDbEntity
  8
중심선
100
AcDbHatch
 10
0.0
 20
0.0
 30
0.0
210
0.0
220
0.0
230
1.0
  2
SOLID
 70
     1
 71
     0
 91
        1
 92
        0
 93
        4
 72
     1
 10
-12.26259963670841
 20
-36.11687058093273
 11
-15.70887488054569
 21
-36.11687058093273
 72
     1
 10
-15.70887488054569
 20
-36.11687058093273
 11
-20.24001288890308
 21
-41.51687058093275
 72
     1
 10
-20.24001288890308
 20
-41.51687058093275
 11
-16.7937376450658
 21
-41.51687058093275
 72
     1
 10
-16.7937376450658
 20
-41.51687058093275
 11
-12.26259963670841
 21
-36.11687058093273
 97
        0
 75
     0
 76
     1
 98
        1
 10
-0.0000000000000142
 20
-0.3168705809327259
  0
HATCH
  5
11E
330
1F
100
AcDbEntity
  8
중심선
100
AcDbHatch
 10
0.0
 20
0.0
 30
0.0
210
0.0
220
0.0
230
1.0
  2
SOLID
 70
     1
 71
     0
 91
        1
 92
        0
 93
        4
 72
     1
 10
-7.249835645672539
 20
-36.11687058093273
 11
-10.69611088950966
 21
-36.11687058093273
 72
     1
 10
-10.69611088950966
 20
-36.11687058093273
 11
-17.74454779139888
 21
-44.51687058093275
 72
     1
 10
-17.74454779139888
 20
-44.51687058093275
 11
-14.2982725475616
 21
-44.51687058093275
 72
     1
 10
-14.2982725475616
 20
-44.51687058093275
 11
-7.249835645672539
 21
-36.11687058093273
 97
        0
 75
     0
 76
     1
 98
        1
 10
-0.0000000000000142
 20
-0.3168705809327259
  0
HATCH
  5
11F
330
1F
100
AcDbEntity
  8
중심선
100
AcDbHatch
 10
0.0
 20
0.0
 30
0.0
210
0.0
220
0.0
230
1.0
  2
SOLID
 70
     1
 71
     0
 91
        1
 92
        0
 93
        6
 72
     3
 10
-2.449945214660313
 20
-40.316870580984
 11
3.960054785062284
 21
1.540882976769353E-10
 40
0.3939339440162627
 50
17.09539180608437
 51
320.0019657685086
 73
     0
 72
     1
 10
-0.7669455589597172
 20
-38.90476458557106
 11
1.538356314741321
 21
-36.97043787552311
 72
     3
 10
-2.449945214713159
 20
-40.31687058093288
 11
6.600054785286829
 21
-1.278976924368180E-13
 40
0.636358354079598
 50
39.9987384933741
 51
368.4976242363725
 73
     1
 72
     1
 10
3.97538727718745
 20
-39.35687058086275
 11
-3.769877907877237
 21
-39.35687058086272
 72
     1
 10
-3.769877907877237
 20
-39.35687058086272
 11
-3.769902952323171
 21
-41.27687058086264
 72
     1
 10
-3.769902952323171
 20
-41.27687058086264
 11
0.6714768171488661
 21
-41.27687058086261
 97
        0
 75
     0
 76
     1
 98
        1
 10
-0.0000000000000142
 20
-0.3168705809327259
  0
POINT
  5
120
330
1F
100
AcDbEntity
  8
치수문자_일반주서
100
AcDbPoint
 10
-0.0000000000000055
 20
-0.3168705809327293
 30
0.0
  0
DIMENSION
  5
121
330
1F
100
AcDbEntity
  8
치수문자_일반주서
100
AcDbDimension
  2
_D
 10
43.3000137380749
 20
-3.96874999999989
 30
0.0
 11
43.3000137380748
 21
24.57275000000014
 31
0.0
 70
   160
  1
%%c<>
 71
     2
 42
7.934601181313562
 52
-270.0
  3
SLDDIMSTYLE0
100
AcDbAlignedDimension
 13
18.42499999999998
 23
3.965851181313581
 33
0.0
 14
14.49959020592331
 24
-3.968749999999995
 34
0.0
 50
90.0000000000002
100
AcDbRotatedDimension
1001
ACAD
1000
DSTYLE
1002
{
1070
   171
1070
     6
1070
   273
1070
     7
1002
}
  0
DIMENSION
  5
134
330
1F
100
AcDbEntity
  8
치수문자_일반주서
100
AcDbDimension
  2
_D_1
 10
-47.62500000000003
 20
-3.968750000000027
 30
0.0
 11
-47.62500000000004
 21
-0.6358402172628874
 31
0.0
 70
   160
  1
%%c<>
 71
     2
 42
7.937499999999986
 52
-270.0
  3
SLDDIMSTYLE1
100
AcDbAlignedDimension
 13
-36.81500000000001
 23
3.968749999999998
 33
0.0
 14
-36.81500000000001
 24
-3.968749999999988
 34
0.0
 50
90.0000000000002
100
AcDbRotatedDimension
1001
ACAD
1000
DSTYLE
1002
{
1070
   171
1070
     6
1070
   273
1070
     7
1002
}
  0
DIMENSION
  5
149
330
1F
100
AcDbEntity
  8
치수문자_일반주서
100
AcDbDimension
  2
_D_2
 10
9.99999999999998
 20
19.82143311633117
 30
0.0
 11
-5.333250000000019
 21
19.82143311633117
 31
0.0
 70
   160
  1
<>
 71
     2
 42
9.525000000000004
  3
SLDDIMSTYLE0
100
AcDbAlignedDimension
 13
19.52499999999998
 23
2.569781359493131
 33
0.0
 14
9.99999999999998
 24
3.196228881516959
 34
0.0
 50
0.0000000000000214
100
AcDbRotatedDimension
1001
ACAD
1000
DSTYLE
1002
{
1070
   171
1070
     6
1070
   273
1070
     7
1002
}
  0
DIMENSION
  5
15D
330
1F
100
AcDbEntity
  8
치수문자_일반주서
100
AcDbDimension
  2
_D_3
 10
-37.62500000000002
 20
36.82407034213168
 30
0.0
 11
-6.551341946872259
 21
36.82407034213168
 31
0.0
 70
   160
  1
<>
 71
     2
 42
57.15000000000001
  3
SLDDIMSTYLE0
100
AcDbAlignedDimension
 13
19.52499999999998
 23
2.826690178507692
 33
0.0
 14
-37.62500000000002
 24
3.15875
 34
0.0
100
AcDbRotatedDimension
1001
ACAD
1000
DSTYLE
1002
{
1070
   171
1070
     6
1070
   273
1070
     7
1002
}
  0
LINE
  5
170
330
1F
100
AcDbEntity
  8
참조1
100
AcDbLine
 10
73.77629082238856
 20
7.123129419067276
 30
0.0
 11
73.77629082238856
 21
-7.756870580932728
 31
0.0
  0
LINE
  5
171
330
1F
100
AcDbEntity
  8
참조1
100
AcDbLine
 10
86.47629082238856
 20
5.123129419067276
 30
0.0
 11
73.77629082238856
 21
5.123129419067276
 31
0.0
  0
SOLID
  5
172
330
1F
100
AcDbEntity
  8
참조1
100
AcDbTrace
 10
73.77629082238856
 20
5.123129419067276
 30
0.0
 11
80.12629082238855
 21
4.107129419067276
 31
0.0
 12
80.12629082238855
 22
6.139129419067276
 32
0.0
 13
80.12629082238855
 23
6.139129419067276
 33
0.0
  0
LINE
  5
173
330
1F
100
AcDbEntity
  8
참조1
100
AcDbLine
 10
86.47629082238856
 20
-5.756870580932728
 30
0.0
 11
73.77629082238856
 21
-5.756870580932728
 31
0.0
  0
SOLID
  5
174
330
1F
100
AcDbEntity
  8
참조1
100
AcDbTrace
 10
73.77629082238856
 20
-5.756870580932728
 30
0.0
 11
80.12629082238855
 21
-6.772870580932728
 31
0.0
 12
80.12629082238855
 22
-4.740870580932728
 32
0.0
 13
80.12629082238855
 23
-4.740870580932728
 33
0.0
  0
MTEXT
  5
175
330
1F
100
AcDbEntity
  8
참조1
100
AcDbMText
 10
83.37640563295112
 20
10.74884698508335
 30
0.0
 40
3.5
 41
0.0
 71
     1
 72
     1
  1
A
  7
SLDTEXTSTYLE0
 73
     1
 44
1.0
  0
MTEXT
  5
176
330
1F
100
AcDbEntity
  8
참조1
100
AcDbMText
 10
83.37640563295112
 20
-0.1311530149166523
 30
0.0
 40
3.5
 41
0.0
 71
     1
 72
     1
  1
A
  7
SLDTEXTSTYLE0
 73
     1
 44
1.0
  0
INSERT
  5
17D
330
1F
100
AcDbEntity
  8
해칭선
100
AcDbBlockReference
  2
SW_DOWELSYMBOL_0
 10
0.0
 20
-0.0000000000000001
 30
0.0
  0
ENDSEC
  0
SECTION
  2
OBJECTS
  0
DICTIONARY
  5
C
330
0
100
AcDbDictionary
281
     1
  3
ACAD_GROUP
350
D
  3
ACAD_IMAGE_VARS
350
1A1
  3
ACAD_LAYOUT
350
1A
  3
ACAD_MLINESTYLE
350
17
  3
ACAD_PLOTSETTINGS
350
19
  3
ACAD_PLOTSTYLENAME
350
E
  3
ACAD_SCALELIST
350
47
  3
APPDATA
350
19F
  3
DWGPROPS
350
1A4
  0
DICTIONARY
  5
D
102
{ACAD_REACTORS
330
C
102
}
330
C
100
AcDbDictionary
281
     1
  0
RASTERVARIABLES
  5
1A1
102
{ACAD_REACTORS
330
C
102
}
330
C
100
AcDbRasterVariables
 90
        0
 70
     1
 71
     1
 72
     1
  0
DICTIONARY
  5
1A
102
{ACAD_REACTORS
330
C
102
}
330
C
100
AcDbDictionary
281
     1
  3
Layout1
350
1E
  3
Layout2
350
26
  3
Model
350
22
  0
DICTIONARY
  5
17
102
{ACAD_REACTORS
330
C
102
}
330
C
100
AcDbDictionary
281
     1
  3
Standard
350
18
  0
DICTIONARY
  5
19
102
{ACAD_REACTORS
330
C
102
}
330
C
100
AcDbDictionary
281
     1
  0
ACDBDICTIONARYWDFLT
  5
E
102
{ACAD_REACTORS
330
C
102
}
330
C
100
AcDbDictionary
281
     1
  3
Normal
350
F
100
AcDbDictionaryWithDefault
340
F
  0
DICTIONARY
  5
47
102
{ACAD_REACTORS
330
C
102
}
330
C
100
AcDbDictionary
281
     1
  3
A0
350
48
  3
A1
350
49
  3
A2
350
4A
  3
A3
350
4B
  3
A4
350
4C
  3
A5
350
4D
  3
A6
350
4E
  3
A7
350
4F
  3
A8
350
50
  3
A9
350
51
  3
B0
350
52
  3
B1
350
53
  3
B2
350
54
  3
B3
350
55
  3
B4
350
56
  3
B5
350
57
  3
B6
350
58
  3
B7
350
59
  3
B8
350
5A
  3
B9
350
5B
  3
C0
350
5C
  3
C1
350
5D
  3
C2
350
5E
  3
C3
350
5F
  3
C4
350
60
  3
C5
350
61
  3
C6
350
62
  3
C7
350
63
  3
C8
350
64
  3
C9
350
65
  3
D0
350
66
  3
D1
350
67
  3
D2
350
68
  0
DICTIONARY
  5
19F
102
{ACAD_REACTORS
330
C
102
}
330
C
100
AcDbDictionary
281
     1
  0
XRECORD
  5
1A4
102
{ACAD_REACTORS
330
C
102
}
330
C
100
AcDbXrecord
280
     1
  1
DWGPROPS COOKIE
  2

  3

  4

  6

  7

  8
12016016
  9

300
=
301
=
302
=
303
=
304
=
305
=
306
=
307
=
308
=
309
=
 40
0.0
 41
2458298.995453611
 42
2458302.361959282
  1

 90
        0
  0
LAYOUT
  5
1E
102
{ACAD_REACTORS
330
1A
102
}
330
1A
100
AcDbPlotSettings
  1

  2
none_device
  4

  6

 40
0.0
 41
0.0
 42
0.0
 43
0.0
 44
0.0
 45
0.0
 46
0.0
 47
0.0
 48
0.0
 49
0.0
140
0.0
141
0.0
142
1.0
143
1.0
 70
   688
 72
     1
 73
     0
 74
     5
  7

 75
    16
147
1.0
148
0.0
149
0.0
100
AcDbLayout
  1
Layout1
 70
     1
 71
     1
 10
0.0
 20
0.0
 11
420.0
 21
297.0
 12
0.0
 22
0.0
 32
0.0
 14
1.000000000000000E+20
 24
1.000000000000000E+20
 34
1.000000000000000E+20
 15
-1.000000000000000E+20
 25
-1.000000000000000E+20
 35
-1.000000000000000E+20
146
0.0
 13
0.0
 23
0.0
 33
0.0
 16
1.0
 26
0.0
 36
0.0
 17
0.0
 27
1.0
 37
0.0
 76
     0
330
1B
  0
LAYOUT
  5
26
102
{ACAD_REACTORS
330
1A
102
}
330
1A
100
AcDbPlotSettings
  1

  2
none_device
  4

  6

 40
0.0
 41
0.0
 42
0.0
 43
0.0
 44
0.0
 45
0.0
 46
0.0
 47
0.0
 48
0.0
 49
0.0
140
0.0
141
0.0
142
1.0
143
1.0
 70
   688
 72
     1
 73
     0
 74
     5
  7

 75
    16
147
1.0
148
0.0
149
0.0
100
AcDbLayout
  1
Layout2
 70
     1
 71
     2
 10
0.0
 20
0.0
 11
0.0
 21
0.0
 12
0.0
 22
0.0
 32
0.0
 14
0.0
 24
0.0
 34
0.0
 15
0.0
 25
0.0
 35
0.0
146
0.0
 13
0.0
 23
0.0
 33
0.0
 16
1.0
 26
0.0
 36
0.0
 17
0.0
 27
1.0
 37
0.0
 76
     0
330
23
  0
LAYOUT
  5
22
102
{ACAD_REACTORS
330
1A
102
}
330
1A
100
AcDbPlotSettings
  1

  2
none_device
  4
ANSI_A_(11.00_x_8.50_Inches)
  6

 40
6.35
 41
19.05
 42
6.35000508
 43
19.05000254
 44
279.4
 45
215.9
 46
106.5679531123871
 47
91.55539950660156
 48
0.0
 49
0.0
140
0.0
141
0.0
142
0.0751583021540191
143
1.0
 70
  1696
 72
     0
 73
     0
 74
     0
  7

 75
     0
147
0.0235690232323232
148
0.0
149
0.0
100
AcDbLayout
  1
Model
 70
     1
 71
     0
 10
0.0
 20
0.0
 11
420.0
 21
297.0
 12
0.0
 22
0.0
 32
0.0
 14
-52.00000000000009
 24
-50.28867796974447
 34
0.0
 15
86.47629082238856
 25
41.19907034213168
 35
0.0
146
0.0
 13
0.0
 23
0.0
 33
0.0
 16
1.0
 26
0.0
 36
0.0
 17
0.0
 27
1.0
 37
0.0
 76
     0
330
1F
331
29
  0
MLINESTYLE
  5
18
102
{ACAD_REACTORS
330
17
102
}
330
17
100
AcDbMlineStyle
  2
Standard
 70
     0
  3

 62
   256
 51
90.0
 52
90.0
 71
     2
 49
0.5
 62
   256
  6
BYLAYER
 49
-0.5
 62
   256
  6
BYLAYER
  0
ACDBPLACEHOLDER
  5
F
102
{ACAD_REACTORS
330
E
102
}
330
E
  0
SCALE
  5
48
102
{ACAD_REACTORS
330
47
102
}
330
47
100
AcDbScale
 70
     0
300
1:1
140
1.0
141
1.0
290
     1
  0
SCALE
  5
49
102
{ACAD_REACTORS
330
47
102
}
330
47
100
AcDbScale
 70
     0
300
1:2
140
1.0
141
2.0
290
     0
  0
SCALE
  5
4A
102
{ACAD_REACTORS
330
47
102
}
330
47
100
AcDbScale
 70
     0
300
1:4
140
1.0
141
4.0
290
     0
  0
SCALE
  5
4B
102
{ACAD_REACTORS
330
47
102
}
330
47
100
AcDbScale
 70
     0
300
1:5
140
1.0
141
5.0
290
     0
  0
SCALE
  5
4C
102
{ACAD_REACTORS
330
47
102
}
330
47
100
AcDbScale
 70
     0
300
1:8
140
1.0
141
8.0
290
     0
  0
SCALE
  5
4D
102
{ACAD_REACTORS
330
47
102
}
330
47
100
AcDbScale
 70
     0
300
1:10
140
1.0
141
10.0
290
     0
  0
SCALE
  5
4E
102
{ACAD_REACTORS
330
47
102
}
330
47
100
AcDbScale
 70
     0
300
1:16
140
1.0
141
16.0
290
     0
  0
SCALE
  5
4F
102
{ACAD_REACTORS
330
47
102
}
330
47
100
AcDbScale
 70
     0
300
1:20
140
1.0
141
20.0
290
     0
  0
SCALE
  5
50
102
{ACAD_REACTORS
330
47
102
}
330
47
100
AcDbScale
 70
     0
300
1:30
140
1.0
141
30.0
290
     0
  0
SCALE
  5
51
102
{ACAD_REACTORS
330
47
102
}
330
47
100
AcDbScale
 70
     0
300
1:40
140
1.0
141
40.0
290
     0
  0
SCALE
  5
52
102
{ACAD_REACTORS
330
47
102
}
330
47
100
AcDbScale
 70
     0
300
1:50
140
1.0
141
50.0
290
     0
  0
SCALE
  5
53
102
{ACAD_REACTORS
330
47
102
}
330
47
100
AcDbScale
 70
     0
300
1:100
140
1.0
141
100.0
290
     0
  0
SCALE
  5
54
102
{ACAD_REACTORS
330
47
102
}
330
47
100
AcDbScale
 70
     0
300
2:1
140
2.0
141
1.0
290
     0
  0
SCALE
  5
55
102
{ACAD_REACTORS
330
47
102
}
330
47
100
AcDbScale
 70
     0
300
4:1
140
4.0
141
1.0
290
     0
  0
SCALE
  5
56
102
{ACAD_REACTORS
330
47
102
}
330
47
100
AcDbScale
 70
     0
300
8:1
140
8.0
141
1.0
290
     0
  0
SCALE
  5
57
102
{ACAD_REACTORS
330
47
102
}
330
47
100
AcDbScale
 70
     0
300
10:1
140
10.0
141
1.0
290
     0
  0
SCALE
  5
58
102
{ACAD_REACTORS
330
47
102
}
330
47
100
AcDbScale
 70
     0
300
100:1
140
100.0
141
1.0
290
     0
  0
SCALE
  5
59
102
{ACAD_REACTORS
330
47
102
}
330
47
100
AcDbScale
 70
     0
300
1/128" = 1'-0"
140
0.0078125
141
12.0
290
     0
  0
SCALE
  5
5A
102
{ACAD_REACTORS
330
47
102
}
330
47
100
AcDbScale
 70
     0
300
1/64" = 1'-0"
140
0.015625
141
12.0
290
     0
  0
SCALE
  5
5B
102
{ACAD_REACTORS
330
47
102
}
330
47
100
AcDbScale
 70
     0
300
1/32" = 1'-0"
140
0.03125
141
12.0
290
     0
  0
SCALE
  5
5C
102
{ACAD_REACTORS
330
47
102
}
330
47
100
AcDbScale
 70
     0
300
1/16" = 1'-0"
140
0.0625
141
12.0
290
     0
  0
SCALE
  5
5D
102
{ACAD_REACTORS
330
47
102
}
330
47
100
AcDbScale
 70
     0
300
3/32" = 1'-0"
140
0.09375
141
12.0
290
     0
  0
SCALE
  5
5E
102
{ACAD_REACTORS
330
47
102
}
330
47
100
AcDbScale
 70
     0
300
1/8" = 1'-0"
140
0.125
141
12.0
290
     0
  0
SCALE
  5
5F
102
{ACAD_REACTORS
330
47
102
}
330
47
100
AcDbScale
 70
     0
300
3/16" = 1'-0"
140
0.1875
141
12.0
290
     0
  0
SCALE
  5
60
102
{ACAD_REACTORS
330
47
102
}
330
47
100
AcDbScale
 70
     0
300
1/4" = 1'-0"
140
0.25
141
12.0
290
     0
  0
SCALE
  5
61
102
{ACAD_REACTORS
330
47
102
}
330
47
100
AcDbScale
 70
     0
300
3/8" = 1'-0"
140
0.375
141
12.0
290
     0
  0
SCALE
  5
62
102
{ACAD_REACTORS
330
47
102
}
330
47
100
AcDbScale
 70
     0
300
1/2" = 1'-0"
140
0.5
141
12.0
290
     0
  0
SCALE
  5
63
102
{ACAD_REACTORS
330
47
102
}
330
47
100
AcDbScale
 70
     0
300
3/4" = 1'-0"
140
0.75
141
12.0
290
     0
  0
SCALE
  5
64
102
{ACAD_REACTORS
330
47
102
}
330
47
100
AcDbScale
 70
     0
300
1" = 1'-0"
140
1.0
141
12.0
290
     0
  0
SCALE
  5
65
102
{ACAD_REACTORS
330
47
102
}
330
47
100
AcDbScale
 70
     0
300
1-1/2" = 1'-0"
140
1.5
141
12.0
290
     0
  0
SCALE
  5
66
102
{ACAD_REACTORS
330
47
102
}
330
47
100
AcDbScale
 70
     0
300
3" = 1'-0"
140
3.0
141
12.0
290
     0
  0
SCALE
  5
67
102
{ACAD_REACTORS
330
47
102
}
330
47
100
AcDbScale
 70
     0
300
6" = 1'-0"
140
6.0
141
12.0
290
     0
  0
SCALE
  5
68
102
{ACAD_REACTORS
330
47
102
}
330
47
100
AcDbScale
 70
     0
300
1'-0" = 1'-0"
140
12.0
141
12.0
290
     0
  0
ENDSEC
  0
EOF
