  0
SECTION
  2
HEADER
  9
$ACADVER
  1
AC1015
  9
$ACADMAINTVER
 70
     6
  9
$DWGCODEPAGE
  3
ANSI_949
  9
$INSBASE
 10
0.0
 20
0.0
 30
0.0
  9
$EXTMIN
 10
-53.39750000000008
 20
-50.28867796974448
 30
0.0
  9
$EXTMAX
 10
86.47629082238856
 20
41.99964524059783
 30
0.0
  9
$LIMMIN
 10
0.0
 20
0.0
  9
$LIMMAX
 10
420.0
 20
297.0
  9
$ORTHOMODE
 70
     0
  9
$REGENMODE
 70
     1
  9
$FILLMODE
 70
     1
  9
$QTEXTMODE
 70
     0
  9
$MIRRTEXT
 70
     1
  9
$LTSCALE
 40
1.0
  9
$ATTMODE
 70
     1
  9
$TEXTSIZE
 40
3.5
  9
$TRACEWID
 40
1.0
  9
$TEXTSTYLE
  7
Standard
  9
$CLAYER
  8
0
  9
$CELTYPE
  6
ByLayer
  9
$CECOLOR
 62
   256
  9
$CELTSCALE
 40
1.0
  9
$DISPSILH
 70
     0
  9
$DIMSCALE
 40
1.0
  9
$DIMASZ
 40
3.302
  9
$DIMEXO
 40
1.0
  9
$DIMDLI
 40
3.75
  9
$DIMRND
 40
0.0
  9
$DIMDLE
 40
0.0
  9
$DIMEXE
 40
1.0
  9
$DIMTP
 40
0.0
  9
$DIMTM
 40
0.0
  9
$DIMTXT
 40
3.5
  9
$DIMCEN
 40
2.5
  9
$DIMTSZ
 40
0.0
  9
$DIMTOL
 70
     0
  9
$DIMLIM
 70
     0
  9
$DIMTIH
 70
     1
  9
$DIMTOH
 70
     1
  9
$DIMSE1
 70
     0
  9
$DIMSE2
 70
     0
  9
$DIMTAD
 70
     1
  9
$DIMZIN
 70
     0
  9
$DIMBLK
  1

  9
$DIMASO
 70
     1
  9
$DIMSHO
 70
     1
  9
$DIMPOST
  1

  9
$DIMAPOST
  1

  9
$DIMALT
 70
     0
  9
$DIMALTD
 70
     3
  9
$DIMALTF
 40
0.0393700787401575
  9
$DIMLFAC
 40
1.0
  9
$DIMTOFL
 70
     1
  9
$DIMTVP
 40
0.0
  9
$DIMTIX
 70
     0
  9
$DIMSOXD
 70
     0
  9
$DIMSAH
 70
     0
  9
$DIMBLK1
  1

  9
$DIMBLK2
  1

  9
$DIMSTYLE
  2
ISO-25
  9
$DIMCLRD
 70
     0
  9
$DIMCLRE
 70
     0
  9
$DIMCLRT
 70
     0
  9
$DIMTFAC
 40
1.0
  9
$DIMGAP
 40
1.524
  9
$DIMJUST
 70
     0
  9
$DIMSD1
 70
     0
  9
$DIMSD2
 70
     0
  9
$DIMTOLJ
 70
     0
  9
$DIMTZIN
 70
     0
  9
$DIMALTZ
 70
     0
  9
$DIMALTTZ
 70
     0
  9
$DIMUPT
 70
     0
  9
$DIMDEC
 70
     2
  9
$DIMTDEC
 70
     2
  9
$DIMALTU
 70
     2
  9
$DIMALTTD
 70
     3
  9
$DIMTXSTY
  7
Standard
  9
$DIMAUNIT
 70
     0
  9
$DIMADEC
 70
     2
  9
$DIMALTRND
 40
0.0
  9
$DIMAZIN
 70
     0
  9
$DIMDSEP
 70
    44
  9
$DIMATFIT
 70
     3
  9
$DIMFRAC
 70
     0
  9
$DIMLDRBLK
  1

  9
$DIMLUNIT
 70
     2
  9
$DIMLWD
 70
    -2
  9
$DIMLWE
 70
    -2
  9
$DIMTMOVE
 70
     0
  9
$LUNITS
 70
     2
  9
$LUPREC
 70
     2
  9
$SKETCHINC
 40
1.0
  9
$FILLETRAD
 40
10.0
  9
$AUNITS
 70
     0
  9
$AUPREC
 70
     2
  9
$MENU
  1
.
  9
$ELEVATION
 40
0.0
  9
$PELEVATION
 40
0.0
  9
$THICKNESS
 40
0.0
  9
$LIMCHECK
 70
     0
  9
$CHAMFERA
 40
0.0
  9
$CHAMFERB
 40
0.0
  9
$CHAMFERC
 40
0.0
  9
$CHAMFERD
 40
0.0
  9
$SKPOLY
 70
     0
  9
$TDCREATE
 40
2458299.370587396
  9
$TDUCREATE
 40
2458298.995587396
  9
$TDUPDATE
 40
2458302.736324676
  9
$TDUUPDATE
 40
2458302.361324676
  9
$TDINDWG
 40
0.0005302315
  9
$TDUSRTIMER
 40
2458302.360794641
  9
$USRTIMER
 70
     1
  9
$ANGBASE
 50
0.0
  9
$ANGDIR
 70
     0
  9
$PDMODE
 70
     0
  9
$PDSIZE
 40
-1.0
  9
$PLINEWID
 40
0.0
  9
$SPLFRAME
 70
     0
  9
$SPLINETYPE
 70
     6
  9
$SPLINESEGS
 70
     8
  9
$HANDSEED
  5
1D7
  9
$SURFTAB1
 70
     6
  9
$SURFTAB2
 70
     6
  9
$SURFTYPE
 70
     6
  9
$SURFU
 70
     6
  9
$SURFV
 70
     6
  9
$UCSBASE
  2

  9
$UCSNAME
  2

  9
$UCSORG
 10
0.0
 20
0.0
 30
0.0
  9
$UCSXDIR
 10
1.0
 20
0.0
 30
0.0
  9
$UCSYDIR
 10
0.0
 20
1.0
 30
0.0
  9
$UCSORTHOREF
  2

  9
$UCSORTHOVIEW
 70
     0
  9
$UCSORGTOP
 10
0.0
 20
0.0
 30
0.0
  9
$UCSORGBOTTOM
 10
0.0
 20
0.0
 30
0.0
  9
$UCSORGLEFT
 10
0.0
 20
0.0
 30
0.0
  9
$UCSORGRIGHT
 10
0.0
 20
0.0
 30
0.0
  9
$UCSORGFRONT
 10
0.0
 20
0.0
 30
0.0
  9
$UCSORGBACK
 10
0.0
 20
0.0
 30
0.0
  9
$PUCSBASE
  2

  9
$PUCSNAME
  2

  9
$PUCSORG
 10
0.0
 20
0.0
 30
0.0
  9
$PUCSXDIR
 10
1.0
 20
0.0
 30
0.0
  9
$PUCSYDIR
 10
0.0
 20
1.0
 30
0.0
  9
$PUCSORTHOREF
  2

  9
$PUCSORTHOVIEW
 70
     0
  9
$PUCSORGTOP
 10
0.0
 20
0.0
 30
0.0
  9
$PUCSORGBOTTOM
 10
0.0
 20
0.0
 30
0.0
  9
$PUCSORGLEFT
 10
0.0
 20
0.0
 30
0.0
  9
$PUCSORGRIGHT
 10
0.0
 20
0.0
 30
0.0
  9
$PUCSORGFRONT
 10
0.0
 20
0.0
 30
0.0
  9
$PUCSORGBACK
 10
0.0
 20
0.0
 30
0.0
  9
$USERI1
 70
     0
  9
$USERI2
 70
     0
  9
$USERI3
 70
     0
  9
$USERI4
 70
     0
  9
$USERI5
 70
     0
  9
$USERR1
 40
0.0
  9
$USERR2
 40
0.0
  9
$USERR3
 40
0.0
  9
$USERR4
 40
0.0
  9
$USERR5
 40
0.0
  9
$WORLDVIEW
 70
     1
  9
$SHADEDGE
 70
     3
  9
$SHADEDIF
 70
    70
  9
$TILEMODE
 70
     1
  9
$MAXACTVP
 70
    64
  9
$PINSBASE
 10
0.0
 20
0.0
 30
0.0
  9
$PLIMCHECK
 70
     0
  9
$PEXTMIN
 10
1.000000000000000E+20
 20
1.000000000000000E+20
 30
1.000000000000000E+20
  9
$PEXTMAX
 10
-1.000000000000000E+20
 20
-1.000000000000000E+20
 30
-1.000000000000000E+20
  9
$PLIMMIN
 10
0.0
 20
0.0
  9
$PLIMMAX
 10
0.0
 20
0.0
  9
$UNITMODE
 70
     0
  9
$VISRETAIN
 70
     1
  9
$PLINEGEN
 70
     0
  9
$PSLTSCALE
 70
     1
  9
$TREEDEPTH
 70
  3020
  9
$CMLSTYLE
  2
Standard
  9
$CMLJUST
 70
     0
  9
$CMLSCALE
 40
20.0
  9
$PROXYGRAPHICS
 70
     1
  9
$MEASUREMENT
 70
     1
  9
$CELWEIGHT
370
    -1
  9
$ENDCAPS
280
     0
  9
$JOINSTYLE
280
     0
  9
$LWDISPLAY
290
     1
  9
$INSUNITS
 70
     4
  9
$HYPERLINKBASE
  1

  9
$STYLESHEET
  1

  9
$XEDIT
290
     1
  9
$CEPSNTYPE
380
     0
  9
$PSTYLEMODE
290
     1
  9
$FINGERPRINTGUID
  2
{9F61131F-4A6E-4C93-BD49-5C159CC77DC0}
  9
$VERSIONGUID
  2
{FAEB1C32-E019-11D5-929B-00C0DF256EC4}
  9
$EXTNAMES
290
     1
  9
$PSVPSCALE
 40
0.0
  9
$OLESTARTUP
290
     0
  0
ENDSEC
  0
SECTION
  2
CLASSES
  0
CLASS
  1
ACDBDICTIONARYWDFLT
  2
AcDbDictionaryWithDefault
  3
ObjectDBX Classes
 90
        0
280
     0
281
     0
  0
CLASS
  1
VISUALSTYLE
  2
AcDbVisualStyle
  3
ObjectDBX Classes
 90
     4095
280
     0
281
     0
  0
CLASS
  1
MATERIAL
  2
AcDbMaterial
  3
ObjectDBX Classes
 90
     1153
280
     0
281
     0
  0
CLASS
  1
SCALE
  2
AcDbScale
  3
ObjectDBX Classes
 90
     1153
280
     0
281
     0
  0
CLASS
  1
SUN
  2
AcDbSun
  3
SCENEOE
 90
     1153
280
     0
281
     0
  0
CLASS
  1
ACDBPLACEHOLDER
  2
AcDbPlaceHolder
  3
ObjectDBX Classes
 90
        0
280
     0
281
     0
  0
CLASS
  1
LAYOUT
  2
AcDbLayout
  3
ObjectDBX Classes
 90
        0
280
     0
281
     0
  0
CLASS
  1
TABLESTYLE
  2
AcDbTableStyle
  3
ObjectDBX Classes
 90
     4095
280
     0
281
     0
  0
CLASS
  1
MLEADERSTYLE
  2
AcDbMLeaderStyle
  3
ACDB_MLEADERSTYLE_CLASS
 90
     4095
280
     0
281
     0
  0
CLASS
  1
RASTERVARIABLES
  2
AcDbRasterVariables
  3
ISM
 90
        0
280
     0
281
     0
  0
ENDSEC
  0
SECTION
  2
TABLES
  0
TABLE
  2
VPORT
  5
8
330
0
100
AcDbSymbolTable
 70
     1
  0
VPORT
  5
29
330
8
100
AcDbSymbolTableRecord
100
AcDbViewportTableRecord
  2
*Active
 70
     0
 10
0.0
 20
0.0
 11
1.0
 21
1.0
 12
4.692368671155048
 22
-5.775079576222179
 13
0.0
 23
0.0
 14
10.0
 24
10.0
 15
10.0
 25
10.0
 16
0.0
 26
0.0
 36
1.0
 17
0.0
 27
0.0
 37
0.0
 40
90.81145752621269
 41
1.31452581032413
 42
50.0
 43
0.0
 44
0.0
 50
0.0
 51
0.0
 71
    16
 72
  2000
 73
     1
 74
     3
 75
     0
 76
     0
 77
     0
 78
     0
281
     0
 65
     1
110
0.0
120
0.0
130
0.0
111
1.0
121
0.0
131
0.0
112
0.0
122
1.0
132
0.0
 79
     0
146
0.0
  0
ENDTAB
  0
TABLE
  2
LTYPE
  5
5
330
0
100
AcDbSymbolTable
 70
     6
  0
LTYPE
  5
14
330
5
100
AcDbSymbolTableRecord
100
AcDbLinetypeTableRecord
  2
ByBlock
 70
     0
  3

 72
    65
 73
     0
 40
0.0
  0
LTYPE
  5
15
330
5
100
AcDbSymbolTableRecord
100
AcDbLinetypeTableRecord
  2
ByLayer
 70
     0
  3

 72
    65
 73
     0
 40
0.0
  0
LTYPE
  5
16
330
5
100
AcDbSymbolTableRecord
100
AcDbLinetypeTableRecord
  2
Continuous
 70
     0
  3
Solid line
 72
    65
 73
     0
 40
0.0
  0
LTYPE
  5
6A
330
5
100
AcDbSymbolTableRecord
100
AcDbLinetypeTableRecord
  2
HIDDEN
 70
     0
  3
Hidden __ __ __ __ __ __ __ __ __ __ __ __ __ __
 72
    65
 73
     2
 40
1.905
 49
1.27
 74
     0
 49
-0.635
 74
     0
  0
LTYPE
  5
6B
330
5
100
AcDbSymbolTableRecord
100
AcDbLinetypeTableRecord
  2
PHANTOM
 70
     0
  3
Phantom ______  __  __  ______  __  __  ______
 72
    65
 73
     6
 40
12.7
 49
6.35
 74
     0
 49
-1.27
 74
     0
 49
1.27
 74
     0
 49
-1.27
 74
     0
 49
1.27
 74
     0
 49
-1.27
 74
     0
  0
LTYPE
  5
6C
330
5
100
AcDbSymbolTableRecord
100
AcDbLinetypeTableRecord
  2
CENTER
 70
     0
  3
Center ____ _ ____ _ ____ _ ____ _ ____ _ ____
 72
    65
 73
     4
 40
10.16
 49
6.35
 74
     0
 49
-1.27
 74
     0
 49
1.27
 74
     0
 49
-1.27
 74
     0
  0
LTYPE
  5
6D
330
5
100
AcDbSymbolTableRecord
100
AcDbLinetypeTableRecord
  2
CENTERX2
 70
     0
  3
Center (2x) ________  __  ________  __  _____
 72
    65
 73
     4
 40
20.32
 49
12.7
 74
     0
 49
-2.54
 74
     0
 49
2.54
 74
     0
 49
-2.54
 74
     0
  0
LTYPE
  5
6E
330
5
100
AcDbSymbolTableRecord
100
AcDbLinetypeTableRecord
  2
DOT2
 70
     0
  3
Dot (.5x) ........................................
 72
    65
 73
     2
 40
0.635
 49
0.0
 74
     0
 49
-0.635
 74
     0
  0
ENDTAB
  0
TABLE
  2
LAYER
  5
2
330
0
100
AcDbSymbolTable
 70
    18
  0
LAYER
  5
10
330
2
100
AcDbSymbolTableRecord
100
AcDbLayerTableRecord
  2
0
 70
     0
 62
     7
  6
Continuous
370
    -3
390
F
  0
LAYER
  5
6F
330
2
100
AcDbSymbolTableRecord
100
AcDbLayerTableRecord
  2
FORMAT
 70
     0
 62
     2
  6
Continuous
370
    -3
390
F
  0
LAYER
  5
70
330
2
100
AcDbSymbolTableRecord
100
AcDbLayerTableRecord
  2
외형선
 70
     0
 62
     4
  6
Continuous
370
    30
390
F
  0
LAYER
  5
71
330
2
100
AcDbSymbolTableRecord
100
AcDbLayerTableRecord
  2
숨은선
 70
     0
 62
     2
  6
HIDDEN
370
    15
390
F
  0
LAYER
  5
72
330
2
100
AcDbSymbolTableRecord
100
AcDbLayerTableRecord
  2
중심선
 70
     0
 62
     1
  6
CENTERX2
370
    -3
390
F
  0
LAYER
  5
73
330
2
100
AcDbSymbolTableRecord
100
AcDbLayerTableRecord
  2
파단선
 70
     0
 62
     4
  6
Continuous
370
    -3
390
F
  0
LAYER
  5
74
330
2
100
AcDbSymbolTableRecord
100
AcDbLayerTableRecord
  2
해칭선
 70
     0
 62
   100
  6
Continuous
370
    -3
390
F
  0
LAYER
  5
75
330
2
100
AcDbSymbolTableRecord
100
AcDbLayerTableRecord
  2
가는실선
 70
     0
 62
     4
  6
Continuous
370
    -3
390
F
  0
LAYER
  5
76
330
2
100
AcDbSymbolTableRecord
100
AcDbLayerTableRecord
  2
치수_보조선
 70
     0
 62
     4
  6
Continuous
370
    -3
390
F
  0
LAYER
  5
77
330
2
100
AcDbSymbolTableRecord
100
AcDbLayerTableRecord
  2
치수문자_일반주서
 70
     0
 62
     7
  6
Continuous
370
    15
390
F
  0
LAYER
  5
78
330
2
100
AcDbSymbolTableRecord
100
AcDbLayerTableRecord
  2
개별주서
 70
     0
 62
   100
  6
Continuous
370
    30
390
F
  0
LAYER
  5
79
330
2
100
AcDbSymbolTableRecord
100
AcDbLayerTableRecord
  2
중간선
 70
     0
 62
     2
  6
Continuous
370
    15
390
F
  0
LAYER
  5
7A
330
2
100
AcDbSymbolTableRecord
100
AcDbLayerTableRecord
  2
윤곽선
 70
     0
 62
     3
  6
Continuous
370
    40
390
F
  0
LAYER
  5
7B
330
2
100
AcDbSymbolTableRecord
100
AcDbLayerTableRecord
  2
중심마크
 70
     0
 62
   100
  6
Continuous
370
    30
390
F
  0
LAYER
  5
7C
330
2
100
AcDbSymbolTableRecord
100
AcDbLayerTableRecord
  2
가상선
 70
     0
 62
     4
  6
PHANTOM
370
    -3
390
F
  0
LAYER
  5
7D
330
2
100
AcDbSymbolTableRecord
100
AcDbLayerTableRecord
  2
특수지정선
 70
     0
 62
     5
  6
CENTERX2
370
    60
390
F
  0
LAYER
  5
7E
330
2
100
AcDbSymbolTableRecord
100
AcDbLayerTableRecord
  2
참조1
 70
     0
 62
    -4
  6
Continuous
370
    -3
390
F
  0
LAYER
  5
1D5
330
2
100
AcDbSymbolTableRecord
100
AcDbLayerTableRecord
  2
Defpoints
 70
     0
 62
     7
  6
Continuous
290
     0
370
    -3
390
F
  0
ENDTAB
  0
TABLE
  2
STYLE
  5
3
330
0
100
AcDbSymbolTable
 70
     2
  0
STYLE
  5
11
330
3
100
AcDbSymbolTableRecord
100
AcDbTextStyleTableRecord
  2
Standard
 70
     0
 40
0.0
 41
1.0
 50
0.0
 71
     0
 42
3.5
  3
txt
  4

  0
STYLE
  5
94
330
3
100
AcDbSymbolTableRecord
100
AcDbTextStyleTableRecord
  2
SLDTEXTSTYLE0
 70
     0
 40
0.0
 41
0.75
 50
0.0
 71
     0
 42
3.5
  3
TXT
  4

  0
ENDTAB
  0
TABLE
  2
VIEW
  5
6
330
0
100
AcDbSymbolTable
 70
     0
  0
ENDTAB
  0
TABLE
  2
UCS
  5
7
330
0
100
AcDbSymbolTable
 70
     0
  0
ENDTAB
  0
TABLE
  2
APPID
  5
9
330
0
100
AcDbSymbolTable
 70
     1
  0
APPID
  5
12
330
9
100
AcDbSymbolTableRecord
100
AcDbRegAppTableRecord
  2
ACAD
 70
     0
  0
ENDTAB
  0
TABLE
  2
DIMSTYLE
  5
A
330
0
100
AcDbSymbolTable
 70
     4
100
AcDbDimStyleTable
  0
DIMSTYLE
105
27
330
A
100
AcDbSymbolTableRecord
100
AcDbDimStyleTableRecord
  2
ISO-25
 70
     0
 41
2.5
 42
0.625
 43
3.75
 44
1.25
 73
     0
 74
     0
 77
     1
 78
     8
140
2.5
141
2.5
143
0.03937007874016
147
0.625
171
     3
172
     1
178
     0
271
     2
272
     2
274
     3
278
    44
283
     0
284
     8
340
11
  0
DIMSTYLE
105
154
102
{ACAD_REACTORS
330
153
330
17B
102
}
330
A
100
AcDbSymbolTableRecord
100
AcDbDimStyleTableRecord
  2
SLDDIMSTYLE0
 70
     0
 41
3.302
 44
0.0
 45
0.000000001
 73
     0
 74
     0
 77
     1
 78
    12
 79
     3
140
3.5
143
0.0393700787401575
147
0.875
148
0.000000001
170
     1
173
     1
178
     0
271
     2
272
     2
276
     2
284
    12
340
94
  0
DIMSTYLE
105
167
102
{ACAD_REACTORS
330
166
102
}
330
A
100
AcDbSymbolTableRecord
100
AcDbDimStyleTableRecord
  2
SLDDIMSTYLE1
 70
     0
 41
3.302
 44
0.0
 45
0.000000001
 73
     0
 74
     0
 77
     1
 78
    12
 79
     3
140
3.5
143
0.0393700787401575
147
0.875
148
0.000000001
170
     1
172
     1
173
     1
178
     0
271
     2
272
     2
276
     2
284
    12
289
     0
340
94
  0
DIMSTYLE
105
190
102
{ACAD_REACTORS
330
18F
102
}
330
A
100
AcDbSymbolTableRecord
100
AcDbDimStyleTableRecord
  2
SLDDIMSTYLE2
 70
     0
 41
3.302
 44
0.0
 45
0.000000001
 73
     0
 74
     0
 77
     1
 78
     4
 79
     1
140
3.5
143
0.0393700787401575
147
0.875
148
0.000000001
170
     1
173
     1
178
     0
271
     2
272
     2
276
     2
284
    12
340
94
  0
ENDTAB
  0
TABLE
  2
BLOCK_RECORD
  5
1
330
0
100
AcDbSymbolTable
 70
     7
  0
BLOCK_RECORD
  5
1F
330
1
100
AcDbSymbolTableRecord
100
AcDbBlockTableRecord
  2
*Model_Space
340
22
  0
BLOCK_RECORD
  5
1B
330
1
100
AcDbSymbolTableRecord
100
AcDbBlockTableRecord
  2
*Paper_Space
340
1E
  0
BLOCK_RECORD
  5
23
330
1
100
AcDbSymbolTableRecord
100
AcDbBlockTableRecord
  2
*Paper_Space0
340
26
  0
BLOCK_RECORD
  5
7F
330
1
100
AcDbSymbolTableRecord
100
AcDbBlockTableRecord
  2
블럭10
340
0
102
{BLKREFS
331
14B
102
}
  0
BLOCK_RECORD
  5
155
330
1
100
AcDbSymbolTableRecord
100
AcDbBlockTableRecord
  2
_D
340
0
  0
BLOCK_RECORD
  5
168
330
1
100
AcDbSymbolTableRecord
100
AcDbBlockTableRecord
  2
_D_1
340
0
  0
BLOCK_RECORD
  5
17C
330
1
100
AcDbSymbolTableRecord
100
AcDbBlockTableRecord
  2
_D_2
340
0
  0
BLOCK_RECORD
  5
191
330
1
100
AcDbSymbolTableRecord
100
AcDbBlockTableRecord
  2
_D_3
340
0
  0
BLOCK_RECORD
  5
1AA
330
1
100
AcDbSymbolTableRecord
100
AcDbBlockTableRecord
  2
SW_DOWELSYMBOL_0
340
0
102
{BLKREFS
331
1B0
102
}
  0
ENDTAB
  0
ENDSEC
  0
SECTION
  2
BLOCKS
  0
BLOCK
  5
20
330
1F
100
AcDbEntity
  8
0
100
AcDbBlockBegin
  2
*Model_Space
 70
     0
 10
0.0
 20
0.0
 30
0.0
  3
*Model_Space
  1
*Model_Space
  0
ENDBLK
  5
21
330
1F
100
AcDbEntity
  8
0
100
AcDbBlockEnd
  0
BLOCK
  5
1C
330
1B
100
AcDbEntity
 67
     1
  8
0
100
AcDbBlockBegin
  2
*Paper_Space
 70
     0
 10
0.0
 20
0.0
 30
0.0
  3
*Paper_Space
  1
*Paper_Space
  0
ENDBLK
  5
1D
330
1B
100
AcDbEntity
 67
     1
  8
0
100
AcDbBlockEnd
  0
BLOCK
  5
24
330
23
100
AcDbEntity
  8
0
100
AcDbBlockBegin
  2
*Paper_Space0
 70
     0
 10
0.0
 20
0.0
 30
0.0
  3
*Paper_Space0
  1
*Paper_Space0
  0
ENDBLK
  5
25
330
23
100
AcDbEntity
  8
0
100
AcDbBlockEnd
  0
BLOCK
  5
80
330
7F
100
AcDbEntity
  8
0
100
AcDbBlockBegin
  2
블럭10
 70
     2
 10
0.0
 20
0.0
 30
0.0
  3
블럭10
  1
블럭10
  0
ELLIPSE
  5
82
330
7F
100
AcDbEntity
  8
중심선
100
AcDbEllipse
 10
20.54032771741204
 20
12.0471743016438
 30
0.0
 11
6.600054785286829
 21
-1.261213355974178E-13
 31
0.0
210
0.0
220
0.0
230
1.0
 40
0.636358354079598
 41
0.9219305317359503
 42
6.513795318482858
  0
ELLIPSE
  5
83
330
7F
100
AcDbEntity
  8
중심선
100
AcDbEllipse
 10
20.54032771746488
 20
12.04717430159265
 30
0.0
 11
3.960054785062283
 21
1.540847449632565E-10
 31
0.0
210
0.0
220
0.0
230
1.0
 40
0.3939339440162632
 41
1.131841032648279
 42
5.62031148352944
  0
LINE
  5
84
330
7F
100
AcDbEntity
  8
중심선
100
AcDbLine
 10
2.268634060543552
 20
16.24717430164393
 30
0.0
 11
5.714909304380834
 21
16.24717430164393
 31
0.0
  0
LINE
  5
85
330
7F
100
AcDbEntity
  8
중심선
100
AcDbLine
 10
5.245725140726316
 20
7.84717430164391
 30
0.0
 11
8.692000384563599
 21
7.84717430164391
 31
0.0
  0
LINE
  5
86
330
7F
100
AcDbEntity
  8
중심선
100
AcDbLine
 10
15.74043728645272
 20
16.24717430164393
 30
0.0
 11
8.692000384563599
 21
7.84717430164391
 31
0.0
  0
LINE
  5
87
330
7F
100
AcDbEntity
  8
중심선
100
AcDbLine
 10
0.1404042013395286
 20
13.71084872107135
 30
0.0
 11
3.58671253028996
 21
13.71088815037384
 31
0.0
  0
LINE
  5
88
330
7F
100
AcDbEntity
  8
중심선
100
AcDbLine
 10
2.750260043222114
 20
10.84717430164391
 30
0.0
 11
6.196535287059397
 21
10.84717430164391
 31
0.0
  0
LINE
  5
89
330
7F
100
AcDbEntity
  8
중심선
100
AcDbLine
 10
12.29416204261559
 20
16.24717430164393
 30
0.0
 11
5.245725140726316
 21
7.84717430164391
 31
0.0
  0
LINE
  5
8A
330
7F
100
AcDbEntity
  8
중심선
100
AcDbLine
 10
10.72767329541681
 20
16.24717430164393
 30
0.0
 11
6.196535287059397
 21
10.84717430164391
 31
0.0
  0
LINE
  5
8B
330
7F
100
AcDbEntity
  8
중심선
100
AcDbLine
 10
7.28139805157953
 20
16.24717430164393
 30
0.0
 11
2.750260043222114
 21
10.84717430164391
 31
0.0
  0
LINE
  5
8C
330
7F
100
AcDbEntity
  8
중심선
100
AcDbLine
 10
5.714909304380834
 20
16.24717430164393
 30
0.0
 11
3.58671253028996
 21
13.71088815037384
 31
0.0
  0
LINE
  5
8D
330
7F
100
AcDbEntity
  8
중심선
100
AcDbLine
 10
2.268634060543552
 20
16.24717430164393
 30
0.0
 11
0.1404042013395286
 21
13.71084872107135
 31
0.0
  0
LINE
  5
8E
330
7F
100
AcDbEntity
  8
중심선
100
AcDbLine
 10
7.28139805157953
 20
16.24717430164393
 30
0.0
 11
10.72767329541681
 21
16.24717430164393
 31
0.0
  0
LINE
  5
8F
330
7F
100
AcDbEntity
  8
중심선
100
AcDbLine
 10
12.29416204261559
 20
16.24717430164393
 30
0.0
 11
15.74043728645272
 21
16.24717430164393
 31
0.0
  0
LINE
  5
90
330
7F
100
AcDbEntity
  8
중심선
100
AcDbLine
 10
19.22036997980202
 20
11.08717430171403
 30
0.0
 11
23.66174974927406
 21
11.08717430171406
 31
0.0
  0
LINE
  5
91
330
7F
100
AcDbEntity
  8
중심선
100
AcDbLine
 10
19.22039502424796
 20
13.00717430171391
 30
0.0
 11
19.22036997980202
 21
11.08717430171403
 31
0.0
  0
LINE
  5
92
330
7F
100
AcDbEntity
  8
중심선
100
AcDbLine
 10
19.22039502424796
 20
13.00717430171391
 30
0.0
 11
26.96566020931264
 21
13.00717430171391
 31
0.0
  0
LINE
  5
93
330
7F
100
AcDbEntity
  8
중심선
100
AcDbLine
 10
22.22332737316547
 20
13.45928029700563
 30
0.0
 11
24.52862924686651
 21
15.39360700705356
 31
0.0
  0
ATTDEF
  5
95
330
7F
100
AcDbEntity
  8
FORMAT
 62
     2
100
AcDbText
 10
-10.14163601213663
 20
2.075366912832191
 30
0.0
 40
4.233333333333333
  1
EM666024 [ 3 FLUTE ]
 41
0.75
  7
SLDTEXTSTYLE0
 11
-10.14163601213663
 21
-0.0412997538344756
 31
0.0
100
AcDbAttributeDefinition
  3

  2
AUTOATTR0
 70
     0
 74
     1
  0
ENDBLK
  5
81
330
7F
100
AcDbEntity
  8
0
100
AcDbBlockEnd
  0
BLOCK
  5
156
330
155
100
AcDbEntity
  8
0
100
AcDbBlockBegin
  2
_D
 70
     0
 10
0.0
 20
0.0
 30
0.0
  3
_D
  1
_D
  0
LINE
  5
158
330
155
100
AcDbEntity
  8
치수문자_일반주서
 62
     0
370
    -2
100
AcDbLine
 10
7.042401433108414
 20
4.762500000000014
 30
0.0
 11
43.29991147885526
 21
4.762500000000149
 31
0.0
  0
LINE
  5
159
330
155
100
AcDbEntity
  8
치수문자_일반주서
 62
     0
370
    -2
100
AcDbLine
 10
14.35057721722863
 20
-4.762500000000002
 30
0.0
 11
43.29991147885529
 21
-4.762499999999896
 31
0.0
  0
LINE
  5
15A
330
155
100
AcDbEntity
  8
치수문자_일반주서
 62
     0
370
    -2
100
AcDbLine
 10
43.29991147885526
 20
4.762500000000149
 30
0.0
 11
43.29991147885514
 21
34.53325000000014
 31
0.0
  0
LINE
  5
15B
330
155
100
AcDbEntity
  8
치수문자_일반주서
 62
     0
370
    -2
100
AcDbLine
 10
43.29991147885527
 20
1.460500000000149
 30
0.0
 11
43.29991147885528
 21
-1.460499999999897
 31
0.0
  0
SOLID
  5
15C
330
155
100
AcDbEntity
  8
치수문자_일반주서
 62
     0
100
AcDbTrace
 10
43.85024481218861
 20
1.460500000000151
 30
0.0
 11
42.74957814552194
 21
1.460500000000147
 31
0.0
 12
43.29991147885526
 22
4.762500000000149
 32
0.0
 13
43.29991147885526
 23
4.762500000000149
 33
0.0
  0
SOLID
  5
15D
330
155
100
AcDbEntity
  8
치수문자_일반주서
 62
     0
100
AcDbTrace
 10
42.74957814552194
 20
-1.460499999999899
 30
0.0
 11
43.85024481218861
 21
-1.460499999999895
 31
0.0
 12
43.29991147885529
 22
-4.762499999999896
 32
0.0
 13
43.29991147885529
 23
-4.762499999999896
 33
0.0
  0
MTEXT
  5
15E
330
155
100
AcDbEntity
  8
치수문자_일반주서
 62
     0
100
AcDbMText
 10
38.92491147885519
 20
21.40825000000012
 30
0.0
 40
3.5
 41
0.0
 71
     2
 72
     1
  1
\A1;%%c9.53 [3/8]
  7
SLDTEXTSTYLE0
 11
-3.729883127349591E-15
 21
1.0
 31
0.0
 73
     1
 44
1.0
  0
POINT
  5
15F
330
155
100
AcDbEntity
  8
Defpoints
 62
     0
100
AcDbPoint
 10
6.979901433108414
 20
4.762500000000014
 30
0.0
  0
POINT
  5
160
330
155
100
AcDbEntity
  8
Defpoints
 62
     0
100
AcDbPoint
 10
14.28807721722863
 20
-4.762500000000002
 30
0.0
  0
POINT
  5
161
330
155
100
AcDbEntity
  8
Defpoints
 62
     0
100
AcDbPoint
 10
43.29991147885529
 20
-4.762499999999894
 30
0.0
  0
ENDBLK
  5
157
330
155
100
AcDbEntity
  8
0
100
AcDbBlockEnd
  0
BLOCK
  5
169
330
168
100
AcDbEntity
  8
0
100
AcDbBlockBegin
  2
_D_1
 70
     0
 10
0.0
 20
0.0
 30
0.0
  3
_D_1
  1
_D_1
  0
LINE
  5
16B
330
168
100
AcDbEntity
  8
치수문자_일반주서
 62
     0
370
    -2
100
AcDbLine
 10
-38.27500000000001
 20
4.762500000000001
 30
0.0
 11
-49.02250000000005
 21
4.762499999999958
 31
0.0
  0
LINE
  5
16C
330
168
100
AcDbEntity
  8
치수문자_일반주서
 62
     0
370
    -2
100
AcDbLine
 10
-38.27500000000001
 20
-4.762500000000005
 30
0.0
 11
-49.02250000000002
 21
-4.762500000000046
 31
0.0
  0
LINE
  5
16D
330
168
100
AcDbEntity
  8
치수문자_일반주서
 62
     0
370
    -2
100
AcDbLine
 10
-49.02250000000004
 20
1.460499999999959
 30
0.0
 11
-49.02250000000003
 21
-1.460500000000047
 31
0.0
  0
SOLID
  5
16E
330
168
100
AcDbEntity
  8
치수문자_일반주서
 62
     0
100
AcDbTrace
 10
-48.4721666666667
 20
1.460499999999961
 30
0.0
 11
-49.57283333333337
 21
1.460499999999957
 31
0.0
 12
-49.02250000000005
 22
4.762499999999958
 32
0.0
 13
-49.02250000000005
 23
4.762499999999958
 33
0.0
  0
SOLID
  5
16F
330
168
100
AcDbEntity
  8
치수문자_일반주서
 62
     0
100
AcDbTrace
 10
-49.57283333333336
 20
-1.460500000000049
 30
0.0
 11
-48.47216666666669
 21
-1.460500000000045
 31
0.0
 12
-49.02250000000002
 22
-4.762500000000046
 32
0.0
 13
-49.02250000000002
 23
-4.762500000000046
 33
0.0
  0
MTEXT
  5
170
330
168
100
AcDbEntity
  8
치수문자_일반주서
 62
     0
100
AcDbMText
 10
-53.39750000000003
 20
-0.7630082607154777
 30
0.0
 40
3.5
 41
0.0
 71
     2
 72
     1
  1
\A1;%%c9.53 [3/8]
  7
SLDTEXTSTYLE0
 11
-3.729883127349606E-15
 21
1.0
 31
0.0
 73
     1
 44
1.0
  0
POINT
  5
171
330
168
100
AcDbEntity
  8
Defpoints
 62
     0
100
AcDbPoint
 10
-38.21250000000001
 20
4.762500000000001
 30
0.0
  0
POINT
  5
172
330
168
100
AcDbEntity
  8
Defpoints
 62
     0
100
AcDbPoint
 10
-38.21250000000001
 20
-4.762500000000005
 30
0.0
  0
POINT
  5
173
330
168
100
AcDbEntity
  8
Defpoints
 62
     0
100
AcDbPoint
 10
-49.02250000000002
 20
-4.762500000000045
 30
0.0
  0
ENDBLK
  5
16A
330
168
100
AcDbEntity
  8
0
100
AcDbBlockEnd
  0
BLOCK
  5
17D
330
17C
100
AcDbEntity
  8
0
100
AcDbBlockBegin
  2
_D_2
 70
     0
 10
0.0
 20
0.0
 30
0.0
  3
_D_2
  1
_D_2
  0
LINE
  5
17F
330
17C
100
AcDbEntity
  8
치수문자_일반주서
 62
     0
370
    -2
100
AcDbLine
 10
24.28749999999999
 20
3.146237631391747
 30
0.0
 11
24.28749999999999
 21
20.41145279401989
 31
0.0
  0
LINE
  5
180
330
17C
100
AcDbEntity
  8
치수문자_일반주서
 62
     0
370
    -2
100
AcDbLine
 10
9.999999999999988
 20
4.41835579613339
 30
0.0
 11
9.999999999999988
 21
20.41145279401989
 31
0.0
  0
LINE
  5
181
330
17C
100
AcDbEntity
  8
치수문자_일반주서
 62
     0
370
    -2
100
AcDbLine
 10
20.98549999999999
 20
20.41145279401989
 30
0.0
 11
13.30199999999999
 21
20.41145279401989
 31
0.0
  0
SOLID
  5
182
330
17C
100
AcDbEntity
  8
치수문자_일반주서
 62
     0
100
AcDbTrace
 10
20.98549999999999
 20
19.86111946068655
 30
0.0
 11
20.98549999999999
 21
20.96178612735322
 31
0.0
 12
24.28749999999999
 22
20.41145279401989
 32
0.0
 13
24.28749999999999
 23
20.41145279401989
 33
0.0
  0
SOLID
  5
183
330
17C
100
AcDbEntity
  8
치수문자_일반주서
 62
     0
100
AcDbTrace
 10
13.30199999999999
 20
20.96178612735322
 30
0.0
 11
13.30199999999999
 21
19.86111946068655
 31
0.0
 12
9.999999999999988
 22
20.41145279401989
 32
0.0
 13
9.999999999999988
 23
20.41145279401989
 33
0.0
  0
MTEXT
  5
184
330
17C
100
AcDbEntity
  8
치수문자_일반주서
 62
     0
100
AcDbMText
 10
17.14374999999998
 20
24.78645279401989
 30
0.0
 40
3.5
 41
0.0
 71
     2
 72
     1
  1
\A1;14.29 [9/16]
  7
SLDTEXTSTYLE0
 73
     1
 44
1.0
  0
POINT
  5
185
330
17C
100
AcDbEntity
  8
Defpoints
 62
     0
100
AcDbPoint
 10
24.28749999999999
 20
3.083737631391747
 30
0.0
  0
POINT
  5
186
330
17C
100
AcDbEntity
  8
Defpoints
 62
     0
100
AcDbPoint
 10
9.999999999999988
 20
4.35585579613339
 30
0.0
  0
POINT
  5
187
330
17C
100
AcDbEntity
  8
Defpoints
 62
     0
100
AcDbPoint
 10
9.999999999999988
 20
20.41145279401989
 30
0.0
  0
ENDBLK
  5
17E
330
17C
100
AcDbEntity
  8
0
100
AcDbBlockEnd
  0
BLOCK
  5
192
330
191
100
AcDbEntity
  8
0
100
AcDbBlockBegin
  2
_D_3
 70
     0
 10
0.0
 20
0.0
 30
0.0
  3
_D_3
  1
_D_3
  0
LINE
  5
194
330
191
100
AcDbEntity
  8
치수문자_일반주서
 62
     0
370
    -2
100
AcDbLine
 10
24.28749999999999
 20
3.689765076973848
 30
0.0
 11
24.28749999999999
 21
37.62464524059783
 31
0.0
  0
LINE
  5
195
330
191
100
AcDbEntity
  8
치수문자_일반주서
 62
     0
370
    -2
100
AcDbLine
 10
-39.21250000000001
 20
3.824999999999992
 30
0.0
 11
-39.21250000000001
 21
37.62464524059783
 31
0.0
  0
LINE
  5
196
330
191
100
AcDbEntity
  8
치수문자_일반주서
 62
     0
370
    -2
100
AcDbLine
 10
20.98549999999999
 20
37.62464524059783
 30
0.0
 11
-35.91050000000001
 21
37.62464524059783
 31
0.0
  0
SOLID
  5
197
330
191
100
AcDbEntity
  8
치수문자_일반주서
 62
     0
100
AcDbTrace
 10
20.98549999999999
 20
37.07431190726449
 30
0.0
 11
20.98549999999999
 21
38.17497857393116
 31
0.0
 12
24.28749999999999
 22
37.62464524059783
 32
0.0
 13
24.28749999999999
 23
37.62464524059783
 33
0.0
  0
SOLID
  5
198
330
191
100
AcDbEntity
  8
치수문자_일반주서
 62
     0
100
AcDbTrace
 10
-35.91050000000001
 20
38.17497857393116
 30
0.0
 11
-35.91050000000001
 21
37.07431190726449
 31
0.0
 12
-39.21250000000001
 22
37.62464524059783
 32
0.0
 13
-39.21250000000001
 23
37.62464524059783
 33
0.0
  0
MTEXT
  5
199
330
191
100
AcDbEntity
  8
치수문자_일반주서
 62
     0
100
AcDbMText
 10
-4.686213274302501
 20
41.99964524059783
 30
0.0
 40
3.5
 41
0.0
 71
     2
 72
     1
  1
\A1;63.50 [2 1/2]
  7
SLDTEXTSTYLE0
 73
     1
 44
1.0
  0
POINT
  5
19A
330
191
100
AcDbEntity
  8
Defpoints
 62
     0
100
AcDbPoint
 10
24.28749999999999
 20
3.627265076973848
 30
0.0
  0
POINT
  5
19B
330
191
100
AcDbEntity
  8
Defpoints
 62
     0
100
AcDbPoint
 10
-39.21250000000001
 20
3.762499999999992
 30
0.0
  0
POINT
  5
19C
330
191
100
AcDbEntity
  8
Defpoints
 62
     0
100
AcDbPoint
 10
-39.21250000000001
 20
37.62464524059783
 30
0.0
  0
ENDBLK
  5
193
330
191
100
AcDbEntity
  8
0
100
AcDbBlockEnd
  0
BLOCK
  5
1AB
330
1AA
100
AcDbEntity
  8
0
100
AcDbBlockBegin
  2
SW_DOWELSYMBOL_0
 70
     0
 10
0.0
 20
0.0
 30
0.0
  3
SW_DOWELSYMBOL_0
  1
SW_DOWELSYMBOL_0
  0
CIRCLE
  5
1AD
330
1AA
100
AcDbEntity
  8
해칭선
 62
     0
100
AcDbCircle
 10
0.0
 20
0.0
 30
0.0
 40
3.000000000000001
  0
HATCH
  5
1AE
330
1AA
100
AcDbEntity
  8
0
  6
Continuous
 62
     0
370
     0
100
AcDbHatch
 10
0.0
 20
0.0
 30
0.0
210
0.0
220
0.0
230
1.0
  2
SOLID
 70
     1
 71
     0
 91
        1
 92
        0
 93
        3
 72
     2
 10
0.0000000000000087
 20
-0.0000000000000035
 40
3.000000000000001
 50
0.0
 51
90.0
 73
     1
 72
     1
 10
0.0000000000000087
 20
2.999999999999998
 11
0.0000000000000087
 21
-0.0000000000000036
 72
     1
 10
0.0000000000000087
 20
-0.0000000000000035
 11
3.00000000000001
 21
-0.0000000000000035
 97
        0
 75
     0
 76
     1
 98
        1
 10
0.0
 20
0.0
  0
HATCH
  5
1AF
330
1AA
100
AcDbEntity
  8
0
  6
Continuous
 62
     0
370
     0
100
AcDbHatch
 10
0.0
 20
0.0
 30
0.0
210
0.0
220
0.0
230
1.0
  2
SOLID
 70
     1
 71
     0
 91
        1
 92
        0
 93
        3
 72
     2
 10
0.0000000000000087
 20
-0.0000000000000035
 40
3.000000000000001
 50
180.0
 51
270.0000000000008
 73
     1
 72
     1
 10
0.0000000000000087
 20
-3.000000000000005
 11
0.0000000000000087
 21
-0.0000000000000036
 72
     1
 10
0.0000000000000087
 20
-0.0000000000000035
 11
-2.999999999999993
 21
-0.0000000000000035
 97
        0
 75
     0
 76
     1
 98
        1
 10
0.0
 20
0.0
  0
ENDBLK
  5
1AC
330
1AA
100
AcDbEntity
  8
0
100
AcDbBlockEnd
  0
ENDSEC
  0
SECTION
  2
ENTITIES
  0
LINE
  5
96
330
1F
100
AcDbEntity
  8
외형선
  6
Continuous
370
    15
100
AcDbLine
 10
6.97990143310841
 20
4.762499999999998
 30
0.0
 11
-38.21249999999999
 21
4.762499999999992
 31
0.0
  0
LINE
  5
97
330
1F
100
AcDbEntity
  8
외형선
  6
Continuous
370
    15
100
AcDbLine
 10
9.765108509099052
 20
-4.762500000000002
 30
0.0
 11
9.999999999999991
 21
-4.762500000000002
 31
0.0
  0
LINE
  5
98
330
1F
100
AcDbEntity
  8
외형선
  6
Continuous
370
    15
100
AcDbLine
 10
-38.21249999999999
 20
-4.762500000000008
 30
0.0
 11
6.97990143310841
 21
-4.762500000000002
 31
0.0
  0
LINE
  5
99
330
1F
100
AcDbEntity
  8
외형선
  6
Continuous
370
    15
100
AcDbLine
 10
-38.21249999999999
 20
4.762499999999991
 30
0.0
 11
-39.21250000000001
 21
3.762499999999991
 31
0.0
  0
LINE
  5
9A
330
1F
100
AcDbEntity
  8
외형선
  6
Continuous
370
    15
100
AcDbLine
 10
-39.21250000000001
 20
-3.762500000000008
 30
0.0
 11
-38.21249999999999
 21
-4.762500000000009
 31
0.0
  0
SPLINE
  5
9B
330
1F
100
AcDbEntity
  8
외형선
  6
Continuous
 62
     1
370
    15
100
AcDbSpline
210
0.0
220
0.0
230
1.0
 70
     8
 71
     3
 72
    11
 73
     7
 74
     0
 42
0.000000001
 43
0.00000001
 40
0.0
 40
0.0
 40
0.0
 40
0.0
 40
0.2447594567014142
 40
0.4999608151818632
 40
0.7551780245989942
 40
1.0
 40
1.0
 40
1.0
 40
1.0
 10
10.22542741524206
 20
-4.708917356457322
 30
0.0
 10
10.26855526275295
 20
-4.679269755782899
 30
0.0
 10
10.35665087339522
 20
-4.618709731663162
 30
0.0
 10
10.52093052822559
 20
-4.589382502640678
 30
0.0
 10
10.68520486047685
 20
-4.612375853272511
 30
0.0
 10
10.77324994670584
 20
-4.66822998802878
 30
0.0
 10
10.81635731226715
 20
-4.695576484104515
 30
0.0
  0
SPLINE
  5
9C
330
1F
100
AcDbEntity
  8
외형선
  6
Continuous
 62
     1
370
    15
100
AcDbSpline
210
0.0
220
0.0
230
1.0
 70
     8
 71
     3
 72
     9
 73
     5
 74
     0
 42
0.000000001
 43
0.00000001
 40
0.0
 40
0.0
 40
0.0
 40
0.0
 40
0.4985030770062276
 40
0.9999999999999999
 40
0.9999999999999999
 40
0.9999999999999999
 40
0.9999999999999999
 10
10.81993399659781
 20
-4.69856049109145
 30
0.0
 10
10.84826214707489
 20
-4.717173855206512
 30
0.0
 10
10.9050885776101
 20
-4.754512369196929
 30
0.0
 10
10.97023916087661
 20
-4.759805635638923
 30
0.0
 10
11.00291197791601
 20
-4.762460192472168
 30
0.0
  0
LINE
  5
9D
330
1F
100
AcDbEntity
  8
외형선
  6
Continuous
 62
     1
370
    15
100
AcDbLine
 10
11.00106358186145
 20
-4.762500000000002
 30
0.0
 11
12.57497082773703
 21
-4.762500000000002
 31
0.0
  0
SPLINE
  5
9E
330
1F
100
AcDbEntity
  8
외형선
  6
Continuous
 62
     1
370
    15
100
AcDbSpline
210
0.0
220
0.0
230
1.0
 70
     8
 71
     3
 72
     9
 73
     5
 74
     0
 42
0.000000001
 43
0.00000001
 40
0.0
 40
0.0
 40
0.0
 40
0.0
 40
0.6605077779413513
 40
1.0
 40
1.0
 40
1.0
 40
1.0
 10
10.07520754817509
 20
-4.762499999999647
 30
0.0
 10
10.09722925167455
 20
-4.761636343094307
 30
0.0
 10
10.13056981818247
 20
-4.760328778014557
 30
0.0
 10
10.16216930598982
 20
-4.747514430126545
 30
0.0
 10
10.17289708632146
 20
-4.743164058687811
 30
0.0
  0
SPLINE
  5
9F
330
1F
100
AcDbEntity
  8
외형선
  6
Continuous
 62
     1
370
    15
100
AcDbSpline
210
0.0
220
0.0
230
1.0
 70
     8
 71
     3
 72
     9
 73
     5
 74
     0
 42
0.000000001
 43
0.00000001
 40
0.0
 40
0.0
 40
0.0
 40
0.0
 40
0.502500742050053
 40
0.9999999999999999
 40
0.9999999999999999
 40
0.9999999999999999
 40
0.9999999999999999
 10
12.57521826768926
 20
-4.762499998343893
 30
0.0
 10
12.60751483953633
 20
-4.759700866464594
 30
0.0
 10
12.67178652939556
 20
-4.754130462990403
 30
0.0
 10
12.72789364992197
 20
-4.717279470048799
 30
0.0
 10
12.75580690074957
 20
-4.698946128405634
 30
0.0
  0
SPLINE
  5
A0
330
1F
100
AcDbEntity
  8
외형선
  6
Continuous
 62
     1
370
    15
100
AcDbSpline
210
0.0
220
0.0
230
1.0
 70
     8
 71
     3
 72
    11
 73
     7
 74
     0
 42
0.000000001
 43
0.00000001
 40
0.0
 40
0.0
 40
0.0
 40
0.0
 40
0.2100834593102808
 40
0.4486074622329875
 40
0.7138782155481096
 40
0.9999999999999999
 40
0.9999999999999999
 40
0.9999999999999999
 40
0.9999999999999999
 10
12.7596293979291
 20
-4.695730470289547
 30
0.0
 10
12.79094832909285
 20
-4.675041219408429
 30
0.0
 10
12.85782606556646
 20
-4.630861861529652
 30
0.0
 10
13.00239749712542
 20
-4.595237722807084
 30
0.0
 10
13.17491082047077
 20
-4.608970539949411
 30
0.0
 10
13.26988029231771
 20
-4.667549406463261
 30
0.0
 10
13.31916067406416
 20
-4.697946426136376
 30
0.0
  0
SPLINE
  5
A1
330
1F
100
AcDbEntity
  8
외형선
  6
Continuous
 62
     1
370
    15
100
AcDbSpline
210
0.0
220
0.0
230
1.0
 70
     8
 71
     3
 72
     9
 73
     5
 74
     0
 42
0.000000001
 43
0.00000001
 40
0.0
 40
0.0
 40
0.0
 40
0.0
 40
0.4984634858399865
 40
1.0
 40
1.0
 40
1.0
 40
1.0
 10
13.31993257767611
 20
-4.698559380110606
 30
0.0
 10
13.34799005849688
 20
-4.717014192022098
 30
0.0
 10
13.40427799456003
 20
-4.754037589794939
 30
0.0
 10
13.46889104826844
 20
-4.75967341870262
 30
0.0
 10
13.50129685399459
 20
-4.762499992687379
 30
0.0
  0
LINE
  5
A2
330
1F
100
AcDbEntity
  8
외형선
  6
Continuous
 62
     1
370
    15
100
AcDbLine
 10
13.50121646899596
 20
-4.762500000000002
 30
0.0
 11
15.0749379654613
 21
-4.762500000000002
 31
0.0
  0
SPLINE
  5
A3
330
1F
100
AcDbEntity
  8
외형선
  6
Continuous
 62
     1
370
    15
100
AcDbSpline
210
0.0
220
0.0
230
1.0
 70
     8
 71
     3
 72
     9
 73
     5
 74
     0
 42
0.000000001
 43
0.00000001
 40
0.0
 40
0.0
 40
0.0
 40
0.0
 40
0.502500890645253
 40
1.0
 40
1.0
 40
1.0
 40
1.0
 10
15.07520604261774
 20
-4.762499999959051
 30
0.0
 10
15.10750380232058
 20
-4.759702237556652
 30
0.0
 10
15.17177783706181
 20
-4.754134561052025
 30
0.0
 10
15.22788734543619
 20
-4.717283507464265
 30
0.0
 10
15.25580177587878
 20
-4.69895014112557
 30
0.0
  0
SPLINE
  5
A4
330
1F
100
AcDbEntity
  8
외형선
  6
Continuous
 62
     1
370
    15
100
AcDbSpline
210
0.0
220
0.0
230
1.0
 70
     8
 71
     3
 72
    11
 73
     7
 74
     0
 42
0.000000001
 43
0.00000001
 40
0.0
 40
0.0
 40
0.0
 40
0.0
 40
0.2211681032689037
 40
0.4629605014348521
 40
0.72474350508592
 40
1.0
 40
1.0
 40
1.0
 40
1.0
 10
15.25850879836737
 20
-4.696719318511297
 30
0.0
 10
15.28919251466304
 20
-4.676128880700679
 30
0.0
 10
15.35342125502917
 20
-4.633027912375346
 30
0.0
 10
15.49863727147086
 20
-4.595414164900871
 30
0.0
 10
15.67212073102759
 20
-4.607635269798399
 30
0.0
 10
15.77040793326378
 20
-4.668182732059381
 30
0.0
 10
15.82078447140432
 20
-4.699215984329332
 30
0.0
  0
LINE
  5
A5
330
1F
100
AcDbEntity
  8
외형선
  6
Continuous
370
    15
100
AcDbLine
 10
9.999999999999991
 20
-4.762500000000002
 30
0.0
 11
10.07516325670758
 21
-4.762500000000002
 31
0.0
  0
SPLINE
  5
A6
330
1F
100
AcDbEntity
  8
외형선
  6
Continuous
 62
     1
370
    15
100
AcDbSpline
210
0.0
220
0.0
230
1.0
 70
     8
 71
     3
 72
     9
 73
     5
 74
     0
 42
0.000000001
 43
0.00000001
 40
0.0
 40
0.0
 40
0.0
 40
0.0
 40
0.498472119650328
 40
1.0
 40
1.0
 40
1.0
 40
1.0
 10
15.81931862726331
 20
-4.698073246259852
 30
0.0
 10
15.84747739904153
 20
-4.716668532230424
 30
0.0
 10
15.90396756302098
 20
-4.75397309799754
 30
0.0
 10
15.96878141015871
 20
-4.759651913368457
 30
0.0
 10
16.001287361531
 20
-4.762499997604331
 30
0.0
  0
LINE
  5
A7
330
1F
100
AcDbEntity
  8
외형선
  6
Continuous
 62
     1
370
    15
100
AcDbLine
 10
16.00126990236821
 20
-4.762500000000002
 30
0.0
 11
17.57483181108491
 21
-4.762500000000002
 31
0.0
  0
LINE
  5
A8
330
1F
100
AcDbEntity
  8
외형선
  6
Continuous
 62
     1
370
    15
100
AcDbLine
 10
24.28749999999999
 20
3.662499999999993
 30
0.0
 11
23.38108513318437
 21
4.568914866815616
 31
0.0
  0
SPLINE
  5
A9
330
1F
100
AcDbEntity
  8
외형선
  6
Continuous
 62
     1
370
    15
100
AcDbSpline
210
0.0
220
0.0
230
1.0
 70
     8
 71
     3
 72
     9
 73
     5
 74
     0
 42
0.000000001
 43
0.00000001
 40
0.0
 40
0.0
 40
0.0
 40
0.0
 40
0.5022793109023914
 40
1.0
 40
1.0
 40
1.0
 40
1.0
 10
17.57996882721073
 20
-4.762163018257307
 30
0.0
 10
17.61122129175435
 20
-4.759067771508404
 30
0.0
 10
17.67344257753151
 20
-4.752905370068174
 30
0.0
 10
17.72743656631471
 20
-4.717637487395386
 30
0.0
 10
17.75431049161901
 20
-4.700083932528472
 30
0.0
  0
LINE
  5
AA
330
1F
100
AcDbEntity
  8
외형선
  6
Continuous
 62
     1
370
    15
100
AcDbLine
 10
17.76715808083276
 20
-4.68808811672835
 30
0.0
 11
17.96994770475138
 21
-4.611052977845501
 31
0.0
  0
LINE
  5
AB
330
1F
100
AcDbEntity
  8
외형선
  6
Continuous
 62
     1
370
    15
100
AcDbLine
 10
17.99885511970331
 20
-4.607138873259521
 30
0.0
 11
18.11795032906454
 21
-4.626058956371377
 31
0.0
  0
LINE
  5
AC
330
1F
100
AcDbEntity
  8
외형선
  6
Continuous
370
    15
100
AcDbLine
 10
6.97990143310841
 20
4.762499999999998
 30
0.0
 11
6.97990143310841
 21
4.680810158038059
 31
0.0
  0
SPLINE
  5
AD
330
1F
100
AcDbEntity
  8
외형선
  6
Continuous
370
    15
100
AcDbSpline
210
0.0
220
0.0
230
1.0
 70
     8
 71
     3
 72
    10
 73
     6
 74
     0
 42
0.000000001
 43
0.00000001
 40
0.0
 40
0.0
 40
0.0
 40
0.0
 40
0.5
 40
0.5
 40
1.0
 40
1.0
 40
1.0
 40
1.0
 10
10.00000000000001
 20
4.355855796133383
 30
0.0
 10
9.495617418662363
 20
4.429968005996164
 30
0.0
 10
8.994441813531877
 20
4.494253320917498
 30
0.0
 10
7.989170855157487
 20
4.602780913785709
 30
0.0
 10
7.483524500471344
 20
4.647035681433444
 30
0.0
 10
6.97990143310841
 20
4.680820719381302
 30
0.0
  0
LINE
  5
AE
330
1F
100
AcDbEntity
  8
외형선
  6
Continuous
370
    15
100
AcDbLine
 10
9.999999999999988
 20
4.35585579613339
 30
0.0
 11
9.999999999999991
 21
2.306754366424196
 31
0.0
  0
SPLINE
  5
AF
330
1F
100
AcDbEntity
  8
외형선
  6
Continuous
370
    15
100
AcDbSpline
210
0.0
220
0.0
230
1.0
 70
     8
 71
     3
 72
    10
 73
     6
 74
     0
 42
0.000000001
 43
0.00000001
 40
0.0
 40
0.0
 40
0.0
 40
0.0
 40
0.5
 40
0.5
 40
1.0
 40
1.0
 40
1.0
 40
1.0
 10
10.00000000000001
 20
2.306754366424189
 30
0.0
 10
9.495617418662366
 20
2.467116821860855
 30
0.0
 10
8.994441813531877
 20
2.622017792432257
 30
0.0
 10
7.989170855157483
 20
2.919832837214199
 30
0.0
 10
7.483524500471344
 20
3.062873376493799
 30
0.0
 10
6.97990143310841
 20
3.198609686228481
 30
0.0
  0
SPLINE
  5
B0
330
1F
100
AcDbEntity
  8
외형선
  6
Continuous
370
    15
100
AcDbSpline
210
0.0
220
0.0
230
1.0
 70
     8
 71
     3
 72
    10
 73
     6
 74
     0
 42
0.000000001
 43
0.00000001
 40
0.0
 40
0.0
 40
0.0
 40
0.0
 40
0.5
 40
0.5
 40
1.0
 40
1.0
 40
1.0
 40
1.0
 10
10.00000000000001
 20
-3.845544430716936
 30
0.0
 10
9.495617418662366
 20
-3.737413336174774
 30
0.0
 10
8.99444181353188
 20
-3.620975484421802
 30
0.0
 10
7.989170855157487
 20
-3.372371862102868
 30
0.0
 10
7.483524500471346
 20
-3.24004536813568
 30
0.0
 10
6.97990143310841
 20
-3.100997456779495
 30
0.0
  0
LINE
  5
B1
330
1F
100
AcDbEntity
  8
외형선
  6
Continuous
370
    15
100
AcDbLine
 10
9.999999999999991
 20
-3.84554443071693
 30
0.0
 11
9.999999999999991
 21
-4.762500000000002
 31
0.0
  0
SPLINE
  5
B2
330
1F
100
AcDbEntity
  8
외형선
  6
Continuous
370
    15
100
AcDbSpline
210
0.0
220
0.0
230
1.0
 70
     8
 71
     3
 72
     9
 73
     5
 74
     0
 42
0.000000001
 43
0.00000001
 40
0.0
 40
0.0
 40
0.0
 40
0.0
 40
0.6077081457008183
 40
1.0
 40
1.0
 40
1.0
 40
1.0
 10
6.97990143310841
 20
-4.655074262405241
 30
0.0
 10
7.54417140067664
 20
-4.692501208808831
 30
0.0
 10
8.472692717298953
 20
-4.754088249674357
 30
0.0
 10
9.400957712751827
 20
-4.75756481990238
 30
0.0
 10
9.765108509099056
 20
-4.758928650083734
 30
0.0
  0
LINE
  5
B3
330
1F
100
AcDbEntity
  8
외형선
  6
Continuous
370
    15
100
AcDbLine
 10
6.97990143310841
 20
-4.655072675988095
 30
0.0
 11
6.97990143310841
 21
-4.762500000000002
 31
0.0
  0
LINE
  5
B4
330
1F
100
AcDbEntity
  8
외형선
  6
Continuous
370
    15
100
AcDbLine
 10
-38.21249999999999
 20
4.762499999999992
 30
0.0
 11
-38.21249999999999
 21
-4.762500000000001
 31
0.0
  0
LINE
  5
B5
330
1F
100
AcDbEntity
  8
외형선
  6
Continuous
370
    15
100
AcDbLine
 10
6.97990143310841
 20
3.198615251440938
 30
0.0
 11
6.97990143310841
 21
-3.101040922117299
 31
0.0
  0
LINE
  5
B6
330
1F
100
AcDbEntity
  8
외형선
  6
Continuous
370
    15
100
AcDbLine
 10
-39.21250000000001
 20
3.762499999999992
 30
0.0
 11
-39.21250000000001
 21
-3.762500000000008
 31
0.0
  0
SPLINE
  5
B7
330
1F
100
AcDbEntity
  8
외형선
  6
Continuous
370
    15
100
AcDbSpline
210
0.0
220
0.0
230
1.0
 70
    24
 71
     3
 72
    18
 73
    14
 74
     0
 42
0.000000001
 43
0.00000001
 40
0.0
 40
0.0
 40
0.0
 40
0.0
 40
0.25
 40
0.25
 40
0.5
 40
0.5
 40
0.625
 40
0.625
 40
0.75
 40
0.75
 40
0.875
 40
0.875
 40
1.0
 40
1.0
 40
1.0
 40
1.0
 10
9.999999999999991
 20
2.306754366424196
 30
0.0
 10
9.999999999999991
 20
2.080887788862135
 30
0.0
 10
9.999999999999991
 20
1.791705958521918
 30
0.0
 10
9.999999999999991
 20
1.041936957725146
 30
0.0
 10
9.999999999999991
 20
0.5791712860961539
 30
0.0
 10
9.999999999999991
 20
-0.2470070452680082
 30
0.0
 10
9.999999999999991
 20
-0.5438263334762924
 30
0.0
 10
9.999999999999991
 20
-1.170419224329612
 30
0.0
 10
9.999999999999991
 20
-1.500189960080967
 30
0.0
 10
9.999999999999991
 20
-2.174413826531517
 30
0.0
 10
9.999999999999991
 20
-2.518752733757061
 30
0.0
 10
9.999999999999991
 20
-3.196963811419546
 30
0.0
 10
9.999999999999991
 20
-3.530625708532139
 30
0.0
 10
9.999999999999991
 20
-3.845544430716934
 30
0.0
  0
SPLINE
  5
B8
330
1F
100
AcDbEntity
  8
외형선
  6
Continuous
 62
     1
370
    15
100
AcDbSpline
210
0.0
220
0.0
230
1.0
 70
     8
 71
     3
 72
     8
 73
     4
 74
     0
 42
0.000000001
 43
0.00000001
 40
0.0
 40
0.0
 40
0.0
 40
0.0
 40
1.0
 40
1.0
 40
1.0
 40
1.0
 10
23.07176830259851
 20
-2.255390672490864
 30
0.0
 10
23.01585889099069
 20
-2.237496407403754
 30
0.0
 10
22.95963109294188
 20
-2.212926907701031
 30
0.0
 10
22.91334386048
 20
-2.186060689413071
 30
0.0
  0
SPLINE
  5
B9
330
1F
100
AcDbEntity
  8
외형선
  6
Continuous
 62
     1
370
    15
100
AcDbSpline
210
0.0
220
0.0
230
1.0
 70
     8
 71
     3
 72
    12
 73
     8
 74
     0
 42
0.000000001
 43
0.00000001
 40
0.0
 40
0.0
 40
0.0
 40
0.0
 40
0.5
 40
0.5
 40
0.75
 40
0.75
 40
1.0
 40
1.0
 40
1.0
 40
1.0
 10
22.91334377494854
 20
-2.186059763836195
 30
0.0
 10
22.87078808933327
 20
-1.725552017886358
 30
0.0
 10
22.82480332501661
 20
-1.211793886568548
 30
0.0
 10
22.7562379693399
 20
-0.4217475122117338
 30
0.0
 10
22.73346905445805
 20
-0.1554444337279458
 30
0.0
 10
22.68905578548609
 20
0.3717114361142738
 30
0.0
 10
22.6679737092313
 20
0.6303322873686465
 30
0.0
 10
22.64628162127962
 20
0.8872608443422064
 30
0.0
  0
SPLINE
  5
BA
330
1F
100
AcDbEntity
  8
외형선
  6
Continuous
 62
     1
370
    15
100
AcDbSpline
210
0.0
220
0.0
230
1.0
 70
     8
 71
     3
 72
     8
 73
     4
 74
     0
 42
0.000000001
 43
0.00000001
 40
0.0
 40
0.0
 40
0.0
 40
0.0
 40
1.0
 40
1.0
 40
1.0
 40
1.0
 10
22.64628162127578
 20
0.8872608443931608
 30
0.0
 10
22.69220098082874
 20
0.872849092246995
 30
0.0
 10
22.74830573255887
 20
0.8538800947814406
 30
0.0
 10
22.80595699299221
 20
0.8332512541856308
 30
0.0
  0
SPLINE
  5
BB
330
1F
100
AcDbEntity
  8
외형선
  6
Continuous
 62
     1
370
    15
100
AcDbSpline
210
0.0
220
0.0
230
1.0
 70
     8
 71
     3
 72
    12
 73
     8
 74
     0
 42
0.000000001
 43
0.00000001
 40
0.0
 40
0.0
 40
0.0
 40
0.0
 40
0.5
 40
0.5
 40
0.75
 40
0.75
 40
1.0
 40
1.0
 40
1.0
 40
1.0
 10
23.07176767944476
 20
-2.255383888285819
 30
0.0
 10
23.02943060161287
 20
-1.794464880039826
 30
0.0
 10
22.98397115699088
 20
-1.28050706419794
 30
0.0
 10
22.9156885021649
 20
-0.4865382362318012
 30
0.0
 10
22.89297691247616
 20
-0.2184991173089869
 30
0.0
 10
22.84859807845898
 20
0.3129859897383422
 30
0.0
 10
22.82742887779168
 20
0.5744174955787752
 30
0.0
 10
22.80595722860865
 20
0.8332484139445627
 30
0.0
  0
SPLINE
  5
BC
330
1F
100
AcDbEntity
  8
외형선
  6
Continuous
 62
     1
370
    15
100
AcDbSpline
210
0.0
220
0.0
230
1.0
 70
     8
 71
     3
 72
     8
 73
     4
 74
     0
 42
0.000000001
 43
0.00000001
 40
0.0
 40
0.0
 40
0.0
 40
0.0
 40
1.0
 40
1.0
 40
1.0
 40
1.0
 10
22.27710581559978
 20
-1.980958043627176
 30
0.0
 10
22.23117250655831
 20
-1.976170378944126
 30
0.0
 10
22.17505360505378
 20
-1.963179569681861
 30
0.0
 10
22.11739520385142
 20
-1.944008525526856
 30
0.0
  0
SPLINE
  5
BD
330
1F
100
AcDbEntity
  8
외형선
  6
Continuous
 62
     1
370
    15
100
AcDbSpline
210
0.0
220
0.0
230
1.0
 70
     8
 71
     3
 72
    12
 73
     8
 74
     0
 42
0.000000001
 43
0.00000001
 40
0.0
 40
0.0
 40
0.0
 40
0.0
 40
0.5000000000000001
 40
0.5000000000000001
 40
0.75
 40
0.75
 40
1.0
 40
1.0
 40
1.0
 40
1.0
 10
22.11739492949762
 20
-1.944005485302195
 30
0.0
 10
22.07391864292292
 20
-1.462222225914834
 30
0.0
 10
22.027676321502
 20
-0.9336330296846808
 30
0.0
 10
21.95982757152023
 20
-0.1343928990602253
 30
0.0
 10
21.93747483520299
 20
0.132867859886051
 30
0.0
 10
21.89419333379444
 20
0.6580193512751698
 30
0.0
 10
21.87328540200778
 20
0.9159008475820184
 30
0.0
 10
21.85123991998147
 20
1.17283937896704
 30
0.0
  0
SPLINE
  5
BE
330
1F
100
AcDbEntity
  8
외형선
  6
Continuous
 62
     1
370
    15
100
AcDbSpline
210
0.0
220
0.0
230
1.0
 70
     8
 71
     3
 72
     8
 73
     4
 74
     0
 42
0.000000001
 43
0.00000001
 40
0.0
 40
0.0
 40
0.0
 40
0.0
 40
1.0
 40
1.0
 40
1.0
 40
1.0
 10
21.85123986892552
 20
1.172839974020485
 30
0.0
 10
21.90718203456902
 20
1.153060943635875
 30
0.0
 10
21.96345793169698
 20
1.130863910092692
 30
0.0
 10
22.00979618709905
 20
1.111047492443264
 30
0.0
  0
SPLINE
  5
BF
330
1F
100
AcDbEntity
  8
외형선
  6
Continuous
 62
     1
370
    15
100
AcDbSpline
210
0.0
220
0.0
230
1.0
 70
     8
 71
     3
 72
    12
 73
     8
 74
     0
 42
0.000000001
 43
0.00000001
 40
0.0
 40
0.0
 40
0.0
 40
0.0
 40
0.5
 40
0.5
 40
0.75
 40
0.75
 40
1.0
 40
1.0
 40
1.0
 40
1.0
 10
22.27710581553989
 20
-1.980958042972562
 30
0.0
 10
22.23365619141455
 20
-1.506146017720176
 30
0.0
 10
22.18727015750588
 20
-0.9831169085490046
 30
0.0
 10
22.11899774935272
 20
-0.1896051535593324
 30
0.0
 10
22.0964706914818
 20
0.0761650610105337
 30
0.0
 10
22.05279634894104
 20
0.5990781593047697
 30
0.0
 10
22.03186971267162
 20
0.8554090914465701
 30
0.0
 10
22.00979618709808
 20
1.111047492443982
 30
0.0
  0
SPLINE
  5
C0
330
1F
100
AcDbEntity
  8
외형선
  6
Continuous
 62
     1
370
    15
100
AcDbSpline
210
0.0
220
0.0
230
1.0
 70
     8
 71
     3
 72
    10
 73
     6
 74
     0
 42
0.000000001
 43
0.00000001
 40
0.0
 40
0.0
 40
0.0
 40
0.0
 40
0.5
 40
0.5
 40
1.0
 40
1.0
 40
1.0
 40
1.0
 10
22.91334386048137
 20
-2.186060689412401
 30
0.0
 10
22.81915059805128
 20
-2.131388663993782
 30
0.0
 10
22.70481023739508
 20
-2.085462983374358
 30
0.0
 10
22.4769704866993
 20
-2.014524864148723
 30
0.0
 10
22.36764422886113
 20
-1.990394933167165
 30
0.0
 10
22.27710581559979
 20
-1.980958043627175
 30
0.0
  0
SPLINE
  5
C1
330
1F
100
AcDbEntity
  8
외형선
  6
Continuous
 62
     1
370
    15
100
AcDbSpline
210
0.0
220
0.0
230
1.0
 70
     8
 71
     3
 72
    10
 73
     6
 74
     0
 42
0.000000001
 43
0.00000001
 40
0.0
 40
0.0
 40
0.0
 40
0.0
 40
0.5
 40
0.5
 40
1.0
 40
1.0
 40
1.0
 40
1.0
 10
22.00979618709815
 20
1.111047492443151
 30
0.0
 10
22.10403321004687
 20
1.0707473087485
 30
0.0
 10
22.21839868147108
 20
1.03002175701374
 30
0.0
 10
22.44629138575054
 20
0.951895218245126
 30
0.0
 10
22.5556979645757
 20
0.915690448411007
 30
0.0
 10
22.64628162127532
 20
0.8872608443930955
 30
0.0
  0
SPLINE
  5
C2
330
1F
100
AcDbEntity
  8
외형선
  6
Continuous
 62
     1
370
    15
100
AcDbSpline
210
0.0
220
0.0
230
1.0
 70
     8
 71
     3
 72
     8
 73
     4
 74
     0
 42
0.000000001
 43
0.00000001
 40
0.0
 40
0.0
 40
0.0
 40
0.0
 40
1.0
 40
1.0
 40
1.0
 40
1.0
 10
20.49413231319775
 20
-1.390799889876763
 30
0.0
 10
20.43816636481353
 20
-1.37134897604836
 30
0.0
 10
20.38187383385782
 20
-1.348626384667868
 30
0.0
 10
20.3355251088516
 20
-1.327362100290766
 30
0.0
  0
SPLINE
  5
C3
330
1F
100
AcDbEntity
  8
외형선
  6
Continuous
 62
     1
370
    15
100
AcDbSpline
210
0.0
220
0.0
230
1.0
 70
     8
 71
     3
 72
    12
 73
     8
 74
     0
 42
0.000000001
 43
0.00000001
 40
0.0
 40
0.0
 40
0.0
 40
0.0
 40
0.5
 40
0.5
 40
0.75
 40
0.75
 40
1.0
 40
1.0
 40
1.0
 40
1.0
 10
20.33552510885009
 20
-1.32736210025747
 30
0.0
 10
20.29026167188396
 20
-0.8186414075648629
 30
0.0
 10
20.24373196097965
 20
-0.2796059076159469
 30
0.0
 10
20.17780656086308
 20
0.5069331696491602
 30
0.0
 10
20.15693289311961
 20
0.7636414851050489
 30
0.0
 10
20.11312167117502
 20
1.275717409573297
 30
0.0
 10
20.09055483360802
 20
1.529536900538192
 30
0.0
 10
20.06778911497333
 20
1.775563220980379
 30
0.0
  0
SPLINE
  5
C4
330
1F
100
AcDbEntity
  8
외형선
  6
Continuous
 62
     1
370
    15
100
AcDbSpline
210
0.0
220
0.0
230
1.0
 70
     8
 71
     3
 72
     8
 73
     4
 74
     0
 42
0.000000001
 43
0.00000001
 40
0.0
 40
0.0
 40
0.0
 40
0.0
 40
1.0
 40
1.0
 40
1.0
 40
1.0
 10
20.06778911497059
 20
1.775563221014993
 30
0.0
 10
20.1137774985417
 20
1.768857565297377
 30
0.0
 10
20.16994633072126
 20
1.754637388138358
 30
0.0
 10
20.22765741075862
 20
1.735104921661259
 30
0.0
  0
SPLINE
  5
C5
330
1F
100
AcDbEntity
  8
외형선
  6
Continuous
 62
     1
370
    15
100
AcDbSpline
210
0.0
220
0.0
230
1.0
 70
     8
 71
     3
 72
    12
 73
     8
 74
     0
 42
0.000000001
 43
0.00000001
 40
0.0
 40
0.0
 40
0.0
 40
0.0
 40
0.5
 40
0.5
 40
0.75
 40
0.75
 40
1.0
 40
1.0
 40
1.0
 40
1.0
 10
20.49413219977912
 20
-1.390798603204211
 30
0.0
 10
20.44915732241861
 20
-0.880585174095084
 30
0.0
 10
20.40280314725438
 20
-0.3386080517254024
 30
0.0
 10
20.33691109957609
 20
0.4547343716054478
 30
0.0
 10
20.31608600670087
 20
0.7137584199265449
 30
0.0
 10
20.27267743861328
 20
1.229906383204638
 30
0.0
 10
20.25028556118409
 20
1.486187720321984
 30
0.0
 10
20.22765733210821
 20
1.735105786848051
 30
0.0
  0
SPLINE
  5
C6
330
1F
100
AcDbEntity
  8
외형선
  6
Continuous
 62
     1
370
    15
100
AcDbSpline
210
0.0
220
0.0
230
1.0
 70
     8
 71
     3
 72
     8
 73
     4
 74
     0
 42
0.000000001
 43
0.00000001
 40
0.0
 40
0.0
 40
0.0
 40
0.0
 40
1.0
 40
1.0
 40
1.0
 40
1.0
 10
19.69855148577746
 20
-1.106151670081426
 30
0.0
 10
19.65255477010756
 20
-1.093519833404897
 30
0.0
 10
19.59637958788845
 20
-1.075583603987907
 30
0.0
 10
19.53866775452834
 20
-1.055085205297993
 30
0.0
  0
SPLINE
  5
C7
330
1F
100
AcDbEntity
  8
외형선
  6
Continuous
 62
     1
370
    15
100
AcDbSpline
210
0.0
220
0.0
230
1.0
 70
     8
 71
     3
 72
    12
 73
     8
 74
     0
 42
0.000000001
 43
0.00000001
 40
0.0
 40
0.0
 40
0.0
 40
0.0
 40
0.5
 40
0.5
 40
0.75
 40
0.75
 40
1.0
 40
1.0
 40
1.0
 40
1.0
 10
19.53866764958047
 20
-1.055083998985657
 30
0.0
 10
19.49327157814236
 20
-0.5332690812289151
 30
0.0
 10
19.44735943079333
 20
0.0105784706734842
 30
0.0
 10
19.38325520547049
 20
0.792444793410274
 30
0.0
 10
19.36196468929771
 20
1.050391128900479
 30
0.0
 10
19.31753611048057
 20
1.56132235327886
 30
0.0
 10
19.29482355160443
 20
1.812551241245264
 30
0.0
 10
19.27208585931846
 20
2.054082480383726
 30
0.0
  0
SPLINE
  5
C8
330
1F
100
AcDbEntity
  8
외형선
  6
Continuous
 62
     1
370
    15
100
AcDbSpline
210
0.0
220
0.0
230
1.0
 70
     8
 71
     3
 72
     8
 73
     4
 74
     0
 42
0.000000001
 43
0.00000001
 40
0.0
 40
0.0
 40
0.0
 40
0.0
 40
1.0
 40
1.0
 40
1.0
 40
1.0
 10
19.27208591723448
 20
2.054081865170505
 30
0.0
 10
19.32805818865074
 20
2.035658892923186
 30
0.0
 10
19.38436836870416
 20
2.011372086478612
 30
0.0
 10
19.43074007829003
 20
1.985695018442741
 30
0.0
  0
SPLINE
  5
C9
330
1F
100
AcDbEntity
  8
외형선
  6
Continuous
 62
     1
370
    15
100
AcDbSpline
210
0.0
220
0.0
230
1.0
 70
     8
 71
     3
 72
    12
 73
     8
 74
     0
 42
0.000000001
 43
0.00000001
 40
0.0
 40
0.0
 40
0.0
 40
0.0
 40
0.5
 40
0.5
 40
0.75
 40
0.75
 40
1.0
 40
1.0
 40
1.0
 40
1.0
 10
19.69855148571163
 20
-1.106151669334821
 30
0.0
 10
19.65300107989058
 20
-0.5896930006168386
 30
0.0
 10
19.60676530970941
 20
-0.0493913801857433
 30
0.0
 10
19.54203809711669
 20
0.7295388134341491
 30
0.0
 10
19.52084821658404
 20
0.9855493649072103
 30
0.0
 10
19.47635616406876
 20
1.494140010901793
 30
0.0
 10
19.45357645237032
 20
1.744590034513675
 30
0.0
 10
19.43074007829217
 20
1.985695018409311
 30
0.0
  0
SPLINE
  5
CA
330
1F
100
AcDbEntity
  8
외형선
  6
Continuous
 62
     1
370
    15
100
AcDbSpline
210
0.0
220
0.0
230
1.0
 70
     8
 71
     3
 72
     8
 73
     4
 74
     0
 42
0.000000001
 43
0.00000001
 40
0.0
 40
0.0
 40
0.0
 40
0.0
 40
1.0
 40
1.0
 40
1.0
 40
1.0
 10
22.11739276044064
 20
-1.944007713107792
 30
0.0
 10
21.57643584906367
 20
-1.764143033970706
 30
0.0
 10
21.03693928840423
 20
-1.579451956378089
 30
0.0
 10
20.49413183348997
 20
-1.390799723154612
 30
0.0
  0
SPLINE
  5
CB
330
1F
100
AcDbEntity
  8
외형선
  6
Continuous
 62
     1
370
    15
100
AcDbSpline
210
0.0
220
0.0
230
1.0
 70
     8
 71
     3
 72
     8
 73
     4
 74
     0
 42
0.000000001
 43
0.00000001
 40
0.0
 40
0.0
 40
0.0
 40
0.0
 40
1.0
 40
1.0
 40
1.0
 40
1.0
 10
21.85124743089751
 20
1.172837300393547
 30
0.0
 10
21.31186740539173
 20
1.363541661149735
 30
0.0
 10
20.77008065327536
 20
1.551520352451222
 30
0.0
 10
20.2276573000191
 20
1.735104959140646
 30
0.0
  0
LINE
  5
CC
330
1F
100
AcDbEntity
  8
외형선
  6
Continuous
 62
     1
370
    15
100
AcDbLine
 10
23.18749999999999
 20
-2.292344466239643
 30
0.0
 11
23.18749999999998
 21
0.6964038558618463
 31
0.0
  0
SPLINE
  5
CD
330
1F
100
AcDbEntity
  8
외형선
  6
Continuous
 62
     1
370
    15
100
AcDbSpline
210
0.0
220
0.0
230
1.0
 70
     8
 71
     3
 72
     8
 73
     4
 74
     0
 42
0.000000001
 43
0.00000001
 40
0.0
 40
0.0
 40
0.0
 40
0.0
 40
1.0
 40
1.0
 40
1.0
 40
1.0
 10
23.18749999999999
 20
-2.292344466239642
 30
0.0
 10
23.14892516919547
 20
-2.280056330478175
 30
0.0
 10
23.11034673936068
 20
-2.267738017806675
 30
0.0
 10
23.07176696665617
 20
-2.255390244911418
 30
0.0
  0
SPLINE
  5
CE
330
1F
100
AcDbEntity
  8
외형선
  6
Continuous
 62
     1
370
    15
100
AcDbSpline
210
0.0
220
0.0
230
1.0
 70
     8
 71
     3
 72
     8
 73
     4
 74
     0
 42
0.000000001
 43
0.00000001
 40
0.0
 40
0.0
 40
0.0
 40
0.0
 40
1.0
 40
1.0
 40
1.0
 40
1.0
 10
23.18749999999998
 20
0.6964038558618478
 30
0.0
 10
23.06032959285576
 20
0.7421235909811604
 30
0.0
 10
22.93312006870923
 20
0.7877496182222922
 30
0.0
 10
22.80595227673991
 20
0.8332529417602869
 30
0.0
  0
SPLINE
  5
CF
330
1F
100
AcDbEntity
  8
외형선
  6
Continuous
 62
     1
370
    15
100
AcDbSpline
210
0.0
220
0.0
230
1.0
 70
     8
 71
     3
 72
     8
 73
     4
 74
     0
 42
0.000000001
 43
0.00000001
 40
0.0
 40
0.0
 40
0.0
 40
0.0
 40
1.0
 40
1.0
 40
1.0
 40
1.0
 10
16.95915113651946
 20
-0.1250277130960339
 30
0.0
 10
16.41839036303946
 20
0.0718797320325558
 30
0.0
 10
15.87885751237772
 20
0.2689596605935728
 30
0.0
 10
15.33615766877879
 20
0.4652268691010234
 30
0.0
  0
SPLINE
  5
D0
330
1F
100
AcDbEntity
  8
외형선
  6
Continuous
 62
     1
370
    15
100
AcDbSpline
210
0.0
220
0.0
230
1.0
 70
     8
 71
     3
 72
    12
 73
     8
 74
     0
 42
0.000000001
 43
0.00000001
 40
0.0
 40
0.0
 40
0.0
 40
0.0
 40
0.2499999999999999
 40
0.2499999999999999
 40
0.4999999999999998
 40
0.4999999999999998
 40
1.0
 40
1.0
 40
1.0
 40
1.0
 10
15.33615740083529
 20
0.4652259561498089
 30
0.0
 10
15.31463620866711
 20
0.7270460447106116
 30
0.0
 10
15.29355097864064
 20
0.9850504975155475
 30
0.0
 10
15.24924469414592
 20
1.497893777422779
 30
0.0
 10
15.22655425730376
 20
1.750544939768677
 30
0.0
 10
15.15828534612883
 20
2.480650846658909
 30
0.0
 10
15.11258043647937
 20
2.9287181340649
 30
0.0
 10
15.07032110657566
 20
3.305252078660895
 30
0.0
  0
SPLINE
  5
D1
330
1F
100
AcDbEntity
  8
외형선
  6
Continuous
 62
     1
370
    15
100
AcDbSpline
210
0.0
220
0.0
230
1.0
 70
     8
 71
     3
 72
     8
 73
     4
 74
     0
 42
0.000000001
 43
0.00000001
 40
0.0
 40
0.0
 40
0.0
 40
0.0
 40
1.0
 40
1.0
 40
1.0
 40
1.0
 10
16.69280528363347
 20
2.855811859278588
 30
0.0
 10
16.15394018367879
 20
3.013146661797893
 30
0.0
 10
15.6123182888052
 20
3.163432695373664
 30
0.0
 10
15.07032115304892
 20
3.305252515583983
 30
0.0
  0
SPLINE
  5
D2
330
1F
100
AcDbEntity
  8
외형선
  6
Continuous
 62
     1
370
    15
100
AcDbSpline
210
0.0
220
0.0
230
1.0
 70
     8
 71
     3
 72
    10
 73
     6
 74
     0
 42
0.000000001
 43
0.00000001
 40
0.0
 40
0.0
 40
0.0
 40
0.0
 40
0.5
 40
0.5
 40
1.0
 40
1.0
 40
1.0
 40
1.0
 10
16.95915109487531
 20
-0.1250278382885308
 30
0.0
 10
16.91440148362989
 20
0.4074946094240132
 30
0.0
 10
16.87304187205999
 20
0.9289410431994588
 30
0.0
 10
16.78352379719951
 20
1.944778149051481
 30
0.0
 10
16.73708925513004
 20
2.430980581391812
 30
0.0
 10
16.69280499391978
 20
2.855811334329911
 30
0.0
  0
SPLINE
  5
D3
330
1F
100
AcDbEntity
  8
외형선
  6
Continuous
 62
     1
370
    15
100
AcDbSpline
210
0.0
220
0.0
230
1.0
 70
     8
 71
     3
 72
     8
 73
     4
 74
     0
 42
0.000000001
 43
0.00000001
 40
0.0
 40
0.0
 40
0.0
 40
0.0
 40
1.0
 40
1.0
 40
1.0
 40
1.0
 10
19.53866737649108
 20
-1.055085071024416
 30
0.0
 10
18.9974728571137
 20
-0.862860695606815
 30
0.0
 10
18.45762611980757
 20
-0.6680853053349798
 30
0.0
 10
17.91453716161261
 20
-0.4717034247857019
 30
0.0
  0
SPLINE
  5
D4
330
1F
100
AcDbEntity
  8
외형선
  6
Continuous
 62
     1
370
    15
100
AcDbSpline
210
0.0
220
0.0
230
1.0
 70
     8
 71
     3
 72
    12
 73
     8
 74
     0
 42
0.000000001
 43
0.00000001
 40
0.0
 40
0.0
 40
0.0
 40
0.0
 40
0.25
 40
0.25
 40
0.5
 40
0.5
 40
1.0
 40
1.0
 40
1.0
 40
1.0
 10
17.91453720427814
 20
-0.4717032347205
 30
0.0
 10
17.89189451471047
 20
-0.2056751767539716
 30
0.0
 10
17.86947218263427
 20
0.0617101256672855
 30
0.0
 10
17.82597484821679
 20
0.5880729862301106
 30
0.0
 10
17.80517644350227
 20
0.8459996143726415
 30
0.0
 10
17.73940533682929
 20
1.617899587831188
 30
0.0
 10
17.69307202510423
 20
2.120954020753987
 30
0.0
 10
17.64805288584361
 20
2.570208386808312
 30
0.0
  0
SPLINE
  5
D5
330
1F
100
AcDbEntity
  8
외형선
  6
Continuous
 62
     1
370
    15
100
AcDbSpline
210
0.0
220
0.0
230
1.0
 70
     8
 71
     3
 72
     8
 73
     4
 74
     0
 42
0.000000001
 43
0.00000001
 40
0.0
 40
0.0
 40
0.0
 40
0.0
 40
1.0
 40
1.0
 40
1.0
 40
1.0
 10
19.27208591139307
 20
2.054081867093168
 30
0.0
 10
18.73263241484409
 20
2.231640085518851
 30
0.0
 10
18.19059448799958
 20
2.404208744471233
 30
0.0
 10
17.6480527135823
 20
2.570208252415774
 30
0.0
  0
SPLINE
  5
D6
330
1F
100
AcDbEntity
  8
외형선
  6
Continuous
 62
     1
370
    15
100
AcDbSpline
210
0.0
220
0.0
230
1.0
 70
     8
 71
     3
 72
    10
 73
     6
 74
     0
 42
0.000000001
 43
0.00000001
 40
0.0
 40
0.0
 40
0.0
 40
0.0
 40
0.5
 40
0.5
 40
1.0
 40
1.0
 40
1.0
 40
1.0
 10
20.33552510885305
 20
-1.327362100290761
 30
0.0
 10
20.24120595551087
 20
-1.284089511916226
 30
0.0
 10
20.12673798677905
 20
-1.242181408384883
 30
0.0
 10
19.89867628607401
 20
-1.165090172184717
 30
0.0
 10
19.78922219228542
 20
-1.131052090454338
 30
0.0
 10
19.69855148577747
 20
-1.106151670081424
 30
0.0
  0
SPLINE
  5
D7
330
1F
100
AcDbEntity
  8
외형선
  6
Continuous
 62
     1
370
    15
100
AcDbSpline
210
0.0
220
0.0
230
1.0
 70
     8
 71
     3
 72
    10
 73
     6
 74
     0
 42
0.000000001
 43
0.00000001
 40
0.0
 40
0.0
 40
0.0
 40
0.0
 40
0.5
 40
0.5
 40
1.0
 40
1.0
 40
1.0
 40
1.0
 10
19.43074007828909
 20
1.985695018441764
 30
0.0
 10
19.52506744667984
 20
1.933463813738285
 30
0.0
 10
19.63953158852843
 20
1.888252863862023
 30
0.0
 10
19.86759839052344
 20
1.815447159076355
 30
0.0
 10
19.97709384051817
 20
1.788787675506542
 30
0.0
 10
20.06778911497013
 20
1.775563221014857
 30
0.0
  0
SPLINE
  5
D8
330
1F
100
AcDbEntity
  8
외형선
  6
Continuous
 62
     1
370
    15
100
AcDbSpline
210
0.0
220
0.0
230
1.0
 70
     8
 71
     3
 72
     8
 73
     4
 74
     0
 42
0.000000001
 43
0.00000001
 40
0.0
 40
0.0
 40
0.0
 40
0.0
 40
1.0
 40
1.0
 40
1.0
 40
1.0
 10
17.9145372223234
 20
-0.4717034467389952
 30
0.0
 10
17.85856639238581
 20
-0.4514643005212118
 30
0.0
 10
17.8022680405653
 20
-0.4314835827991556
 30
0.0
 10
17.75591436430863
 20
-0.4166714251661902
 30
0.0
  0
SPLINE
  5
D9
330
1F
100
AcDbEntity
  8
외형선
  6
Continuous
 62
     1
370
    15
100
AcDbSpline
210
0.0
220
0.0
230
1.0
 70
     8
 71
     3
 72
    12
 73
     8
 74
     0
 42
0.000000001
 43
0.00000001
 40
0.0
 40
0.0
 40
0.0
 40
0.0
 40
0.2499999999999999
 40
0.2499999999999999
 40
0.4999999999999999
 40
0.4999999999999999
 40
1.0
 40
1.0
 40
1.0
 40
1.0
 10
17.75591436430913
 20
-0.4166714251558445
 30
0.0
 10
17.73319633875632
 20
-0.1522568236755102
 30
0.0
 10
17.71073144138478
 20
0.1131498546595014
 30
0.0
 10
17.66721863593342
 20
0.6348548266315434
 30
0.0
 10
17.64625761594857
 20
0.8908796736237118
 30
0.0
 10
17.57992382544495
 20
1.656394280280794
 30
0.0
 10
17.53332449208004
 20
2.153522125134946
 30
0.0
 10
17.48821210453126
 20
2.595465116989429
 30
0.0
  0
SPLINE
  5
DA
330
1F
100
AcDbEntity
  8
외형선
  6
Continuous
 62
     1
370
    15
100
AcDbSpline
210
0.0
220
0.0
230
1.0
 70
     8
 71
     3
 72
     8
 73
     4
 74
     0
 42
0.000000001
 43
0.00000001
 40
0.0
 40
0.0
 40
0.0
 40
0.0
 40
1.0
 40
1.0
 40
1.0
 40
1.0
 10
17.48821210435622
 20
2.595465118708961
 30
0.0
 10
17.53418977929059
 20
2.596756074731827
 30
0.0
 10
17.59035021445016
 20
2.587863273656248
 30
0.0
 10
17.6480529051849
 20
2.570208193793048
 30
0.0
  0
SPLINE
  5
DB
330
1F
100
AcDbEntity
  8
외형선
  6
Continuous
 62
     1
370
    15
100
AcDbSpline
210
0.0
220
0.0
230
1.0
 70
     8
 71
     3
 72
     8
 73
     4
 74
     0
 42
0.000000001
 43
0.00000001
 40
0.0
 40
0.0
 40
0.0
 40
0.0
 40
1.0
 40
1.0
 40
1.0
 40
1.0
 10
17.11898682424273
 20
-0.18816417490983
 30
0.0
 10
17.07300664888196
 20
-0.1682003265984887
 30
0.0
 10
17.01684791853889
 20
-0.1460368663133448
 30
0.0
 10
16.95915108271145
 20
-0.1250276935026276
 30
0.0
  0
SPLINE
  5
DC
330
1F
100
AcDbEntity
  8
외형선
  6
Continuous
 62
     1
370
    15
100
AcDbSpline
210
0.0
220
0.0
230
1.0
 70
     8
 71
     3
 72
     8
 73
     4
 74
     0
 42
0.000000001
 43
0.00000001
 40
0.0
 40
0.0
 40
0.0
 40
0.0
 40
1.0
 40
1.0
 40
1.0
 40
1.0
 10
16.6928049283872
 20
2.855811963001401
 30
0.0
 10
16.74875409918307
 20
2.83947623893795
 30
0.0
 10
16.8050377159063
 20
2.814056563973564
 30
0.0
 10
16.85138481037415
 20
2.783535448915972
 30
0.0
  0
SPLINE
  5
DD
330
1F
100
AcDbEntity
  8
외형선
  6
Continuous
 62
     1
370
    15
100
AcDbSpline
210
0.0
220
0.0
230
1.0
 70
     8
 71
     3
 72
    12
 73
     8
 74
     0
 42
0.000000001
 43
0.00000001
 40
0.0
 40
0.0
 40
0.0
 40
0.0
 40
0.2499999999999999
 40
0.2499999999999999
 40
0.4999999999999998
 40
0.4999999999999998
 40
1.0
 40
1.0
 40
1.0
 40
1.0
 10
17.11898680244355
 20
-0.1881639190199887
 30
0.0
 10
17.09644542593424
 20
0.0764380880054586
 30
0.0
 10
17.07429606496448
 20
0.3403779952446366
 30
0.0
 10
17.03164933313263
 20
0.8561641640163865
 30
0.0
 10
17.00991695643823
 20
1.112975398362852
 30
0.0
 10
16.94266603958446
 20
1.871865619452675
 30
0.0
 10
16.89600089582122
 20
2.357805429399317
 30
0.0
 10
16.85138514615026
 20
2.7835322449056
 30
0.0
  0
SPLINE
  5
DE
330
1F
100
AcDbEntity
  8
외형선
  6
Continuous
 62
     1
370
    15
100
AcDbSpline
210
0.0
220
0.0
230
1.0
 70
     8
 71
     3
 72
     8
 73
     4
 74
     0
 42
0.000000001
 43
0.00000001
 40
0.0
 40
0.0
 40
0.0
 40
0.0
 40
1.0
 40
1.0
 40
1.0
 40
1.0
 10
20.92644996919625
 20
-4.612919214157143
 30
0.0
 10
20.97236601658298
 20
-4.642576814018526
 30
0.0
 10
21.02847042007457
 20
-4.656114492651769
 30
0.0
 10
21.08611618441122
 20
-4.65161498086075
 30
0.0
  0
SPLINE
  5
DF
330
1F
100
AcDbEntity
  8
외형선
  6
Continuous
 62
     1
370
    15
100
AcDbSpline
210
0.0
220
0.0
230
1.0
 70
     8
 71
     3
 72
    10
 73
     6
 74
     0
 42
0.000000001
 43
0.00000001
 40
0.0
 40
0.0
 40
0.0
 40
0.0
 40
0.5
 40
0.5
 40
1.0
 40
1.0
 40
1.0
 40
1.0
 10
20.29032220371469
 20
-4.653450748571686
 30
0.0
 10
20.38449960548105
 20
-4.578283601097247
 30
0.0
 10
20.49881399823713
 20
-4.537957077686252
 30
0.0
 10
20.72661309929315
 20
-4.526368268591196
 30
0.0
 10
20.83593202271391
 20
-4.554452834975129
 30
0.0
 10
20.92644996919618
 20
-4.61291921415709
 30
0.0
  0
SPLINE
  5
E0
330
1F
100
AcDbEntity
  8
외형선
  6
Continuous
 62
     1
370
    15
100
AcDbSpline
210
0.0
220
0.0
230
1.0
 70
     8
 71
     3
 72
     8
 73
     4
 74
     0
 42
0.000000001
 43
0.00000001
 40
0.0
 40
0.0
 40
0.0
 40
0.0
 40
1.0
 40
1.0
 40
1.0
 40
1.0
 10
20.13186686848639
 20
-4.713631210299943
 30
0.0
 10
20.18778501722784
 20
-4.710726971524945
 30
0.0
 10
20.24402481453241
 20
-4.69040274146453
 30
0.0
 10
20.29032220371607
 20
-4.653450748575188
 30
0.0
  0
SPLINE
  5
E1
330
1F
100
AcDbEntity
  8
외형선
  6
Continuous
 62
     1
370
    15
100
AcDbSpline
210
0.0
220
0.0
230
1.0
 70
     8
 71
     3
 72
     8
 73
     4
 74
     0
 42
0.000000001
 43
0.00000001
 40
0.0
 40
0.0
 40
0.0
 40
0.0
 40
1.0
 40
1.0
 40
1.0
 40
1.0
 10
20.13186661330735
 20
-4.713631223553099
 30
0.0
 10
19.58919561858587
 20
-4.741816096762505
 30
0.0
 10
19.05087839421253
 20
-4.75782066412912
 30
0.0
 10
18.50897627212277
 20
-4.761617021376077
 30
0.0
  0
SPLINE
  5
E2
330
1F
100
AcDbEntity
  8
외형선
  6
Continuous
 62
     1
370
    15
100
AcDbSpline
210
0.0
220
0.0
230
1.0
 70
     8
 71
     3
 72
     8
 73
     4
 74
     0
 42
0.000000001
 43
0.00000001
 40
0.0
 40
0.0
 40
0.0
 40
0.0
 40
1.0
 40
1.0
 40
1.0
 40
1.0
 10
18.34915589699567
 20
-4.70909391489351
 30
0.0
 10
18.39512972065664
 20
-4.743631115110926
 30
0.0
 10
18.45128375987518
 20
-4.762021194690035
 30
0.0
 10
18.50897740851122
 20
-4.761617013417754
 30
0.0
  0
SPLINE
  5
E3
330
1F
100
AcDbEntity
  8
외형선
  6
Continuous
 62
     1
370
    15
100
AcDbSpline
210
0.0
220
0.0
230
1.0
 70
     8
 71
     3
 72
    10
 73
     6
 74
     0
 42
0.000000001
 43
0.00000001
 40
0.0
 40
0.0
 40
0.0
 40
0.0
 40
0.5
 40
0.5
 40
1.0
 40
1.0
 40
1.0
 40
1.0
 10
17.71226237219481
 20
-4.704804391717982
 30
0.0
 10
17.80656770403446
 20
-4.633483994808862
 30
0.0
 10
17.92101634478123
 20
-4.599312122859375
 30
0.0
 10
18.14905007820408
 20
-4.603541448363204
 30
0.0
 10
18.25850306558133
 20
-4.64099222703031
 30
0.0
 10
18.3491558969956
 20
-4.709093914893455
 30
0.0
  0
SPLINE
  5
E4
330
1F
100
AcDbEntity
  8
외형선
  6
Continuous
 62
     1
370
    15
100
AcDbSpline
210
0.0
220
0.0
230
1.0
 70
     8
 71
     3
 72
     8
 73
     4
 74
     0
 42
0.000000001
 43
0.00000001
 40
0.0
 40
0.0
 40
0.0
 40
0.0
 40
1.0
 40
1.0
 40
1.0
 40
1.0
 10
17.55364279732481
 20
-4.755645379169195
 30
0.0
 10
17.60961165062805
 20
-4.756736491570731
 30
0.0
 10
17.66590924149632
 20
-4.739859924796848
 30
0.0
 10
17.71226237219625
 20
-4.704804391721861
 30
0.0
  0
SPLINE
  5
E5
330
1F
100
AcDbEntity
  8
외형선
  6
Continuous
 62
     1
370
    15
100
AcDbSpline
210
0.0
220
0.0
230
1.0
 70
     8
 71
     3
 72
     8
 73
     4
 74
     0
 42
0.000000001
 43
0.00000001
 40
0.0
 40
0.0
 40
0.0
 40
0.0
 40
1.0
 40
1.0
 40
1.0
 40
1.0
 10
17.55364257691958
 20
-4.755645374872437
 30
0.0
 10
17.01056560706114
 20
-4.745058089832149
 30
0.0
 10
16.47186089113191
 20
-4.722268146840045
 30
0.0
 10
15.92950914171484
 20
-4.687355333640234
 30
0.0
  0
SPLINE
  5
E6
330
1F
100
AcDbEntity
  8
외형선
  6
Continuous
 62
     1
370
    15
100
AcDbSpline
210
0.0
220
0.0
230
1.0
 70
     8
 71
     3
 72
     8
 73
     4
 74
     0
 42
0.000000001
 43
0.00000001
 40
0.0
 40
0.0
 40
0.0
 40
0.0
 40
1.0
 40
1.0
 40
1.0
 40
1.0
 10
15.76962765038888
 20
-4.623011502548742
 30
0.0
 10
15.81562236449652
 20
-4.661102718959375
 30
0.0
 10
15.8717967910437
 20
-4.683640216061966
 30
0.0
 10
15.92950914063492
 20
-4.687355333573548
 30
0.0
  0
SPLINE
  5
E7
330
1F
100
AcDbEntity
  8
외형선
  6
Continuous
 62
     1
370
    15
100
AcDbSpline
210
0.0
220
0.0
230
1.0
 70
     8
 71
     3
 72
    10
 73
     6
 74
     0
 42
0.000000001
 43
0.00000001
 40
0.0
 40
0.0
 40
0.0
 40
0.0
 40
0.5
 40
0.5
 40
1.0
 40
1.0
 40
1.0
 40
1.0
 10
15.13264520491602
 20
-4.573979682338879
 30
0.0
 10
15.2269616839795
 20
-4.509304668870849
 30
0.0
 10
15.34142631111081
 20
-4.482596588199274
 30
0.0
 10
15.56948959132287
 20
-4.502509985599734
 30
0.0
 10
15.67895221565638
 20
-4.547917273254322
 30
0.0
 10
15.76962765038881
 20
-4.623011502548622
 30
0.0
  0
SPLINE
  5
E8
330
1F
100
AcDbEntity
  8
외형선
  6
Continuous
 62
     1
370
    15
100
AcDbSpline
210
0.0
220
0.0
230
1.0
 70
     8
 71
     3
 72
     8
 73
     4
 74
     0
 42
0.000000001
 43
0.00000001
 40
0.0
 40
0.0
 40
0.0
 40
0.0
 40
1.0
 40
1.0
 40
1.0
 40
1.0
 10
14.9740319087925
 20
-4.613498381564138
 30
0.0
 10
15.02999875509419
 20
-4.618547302932424
 30
0.0
 10
15.08629383505841
 20
-4.605763899688649
 30
0.0
 10
15.13264520491745
 20
-4.573979682342808
 30
0.0
  0
SPLINE
  5
E9
330
1F
100
AcDbEntity
  8
외형선
  6
Continuous
 62
     1
370
    15
100
AcDbSpline
210
0.0
220
0.0
230
1.0
 70
     8
 71
     3
 72
     8
 73
     4
 74
     0
 42
0.000000001
 43
0.00000001
 40
0.0
 40
0.0
 40
0.0
 40
0.0
 40
1.0
 40
1.0
 40
1.0
 40
1.0
 10
14.97403213457443
 20
-4.613498401932774
 30
0.0
 10
14.43121992374326
 20
-4.564529839891108
 30
0.0
 10
13.89279039699413
 20
-4.503839115243757
 30
0.0
 10
13.35065868092827
 20
-4.431607036201674
 30
0.0
  0
SPLINE
  5
EA
330
1F
100
AcDbEntity
  8
외형선
  6
Continuous
 62
     1
370
    15
100
AcDbSpline
210
0.0
220
0.0
230
1.0
 70
     8
 71
     3
 72
     8
 73
     4
 74
     0
 42
0.000000001
 43
0.00000001
 40
0.0
 40
0.0
 40
0.0
 40
0.0
 40
1.0
 40
1.0
 40
1.0
 40
1.0
 10
13.19093803306897
 20
-4.357959273654441
 30
0.0
 10
13.23687370285454
 20
-4.398115276502491
 30
0.0
 10
13.29299580724668
 20
-4.423924199519104
 30
0.0
 10
13.35065844554061
 20
-4.431607004842004
 30
0.0
  0
SPLINE
  5
EB
330
1F
100
AcDbEntity
  8
외형선
  6
Continuous
 62
     1
370
    15
100
AcDbSpline
210
0.0
220
0.0
230
1.0
 70
     8
 71
     3
 72
    10
 73
     6
 74
     0
 42
0.000000001
 43
0.00000001
 40
0.0
 40
0.0
 40
0.0
 40
0.0
 40
0.5
 40
0.5
 40
1.0
 40
1.0
 40
1.0
 40
1.0
 10
12.5546489160611
 20
-4.266205544134328
 30
0.0
 10
12.64884657413105
 20
-4.21069333594329
 30
0.0
 10
12.76319098392729
 20
-4.192433703154417
 30
0.0
 10
12.9910451541846
 20
-4.227203705349297
 30
0.0
 10
13.10038695263809
 20
-4.278801410916105
 30
0.0
 10
13.1909380330689
 20
-4.357959273654399
 30
0.0
  0
SPLINE
  5
EC
330
1F
100
AcDbEntity
  8
외형선
  6
Continuous
 62
     1
370
    15
100
AcDbSpline
210
0.0
220
0.0
230
1.0
 70
     8
 71
     3
 72
     8
 73
     4
 74
     0
 42
0.000000001
 43
0.00000001
 40
0.0
 40
0.0
 40
0.0
 40
0.0
 40
1.0
 40
1.0
 40
1.0
 40
1.0
 10
12.39621212464377
 20
-4.292906830042442
 30
0.0
 10
12.45212436091082
 20
-4.30170702600411
 30
0.0
 10
12.50835673671183
 20
-4.29348627648682
 30
0.0
 10
12.55464891606247
 20
-4.26620554413806
 30
0.0
  0
SPLINE
  5
ED
330
1F
100
AcDbEntity
  8
외형선
  6
Continuous
 62
     1
370
    15
100
AcDbSpline
210
0.0
220
0.0
230
1.0
 70
     8
 71
     3
 72
     8
 73
     4
 74
     0
 42
0.000000001
 43
0.00000001
 40
0.0
 40
0.0
 40
0.0
 40
0.0
 40
1.0
 40
1.0
 40
1.0
 40
1.0
 10
12.39621255383448
 20
-4.292906897594509
 30
0.0
 10
11.85372190295194
 20
-4.207522659277298
 30
0.0
 10
11.31561971358809
 20
-4.111351447849912
 30
0.0
 10
10.77377327801587
 20
-4.004665377611526
 30
0.0
  0
SPLINE
  5
EE
330
1F
100
AcDbEntity
  8
외형선
  6
Continuous
 62
     1
370
    15
100
AcDbSpline
210
0.0
220
0.0
230
1.0
 70
     8
 71
     3
 72
     8
 73
     4
 74
     0
 42
0.000000001
 43
0.00000001
 40
0.0
 40
0.0
 40
0.0
 40
0.0
 40
1.0
 40
1.0
 40
1.0
 40
1.0
 10
10.61398804633114
 20
-3.924545488433995
 30
0.0
 10
10.65994869523785
 20
-3.965221945468278
 30
0.0
 10
10.71609060093898
 20
-3.993308030049435
 30
0.0
 10
10.77377305615035
 20
-4.004665333930169
 30
0.0
  0
SPLINE
  5
EF
330
1F
100
AcDbEntity
  8
외형선
  6
Continuous
 62
     1
370
    15
100
AcDbSpline
210
0.0
220
0.0
230
1.0
 70
     8
 71
     3
 72
    10
 73
     6
 74
     0
 42
0.000000001
 43
0.00000001
 40
0.0
 40
0.0
 40
0.0
 40
0.0
 40
0.5
 40
0.5
 40
1.0
 40
1.0
 40
1.0
 40
1.0
 10
9.999999999999911
 20
-3.783627792510313
 30
0.0
 10
10.09394254606309
 20
-3.746344003703659
 30
0.0
 10
10.20452865367421
 20
-3.741854187684856
 30
0.0
 10
10.42205707483859
 20
-3.792891753906441
 30
0.0
 10
10.52699565823949
 20
-3.847554797033936
 30
0.0
 10
10.61398804633107
 20
-3.924545488433953
 30
0.0
  0
SPLINE
  5
F0
330
1F
100
AcDbEntity
  8
외형선
  6
Continuous
370
    15
100
AcDbSpline
210
0.0
220
0.0
230
1.0
 70
    24
 71
     3
 72
    18
 73
    14
 74
     0
 42
0.000000001
 43
0.00000001
 40
0.0
 40
0.0
 40
0.0
 40
0.0
 40
0.25
 40
0.25
 40
0.5
 40
0.5
 40
0.625
 40
0.625
 40
0.75
 40
0.75
 40
0.875
 40
0.875
 40
1.0
 40
1.0
 40
1.0
 40
1.0
 10
9.999999999999991
 20
2.265539983429968
 30
0.0
 10
9.999999999999991
 20
2.037462722442088
 30
0.0
 10
9.999999999999991
 20
1.747524758217841
 30
0.0
 10
9.999999999999991
 20
1.002871226353501
 30
0.0
 10
9.999999999999991
 20
0.5461754582858269
 30
0.0
 10
9.999999999999991
 20
-0.2642577495627851
 30
0.0
 10
9.999999999999991
 20
-0.5547575021731185
 30
0.0
 10
9.999999999999991
 20
-1.167121652207134
 30
0.0
 10
9.999999999999991
 20
-1.488983245588958
 30
0.0
 10
9.999999999999991
 20
-2.147091698266268
 30
0.0
 10
9.999999999999991
 20
-2.483238903405919
 30
0.0
 10
9.999999999999991
 20
-3.146616807472738
 30
0.0
 10
9.999999999999991
 20
-3.473662620669415
 30
0.0
 10
9.999999999999991
 20
-3.78362779251032
 30
0.0
  0
SPLINE
  5
F1
330
1F
100
AcDbEntity
  8
외형선
  6
Continuous
370
    15
100
AcDbSpline
210
0.0
220
0.0
230
1.0
 70
     8
 71
     3
 72
     8
 73
     4
 74
     0
 42
0.000000001
 43
0.00000001
 40
0.0
 40
0.0
 40
0.0
 40
0.0
 40
0.0000264249809435
 40
0.0000264249809435
 40
0.0000264249809435
 40
0.0000264249809435
 10
10.02091946186439
 20
2.268187434721469
 30
0.0
 10
10.01406907551935
 20
2.267170621077067
 30
0.0
 10
10.00709071742459
 20
2.266287507860955
 30
0.0
 10
9.999999999999915
 20
2.26553998342996
 30
0.0
  0
SPLINE
  5
F2
330
1F
100
AcDbEntity
  8
외형선
  6
Continuous
 62
     1
370
    15
100
AcDbSpline
210
0.0
220
0.0
230
1.0
 70
     8
 71
     3
 72
     8
 73
     4
 74
     0
 42
0.000000001
 43
0.00000001
 40
0.0
 40
0.0
 40
0.0
 40
0.0
 40
1.0
 40
1.0
 40
1.0
 40
1.0
 10
10.17955256143811
 20
2.249455954027137
 30
0.0
 10
10.12357850143514
 20
2.267384295383836
 30
0.0
 10
10.06727663278958
 20
2.275068302683546
 30
0.0
 10
10.02091946186287
 20
2.268187434723985
 30
0.0
  0
SPLINE
  5
F3
330
1F
100
AcDbEntity
  8
외형선
  6
Continuous
 62
     1
370
    15
100
AcDbSpline
210
0.0
220
0.0
230
1.0
 70
     8
 71
     3
 72
     8
 73
     4
 74
     0
 42
0.000000001
 43
0.00000001
 40
0.0
 40
0.0
 40
0.0
 40
0.0
 40
1.0
 40
1.0
 40
1.0
 40
1.0
 10
11.8036707288676
 20
1.712194117223078
 30
0.0
 10
11.26263117779152
 20
1.896111019803122
 30
0.0
 10
10.72260928255166
 20
2.075516341700411
 30
0.0
 10
10.17955262413943
 20
2.249455933944227
 30
0.0
  0
SPLINE
  5
F4
330
1F
100
AcDbEntity
  8
외형선
  6
Continuous
 62
     1
370
    15
100
AcDbSpline
210
0.0
220
0.0
230
1.0
 70
     8
 71
     3
 72
     8
 73
     4
 74
     0
 42
0.000000001
 43
0.00000001
 40
0.0
 40
0.0
 40
0.0
 40
0.0
 40
1.0
 40
1.0
 40
1.0
 40
1.0
 10
11.96353926345379
 20
1.632591973016532
 30
0.0
 10
11.91754801447213
 20
1.664654116918461
 30
0.0
 10
11.86137769108855
 20
1.692577647947883
 30
0.0
 10
11.80367065794256
 20
1.712194141334119
 30
0.0
  0
SPLINE
  5
F5
330
1F
100
AcDbEntity
  8
외형선
  6
Continuous
 62
     1
370
    15
100
AcDbSpline
210
0.0
220
0.0
230
1.0
 70
     8
 71
     3
 72
    10
 73
     6
 74
     0
 42
0.000000001
 43
0.00000001
 40
0.0
 40
0.0
 40
0.0
 40
0.0
 40
0.5
 40
0.5
 40
1.0
 40
1.0
 40
1.0
 40
1.0
 10
12.60043484772394
 20
1.415947665552197
 30
0.0
 10
12.50612877017278
 20
1.416889477653538
 30
0.0
 10
12.39167371769352
 20
1.437848377522924
 30
0.0
 10
12.16363535897997
 20
1.514930058614171
 30
0.0
 10
12.05419605048248
 20
1.569391885700801
 30
0.0
 10
11.96353926345381
 20
1.63259197301652
 30
0.0
  0
SPLINE
  5
F6
330
1F
100
AcDbEntity
  8
외형선
  6
Continuous
 62
     1
370
    15
100
AcDbSpline
210
0.0
220
0.0
230
1.0
 70
     8
 71
     3
 72
     8
 73
     4
 74
     0
 42
0.000000001
 43
0.00000001
 40
0.0
 40
0.0
 40
0.0
 40
0.0
 40
1.0
 40
1.0
 40
1.0
 40
1.0
 10
12.75901991321773
 20
1.38371971454098
 30
0.0
 10
12.7030607412204
 20
1.403177332930107
 30
0.0
 10
12.64677614108257
 20
1.415484866209364
 30
0.0
 10
12.60043484772251
 20
1.415947665554147
 30
0.0
  0
SPLINE
  5
F7
330
1F
100
AcDbEntity
  8
외형선
  6
Continuous
 62
     1
370
    15
100
AcDbSpline
210
0.0
220
0.0
230
1.0
 70
     8
 71
     3
 72
     8
 73
     4
 74
     0
 42
0.000000001
 43
0.00000001
 40
0.0
 40
0.0
 40
0.0
 40
0.0
 40
1.0
 40
1.0
 40
1.0
 40
1.0
 10
14.38187676374947
 20
0.8090683634530781
 30
0.0
 10
13.84120589892177
 20
1.003156563457168
 30
0.0
 10
13.30166594783523
 20
1.195035730962973
 30
0.0
 10
12.75902002750138
 20
1.383719674803456
 30
0.0
  0
SPLINE
  5
F8
330
1F
100
AcDbEntity
  8
외형선
  6
Continuous
 62
     1
370
    15
100
AcDbSpline
210
0.0
220
0.0
230
1.0
 70
     8
 71
     3
 72
     8
 73
     4
 74
     0
 42
0.000000001
 43
0.00000001
 40
0.0
 40
0.0
 40
0.0
 40
0.0
 40
1.0
 40
1.0
 40
1.0
 40
1.0
 10
14.54154870371869
 20
0.7363568170008886
 30
0.0
 10
14.49563570856157
 20
0.7628554482503188
 30
0.0
 10
14.43953518205229
 20
0.7883703364478768
 30
0.0
 10
14.38189429155284
 20
0.8090620713818196
 30
0.0
  0
SPLINE
  5
F9
330
1F
100
AcDbEntity
  8
외형선
  6
Continuous
 62
     1
370
    15
100
AcDbSpline
210
0.0
220
0.0
230
1.0
 70
     8
 71
     3
 72
    10
 73
     6
 74
     0
 42
0.000000001
 43
0.00000001
 40
0.0
 40
0.0
 40
0.0
 40
0.0
 40
0.5
 40
0.5
 40
1.0
 40
1.0
 40
1.0
 40
1.0
 10
15.17768950982379
 20
0.5096659833441899
 30
0.0
 10
15.08350323940087
 20
0.5254762960368005
 30
0.0
 10
14.96918160393154
 20
0.554581417913757
 30
0.0
 10
14.7413787096441
 20
0.6346750408381436
 30
0.0
 10
14.63206180866266
 20
0.6841172847520504
 30
0.0
 10
14.54154870371871
 20
0.7363568170008833
 30
0.0
  0
SPLINE
  5
FA
330
1F
100
AcDbEntity
  8
외형선
  6
Continuous
 62
     1
370
    15
100
AcDbSpline
210
0.0
220
0.0
230
1.0
 70
     8
 71
     3
 72
     8
 73
     4
 74
     0
 42
0.000000001
 43
0.00000001
 40
0.0
 40
0.0
 40
0.0
 40
0.0
 40
1.0
 40
1.0
 40
1.0
 40
1.0
 10
15.33615731528335
 20
0.4652269969423569
 30
0.0
 10
15.28023437167323
 20
0.4854515098721662
 30
0.0
 10
15.22399056557107
 20
0.5018937871845268
 30
0.0
 10
15.17768950982239
 20
0.5096659833455066
 30
0.0
  0
SPLINE
  5
FB
330
1F
100
AcDbEntity
  8
외형선
  6
Continuous
 62
     1
370
    15
100
AcDbSpline
210
0.0
220
0.0
230
1.0
 70
     8
 71
     3
 72
    10
 73
     6
 74
     0
 42
0.000000001
 43
0.00000001
 40
0.0
 40
0.0
 40
0.0
 40
0.0
 40
0.5
 40
0.5
 40
1.0
 40
1.0
 40
1.0
 40
1.0
 10
17.75591436431007
 20
-0.4166714251668798
 30
0.0
 10
17.66159916372855
 20
-0.3865333275873603
 30
0.0
 10
17.54713969956932
 20
-0.3503011219199507
 30
0.0
 10
17.31909454919091
 20
-0.2701127413937217
 30
0.0
 10
17.20964295981978
 20
-0.2275256024153213
 30
0.0
 10
17.11898682424274
 20
-0.1881641749098281
 30
0.0
  0
SPLINE
  5
FC
330
1F
100
AcDbEntity
  8
외형선
  6
Continuous
 62
     1
370
    15
100
AcDbSpline
210
0.0
220
0.0
230
1.0
 70
     8
 71
     3
 72
     8
 73
     4
 74
     0
 42
0.000000001
 43
0.00000001
 40
0.0
 40
0.0
 40
0.0
 40
0.0
 40
1.0
 40
1.0
 40
1.0
 40
1.0
 10
24.28749999999999
 20
-2.252541109290005
 30
0.0
 10
23.93517886621724
 20
-2.259583460877913
 30
0.0
 10
23.5647906955563
 20
-2.272594984711921
 30
0.0
 10
23.18749999999999
 20
-2.292344466239642
 30
0.0
  0
SPLINE
  5
FD
330
1F
100
AcDbEntity
  8
외형선
  6
Continuous
 62
     1
370
    15
100
AcDbSpline
210
0.0
220
0.0
230
1.0
 70
     8
 71
     3
 72
     9
 73
     5
 74
     0
 42
0.000000001
 43
0.00000001
 40
0.0
 40
0.0
 40
0.0
 40
0.0
 40
0.6613826021899573
 40
0.9999999999999999
 40
0.9999999999999999
 40
0.9999999999999999
 40
0.9999999999999999
 10
23.07785507582467
 20
-2.257336228797993
 30
0.0
 10
23.01434532765422
 20
-2.276288905594062
 30
0.0
 10
22.91831959616363
 20
-2.304945052177466
 30
0.0
 10
22.81686875457932
 20
-2.344843635891144
 30
0.0
 10
22.78251573459641
 20
-2.358353990484575
 30
0.0
  0
SPLINE
  5
FE
330
1F
100
AcDbEntity
  8
외형선
  6
Continuous
 62
     1
370
    15
100
AcDbSpline
210
0.0
220
0.0
230
1.0
 70
     8
 71
     3
 72
     8
 73
     4
 74
     0
 42
0.000000001
 43
0.00000001
 40
0.0
 40
0.0
 40
0.0
 40
0.0
 40
1.0
 40
1.0
 40
1.0
 40
1.0
 10
24.28749999999999
 20
-2.784196431186868
 30
0.0
 10
23.78264857964799
 20
-2.654974310035694
 30
0.0
 10
23.28115521080407
 20
-2.512356442592235
 30
0.0
 10
22.7825157345964
 20
-2.35835399048457
 30
0.0
  0
LINE
  5
FF
330
1F
100
AcDbEntity
  8
외형선
  6
Continuous
 62
     1
370
    15
100
AcDbLine
 10
24.28749999999999
 20
-3.394707684422255
 30
0.0
 11
24.28749999999999
 21
-2.784196431186867
 31
0.0
  0
SPLINE
  5
100
330
1F
100
AcDbEntity
  8
외형선
  6
Continuous
 62
     1
370
    15
100
AcDbSpline
210
0.0
220
0.0
230
1.0
 70
     8
 71
     3
 72
     8
 73
     4
 74
     0
 42
0.000000001
 43
0.00000001
 40
0.0
 40
0.0
 40
0.0
 40
0.0
 40
1.0
 40
1.0
 40
1.0
 40
1.0
 10
23.32792277521434
 20
-4.286725212452375
 30
0.0
 10
23.64680755973244
 20
-3.968079691460191
 30
0.0
 10
23.96653847297948
 20
-3.668946351826478
 30
0.0
 10
24.28749999999999
 20
-3.394707684422253
 30
0.0
  0
SPLINE
  5
101
330
1F
100
AcDbEntity
  8
외형선
  6
Continuous
 62
     1
370
    15
100
AcDbSpline
210
0.0
220
0.0
230
1.0
 70
     8
 71
     3
 72
     8
 73
     4
 74
     0
 42
0.000000001
 43
0.00000001
 40
0.0
 40
0.0
 40
0.0
 40
0.0
 40
1.0
 40
1.0
 40
1.0
 40
1.0
 10
22.86771494638882
 20
-4.422121327858897
 30
0.0
 10
23.00091461973792
 20
-4.314500551788719
 30
0.0
 10
23.17558763097125
 20
-4.27003887628735
 30
0.0
 10
23.32792277521434
 20
-4.286725212452345
 30
0.0
  0
SPLINE
  5
102
330
1F
100
AcDbEntity
  8
외형선
  6
Continuous
 62
     1
370
    15
100
AcDbSpline
210
0.0
220
0.0
230
1.0
 70
     8
 71
     3
 72
     8
 73
     4
 74
     0
 42
0.000000001
 43
0.00000001
 40
0.0
 40
0.0
 40
0.0
 40
0.0
 40
1.0
 40
1.0
 40
1.0
 40
1.0
 10
22.70912226382257
 20
-4.489324414984159
 30
0.0
 10
22.76508286693598
 20
-4.482534580858934
 30
0.0
 10
22.82137056694613
 20
-4.459565999885745
 30
0.0
 10
22.86771494639026
 20
-4.422121327862108
 30
0.0
  0
SPLINE
  5
103
330
1F
100
AcDbEntity
  8
외형선
  6
Continuous
 62
     1
370
    15
100
AcDbSpline
210
0.0
220
0.0
230
1.0
 70
     8
 71
     3
 72
     8
 73
     4
 74
     0
 42
0.000000001
 43
0.00000001
 40
0.0
 40
0.0
 40
0.0
 40
0.0
 40
1.0
 40
1.0
 40
1.0
 40
1.0
 10
22.70912027565589
 20
-4.489324656212784
 30
0.0
 10
22.16640375056873
 20
-4.555173725206164
 30
0.0
 10
21.62802775420985
 20
-4.609316343754656
 30
0.0
 10
21.08611591389441
 20
-4.651615001973178
 30
0.0
  0
SPLINE
  5
104
330
1F
100
AcDbEntity
  8
외형선
  6
Continuous
 62
     1
370
    15
100
AcDbSpline
210
0.0
220
0.0
230
1.0
 70
     8
 71
     3
 72
    12
 73
     8
 74
     0
 42
0.000000001
 43
0.00000001
 40
0.0
 40
0.0
 40
0.0
 40
0.0
 40
0.5000000000000001
 40
0.5000000000000001
 40
0.75
 40
0.75
 40
1.0
 40
1.0
 40
1.0
 40
1.0
 10
12.75901989328753
 20
1.383719941941396
 30
0.0
 10
12.71439182033416
 20
1.89290730315107
 30
0.0
 10
12.66795533015816
 20
2.382013508564847
 30
0.0
 10
12.60132778731871
 20
3.025361702188146
 30
0.0
 10
12.58006123301253
 20
3.223748091811685
 30
0.0
 10
12.53728998419191
 20
3.590384536900089
 30
0.0
 10
12.51512644105986
 20
3.760286416440583
 30
0.0
 10
12.49262083537727
 20
3.912431218595719
 30
0.0
  0
SPLINE
  5
105
330
1F
100
AcDbEntity
  8
외형선
  6
Continuous
 62
     1
370
    15
100
AcDbSpline
210
0.0
220
0.0
230
1.0
 70
     8
 71
     3
 72
     8
 73
     4
 74
     0
 42
0.000000001
 43
0.00000001
 40
0.0
 40
0.0
 40
0.0
 40
0.0
 40
1.0
 40
1.0
 40
1.0
 40
1.0
 10
14.11589104923049
 20
3.546356927557297
 30
0.0
 10
13.57682339829177
 20
3.677638834911709
 30
0.0
 10
13.03485589478685
 20
3.800061140906323
 30
0.0
 10
12.4926210291428
 20
3.912430909359295
 30
0.0
  0
SPLINE
  5
106
330
1F
100
AcDbEntity
  8
외형선
  6
Continuous
 62
     1
370
    15
100
AcDbSpline
210
0.0
220
0.0
230
1.0
 70
     8
 71
     3
 72
    12
 73
     8
 74
     0
 42
0.000000001
 43
0.00000001
 40
0.0
 40
0.0
 40
0.0
 40
0.0
 40
0.5000000000000002
 40
0.5000000000000002
 40
0.7500000000000001
 40
0.7500000000000001
 40
1.0
 40
1.0
 40
1.0
 40
1.0
 10
14.3818937438428
 20
0.8090686895221383
 30
0.0
 10
14.33905333825976
 20
1.326724487969114
 30
0.0
 10
14.29306394059535
 20
1.841615974532921
 30
0.0
 10
14.22492230652812
 20
2.544167281079504
 30
0.0
 10
14.20236369034301
 20
2.766767185617619
 30
0.0
 10
14.1584818101948
 20
3.18034996191952
 30
0.0
 10
14.13766592409881
 20
3.370098489057964
 30
0.0
 10
14.11589099239848
 20
3.546356184172684
 30
0.0
  0
SPLINE
  5
107
330
1F
100
AcDbEntity
  8
외형선
  6
Continuous
 62
     1
370
    15
100
AcDbSpline
210
0.0
220
0.0
230
1.0
 70
     8
 71
     3
 72
     8
 73
     4
 74
     0
 42
0.000000001
 43
0.00000001
 40
0.0
 40
0.0
 40
0.0
 40
0.0
 40
1.0
 40
1.0
 40
1.0
 40
1.0
 10
22.21268352084939
 20
4.74064336502533
 30
0.0
 10
22.15670668812398
 20
4.738693262320983
 30
0.0
 10
22.10040266899693
 20
4.719137402309185
 30
0.0
 10
22.05403841995851
 20
4.682494882376544
 30
0.0
  0
SPLINE
  5
108
330
1F
100
AcDbEntity
  8
외형선
  6
Continuous
 62
     1
370
    15
100
AcDbSpline
210
0.0
220
0.0
230
1.0
 70
     8
 71
     3
 72
     8
 73
     4
 74
     0
 42
0.000000001
 43
0.00000001
 40
0.0
 40
0.0
 40
0.0
 40
0.0
 40
1.0
 40
1.0
 40
1.0
 40
1.0
 10
23.18749999999999
 20
4.761406986711259
 30
0.0
 10
22.86236653411049
 20
4.758875602501398
 30
0.0
 10
22.53697804844296
 20
4.751941036229507
 30
0.0
 10
22.2126830939356
 20
4.740643350152645
 30
0.0
  0
SPLINE
  5
109
330
1F
100
AcDbEntity
  8
외형선
  6
Continuous
 62
     1
370
    15
100
AcDbSpline
210
0.0
220
0.0
230
1.0
 70
     8
 71
     3
 72
     8
 73
     4
 74
     0
 42
0.000000001
 43
0.00000001
 40
0.0
 40
0.0
 40
0.0
 40
0.0
 40
1.0
 40
1.0
 40
1.0
 40
1.0
 10
24.28749999999999
 20
3.627265076973848
 30
0.0
 10
23.93517886621724
 20
4.012988099266058
 30
0.0
 10
23.5647906955563
 20
4.388158680547036
 30
0.0
 10
23.18749999999999
 20
4.76140698671126
 30
0.0
  0
LINE
  5
10A
330
1F
100
AcDbEntity
  8
외형선
  6
Continuous
 62
     1
370
    15
100
AcDbLine
 10
24.28749999999999
 20
3.083737631391747
 30
0.0
 11
24.28749999999999
 21
3.627265076973848
 31
0.0
  0
SPLINE
  5
10B
330
1F
100
AcDbEntity
  8
외형선
  6
Continuous
 62
     1
370
    15
100
AcDbSpline
210
0.0
220
0.0
230
1.0
 70
     8
 71
     3
 72
    12
 73
     8
 74
     0
 42
0.000000001
 43
0.00000001
 40
0.0
 40
0.0
 40
0.0
 40
0.0
 40
0.5000000000000001
 40
0.5000000000000001
 40
0.75
 40
0.75
 40
1.0
 40
1.0
 40
1.0
 40
1.0
 10
24.28749999999999
 20
3.083737631391748
 30
0.0
 10
24.1174572494255
 20
2.741998066671587
 30
0.0
 10
23.89860139753907
 20
2.450067331603254
 30
0.0
 10
23.50939880889504
 20
2.087574868084788
 30
0.0
 10
23.37255908942505
 20
1.982127615333888
 30
0.0
 10
23.08642105152083
 20
1.798206170466898
 30
0.0
 10
22.93604589064743
 20
1.719337516005427
 30
0.0
 10
22.78251573459642
 20
1.654136744959454
 30
0.0
  0
SPLINE
  5
10C
330
1F
100
AcDbEntity
  8
외형선
  6
Continuous
 62
     1
370
    15
100
AcDbSpline
210
0.0
220
0.0
230
1.0
 70
     8
 71
     3
 72
     8
 73
     4
 74
     0
 42
0.000000001
 43
0.00000001
 40
0.0
 40
0.0
 40
0.0
 40
0.0
 40
1.0
 40
1.0
 40
1.0
 40
1.0
 10
24.28749999999999
 20
0.9186882131466297
 30
0.0
 10
23.78264857964799
 20
1.171178032173492
 30
0.0
 10
23.28115521080408
 20
1.415940846508754
 30
0.0
 10
22.78251573459641
 20
1.654136744959467
 30
0.0
  0
LINE
  5
10D
330
1F
100
AcDbEntity
  8
외형선
  6
Continuous
 62
     1
370
    15
100
AcDbLine
 10
24.28749999999999
 20
0.5068079630055792
 30
0.0
 11
24.28749999999999
 21
0.9186882131466289
 31
0.0
  0
SPLINE
  5
10E
330
1F
100
AcDbEntity
  8
외형선
  6
Continuous
 62
     1
370
    15
100
AcDbSpline
210
0.0
220
0.0
230
1.0
 70
     8
 71
     3
 72
     8
 73
     4
 74
     0
 42
0.000000001
 43
0.00000001
 40
0.0
 40
0.0
 40
0.0
 40
0.0
 40
1.0
 40
1.0
 40
1.0
 40
1.0
 10
23.18749999999999
 20
0.6964038558618476
 30
0.0
 10
23.55316757760493
 20
0.5570449712129129
 30
0.0
 10
23.91942247801684
 20
0.4873750615431837
 30
0.0
 10
24.28749999999999
 20
0.5068079630055802
 30
0.0
  0
SPLINE
  5
10F
330
1F
100
AcDbEntity
  8
외형선
  6
Continuous
 62
     1
370
    15
100
AcDbSpline
210
0.0
220
0.0
230
1.0
 70
     8
 71
     3
 72
    10
 73
     6
 74
     0
 42
0.000000001
 43
0.00000001
 40
0.0
 40
0.0
 40
0.0
 40
0.0
 40
0.5
 40
0.5
 40
1.0
 40
1.0
 40
1.0
 40
1.0
 10
16.85138481037324
 20
2.783535448914199
 30
0.0
 10
16.94567186634653
 20
2.721444262468275
 30
0.0
 10
17.06009800139334
 20
2.67353633030003
 30
0.0
 10
17.28809936188178
 20
2.608952184169562
 30
0.0
 10
17.39755253190964
 20
2.592919589356539
 30
0.0
 10
17.48821210435576
 20
2.595465118708767
 30
0.0
  0
SPLINE
  5
110
330
1F
100
AcDbEntity
  8
외형선
  6
Continuous
 62
     1
370
    15
100
AcDbSpline
210
0.0
220
0.0
230
1.0
 70
     8
 71
     3
 72
     8
 73
     4
 74
     0
 42
0.000000001
 43
0.00000001
 40
0.0
 40
0.0
 40
0.0
 40
0.0
 40
1.0
 40
1.0
 40
1.0
 40
1.0
 10
14.91070580818061
 20
3.314292799165028
 30
0.0
 10
14.95660352999564
 20
3.323535984253222
 30
0.0
 10
15.01268834492375
 20
3.320332806401092
 30
0.0
 10
15.07032105464838
 20
3.305252541333282
 30
0.0
  0
SPLINE
  5
111
330
1F
100
AcDbEntity
  8
외형선
  6
Continuous
 62
     1
370
    15
100
AcDbSpline
210
0.0
220
0.0
230
1.0
 70
     8
 71
     3
 72
    10
 73
     6
 74
     0
 42
0.000000001
 43
0.00000001
 40
0.0
 40
0.0
 40
0.0
 40
0.0
 40
0.5
 40
0.5
 40
1.0
 40
1.0
 40
1.0
 40
1.0
 10
14.27441066560736
 20
3.472981626409585
 30
0.0
 10
14.36861689558429
 20
3.403470218535533
 30
0.0
 10
14.48294883306504
 20
3.354720456057271
 30
0.0
 10
14.71078223013818
 20
3.300848699558012
 30
0.0
 10
14.82015855682146
 20
3.296057798156962
 30
0.0
 10
14.91070580818015
 20
3.314292799164777
 30
0.0
  0
SPLINE
  5
112
330
1F
100
AcDbEntity
  8
외형선
  6
Continuous
 62
     1
370
    15
100
AcDbSpline
210
0.0
220
0.0
230
1.0
 70
     8
 71
     3
 72
     8
 73
     4
 74
     0
 42
0.000000001
 43
0.00000001
 40
0.0
 40
0.0
 40
0.0
 40
0.0
 40
1.0
 40
1.0
 40
1.0
 40
1.0
 10
14.1158908959488
 20
3.546356964886782
 30
0.0
 10
14.17182142540381
 20
3.532735916610183
 30
0.0
 10
14.22808445364315
 20
3.507164081393206
 30
0.0
 10
14.27441066560825
 20
3.472981626412084
 30
0.0
  0
SPLINE
  5
113
330
1F
100
AcDbEntity
  8
외형선
  6
Continuous
 62
     1
370
    15
100
AcDbSpline
210
0.0
220
0.0
230
1.0
 70
     8
 71
     3
 72
     8
 73
     4
 74
     0
 42
0.000000001
 43
0.00000001
 40
0.0
 40
0.0
 40
0.0
 40
0.0
 40
1.0
 40
1.0
 40
1.0
 40
1.0
 10
12.33277198849573
 20
3.905019393025726
 30
0.0
 10
12.37875347917551
 20
3.921826336764161
 30
0.0
 10
12.43491575291943
 20
3.924389432929255
 30
0.0
 10
12.49262087643852
 20
3.912430941006993
 30
0.0
  0
SPLINE
  5
114
330
1F
100
AcDbEntity
  8
외형선
  6
Continuous
 62
     1
370
    15
100
AcDbSpline
210
0.0
220
0.0
230
1.0
 70
     8
 71
     3
 72
    10
 73
     6
 74
     0
 42
0.000000001
 43
0.00000001
 40
0.0
 40
0.0
 40
0.0
 40
0.0
 40
0.5
 40
0.5
 40
1.0
 40
1.0
 40
1.0
 40
1.0
 10
11.69576706590618
 20
4.028468016044304
 30
0.0
 10
11.79008798119211
 20
3.954129203283694
 30
0.0
 10
11.90454403212231
 20
3.906406028797983
 30
0.0
 10
12.13259609281879
 20
3.865281152580577
 30
0.0
 10
12.24208572841538
 20
3.871872166858959
 30
0.0
 10
12.33277198849527
 20
3.905019393025428
 30
0.0
  0
SPLINE
  5
115
330
1F
100
AcDbEntity
  8
외형선
  6
Continuous
 62
     1
370
    15
100
AcDbSpline
210
0.0
220
0.0
230
1.0
 70
     8
 71
     3
 72
     8
 73
     4
 74
     0
 42
0.000000001
 43
0.00000001
 40
0.0
 40
0.0
 40
0.0
 40
0.0
 40
1.0
 40
1.0
 40
1.0
 40
1.0
 10
11.53711726763189
 20
4.100144507807059
 30
0.0
 10
11.59308785284647
 20
4.089754530573581
 30
0.0
 10
11.64939654468692
 20
4.065014835849898
 30
0.0
 10
11.69576706590711
 20
4.02846801604752
 30
0.0
  0
SPLINE
  5
116
330
1F
100
AcDbEntity
  8
외형선
  6
Continuous
 62
     1
370
    15
100
AcDbSpline
210
0.0
220
0.0
230
1.0
 70
     8
 71
     3
 72
     8
 73
     4
 74
     0
 42
0.000000001
 43
0.00000001
 40
0.0
 40
0.0
 40
0.0
 40
0.0
 40
1.0
 40
1.0
 40
1.0
 40
1.0
 10
11.53711810513759
 20
4.100144352338503
 30
0.0
 10
11.02666792161468
 20
4.194900666037989
 30
0.0
 10
10.51356748317649
 20
4.280393988965236
 30
0.0
 10
10.00000000000002
 20
4.355855796133383
 30
0.0
  0
LINE
  5
117
330
1F
100
AcDbEntity
  8
외형선
  6
Continuous
 62
     1
370
    15
100
AcDbLine
 10
14.31905559184852
 20
3.608968357631498
 30
0.0
 11
14.17641652296875
 21
3.526412883392042
 31
0.0
  0
SPLINE
  5
118
330
1F
100
AcDbEntity
  8
외형선
  6
Continuous
 62
     1
370
    15
100
AcDbSpline
210
0.0
220
0.0
230
1.0
 70
     8
 71
     3
 72
     8
 73
     4
 74
     0
 42
0.000000001
 43
0.00000001
 40
0.0
 40
0.0
 40
0.0
 40
0.0
 40
1.0
 40
1.0
 40
1.0
 40
1.0
 10
14.47769199101156
 20
3.68218852045907
 30
0.0
 10
14.4217179814088
 20
3.669263463948847
 30
0.0
 10
14.36541718129113
 20
3.64379945505495
 30
0.0
 10
14.31905559184744
 20
3.60896835763377
 30
0.0
  0
SPLINE
  5
119
330
1F
100
AcDbEntity
  8
외형선
  6
Continuous
 62
     1
370
    15
100
AcDbSpline
210
0.0
220
0.0
230
1.0
 70
     8
 71
     3
 72
     8
 73
     4
 74
     0
 42
0.000000001
 43
0.00000001
 40
0.0
 40
0.0
 40
0.0
 40
0.0
 40
1.0
 40
1.0
 40
1.0
 40
1.0
 10
16.10122339888427
 20
4.027379506529332
 30
0.0
 10
15.56106303950816
 20
3.922413379412718
 30
0.0
 10
15.01780776704091
 20
3.806907597770654
 30
0.0
 10
14.47769213159161
 20
3.682188552920653
 30
0.0
  0
SPLINE
  5
11A
330
1F
100
AcDbEntity
  8
외형선
  6
Continuous
 62
     1
370
    15
100
AcDbSpline
210
0.0
220
0.0
230
1.0
 70
     8
 71
     3
 72
     8
 73
     4
 74
     0
 42
0.000000001
 43
0.00000001
 40
0.0
 40
0.0
 40
0.0
 40
0.0
 40
1.0
 40
1.0
 40
1.0
 40
1.0
 10
16.26099010369119
 20
4.016364554215347
 30
0.0
 10
16.21503926470733
 20
4.034762909032395
 30
0.0
 10
16.15890440962856
 20
4.038588311635437
 30
0.0
 10
16.10122355889506
 20
4.027379537625402
 30
0.0
  0
SPLINE
  5
11B
330
1F
100
AcDbEntity
  8
외형선
  6
Continuous
 62
     1
370
    15
100
AcDbSpline
210
0.0
220
0.0
230
1.0
 70
     8
 71
     3
 72
    10
 73
     6
 74
     0
 42
0.000000001
 43
0.00000001
 40
0.0
 40
0.0
 40
0.0
 40
0.0
 40
0.5
 40
0.5
 40
1.0
 40
1.0
 40
1.0
 40
1.0
 10
16.8975059083896
 20
4.131402120156402
 30
0.0
 10
16.80325045578113
 20
4.056401487239684
 30
0.0
 10
16.68885936667827
 20
4.009148578380032
 30
0.0
 10
16.46097629155938
 20
3.971009726371669
 30
0.0
 10
16.35159456996841
 20
3.980087237946983
 30
0.0
 10
16.26099010369175
 20
4.01636455421496
 30
0.0
  0
SPLINE
  5
11C
330
1F
100
AcDbEntity
  8
외형선
  6
Continuous
 62
     1
370
    15
100
AcDbSpline
210
0.0
220
0.0
230
1.0
 70
     8
 71
     3
 72
     8
 73
     4
 74
     0
 42
0.000000001
 43
0.00000001
 40
0.0
 40
0.0
 40
0.0
 40
0.0
 40
1.0
 40
1.0
 40
1.0
 40
1.0
 10
17.05599082157838
 20
4.20224841809857
 30
0.0
 10
17.00006361209588
 20
4.192666670966946
 30
0.0
 10
16.94381662881376
 20
4.168252331436602
 30
0.0
 10
16.89750590838858
 20
4.131402120159132
 30
0.0
  0
SPLINE
  5
11D
330
1F
100
AcDbEntity
  8
외형선
  6
Continuous
 62
     1
370
    15
100
AcDbSpline
210
0.0
220
0.0
230
1.0
 70
     8
 71
     3
 72
     8
 73
     4
 74
     0
 42
0.000000001
 43
0.00000001
 40
0.0
 40
0.0
 40
0.0
 40
0.0
 40
1.0
 40
1.0
 40
1.0
 40
1.0
 10
18.67808493426701
 20
4.446907073183455
 30
0.0
 10
18.13843301670535
 20
4.376573179329108
 30
0.0
 10
17.59566230312431
 20
4.294707808456065
 30
0.0
 10
17.05599079176515
 20
4.202248412990804
 30
0.0
  0
SPLINE
  5
11E
330
1F
100
AcDbEntity
  8
외형선
  6
Continuous
 62
     1
370
    15
100
AcDbSpline
210
0.0
220
0.0
230
1.0
 70
     8
 71
     3
 72
     8
 73
     4
 74
     0
 42
0.000000001
 43
0.00000001
 40
0.0
 40
0.0
 40
0.0
 40
0.0
 40
1.0
 40
1.0
 40
1.0
 40
1.0
 10
18.83784224828047
 20
4.419805801029691
 30
0.0
 10
18.79189312687464
 20
4.444952735219936
 30
0.0
 10
18.73576282160666
 20
4.454424345284799
 30
0.0
 10
18.67808506442202
 20
4.446907090149244
 30
0.0
  0
SPLINE
  5
11F
330
1F
100
AcDbEntity
  8
외형선
  6
Continuous
 62
     1
370
    15
100
AcDbSpline
210
0.0
220
0.0
230
1.0
 70
     8
 71
     3
 72
    10
 73
     6
 74
     0
 42
0.000000001
 43
0.00000001
 40
0.0
 40
0.0
 40
0.0
 40
0.0
 40
0.5
 40
0.5
 40
1.0
 40
1.0
 40
1.0
 40
1.0
 10
19.47459589187769
 20
4.493779730639818
 30
0.0
 10
19.38029305422405
 20
4.417524895160072
 30
0.0
 10
19.26586063452813
 20
4.373563433416567
 30
0.0
 10
19.03791064909129
 20
4.350092668636708
 30
0.0
 10
18.92847847360091
 20
4.370202606807698
 30
0.0
 10
18.83784224828104
 20
4.419805801029269
 30
0.0
  0
SPLINE
  5
120
330
1F
100
AcDbEntity
  8
외형선
  6
Continuous
 62
     1
370
    15
100
AcDbSpline
210
0.0
220
0.0
230
1.0
 70
     8
 71
     3
 72
     8
 73
     4
 74
     0
 42
0.000000001
 43
0.00000001
 40
0.0
 40
0.0
 40
0.0
 40
0.0
 40
1.0
 40
1.0
 40
1.0
 40
1.0
 10
19.6331887836055
 20
4.559560792774155
 30
0.0
 10
19.57722812395107
 20
4.553676877515016
 30
0.0
 10
19.52094228387544
 20
4.531256190364045
 30
0.0
 10
19.47459589187662
 20
4.493779730643084
 30
0.0
  0
SPLINE
  5
121
330
1F
100
AcDbEntity
  8
외형선
  6
Continuous
 62
     1
370
    15
100
AcDbSpline
210
0.0
220
0.0
230
1.0
 70
     8
 71
     3
 72
     8
 73
     4
 74
     0
 42
0.000000001
 43
0.00000001
 40
0.0
 40
0.0
 40
0.0
 40
0.0
 40
1.0
 40
1.0
 40
1.0
 40
1.0
 10
21.25703185862735
 20
4.694653391640409
 30
0.0
 10
20.71683439154624
 20
4.661571636794893
 30
0.0
 10
20.17347395251196
 20
4.616368418854811
 30
0.0
 10
19.63318868700137
 20
4.559560782616834
 30
0.0
  0
SPLINE
  5
122
330
1F
100
AcDbEntity
  8
외형선
  6
Continuous
 62
     1
370
    15
100
AcDbSpline
210
0.0
220
0.0
230
1.0
 70
     8
 71
     3
 72
     8
 73
     4
 74
     0
 42
0.000000001
 43
0.00000001
 40
0.0
 40
0.0
 40
0.0
 40
0.0
 40
1.0
 40
1.0
 40
1.0
 40
1.0
 10
21.41692559362592
 20
4.652510520802474
 30
0.0
 10
21.37092793571168
 20
4.683442431899834
 30
0.0
 10
21.31475219677947
 20
4.698188191296799
 30
0.0
 10
21.2570321618614
 20
4.694653410213165
 30
0.0
  0
SPLINE
  5
123
330
1F
100
AcDbEntity
  8
외형선
  6
Continuous
 62
     1
370
    15
100
AcDbSpline
210
0.0
220
0.0
230
1.0
 70
     8
 71
     3
 72
    10
 73
     6
 74
     0
 42
0.000000001
 43
0.00000001
 40
0.0
 40
0.0
 40
0.0
 40
0.0
 40
0.5
 40
0.5
 40
1.0
 40
1.0
 40
1.0
 40
1.0
 10
22.05403841995962
 20
4.682494882372949
 30
0.0
 10
21.95967905941918
 20
4.607920941864953
 30
0.0
 10
21.84518263598287
 20
4.568965516739903
 30
0.0
 10
21.61711835945653
 20
4.561122801488003
 30
0.0
 10
21.50763458896636
 20
4.591511706800428
 30
0.0
 10
21.41692559362649
 20
4.652510520802028
 30
0.0
  0
LINE
  5
124
330
1F
100
AcDbEntity
  8
외형선
  6
Continuous
 62
     1
370
    15
100
AcDbLine
 10
24.28749999999999
 20
0.5068079630055792
 30
0.0
 11
24.28749999999999
 21
-2.252541109290012
 31
0.0
  0
SPLINE
  5
125
330
1F
100
AcDbEntity
  8
외형선
  6
Continuous
 62
     1
370
    15
100
AcDbSpline
210
0.0
220
0.0
230
1.0
 70
     8
 71
     3
 72
    12
 73
     8
 74
     0
 42
0.000000001
 43
0.00000001
 40
0.0
 40
0.0
 40
0.0
 40
0.0
 40
0.2500000000000001
 40
0.2500000000000001
 40
0.5000000000000001
 40
0.5000000000000001
 40
1.0
 40
1.0
 40
1.0
 40
1.0
 10
15.17768952432838
 20
0.5096658085260088
 30
0.0
 10
15.15616355855966
 20
0.7691099963521467
 30
0.0
 10
15.13480684950119
 20
1.025592430790937
 30
0.0
 10
15.09014768123085
 20
1.534017439404124
 30
0.0
 10
15.06730701835748
 20
1.784076219762382
 30
0.0
 10
14.99869490462378
 20
2.505290489236667
 30
0.0
 10
14.95340382370593
 20
2.944499417470524
 30
0.0
 10
14.91070580818019
 20
3.314292799164523
 30
0.0
  0
SPLINE
  5
126
330
1F
100
AcDbEntity
  8
외형선
  6
Continuous
 62
     1
370
    15
100
AcDbSpline
210
0.0
220
0.0
230
1.0
 70
     8
 71
     3
 72
    12
 73
     8
 74
     0
 42
0.000000001
 43
0.00000001
 40
0.0
 40
0.0
 40
0.0
 40
0.0
 40
0.5000000000000002
 40
0.5000000000000002
 40
0.7500000000000001
 40
0.7500000000000001
 40
1.0
 40
1.0
 40
1.0
 40
1.0
 10
14.54154870364328
 20
0.7363568179077921
 30
0.0
 10
14.49876766262119
 20
1.250763813165344
 30
0.0
 10
14.45267022055821
 20
1.764295397589386
 30
0.0
 10
14.3841483776935
 20
2.467199075665091
 30
0.0
 10
14.36142825996338
 20
2.690298695484977
 30
0.0
 10
14.31717442474823
 20
3.105430744397976
 30
0.0
 10
14.29620057491052
 20
3.296041220871481
 30
0.0
 10
14.27441066560736
 20
3.47298162640957
 30
0.0
  0
SPLINE
  5
127
330
1F
100
AcDbEntity
  8
외형선
  6
Continuous
 62
     1
370
    15
100
AcDbSpline
210
0.0
220
0.0
230
1.0
 70
     8
 71
     3
 72
    12
 73
     8
 74
     0
 42
0.000000001
 43
0.00000001
 40
0.0
 40
0.0
 40
0.0
 40
0.0
 40
0.5
 40
0.5
 40
0.75
 40
0.75
 40
1.0
 40
1.0
 40
1.0
 40
1.0
 10
12.60043484772239
 20
1.415947665569609
 30
0.0
 10
12.5554937012598
 20
1.920473351803372
 30
0.0
 10
12.50885038908246
 20
2.40347731850016
 30
0.0
 10
12.44214485873299
 20
3.036104074072765
 30
0.0
 10
12.42098411254542
 20
3.230465025527828
 30
0.0
 10
12.37778511526386
 20
3.590511444275357
 30
0.0
 10
12.35543164719952
 20
3.756777644188007
 30
0.0
 10
12.33277198850091
 20
3.905019392988582
 30
0.0
  0
SPLINE
  5
128
330
1F
100
AcDbEntity
  8
외형선
  6
Continuous
 62
     1
370
    15
100
AcDbSpline
210
0.0
220
0.0
230
1.0
 70
     8
 71
     3
 72
    12
 73
     8
 74
     0
 42
0.000000001
 43
0.00000001
 40
0.0
 40
0.0
 40
0.0
 40
0.0
 40
0.5
 40
0.5
 40
0.75
 40
0.75
 40
1.0
 40
1.0
 40
1.0
 40
1.0
 10
10.17955255013501
 20
2.24945607141498
 30
0.0
 10
10.1487563550762
 20
2.569275498782551
 30
0.0
 10
10.11817586343037
 20
2.868439196940392
 30
0.0
 10
10.07432824955636
 20
3.270962134436042
 30
0.0
 10
10.06018038534135
 20
3.397219288777167
 30
0.0
 10
10.03078573096349
 20
3.638075063737875
 30
0.0
 10
10.01577052346662
 20
3.751916409107217
 30
0.0
 10
10.00057440348472
 20
3.857830551966321
 30
0.0
  0
LINE
  5
129
330
1F
100
AcDbEntity
  8
외형선
  6
Continuous
370
    15
100
AcDbLine
 10
9.999999999999991
 20
3.857803141701355
 30
0.0
 11
9.999999999999991
 21
4.35585579613339
 31
0.0
  0
SPLINE
  5
12A
330
1F
100
AcDbEntity
  8
외형선
  6
Continuous
 62
     1
370
    15
100
AcDbSpline
210
0.0
220
0.0
230
1.0
 70
     8
 71
     3
 72
    12
 73
     8
 74
     0
 42
0.000000001
 43
0.00000001
 40
0.0
 40
0.0
 40
0.0
 40
0.0
 40
0.5
 40
0.5
 40
0.75
 40
0.75
 40
1.0
 40
1.0
 40
1.0
 40
1.0
 10
11.80367060842747
 20
1.712194687310849
 30
0.0
 10
11.75844272694276
 20
2.210929564298059
 30
0.0
 10
11.71225612881995
 20
2.679562256209687
 30
0.0
 10
11.64718159435351
 20
3.282454932765907
 30
0.0
 10
11.62634662578585
 20
3.466909038985706
 30
0.0
 10
11.58239509565927
 20
3.808601909515218
 30
0.0
 10
11.55982274955232
 20
3.964009126926271
 30
0.0
 10
11.53711733412172
 20
4.100144109153685
 30
0.0
  0
SPLINE
  5
12B
330
1F
100
AcDbEntity
  8
외형선
  6
Continuous
 62
     1
370
    15
100
AcDbSpline
210
0.0
220
0.0
230
1.0
 70
     8
 71
     3
 72
    12
 73
     8
 74
     0
 42
0.000000001
 43
0.00000001
 40
0.0
 40
0.0
 40
0.0
 40
0.0
 40
0.4999999999999999
 40
0.4999999999999999
 40
0.7499999999999999
 40
0.7499999999999999
 40
1.0
 40
1.0
 40
1.0
 40
1.0
 10
11.96353926338683
 20
1.632591973751576
 30
0.0
 10
11.91819170521251
 20
2.130248503777443
 30
0.0
 10
11.87171366428491
 20
2.599708185680349
 30
0.0
 10
11.8060492680356
 20
3.20553194271779
 30
0.0
 10
11.78517032524665
 20
3.390700050435944
 30
0.0
 10
11.74118319526607
 20
3.734200459109984
 30
0.0
 10
11.71855784535567
 20
3.890848575317596
 30
0.0
 10
11.6957670659141
 20
4.028468015996441
 30
0.0
  0
SPLINE
  5
12C
330
1F
100
AcDbEntity
  8
외형선
  6
Continuous
370
    15
100
AcDbSpline
210
0.0
220
0.0
230
1.0
 70
     8
 71
     3
 72
     8
 73
     4
 74
     0
 42
0.000000001
 43
0.00000001
 40
0.0
 40
0.0
 40
0.0
 40
0.0
 40
1.0
 40
1.0
 40
1.0
 40
1.0
 10
10.02091938961606
 20
2.268188172699908
 30
0.0
 10
10.01392830726572
 20
2.339598375385065
 30
0.0
 10
10.00695052085109
 20
2.409943885862722
 30
0.0
 10
9.999999999999124
 20
2.479089261740174
 30
0.0
  0
SPLINE
  5
12D
330
1F
100
AcDbEntity
  8
외형선
  6
Continuous
370
    15
100
AcDbSpline
210
0.0
220
0.0
230
1.0
 70
    24
 71
     3
 72
     8
 73
     4
 74
     0
 42
0.000000001
 43
0.00000001
 40
0.0
 40
0.0
 40
0.0
 40
0.0
 40
1.0
 40
1.0
 40
1.0
 40
1.0
 10
9.999999999999964
 20
3.861829676153573
 30
0.0
 10
9.999999999999964
 20
3.498554224188787
 30
0.0
 10
10.0
 20
3.027793596311911
 30
0.0
 10
10.0
 20
2.479089261731514
 30
0.0
  0
SPLINE
  5
12E
330
1F
100
AcDbEntity
  8
외형선
  6
Continuous
370
    15
100
AcDbSpline
210
0.0
220
0.0
230
1.0
 70
    24
 71
     3
 72
     9
 73
     5
 74
     0
 42
0.000000001
 43
0.00000001
 40
0.0
 40
0.0
 40
0.0
 40
0.0
 40
0.5728702115987047
 40
0.9999999999999999
 40
0.9999999999999999
 40
0.9999999999999999
 40
0.9999999999999999
 10
9.999999999999995
 20
2.479089261731491
 30
0.0
 10
9.999999999999991
 20
2.441630471966983
 30
0.0
 10
9.999999999999988
 20
2.376242555112356
 30
0.0
 10
9.999999999999991
 20
2.30975343269652
 30
0.0
 10
9.999999999999991
 20
2.281353947908055
 30
0.0
  0
SPLINE
  5
12F
330
1F
100
AcDbEntity
  8
외형선
  6
Continuous
 62
     1
370
    15
100
AcDbSpline
210
0.0
220
0.0
230
1.0
 70
     8
 71
     3
 72
    12
 73
     8
 74
     0
 42
0.000000001
 43
0.00000001
 40
0.0
 40
0.0
 40
0.0
 40
0.0
 40
0.5
 40
0.5
 40
0.75
 40
0.75
 40
1.0
 40
1.0
 40
1.0
 40
1.0
 10
10.24478516473931
 20
-4.70574203941185
 30
0.0
 10
10.20394844322189
 20
-4.72415982300357
 30
0.0
 10
10.16140221700905
 20
-4.66678196723182
 30
0.0
 10
10.09948460048166
 20
-4.471885019195686
 30
0.0
 10
10.07916599194091
 20
-4.389133002138585
 30
0.0
 10
10.0398428685542
 20
-4.192580699056723
 30
0.0
 10
10.02034382088891
 20
-4.078200405124722
 30
0.0
 10
9.999999999999984
 20
-3.946599772972388
 30
0.0
  0
LINE
  5
130
330
1F
100
AcDbEntity
  8
외형선
  6
Continuous
 62
     1
370
    15
100
AcDbLine
 10
10.822182765543
 20
-4.69318087466168
 30
0.0
 11
10.81636959564004
 21
-4.693349682924148
 31
0.0
  0
SPLINE
  5
131
330
1F
100
AcDbEntity
  8
외형선
  6
Continuous
370
    15
100
AcDbSpline
210
0.0
220
0.0
230
1.0
 70
    24
 71
     3
 72
     8
 73
     4
 74
     0
 42
0.000000001
 43
0.00000001
 40
0.0
 40
0.0
 40
0.0
 40
0.0
 40
1.0
 40
1.0
 40
1.0
 40
1.0
 10
9.999999999999991
 20
-3.783627792510058
 30
0.0
 10
9.999999999999991
 20
-3.839465896611175
 30
0.0
 10
9.999999999999991
 20
-3.893793892322189
 30
0.0
 10
9.999999999999991
 20
-3.946599772972418
 30
0.0
  0
SPLINE
  5
132
330
1F
100
AcDbEntity
  8
외형선
  6
Continuous
 62
     1
370
    15
100
AcDbSpline
210
0.0
220
0.0
230
1.0
 70
     8
 71
     3
 72
     9
 73
     5
 74
     0
 42
0.000000001
 43
0.00000001
 40
0.0
 40
0.0
 40
0.0
 40
0.0
 40
0.5008679350333782
 40
1.0
 40
1.0
 40
1.0
 40
1.0
 10
10.24478516486923
 20
-4.705742039353259
 30
0.0
 10
10.23363678148809
 20
-4.71367214319387
 30
0.0
 10
10.21137865194662
 20
-4.729504867323199
 30
0.0
 10
10.18624952363707
 20
-4.739731617730178
 30
0.0
 10
10.17370676993311
 20
-4.74483611677871
 30
0.0
  0
SPLINE
  5
133
330
1F
100
AcDbEntity
  8
외형선
  6
Continuous
370
    15
100
AcDbSpline
210
0.0
220
0.0
230
1.0
 70
    24
 71
     3
 72
    10
 73
     6
 74
     0
 42
0.000000001
 43
0.00000001
 40
0.0
 40
0.0
 40
0.0
 40
0.0
 40
0.4999999999999998
 40
0.4999999999999998
 40
1.0
 40
1.0
 40
1.0
 40
1.0
 10
9.999999999999991
 20
-3.946599772972418
 30
0.0
 10
9.999999999999991
 20
-4.132487018407707
 30
0.0
 10
9.999999999999988
 20
-4.286318602487078
 30
0.0
 10
9.999999999999988
 20
-4.531745513369675
 30
0.0
 10
10.00000000000023
 20
-4.622582655979574
 30
0.0
 10
10.00000000000023
 20
-4.6800080829166
 30
0.0
  0
LINE
  5
134
330
1F
100
AcDbEntity
  8
외형선
  6
Continuous
 62
     1
370
    15
100
AcDbLine
 10
24.28749999999999
 20
0.9186882131466297
 30
0.0
 11
24.28749999999999
 21
3.083737631391747
 31
0.0
  0
LINE
  5
135
330
1F
100
AcDbEntity
  8
외형선
  6
Continuous
370
    15
100
AcDbLine
 10
9.999999999999991
 20
-4.762500000000002
 30
0.0
 11
9.999999999999991
 21
-4.6799870926462
 31
0.0
  0
LINE
  5
136
330
1F
100
AcDbEntity
  8
외형선
  6
Continuous
 62
     1
370
    15
100
AcDbLine
 10
24.28749999999999
 20
-2.252541109290012
 30
0.0
 11
24.28749999999999
 21
-2.78419643118687
 31
0.0
  0
LINE
  5
137
330
1F
100
AcDbEntity
  8
외형선
  6
Continuous
 62
     1
370
    15
100
AcDbLine
 10
24.28749999999999
 20
3.662499999999993
 30
0.0
 11
24.28749999999999
 21
3.627265076973848
 31
0.0
  0
SPLINE
  5
138
330
1F
100
AcDbEntity
  8
외형선
  6
Continuous
 62
     1
370
    15
100
AcDbSpline
210
0.0
220
0.0
230
1.0
 70
     8
 71
     3
 72
    11
 73
     7
 74
     0
 42
0.000000001
 43
0.00000001
 40
0.0
 40
0.0
 40
0.0
 40
0.0
 40
0.011578094970301
 40
0.343919528451874
 40
0.673117869506461
 40
1.0
 40
1.0
 40
1.0
 40
1.0
 10
10.81636959564004
 20
-4.693349682924148
 30
0.0
 10
10.81558309409635
 20
-4.693396630509728
 30
0.0
 10
10.79222059441698
 20
-4.69479117698183
 30
0.0
 10
10.74540529556791
 20
-4.572651871286192
 30
0.0
 10
10.67912520401585
 20
-4.330023947855004
 30
0.0
 10
10.6356492700989
 20
-4.059386490939112
 30
0.0
 10
10.61398804633098
 20
-3.924545488433323
 30
0.0
  0
SPLINE
  5
139
330
1F
100
AcDbEntity
  8
외형선
  6
Continuous
 62
     1
370
    15
100
AcDbSpline
210
0.0
220
0.0
230
1.0
 70
     8
 71
     3
 72
    11
 73
     7
 74
     0
 42
0.000000001
 43
0.00000001
 40
0.0
 40
0.0
 40
0.0
 40
0.0
 40
0.1265501677263444
 40
0.4202182676795062
 40
0.711423599092534
 40
1.0
 40
1.0
 40
1.0
 40
1.0
 10
11.00202397090012
 20
-4.746059794470543
 30
0.0
 10
10.99237487129481
 20
-4.750188311659248
 30
0.0
 10
10.96033439285324
 20
-4.763897328188358
 30
0.0
 10
10.90474856859731
 20
-4.64329972432097
 30
0.0
 10
10.83841705210878
 20
-4.402448669731383
 30
0.0
 10
10.79525584276296
 20
-4.136858508641208
 30
0.0
 10
10.77377309200091
 20
-4.004665566830013
 30
0.0
  0
SPLINE
  5
13A
330
1F
100
AcDbEntity
  8
외형선
  6
Continuous
 62
     1
370
    15
100
AcDbSpline
210
0.0
220
0.0
230
1.0
 70
     8
 71
     3
 72
    10
 73
     6
 74
     0
 42
0.000000001
 43
0.00000001
 40
0.0
 40
0.0
 40
0.0
 40
0.0
 40
0.0715568932964966
 40
0.5382435321398251
 40
1.0
 40
1.0
 40
1.0
 40
1.0
 10
12.57497082773703
 20
-4.749208154436283
 30
0.0
 10
12.57076249290591
 20
-4.753413863259619
 30
0.0
 10
12.53910783463918
 20
-4.785048768968059
 30
0.0
 10
12.47753743590393
 20
-4.656726765482625
 30
0.0
 10
12.42322455084844
 20
-4.413750734281709
 30
0.0
 10
12.39621231306947
 20
-4.2929078381129
 30
0.0
  0
SPLINE
  5
13B
330
1F
100
AcDbEntity
  8
외형선
  6
Continuous
370
    15
100
AcDbSpline
210
0.0
220
0.0
230
1.0
 70
     8
 71
     3
 72
     9
 73
     5
 74
     0
 42
0.000000001
 43
0.00000001
 40
0.0
 40
0.0
 40
0.0
 40
0.0
 40
0.43447916866229
 40
1.0
 40
1.0
 40
1.0
 40
1.0
 10
10.0752861805678
 20
-4.75783807737202
 30
0.0
 10
10.06443394840581
 20
-4.757148027741981
 30
0.0
 10
10.0394563822882
 20
-4.755559805153164
 30
0.0
 10
10.014246927055
 20
-4.707286687039137
 30
0.0
 10
9.999990454973954
 20
-4.679987233152028
 30
0.0
  0
SPLINE
  5
13C
330
1F
100
AcDbEntity
  8
외형선
  6
Continuous
 62
     1
370
    15
100
AcDbSpline
210
0.0
220
0.0
230
1.0
 70
     8
 71
     3
 72
    11
 73
     7
 74
     0
 42
0.000000001
 43
0.00000001
 40
0.0
 40
0.0
 40
0.0
 40
0.0
 40
0.0760187330498892
 40
0.3850305830029139
 40
0.6942464560704507
 40
1.0
 40
1.0
 40
1.0
 40
1.0
 10
12.75346245802322
 20
-4.690441155244598
 30
0.0
 10
12.74852222817197
 20
-4.697080230319011
 30
0.0
 10
12.72350024341265
 20
-4.73070677004078
 30
0.0
 10
12.67661572695139
 20
-4.680420597951973
 30
0.0
 10
12.61454921031369
 20
-4.543448615276156
 30
0.0
 10
12.57454059686538
 20
-4.358272381953531
 30
0.0
 10
12.55464891605748
 20
-4.266205544115666
 30
0.0
  0
SPLINE
  5
13D
330
1F
100
AcDbEntity
  8
외형선
  6
Continuous
 62
     1
370
    15
100
AcDbSpline
210
0.0
220
0.0
230
1.0
 70
     8
 71
     3
 72
     9
 73
     5
 74
     0
 42
0.000000001
 43
0.00000001
 40
0.0
 40
0.0
 40
0.0
 40
0.0
 40
0.4156445105281222
 40
1.0
 40
1.0
 40
1.0
 40
1.0
 10
13.31976867554231
 20
-4.681187531806882
 30
0.0
 10
13.30175737766042
 20
-4.666957091586506
 30
0.0
 10
13.25842395829443
 20
-4.632720045601476
 30
0.0
 10
13.21582876699367
 20
-4.459298882557039
 30
0.0
 10
13.19093803313196
 20
-4.357959273941423
 30
0.0
  0
SPLINE
  5
13E
330
1F
100
AcDbEntity
  8
외형선
  6
Continuous
 62
     1
370
    15
100
AcDbSpline
210
0.0
220
0.0
230
1.0
 70
     8
 71
     3
 72
    10
 73
     6
 74
     0
 42
0.000000001
 43
0.00000001
 40
0.0
 40
0.0
 40
0.0
 40
0.0
 40
0.018828427993427
 40
0.5105965983968089
 40
1.0
 40
1.0
 40
1.0
 40
1.0
 10
13.50106419134455
 20
-4.759568838016619
 30
0.0
 10
13.50013856382267
 20
-4.760534020748827
 30
0.0
 10
13.47503703839434
 20
-4.78670821968192
 30
0.0
 10
13.42362242032015
 20
-4.698510832867503
 30
0.0
 10
13.37494067173758
 20
-4.520431932310067
 30
0.0
 10
13.35065846255823
 20
-4.431607080293277
 30
0.0
  0
SPLINE
  5
13F
330
1F
100
AcDbEntity
  8
외형선
  6
Continuous
 62
     1
370
    15
100
AcDbSpline
210
0.0
220
0.0
230
1.0
 70
     8
 71
     3
 72
     9
 73
     5
 74
     0
 42
0.000000001
 43
0.00000001
 40
0.0
 40
0.0
 40
0.0
 40
0.0
 40
0.1471957250667809
 40
1.0
 40
1.0
 40
1.0
 40
1.0
 10
15.0749379654613
 20
-4.747187078177284
 30
0.0
 10
15.07008581809747
 20
-4.752118730938395
 30
0.0
 10
15.03712190313578
 20
-4.785622779774552
 30
0.0
 10
15.00307084690938
 20
-4.692723465891595
 30
0.0
 10
14.97403196059352
 20
-4.613498533873845
 30
0.0
  0
SPLINE
  5
140
330
1F
100
AcDbEntity
  8
외형선
  6
Continuous
 62
     1
370
    15
100
AcDbSpline
210
0.0
220
0.0
230
1.0
 70
     8
 71
     3
 72
    10
 73
     6
 74
     0
 42
0.000000001
 43
0.00000001
 40
0.0
 40
0.0
 40
0.0
 40
0.0
 40
0.0743934214890188
 40
0.5365711633241548
 40
0.9999999999999999
 40
0.9999999999999999
 40
0.9999999999999999
 40
0.9999999999999999
 10
15.25329518093178
 20
-4.694733519684756
 30
0.0
 10
15.25038294139397
 20
-4.698719815911133
 30
0.0
 10
15.2293780766437
 20
-4.727471438846746
 30
0.0
 10
15.18868751197047
 20
-4.699438958015761
 30
0.0
 10
15.15134279957919
 20
-4.615837107678781
 30
0.0
 10
15.13264520491934
 20
-4.573979682348093
 30
0.0
  0
LINE
  5
141
330
1F
100
AcDbEntity
  8
외형선
  6
Continuous
 62
     1
370
    15
100
AcDbLine
 10
15.82127106582943
 20
-4.682782787599431
 30
0.0
 11
15.76962765048228
 21
-4.623011502756121
 31
0.0
  0
SPLINE
  5
142
330
1F
100
AcDbEntity
  8
외형선
  6
Continuous
 62
     1
370
    15
100
AcDbSpline
210
0.0
220
0.0
230
1.0
 70
     8
 71
     3
 72
     9
 73
     5
 74
     0
 42
0.000000001
 43
0.00000001
 40
0.0
 40
0.0
 40
0.0
 40
0.0
 40
0.0033250466115862
 40
0.9999999999999999
 40
0.9999999999999999
 40
0.9999999999999999
 40
0.9999999999999999
 10
16.00126707116304
 20
-4.762254793938693
 30
0.0
 10
16.00118945654124
 20
-4.762336517676867
 30
0.0
 10
15.97784704037004
 20
-4.786914740998304
 30
0.0
 10
15.9536378113911
 20
-4.737052075430068
 30
0.0
 10
15.92950907922695
 20
-4.687355205549024
 30
0.0
  0
LINE
  5
143
330
1F
100
AcDbEntity
  8
외형선
  6
Continuous
 62
     1
370
    15
100
AcDbLine
 10
17.57483181108491
 20
-4.740272113328394
 30
0.0
 11
17.55364267229797
 21
-4.755645299929626
 31
0.0
  0
LINE
  5
144
330
1F
100
AcDbEntity
  8
외형선
  6
Continuous
 62
     1
370
    15
100
AcDbLine
 10
17.75331930243836
 20
-4.699171289200732
 30
0.0
 11
17.71226237219639
 21
-4.704804391718771
 31
0.0
  0
LINE
  5
145
330
1F
100
AcDbEntity
  8
중심선
100
AcDbLine
 10
-42.21250000000001
 20
-0.0000000000000052
 30
0.0
 11
27.2875
 21
0.0000000000000033
 31
0.0
  0
LINE
  5
146
330
1F
100
AcDbEntity
  8
참조1
100
AcDbLine
 10
-7.462500000000004
 20
-0.3168705809327366
 30
0.0
 11
-7.462499999999999
 21
-40.31687058093274
 31
0.0
  0
LINE
  5
147
330
1F
100
AcDbEntity
  8
참조1
100
AcDbLine
 10
-19.72860765519648
 20
-4.762499999999996
 30
0.0
 11
48.41397268839599
 21
-4.762499999999996
 31
0.0
  0
LINE
  5
148
330
1F
100
AcDbEntity
  8
참조1
100
AcDbLine
 10
48.41397268839599
 20
-4.762499999999996
 30
0.0
 11
48.41397268839599
 21
-6.927248606176845
 31
0.0
  0
LINE
  5
149
330
1F
100
AcDbEntity
  8
참조1
100
AcDbLine
 10
-7.462499999999999
 20
-40.31687058093274
 30
0.0
 11
-24.1960498072657
 21
-40.31687058093274
 31
0.0
  0
CIRCLE
  5
14A
330
1F
100
AcDbEntity
  8
해칭선
100
AcDbCircle
 10
0.0
 20
0.0
 30
0.0
 40
3.000000000000001
  0
INSERT
  5
14B
330
1F
100
AcDbEntity
  8
0
  6
Continuous
 62
     7
100
AcDbBlockReference
 66
     1
  2
블럭10
 10
-21.40277293212521
 20
-52.36404488257666
 30
0.0
  0
ATTRIB
  5
14C
330
14B
100
AcDbEntity
  8
FORMAT
 62
     2
100
AcDbText
 10
-31.54440894426184
 20
-50.28867796974447
 30
0.0
 40
4.233333333333333
  1
EM666024 [ 3 FLUTE ]
 41
0.75
  7
SLDTEXTSTYLE0
 11
-31.54440894426184
 21
-52.40534463641114
 31
0.0
100
AcDbAttribute
  2
AUTOATTR0
 70
     0
 74
     1
  0
SEQEND
  5
14D
330
14B
100
AcDbEntity
  8
0
  6
Continuous
 62
     7
  0
HATCH
  5
14E
330
1F
100
AcDbEntity
  8
중심선
100
AcDbHatch
 10
0.0
 20
0.0
 30
0.0
210
0.0
220
0.0
230
1.0
  2
SOLID
 70
     1
 71
     0
 91
        1
 92
        0
 93
        4
 72
     1
 10
-15.68786362774436
 20
-36.11687058093273
 11
-19.13413887158164
 21
-36.11687058093273
 72
     1
 10
-19.13413887158164
 20
-36.11687058093273
 11
-21.26236873078566
 21
-38.65319616150533
 72
     1
 10
-21.26236873078566
 20
-38.65319616150533
 11
-17.81606040183523
 21
-38.65315673220284
 72
     1
 10
-17.81606040183523
 20
-38.65315673220284
 11
-15.68786362774436
 21
-36.11687058093273
 97
        0
 75
     0
 76
     1
 98
        1
 10
-0.0000000000000071
 20
-0.3168705809327331
  0
HATCH
  5
14F
330
1F
100
AcDbEntity
  8
중심선
100
AcDbHatch
 10
0.0
 20
0.0
 30
0.0
210
0.0
220
0.0
230
1.0
  2
SOLID
 70
     1
 71
     0
 91
        1
 92
        0
 93
        4
 72
     1
 10
-10.67509963670838
 20
-36.11687058093276
 11
-14.12137488054566
 21
-36.11687058093276
 72
     1
 10
-14.12137488054566
 20
-36.11687058093276
 11
-18.65251288890308
 21
-41.51687058093275
 72
     1
 10
-18.65251288890308
 20
-41.51687058093275
 11
-15.2062376450658
 21
-41.51687058093275
 72
     1
 10
-15.2062376450658
 20
-41.51687058093275
 11
-10.67509963670838
 21
-36.11687058093276
 97
        0
 75
     0
 76
     1
 98
        1
 10
-0.0000000000000071
 20
-0.3168705809327331
  0
HATCH
  5
150
330
1F
100
AcDbEntity
  8
중심선
100
AcDbHatch
 10
0.0
 20
0.0
 30
0.0
210
0.0
220
0.0
230
1.0
  2
SOLID
 70
     1
 71
     0
 91
        1
 92
        0
 93
        4
 72
     1
 10
-5.662335645672485
 20
-36.11687058093273
 11
-9.108610889509656
 21
-36.11687058093276
 72
     1
 10
-9.108610889509656
 20
-36.11687058093276
 11
-16.15704779139888
 21
-44.51687058093275
 72
     1
 10
-16.15704779139888
 20
-44.51687058093275
 11
-12.7107725475616
 21
-44.51687058093275
 72
     1
 10
-12.7107725475616
 20
-44.51687058093275
 11
-5.662335645672485
 21
-36.11687058093273
 97
        0
 75
     0
 76
     1
 98
        1
 10
-0.0000000000000071
 20
-0.3168705809327331
  0
HATCH
  5
151
330
1F
100
AcDbEntity
  8
중심선
100
AcDbHatch
 10
0.0
 20
0.0
 30
0.0
210
0.0
220
0.0
230
1.0
  2
SOLID
 70
     1
 71
     0
 91
        1
 92
        0
 93
        6
 72
     3
 10
-0.8624452146603139
 20
-40.31687058098401
 11
3.960054785062283
 21
1.540882976769353E-10
 40
0.3939339440162628
 50
17.09539180608437
 51
320.001965768507
 73
     0
 72
     1
 10
0.8205544410402539
 20
-38.90476458557101
 11
3.125856314741319
 21
-36.97043787552312
 72
     3
 10
-0.8624452147131605
 20
-40.31687058093289
 11
6.600054785286829
 21
-1.278976924368180E-13
 40
0.636358354079598
 50
39.9987384933741
 51
368.4976242363725
 73
     1
 72
     1
 10
5.562887277187449
 20
-39.35687058086275
 11
-2.182377907877238
 21
-39.35687058086275
 72
     1
 10
-2.182377907877238
 20
-39.35687058086275
 11
-2.182402952323172
 21
-41.27687058086265
 72
     1
 10
-2.182402952323172
 20
-41.27687058086265
 11
2.258976817148866
 21
-41.27687058086262
 97
        0
 75
     0
 76
     1
 98
        1
 10
-0.0000000000000071
 20
-0.3168705809327331
  0
POINT
  5
152
330
1F
100
AcDbEntity
  8
치수문자_일반주서
100
AcDbPoint
 10
0.0000000000000016
 20
-0.3168705809327366
 30
0.0
  0
DIMENSION
  5
153
330
1F
100
AcDbEntity
  8
치수문자_일반주서
100
AcDbDimension
  2
_D
 10
43.29991147885529
 20
-4.762499999999896
 30
0.0
 11
43.29991147885519
 21
21.40825000000014
 31
0.0
 70
   160
  1
%%c<>
 71
     2
 42
9.525000000000041
 52
-270.0
  3
SLDDIMSTYLE0
100
AcDbAlignedDimension
 13
6.979901433108414
 23
4.762500000000014
 33
0.0
 14
14.28807721722863
 24
-4.762500000000002
 34
0.0
 50
90.0000000000002
100
AcDbRotatedDimension
1001
ACAD
1000
DSTYLE
1002
{
1070
   171
1070
     6
1070
   273
1070
     7
1002
}
  0
DIMENSION
  5
166
330
1F
100
AcDbEntity
  8
치수문자_일반주서
100
AcDbDimension
  2
_D_1
 10
-49.02250000000002
 20
-4.762500000000046
 30
0.0
 11
-49.02250000000003
 21
-0.7630082607154614
 31
0.0
 70
   160
  1
%%c<>
 71
     2
 42
9.525000000000006
 52
-270.0
  3
SLDDIMSTYLE1
100
AcDbAlignedDimension
 13
-38.21250000000001
 23
4.762500000000001
 33
0.0
 14
-38.21250000000001
 24
-4.762500000000005
 34
0.0
 50
90.0000000000002
100
AcDbRotatedDimension
1001
ACAD
1000
DSTYLE
1002
{
1070
   171
1070
     6
1070
   273
1070
     7
1002
}
  0
DIMENSION
  5
17B
330
1F
100
AcDbEntity
  8
치수문자_일반주서
100
AcDbDimension
  2
_D_2
 10
9.999999999999988
 20
20.41145279401989
 30
0.0
 11
17.14374999999998
 21
20.41145279401989
 31
0.0
 70
   160
  1
<>
 71
     2
 42
14.2875
  3
SLDDIMSTYLE0
100
AcDbAlignedDimension
 13
24.28749999999999
 23
3.083737631391747
 33
0.0
 14
9.999999999999988
 24
4.35585579613339
 34
0.0
 50
0.0000000000000285
100
AcDbRotatedDimension
1001
ACAD
1000
DSTYLE
1002
{
1070
   171
1070
     6
1070
   273
1070
     7
1002
}
  0
DIMENSION
  5
18F
330
1F
100
AcDbEntity
  8
치수문자_일반주서
100
AcDbDimension
  2
_D_3
 10
-39.21250000000001
 20
37.62464524059783
 30
0.0
 11
-4.686213274302501
 21
37.62464524059783
 31
0.0
 70
   160
  1
<>
 71
     2
 42
63.5
  3
SLDDIMSTYLE2
100
AcDbAlignedDimension
 13
24.28749999999999
 23
3.627265076973848
 33
0.0
 14
-39.21250000000001
 24
3.762499999999992
 34
0.0
100
AcDbRotatedDimension
1001
ACAD
1000
DSTYLE
1002
{
1070
   171
1070
     6
1070
   273
1070
     7
1002
}
  0
LINE
  5
1A3
330
1F
100
AcDbEntity
  8
참조1
100
AcDbLine
 10
73.77629082238857
 20
7.123129419067269
 30
0.0
 11
73.77629082238857
 21
-7.756870580932735
 31
0.0
  0
LINE
  5
1A4
330
1F
100
AcDbEntity
  8
참조1
100
AcDbLine
 10
86.47629082238856
 20
5.123129419067269
 30
0.0
 11
73.77629082238857
 21
5.123129419067269
 31
0.0
  0
SOLID
  5
1A5
330
1F
100
AcDbEntity
  8
참조1
100
AcDbTrace
 10
73.77629082238857
 20
5.123129419067269
 30
0.0
 11
80.12629082238857
 21
4.107129419067269
 31
0.0
 12
80.12629082238857
 22
6.139129419067269
 32
0.0
 13
80.12629082238857
 23
6.139129419067269
 33
0.0
  0
LINE
  5
1A6
330
1F
100
AcDbEntity
  8
참조1
100
AcDbLine
 10
86.47629082238856
 20
-5.756870580932735
 30
0.0
 11
73.77629082238857
 21
-5.756870580932735
 31
0.0
  0
SOLID
  5
1A7
330
1F
100
AcDbEntity
  8
참조1
100
AcDbTrace
 10
73.77629082238857
 20
-5.756870580932735
 30
0.0
 11
80.12629082238857
 21
-6.772870580932735
 31
0.0
 12
80.12629082238857
 22
-4.740870580932735
 32
0.0
 13
80.12629082238857
 23
-4.740870580932735
 33
0.0
  0
MTEXT
  5
1A8
330
1F
100
AcDbEntity
  8
참조1
100
AcDbMText
 10
83.37640563295113
 20
10.74884698508335
 30
0.0
 40
3.5
 41
0.0
 71
     1
 72
     1
  1
A
  7
SLDTEXTSTYLE0
 73
     1
 44
1.0
  0
MTEXT
  5
1A9
330
1F
100
AcDbEntity
  8
참조1
100
AcDbMText
 10
83.37640563295113
 20
-0.1311530149166595
 30
0.0
 40
3.5
 41
0.0
 71
     1
 72
     1
  1
A
  7
SLDTEXTSTYLE0
 73
     1
 44
1.0
  0
INSERT
  5
1B0
330
1F
100
AcDbEntity
  8
해칭선
100
AcDbBlockReference
  2
SW_DOWELSYMBOL_0
 10
0.0
 20
0.0
 30
0.0
  0
ENDSEC
  0
SECTION
  2
OBJECTS
  0
DICTIONARY
  5
C
330
0
100
AcDbDictionary
281
     1
  3
ACAD_GROUP
350
D
  3
ACAD_IMAGE_VARS
350
1D4
  3
ACAD_LAYOUT
350
1A
  3
ACAD_MLINESTYLE
350
17
  3
ACAD_PLOTSETTINGS
350
19
  3
ACAD_PLOTSTYLENAME
350
E
  3
ACAD_SCALELIST
350
47
  3
APPDATA
350
1D2
  3
DWGPROPS
350
1D6
  0
DICTIONARY
  5
D
102
{ACAD_REACTORS
330
C
102
}
330
C
100
AcDbDictionary
281
     1
  0
RASTERVARIABLES
  5
1D4
102
{ACAD_REACTORS
330
C
102
}
330
C
100
AcDbRasterVariables
 90
        0
 70
     1
 71
     1
 72
     1
  0
DICTIONARY
  5
1A
102
{ACAD_REACTORS
330
C
102
}
330
C
100
AcDbDictionary
281
     1
  3
Layout1
350
1E
  3
Layout2
350
26
  3
Model
350
22
  0
DICTIONARY
  5
17
102
{ACAD_REACTORS
330
C
102
}
330
C
100
AcDbDictionary
281
     1
  3
Standard
350
18
  0
DICTIONARY
  5
19
102
{ACAD_REACTORS
330
C
102
}
330
C
100
AcDbDictionary
281
     1
  0
ACDBDICTIONARYWDFLT
  5
E
102
{ACAD_REACTORS
330
C
102
}
330
C
100
AcDbDictionary
281
     1
  3
Normal
350
F
100
AcDbDictionaryWithDefault
340
F
  0
DICTIONARY
  5
47
102
{ACAD_REACTORS
330
C
102
}
330
C
100
AcDbDictionary
281
     1
  3
A0
350
48
  3
A1
350
49
  3
A2
350
4A
  3
A3
350
4B
  3
A4
350
4C
  3
A5
350
4D
  3
A6
350
4E
  3
A7
350
4F
  3
A8
350
50
  3
A9
350
51
  3
B0
350
52
  3
B1
350
53
  3
B2
350
54
  3
B3
350
55
  3
B4
350
56
  3
B5
350
57
  3
B6
350
58
  3
B7
350
59
  3
B8
350
5A
  3
B9
350
5B
  3
C0
350
5C
  3
C1
350
5D
  3
C2
350
5E
  3
C3
350
5F
  3
C4
350
60
  3
C5
350
61
  3
C6
350
62
  3
C7
350
63
  3
C8
350
64
  3
C9
350
65
  3
D0
350
66
  3
D1
350
67
  3
D2
350
68
  0
DICTIONARY
  5
1D2
102
{ACAD_REACTORS
330
C
102
}
330
C
100
AcDbDictionary
281
     1
  0
XRECORD
  5
1D6
102
{ACAD_REACTORS
330
C
102
}
330
C
100
AcDbXrecord
280
     1
  1
DWGPROPS COOKIE
  2

  3

  4

  6

  7

  8
12016016
  9

300
=
301
=
302
=
303
=
304
=
305
=
306
=
307
=
308
=
309
=
 40
0.0
 41
2458298.995587396
 42
2458302.361324676
  1

 90
        0
  0
LAYOUT
  5
1E
102
{ACAD_REACTORS
330
1A
102
}
330
1A
100
AcDbPlotSettings
  1

  2
none_device
  4

  6

 40
0.0
 41
0.0
 42
0.0
 43
0.0
 44
0.0
 45
0.0
 46
0.0
 47
0.0
 48
0.0
 49
0.0
140
0.0
141
0.0
142
1.0
143
1.0
 70
   688
 72
     1
 73
     0
 74
     5
  7

 75
    16
147
1.0
148
0.0
149
0.0
100
AcDbLayout
  1
Layout1
 70
     1
 71
     1
 10
0.0
 20
0.0
 11
420.0
 21
297.0
 12
0.0
 22
0.0
 32
0.0
 14
1.000000000000000E+20
 24
1.000000000000000E+20
 34
1.000000000000000E+20
 15
-1.000000000000000E+20
 25
-1.000000000000000E+20
 35
-1.000000000000000E+20
146
0.0
 13
0.0
 23
0.0
 33
0.0
 16
1.0
 26
0.0
 36
0.0
 17
0.0
 27
1.0
 37
0.0
 76
     0
330
1B
  0
LAYOUT
  5
26
102
{ACAD_REACTORS
330
1A
102
}
330
1A
100
AcDbPlotSettings
  1

  2
none_device
  4

  6

 40
0.0
 41
0.0
 42
0.0
 43
0.0
 44
0.0
 45
0.0
 46
0.0
 47
0.0
 48
0.0
 49
0.0
140
0.0
141
0.0
142
1.0
143
1.0
 70
   688
 72
     1
 73
     0
 74
     5
  7

 75
    16
147
1.0
148
0.0
149
0.0
100
AcDbLayout
  1
Layout2
 70
     1
 71
     2
 10
0.0
 20
0.0
 11
0.0
 21
0.0
 12
0.0
 22
0.0
 32
0.0
 14
0.0
 24
0.0
 34
0.0
 15
0.0
 25
0.0
 35
0.0
146
0.0
 13
0.0
 23
0.0
 33
0.0
 16
1.0
 26
0.0
 36
0.0
 17
0.0
 27
1.0
 37
0.0
 76
     0
330
23
  0
LAYOUT
  5
22
102
{ACAD_REACTORS
330
1A
102
}
330
1A
100
AcDbPlotSettings
  1

  2
none_device
  4
ANSI_A_(11.00_x_8.50_Inches)
  6

 40
6.35
 41
19.05
 42
6.35000508
 43
19.05000254
 44
279.4
 45
215.9
 46
108.1449830654433
 47
90.77317567401943
 48
0.0
 49
0.0
140
0.0
141
0.0
142
0.0744403274023622
143
1.0
 70
  1696
 72
     0
 73
     0
 74
     0
  7

 75
     0
147
0.0235690232323232
148
0.0
149
0.0
100
AcDbLayout
  1
Model
 70
     1
 71
     0
 10
0.0
 20
0.0
 11
420.0
 21
297.0
 12
0.0
 22
0.0
 32
0.0
 14
-53.39750000000008
 24
-50.28867796974448
 34
0.0
 15
86.47629082238856
 25
41.99964524059783
 35
0.0
146
0.0
 13
0.0
 23
0.0
 33
0.0
 16
1.0
 26
0.0
 36
0.0
 17
0.0
 27
1.0
 37
0.0
 76
     0
330
1F
331
29
  0
MLINESTYLE
  5
18
102
{ACAD_REACTORS
330
17
102
}
330
17
100
AcDbMlineStyle
  2
Standard
 70
     0
  3

 62
   256
 51
90.0
 52
90.0
 71
     2
 49
0.5
 62
   256
  6
BYLAYER
 49
-0.5
 62
   256
  6
BYLAYER
  0
ACDBPLACEHOLDER
  5
F
102
{ACAD_REACTORS
330
E
102
}
330
E
  0
SCALE
  5
48
102
{ACAD_REACTORS
330
47
102
}
330
47
100
AcDbScale
 70
     0
300
1:1
140
1.0
141
1.0
290
     1
  0
SCALE
  5
49
102
{ACAD_REACTORS
330
47
102
}
330
47
100
AcDbScale
 70
     0
300
1:2
140
1.0
141
2.0
290
     0
  0
SCALE
  5
4A
102
{ACAD_REACTORS
330
47
102
}
330
47
100
AcDbScale
 70
     0
300
1:4
140
1.0
141
4.0
290
     0
  0
SCALE
  5
4B
102
{ACAD_REACTORS
330
47
102
}
330
47
100
AcDbScale
 70
     0
300
1:5
140
1.0
141
5.0
290
     0
  0
SCALE
  5
4C
102
{ACAD_REACTORS
330
47
102
}
330
47
100
AcDbScale
 70
     0
300
1:8
140
1.0
141
8.0
290
     0
  0
SCALE
  5
4D
102
{ACAD_REACTORS
330
47
102
}
330
47
100
AcDbScale
 70
     0
300
1:10
140
1.0
141
10.0
290
     0
  0
SCALE
  5
4E
102
{ACAD_REACTORS
330
47
102
}
330
47
100
AcDbScale
 70
     0
300
1:16
140
1.0
141
16.0
290
     0
  0
SCALE
  5
4F
102
{ACAD_REACTORS
330
47
102
}
330
47
100
AcDbScale
 70
     0
300
1:20
140
1.0
141
20.0
290
     0
  0
SCALE
  5
50
102
{ACAD_REACTORS
330
47
102
}
330
47
100
AcDbScale
 70
     0
300
1:30
140
1.0
141
30.0
290
     0
  0
SCALE
  5
51
102
{ACAD_REACTORS
330
47
102
}
330
47
100
AcDbScale
 70
     0
300
1:40
140
1.0
141
40.0
290
     0
  0
SCALE
  5
52
102
{ACAD_REACTORS
330
47
102
}
330
47
100
AcDbScale
 70
     0
300
1:50
140
1.0
141
50.0
290
     0
  0
SCALE
  5
53
102
{ACAD_REACTORS
330
47
102
}
330
47
100
AcDbScale
 70
     0
300
1:100
140
1.0
141
100.0
290
     0
  0
SCALE
  5
54
102
{ACAD_REACTORS
330
47
102
}
330
47
100
AcDbScale
 70
     0
300
2:1
140
2.0
141
1.0
290
     0
  0
SCALE
  5
55
102
{ACAD_REACTORS
330
47
102
}
330
47
100
AcDbScale
 70
     0
300
4:1
140
4.0
141
1.0
290
     0
  0
SCALE
  5
56
102
{ACAD_REACTORS
330
47
102
}
330
47
100
AcDbScale
 70
     0
300
8:1
140
8.0
141
1.0
290
     0
  0
SCALE
  5
57
102
{ACAD_REACTORS
330
47
102
}
330
47
100
AcDbScale
 70
     0
300
10:1
140
10.0
141
1.0
290
     0
  0
SCALE
  5
58
102
{ACAD_REACTORS
330
47
102
}
330
47
100
AcDbScale
 70
     0
300
100:1
140
100.0
141
1.0
290
     0
  0
SCALE
  5
59
102
{ACAD_REACTORS
330
47
102
}
330
47
100
AcDbScale
 70
     0
300
1/128" = 1'-0"
140
0.0078125
141
12.0
290
     0
  0
SCALE
  5
5A
102
{ACAD_REACTORS
330
47
102
}
330
47
100
AcDbScale
 70
     0
300
1/64" = 1'-0"
140
0.015625
141
12.0
290
     0
  0
SCALE
  5
5B
102
{ACAD_REACTORS
330
47
102
}
330
47
100
AcDbScale
 70
     0
300
1/32" = 1'-0"
140
0.03125
141
12.0
290
     0
  0
SCALE
  5
5C
102
{ACAD_REACTORS
330
47
102
}
330
47
100
AcDbScale
 70
     0
300
1/16" = 1'-0"
140
0.0625
141
12.0
290
     0
  0
SCALE
  5
5D
102
{ACAD_REACTORS
330
47
102
}
330
47
100
AcDbScale
 70
     0
300
3/32" = 1'-0"
140
0.09375
141
12.0
290
     0
  0
SCALE
  5
5E
102
{ACAD_REACTORS
330
47
102
}
330
47
100
AcDbScale
 70
     0
300
1/8" = 1'-0"
140
0.125
141
12.0
290
     0
  0
SCALE
  5
5F
102
{ACAD_REACTORS
330
47
102
}
330
47
100
AcDbScale
 70
     0
300
3/16" = 1'-0"
140
0.1875
141
12.0
290
     0
  0
SCALE
  5
60
102
{ACAD_REACTORS
330
47
102
}
330
47
100
AcDbScale
 70
     0
300
1/4" = 1'-0"
140
0.25
141
12.0
290
     0
  0
SCALE
  5
61
102
{ACAD_REACTORS
330
47
102
}
330
47
100
AcDbScale
 70
     0
300
3/8" = 1'-0"
140
0.375
141
12.0
290
     0
  0
SCALE
  5
62
102
{ACAD_REACTORS
330
47
102
}
330
47
100
AcDbScale
 70
     0
300
1/2" = 1'-0"
140
0.5
141
12.0
290
     0
  0
SCALE
  5
63
102
{ACAD_REACTORS
330
47
102
}
330
47
100
AcDbScale
 70
     0
300
3/4" = 1'-0"
140
0.75
141
12.0
290
     0
  0
SCALE
  5
64
102
{ACAD_REACTORS
330
47
102
}
330
47
100
AcDbScale
 70
     0
300
1" = 1'-0"
140
1.0
141
12.0
290
     0
  0
SCALE
  5
65
102
{ACAD_REACTORS
330
47
102
}
330
47
100
AcDbScale
 70
     0
300
1-1/2" = 1'-0"
140
1.5
141
12.0
290
     0
  0
SCALE
  5
66
102
{ACAD_REACTORS
330
47
102
}
330
47
100
AcDbScale
 70
     0
300
3" = 1'-0"
140
3.0
141
12.0
290
     0
  0
SCALE
  5
67
102
{ACAD_REACTORS
330
47
102
}
330
47
100
AcDbScale
 70
     0
300
6" = 1'-0"
140
6.0
141
12.0
290
     0
  0
SCALE
  5
68
102
{ACAD_REACTORS
330
47
102
}
330
47
100
AcDbScale
 70
     0
300
1'-0" = 1'-0"
140
12.0
141
12.0
290
     0
  0
ENDSEC
  0
EOF
