  0
SECTION
  2
HEADER
  9
$ACADVER
  1
AC1015
  9
$ACADMAINTVER
 70
     6
  9
$DWGCODEPAGE
  3
ANSI_949
  9
$INSBASE
 10
0.0
 20
0.0
 30
0.0
  9
$EXTMIN
 10
1.000000000000000E+20
 20
1.000000000000000E+20
 30
1.000000000000000E+20
  9
$EXTMAX
 10
-1.000000000000000E+20
 20
-1.000000000000000E+20
 30
-1.000000000000000E+20
  9
$LIMMIN
 10
0.0
 20
0.0
  9
$LIMMAX
 10
420.0
 20
297.0
  9
$ORTHOMODE
 70
     1
  9
$REGENMODE
 70
     1
  9
$FILLMODE
 70
     1
  9
$QTEXTMODE
 70
     0
  9
$MIRRTEXT
 70
     1
  9
$LTSCALE
 40
1.0
  9
$ATTMODE
 70
     1
  9
$TEXTSIZE
 40
3.5
  9
$TRACEWID
 40
1.0
  9
$TEXTSTYLE
  7
Standard
  9
$CLAYER
  8
0
  9
$CELTYPE
  6
ByLayer
  9
$CECOLOR
 62
   256
  9
$CELTSCALE
 40
1.0
  9
$DISPSILH
 70
     0
  9
$DIMSCALE
 40
1.0
  9
$DIMASZ
 40
3.302
  9
$DIMEXO
 40
1.0
  9
$DIMDLI
 40
3.75
  9
$DIMRND
 40
0.0
  9
$DIMDLE
 40
0.0
  9
$DIMEXE
 40
1.0
  9
$DIMTP
 40
0.0
  9
$DIMTM
 40
0.0
  9
$DIMTXT
 40
3.5
  9
$DIMCEN
 40
2.5
  9
$DIMTSZ
 40
0.0
  9
$DIMTOL
 70
     0
  9
$DIMLIM
 70
     0
  9
$DIMTIH
 70
     1
  9
$DIMTOH
 70
     1
  9
$DIMSE1
 70
     0
  9
$DIMSE2
 70
     0
  9
$DIMTAD
 70
     1
  9
$DIMZIN
 70
     0
  9
$DIMBLK
  1

  9
$DIMASO
 70
     1
  9
$DIMSHO
 70
     1
  9
$DIMPOST
  1

  9
$DIMAPOST
  1

  9
$DIMALT
 70
     0
  9
$DIMALTD
 70
     3
  9
$DIMALTF
 40
0.0393700787401575
  9
$DIMLFAC
 40
1.0
  9
$DIMTOFL
 70
     1
  9
$DIMTVP
 40
0.0
  9
$DIMTIX
 70
     0
  9
$DIMSOXD
 70
     0
  9
$DIMSAH
 70
     0
  9
$DIMBLK1
  1

  9
$DIMBLK2
  1

  9
$DIMSTYLE
  2
ISO-25
  9
$DIMCLRD
 70
     0
  9
$DIMCLRE
 70
     0
  9
$DIMCLRT
 70
     0
  9
$DIMTFAC
 40
1.0
  9
$DIMGAP
 40
1.524
  9
$DIMJUST
 70
     0
  9
$DIMSD1
 70
     0
  9
$DIMSD2
 70
     0
  9
$DIMTOLJ
 70
     0
  9
$DIMTZIN
 70
     0
  9
$DIMALTZ
 70
     0
  9
$DIMALTTZ
 70
     0
  9
$DIMUPT
 70
     0
  9
$DIMDEC
 70
     2
  9
$DIMTDEC
 70
     2
  9
$DIMALTU
 70
     2
  9
$DIMALTTD
 70
     3
  9
$DIMTXSTY
  7
Standard
  9
$DIMAUNIT
 70
     0
  9
$DIMADEC
 70
     2
  9
$DIMALTRND
 40
0.0
  9
$DIMAZIN
 70
     0
  9
$DIMDSEP
 70
    44
  9
$DIMATFIT
 70
     3
  9
$DIMFRAC
 70
     0
  9
$DIMLDRBLK
  1

  9
$DIMLUNIT
 70
     2
  9
$DIMLWD
 70
    -2
  9
$DIMLWE
 70
    -2
  9
$DIMTMOVE
 70
     0
  9
$LUNITS
 70
     2
  9
$LUPREC
 70
     2
  9
$SKETCHINC
 40
1.0
  9
$FILLETRAD
 40
10.0
  9
$AUNITS
 70
     0
  9
$AUPREC
 70
     2
  9
$MENU
  1
.
  9
$ELEVATION
 40
0.0
  9
$PELEVATION
 40
0.0
  9
$THICKNESS
 40
0.0
  9
$LIMCHECK
 70
     0
  9
$CHAMFERA
 40
0.0
  9
$CHAMFERB
 40
0.0
  9
$CHAMFERC
 40
0.0
  9
$CHAMFERD
 40
0.0
  9
$SKPOLY
 70
     0
  9
$TDCREATE
 40
2458299.370721736
  9
$TDUCREATE
 40
2458298.995721736
  9
$TDUPDATE
 40
2458302.735770578
  9
$TDUUPDATE
 40
2458302.360770578
  9
$TDINDWG
 40
0.0009864005
  9
$TDUSRTIMER
 40
2458302.35978434
  9
$USRTIMER
 70
     1
  9
$ANGBASE
 50
0.0
  9
$ANGDIR
 70
     0
  9
$PDMODE
 70
     0
  9
$PDSIZE
 40
-1.0
  9
$PLINEWID
 40
0.0
  9
$SPLFRAME
 70
     0
  9
$SPLINETYPE
 70
     6
  9
$SPLINESEGS
 70
     8
  9
$HANDSEED
  5
6D2
  9
$SURFTAB1
 70
     6
  9
$SURFTAB2
 70
     6
  9
$SURFTYPE
 70
     6
  9
$SURFU
 70
     6
  9
$SURFV
 70
     6
  9
$UCSBASE
  2

  9
$UCSNAME
  2

  9
$UCSORG
 10
0.0
 20
0.0
 30
0.0
  9
$UCSXDIR
 10
1.0
 20
0.0
 30
0.0
  9
$UCSYDIR
 10
0.0
 20
1.0
 30
0.0
  9
$UCSORTHOREF
  2

  9
$UCSORTHOVIEW
 70
     0
  9
$UCSORGTOP
 10
0.0
 20
0.0
 30
0.0
  9
$UCSORGBOTTOM
 10
0.0
 20
0.0
 30
0.0
  9
$UCSORGLEFT
 10
0.0
 20
0.0
 30
0.0
  9
$UCSORGRIGHT
 10
0.0
 20
0.0
 30
0.0
  9
$UCSORGFRONT
 10
0.0
 20
0.0
 30
0.0
  9
$UCSORGBACK
 10
0.0
 20
0.0
 30
0.0
  9
$PUCSBASE
  2

  9
$PUCSNAME
  2

  9
$PUCSORG
 10
0.0
 20
0.0
 30
0.0
  9
$PUCSXDIR
 10
1.0
 20
0.0
 30
0.0
  9
$PUCSYDIR
 10
0.0
 20
1.0
 30
0.0
  9
$PUCSORTHOREF
  2

  9
$PUCSORTHOVIEW
 70
     0
  9
$PUCSORGTOP
 10
0.0
 20
0.0
 30
0.0
  9
$PUCSORGBOTTOM
 10
0.0
 20
0.0
 30
0.0
  9
$PUCSORGLEFT
 10
0.0
 20
0.0
 30
0.0
  9
$PUCSORGRIGHT
 10
0.0
 20
0.0
 30
0.0
  9
$PUCSORGFRONT
 10
0.0
 20
0.0
 30
0.0
  9
$PUCSORGBACK
 10
0.0
 20
0.0
 30
0.0
  9
$USERI1
 70
     0
  9
$USERI2
 70
     0
  9
$USERI3
 70
     0
  9
$USERI4
 70
     0
  9
$USERI5
 70
     0
  9
$USERR1
 40
0.0
  9
$USERR2
 40
0.0
  9
$USERR3
 40
0.0
  9
$USERR4
 40
0.0
  9
$USERR5
 40
0.0
  9
$WORLDVIEW
 70
     1
  9
$SHADEDGE
 70
     3
  9
$SHADEDIF
 70
    70
  9
$TILEMODE
 70
     1
  9
$MAXACTVP
 70
    64
  9
$PINSBASE
 10
0.0
 20
0.0
 30
0.0
  9
$PLIMCHECK
 70
     0
  9
$PEXTMIN
 10
1.000000000000000E+20
 20
1.000000000000000E+20
 30
1.000000000000000E+20
  9
$PEXTMAX
 10
-1.000000000000000E+20
 20
-1.000000000000000E+20
 30
-1.000000000000000E+20
  9
$PLIMMIN
 10
0.0
 20
0.0
  9
$PLIMMAX
 10
0.0
 20
0.0
  9
$UNITMODE
 70
     0
  9
$VISRETAIN
 70
     1
  9
$PLINEGEN
 70
     0
  9
$PSLTSCALE
 70
     1
  9
$TREEDEPTH
 70
  3020
  9
$CMLSTYLE
  2
Standard
  9
$CMLJUST
 70
     0
  9
$CMLSCALE
 40
20.0
  9
$PROXYGRAPHICS
 70
     1
  9
$MEASUREMENT
 70
     1
  9
$CELWEIGHT
370
    -1
  9
$ENDCAPS
280
     0
  9
$JOINSTYLE
280
     0
  9
$LWDISPLAY
290
     1
  9
$INSUNITS
 70
     4
  9
$HYPERLINKBASE
  1

  9
$STYLESHEET
  1

  9
$XEDIT
290
     1
  9
$CEPSNTYPE
380
     0
  9
$PSTYLEMODE
290
     1
  9
$FINGERPRINTGUID
  2
{78C6E873-9170-4DEF-A3F9-F4870378F109}
  9
$VERSIONGUID
  2
{FAEB1C32-E019-11D5-929B-00C0DF256EC4}
  9
$EXTNAMES
290
     1
  9
$PSVPSCALE
 40
0.0
  9
$OLESTARTUP
290
     0
  0
ENDSEC
  0
SECTION
  2
CLASSES
  0
CLASS
  1
ACDBDICTIONARYWDFLT
  2
AcDbDictionaryWithDefault
  3
ObjectDBX Classes
 90
        0
280
     0
281
     0
  0
CLASS
  1
VISUALSTYLE
  2
AcDbVisualStyle
  3
ObjectDBX Classes
 90
     4095
280
     0
281
     0
  0
CLASS
  1
MATERIAL
  2
AcDbMaterial
  3
ObjectDBX Classes
 90
     1153
280
     0
281
     0
  0
CLASS
  1
SCALE
  2
AcDbScale
  3
ObjectDBX Classes
 90
     1153
280
     0
281
     0
  0
CLASS
  1
SUN
  2
AcDbSun
  3
SCENEOE
 90
     1153
280
     0
281
     0
  0
CLASS
  1
ACDBPLACEHOLDER
  2
AcDbPlaceHolder
  3
ObjectDBX Classes
 90
        0
280
     0
281
     0
  0
CLASS
  1
LAYOUT
  2
AcDbLayout
  3
ObjectDBX Classes
 90
        0
280
     0
281
     0
  0
CLASS
  1
TABLESTYLE
  2
AcDbTableStyle
  3
ObjectDBX Classes
 90
     4095
280
     0
281
     0
  0
CLASS
  1
MLEADERSTYLE
  2
AcDbMLeaderStyle
  3
ACDB_MLEADERSTYLE_CLASS
 90
     4095
280
     0
281
     0
  0
CLASS
  1
RASTERVARIABLES
  2
AcDbRasterVariables
  3
ISM
 90
        0
280
     0
281
     0
  0
ENDSEC
  0
SECTION
  2
TABLES
  0
TABLE
  2
VPORT
  5
8
330
0
100
AcDbSymbolTable
 70
     1
  0
VPORT
  5
29
330
8
100
AcDbSymbolTableRecord
100
AcDbViewportTableRecord
  2
*Active
 70
     0
 10
0.0
 20
0.0
 11
1.0
 21
1.0
 12
5.832267163685998
 22
-17.8384804221938
 13
0.0
 23
0.0
 14
10.0
 24
10.0
 15
10.0
 25
10.0
 16
0.0
 26
0.0
 36
1.0
 17
0.0
 27
0.0
 37
0.0
 40
138.997656836762
 41
1.31452581032413
 42
50.0
 43
0.0
 44
0.0
 50
0.0
 51
0.0
 71
    16
 72
  2000
 73
     1
 74
     3
 75
     0
 76
     0
 77
     0
 78
     0
281
     0
 65
     1
110
0.0
120
0.0
130
0.0
111
1.0
121
0.0
131
0.0
112
0.0
122
1.0
132
0.0
 79
     0
146
0.0
  0
ENDTAB
  0
TABLE
  2
LTYPE
  5
5
330
0
100
AcDbSymbolTable
 70
     6
  0
LTYPE
  5
14
330
5
100
AcDbSymbolTableRecord
100
AcDbLinetypeTableRecord
  2
ByBlock
 70
     0
  3

 72
    65
 73
     0
 40
0.0
  0
LTYPE
  5
15
330
5
100
AcDbSymbolTableRecord
100
AcDbLinetypeTableRecord
  2
ByLayer
 70
     0
  3

 72
    65
 73
     0
 40
0.0
  0
LTYPE
  5
16
330
5
100
AcDbSymbolTableRecord
100
AcDbLinetypeTableRecord
  2
Continuous
 70
     0
  3
Solid line
 72
    65
 73
     0
 40
0.0
  0
LTYPE
  5
6A
330
5
100
AcDbSymbolTableRecord
100
AcDbLinetypeTableRecord
  2
HIDDEN
 70
     0
  3
Hidden __ __ __ __ __ __ __ __ __ __ __ __ __ __
 72
    65
 73
     2
 40
1.905
 49
1.27
 74
     0
 49
-0.635
 74
     0
  0
LTYPE
  5
6B
330
5
100
AcDbSymbolTableRecord
100
AcDbLinetypeTableRecord
  2
PHANTOM
 70
     0
  3
Phantom ______  __  __  ______  __  __  ______
 72
    65
 73
     6
 40
12.7
 49
6.35
 74
     0
 49
-1.27
 74
     0
 49
1.27
 74
     0
 49
-1.27
 74
     0
 49
1.27
 74
     0
 49
-1.27
 74
     0
  0
LTYPE
  5
6C
330
5
100
AcDbSymbolTableRecord
100
AcDbLinetypeTableRecord
  2
CENTER
 70
     0
  3
Center ____ _ ____ _ ____ _ ____ _ ____ _ ____
 72
    65
 73
     4
 40
10.16
 49
6.35
 74
     0
 49
-1.27
 74
     0
 49
1.27
 74
     0
 49
-1.27
 74
     0
  0
LTYPE
  5
6D
330
5
100
AcDbSymbolTableRecord
100
AcDbLinetypeTableRecord
  2
CENTERX2
 70
     0
  3
Center (2x) ________  __  ________  __  _____
 72
    65
 73
     4
 40
20.32
 49
12.7
 74
     0
 49
-2.54
 74
     0
 49
2.54
 74
     0
 49
-2.54
 74
     0
  0
LTYPE
  5
6E
330
5
100
AcDbSymbolTableRecord
100
AcDbLinetypeTableRecord
  2
DOT2
 70
     0
  3
Dot (.5x) ........................................
 72
    65
 73
     2
 40
0.635
 49
0.0
 74
     0
 49
-0.635
 74
     0
  0
ENDTAB
  0
TABLE
  2
LAYER
  5
2
330
0
100
AcDbSymbolTable
 70
    18
  0
LAYER
  5
10
330
2
100
AcDbSymbolTableRecord
100
AcDbLayerTableRecord
  2
0
 70
     0
 62
     7
  6
Continuous
370
    -3
390
F
  0
LAYER
  5
6F
330
2
100
AcDbSymbolTableRecord
100
AcDbLayerTableRecord
  2
FORMAT
 70
     0
 62
     2
  6
Continuous
370
    -3
390
F
  0
LAYER
  5
70
330
2
100
AcDbSymbolTableRecord
100
AcDbLayerTableRecord
  2
외형선
 70
     0
 62
     4
  6
Continuous
370
    30
390
F
  0
LAYER
  5
71
330
2
100
AcDbSymbolTableRecord
100
AcDbLayerTableRecord
  2
숨은선
 70
     0
 62
     2
  6
HIDDEN
370
    15
390
F
  0
LAYER
  5
72
330
2
100
AcDbSymbolTableRecord
100
AcDbLayerTableRecord
  2
중심선
 70
     0
 62
     1
  6
CENTERX2
370
    -3
390
F
  0
LAYER
  5
73
330
2
100
AcDbSymbolTableRecord
100
AcDbLayerTableRecord
  2
파단선
 70
     0
 62
     4
  6
Continuous
370
    -3
390
F
  0
LAYER
  5
74
330
2
100
AcDbSymbolTableRecord
100
AcDbLayerTableRecord
  2
해칭선
 70
     0
 62
   100
  6
Continuous
370
    -3
390
F
  0
LAYER
  5
75
330
2
100
AcDbSymbolTableRecord
100
AcDbLayerTableRecord
  2
가는실선
 70
     0
 62
     4
  6
Continuous
370
    -3
390
F
  0
LAYER
  5
76
330
2
100
AcDbSymbolTableRecord
100
AcDbLayerTableRecord
  2
치수_보조선
 70
     0
 62
     4
  6
Continuous
370
    -3
390
F
  0
LAYER
  5
77
330
2
100
AcDbSymbolTableRecord
100
AcDbLayerTableRecord
  2
치수문자_일반주서
 70
     0
 62
     7
  6
Continuous
370
    15
390
F
  0
LAYER
  5
78
330
2
100
AcDbSymbolTableRecord
100
AcDbLayerTableRecord
  2
개별주서
 70
     0
 62
   100
  6
Continuous
370
    30
390
F
  0
LAYER
  5
79
330
2
100
AcDbSymbolTableRecord
100
AcDbLayerTableRecord
  2
중간선
 70
     0
 62
     2
  6
Continuous
370
    15
390
F
  0
LAYER
  5
7A
330
2
100
AcDbSymbolTableRecord
100
AcDbLayerTableRecord
  2
윤곽선
 70
     0
 62
     3
  6
Continuous
370
    40
390
F
  0
LAYER
  5
7B
330
2
100
AcDbSymbolTableRecord
100
AcDbLayerTableRecord
  2
중심마크
 70
     0
 62
   100
  6
Continuous
370
    30
390
F
  0
LAYER
  5
7C
330
2
100
AcDbSymbolTableRecord
100
AcDbLayerTableRecord
  2
가상선
 70
     0
 62
     4
  6
PHANTOM
370
    -3
390
F
  0
LAYER
  5
7D
330
2
100
AcDbSymbolTableRecord
100
AcDbLayerTableRecord
  2
특수지정선
 70
     0
 62
     5
  6
CENTERX2
370
    60
390
F
  0
LAYER
  5
7E
330
2
100
AcDbSymbolTableRecord
100
AcDbLayerTableRecord
  2
참조1
 70
     0
 62
    -4
  6
Continuous
370
    -3
390
F
  0
LAYER
  5
188
330
2
100
AcDbSymbolTableRecord
100
AcDbLayerTableRecord
  2
Defpoints
 70
     0
 62
     7
  6
Continuous
290
     0
370
    -3
390
F
  0
ENDTAB
  0
TABLE
  2
STYLE
  5
3
330
0
100
AcDbSymbolTable
 70
     2
  0
STYLE
  5
11
330
3
100
AcDbSymbolTableRecord
100
AcDbTextStyleTableRecord
  2
Standard
 70
     0
 40
0.0
 41
1.0
 50
0.0
 71
     0
 42
3.5
  3
txt
  4

  0
STYLE
  5
94
330
3
100
AcDbSymbolTableRecord
100
AcDbTextStyleTableRecord
  2
SLDTEXTSTYLE0
 70
     0
 40
0.0
 41
0.75
 50
0.0
 71
     0
 42
3.5
  3
TXT
  4

  0
ENDTAB
  0
TABLE
  2
VIEW
  5
6
330
0
100
AcDbSymbolTable
 70
     0
  0
ENDTAB
  0
TABLE
  2
UCS
  5
7
330
0
100
AcDbSymbolTable
 70
     0
  0
ENDTAB
  0
TABLE
  2
APPID
  5
9
330
0
100
AcDbSymbolTable
 70
     1
  0
APPID
  5
12
330
9
100
AcDbSymbolTableRecord
100
AcDbRegAppTableRecord
  2
ACAD
 70
     0
  0
ENDTAB
  0
TABLE
  2
DIMSTYLE
  5
A
330
0
100
AcDbSymbolTable
 70
     3
100
AcDbDimStyleTable
  0
DIMSTYLE
105
27
330
A
100
AcDbSymbolTableRecord
100
AcDbDimStyleTableRecord
  2
ISO-25
 70
     0
 41
2.5
 42
0.625
 43
3.75
 44
1.25
 73
     0
 74
     0
 77
     1
 78
     8
140
2.5
141
2.5
143
0.03937007874016
147
0.625
171
     3
172
     1
178
     0
271
     2
272
     2
274
     3
278
    44
283
     0
284
     8
340
11
  0
DIMSTYLE
105
107
102
{ACAD_REACTORS
330
3EB
330
406
330
413
330
695
330
697
330
698
102
}
330
A
100
AcDbSymbolTableRecord
100
AcDbDimStyleTableRecord
  2
SLDDIMSTYLE0
 70
     0
 41
3.302
 44
0.0
 45
0.000000001
 73
     0
 74
     0
 77
     1
 78
    12
 79
     3
140
3.5
143
0.0393700787401575
147
0.875
148
0.000000001
170
     1
172
     1
173
     1
178
     0
271
     2
272
     2
276
     2
284
    12
289
     0
340
94
  0
DIMSTYLE
105
12F
102
{ACAD_REACTORS
330
3F9
330
696
102
}
330
A
100
AcDbSymbolTableRecord
100
AcDbDimStyleTableRecord
  2
SLDDIMSTYLE1
 70
     0
 41
3.302
 44
0.0
 45
0.000000001
 73
     0
 74
     0
 77
     1
 78
    12
 79
     3
140
3.5
143
0.0393700787401575
147
0.875
148
0.000000001
170
     1
173
     1
178
     0
271
     2
272
     2
276
     2
284
    12
340
94
  0
ENDTAB
  0
TABLE
  2
BLOCK_RECORD
  5
1
330
0
100
AcDbSymbolTable
 70
    16
  0
BLOCK_RECORD
  5
1F
330
1
100
AcDbSymbolTableRecord
100
AcDbBlockTableRecord
  2
*Model_Space
340
22
  0
BLOCK_RECORD
  5
1B
330
1
100
AcDbSymbolTableRecord
100
AcDbBlockTableRecord
  2
*Paper_Space
340
1E
  0
BLOCK_RECORD
  5
23
330
1
100
AcDbSymbolTableRecord
100
AcDbBlockTableRecord
  2
*Paper_Space0
340
26
  0
BLOCK_RECORD
  5
7F
330
1
100
AcDbSymbolTableRecord
100
AcDbBlockTableRecord
  2
블럭10
340
0
102
{BLKREFS
331
FE
102
}
  0
BLOCK_RECORD
  5
108
330
1
100
AcDbSymbolTableRecord
100
AcDbBlockTableRecord
  2
_D
340
0
  0
BLOCK_RECORD
  5
11B
330
1
100
AcDbSymbolTableRecord
100
AcDbBlockTableRecord
  2
_D_1
340
0
  0
BLOCK_RECORD
  5
130
330
1
100
AcDbSymbolTableRecord
100
AcDbBlockTableRecord
  2
_D_2
340
0
  0
BLOCK_RECORD
  5
144
330
1
100
AcDbSymbolTableRecord
100
AcDbBlockTableRecord
  2
_D_3
340
0
  0
BLOCK_RECORD
  5
15D
330
1
100
AcDbSymbolTableRecord
100
AcDbBlockTableRecord
  2
SW_DOWELSYMBOL_0
340
0
102
{BLKREFS
331
0
331
420
331
699
102
}
  0
BLOCK_RECORD
  5
429
330
1
100
AcDbSymbolTableRecord
100
AcDbBlockTableRecord
  2
*D8
340
0
  0
BLOCK_RECORD
  5
438
330
1
100
AcDbSymbolTableRecord
100
AcDbBlockTableRecord
  2
*D9
340
0
  0
BLOCK_RECORD
  5
444
330
1
100
AcDbSymbolTableRecord
100
AcDbBlockTableRecord
  2
*D10
340
0
  0
BLOCK_RECORD
  5
450
330
1
100
AcDbSymbolTableRecord
100
AcDbBlockTableRecord
  2
*D11
340
0
  0
BLOCK_RECORD
  5
69A
330
1
100
AcDbSymbolTableRecord
100
AcDbBlockTableRecord
  2
*D12
340
0
  0
BLOCK_RECORD
  5
6A9
330
1
100
AcDbSymbolTableRecord
100
AcDbBlockTableRecord
  2
*D13
340
0
  0
BLOCK_RECORD
  5
6B5
330
1
100
AcDbSymbolTableRecord
100
AcDbBlockTableRecord
  2
*D14
340
0
  0
BLOCK_RECORD
  5
6C1
330
1
100
AcDbSymbolTableRecord
100
AcDbBlockTableRecord
  2
*D15
340
0
  0
ENDTAB
  0
ENDSEC
  0
SECTION
  2
BLOCKS
  0
BLOCK
  5
20
330
1F
100
AcDbEntity
  8
0
100
AcDbBlockBegin
  2
*Model_Space
 70
     0
 10
0.0
 20
0.0
 30
0.0
  3
*Model_Space
  1
*Model_Space
  0
ENDBLK
  5
21
330
1F
100
AcDbEntity
  8
0
100
AcDbBlockEnd
  0
BLOCK
  5
1C
330
1B
100
AcDbEntity
 67
     1
  8
0
100
AcDbBlockBegin
  2
*Paper_Space
 70
     0
 10
0.0
 20
0.0
 30
0.0
  3
*Paper_Space
  1
*Paper_Space
  0
ENDBLK
  5
1D
330
1B
100
AcDbEntity
 67
     1
  8
0
100
AcDbBlockEnd
  0
BLOCK
  5
24
330
23
100
AcDbEntity
  8
0
100
AcDbBlockBegin
  2
*Paper_Space0
 70
     0
 10
0.0
 20
0.0
 30
0.0
  3
*Paper_Space0
  1
*Paper_Space0
  0
ENDBLK
  5
25
330
23
100
AcDbEntity
  8
0
100
AcDbBlockEnd
  0
BLOCK
  5
80
330
7F
100
AcDbEntity
  8
0
100
AcDbBlockBegin
  2
블럭10
 70
     2
 10
0.0
 20
0.0
 30
0.0
  3
블럭10
  1
블럭10
  0
ELLIPSE
  5
82
330
7F
100
AcDbEntity
  8
중심선
100
AcDbEllipse
 10
20.54032771741204
 20
12.0471743016438
 30
0.0
 11
6.600054785286829
 21
-1.261213355974178E-13
 31
0.0
210
0.0
220
0.0
230
1.0
 40
0.636358354079598
 41
0.9219305317359503
 42
6.513795318482858
  0
ELLIPSE
  5
83
330
7F
100
AcDbEntity
  8
중심선
100
AcDbEllipse
 10
20.54032771746488
 20
12.04717430159265
 30
0.0
 11
3.960054785062283
 21
1.540847449632565E-10
 31
0.0
210
0.0
220
0.0
230
1.0
 40
0.3939339440162632
 41
1.131841032648279
 42
5.62031148352944
  0
LINE
  5
84
330
7F
100
AcDbEntity
  8
중심선
100
AcDbLine
 10
2.268634060543552
 20
16.24717430164393
 30
0.0
 11
5.714909304380834
 21
16.24717430164393
 31
0.0
  0
LINE
  5
85
330
7F
100
AcDbEntity
  8
중심선
100
AcDbLine
 10
5.245725140726316
 20
7.84717430164391
 30
0.0
 11
8.692000384563599
 21
7.84717430164391
 31
0.0
  0
LINE
  5
86
330
7F
100
AcDbEntity
  8
중심선
100
AcDbLine
 10
15.74043728645272
 20
16.24717430164393
 30
0.0
 11
8.692000384563599
 21
7.84717430164391
 31
0.0
  0
LINE
  5
87
330
7F
100
AcDbEntity
  8
중심선
100
AcDbLine
 10
0.1404042013395286
 20
13.71084872107135
 30
0.0
 11
3.58671253028996
 21
13.71088815037384
 31
0.0
  0
LINE
  5
88
330
7F
100
AcDbEntity
  8
중심선
100
AcDbLine
 10
2.750260043222114
 20
10.84717430164391
 30
0.0
 11
6.196535287059397
 21
10.84717430164391
 31
0.0
  0
LINE
  5
89
330
7F
100
AcDbEntity
  8
중심선
100
AcDbLine
 10
12.29416204261559
 20
16.24717430164393
 30
0.0
 11
5.245725140726316
 21
7.84717430164391
 31
0.0
  0
LINE
  5
8A
330
7F
100
AcDbEntity
  8
중심선
100
AcDbLine
 10
10.72767329541681
 20
16.24717430164393
 30
0.0
 11
6.196535287059397
 21
10.84717430164391
 31
0.0
  0
LINE
  5
8B
330
7F
100
AcDbEntity
  8
중심선
100
AcDbLine
 10
7.28139805157953
 20
16.24717430164393
 30
0.0
 11
2.750260043222114
 21
10.84717430164391
 31
0.0
  0
LINE
  5
8C
330
7F
100
AcDbEntity
  8
중심선
100
AcDbLine
 10
5.714909304380834
 20
16.24717430164393
 30
0.0
 11
3.58671253028996
 21
13.71088815037384
 31
0.0
  0
LINE
  5
8D
330
7F
100
AcDbEntity
  8
중심선
100
AcDbLine
 10
2.268634060543552
 20
16.24717430164393
 30
0.0
 11
0.1404042013395286
 21
13.71084872107135
 31
0.0
  0
LINE
  5
8E
330
7F
100
AcDbEntity
  8
중심선
100
AcDbLine
 10
7.28139805157953
 20
16.24717430164393
 30
0.0
 11
10.72767329541681
 21
16.24717430164393
 31
0.0
  0
LINE
  5
8F
330
7F
100
AcDbEntity
  8
중심선
100
AcDbLine
 10
12.29416204261559
 20
16.24717430164393
 30
0.0
 11
15.74043728645272
 21
16.24717430164393
 31
0.0
  0
LINE
  5
90
330
7F
100
AcDbEntity
  8
중심선
100
AcDbLine
 10
19.22036997980202
 20
11.08717430171403
 30
0.0
 11
23.66174974927406
 21
11.08717430171406
 31
0.0
  0
LINE
  5
91
330
7F
100
AcDbEntity
  8
중심선
100
AcDbLine
 10
19.22039502424796
 20
13.00717430171391
 30
0.0
 11
19.22036997980202
 21
11.08717430171403
 31
0.0
  0
LINE
  5
92
330
7F
100
AcDbEntity
  8
중심선
100
AcDbLine
 10
19.22039502424796
 20
13.00717430171391
 30
0.0
 11
26.96566020931264
 21
13.00717430171391
 31
0.0
  0
LINE
  5
93
330
7F
100
AcDbEntity
  8
중심선
100
AcDbLine
 10
22.22332737316547
 20
13.45928029700563
 30
0.0
 11
24.52862924686651
 21
15.39360700705356
 31
0.0
  0
ATTDEF
  5
95
330
7F
100
AcDbEntity
  8
FORMAT
 62
     2
100
AcDbText
 10
-10.14163601213663
 20
2.075366912832191
 30
0.0
 40
4.233333333333333
  1
EM666032 [ 4 FLUTE ]
 41
0.75
  7
SLDTEXTSTYLE0
 11
-10.14163601213663
 21
-0.0412997538344756
 31
0.0
100
AcDbAttributeDefinition
  3

  2
AUTOATTR0
 70
     0
 74
     1
  0
ENDBLK
  5
81
330
7F
100
AcDbEntity
  8
0
100
AcDbBlockEnd
  0
BLOCK
  5
109
330
108
100
AcDbEntity
  8
0
100
AcDbBlockBegin
  2
_D
 70
     0
 10
0.0
 20
0.0
 30
0.0
  3
_D
  1
_D
  0
SOLID
  5
10B
330
108
100
AcDbEntity
  8
치수문자_일반주서
100
AcDbTrace
 10
46.32001004574681
 20
3.491870580932774
 30
0.0
 11
46.82801004574682
 21
6.793870580932774
 31
0.0
 12
45.81201004574681
 22
6.793870580932774
 32
0.0
 13
45.81201004574681
 23
6.793870580932774
 33
0.0
  0
SOLID
  5
10C
330
108
100
AcDbEntity
  8
치수문자_일반주서
100
AcDbTrace
 10
46.32001004574681
 20
-2.858129419067269
 30
0.0
 11
45.81201004574681
 21
-6.160129419067269
 31
0.0
 12
46.82801004574682
 22
-6.160129419067269
 32
0.0
 13
46.82801004574682
 23
-6.160129419067269
 33
0.0
  0
LINE
  5
10D
330
108
100
AcDbEntity
  8
치수문자_일반주서
100
AcDbLine
 10
35.52712832970409
 20
6.592340090840398
 30
0.0
 11
35.5271283297041
 21
5.881402605275898
 31
0.0
  0
LINE
  5
10E
330
108
100
AcDbEntity
  8
치수문자_일반주서
100
AcDbLine
 10
35.5271283297041
 20
5.881402605275898
 30
0.0
 11
41.0833783207634
 21
5.881402605275937
 31
0.0
  0
LINE
  5
10F
330
108
100
AcDbEntity
  8
치수문자_일반주서
100
AcDbLine
 10
41.0833783207634
 20
5.881402605275937
 30
0.0
 11
41.08337832076339
 21
6.592340090840437
 31
0.0
  0
LINE
  5
110
330
108
100
AcDbEntity
  8
치수문자_일반주서
100
AcDbLine
 10
35.52712832970402
 20
17.42107295297766
 30
0.0
 11
35.52712832970401
 21
18.13201043854216
 31
0.0
  0
LINE
  5
111
330
108
100
AcDbEntity
  8
치수문자_일반주서
100
AcDbLine
 10
35.52712832970401
 20
18.13201043854216
 30
0.0
 11
41.08337832076332
 21
18.1320104385422
 31
0.0
  0
LINE
  5
112
330
108
100
AcDbEntity
  8
치수문자_일반주서
100
AcDbLine
 10
41.08337832076332
 20
18.1320104385422
 30
0.0
 11
41.08337832076332
 21
17.4210729529777
 31
0.0
  0
LINE
  5
113
330
108
100
AcDbEntity
  8
치수문자_일반주서
100
AcDbLine
 10
11.00000000000001
 20
3.491870580932755
 30
0.0
 11
47.32001004574681
 21
3.491870580932775
 31
0.0
  0
LINE
  5
114
330
108
100
AcDbEntity
  8
치수문자_일반주서
100
AcDbLine
 10
46.32001004574681
 20
3.491870580932774
 30
0.0
 11
46.32001004574681
 21
19.17162021721469
 31
0.0
  0
LINE
  5
115
330
108
100
AcDbEntity
  8
치수문자_일반주서
100
AcDbLine
 10
46.32001004574681
 20
3.491870580932774
 30
0.0
 11
46.32001004574681
 21
-2.858129419067269
 31
0.0
  0
LINE
  5
116
330
108
100
AcDbEntity
  8
치수문자_일반주서
100
AcDbLine
 10
46.32001004574681
 20
-2.858129419067269
 30
0.0
 11
46.32001004574681
 21
-9.20812941906727
 31
0.0
  0
MTEXT
  5
117
330
108
100
AcDbEntity
  8
치수문자_일반주서
100
AcDbMText
 10
36.5716414061845
 20
7.481011991451775
 30
0.0
 40
3.5
 41
0.0
 71
     1
 72
     1
  1
0.25
  7
SLDTEXTSTYLE0
 11
-7.044195017643634E-15
 21
1.0
 31
0.0
 73
     1
 44
1.0
  0
MTEXT
  5
118
330
108
100
AcDbEntity
  8
치수문자_일반주서
100
AcDbMText
 10
41.80827295654498
 20
4.841792826603483
 30
0.0
 40
3.5
 41
0.0
 71
     1
 72
     1
  1
%%c
  7
SLDTEXTSTYLE0
 11
-7.044195017643634E-15
 21
1.0
 31
0.0
 73
     1
 44
1.0
  0
MTEXT
  5
119
330
108
100
AcDbEntity
  8
치수문자_일반주서
100
AcDbMText
 10
41.80827295654495
 20
10.12023022497756
 30
0.0
 40
3.5
 41
0.0
 71
     1
 72
     1
  1
6.35
  7
SLDTEXTSTYLE0
 11
-7.044195017643634E-15
 21
1.0
 31
0.0
 73
     1
 44
1.0
  0
ENDBLK
  5
10A
330
108
100
AcDbEntity
  8
0
100
AcDbBlockEnd
  0
BLOCK
  5
11C
330
11B
100
AcDbEntity
  8
0
100
AcDbBlockBegin
  2
_D_1
 70
     0
 10
0.0
 20
0.0
 30
0.0
  3
_D_1
  1
_D_1
  0
SOLID
  5
11E
330
11B
100
AcDbEntity
  8
치수문자_일반주서
100
AcDbTrace
 10
-46.03750000000008
 20
3.491870580932714
 30
0.0
 11
-45.52950000000008
 21
6.793870580932714
 31
0.0
 12
-46.54550000000008
 22
6.793870580932714
 32
0.0
 13
-46.54550000000008
 23
6.793870580932714
 33
0.0
  0
SOLID
  5
11F
330
11B
100
AcDbEntity
  8
치수문자_일반주서
100
AcDbTrace
 10
-46.03750000000008
 20
-2.858129419067281
 30
0.0
 11
-46.54550000000008
 21
-6.16012941906728
 31
0.0
 12
-45.52950000000008
 22
-6.16012941906728
 32
0.0
 13
-45.52950000000008
 23
-6.16012941906728
 33
0.0
  0
LINE
  5
120
330
11B
100
AcDbEntity
  8
치수문자_일반주서
100
AcDbLine
 10
-56.83038171604281
 20
-5.606168023946293
 30
0.0
 11
-56.8303817160428
 21
-6.317105509510793
 31
0.0
  0
LINE
  5
121
330
11B
100
AcDbEntity
  8
치수문자_일반주서
100
AcDbLine
 10
-56.8303817160428
 20
-6.317105509510793
 30
0.0
 11
-51.2741317249835
 21
-6.317105509510754
 31
0.0
  0
LINE
  5
122
330
11B
100
AcDbEntity
  8
치수문자_일반주서
100
AcDbLine
 10
-51.2741317249835
 20
-6.317105509510754
 30
0.0
 11
-51.2741317249835
 21
-5.606168023946254
 31
0.0
  0
LINE
  5
123
330
11B
100
AcDbEntity
  8
치수문자_일반주서
100
AcDbLine
 10
-56.83038171604288
 20
5.222564838190965
 30
0.0
 11
-56.83038171604289
 21
5.933502323755465
 31
0.0
  0
LINE
  5
124
330
11B
100
AcDbEntity
  8
치수문자_일반주서
100
AcDbLine
 10
-56.83038171604289
 20
5.933502323755465
 30
0.0
 11
-51.27413172498358
 21
5.933502323755504
 31
0.0
  0
LINE
  5
125
330
11B
100
AcDbEntity
  8
치수문자_일반주서
100
AcDbLine
 10
-51.27413172498358
 20
5.933502323755504
 30
0.0
 11
-51.27413172498358
 21
5.222564838191004
 31
0.0
  0
LINE
  5
126
330
11B
100
AcDbEntity
  8
치수문자_일반주서
100
AcDbLine
 10
-36.22750000000003
 20
3.491870580932714
 30
0.0
 11
-47.03750000000008
 21
3.491870580932714
 31
0.0
  0
LINE
  5
127
330
11B
100
AcDbEntity
  8
치수문자_일반주서
100
AcDbLine
 10
-36.22750000000003
 20
-2.85812941906728
 30
0.0
 11
-47.03750000000008
 21
-2.858129419067281
 31
0.0
  0
LINE
  5
128
330
11B
100
AcDbEntity
  8
치수문자_일반주서
100
AcDbLine
 10
-46.03750000000008
 20
3.491870580932714
 30
0.0
 11
-46.03750000000008
 21
9.841870580932714
 31
0.0
  0
LINE
  5
129
330
11B
100
AcDbEntity
  8
치수문자_일반주서
100
AcDbLine
 10
-46.03750000000008
 20
3.491870580932714
 30
0.0
 11
-46.03750000000008
 21
-2.858129419067281
 31
0.0
  0
LINE
  5
12A
330
11B
100
AcDbEntity
  8
치수문자_일반주서
100
AcDbLine
 10
-46.03750000000008
 20
-2.858129419067281
 30
0.0
 11
-46.03750000000008
 21
-9.20812941906728
 31
0.0
  0
MTEXT
  5
12B
330
11B
100
AcDbEntity
  8
치수문자_일반주서
100
AcDbMText
 10
-55.7858686395624
 20
-4.717496123334915
 30
0.0
 40
3.5
 41
0.0
 71
     1
 72
     1
  1
0.25
  7
SLDTEXTSTYLE0
 11
-7.044195017643634E-15
 21
1.0
 31
0.0
 73
     1
 44
1.0
  0
MTEXT
  5
12C
330
11B
100
AcDbEntity
  8
치수문자_일반주서
100
AcDbMText
 10
-50.54923708920192
 20
-7.356715288183207
 30
0.0
 40
3.5
 41
0.0
 71
     1
 72
     1
  1
%%c
  7
SLDTEXTSTYLE0
 11
-7.044195017643634E-15
 21
1.0
 31
0.0
 73
     1
 44
1.0
  0
MTEXT
  5
12D
330
11B
100
AcDbEntity
  8
치수문자_일반주서
100
AcDbMText
 10
-50.54923708920195
 20
-2.078277889809125
 30
0.0
 40
3.5
 41
0.0
 71
     1
 72
     1
  1
6.35
  7
SLDTEXTSTYLE0
 11
-7.044195017643634E-15
 21
1.0
 31
0.0
 73
     1
 44
1.0
  0
ENDBLK
  5
11D
330
11B
100
AcDbEntity
  8
0
100
AcDbBlockEnd
  0
BLOCK
  5
131
330
130
100
AcDbEntity
  8
0
100
AcDbBlockBegin
  2
_D_2
 70
     0
 10
0.0
 20
0.0
 30
0.0
  3
_D_2
  1
_D_2
  0
SOLID
  5
133
330
130
100
AcDbEntity
  8
치수문자_일반주서
100
AcDbTrace
 10
25.875
 20
20.50786834647131
 30
0.0
 11
22.573
 21
21.01586834647131
 31
0.0
 12
22.573
 22
19.99986834647131
 32
0.0
 13
22.573
 23
19.99986834647131
 33
0.0
  0
SOLID
  5
134
330
130
100
AcDbEntity
  8
치수문자_일반주서
100
AcDbTrace
 10
10.0
 20
20.50786834647131
 30
0.0
 11
13.302
 21
19.99986834647131
 31
0.0
 12
13.302
 22
21.01586834647131
 32
0.0
 13
13.302
 23
21.01586834647131
 33
0.0
  0
LINE
  5
135
330
130
100
AcDbEntity
  8
치수문자_일반주서
100
AcDbLine
 10
40.51186194634933
 20
31.30075006251404
 30
0.0
 11
39.80092446078483
 21
31.30075006251404
 31
0.0
  0
LINE
  5
136
330
130
100
AcDbEntity
  8
치수문자_일반주서
100
AcDbLine
 10
39.80092446078483
 20
31.30075006251404
 30
0.0
 11
39.80092446078478
 21
25.74450007145474
 31
0.0
  0
LINE
  5
137
330
130
100
AcDbEntity
  8
치수문자_일반주서
100
AcDbLine
 10
39.80092446078478
 20
25.74450007145474
 30
0.0
 11
40.51186194634928
 21
25.74450007145473
 31
0.0
  0
LINE
  5
138
330
130
100
AcDbEntity
  8
치수문자_일반주서
100
AcDbLine
 10
51.34059480848659
 20
31.30075006251396
 30
0.0
 11
52.05153229405109
 21
31.30075006251396
 31
0.0
  0
LINE
  5
139
330
130
100
AcDbEntity
  8
치수문자_일반주서
100
AcDbLine
 10
52.05153229405109
 20
31.30075006251396
 30
0.0
 11
52.05153229405104
 21
25.74450007145465
 31
0.0
  0
LINE
  5
13A
330
130
100
AcDbEntity
  8
치수문자_일반주서
100
AcDbLine
 10
52.05153229405104
 20
25.74450007145465
 30
0.0
 11
51.34059480848654
 21
25.74450007145466
 31
0.0
  0
LINE
  5
13B
330
130
100
AcDbEntity
  8
치수문자_일반주서
100
AcDbLine
 10
25.875
 20
4.180153183843162
 30
0.0
 11
25.875
 21
21.50786834647131
 31
0.0
  0
LINE
  5
13C
330
130
100
AcDbEntity
  8
치수문자_일반주서
100
AcDbLine
 10
10.0
 20
7.068588859274351
 30
0.0
 11
10.0
 21
21.50786834647131
 31
0.0
  0
LINE
  5
13D
330
130
100
AcDbEntity
  8
치수문자_일반주서
100
AcDbLine
 10
25.875
 20
20.50786834647131
 30
0.0
 11
53.87779032104585
 21
20.50786834647131
 31
0.0
  0
LINE
  5
13E
330
130
100
AcDbEntity
  8
치수문자_일반주서
100
AcDbLine
 10
25.875
 20
20.50786834647131
 30
0.0
 11
10.0
 21
20.50786834647131
 31
0.0
  0
MTEXT
  5
13F
330
130
100
AcDbEntity
  8
치수문자_일반주서
100
AcDbMText
 10
39.28716573529808
 20
25.07307761233303
 30
0.0
 40
3.5
 41
0.0
 71
     1
 72
     1
  1

  7
SLDTEXTSTYLE0
 73
     1
 44
1.0
  0
MTEXT
  5
140
330
130
100
AcDbEntity
  8
치수문자_일반주서
100
AcDbMText
 10
41.40053384696069
 20
30.25623698603363
 30
0.0
 40
3.5
 41
0.0
 71
     1
 72
     1
  1
0.63
  7
SLDTEXTSTYLE0
 73
     1
 44
1.0
  0
MTEXT
  5
141
330
130
100
AcDbEntity
  8
치수문자_일반주서
100
AcDbMText
 10
40.10747813378392
 20
25.01960543567316
 30
0.0
 40
3.5
 41
0.0
 71
     1
 72
     1
  1
15.88
  7
SLDTEXTSTYLE0
 73
     1
 44
1.0
  0
MTEXT
  5
142
330
130
100
AcDbEntity
  8
치수문자_일반주서
100
AcDbMText
 10
53.89723553919165
 20
25.07307761233292
 30
0.0
 40
3.5
 41
0.0
 71
     1
 72
     1
  1

  7
SLDTEXTSTYLE0
 73
     1
 44
1.0
  0
ENDBLK
  5
132
330
130
100
AcDbEntity
  8
0
100
AcDbBlockEnd
  0
BLOCK
  5
145
330
144
100
AcDbEntity
  8
0
100
AcDbBlockBegin
  2
_D_3
 70
     0
 10
0.0
 20
0.0
 30
0.0
  3
_D_3
  1
_D_3
  0
SOLID
  5
147
330
144
100
AcDbEntity
  8
치수문자_일반주서
100
AcDbTrace
 10
25.87499999999987
 20
37.28421303760267
 30
0.0
 11
22.57299999999987
 21
37.79221303760267
 31
0.0
 12
22.57299999999987
 22
36.77621303760267
 32
0.0
 13
22.57299999999987
 23
36.77621303760267
 33
0.0
  0
SOLID
  5
148
330
144
100
AcDbEntity
  8
치수문자_일반주서
100
AcDbTrace
 10
-36.03750000000002
 20
37.28421303760267
 30
0.0
 11
-32.73550000000002
 21
36.77621303760267
 31
0.0
 12
-32.73550000000002
 22
37.79221303760267
 32
0.0
 13
-32.73550000000002
 23
37.79221303760267
 33
0.0
  0
LINE
  5
149
330
144
100
AcDbEntity
  8
치수문자_일반주서
100
AcDbLine
 10
-7.788736524267736
 20
48.0770947536454
 30
0.0
 11
-8.499674009832237
 21
48.07709475364541
 31
0.0
  0
LINE
  5
14A
330
144
100
AcDbEntity
  8
치수문자_일반주서
100
AcDbLine
 10
-8.499674009832237
 20
48.07709475364541
 30
0.0
 11
-8.499674009832276
 21
42.52084476258611
 31
0.0
  0
LINE
  5
14B
330
144
100
AcDbEntity
  8
치수문자_일반주서
100
AcDbLine
 10
-8.499674009832276
 20
42.52084476258611
 30
0.0
 11
-7.788736524267776
 21
42.5208447625861
 31
0.0
  0
LINE
  5
14C
330
144
100
AcDbEntity
  8
치수문자_일반주서
100
AcDbLine
 10
3.039996337869522
 20
48.07709475364533
 30
0.0
 11
3.750933823434022
 21
48.07709475364532
 31
0.0
  0
LINE
  5
14D
330
144
100
AcDbEntity
  8
치수문자_일반주서
100
AcDbLine
 10
3.750933823434022
 20
48.07709475364532
 30
0.0
 11
3.750933823433983
 21
42.52084476258602
 31
0.0
  0
LINE
  5
14E
330
144
100
AcDbEntity
  8
치수문자_일반주서
100
AcDbLine
 10
3.750933823433983
 20
42.52084476258602
 30
0.0
 11
3.039996337869483
 21
42.52084476258602
 31
0.0
  0
LINE
  5
14F
330
144
100
AcDbEntity
  8
치수문자_일반주서
100
AcDbLine
 10
25.87499999999987
 20
4.286832873978677
 30
0.0
 11
25.87499999999987
 21
38.28421303760267
 31
0.0
  0
LINE
  5
150
330
144
100
AcDbEntity
  8
치수문자_일반주서
100
AcDbLine
 10
-36.03750000000002
 20
3.681870580932725
 30
0.0
 11
-36.03750000000002
 21
38.28421303760267
 31
0.0
  0
LINE
  5
151
330
144
100
AcDbEntity
  8
치수문자_일반주서
100
AcDbLine
 10
25.87499999999987
 20
37.28421303760267
 30
0.0
 11
-36.03750000000002
 21
37.28421303760267
 31
0.0
  0
MTEXT
  5
152
330
144
100
AcDbEntity
  8
치수문자_일반주서
100
AcDbMText
 10
-9.013432735318977
 20
41.84942230346439
 30
0.0
 40
3.5
 41
0.0
 71
     1
 72
     1
  1

  7
SLDTEXTSTYLE0
 73
     1
 44
1.0
  0
MTEXT
  5
153
330
144
100
AcDbEntity
  8
치수문자_일반주서
100
AcDbMText
 10
-6.900064623656373
 20
47.03258167716499
 30
0.0
 40
3.5
 41
0.0
 71
     1
 72
     1
  1
2.44
  7
SLDTEXTSTYLE0
 73
     1
 44
1.0
  0
MTEXT
  5
154
330
144
100
AcDbEntity
  8
치수문자_일반주서
100
AcDbMText
 10
-8.193120336833136
 20
41.79595012680453
 30
0.0
 40
3.5
 41
0.0
 71
     1
 72
     1
  1
61.91
  7
SLDTEXTSTYLE0
 73
     1
 44
1.0
  0
MTEXT
  5
155
330
144
100
AcDbEntity
  8
치수문자_일반주서
100
AcDbMText
 10
5.59663706857459
 20
41.84942230346429
 30
0.0
 40
3.5
 41
0.0
 71
     1
 72
     1
  1

  7
SLDTEXTSTYLE0
 73
     1
 44
1.0
  0
ENDBLK
  5
146
330
144
100
AcDbEntity
  8
0
100
AcDbBlockEnd
  0
BLOCK
  5
15E
330
15D
100
AcDbEntity
  8
0
100
AcDbBlockBegin
  2
SW_DOWELSYMBOL_0
 70
     0
 10
0.0
 20
0.0
 30
0.0
  3
SW_DOWELSYMBOL_0
  1
SW_DOWELSYMBOL_0
  0
CIRCLE
  5
160
330
15D
100
AcDbEntity
  8
해칭선
 62
     0
100
AcDbCircle
 10
0.0
 20
0.0
 30
0.0
 40
3.000000000000001
  0
HATCH
  5
161
330
15D
100
AcDbEntity
  8
0
  6
Continuous
 62
     0
370
     0
100
AcDbHatch
 10
0.0
 20
0.0
 30
0.0
210
0.0
220
0.0
230
1.0
  2
SOLID
 70
     1
 71
     0
 91
        1
 92
        0
 93
        3
 72
     2
 10
0.0000000000000087
 20
-0.0000000000000035
 40
3.000000000000001
 50
0.0
 51
90.0
 73
     1
 72
     1
 10
0.0000000000000087
 20
2.999999999999998
 11
0.0000000000000087
 21
-0.0000000000000036
 72
     1
 10
0.0000000000000087
 20
-0.0000000000000035
 11
3.00000000000001
 21
-0.0000000000000035
 97
        0
 75
     0
 76
     1
 98
        1
 10
0.0
 20
0.0
  0
HATCH
  5
162
330
15D
100
AcDbEntity
  8
0
  6
Continuous
 62
     0
370
     0
100
AcDbHatch
 10
0.0
 20
0.0
 30
0.0
210
0.0
220
0.0
230
1.0
  2
SOLID
 70
     1
 71
     0
 91
        1
 92
        0
 93
        3
 72
     2
 10
0.0000000000000087
 20
-0.0000000000000035
 40
3.000000000000001
 50
180.0
 51
270.0000000000008
 73
     1
 72
     1
 10
0.0000000000000087
 20
-3.000000000000005
 11
0.0000000000000087
 21
-0.0000000000000036
 72
     1
 10
0.0000000000000087
 20
-0.0000000000000035
 11
-2.999999999999993
 21
-0.0000000000000035
 97
        0
 75
     0
 76
     1
 98
        1
 10
0.0
 20
0.0
  0
ENDBLK
  5
15F
330
15D
100
AcDbEntity
  8
0
100
AcDbBlockEnd
  0
BLOCK
  5
42A
330
429
100
AcDbEntity
  8
0
100
AcDbBlockBegin
  2
*D8
 70
     1
 10
0.0
 20
0.0
 30
0.0
  3
*D8
  1
*D8
  0
LINE
  5
42C
330
429
100
AcDbEntity
  8
치수문자_일반주서
 62
     0
370
    -2
100
AcDbLine
 10
65.04750000000006
 20
19.83609434762065
 30
0.0
 11
101.3050100457469
 21
19.83609434762079
 31
0.0
  0
LINE
  5
42D
330
429
100
AcDbEntity
  8
치수문자_일반주서
 62
     0
370
    -2
100
AcDbLine
 10
87.45653691947464
 20
7.136094424361623
 30
0.0
 11
101.3050100457469
 21
7.136094424361676
 31
0.0
  0
LINE
  5
42E
330
429
100
AcDbEntity
  8
치수문자_일반주서
 62
     0
370
    -2
100
AcDbLine
 10
101.3050100457469
 20
19.83609434762079
 30
0.0
 11
101.3050100457468
 21
50.94009434762079
 31
0.0
  0
LINE
  5
42F
330
429
100
AcDbEntity
  8
치수문자_일반주서
 62
     0
370
    -2
100
AcDbLine
 10
101.3050100457469
 20
19.83609434762079
 30
0.0
 11
101.3050100457469
 21
7.136094424361676
 31
0.0
  0
LINE
  5
430
330
429
100
AcDbEntity
  8
치수문자_일반주서
 62
     0
370
    -2
100
AcDbLine
 10
101.3050100457469
 20
23.13809434762079
 30
0.0
 11
101.3050100457469
 21
26.44009434762079
 31
0.0
  0
LINE
  5
431
330
429
100
AcDbEntity
  8
치수문자_일반주서
 62
     0
370
    -2
100
AcDbLine
 10
101.305010045747
 20
3.834094424361677
 30
0.0
 11
101.305010045747
 21
0.5320944243616772
 31
0.0
  0
SOLID
  5
432
330
429
100
AcDbEntity
  8
치수문자_일반주서
 62
     0
100
AcDbTrace
 10
100.7546767124136
 20
23.13809434762078
 30
0.0
 11
101.8553433790802
 21
23.13809434762079
 31
0.0
 12
101.3050100457469
 22
19.83609434762079
 32
0.0
 13
101.3050100457469
 23
19.83609434762079
 33
0.0
  0
SOLID
  5
433
330
429
100
AcDbEntity
  8
치수문자_일반주서
 62
     0
100
AcDbTrace
 10
101.8553433790803
 20
3.834094424361679
 30
0.0
 11
100.7546767124136
 21
3.834094424361675
 31
0.0
 12
101.3050100457469
 22
7.136094424361676
 32
0.0
 13
101.3050100457469
 23
7.136094424361676
 33
0.0
  0
MTEXT
  5
434
330
429
100
AcDbEntity
  8
치수문자_일반주서
 62
     0
100
AcDbMText
 10
96.93001004574683
 20
38.69009434762077
 30
0.0
 40
3.5
 41
0.0
 71
     2
 72
     1
  1
\A1;%%c12.7 [1/2]
  7
SLDTEXTSTYLE0
 11
-3.356894834898985E-15
 21
1.0
 31
0.0
 73
     1
 44
1.0
  0
POINT
  5
435
330
429
100
AcDbEntity
  8
Defpoints
 62
     0
100
AcDbPoint
 10
64.98500000000006
 20
19.83609434762065
 30
0.0
  0
POINT
  5
436
330
429
100
AcDbEntity
  8
Defpoints
 62
     0
100
AcDbPoint
 10
87.39403691947464
 20
7.136094424361623
 30
0.0
  0
POINT
  5
437
330
429
100
AcDbEntity
  8
Defpoints
 62
     0
100
AcDbPoint
 10
101.3050100457469
 20
7.136094424361676
 30
0.0
  0
ENDBLK
  5
42B
330
429
100
AcDbEntity
  8
0
100
AcDbBlockEnd
  0
BLOCK
  5
439
330
438
100
AcDbEntity
  8
0
100
AcDbBlockBegin
  2
*D9
 70
     1
 10
0.0
 20
0.0
 30
0.0
  3
*D9
  1
*D9
  0
LINE
  5
43B
330
438
100
AcDbEntity
  8
치수문자_일반주서
 62
     0
370
    -2
100
AcDbLine
 10
15.12250000000006
 20
19.83609434762064
 30
0.0
 11
4.375000000000017
 21
19.83609434762059
 31
0.0
  0
LINE
  5
43C
330
438
100
AcDbEntity
  8
치수문자_일반주서
 62
     0
370
    -2
100
AcDbLine
 10
15.12250000000006
 20
7.136094347620649
 30
0.0
 11
4.375000000000061
 21
7.136094347620606
 31
0.0
  0
LINE
  5
43D
330
438
100
AcDbEntity
  8
치수문자_일반주서
 62
     0
370
    -2
100
AcDbLine
 10
4.375000000000028
 20
16.5340943476206
 30
0.0
 11
4.37500000000005
 21
10.43809434762061
 31
0.0
  0
SOLID
  5
43E
330
438
100
AcDbEntity
  8
치수문자_일반주서
 62
     0
100
AcDbTrace
 10
4.925333333333362
 20
16.5340943476206
 30
0.0
 11
3.824666666666695
 21
16.53409434762059
 31
0.0
 12
4.375000000000017
 22
19.83609434762059
 32
0.0
 13
4.375000000000017
 23
19.83609434762059
 33
0.0
  0
SOLID
  5
43F
330
438
100
AcDbEntity
  8
치수문자_일반주서
 62
     0
100
AcDbTrace
 10
3.824666666666717
 20
10.4380943476206
 30
0.0
 11
4.925333333333383
 21
10.43809434762061
 31
0.0
 12
4.375000000000061
 22
7.136094347620606
 32
0.0
 13
4.375000000000061
 23
7.136094347620606
 33
0.0
  0
MTEXT
  5
440
330
438
100
AcDbEntity
  8
치수문자_일반주서
 62
     0
100
AcDbMText
 10
0.0000000000000426
 20
12.46875000000001
 30
0.0
 40
3.5
 41
0.0
 71
     2
 72
     1
  1
\A1;%%c12.7 [1/2]
  7
SLDTEXTSTYLE0
 11
-3.496765431890261E-15
 21
1.0
 31
0.0
 73
     1
 44
1.0
  0
POINT
  5
441
330
438
100
AcDbEntity
  8
Defpoints
 62
     0
100
AcDbPoint
 10
15.18500000000006
 20
19.83609434762064
 30
0.0
  0
POINT
  5
442
330
438
100
AcDbEntity
  8
Defpoints
 62
     0
100
AcDbPoint
 10
15.18500000000006
 20
7.136094347620649
 30
0.0
  0
POINT
  5
443
330
438
100
AcDbEntity
  8
Defpoints
 62
     0
100
AcDbPoint
 10
4.375000000000057
 20
7.136094347620609
 30
0.0
  0
ENDBLK
  5
43A
330
438
100
AcDbEntity
  8
0
100
AcDbBlockEnd
  0
BLOCK
  5
445
330
444
100
AcDbEntity
  8
0
100
AcDbBlockBegin
  2
*D10
 70
     1
 10
0.0
 20
0.0
 30
0.0
  3
*D10
  1
*D10
  0
LINE
  5
447
330
444
100
AcDbEntity
  8
치수문자_일반주서
 62
     0
370
    -2
100
AcDbLine
 10
90.38500000000005
 20
19.26984803453228
 30
0.0
 11
90.38500000000005
 21
36.53506319716042
 31
0.0
  0
LINE
  5
448
330
444
100
AcDbEntity
  8
치수문자_일반주서
 62
     0
370
    -2
100
AcDbLine
 10
64.98500000000004
 20
19.89859434762064
 30
0.0
 11
64.98500000000004
 21
36.53506319716042
 31
0.0
  0
LINE
  5
449
330
444
100
AcDbEntity
  8
치수문자_일반주서
 62
     0
370
    -2
100
AcDbLine
 10
87.08300000000006
 20
36.53506319716042
 30
0.0
 11
68.28700000000003
 21
36.53506319716042
 31
0.0
  0
SOLID
  5
44A
330
444
100
AcDbEntity
  8
치수문자_일반주서
 62
     0
100
AcDbTrace
 10
87.08300000000006
 20
35.98472986382708
 30
0.0
 11
87.08300000000006
 21
37.08539653049375
 31
0.0
 12
90.38500000000005
 22
36.53506319716042
 32
0.0
 13
90.38500000000005
 23
36.53506319716042
 33
0.0
  0
SOLID
  5
44B
330
444
100
AcDbEntity
  8
치수문자_일반주서
 62
     0
100
AcDbTrace
 10
68.28700000000003
 20
37.08539653049375
 30
0.0
 11
68.28700000000003
 21
35.98472986382708
 31
0.0
 12
64.98500000000004
 22
36.53506319716042
 32
0.0
 13
64.98500000000004
 23
36.53506319716042
 33
0.0
  0
MTEXT
  5
44C
330
444
100
AcDbEntity
  8
치수문자_일반주서
 62
     0
100
AcDbMText
 10
77.68500000000003
 20
40.91006319716042
 30
0.0
 40
3.5
 41
0.0
 71
     2
 72
     1
  1
\A1;25.4 [1]
  7
SLDTEXTSTYLE0
 73
     1
 44
1.0
  0
POINT
  5
44D
330
444
100
AcDbEntity
  8
Defpoints
 62
     0
100
AcDbPoint
 10
90.38500000000005
 20
19.20734803453228
 30
0.0
  0
POINT
  5
44E
330
444
100
AcDbEntity
  8
Defpoints
 62
     0
100
AcDbPoint
 10
64.98500000000004
 20
19.83609434762064
 30
0.0
  0
POINT
  5
44F
330
444
100
AcDbEntity
  8
Defpoints
 62
     0
100
AcDbPoint
 10
64.98500000000004
 20
36.53506319716042
 30
0.0
  0
ENDBLK
  5
446
330
444
100
AcDbEntity
  8
0
100
AcDbBlockEnd
  0
BLOCK
  5
451
330
450
100
AcDbEntity
  8
0
100
AcDbBlockBegin
  2
*D11
 70
     1
 10
0.0
 20
0.0
 30
0.0
  3
*D11
  1
*D11
  0
LINE
  5
453
330
450
100
AcDbEntity
  8
치수문자_일반주서
 62
     0
370
    -2
100
AcDbLine
 10
90.38500000000005
 20
19.26984803453228
 30
0.0
 11
90.38500000000005
 21
53.20472819815626
 31
0.0
  0
LINE
  5
454
330
450
100
AcDbEntity
  8
치수문자_일반주서
 62
     0
370
    -2
100
AcDbLine
 10
14.18500000000005
 20
18.89859434762064
 30
0.0
 11
14.18500000000005
 21
53.20472819815626
 31
0.0
  0
LINE
  5
455
330
450
100
AcDbEntity
  8
치수문자_일반주서
 62
     0
370
    -2
100
AcDbLine
 10
87.08300000000006
 20
53.20472819815626
 30
0.0
 11
17.48700000000005
 21
53.20472819815626
 31
0.0
  0
SOLID
  5
456
330
450
100
AcDbEntity
  8
치수문자_일반주서
 62
     0
100
AcDbTrace
 10
87.08300000000006
 20
52.65439486482293
 30
0.0
 11
87.08300000000006
 21
53.75506153148959
 31
0.0
 12
90.38500000000005
 22
53.20472819815626
 32
0.0
 13
90.38500000000005
 23
53.20472819815626
 33
0.0
  0
SOLID
  5
457
330
450
100
AcDbEntity
  8
치수문자_일반주서
 62
     0
100
AcDbTrace
 10
17.48700000000005
 20
53.75506153148959
 30
0.0
 11
17.48700000000005
 21
52.65439486482293
 31
0.0
 12
14.18500000000005
 22
53.20472819815626
 32
0.0
 13
14.18500000000005
 23
53.20472819815626
 33
0.0
  0
MTEXT
  5
458
330
450
100
AcDbEntity
  8
치수문자_일반주서
 62
     0
100
AcDbMText
 10
55.61654407083706
 20
57.57972819815626
 30
0.0
 40
3.5
 41
0.0
 71
     2
 72
     1
  1
\A1;76.2 [3]
  7
SLDTEXTSTYLE0
 73
     1
 44
1.0
  0
POINT
  5
459
330
450
100
AcDbEntity
  8
Defpoints
 62
     0
100
AcDbPoint
 10
90.38500000000005
 20
19.20734803453228
 30
0.0
  0
POINT
  5
45A
330
450
100
AcDbEntity
  8
Defpoints
 62
     0
100
AcDbPoint
 10
14.18500000000005
 20
18.83609434762064
 30
0.0
  0
POINT
  5
45B
330
450
100
AcDbEntity
  8
Defpoints
 62
     0
100
AcDbPoint
 10
14.18500000000005
 20
53.20472819815626
 30
0.0
  0
ENDBLK
  5
452
330
450
100
AcDbEntity
  8
0
100
AcDbBlockEnd
  0
BLOCK
  5
69B
330
69A
100
AcDbEntity
  8
0
100
AcDbBlockBegin
  2
*D12
 70
     1
 10
0.0
 20
0.0
 30
0.0
  3
*D12
  1
*D12
  0
LINE
  5
69D
330
69A
100
AcDbEntity
  8
치수문자_일반주서
 62
     0
370
    -2
100
AcDbLine
 10
22.19069479691715
 20
6.34976946118078
 30
0.0
 11
36.795010188798
 21
6.349769461180834
 31
0.0
  0
LINE
  5
69E
330
69A
100
AcDbEntity
  8
치수문자_일반주서
 62
     0
370
    -2
100
AcDbLine
 10
22.94653706252575
 20
-6.349999923259027
 30
0.0
 11
36.79501018879804
 21
-6.349999923258974
 31
0.0
  0
LINE
  5
69F
330
69A
100
AcDbEntity
  8
치수문자_일반주서
 62
     0
370
    -2
100
AcDbLine
 10
36.795010188798
 20
6.349769461180834
 30
0.0
 11
36.79501018879789
 21
37.45400000000014
 31
0.0
  0
LINE
  5
6A0
330
69A
100
AcDbEntity
  8
치수문자_일반주서
 62
     0
370
    -2
100
AcDbLine
 10
36.795010188798
 20
6.349769461180834
 30
0.0
 11
36.79501018879804
 21
-6.349999923258974
 31
0.0
  0
LINE
  5
6A1
330
69A
100
AcDbEntity
  8
치수문자_일반주서
 62
     0
370
    -2
100
AcDbLine
 10
36.79501018879798
 20
9.651769461180834
 30
0.0
 11
36.79501018879797
 21
12.95376946118083
 31
0.0
  0
LINE
  5
6A2
330
69A
100
AcDbEntity
  8
치수문자_일반주서
 62
     0
370
    -2
100
AcDbLine
 10
36.79501018879805
 20
-9.651999923258973
 30
0.0
 11
36.79501018879807
 21
-12.95399992325897
 31
0.0
  0
SOLID
  5
6A3
330
69A
100
AcDbEntity
  8
치수문자_일반주서
 62
     0
100
AcDbTrace
 10
36.24467685546465
 20
9.651769461180832
 30
0.0
 11
37.34534352213132
 21
9.651769461180836
 31
0.0
 12
36.795010188798
 22
6.349769461180834
 32
0.0
 13
36.795010188798
 23
6.349769461180834
 33
0.0
  0
SOLID
  5
6A4
330
69A
100
AcDbEntity
  8
치수문자_일반주서
 62
     0
100
AcDbTrace
 10
37.34534352213139
 20
-9.651999923258971
 30
0.0
 11
36.24467685546472
 21
-9.651999923258975
 31
0.0
 12
36.79501018879804
 22
-6.349999923258974
 32
0.0
 13
36.79501018879804
 23
-6.349999923258974
 33
0.0
  0
MTEXT
  5
6A5
330
69A
100
AcDbEntity
  8
치수문자_일반주서
 62
     0
100
AcDbMText
 10
32.42001018879793
 20
25.20400000000012
 30
0.0
 40
3.5
 41
0.0
 71
     2
 72
     1
  1
\A1;%%c12.7 [1/2]
  7
SLDTEXTSTYLE0
 11
-3.356955772585987E-15
 21
1.0
 31
0.0
 73
     1
 44
1.0
  0
POINT
  5
6A6
330
69A
100
AcDbEntity
  8
Defpoints
 62
     0
100
AcDbPoint
 10
22.12819479691715
 20
6.34976946118078
 30
0.0
  0
POINT
  5
6A7
330
69A
100
AcDbEntity
  8
Defpoints
 62
     0
100
AcDbPoint
 10
22.88403706252575
 20
-6.349999923259027
 30
0.0
  0
POINT
  5
6A8
330
69A
100
AcDbEntity
  8
Defpoints
 62
     0
100
AcDbPoint
 10
36.79501018879804
 20
-6.349999923258975
 30
0.0
  0
ENDBLK
  5
69C
330
69A
100
AcDbEntity
  8
0
100
AcDbBlockEnd
  0
BLOCK
  5
6AA
330
6A9
100
AcDbEntity
  8
0
100
AcDbBlockBegin
  2
*D13
 70
     1
 10
0.0
 20
0.0
 30
0.0
  3
*D13
  1
*D13
  0
LINE
  5
6AC
330
6A9
100
AcDbEntity
  8
치수문자_일반주서
 62
     0
370
    -2
100
AcDbLine
 10
-49.38749985694884
 20
6.349999999999987
 30
0.0
 11
-60.13499985694887
 21
6.349999999999945
 31
0.0
  0
LINE
  5
6AD
330
6A9
100
AcDbEntity
  8
치수문자_일반주서
 62
     0
370
    -2
100
AcDbLine
 10
-49.38749985694884
 20
-6.350000000000001
 30
0.0
 11
-60.13499985694883
 21
-6.350000000000043
 31
0.0
  0
LINE
  5
6AE
330
6A9
100
AcDbEntity
  8
치수문자_일반주서
 62
     0
370
    -2
100
AcDbLine
 10
-60.13499985694886
 20
3.047999999999946
 30
0.0
 11
-60.13499985694884
 21
-3.048000000000044
 31
0.0
  0
SOLID
  5
6AF
330
6A9
100
AcDbEntity
  8
치수문자_일반주서
 62
     0
100
AcDbTrace
 10
-59.58466652361552
 20
3.047999999999948
 30
0.0
 11
-60.68533319028219
 21
3.047999999999944
 31
0.0
 12
-60.13499985694887
 22
6.349999999999945
 32
0.0
 13
-60.13499985694887
 23
6.349999999999945
 33
0.0
  0
SOLID
  5
6B0
330
6A9
100
AcDbEntity
  8
치수문자_일반주서
 62
     0
100
AcDbTrace
 10
-60.68533319028218
 20
-3.048000000000045
 30
0.0
 11
-59.58466652361551
 21
-3.048000000000042
 31
0.0
 12
-60.13499985694883
 22
-6.350000000000043
 32
0.0
 13
-60.13499985694883
 23
-6.350000000000043
 33
0.0
  0
MTEXT
  5
6B1
330
6A9
100
AcDbEntity
  8
치수문자_일반주서
 62
     0
100
AcDbMText
 10
-64.50999985694885
 20
-1.017344347620645
 30
0.0
 40
3.5
 41
0.0
 71
     2
 72
     1
  1
\A1;%%c12.7 [1/2]
  7
SLDTEXTSTYLE0
 11
-3.356894814614650E-15
 21
1.0
 31
0.0
 73
     1
 44
1.0
  0
POINT
  5
6B2
330
6A9
100
AcDbEntity
  8
Defpoints
 62
     0
100
AcDbPoint
 10
-49.32499985694884
 20
6.349999999999987
 30
0.0
  0
POINT
  5
6B3
330
6A9
100
AcDbEntity
  8
Defpoints
 62
     0
100
AcDbPoint
 10
-49.32499985694884
 20
-6.350000000000001
 30
0.0
  0
POINT
  5
6B4
330
6A9
100
AcDbEntity
  8
Defpoints
 62
     0
100
AcDbPoint
 10
-60.13499985694883
 20
-6.350000000000041
 30
0.0
  0
ENDBLK
  5
6AB
330
6A9
100
AcDbEntity
  8
0
100
AcDbBlockEnd
  0
BLOCK
  5
6B6
330
6B5
100
AcDbEntity
  8
0
100
AcDbBlockBegin
  2
*D14
 70
     1
 10
0.0
 20
0.0
 30
0.0
  3
*D14
  1
*D14
  0
LINE
  5
6B8
330
6B5
100
AcDbEntity
  8
치수문자_일반주서
 62
     0
370
    -2
100
AcDbLine
 10
25.87500014305115
 20
5.783753686911627
 30
0.0
 11
25.87500014305115
 21
23.04896884953977
 31
0.0
  0
LINE
  5
6B9
330
6B5
100
AcDbEntity
  8
치수문자_일반주서
 62
     0
370
    -2
100
AcDbLine
 10
10.0
 20
6.4125
 30
0.0
 11
10.0
 21
23.04896884953977
 31
0.0
  0
LINE
  5
6BA
330
6B5
100
AcDbEntity
  8
치수문자_일반주서
 62
     0
370
    -2
100
AcDbLine
 10
22.57300014305115
 20
23.04896884953977
 30
0.0
 11
13.302
 21
23.04896884953977
 31
0.0
  0
SOLID
  5
6BB
330
6B5
100
AcDbEntity
  8
치수문자_일반주서
 62
     0
100
AcDbTrace
 10
22.57300014305115
 20
22.49863551620643
 30
0.0
 11
22.57300014305115
 21
23.5993021828731
 31
0.0
 12
25.87500014305115
 22
23.04896884953977
 32
0.0
 13
25.87500014305115
 23
23.04896884953977
 33
0.0
  0
SOLID
  5
6BC
330
6B5
100
AcDbEntity
  8
치수문자_일반주서
 62
     0
100
AcDbTrace
 10
13.302
 20
23.5993021828731
 30
0.0
 11
13.302
 21
22.49863551620643
 31
0.0
 12
10.0
 22
23.04896884953977
 32
0.0
 13
10.0
 23
23.04896884953977
 33
0.0
  0
MTEXT
  5
6BD
330
6B5
100
AcDbEntity
  8
치수문자_일반주서
 62
     0
100
AcDbMText
 10
13.17500014305114
 20
27.42396884953977
 30
0.0
 40
3.5
 41
0.0
 71
     2
 72
     1
  1
\A1;15.88 [5/8]
  7
SLDTEXTSTYLE0
 73
     1
 44
1.0
  0
POINT
  5
6BE
330
6B5
100
AcDbEntity
  8
Defpoints
 62
     0
100
AcDbPoint
 10
25.87500014305115
 20
5.721253686911627
 30
0.0
  0
POINT
  5
6BF
330
6B5
100
AcDbEntity
  8
Defpoints
 62
     0
100
AcDbPoint
 10
10.0
 20
6.35
 30
0.0
  0
POINT
  5
6C0
330
6B5
100
AcDbEntity
  8
Defpoints
 62
     0
100
AcDbPoint
 10
10.0
 20
23.04896884953977
 30
0.0
  0
ENDBLK
  5
6B7
330
6B5
100
AcDbEntity
  8
0
100
AcDbBlockEnd
  0
BLOCK
  5
6C2
330
6C1
100
AcDbEntity
  8
0
100
AcDbBlockBegin
  2
*D15
 70
     1
 10
0.0
 20
0.0
 30
0.0
  3
*D15
  1
*D15
  0
LINE
  5
6C4
330
6C1
100
AcDbEntity
  8
치수문자_일반주서
 62
     0
370
    -2
100
AcDbLine
 10
25.87500014305115
 20
5.783753686911627
 30
0.0
 11
25.87500014305115
 21
39.71863385053561
 31
0.0
  0
LINE
  5
6C5
330
6C1
100
AcDbEntity
  8
치수문자_일반주서
 62
     0
370
    -2
100
AcDbLine
 10
-50.32499985694884
 20
5.412499999999987
 30
0.0
 11
-50.32499985694885
 21
39.71863385053561
 31
0.0
  0
LINE
  5
6C6
330
6C1
100
AcDbEntity
  8
치수문자_일반주서
 62
     0
370
    -2
100
AcDbLine
 10
22.57300014305115
 20
39.71863385053561
 30
0.0
 11
-47.02299985694885
 21
39.71863385053561
 31
0.0
  0
SOLID
  5
6C7
330
6C1
100
AcDbEntity
  8
치수문자_일반주서
 62
     0
100
AcDbTrace
 10
22.57300014305115
 20
39.16830051720228
 30
0.0
 11
22.57300014305115
 21
40.26896718386894
 31
0.0
 12
25.87500014305115
 22
39.71863385053561
 32
0.0
 13
25.87500014305115
 23
39.71863385053561
 33
0.0
  0
SOLID
  5
6C8
330
6C1
100
AcDbEntity
  8
치수문자_일반주서
 62
     0
100
AcDbTrace
 10
-47.02299985694885
 20
40.26896718386894
 30
0.0
 11
-47.02299985694885
 21
39.16830051720228
 31
0.0
 12
-50.32499985694885
 22
39.71863385053561
 32
0.0
 13
-50.32499985694885
 23
39.71863385053561
 33
0.0
  0
MTEXT
  5
6C9
330
6C1
100
AcDbEntity
  8
치수문자_일반주서
 62
     0
100
AcDbMText
 10
-8.893455786111836
 20
44.09363385053561
 30
0.0
 40
3.5
 41
0.0
 71
     2
 72
     1
  1
\A1;76.2 [3]
  7
SLDTEXTSTYLE0
 73
     1
 44
1.0
  0
POINT
  5
6CA
330
6C1
100
AcDbEntity
  8
Defpoints
 62
     0
100
AcDbPoint
 10
25.87500014305115
 20
5.721253686911627
 30
0.0
  0
POINT
  5
6CB
330
6C1
100
AcDbEntity
  8
Defpoints
 62
     0
100
AcDbPoint
 10
-50.32499985694884
 20
5.349999999999987
 30
0.0
  0
POINT
  5
6CC
330
6C1
100
AcDbEntity
  8
Defpoints
 62
     0
100
AcDbPoint
 10
-50.32499985694884
 20
39.71863385053561
 30
0.0
  0
ENDBLK
  5
6C3
330
6C1
100
AcDbEntity
  8
0
100
AcDbBlockEnd
  0
ENDSEC
  0
SECTION
  2
ENTITIES
  0
LINE
  5
F9
330
1F
100
AcDbEntity
  8
참조1
100
AcDbLine
 10
-14.60624985694883
 20
-0.0000000000000052
 30
0.0
 11
-14.60624985694883
 21
-40.0
 31
0.0
  0
LINE
  5
FA
330
1F
100
AcDbEntity
  8
참조1
100
AcDbLine
 10
-29.25360751214531
 20
-2.858129419067264
 30
0.0
 11
38.88897283144716
 21
-2.858129419067264
 31
0.0
  0
LINE
  5
FB
330
1F
100
AcDbEntity
  8
참조1
100
AcDbLine
 10
38.88897283144716
 20
-2.858129419067264
 30
0.0
 11
38.88897283144716
 21
-6.610378025244114
 31
0.0
  0
LINE
  5
FC
330
1F
100
AcDbEntity
  8
참조1
100
AcDbLine
 10
-14.60624985694883
 20
-40.0
 30
0.0
 11
-33.72104966421453
 21
-40.0
 31
0.0
  0
INSERT
  5
FE
330
1F
100
AcDbEntity
  8
0
  6
Continuous
 62
     7
100
AcDbBlockReference
 66
     1
  2
블럭10
 10
-28.54652278907404
 20
-52.04717430164393
 30
0.0
  0
ATTRIB
  5
FF
330
FE
100
AcDbEntity
  8
FORMAT
 62
     2
100
AcDbText
 10
-38.68815880121067
 20
-49.97180738881173
 30
0.0
 40
4.233333333333333
  1
EM666032 [ 4 FLUTE ]
 41
0.75
  7
SLDTEXTSTYLE0
 11
-38.68815880121067
 21
-52.0884740554784
 31
0.0
100
AcDbAttribute
  2
AUTOATTR0
 70
     0
 74
     1
  0
SEQEND
  5
100
330
FE
100
AcDbEntity
  8
0
  6
Continuous
 62
     7
  0
HATCH
  5
101
330
1F
100
AcDbEntity
  8
중심선
100
AcDbHatch
 10
0.0
 20
0.0
 30
0.0
210
0.0
220
0.0
230
1.0
  2
SOLID
 70
     1
 71
     0
 91
        1
 92
        0
 93
        4
 72
     1
 10
-22.83161348469319
 20
-35.8
 11
-26.27788872853047
 21
-35.8
 72
     1
 10
-26.27788872853047
 20
-35.8
 11
-28.40611858773449
 21
-38.33632558057259
 72
     1
 10
-28.40611858773449
 20
-38.33632558057259
 11
-24.95981025878404
 21
-38.3362861512701
 72
     1
 10
-24.95981025878404
 20
-38.3362861512701
 11
-22.83161348469319
 21
-35.8
 97
        0
 75
     0
 76
     1
 98
        1
 10
-9.524999856948838
 20
-0.0000000000000018
  0
HATCH
  5
102
330
1F
100
AcDbEntity
  8
중심선
100
AcDbHatch
 10
0.0
 20
0.0
 30
0.0
210
0.0
220
0.0
230
1.0
  2
SOLID
 70
     1
 71
     0
 91
        1
 92
        0
 93
        4
 72
     1
 10
-17.81884949365721
 20
-35.8
 11
-21.26512473749449
 21
-35.8
 72
     1
 10
-21.26512473749449
 20
-35.8
 11
-25.79626274585191
 21
-41.20000000000002
 72
     1
 10
-25.79626274585191
 20
-41.20000000000002
 11
-22.34998750201463
 21
-41.20000000000002
 72
     1
 10
-22.34998750201463
 20
-41.20000000000002
 11
-17.81884949365721
 21
-35.8
 97
        0
 75
     0
 76
     1
 98
        1
 10
-9.524999856948838
 20
-0.0000000000000018
  0
HATCH
  5
103
330
1F
100
AcDbEntity
  8
중심선
100
AcDbHatch
 10
0.0
 20
0.0
 30
0.0
210
0.0
220
0.0
230
1.0
  2
SOLID
 70
     1
 71
     0
 91
        1
 92
        0
 93
        4
 72
     1
 10
-12.80608550262134
 20
-35.8
 11
-16.25236074645846
 21
-35.8
 72
     1
 10
-16.25236074645846
 20
-35.8
 11
-23.3007976483477
 21
-44.20000000000002
 72
     1
 10
-23.30079764834771
 20
-44.20000000000002
 11
-19.85452240451043
 21
-44.20000000000002
 72
     1
 10
-19.85452240451043
 20
-44.20000000000002
 11
-12.80608550262134
 21
-35.8
 97
        0
 75
     0
 76
     1
 98
        1
 10
-9.524999856948838
 20
-0.0000000000000018
  0
HATCH
  5
104
330
1F
100
AcDbEntity
  8
중심선
100
AcDbHatch
 10
0.0
 20
0.0
 30
0.0
210
0.0
220
0.0
230
1.0
  2
SOLID
 70
     1
 71
     0
 91
        1
 92
        0
 93
        6
 72
     3
 10
-8.006195071609143
 20
-40.00000000005127
 11
3.960054785062283
 21
1.540882976769353E-10
 40
0.3939339440162628
 50
17.09539180608437
 51
320.0019657685086
 73
     0
 72
     1
 10
-6.323195415908549
 20
-38.58789400463833
 11
-4.01789354220751
 21
-36.65356729459038
 72
     3
 10
-8.00619507166199
 20
-40.00000000000015
 11
6.600054785286829
 21
-1.278976924368180E-13
 40
0.636358354079598
 50
39.99873849337411
 51
368.4976242363725
 73
     1
 72
     1
 10
-1.580862579761381
 20
-39.03999999993002
 11
-9.326127764826069
 21
-39.03999999993002
 72
     1
 10
-9.326127764826069
 20
-39.03999999993002
 11
-9.326152809272003
 21
-40.95999999992991
 72
     1
 10
-9.326152809272001
 20
-40.95999999992991
 11
-4.884773039799964
 21
-40.95999999992988
 97
        0
 75
     0
 76
     1
 98
        1
 10
-9.524999856948838
 20
-0.0000000000000018
  0
LINE
  5
156
330
1F
100
AcDbEntity
  8
참조1
100
AcDbLine
 10
64.25129096543974
 20
7.44
 30
0.0
 11
64.25129096543974
 21
-7.440000000000004
 31
0.0
  0
LINE
  5
157
330
1F
100
AcDbEntity
  8
참조1
100
AcDbLine
 10
76.95129096543974
 20
5.44
 30
0.0
 11
64.25129096543974
 21
5.44
 31
0.0
  0
SOLID
  5
158
330
1F
100
AcDbEntity
  8
참조1
100
AcDbTrace
 10
64.25129096543974
 20
5.44
 30
0.0
 11
70.60129096543973
 21
4.424
 31
0.0
 12
70.60129096543973
 22
6.456
 32
0.0
 13
70.60129096543973
 23
6.456
 33
0.0
  0
LINE
  5
159
330
1F
100
AcDbEntity
  8
참조1
100
AcDbLine
 10
76.95129096543974
 20
-5.440000000000004
 30
0.0
 11
64.25129096543974
 21
-5.440000000000004
 31
0.0
  0
SOLID
  5
15A
330
1F
100
AcDbEntity
  8
참조1
100
AcDbTrace
 10
64.25129096543974
 20
-5.440000000000004
 30
0.0
 11
70.60129096543973
 21
-6.456000000000004
 31
0.0
 12
70.60129096543973
 22
-4.424000000000004
 32
0.0
 13
70.60129096543973
 23
-4.424000000000004
 33
0.0
  0
MTEXT
  5
15B
330
1F
100
AcDbEntity
  8
참조1
100
AcDbMText
 10
73.8514057760023
 20
11.06571756601608
 30
0.0
 40
3.5
 41
0.0
 71
     1
 72
     1
  1
A
  7
SLDTEXTSTYLE0
 73
     1
 44
1.0
  0
MTEXT
  5
15C
330
1F
100
AcDbEntity
  8
참조1
100
AcDbMText
 10
73.8514057760023
 20
0.1857175660160718
 30
0.0
 40
3.5
 41
0.0
 71
     1
 72
     1
  1
A
  7
SLDTEXTSTYLE0
 73
     1
 44
1.0
  0
LINE
  5
45D
330
1F
100
AcDbEntity
  8
외형선
  6
Continuous
370
    15
100
AcDbLine
 10
-49.32499891519547
 20
6.349999923259013
 30
0.0
 11
-50.32500094175339
 21
5.350000225007527
 31
0.0
  0
LINE
  5
45E
330
1F
100
AcDbEntity
  8
외형선
  6
Continuous
370
    15
100
AcDbLine
 10
-50.32500094175339
 20
-5.350000225007541
 30
0.0
 11
-49.32499891519547
 21
-6.349999923259027
 31
0.0
  0
LINE
  5
45F
330
1F
100
AcDbEntity
  8
외형선
  6
Continuous
370
    15
100
AcDbLine
 10
10.0
 20
6.35
 30
0.0
 11
-49.32499891519547
 21
6.349999923259013
 31
0.0
  0
LINE
  5
460
330
1F
100
AcDbEntity
  8
외형선
  6
Continuous
370
    15
100
AcDbLine
 10
-49.32499891519547
 20
-6.349999923259027
 30
0.0
 11
10.0
 21
-6.35
 31
0.0
  0
SPLINE
  5
461
330
1F
100
AcDbEntity
  8
외형선
  6
Continuous
 62
     1
370
    15
100
AcDbSpline
210
0.0
220
0.0
230
1.0
 70
     8
 71
     3
 72
    10
 73
     6
 74
     0
 42
0.000000001
 43
0.00000001
 40
0.0
 40
0.0
 40
0.0
 40
0.0
 40
0.2109727578362964
 40
0.6137104606942003
 40
0.9999999999999999
 40
0.9999999999999999
 40
0.9999999999999999
 40
0.9999999999999999
 10
22.04011538624763
 20
-6.204789504408843
 30
0.0
 10
22.06847643544563
 20
-6.198431499366635
 30
0.0
 10
22.15097747845985
 20
-6.179936342723817
 30
0.0
 10
22.29358304391633
 20
-6.208857994618029
 30
0.0
 10
22.38344129256765
 20
-6.265906444475082
 30
0.0
 10
22.42743381857872
 20
-6.293836049735553
 30
0.0
  0
SPLINE
  5
463
330
1F
100
AcDbEntity
  8
외형선
  6
Continuous
 62
     1
370
    15
100
AcDbSpline
210
0.0
220
0.0
230
1.0
 70
     8
 71
     3
 72
     9
 73
     5
 74
     0
 42
0.000000001
 43
0.00000001
 40
0.0
 40
0.0
 40
0.0
 40
0.0
 40
0.4993850518426507
 40
1.0
 40
1.0
 40
1.0
 40
1.0
 10
22.42250898480417
 20
-6.288665346801288
 30
0.0
 10
22.44658766884179
 20
-6.304747443134598
 30
0.0
 10
22.49480433842128
 20
-6.336951243136157
 30
0.0
 10
22.55177882588711
 20
-6.342886558510166
 30
0.0
 10
22.5803011059761
 20
-6.345857866108425
 30
0.0
  0
LINE
  5
464
330
1F
100
AcDbEntity
  8
외형선
  6
Continuous
 62
     1
370
    15
100
AcDbLine
 10
22.58881153166294
 20
-6.349999923259027
 30
0.0
 11
23.17926259338856
 21
-6.349999923259027
 31
0.0
  0
SPLINE
  5
467
330
1F
100
AcDbEntity
  8
외형선
  6
Continuous
 62
     1
370
    15
100
AcDbSpline
210
0.0
220
0.0
230
1.0
 70
     8
 71
     3
 72
     9
 73
     5
 74
     0
 42
0.000000001
 43
0.00000001
 40
0.0
 40
0.0
 40
0.0
 40
0.0
 40
0.5007383352713781
 40
1.0
 40
1.0
 40
1.0
 40
1.0
 10
23.15962100028992
 20
-6.349402479827411
 30
0.0
 10
23.18816582755461
 20
-6.347193251145935
 30
0.0
 10
23.24517130377649
 20
-6.342781308768334
 30
0.0
 10
23.29345065381898
 20
-6.312019749644666
 30
0.0
 10
23.31755468249321
 20
-6.296661682426937
 30
0.0
  0
SPLINE
  5
468
330
1F
100
AcDbEntity
  8
외형선
  6
Continuous
 62
     1
370
    15
100
AcDbSpline
210
0.0
220
0.0
230
1.0
 70
     8
 71
     3
 72
    11
 73
     7
 74
     0
 42
0.000000001
 43
0.00000001
 40
0.0
 40
0.0
 40
0.0
 40
0.0
 40
0.2440131426551719
 40
0.4999511041300471
 40
0.755910972855683
 40
1.0
 40
1.0
 40
1.0
 40
1.0
 10
23.32103596627712
 20
-6.295875646173961
 30
0.0
 10
23.36567085142946
 20
-6.266872958457572
 30
0.0
 10
23.45712190964628
 20
-6.207450233973265
 30
0.0
 10
23.62502556460834
 20
-6.181112454677571
 30
0.0
 10
23.79292890362044
 20
-6.207001893021575
 30
0.0
 10
23.88434624120171
 20
-6.26607684777435
 30
0.0
 10
23.92896981537342
 20
-6.294913124293096
 30
0.0
  0
SPLINE
  5
46B
330
1F
100
AcDbEntity
  8
외형선
  6
Continuous
 62
     1
370
    15
100
AcDbSpline
210
0.0
220
0.0
230
1.0
 70
     8
 71
     3
 72
     9
 73
     5
 74
     0
 42
0.000000001
 43
0.00000001
 40
0.0
 40
0.0
 40
0.0
 40
0.0
 40
0.4991816717775909
 40
1.0
 40
1.0
 40
1.0
 40
1.0
 10
23.92913745343685
 20
-6.295014638453729
 30
0.0
 10
23.95368266017088
 20
-6.310915430740572
 30
0.0
 10
24.00285354949185
 20
-6.342769148907388
 30
0.0
 10
24.06070427337986
 20
-6.347568730709018
 30
0.0
 10
24.08967697620392
 20
-6.349972449243076
 30
0.0
  0
LINE
  5
46C
330
1F
100
AcDbEntity
  8
외형선
  6
Continuous
 62
     1
370
    15
100
AcDbLine
 10
24.08824273943901
 20
-6.349999923259027
 30
0.0
 11
24.6628892570734
 21
-6.349999923259027
 31
0.0
  0
SPLINE
  5
46D
330
1F
100
AcDbEntity
  8
외형선
  6
Continuous
 62
     1
370
    15
100
AcDbSpline
210
0.0
220
0.0
230
1.0
 70
     8
 71
     3
 72
     9
 73
     5
 74
     0
 42
0.000000001
 43
0.00000001
 40
0.0
 40
0.0
 40
0.0
 40
0.0
 40
0.5013945522012754
 40
1.0
 40
1.0
 40
1.0
 40
1.0
 10
24.66375724971294
 20
-6.349959876388318
 30
0.0
 10
24.69296678839842
 20
-6.347315881778529
 30
0.0
 10
24.75122338204758
 20
-6.342042600291563
 30
0.0
 10
24.80095751433288
 20
-6.309086361559251
 30
0.0
 10
24.82575522363186
 20
-6.292654201388366
 30
0.0
  0
SPLINE
  5
46E
330
1F
100
AcDbEntity
  8
외형선
  6
Continuous
 62
     1
370
    15
100
AcDbSpline
210
0.0
220
0.0
230
1.0
 70
     8
 71
     3
 72
    11
 73
     7
 74
     0
 42
0.000000001
 43
0.00000001
 40
0.0
 40
0.0
 40
0.0
 40
0.0
 40
0.2105667068738933
 40
0.4513709132313216
 40
0.718628795177549
 40
1.0
 40
1.0
 40
1.0
 40
1.0
 10
24.82566395401955
 20
-6.292740348726518
 30
0.0
 10
24.85995892894962
 20
-6.269737180786816
 30
0.0
 10
24.93347365681541
 20
-6.220427576840853
 30
0.0
 10
25.08725511980865
 20
-6.182524874713344
 30
0.0
 10
25.26818902927977
 20
-6.195725275035166
 30
0.0
 10
25.37302764420664
 20
-6.260230397504561
 30
0.0
 10
25.42679542303085
 20
-6.293312646448619
 30
0.0
  0
LINE
  5
46F
330
1F
100
AcDbEntity
  8
외형선
  6
Continuous
 62
     1
370
    15
100
AcDbLine
 10
25.40883952379227
 20
-6.266160402446992
 30
0.0
 11
25.875
 21
-5.799999926239259
 31
0.0
  0
LINE
  5
470
330
1F
100
AcDbEntity
  8
외형선
  6
Continuous
 62
     1
370
    15
100
AcDbLine
 10
25.875
 20
5.799999926239245
 30
0.0
 11
25.32500000298023
 21
6.349999923259013
 31
0.0
  0
LINE
  5
471
330
1F
100
AcDbEntity
  8
외형선
  6
Continuous
 62
     1
370
    15
100
AcDbLine
 10
25.32500000298023
 20
6.349999923259013
 30
0.0
 11
24.83792388439178
 21
6.349999923259013
 31
0.0
  0
SPLINE
  5
472
330
1F
100
AcDbEntity
  8
외형선
  6
Continuous
 62
     1
370
    15
100
AcDbSpline
210
0.0
220
0.0
230
1.0
 70
     8
 71
     3
 72
     9
 73
     5
 74
     0
 42
0.000000001
 43
0.00000001
 40
0.0
 40
0.0
 40
0.0
 40
0.0
 40
0.5008309930394809
 40
1.0
 40
1.0
 40
1.0
 40
1.0
 10
24.8398275077343
 20
6.349959410727017
 30
0.0
 10
24.81055377082978
 20
6.34754250208907
 30
0.0
 10
24.75210344065584
 20
6.342716705220386
 30
0.0
 10
24.70231653541489
 20
6.310127069099547
 30
0.0
 10
24.67746445536613
 20
6.293859332799904
 30
0.0
  0
SPLINE
  5
473
330
1F
100
AcDbEntity
  8
외형선
  6
Continuous
 62
     1
370
    15
100
AcDbSpline
210
0.0
220
0.0
230
1.0
 70
     8
 71
     3
 72
    11
 73
     7
 74
     0
 42
0.000000001
 43
0.00000001
 40
0.0
 40
0.0
 40
0.0
 40
0.0
 40
0.2130048114448884
 40
0.4544667784351243
 40
0.7209989503176789
 40
1.0
 40
1.0
 40
1.0
 40
1.0
 10
24.67685164511204
 20
6.293359678238623
 30
0.0
 10
24.64266991864736
 20
6.270275577637239
 30
0.0
 10
24.56973983316063
 20
6.221023371725934
 30
0.0
 10
24.41563975475624
 20
6.182529891244108
 30
0.0
 10
24.23457722590723
 20
6.195323905249957
 30
0.0
 10
24.12899019813865
 20
6.260177668059789
 30
0.0
 10
24.07499001920223
 20
6.293345708400004
 30
0.0
  0
SPLINE
  5
474
330
1F
100
AcDbEntity
  8
외형선
  6
Continuous
 62
     1
370
    15
100
AcDbSpline
210
0.0
220
0.0
230
1.0
 70
     8
 71
     3
 72
     9
 73
     5
 74
     0
 42
0.000000001
 43
0.00000001
 40
0.0
 40
0.0
 40
0.0
 40
0.0
 40
0.4990635790016877
 40
1.0
 40
1.0
 40
1.0
 40
1.0
 10
24.0725369155407
 20
6.295121740549796
 30
0.0
 10
24.04826273959418
 20
6.310885854054298
 30
0.0
 10
23.99962329370418
 20
6.342473239244853
 30
0.0
 10
23.94231840964457
 20
6.347469593449663
 30
0.0
 10
23.91361230611801
 20
6.349972449243062
 30
0.0
  0
LINE
  5
475
330
1F
100
AcDbEntity
  8
외형선
  6
Continuous
 62
     1
370
    15
100
AcDbLine
 10
23.91277784109116
 20
6.349999923259013
 30
0.0
 11
23.33855786919594
 21
6.349999923259013
 31
0.0
  0
SPLINE
  5
479
330
1F
100
AcDbEntity
  8
외형선
  6
Continuous
 62
     1
370
    15
100
AcDbSpline
210
0.0
220
0.0
230
1.0
 70
     8
 71
     3
 72
     9
 73
     5
 74
     0
 42
0.000000001
 43
0.00000001
 40
0.0
 40
0.0
 40
0.0
 40
0.0
 40
0.5007032294921825
 40
1.0
 40
1.0
 40
1.0
 40
1.0
 10
23.33568380773067
 20
6.349401082843535
 30
0.0
 10
23.30702989334561
 20
6.3467045088276
 30
0.0
 10
23.24980255248317
 20
6.341318935383878
 30
0.0
 10
23.20130031106598
 20
6.309460615318088
 30
0.0
 10
23.17708329856396
 20
6.293553858995431
 30
0.0
  0
SPLINE
  5
47A
330
1F
100
AcDbEntity
  8
외형선
  6
Continuous
 62
     1
370
    15
100
AcDbSpline
210
0.0
220
0.0
230
1.0
 70
     8
 71
     3
 72
    11
 73
     7
 74
     0
 42
0.000000001
 43
0.00000001
 40
0.0
 40
0.0
 40
0.0
 40
0.0
 40
0.2436837155161568
 40
0.5000198470626974
 40
0.7563467336921259
 40
1.0
 40
1.0
 40
1.0
 40
1.0
 10
23.17573846876621
 20
6.292349658906453
 30
0.0
 10
23.13089750968643
 20
6.263651978573094
 30
0.0
 10
23.03888738314294
 20
6.204766592239636
 30
0.0
 10
22.87075780336977
 20
6.179727913900763
 30
0.0
 10
22.70262786197787
 20
6.206758438111216
 30
0.0
 10
22.61060094523313
 20
6.2671251457453
 30
0.0
 10
22.56575384736061
 20
6.296543404459946
 30
0.0
  0
LINE
  5
47D
330
1F
100
AcDbEntity
  8
외형선
  6
Continuous
 62
     1
370
    15
100
AcDbLine
 10
22.41894201934338
 20
6.349999923259013
 30
0.0
 11
21.97954775393009
 21
6.349999923259013
 31
0.0
  0
LINE
  5
480
330
1F
100
AcDbEntity
  8
외형선
  6
Continuous
370
    15
100
AcDbLine
 10
-49.32499891519547
 20
6.349999923259013
 30
0.0
 11
-49.32499891519547
 21
-6.349999923259027
 31
0.0
  0
LINE
  5
481
330
1F
100
AcDbEntity
  8
외형선
  6
Continuous
370
    15
100
AcDbLine
 10
-50.32500094175339
 20
5.350000225007527
 30
0.0
 11
-50.32500094175339
 21
-5.350000225007541
 31
0.0
  0
SPLINE
  5
48E
330
1F
100
AcDbEntity
  8
외형선
  6
Continuous
 62
     1
370
    15
100
AcDbSpline
210
0.0
220
0.0
230
1.0
 70
     8
 71
     3
 72
    17
 73
    13
 74
     0
 42
0.000000001
 43
0.00000001
 40
0.0
 40
0.0
 40
0.0
 40
0.0
 40
0.0000438686829613
 40
0.0000438686829613
 40
0.0000438686829613
 40
0.0000877532682569
 40
0.0000877532682569
 40
0.0000877532682569
 40
0.0001306942666861
 40
0.0001306942666861
 40
0.0001306942666861
 40
0.0001749191703083
 40
0.0001749191703083
 40
0.0001749191703083
 40
0.0001749191703083
 10
25.25773326024705
 20
-1.186140572672617
 30
0.0
 10
25.24399255628984
 20
-1.181226407006999
 30
0.0
 10
25.23015791438607
 20
-1.176227528659767
 30
0.0
 10
25.21647608136374
 20
-1.171242115626281
 30
0.0
 10
25.20279134888183
 20
-1.166255646082053
 30
0.0
 10
25.18917382631341
 20
-1.161251481760951
 30
0.0
 10
25.17589013023314
 20
-1.156341160038346
 30
0.0
 10
25.162892700532
 20
-1.151536656757486
 30
0.0
 10
25.15012995076412
 20
-1.146790726312997
 30
0.0
 10
25.13787117359581
 20
-1.142219736291169
 30
0.0
 10
25.12525158264349
 20
-1.137514207874215
 30
0.0
 10
25.11307324812401
 20
-1.132959633584974
 30
0.0
 10
25.10164577247636
 20
-1.128691959855635
 30
0.0
  0
SPLINE
  5
48F
330
1F
100
AcDbEntity
  8
외형선
  6
Continuous
 62
     1
370
    15
100
AcDbSpline
210
0.0
220
0.0
230
1.0
 70
     8
 71
     3
 72
    10
 73
     6
 74
     0
 42
0.000000001
 43
0.00000001
 40
0.0
 40
0.0
 40
0.0
 40
0.0
 40
0.5
 40
0.5
 40
1.0
 40
1.0
 40
1.0
 40
1.0
 10
25.10164577247616
 20
-1.128691959850848
 30
0.0
 10
25.08486628139678
 20
-0.6705157435451916
 30
0.0
 10
25.06714872879233
 20
-0.1945774109354019
 30
0.0
 10
25.03035593527528
 20
0.7644297258116062
 30
0.0
 10
25.01140411025361
 20
1.246190299266928
 30
0.0
 10
24.99263482837497
 20
1.711211830474474
 30
0.0
  0
SPLINE
  5
490
330
1F
100
AcDbEntity
  8
외형선
  6
Continuous
 62
     1
370
    15
100
AcDbSpline
210
0.0
220
0.0
230
1.0
 70
     8
 71
     3
 72
     8
 73
     4
 74
     0
 42
0.000000001
 43
0.00000001
 40
0.0
 40
0.0
 40
0.0
 40
0.0
 40
1.0
 40
1.0
 40
1.0
 40
1.0
 10
24.99263479420614
 20
1.711212677034867
 30
0.0
 10
25.03744815300428
 20
1.699785729108038
 30
0.0
 10
25.09259191607063
 20
1.682885411252858
 30
0.0
 10
25.14949004934167
 20
1.662901578811322
 30
0.0
  0
SPLINE
  5
491
330
1F
100
AcDbEntity
  8
외형선
  6
Continuous
 62
     1
370
    15
100
AcDbSpline
210
0.0
220
0.0
230
1.0
 70
     8
 71
     3
 72
    10
 73
     6
 74
     0
 42
0.000000001
 43
0.00000001
 40
0.0
 40
0.0
 40
0.0
 40
0.0
 40
0.5
 40
0.5
 40
1.0
 40
1.0
 40
1.0
 40
1.0
 10
25.25773127233175
 20
-1.186086078172551
 30
0.0
 10
25.24095966735817
 20
-0.7263267592715899
 30
0.0
 10
25.22353581624211
 20
-0.2509295966416776
 30
0.0
 10
25.18701682759843
 20
0.7109146987991615
 30
0.0
 10
25.16817982975012
 20
1.19484861408908
 30
0.0
 10
25.14949005713515
 20
1.662901383649595
 30
0.0
  0
SPLINE
  5
492
330
1F
100
AcDbEntity
  8
외형선
  6
Continuous
 62
     1
370
    15
100
AcDbSpline
210
0.0
220
0.0
230
1.0
 70
     8
 71
     3
 72
     8
 73
     4
 74
     0
 42
0.000000001
 43
0.00000001
 40
0.0
 40
0.0
 40
0.0
 40
0.0
 40
1.0
 40
1.0
 40
1.0
 40
1.0
 10
24.47611728332706
 20
-0.9061138961517958
 30
0.0
 10
24.43136403460241
 20
-0.8897199950973675
 30
0.0
 10
24.37627271205675
 20
-0.8698453697155148
 30
0.0
 10
24.31942181036072
 20
-0.8493683338355087
 30
0.0
  0
SPLINE
  5
493
330
1F
100
AcDbEntity
  8
외형선
  6
Continuous
 62
     1
370
    15
100
AcDbSpline
210
0.0
220
0.0
230
1.0
 70
     8
 71
     3
 72
    10
 73
     6
 74
     0
 42
0.000000001
 43
0.00000001
 40
0.0
 40
0.0
 40
0.0
 40
0.0
 40
0.5
 40
0.5
 40
1.0
 40
1.0
 40
1.0
 40
1.0
 10
24.31942181036065
 20
-0.8493683338336915
 30
0.0
 10
24.30245859614308
 20
-0.3851050769020645
 30
0.0
 10
24.28445491293795
 20
0.0955282586851709
 30
0.0
 10
24.24761537868667
 20
1.054287526022726
 30
0.0
 10
24.2287908626752
 20
1.532101265323103
 30
0.0
 10
24.21028568666063
 20
1.989915834604899
 30
0.0
  0
SPLINE
  5
494
330
1F
100
AcDbEntity
  8
외형선
  6
Continuous
 62
     1
370
    15
100
AcDbSpline
210
0.0
220
0.0
230
1.0
 70
     8
 71
     3
 72
    17
 73
    13
 74
     0
 42
0.000000001
 43
0.00000001
 40
0.0
 40
0.0
 40
0.0
 40
0.0
 40
0.0000438682908848
 40
0.0000438682908848
 40
0.0000438682908848
 40
0.0000877524940598
 40
0.0000877524940598
 40
0.0000877524940598
 40
0.0001307452788585
 40
0.0001307452788585
 40
0.0001307452788585
 40
0.0001750244996538
 40
0.0001750244996538
 40
0.0001750244996538
 40
0.0001750244996538
 10
24.21028568666028
 20
1.989915834604622
 30
0.0
 10
24.22402886764718
 20
1.985172415534212
 30
0.0
 10
24.23786562790752
 20
1.980199173674492
 30
0.0
 10
24.25154990323435
 20
1.975088953623876
 30
0.0
 10
24.26523707985706
 20
1.969977650120889
 30
0.0
 10
24.27885715239628
 20
1.964697328972312
 30
0.0
 10
24.29214412887228
 20
1.959358323315406
 30
0.0
 10
24.30516043938988
 20
1.954128077321437
 30
0.0
 10
24.31794208423221
 20
1.948807335506938
 30
0.0
 10
24.33021916647994
 20
1.943517273077784
 30
0.0
 10
24.34285784547606
 20
1.93807140250672
 30
0.0
 10
24.35505484811804
 20
1.932617765873783
 30
0.0
 10
24.36649941601334
 20
1.927306206485252
 30
0.0
  0
SPLINE
  5
495
330
1F
100
AcDbEntity
  8
외형선
  6
Continuous
 62
     1
370
    15
100
AcDbSpline
210
0.0
220
0.0
230
1.0
 70
     8
 71
     3
 72
    10
 73
     6
 74
     0
 42
0.000000001
 43
0.00000001
 40
0.0
 40
0.0
 40
0.0
 40
0.0
 40
0.5
 40
0.5
 40
1.0
 40
1.0
 40
1.0
 40
1.0
 10
24.47611728331361
 20
-0.9061138957833155
 30
0.0
 10
24.459143186529
 20
-0.4443522498800778
 30
0.0
 10
24.44109049460397
 20
0.0345912812259321
 30
0.0
 10
24.40408445845432
 20
0.9914996361716959
 30
0.0
 10
24.3851426588671
 20
1.469147133055291
 30
0.0
 10
24.36649941602758
 20
1.927306206113039
 30
0.0
  0
SPLINE
  5
496
330
1F
100
AcDbEntity
  8
외형선
  6
Continuous
 62
     1
370
    15
100
AcDbSpline
210
0.0
220
0.0
230
1.0
 70
     8
 71
     3
 72
    17
 73
    13
 74
     0
 42
0.000000001
 43
0.00000001
 40
0.0
 40
0.0
 40
0.0
 40
0.0
 40
0.0000438685814622
 40
0.0000438685814622
 40
0.0000438685814622
 40
0.0000877530189057
 40
0.0000877530189057
 40
0.0000877530189057
 40
0.0001307088784372
 40
0.0001307088784372
 40
0.0001307088784372
 40
0.0001749489920158
 40
0.0001749489920158
 40
0.0001749489920158
 40
0.0001749489920158
 10
23.73778770201716
 20
-0.6394109911559536
 30
0.0
 10
23.72404514775472
 20
-0.6344393649099977
 30
0.0
 10
23.71020891628447
 20
-0.6294802194754414
 30
0.0
 10
23.69652558585891
 20
-0.6246339133612491
 30
0.0
 10
23.68283936455781
 20
-0.6197865833685583
 30
0.0
 10
23.66922050695379
 20
-0.6150219499987397
 30
0.0
 10
23.65593539599639
 20
-0.6104508729292508
 30
0.0
 10
23.64293207076508
 20
-0.6059767513368453
 30
0.0
 10
23.63016355929162
 20
-0.6016590524291523
 30
0.0
 10
23.61789923594782
 20
-0.5976099567026605
 30
0.0
 10
23.60527397076348
 20
-0.5934416951630208
 30
0.0
 10
23.59309014416002
 20
-0.5895278317574011
 30
0.0
 10
23.58165759669031
 20
-0.5859941788082814
 30
0.0
  0
SPLINE
  5
497
330
1F
100
AcDbEntity
  8
외형선
  6
Continuous
 62
     1
370
    15
100
AcDbSpline
210
0.0
220
0.0
230
1.0
 70
     8
 71
     3
 72
    10
 73
     6
 74
     0
 42
0.000000001
 43
0.00000001
 40
0.0
 40
0.0
 40
0.0
 40
0.0
 40
0.5
 40
0.5
 40
1.0
 40
1.0
 40
1.0
 40
1.0
 10
23.58165759634292
 20
-0.5859941694695365
 30
0.0
 10
23.56427277761961
 20
-0.1186214140941892
 30
0.0
 10
23.54594294388639
 20
0.3620675665216027
 30
0.0
 10
23.50871805400098
 20
1.313751815340472
 30
0.0
 10
23.4898351058975
 20
1.784425911660469
 30
0.0
 10
23.47141222901131
 20
2.231841243513793
 30
0.0
  0
SPLINE
  5
498
330
1F
100
AcDbEntity
  8
외형선
  6
Continuous
 62
     1
370
    15
100
AcDbSpline
210
0.0
220
0.0
230
1.0
 70
     8
 71
     3
 72
     8
 73
     4
 74
     0
 42
0.000000001
 43
0.00000001
 40
0.0
 40
0.0
 40
0.0
 40
0.0
 40
1.0
 40
1.0
 40
1.0
 40
1.0
 10
23.47141222900535
 20
2.231841243663034
 30
0.0
 10
23.51621581614154
 20
2.223858269591839
 30
0.0
 10
23.57135163997984
 20
2.209133447958639
 30
0.0
 10
23.62824579890957
 20
2.189710650471753
 30
0.0
  0
SPLINE
  5
499
330
1F
100
AcDbEntity
  8
외형선
  6
Continuous
 62
     1
370
    15
100
AcDbSpline
210
0.0
220
0.0
230
1.0
 70
     8
 71
     3
 72
    10
 73
     6
 74
     0
 42
0.000000001
 43
0.00000001
 40
0.0
 40
0.0
 40
0.0
 40
0.0
 40
0.5
 40
0.5
 40
1.0
 40
1.0
 40
1.0
 40
1.0
 10
23.73778557064887
 20
-0.6393531048401648
 30
0.0
 10
23.72055776881488
 20
-0.1714598092420641
 30
0.0
 10
23.70237555103405
 20
0.3102940522117876
 30
0.0
 10
23.66539457107621
 20
1.265644911265412
 30
0.0
 10
23.6466075001033
 20
1.738927267671082
 30
0.0
 10
23.62824368540463
 20
2.189762537499321
 30
0.0
  0
SPLINE
  5
49A
330
1F
100
AcDbEntity
  8
외형선
  6
Continuous
 62
     1
370
    15
100
AcDbSpline
210
0.0
220
0.0
230
1.0
 70
     8
 71
     3
 72
    10
 73
     6
 74
     0
 42
0.000000001
 43
0.00000001
 40
0.0
 40
0.0
 40
0.0
 40
0.0
 40
0.5
 40
0.5
 40
1.0
 40
1.0
 40
1.0
 40
1.0
 10
25.10164577247635
 20
-1.128691959855633
 30
0.0
 10
25.00895780080852
 20
-1.094076964041282
 30
0.0
 10
24.8962143486149
 20
-1.055804820826669
 30
0.0
 10
24.67140887660076
 20
-0.9771543525477728
 30
0.0
 10
24.56438909186286
 20
-0.9384494100255161
 30
0.0
 10
24.47611728332714
 20
-0.9061138961517834
 30
0.0
  0
SPLINE
  5
49B
330
1F
100
AcDbEntity
  8
외형선
  6
Continuous
 62
     1
370
    15
100
AcDbSpline
210
0.0
220
0.0
230
1.0
 70
     8
 71
     3
 72
    10
 73
     6
 74
     0
 42
0.000000001
 43
0.00000001
 40
0.0
 40
0.0
 40
0.0
 40
0.0
 40
0.5
 40
0.5
 40
1.0
 40
1.0
 40
1.0
 40
1.0
 10
24.36649941601232
 20
1.927306206485502
 30
0.0
 10
24.45929193743035
 20
1.884240099242836
 30
0.0
 10
24.57214925518714
 20
1.842439339306818
 30
0.0
 10
24.79714596552157
 20
1.766452222483432
 30
0.0
 10
24.90425756581612
 20
1.733747965926593
 30
0.0
 10
24.99263479420594
 20
1.711212677034828
 30
0.0
  0
SPLINE
  5
49C
330
1F
100
AcDbEntity
  8
외형선
  6
Continuous
 62
     1
370
    15
100
AcDbSpline
210
0.0
220
0.0
230
1.0
 70
     8
 71
     3
 72
     8
 73
     4
 74
     0
 42
0.000000001
 43
0.00000001
 40
0.0
 40
0.0
 40
0.0
 40
0.0
 40
1.0
 40
1.0
 40
1.0
 40
1.0
 10
24.21028568666026
 20
1.98991583460346
 30
0.0
 10
24.01611314764457
 20
2.056933923457619
 30
0.0
 10
23.82195528122853
 20
2.123581531037367
 30
0.0
 10
23.62797379968613
 20
2.189803506614931
 30
0.0
  0
SPLINE
  5
49D
330
1F
100
AcDbEntity
  8
외형선
  6
Continuous
 62
     1
370
    15
100
AcDbSpline
210
0.0
220
0.0
230
1.0
 70
     8
 71
     3
 72
     8
 73
     4
 74
     0
 42
0.000000001
 43
0.00000001
 40
0.0
 40
0.0
 40
0.0
 40
0.0
 40
1.0
 40
1.0
 40
1.0
 40
1.0
 10
24.31942181036011
 20
-0.8493683338352955
 30
0.0
 10
24.12541556698996
 20
-0.7794895335362781
 30
0.0
 10
23.93139367852746
 20
-0.7094517195481966
 30
0.0
 10
23.73751752626427
 20
-0.6393132499207734
 30
0.0
  0
SPLINE
  5
49E
330
1F
100
AcDbEntity
  8
외형선
  6
Continuous
 62
     1
370
    15
100
AcDbSpline
210
0.0
220
0.0
230
1.0
 70
     8
 71
     3
 72
     8
 73
     4
 74
     0
 42
0.000000001
 43
0.00000001
 40
0.0
 40
0.0
 40
0.0
 40
0.0
 40
1.0
 40
1.0
 40
1.0
 40
1.0
 10
23.85170043783904
 20
-5.935068715874522
 30
0.0
 10
23.89650605855053
 20
-5.97481237543364
 30
0.0
 10
23.95164420278718
 20
-6.000064302708253
 30
0.0
 10
24.00853965463379
 20
-6.006771510451827
 30
0.0
  0
SPLINE
  5
49F
330
1F
100
AcDbEntity
  8
외형선
  6
Continuous
 62
     1
370
    15
100
AcDbSpline
210
0.0
220
0.0
230
1.0
 70
     8
 71
     3
 72
    10
 73
     6
 74
     0
 42
0.000000001
 43
0.00000001
 40
0.0
 40
0.0
 40
0.0
 40
0.0
 40
0.5
 40
0.5
 40
1.0
 40
1.0
 40
1.0
 40
1.0
 10
23.22562246931022
 20
-5.855835539479312
 30
0.0
 10
23.31840154230896
 20
-5.79686074428033
 30
0.0
 10
23.43124056168391
 20
-5.77542529852149
 30
0.0
 10
23.6562101950625
 20
-5.806147793508654
 30
0.0
 10
23.76332489790587
 20
-5.856677493597445
 30
0.0
 10
23.85170043783901
 20
-5.935068715874518
 30
0.0
  0
SPLINE
  5
4A0
330
1F
100
AcDbEntity
  8
외형선
  6
Continuous
 62
     1
370
    15
100
AcDbSpline
210
0.0
220
0.0
230
1.0
 70
     8
 71
     3
 72
    17
 73
    13
 74
     0
 42
0.000000001
 43
0.00000001
 40
0.0
 40
0.0
 40
0.0
 40
0.0
 40
0.0000438682173077
 40
0.0000438682173077
 40
0.0000438682173077
 40
0.000087752375363
 40
0.000087752375363
 40
0.000087752375363
 40
0.000130755535756
 40
0.000130755535756
 40
0.000130755535756
 40
0.0001750459233731
 40
0.0001750459233731
 40
0.0001750459233731
 40
0.0001750459233731
 10
23.06942031639302
 20
-5.887326026098977
 30
0.0
 10
23.08315972380041
 20
-5.889201618783787
 30
0.0
 10
23.09699287801018
 20
-5.889998141535443
 30
0.0
 10
23.11067392211942
 20
-5.889665682510326
 30
0.0
 10
23.12435787208332
 20
-5.889333152870893
 30
0.0
 10
23.137975035029
 20
-5.887868174211704
 30
0.0
 10
23.15125956810263
 20
-5.885249899292445
 30
0.0
 10
23.16427661328814
 20
-5.882684344090524
 30
0.0
 10
23.17705929815291
 20
-5.878993627658399
 30
0.0
 10
23.18933760334627
 20
-5.874197322249866
 30
0.0
 10
23.20197767001505
 20
-5.869259701041315
 30
0.0
 10
23.21417628850639
 20
-5.863111276855587
 30
0.0
 10
23.22562246931187
 20
-5.855835539483046
 30
0.0
  0
SPLINE
  5
4A1
330
1F
100
AcDbEntity
  8
외형선
  6
Continuous
 62
     1
370
    15
100
AcDbSpline
210
0.0
220
0.0
230
1.0
 70
     8
 71
     3
 72
     8
 73
     4
 74
     0
 42
0.000000001
 43
0.00000001
 40
0.0
 40
0.0
 40
0.0
 40
0.0
 40
1.0
 40
1.0
 40
1.0
 40
1.0
 10
23.06942031639265
 20
-5.887326026097439
 30
0.0
 10
22.87501854361315
 20
-5.860787869674237
 30
0.0
 10
22.68124353418631
 20
-5.833180819320946
 30
0.0
 10
22.48716471546673
 20
-5.804478052794778
 30
0.0
  0
SPLINE
  5
4A2
330
1F
100
AcDbEntity
  8
외형선
  6
Continuous
 62
     1
370
    15
100
AcDbSpline
210
0.0
220
0.0
230
1.0
 70
     8
 71
     3
 72
     8
 73
     4
 74
     0
 42
0.000000001
 43
0.00000001
 40
0.0
 40
0.0
 40
0.0
 40
0.0
 40
1.0
 40
1.0
 40
1.0
 40
1.0
 10
22.33062531815725
 20
-5.729219630178036
 30
0.0
 10
22.37542405517172
 20
-5.769600842521493
 30
0.0
 10
22.43055273999232
 20
-5.796105859635714
 30
0.0
 10
22.48743530512289
 20
-5.804518070254975
 30
0.0
  0
SPLINE
  5
4A3
330
1F
100
AcDbEntity
  8
외형선
  6
Continuous
 62
     1
370
    15
100
AcDbSpline
210
0.0
220
0.0
230
1.0
 70
     8
 71
     3
 72
    10
 73
     6
 74
     0
 42
0.000000001
 43
0.00000001
 40
0.0
 40
0.0
 40
0.0
 40
0.0
 40
0.5
 40
0.5
 40
1.0
 40
1.0
 40
1.0
 40
1.0
 10
21.7046832985975
 20
-5.631809002561544
 30
0.0
 10
21.79745213435135
 20
-5.577139106436487
 30
0.0
 10
21.91028687254574
 20
-5.559555584403661
 30
0.0
 10
22.13521647060068
 20
-5.596659110445348
 30
0.0
 10
22.24228749471609
 20
-5.649592644150193
 30
0.0
 10
22.33062531815797
 20
-5.729219630179141
 30
0.0
  0
SPLINE
  5
4A4
330
1F
100
AcDbEntity
  8
외형선
  6
Continuous
 62
     1
370
    15
100
AcDbSpline
210
0.0
220
0.0
230
1.0
 70
     8
 71
     3
 72
    17
 73
    13
 74
     0
 42
0.000000001
 43
0.00000001
 40
0.0
 40
0.0
 40
0.0
 40
0.0
 40
0.0000438684487887
 40
0.0000438684487887
 40
0.0000438684487887
 40
0.0000877527718232
 40
0.0000877527718232
 40
0.0000877527718232
 40
0.0001307257148327
 40
0.0001307257148327
 40
0.0001307257148327
 40
0.0001749838557966
 40
0.0001749838557966
 40
0.0001749838557966
 40
0.0001749838557966
 10
21.54851832915884
 20
-5.657566219834706
 30
0.0
 10
21.56226088403147
 20
-5.659835264030656
 30
0.0
 10
21.57609705001619
 20
-5.661054668825164
 30
0.0
 10
21.58978049258613
 20
-5.661167087304687
 30
0.0
 10
21.60346682932054
 20
-5.661279529561671
 30
0.0
 10
21.6170859049133
 20
-5.660284325228275
 30
0.0
 10
21.63037153765373
 20
-5.658151515854517
 30
0.0
 10
21.64338053832384
 20
-5.656063115616867
 30
0.0
 10
21.6561547913482
 20
-5.652869295782125
 30
0.0
 10
21.66842470833089
 20
-5.648579203586451
 30
0.0
 10
21.68105584289434
 20
-5.644162814144726
 30
0.0
 10
21.69324545071083
 20
-5.638549476892617
 30
0.0
 10
21.7046832985983
 20
-5.631809002563994
 30
0.0
  0
SPLINE
  5
4A5
330
1F
100
AcDbEntity
  8
외형선
  6
Continuous
 62
     1
370
    15
100
AcDbSpline
210
0.0
220
0.0
230
1.0
 70
     8
 71
     3
 72
     8
 73
     4
 74
     0
 42
0.000000001
 43
0.00000001
 40
0.0
 40
0.0
 40
0.0
 40
0.0
 40
1.0
 40
1.0
 40
1.0
 40
1.0
 10
21.54851832915853
 20
-5.657566219833203
 30
0.0
 10
21.35458344433725
 20
-5.625545476319804
 30
0.0
 10
21.16050711671721
 20
-5.592470132096842
 30
0.0
 10
20.96645086435156
 20
-5.558367069108918
 30
0.0
  0
SPLINE
  5
4A6
330
1F
100
AcDbEntity
  8
외형선
  6
Continuous
 62
     1
370
    15
100
AcDbSpline
210
0.0
220
0.0
230
1.0
 70
     8
 71
     3
 72
     8
 73
     4
 74
     0
 42
0.000000001
 43
0.00000001
 40
0.0
 40
0.0
 40
0.0
 40
0.0
 40
1.0
 40
1.0
 40
1.0
 40
1.0
 10
20.80997306965935
 20
-5.480243273615692
 30
0.0
 10
20.85474577974256
 20
-5.52090909259781
 30
0.0
 10
20.90985458991756
 20
-5.548421232198915
 30
0.0
 10
20.96672196979992
 20
-5.558414711978399
 30
0.0
  0
SPLINE
  5
4A7
330
1F
100
AcDbEntity
  8
외형선
  6
Continuous
 62
     1
370
    15
100
AcDbSpline
210
0.0
220
0.0
230
1.0
 70
     8
 71
     3
 72
    10
 73
     6
 74
     0
 42
0.000000001
 43
0.00000001
 40
0.0
 40
0.0
 40
0.0
 40
0.0
 40
0.5
 40
0.5
 40
1.0
 40
1.0
 40
1.0
 40
1.0
 10
20.18424798723339
 20
-5.365636441558566
 30
0.0
 10
20.27696749116831
 20
-5.315713761385719
 30
0.0
 10
20.3897458131006
 20
-5.302085267541626
 30
0.0
 10
20.61461172736276
 20
-5.345168645036775
 30
0.0
 10
20.72166419049866
 20
-5.400034751777513
 30
0.0
 10
20.80997306965935
 20
-5.480243273615695
 30
0.0
  0
SPLINE
  5
4A8
330
1F
100
AcDbEntity
  8
외형선
  6
Continuous
 62
     1
370
    15
100
AcDbSpline
210
0.0
220
0.0
230
1.0
 70
     8
 71
     3
 72
    17
 73
    13
 74
     0
 42
0.000000001
 43
0.00000001
 40
0.0
 40
0.0
 40
0.0
 40
0.0
 40
0.0000438685736838
 40
0.0000438685736838
 40
0.0000438685736838
 40
0.0000877530373424
 40
0.0000877530373424
 40
0.0000877530373424
 40
0.0001307100004658
 40
0.0001307100004658
 40
0.0001307100004658
 40
0.0001749516115779
 40
0.0001749516115779
 40
0.0001749516115779
 40
0.0001749516115779
 10
20.02812904601421
 20
-5.385425957252927
 30
0.0
 10
20.04186963129935
 20
-5.388076436222246
 30
0.0
 10
20.05570410040495
 20
-5.389714901287789
 30
0.0
 10
20.06938591746191
 20
-5.390276705857852
 30
0.0
 10
20.08307063144511
 20
-5.390838629381884
 30
0.0
 10
20.09668822435601
 20
-5.390326075468304
 30
0.0
 10
20.10997229087695
 20
-5.388699898305289
 30
0.0
 10
20.12297491514467
 20
-5.387108174068583
 30
0.0
 10
20.13574293122535
 20
-5.384438084765684
 30
0.0
 10
20.14800688135828
 20
-5.380688114548313
 30
0.0
 10
20.16063186236381
 20
-5.376827751267935
 30
0.0
 10
20.17281554686906
 20
-5.371791975614892
 30
0.0
 10
20.18424798723419
 20
-5.365636441560945
 30
0.0
  0
SPLINE
  5
4A9
330
1F
100
AcDbEntity
  8
외형선
  6
Continuous
 62
     1
370
    15
100
AcDbSpline
210
0.0
220
0.0
230
1.0
 70
     8
 71
     3
 72
     8
 73
     4
 74
     0
 42
0.000000001
 43
0.00000001
 40
0.0
 40
0.0
 40
0.0
 40
0.0
 40
1.0
 40
1.0
 40
1.0
 40
1.0
 10
20.02812904601396
 20
-5.385425957251467
 30
0.0
 10
19.83383784472349
 20
-5.347948314759673
 30
0.0
 10
19.63982890301897
 20
-5.30948618900522
 30
0.0
 10
19.44626334782474
 20
-5.270075404297174
 30
0.0
  0
SPLINE
  5
4AA
330
1F
100
AcDbEntity
  8
외형선
  6
Continuous
 62
     1
370
    15
100
AcDbSpline
210
0.0
220
0.0
230
1.0
 70
     8
 71
     3
 72
     8
 73
     4
 74
     0
 42
0.000000001
 43
0.00000001
 40
0.0
 40
0.0
 40
0.0
 40
0.0
 40
1.0
 40
1.0
 40
1.0
 40
1.0
 10
19.28984948689276
 20
-5.189486077920254
 30
0.0
 10
19.33460308761066
 20
-5.230184673980695
 30
0.0
 10
19.38968907406478
 20
-5.258556920579537
 30
0.0
 10
19.44653361316814
 20
-5.270130430819108
 30
0.0
  0
SPLINE
  5
4AB
330
1F
100
AcDbEntity
  8
외형선
  6
Continuous
 62
     1
370
    15
100
AcDbSpline
210
0.0
220
0.0
230
1.0
 70
     8
 71
     3
 72
    10
 73
     6
 74
     0
 42
0.000000001
 43
0.00000001
 40
0.0
 40
0.0
 40
0.0
 40
0.0
 40
0.5
 40
0.5
 40
1.0
 40
1.0
 40
1.0
 40
1.0
 10
18.66431232724834
 20
-5.058201871526204
 30
0.0
 10
18.75702158912939
 20
-5.013392034776956
 30
0.0
 10
18.86978646726615
 20
-5.00386767855373
 30
0.0
 10
19.0945905575053
 20
-5.052751918520258
 30
0.0
 10
19.20159272521398
 20
-5.10922602653781
 30
0.0
 10
19.28984948689276
 20
-5.189486077920247
 30
0.0
  0
SPLINE
  5
4AC
330
1F
100
AcDbEntity
  8
외형선
  6
Continuous
 62
     1
370
    15
100
AcDbSpline
210
0.0
220
0.0
230
1.0
 70
     8
 71
     3
 72
    17
 73
    13
 74
     0
 42
0.000000001
 43
0.00000001
 40
0.0
 40
0.0
 40
0.0
 40
0.0
 40
0.0000438686565989
 40
0.0000438686565989
 40
0.0000438686565989
 40
0.000087753179696
 40
0.000087753179696
 40
0.000087753179696
 40
0.0001306978134838
 40
0.0001306978134838
 40
0.0001306978134838
 40
0.0001749261713518
 40
0.0001749261713518
 40
0.0001749261713518
 40
0.0001749261713518
 10
18.50821086522092
 20
-5.071895840887287
 30
0.0
 10
18.52195290304846
 20
-5.0749034384027
 30
0.0
 10
18.53578865111717
 20
-5.076944918927424
 30
0.0
 10
18.54947139892377
 20
-5.077948965854283
 30
0.0
 10
18.56315703961916
 20
-5.078953225062781
 30
0.0
 10
18.5767752607733
 20
-5.078925050357105
 30
0.0
 10
18.59005954768357
 20
-5.077816454781257
 30
0.0
 10
18.60305866849002
 20
-5.076731656785455
 30
0.0
 10
18.6158229436266
 20
-5.074604242159186
 30
0.0
 10
18.62808313387032
 20
-5.071421991221477
 30
0.0
 10
18.64070409680673
 20
-5.0681460982426
 30
0.0
 10
18.6528836849175
 20
-5.063725759722089
 30
0.0
 10
18.66431232724914
 20
-5.058201871528521
 30
0.0
  0
SPLINE
  5
4AD
330
1F
100
AcDbEntity
  8
외형선
  6
Continuous
 62
     1
370
    15
100
AcDbSpline
210
0.0
220
0.0
230
1.0
 70
     8
 71
     3
 72
     8
 73
     4
 74
     0
 42
0.000000001
 43
0.00000001
 40
0.0
 40
0.0
 40
0.0
 40
0.0
 40
1.0
 40
1.0
 40
1.0
 40
1.0
 10
18.50821086521978
 20
-5.071895840885698
 30
0.0
 10
18.31447598561424
 20
-5.02949481202349
 30
0.0
 10
18.12054891522732
 20
-4.986142569185349
 30
0.0
 10
17.92659078481125
 20
-4.941874086830779
 30
0.0
  0
SPLINE
  5
4AE
330
1F
100
AcDbEntity
  8
외형선
  6
Continuous
 62
     1
370
    15
100
AcDbSpline
210
0.0
220
0.0
230
1.0
 70
     8
 71
     3
 72
     8
 73
     4
 74
     0
 42
0.000000001
 43
0.00000001
 40
0.0
 40
0.0
 40
0.0
 40
0.0
 40
1.0
 40
1.0
 40
1.0
 40
1.0
 10
17.76986333412994
 20
-4.859598837744002
 30
0.0
 10
17.81462923672426
 20
-4.899956707461683
 30
0.0
 10
17.86973042083561
 20
-4.928896430192509
 30
0.0
 10
17.92659078482059
 20
-4.941874086836117
 30
0.0
  0
SPLINE
  5
4AF
330
1F
100
AcDbEntity
  8
외형선
  6
Continuous
 62
     1
370
    15
100
AcDbSpline
210
0.0
220
0.0
230
1.0
 70
     8
 71
     3
 72
    10
 73
     6
 74
     0
 42
0.000000001
 43
0.00000001
 40
0.0
 40
0.0
 40
0.0
 40
0.0
 40
0.5
 40
0.5
 40
1.0
 40
1.0
 40
1.0
 40
1.0
 10
17.14409198272533
 20
-4.713060628583854
 30
0.0
 10
17.23682219958529
 20
-4.673691394208999
 30
0.0
 10
17.34960922465314
 20
-4.668301623996701
 30
0.0
 10
17.57448913084305
 20
-4.722447660898224
 30
0.0
 10
17.68155312849305
 20
-4.779984408741342
 30
0.0
 10
17.76986333412992
 20
-4.859598837743999
 30
0.0
  0
SPLINE
  5
4B0
330
1F
100
AcDbEntity
  8
외형선
  6
Continuous
 62
     1
370
    15
100
AcDbSpline
210
0.0
220
0.0
230
1.0
 70
     8
 71
     3
 72
    17
 73
    13
 74
     0
 42
0.000000001
 43
0.00000001
 40
0.0
 40
0.0
 40
0.0
 40
0.0
 40
0.0000438684605301
 40
0.0000438684605301
 40
0.0000438684605301
 40
0.0000877528428362
 40
0.0000877528428362
 40
0.0000877528428362
 40
0.0001307228487983
 40
0.0001307228487983
 40
0.0001307228487983
 40
0.0001749782852694
 40
0.0001749782852694
 40
0.0001749782852694
 40
0.0001749782852694
 10
16.98793879089961
 20
-4.72054042252346
 30
0.0
 10
17.00168023297556
 20
-4.723884677293686
 30
0.0
 10
17.01551546441307
 20
-4.726316590516724
 30
0.0
 10
17.02919813489727
 20
-4.727758587707886
 30
0.0
 10
17.0428837083719
 20
-4.729200890841081
 30
0.0
 10
17.05650219570674
 20
-4.729661059240176
 30
0.0
 10
17.06978732173808
 20
-4.729082373539153
 30
0.0
 10
17.08279492310078
 20
-4.728515776512111
 30
0.0
 10
17.09556790817385
 20
-4.726948599044409
 30
0.0
 10
17.1078366268861
 20
-4.724357665841563
 30
0.0
 10
17.12046661888897
 20
-4.721690438203577
 30
0.0
 10
17.13265516000146
 20
-4.717916208240624
 30
0.0
 10
17.14409198272612
 20
-4.713060628586106
 30
0.0
  0
SPLINE
  5
4B1
330
1F
100
AcDbEntity
  8
외형선
  6
Continuous
 62
     1
370
    15
100
AcDbSpline
210
0.0
220
0.0
230
1.0
 70
     8
 71
     3
 72
     8
 73
     4
 74
     0
 42
0.000000001
 43
0.00000001
 40
0.0
 40
0.0
 40
0.0
 40
0.0
 40
1.0
 40
1.0
 40
1.0
 40
1.0
 10
16.98793879089948
 20
-4.720540422522149
 30
0.0
 10
16.79361554119052
 20
-4.673247973067921
 30
0.0
 10
16.59952303735116
 20
-4.625096085354954
 30
0.0
 10
16.40582267585911
 20
-4.576127735200448
 30
0.0
  0
SPLINE
  5
4B2
330
1F
100
AcDbEntity
  8
외형선
  6
Continuous
 62
     1
370
    15
100
AcDbSpline
210
0.0
220
0.0
230
1.0
 70
     8
 71
     3
 72
     8
 73
     4
 74
     0
 42
0.000000001
 43
0.00000001
 40
0.0
 40
0.0
 40
0.0
 40
0.0
 40
1.0
 40
1.0
 40
1.0
 40
1.0
 10
16.2492974514246
 20
-4.492635159802411
 30
0.0
 10
16.29408891385432
 20
-4.532434285067449
 30
0.0
 10
16.34921031583261
 20
-4.561816117583067
 30
0.0
 10
16.4060931947586
 20
-4.576196123041388
 30
0.0
  0
SPLINE
  5
4B3
330
1F
100
AcDbEntity
  8
외형선
  6
Continuous
 62
     1
370
    15
100
AcDbSpline
210
0.0
220
0.0
230
1.0
 70
     8
 71
     3
 72
    10
 73
     6
 74
     0
 42
0.000000001
 43
0.00000001
 40
0.0
 40
0.0
 40
0.0
 40
0.0
 40
0.5
 40
0.5
 40
1.0
 40
1.0
 40
1.0
 40
1.0
 10
15.62330804520727
 20
-4.331218015262387
 30
0.0
 10
15.71609524804619
 20
-4.297620980262026
 30
0.0
 10
15.82894099231237
 20
-4.296515012154643
 30
0.0
 10
16.05388328624136
 20
-4.355805451117702
 30
0.0
 10
16.16095385286187
 20
-4.414138103559187
 30
0.0
 10
16.2492974514246
 20
-4.492635159802408
 30
0.0
  0
SPLINE
  5
4B4
330
1F
100
AcDbEntity
  8
외형선
  6
Continuous
 62
     1
370
    15
100
AcDbSpline
210
0.0
220
0.0
230
1.0
 70
     8
 71
     3
 72
    17
 73
    13
 74
     0
 42
0.000000001
 43
0.00000001
 40
0.0
 40
0.0
 40
0.0
 40
0.0
 40
0.0000438682830362
 40
0.0000438682830362
 40
0.0000438682830362
 40
0.0000877524648541
 40
0.0000877524648541
 40
0.0000877524648541
 40
0.0001307463798639
 40
0.0001307463798639
 40
0.0001307463798639
 40
0.0001750266201916
 40
0.0001750266201916
 40
0.0001750266201916
 40
0.0001750266201916
 10
15.46711551925901
 20
-4.332385953573183
 30
0.0
 10
15.48085668255257
 20
-4.336041883316332
 30
0.0
 10
15.49469136208474
 20
-4.338846649223033
 30
0.0
 10
15.50837355848256
 20
-4.340717168803362
 30
0.0
 10
15.52205865321886
 20
-4.342588084621157
 30
0.0
 10
15.53567662479472
 20
-4.34353526796497
 30
0.0
 10
15.54896157940965
 20
-4.343493782633539
 30
0.0
 10
15.56197625648451
 20
-4.343453141305995
 30
0.0
 10
15.57475630859011
 20
-4.342462445847154
 30
0.0
 10
15.58703193266504
 20
-4.340487644777806
 30
0.0
 10
15.59966907044922
 20
-4.338454686367109
 30
0.0
 10
15.61186465772782
 20
-4.335361516501093
 30
0.0
 10
15.62330804520809
 20
-4.331218015264637
 30
0.0
  0
SPLINE
  5
4B5
330
1F
100
AcDbEntity
  8
외형선
  6
Continuous
 62
     1
370
    15
100
AcDbSpline
210
0.0
220
0.0
230
1.0
 70
     8
 71
     3
 72
     8
 73
     4
 74
     0
 42
0.000000001
 43
0.00000001
 40
0.0
 40
0.0
 40
0.0
 40
0.0
 40
1.0
 40
1.0
 40
1.0
 40
1.0
 10
15.4671155192589
 20
-4.332385953571947
 30
0.0
 10
15.27322013551193
 20
-4.280798770932776
 30
0.0
 10
15.0790812203507
 20
-4.228387365128768
 30
0.0
 10
14.88486040883264
 20
-4.175194100193218
 30
0.0
  0
SPLINE
  5
4B6
330
1F
100
AcDbEntity
  8
외형선
  6
Continuous
 62
     1
370
    15
100
AcDbSpline
210
0.0
220
0.0
230
1.0
 70
     8
 71
     3
 72
     8
 73
     4
 74
     0
 42
0.000000001
 43
0.00000001
 40
0.0
 40
0.0
 40
0.0
 40
0.0
 40
1.0
 40
1.0
 40
1.0
 40
1.0
 10
14.72830126091877
 20
-4.091345355868047
 30
0.0
 10
14.77310427993093
 20
-4.130187902922053
 30
0.0
 10
14.82823937553559
 20
-4.15968691747695
 30
0.0
 10
14.88513093401991
 20
-4.175268191239585
 30
0.0
  0
SPLINE
  5
4B7
330
1F
100
AcDbEntity
  8
외형선
  6
Continuous
 62
     1
370
    15
100
AcDbSpline
210
0.0
220
0.0
230
1.0
 70
     8
 71
     3
 72
    10
 73
     6
 74
     0
 42
0.000000001
 43
0.00000001
 40
0.0
 40
0.0
 40
0.0
 40
0.0
 40
0.5000000000000002
 40
0.5000000000000002
 40
1.0
 40
1.0
 40
1.0
 40
1.0
 10
14.10220927579077
 20
-3.917217171455539
 30
0.0
 10
14.19499147318263
 20
-3.889597009341347
 30
0.0
 10
14.30783612432228
 20
-3.892635466522075
 30
0.0
 10
14.53281614762399
 20
-3.956251718247445
 30
0.0
 10
14.63992983187491
 20
-4.014730621715174
 30
0.0
 10
14.72830126091884
 20
-4.091345355868178
 30
0.0
  0
SPLINE
  5
4B8
330
1F
100
AcDbEntity
  8
외형선
  6
Continuous
 62
     1
370
    15
100
AcDbSpline
210
0.0
220
0.0
230
1.0
 70
     8
 71
     3
 72
    17
 73
    13
 74
     0
 42
0.000000001
 43
0.00000001
 40
0.0
 40
0.0
 40
0.0
 40
0.0
 40
0.0000438682540103
 40
0.0000438682540103
 40
0.0000438682540103
 40
0.0000877524443127
 40
0.0000877524443127
 40
0.0000877524443127
 40
0.0001307496444713
 40
0.0001307496444713
 40
0.0001307496444713
 40
0.0001750336852821
 40
0.0001750336852821
 40
0.0001750336852821
 40
0.0001750336852821
 10
13.94599506962511
 20
-3.9121446901606
 30
0.0
 10
13.95973715339422
 20
-3.91608150906608
 30
0.0
 10
13.97357288638374
 20
-3.919233553927574
 30
0.0
 10
13.98725628846964
 20
-3.921512787831851
 30
0.0
 10
14.00094259614518
 20
-3.923792505717991
 30
0.0
 10
14.01456193141786
 20
-3.925212546607998
 30
0.0
 10
14.02784834321488
 20
-3.925700378230044
 30
0.0
 10
14.04086542926963
 20
-3.926178321131514
 30
0.0
 10
14.05364796012313
 20
-3.925763694956986
 30
0.0
 10
14.06592595701972
 20
-3.924412226489604
 30
0.0
 10
14.07856565122766
 20
-3.923020945134567
 30
0.0
 10
14.09076371953972
 20
-3.92062437810047
 30
0.0
 10
14.10220927579124
 20
-3.917217171459235
 30
0.0
  0
SPLINE
  5
4B9
330
1F
100
AcDbEntity
  8
외형선
  6
Continuous
 62
     1
370
    15
100
AcDbSpline
210
0.0
220
0.0
230
1.0
 70
     8
 71
     3
 72
     8
 73
     4
 74
     0
 42
0.000000001
 43
0.00000001
 40
0.0
 40
0.0
 40
0.0
 40
0.0
 40
1.0
 40
1.0
 40
1.0
 40
1.0
 10
13.9459950696251
 20
-3.91214469015951
 30
0.0
 10
13.75164427724515
 20
-3.856467262587993
 30
0.0
 10
13.55747330633281
 20
-3.800079672429906
 30
0.0
 10
13.36364380014172
 20
-3.743030904385972
 30
0.0
  0
SPLINE
  5
4BA
330
1F
100
AcDbEntity
  8
외형선
  6
Continuous
 62
     1
370
    15
100
AcDbSpline
210
0.0
220
0.0
230
1.0
 70
     8
 71
     3
 72
     8
 73
     4
 74
     0
 42
0.000000001
 43
0.00000001
 40
0.0
 40
0.0
 40
0.0
 40
0.0
 40
1.0
 40
1.0
 40
1.0
 40
1.0
 10
13.20705623632016
 20
-3.659197108421658
 30
0.0
 10
13.25186976501053
 20
-3.69687555623322
 30
0.0
 10
13.30701235956808
 20
-3.726363092883577
 30
0.0
 10
13.36391448748201
 20
-3.743110573803454
 30
0.0
  0
SPLINE
  5
4BB
330
1F
100
AcDbEntity
  8
외형선
  6
Continuous
 62
     1
370
    15
100
AcDbSpline
210
0.0
220
0.0
230
1.0
 70
     8
 71
     3
 72
    10
 73
     6
 74
     0
 42
0.000000001
 43
0.00000001
 40
0.0
 40
0.0
 40
0.0
 40
0.0
 40
0.5
 40
0.5
 40
1.0
 40
1.0
 40
1.0
 40
1.0
 10
12.58087354944374
 20
-3.472579131098012
 30
0.0
 10
12.67369203350978
 20
-3.451235750848486
 30
0.0
 10
12.78656761550431
 20
-3.458576097823189
 30
0.0
 10
13.0115571773033
 20
-3.526473807497265
 30
0.0
 10
13.11866392442315
 20
-3.584878365665078
 30
0.0
 10
13.20705623632014
 20
-3.659197108421658
 30
0.0
  0
SPLINE
  5
4BC
330
1F
100
AcDbEntity
  8
외형선
  6
Continuous
 62
     1
370
    15
100
AcDbSpline
210
0.0
220
0.0
230
1.0
 70
     8
 71
     3
 72
    17
 73
    13
 74
     0
 42
0.000000001
 43
0.00000001
 40
0.0
 40
0.0
 40
0.0
 40
0.0
 40
0.0000438681192727
 40
0.0000438681192727
 40
0.0000438681192727
 40
0.0000877521444623
 40
0.0000877521444623
 40
0.0000877521444623
 40
0.000130768160566
 40
0.000130768160566
 40
0.000130768160566
 40
0.0001750716229524
 40
0.0001750716229524
 40
0.0001750716229524
 40
0.0001750716229524
 10
12.42464636864521
 20
-3.461177590369868
 30
0.0
 10
12.43838655242111
 20
-3.465372140962314
 30
0.0
 10
12.45222016813096
 20
-3.468855395422098
 30
0.0
 10
12.46590154318631
 20
-3.471535058003658
 30
0.0
 10
12.47958581752121
 20
-3.474215288444142
 30
0.0
 10
12.49320310932215
 20
-3.476107629197305
 30
0.0
 10
12.50648782361935
 20
-3.477132362810472
 30
0.0
 10
12.51950895037112
 20
-3.478136764257531
 30
0.0
 10
12.53229557418855
 20
-3.47831336576942
 30
0.0
 10
12.54457766558728
 20
-3.477607593053007
 30
0.0
 10
12.55722157705902
 20
-3.476881028866519
 30
0.0
 10
12.56942390656073
 20
-3.475211948089401
 30
0.0
 10
12.58087354944456
 20
-3.472579131099934
 30
0.0
  0
SPLINE
  5
4BD
330
1F
100
AcDbEntity
  8
외형선
  6
Continuous
 62
     1
370
    15
100
AcDbSpline
210
0.0
220
0.0
230
1.0
 70
     8
 71
     3
 72
     8
 73
     4
 74
     0
 42
0.000000001
 43
0.00000001
 40
0.0
 40
0.0
 40
0.0
 40
0.0
 40
1.0
 40
1.0
 40
1.0
 40
1.0
 10
12.42464636864527
 20
-3.461177590368886
 30
0.0
 10
12.23076225576277
 20
-3.401989392174325
 30
0.0
 10
12.03658386056783
 20
-3.342129366203102
 30
0.0
 10
11.84227288374612
 20
-3.281646081901801
 30
0.0
  0
SPLINE
  5
4BE
330
1F
100
AcDbEntity
  8
외형선
  6
Continuous
 62
     1
370
    15
100
AcDbSpline
210
0.0
220
0.0
230
1.0
 70
     8
 71
     3
 72
     8
 73
     4
 74
     0
 42
0.000000001
 43
0.00000001
 40
0.0
 40
0.0
 40
0.0
 40
0.0
 40
1.0
 40
1.0
 40
1.0
 40
1.0
 10
11.68568771156738
 20
-3.198714275981578
 30
0.0
 10
11.73050029453363
 20
-3.234857023597037
 30
0.0
 10
11.78564423520855
 20
-3.264019409234081
 30
0.0
 10
11.84254350168578
 20
-3.28173031692247
 30
0.0
  0
SPLINE
  5
4BF
330
1F
100
AcDbEntity
  8
외형선
  6
Continuous
 62
     1
370
    15
100
AcDbSpline
210
0.0
220
0.0
230
1.0
 70
     8
 71
     3
 72
    10
 73
     6
 74
     0
 42
0.000000001
 43
0.00000001
 40
0.0
 40
0.0
 40
0.0
 40
0.0
 40
0.5
 40
0.5
 40
1.0
 40
1.0
 40
1.0
 40
1.0
 10
11.05954201026684
 20
-3.002315125432741
 30
0.0
 10
11.15233282956129
 20
-2.98728884731165
 30
0.0
 10
11.26518854129749
 20
-2.998648338389383
 30
0.0
 10
11.4901870097777
 20
-3.069787384582352
 30
0.0
 10
11.59730568387917
 20
-3.127431410566629
 30
0.0
 10
11.68568771156737
 20
-3.198714275981573
 30
0.0
  0
SPLINE
  5
4C0
330
1F
100
AcDbEntity
  8
외형선
  6
Continuous
 62
     1
370
    15
100
AcDbSpline
210
0.0
220
0.0
230
1.0
 70
     8
 71
     3
 72
    17
 73
    13
 74
     0
 42
0.000000001
 43
0.00000001
 40
0.0
 40
0.0
 40
0.0
 40
0.0
 40
0.0000438682596679
 40
0.0000438682596679
 40
0.0000438682596679
 40
0.0000877524450654
 40
0.0000877524450654
 40
0.0000877524450654
 40
0.0001307492602066
 40
0.0001307492602066
 40
0.0001307492602066
 40
0.0001750328248345
 40
0.0001750328248345
 40
0.0001750328248345
 40
0.0001750328248345
 10
10.90332405802954
 20
-2.984853737629637
 30
0.0
 10
10.91706667254373
 20
-2.989263871533296
 30
0.0
 10
10.93090290742357
 20
-2.99303989235313
 30
0.0
 10
10.94458676408979
 20
-2.996085957980265
 30
0.0
 10
10.958273524449
 20
-2.999132669977769
 30
0.0
 10
10.97189326908266
 20
-3.001467519689644
 30
0.0
 10
10.98518004471673
 20
-3.003004489109014
 30
0.0
 10
10.99819737368628
 20
-3.004510289846461
 30
0.0
 10
11.01098010816622
 20
-3.005259307483826
 30
0.0
 10
11.02325828277927
 20
-3.005187803688409
 30
0.0
 10
11.03589813783441
 20
-3.005114193592572
 30
0.0
 10
11.04809633762353
 20
-3.004168604709019
 30
0.0
 10
11.05954201026765
 20
-3.002315125434496
 30
0.0
  0
SPLINE
  5
4C1
330
1F
100
AcDbEntity
  8
외형선
  6
Continuous
 62
     1
370
    15
100
AcDbSpline
210
0.0
220
0.0
230
1.0
 70
     8
 71
     3
 72
     8
 73
     4
 74
     0
 42
0.000000001
 43
0.00000001
 40
0.0
 40
0.0
 40
0.0
 40
0.0
 40
1.0
 40
1.0
 40
1.0
 40
1.0
 10
10.90332405802974
 20
-2.984853737628764
 30
0.0
 10
10.70902906712408
 20
-2.92250265255538
 30
0.0
 10
10.51486314446264
 20
-2.859611126524499
 30
0.0
 10
10.32098796215698
 20
-2.796232783367243
 30
0.0
  0
SPLINE
  5
4C2
330
1F
100
AcDbEntity
  8
외형선
  6
Continuous
 62
     1
370
    15
100
AcDbSpline
210
0.0
220
0.0
230
1.0
 70
     8
 71
     3
 72
     8
 73
     4
 74
     0
 42
0.000000001
 43
0.00000001
 40
0.0
 40
0.0
 40
0.0
 40
0.0
 40
1.0
 40
1.0
 40
1.0
 40
1.0
 10
10.16441455224509
 20
-2.714624816390799
 30
0.0
 10
10.20922225165043
 20
-2.749029390535965
 30
0.0
 10
10.26436064545243
 20
-2.777721312319152
 30
0.0
 10
10.32125822709982
 20
-2.796321133363588
 30
0.0
  0
SPLINE
  5
4C3
330
1F
100
AcDbEntity
  8
외형선
  6
Continuous
 62
     1
370
    15
100
AcDbSpline
210
0.0
220
0.0
230
1.0
 70
     8
 71
     3
 72
     8
 73
     4
 74
     0
 42
0.000000001
 43
0.00000001
 40
0.718960108006059
 40
0.718960108006059
 40
0.718960108006059
 40
0.718960108006059
 40
1.0
 40
1.0
 40
1.0
 40
1.0
 10
10.0
 20
-2.612281791323866
 30
0.0
 10
10.05914019867856
 20
-2.641876338351794
 30
0.0
 10
10.11473583109291
 20
-2.67648013884653
 30
0.0
 10
10.16441455224511
 20
-2.714624816390817
 30
0.0
  0
SPLINE
  5
4F6
330
1F
100
AcDbEntity
  8
외형선
  6
Continuous
 62
     1
370
    15
100
AcDbSpline
210
0.0
220
0.0
230
1.0
 70
     8
 71
     3
 72
    11
 73
     7
 74
     0
 42
0.000000001
 43
0.00000001
 40
0.0
 40
0.0
 40
0.0
 40
0.0
 40
0.0000438684155032
 40
0.0000438684155032
 40
0.0000438684155032
 40
0.0000537594313976
 40
0.0000537594313976
 40
0.0000537594313976
 40
0.0000537594313976
 10
10.05048892199001
 20
4.010917044584396
 30
0.0
 10
10.0367502678549
 20
4.01479922487983
 30
0.0
 10
10.02291802783914
 20
4.017880793056701
 30
0.0
 10
10.00923838124444
 20
4.020074733949706
 30
0.0
 10
10.00615449294713
 20
4.020569327768202
 30
0.0
 10
10.00307401738289
 20
4.021019470279443
 30
0.0
 10
10.0
 20
4.021424350013815
 30
0.0
  0
SPLINE
  5
4F7
330
1F
100
AcDbEntity
  8
외형선
  6
Continuous
 62
     1
370
    15
100
AcDbSpline
210
0.0
220
0.0
230
1.0
 70
     8
 71
     3
 72
     8
 73
     4
 74
     0
 42
0.000000001
 43
0.00000001
 40
0.0
 40
0.0
 40
0.0
 40
0.0
 40
1.0
 40
1.0
 40
1.0
 40
1.0
 10
10.63213336465287
 20
3.844536139969478
 30
0.0
 10
10.43790336635014
 20
3.900770547469541
 30
0.0
 10
10.24387804476916
 20
3.956271020382438
 30
0.0
 10
10.05021865601449
 20
4.010993414163103
 30
0.0
  0
SPLINE
  5
4F8
330
1F
100
AcDbEntity
  8
외형선
  6
Continuous
 62
     1
370
    15
100
AcDbSpline
210
0.0
220
0.0
230
1.0
 70
     8
 71
     3
 72
     8
 73
     4
 74
     0
 42
0.000000001
 43
0.00000001
 40
0.0
 40
0.0
 40
0.0
 40
0.0
 40
1.0
 40
1.0
 40
1.0
 40
1.0
 10
10.78882942451241
 20
3.760677684429886
 30
0.0
 10
10.74407465361446
 20
3.798605603138938
 30
0.0
 10
10.68898287062528
 20
3.828076796340984
 30
0.0
 10
10.63213336465287
 20
3.844536139969499
 30
0.0
  0
SPLINE
  5
4F9
330
1F
100
AcDbEntity
  8
외형선
  6
Continuous
 62
     1
370
    15
100
AcDbSpline
210
0.0
220
0.0
230
1.0
 70
     8
 71
     3
 72
    10
 73
     6
 74
     0
 42
0.000000001
 43
0.00000001
 40
0.0
 40
0.0
 40
0.0
 40
0.0
 40
0.5
 40
0.5
 40
1.0
 40
1.0
 40
1.0
 40
1.0
 10
11.41435315010004
 20
3.577460568365257
 30
0.0
 10
11.32166294525305
 20
3.554594680489597
 30
0.0
 10
11.20891133453476
 20
3.560814848036706
 30
0.0
 10
10.98410643847086
 20
3.627519767066971
 30
0.0
 10
10.87709432027403
 20
3.685876635868031
 30
0.0
 10
10.7888294245125
 20
3.760677684429858
 30
0.0
  0
SPLINE
  5
4FA
330
1F
100
AcDbEntity
  8
외형선
  6
Continuous
 62
     1
370
    15
100
AcDbSpline
210
0.0
220
0.0
230
1.0
 70
     8
 71
     3
 72
    17
 73
    13
 74
     0
 42
0.000000001
 43
0.00000001
 40
0.0
 40
0.0
 40
0.0
 40
0.0
 40
0.0000438687703496
 40
0.0000438687703496
 40
0.0000438687703496
 40
0.0000877534170584
 40
0.0000877534170584
 40
0.0000877534170584
 40
0.0001306826785032
 40
0.0001306826785032
 40
0.0001306826785032
 40
0.0001748950403018
 40
0.0001748950403018
 40
0.0001748950403018
 40
0.0001748950403018
 10
11.57043849851719
 20
3.567634592465264
 30
0.0
 10
11.55669526925749
 20
3.571767003275561
 30
0.0
 10
11.5428581978255
 20
3.575168656698583
 30
0.0
 10
11.52917423948168
 20
3.577748088036319
 30
0.0
 10
11.51548738599355
 20
3.58032806510986
 30
0.0
 10
11.50186798672954
 20
3.582100945587424
 30
0.0
 10
11.48858281291895
 20
3.582988915184082
 30
0.0
 10
11.47558747962489
 20
3.583857512089782
 30
0.0
 10
11.46282705007471
 20
3.583884238470652
 30
0.0
 10
11.45057067174164
 20
3.58301783915622
 30
0.0
 10
11.43795367051005
 20
3.582125947528841
 30
0.0
 10
11.42577805168531
 20
3.580278994746664
 30
0.0
 10
11.41435315010006
 20
3.577460568365257
 30
0.0
  0
SPLINE
  5
4FB
330
1F
100
AcDbEntity
  8
외형선
  6
Continuous
 62
     1
370
    15
100
AcDbSpline
210
0.0
220
0.0
230
1.0
 70
     8
 71
     3
 72
     8
 73
     4
 74
     0
 42
0.000000001
 43
0.00000001
 40
0.0
 40
0.0
 40
0.0
 40
0.0
 40
1.0
 40
1.0
 40
1.0
 40
1.0
 10
12.15200136844388
 20
3.390754123677251
 30
0.0
 10
11.95831106737734
 20
3.450335153685284
 30
0.0
 10
11.76440308669733
 20
3.509311956215214
 30
0.0
 10
11.57043849864972
 20
3.567634592425403
 30
0.0
  0
LWPOLYLINE
  5
4FC
330
1F
100
AcDbEntity
  8
외형선
  6
Continuous
 62
     1
370
    15
100
AcDbPolyline
 90
        3
 70
   128
 43
0.0
 10
12.15200097858906
 20
3.390754107385867
 10
12.15230365842581
 20
3.390660975128405
 10
12.15254207700491
 20
3.390587866306298
  0
SPLINE
  5
4FD
330
1F
100
AcDbEntity
  8
외형선
  6
Continuous
 62
     1
370
    15
100
AcDbSpline
210
0.0
220
0.0
230
1.0
 70
     8
 71
     3
 72
     8
 73
     4
 74
     0
 42
0.000000001
 43
0.00000001
 40
0.0
 40
0.0
 40
0.0
 40
0.0
 40
1.0
 40
1.0
 40
1.0
 40
1.0
 10
12.30871453221746
 20
3.307498699321751
 30
0.0
 10
12.26409571646735
 20
3.343895473765805
 30
0.0
 10
12.20920398581615
 20
3.373079069371034
 30
0.0
 10
12.15254173221919
 20
3.39058752773342
 30
0.0
  0
SPLINE
  5
4FE
330
1F
100
AcDbEntity
  8
외형선
  6
Continuous
 62
     1
370
    15
100
AcDbSpline
210
0.0
220
0.0
230
1.0
 70
     8
 71
     3
 72
    10
 73
     6
 74
     0
 42
0.000000001
 43
0.00000001
 40
0.0
 40
0.0
 40
0.0
 40
0.0
 40
0.5
 40
0.5
 40
1.0
 40
1.0
 40
1.0
 40
1.0
 10
12.93445117905993
 20
3.113002164765902
 30
0.0
 10
12.8417208556579
 20
3.096600801532933
 30
0.0
 10
12.72894374836653
 20
3.107097027545755
 30
0.0
 10
12.50409113248966
 20
3.177589275516581
 30
0.0
 10
12.3970247896432
 20
3.235461634541196
 30
0.0
 10
12.30871453221756
 20
3.307498699321719
 30
0.0
  0
SPLINE
  5
4FF
330
1F
100
AcDbEntity
  8
외형선
  6
Continuous
 62
     1
370
    15
100
AcDbSpline
210
0.0
220
0.0
230
1.0
 70
     8
 71
     3
 72
    17
 73
    13
 74
     0
 42
0.000000001
 43
0.00000001
 40
0.0
 40
0.0
 40
0.0
 40
0.0
 40
0.0000438682990793
 40
0.0000438682990793
 40
0.0000438682990793
 40
0.0000877524788593
 40
0.0000877524788593
 40
0.0000877524788593
 40
0.0001307446358937
 40
0.0001307446358937
 40
0.0001307446358937
 40
0.0001750232506224
 40
0.0001750232506224
 40
0.0001750232506224
 40
0.0001750232506224
 10
13.09060009170285
 20
3.096784431987221
 30
0.0
 10
13.0768628513859
 20
3.101159436765524
 30
0.0
 10
13.06303207417972
 20
3.104882393608442
 30
0.0
 10
13.0493536982422
 20
3.107858009228611
 30
0.0
 10
13.03567242813563
 20
3.110834254450918
 30
0.0
 10
13.02205821746215
 20
3.113080796191355
 30
0.0
 10
13.00877685765191
 20
3.114512786484312
 30
0.0
 10
12.99576622884891
 20
3.115915586680778
 30
0.0
 10
12.98299011930258
 20
3.116545308858395
 30
0.0
 10
12.97071799956608
 20
3.116339288975627
 30
0.0
 10
12.95808443041513
 20
3.116127201211544
 30
0.0
 10
12.94589193078144
 20
3.115025709144458
 30
0.0
 10
12.93445117905993
 20
3.113002164765895
 30
0.0
  0
SPLINE
  5
500
330
1F
100
AcDbEntity
  8
외형선
  6
Continuous
 62
     1
370
    15
100
AcDbSpline
210
0.0
220
0.0
230
1.0
 70
     8
 71
     3
 72
     8
 73
     4
 74
     0
 42
0.000000001
 43
0.00000001
 40
0.0
 40
0.0
 40
0.0
 40
0.0
 40
1.0
 40
1.0
 40
1.0
 40
1.0
 10
13.67240442781029
 20
2.910033564625834
 30
0.0
 10
13.47815977142474
 20
2.972869355823761
 30
0.0
 10
13.2841712902075
 20
3.03513632080389
 30
0.0
 10
13.09060009224002
 20
3.096784431816154
 30
0.0
  0
LWPOLYLINE
  5
501
330
1F
100
AcDbEntity
  8
외형선
  6
Continuous
 62
     1
370
    15
100
AcDbPolyline
 90
        3
 70
   128
 43
0.0
 10
13.67240463942289
 20
2.910033566877239
 10
13.67270731925964
 20
2.909935545176261
 10
13.67294480651617
 20
2.909858711063855
  0
SPLINE
  5
502
330
1F
100
AcDbEntity
  8
외형선
  6
Continuous
 62
     1
370
    15
100
AcDbSpline
210
0.0
220
0.0
230
1.0
 70
     8
 71
     3
 72
     8
 73
     4
 74
     0
 42
0.000000001
 43
0.00000001
 40
0.0
 40
0.0
 40
0.0
 40
0.0
 40
1.0
 40
1.0
 40
1.0
 40
1.0
 10
13.82918232785859
 20
2.828026282596309
 30
0.0
 10
13.78453850817938
 20
2.862722772412656
 30
0.0
 10
13.72962439934315
 20
2.891453028816095
 30
0.0
 10
13.67294521538601
 20
2.909858291344271
 30
0.0
  0
SPLINE
  5
503
330
1F
100
AcDbEntity
  8
외형선
  6
Continuous
 62
     1
370
    15
100
AcDbSpline
210
0.0
220
0.0
230
1.0
 70
     8
 71
     3
 72
    10
 73
     6
 74
     0
 42
0.000000001
 43
0.00000001
 40
0.0
 40
0.0
 40
0.0
 40
0.0
 40
0.5
 40
0.5
 40
1.0
 40
1.0
 40
1.0
 40
1.0
 10
14.45510926511116
 20
2.624624443011502
 30
0.0
 10
14.36234891148425
 20
2.614578730921036
 30
0.0
 10
14.2495279152313
 20
2.629047592494757
 30
0.0
 10
14.02459469840471
 20
2.702512388792965
 30
0.0
 10
13.91751668873498
 20
2.759374176333743
 30
0.0
 10
13.82918232785867
 20
2.828026282596269
 30
0.0
  0
SPLINE
  5
504
330
1F
100
AcDbEntity
  8
외형선
  6
Continuous
 62
     1
370
    15
100
AcDbSpline
210
0.0
220
0.0
230
1.0
 70
     8
 71
     3
 72
    17
 73
    13
 74
     0
 42
0.000000001
 43
0.00000001
 40
0.0
 40
0.0
 40
0.0
 40
0.0
 40
0.000043868407223
 40
0.000043868407223
 40
0.000043868407223
 40
0.0000877527233346
 40
0.0000877527233346
 40
0.0000877527233346
 40
0.000130729610299
 40
0.000130729610299
 40
0.000130729610299
 40
0.0001749921170081
 40
0.0001749921170081
 40
0.0001749921170081
 40
0.0001749921170081
 10
14.61129088616725
 20
2.602539721909345
 30
0.0
 10
14.59754766256843
 20
2.607095940473922
 30
0.0
 10
14.58371080343871
 20
2.611081136900218
 30
0.0
 10
14.57002659111757
 20
2.614397184448968
 30
0.0
 10
14.55633947797432
 20
2.617713934943851
 30
0.0
 10
14.54271956220813
 20
2.620381408689013
 30
0.0
 10
14.52943303269461
 20
2.622309092491896
 30
0.0
 10
14.51642196944816
 20
2.624196810112437
 30
0.0
 10
14.50364563869269
 20
2.625386713397521
 30
0.0
 10
14.49137375316627
 20
2.625808245689566
 30
0.0
 10
14.47874050982799
 20
2.626242190417038
 30
0.0
 10
14.46654888013852
 20
2.625863324435489
 30
0.0
 10
14.45510926511116
 20
2.624624443011506
 30
0.0
  0
SPLINE
  5
505
330
1F
100
AcDbEntity
  8
외형선
  6
Continuous
 62
     1
370
    15
100
AcDbSpline
210
0.0
220
0.0
230
1.0
 70
     8
 71
     3
 72
     8
 73
     4
 74
     0
 42
0.000000001
 43
0.00000001
 40
0.0
 40
0.0
 40
0.0
 40
0.0
 40
1.0
 40
1.0
 40
1.0
 40
1.0
 10
15.19324230574746
 20
2.408160433931304
 30
0.0
 10
14.99937187257106
 20
2.47339833241112
 30
0.0
 10
14.80533426106724
 20
2.538209543425726
 30
0.0
 10
14.61129088616731
 20
2.602539721909327
 30
0.0
  0
SPLINE
  5
506
330
1F
100
AcDbEntity
  8
외형선
  6
Continuous
 62
     1
370
    15
100
AcDbSpline
210
0.0
220
0.0
230
1.0
 70
     8
 71
     3
 72
     8
 73
     4
 74
     0
 42
0.000000001
 43
0.00000001
 40
0.0
 40
0.0
 40
0.0
 40
0.0
 40
1.0
 40
1.0
 40
1.0
 40
1.0
 10
15.35006540755421
 20
2.328043250018649
 30
0.0
 10
15.30526522831762
 20
2.360885397294954
 30
0.0
 10
15.25013315491732
 20
2.389016517132013
 30
0.0
 10
15.19324230574742
 20
2.408160433931331
 30
0.0
  0
SPLINE
  5
507
330
1F
100
AcDbEntity
  8
외형선
  6
Continuous
 62
     1
370
    15
100
AcDbSpline
210
0.0
220
0.0
230
1.0
 70
     8
 71
     3
 72
    10
 73
     6
 74
     0
 42
0.000000001
 43
0.00000001
 40
0.0
 40
0.0
 40
0.0
 40
0.0
 40
0.5
 40
0.5
 40
1.0
 40
1.0
 40
1.0
 40
1.0
 10
15.97614957695946
 20
2.116528487396028
 30
0.0
 10
15.88336523662394
 20
2.113131200900877
 30
0.0
 10
15.7705267026566
 20
2.131657461738337
 30
0.0
 10
15.54556330583438
 20
2.207770758506561
 30
0.0
 10
15.43844192809222
 20
2.263256127450454
 30
0.0
 10
15.3500654075543
 20
2.328043250018633
 30
0.0
  0
SPLINE
  5
508
330
1F
100
AcDbEntity
  8
외형선
  6
Continuous
 62
     1
370
    15
100
AcDbSpline
210
0.0
220
0.0
230
1.0
 70
     8
 71
     3
 72
    17
 73
    13
 74
     0
 42
0.000000001
 43
0.00000001
 40
0.0
 40
0.0
 40
0.0
 40
0.0
 40
0.0000438680716584
 40
0.0000438680716584
 40
0.0000438680716584
 40
0.0000877521162988
 40
0.0000877521162988
 40
0.0000877521162988
 40
0.0001307741275492
 40
0.0001307741275492
 40
0.0001307741275492
 40
0.000175084509152
 40
0.000175084509152
 40
0.000175084509152
 40
0.000175084509152
 10
16.1323661110472
 20
2.088356694816934
 30
0.0
 10
16.11862927963372
 20
2.093090120369432
 30
0.0
 10
16.10479868187585
 20
2.097339098151336
 30
0.0
 10
16.09111985645126
 20
2.101003042122649
 30
0.0
 10
16.07743811974956
 20
2.104667765894545
 30
0.0
 10
16.06382292661311
 20
2.107769551336926
 30
0.0
 10
16.05053986486449
 20
2.110212298188319
 30
0.0
 10
16.03751856774204
 20
2.11260690668664
 30
0.0
 10
16.0247314073535
 20
2.114383185033084
 30
0.0
 10
16.01244861245769
 20
2.11546128827173
 30
0.0
 10
15.99980377254383
 20
2.116571169449337
 30
0.0
 10
15.98760029884761
 20
2.116947754081403
 30
0.0
 10
15.97614957695947
 20
2.116528487395996
 30
0.0
  0
SPLINE
  5
509
330
1F
100
AcDbEntity
  8
외형선
  6
Continuous
 62
     1
370
    15
100
AcDbSpline
210
0.0
220
0.0
230
1.0
 70
     8
 71
     3
 72
     8
 73
     4
 74
     0
 42
0.000000001
 43
0.00000001
 40
0.0
 40
0.0
 40
0.0
 40
0.0
 40
1.0
 40
1.0
 40
1.0
 40
1.0
 10
16.71444555022295
 20
1.886800738021135
 30
0.0
 10
16.52007076597539
 20
1.954390245234531
 30
0.0
 10
16.32618169947573
 20
2.021571886069847
 30
0.0
 10
16.13236611104277
 20
2.088356694818458
 30
0.0
  0
LWPOLYLINE
  5
50A
330
1F
100
AcDbEntity
  8
외형선
  6
Continuous
 62
     1
370
    15
100
AcDbPolyline
 90
        3
 70
   128
 43
0.0
 10
16.71444596350193
 20
1.88680074643343
 10
16.71474957466125
 20
1.886695274151855
 10
16.71498613059521
 20
1.886612502858036
  0
SPLINE
  5
50B
330
1F
100
AcDbEntity
  8
외형선
  6
Continuous
 62
     1
370
    15
100
AcDbSpline
210
0.0
220
0.0
230
1.0
 70
     8
 71
     3
 72
     8
 73
     4
 74
     0
 42
0.000000001
 43
0.00000001
 40
0.0
 40
0.0
 40
0.0
 40
0.0
 40
1.0
 40
1.0
 40
1.0
 40
1.0
 10
16.87129784402764
 20
1.80912008739328
 30
0.0
 10
16.82662683776982
 20
1.839655263015221
 30
0.0
 10
16.77168830689931
 20
1.866843535256081
 30
0.0
 10
16.71498683676944
 20
1.886612269179034
 30
0.0
  0
SPLINE
  5
50C
330
1F
100
AcDbEntity
  8
외형선
  6
Continuous
 62
     1
370
    15
100
AcDbSpline
210
0.0
220
0.0
230
1.0
 70
     8
 71
     3
 72
    10
 73
     6
 74
     0
 42
0.000000001
 43
0.00000001
 40
0.0
 40
0.0
 40
0.0
 40
0.0
 40
0.5
 40
0.5
 40
1.0
 40
1.0
 40
1.0
 40
1.0
 10
17.4974478868822
 20
1.591701025572492
 30
0.0
 10
17.40464941551124
 20
1.594790691809456
 30
0.0
 10
17.29178652792227
 20
1.617064096373896
 30
0.0
 10
17.06678605818924
 20
1.695062816198616
 30
0.0
 10
16.95967493838978
 20
1.748709312634102
 30
0.0
 10
16.87129784402774
 20
1.80912008739323
 30
0.0
  0
SPLINE
  5
50D
330
1F
100
AcDbEntity
  8
외형선
  6
Continuous
 62
     1
370
    15
100
AcDbSpline
210
0.0
220
0.0
230
1.0
 70
     8
 71
     3
 72
    17
 73
    13
 74
     0
 42
0.000000001
 43
0.00000001
 40
0.0
 40
0.0
 40
0.0
 40
0.0
 40
0.000043868252914
 40
0.000043868252914
 40
0.000043868252914
 40
0.0000877524221043
 40
0.0000877524221043
 40
0.0000877524221043
 40
0.0001307499144318
 40
0.0001307499144318
 40
0.0001307499144318
 40
0.0001750340734954
 40
0.0001750340734954
 40
0.0001750340734954
 40
0.0001750340734954
 10
17.65366965451018
 20
1.558030104958927
 30
0.0
 10
17.63992654629003
 20
1.562872593566025
 30
0.0
 10
17.62608989975185
 20
1.567320400015769
 30
0.0
 10
17.61240570672446
 20
1.571271688907023
 30
0.0
 10
17.59871861170589
 20
1.575223815743602
 30
0.0
 10
17.58509861192472
 20
1.578703449146252
 30
0.0
 10
17.57181163415719
 20
1.581610247511303
 30
0.0
 10
17.5587938981493
 20
1.584458143730171
 30
0.0
 10
17.54601082110631
 20
1.586774218581963
 30
0.0
 10
17.53373234524648
 20
1.588471047472821
 30
0.0
 10
17.52109220908588
 20
1.59021785615384
 30
0.0
 10
17.50889377372624
 20
1.591319942030815
 30
0.0
 10
17.4974478868822
 20
1.591701025572513
 30
0.0
  0
SPLINE
  5
50E
330
1F
100
AcDbEntity
  8
외형선
  6
Continuous
 62
     1
370
    15
100
AcDbSpline
210
0.0
220
0.0
230
1.0
 70
     8
 71
     3
 72
     8
 73
     4
 74
     0
 42
0.000000001
 43
0.00000001
 40
0.0
 40
0.0
 40
0.0
 40
0.0
 40
1.0
 40
1.0
 40
1.0
 40
1.0
 10
18.23576428193348
 20
1.352091363347
 30
0.0
 10
18.04179573796002
 20
1.420993059918832
 30
0.0
 10
17.84771034722908
 20
1.489658392479349
 30
0.0
 10
17.65366965450129
 20
1.558030104962047
 30
0.0
  0
SPLINE
  5
50F
330
1F
100
AcDbEntity
  8
외형선
  6
Continuous
 62
     1
370
    15
100
AcDbSpline
210
0.0
220
0.0
230
1.0
 70
     8
 71
     3
 72
     8
 73
     4
 74
     0
 42
0.000000001
 43
0.00000001
 40
0.0
 40
0.0
 40
0.0
 40
0.0
 40
1.0
 40
1.0
 40
1.0
 40
1.0
 10
18.39262139743364
 20
1.277562836308814
 30
0.0
 10
18.34780915676765
 20
1.305728420815816
 30
0.0
 10
18.29266544506508
 20
1.331878876330487
 30
0.0
 10
18.2357642819335
 20
1.352091363347007
 30
0.0
  0
SPLINE
  5
510
330
1F
100
AcDbEntity
  8
외형선
  6
Continuous
 62
     1
370
    15
100
AcDbSpline
210
0.0
220
0.0
230
1.0
 70
     8
 71
     3
 72
    10
 73
     6
 74
     0
 42
0.000000001
 43
0.00000001
 40
0.0
 40
0.0
 40
0.0
 40
0.0
 40
0.5
 40
0.5
 40
1.0
 40
1.0
 40
1.0
 40
1.0
 10
19.01878635754974
 20
1.05551185686492
 30
0.0
 10
18.92599133740359
 20
1.065223341127647
 30
0.0
 10
18.81313789487425
 20
1.091201068290868
 30
0.0
 10
18.58814534672369
 20
1.17060091118041
 30
0.0
 10
18.48101362373208
 20
1.22200616959074
 30
0.0
 10
18.39262139743374
 20
1.277562836308793
 30
0.0
  0
SPLINE
  5
511
330
1F
100
AcDbEntity
  8
외형선
  6
Continuous
 62
     1
370
    15
100
AcDbSpline
210
0.0
220
0.0
230
1.0
 70
     8
 71
     3
 72
    17
 73
    13
 74
     0
 42
0.000000001
 43
0.00000001
 40
0.0
 40
0.0
 40
0.0
 40
0.0
 40
0.0000438680868529
 40
0.0000438680868529
 40
0.0000438680868529
 40
0.0000877521360298
 40
0.0000877521360298
 40
0.0000877521360298
 40
0.0001307722930364
 40
0.0001307722930364
 40
0.0001307722930364
 40
0.0001750806532218
 40
0.0001750806532218
 40
0.0001750806532218
 40
0.0001750806532218
 10
19.17501225152191
 20
1.016275187559941
 30
0.0
 10
19.16127401451057
 20
1.021219029266911
 30
0.0
 10
19.14744205396744
 20
1.025860860648981
 30
0.0
 10
19.13376196360639
 20
1.030097949303483
 30
0.0
 10
19.12007896369805
 20
1.034335939122331
 30
0.0
 10
19.10646259050102
 20
1.038195076890245
 30
0.0
 10
19.09317847046569
 20
1.041571052442348
 30
0.0
 10
19.08015669364656
 20
1.044880357091014
 30
0.0
 10
19.06736914240479
 20
1.047746521574988
 30
0.0
 10
19.05508603464023
 20
1.050074405593364
 30
0.0
 10
19.04244090303391
 20
1.052470900058838
 30
0.0
 10
19.03023722323573
 20
1.05431346387217
 30
0.0
 10
19.01878635754976
 20
1.055511856864905
 30
0.0
  0
SPLINE
  5
512
330
1F
100
AcDbEntity
  8
외형선
  6
Continuous
 62
     1
370
    15
100
AcDbSpline
210
0.0
220
0.0
230
1.0
 70
     8
 71
     3
 72
     8
 73
     4
 74
     0
 42
0.000000001
 43
0.00000001
 40
0.0
 40
0.0
 40
0.0
 40
0.0
 40
1.0
 40
1.0
 40
1.0
 40
1.0
 10
19.75711345500743
 20
0.8061674481446985
 30
0.0
 10
19.56283594437534
 20
0.8763959909190344
 30
0.0
 10
19.36919022202106
 20
0.9463983068265733
 30
0.0
 10
19.17501225151781
 20
1.01627518756141
 30
0.0
  0
LWPOLYLINE
  5
513
330
1F
100
AcDbEntity
  8
외형선
  6
Continuous
 62
     1
370
    15
100
AcDbPolyline
 90
        3
 70
   128
 43
0.0
 10
19.75711406767368
 20
0.8061674307100404
 10
19.75741581618786
 20
0.8060578838922012
 10
19.75765423476696
 20
0.8059717365540493
  0
SPLINE
  5
514
330
1F
100
AcDbEntity
  8
외형선
  6
Continuous
 62
     1
370
    15
100
AcDbSpline
210
0.0
220
0.0
230
1.0
 70
     8
 71
     3
 72
     8
 73
     4
 74
     0
 42
0.000000001
 43
0.00000001
 40
0.0
 40
0.0
 40
0.0
 40
0.0
 40
1.0
 40
1.0
 40
1.0
 40
1.0
 10
19.91396330705787
 20
0.7351860636132201
 30
0.0
 10
19.86929277699423
 20
0.7606254369607903
 30
0.0
 10
19.81435498417926
 20
0.7854430285240515
 30
0.0
 10
19.75765478768862
 20
0.805971610064395
 30
0.0
  0
SPLINE
  5
515
330
1F
100
AcDbEntity
  8
외형선
  6
Continuous
 62
     1
370
    15
100
AcDbSpline
210
0.0
220
0.0
230
1.0
 70
     8
 71
     3
 72
    10
 73
     6
 74
     0
 42
0.000000001
 43
0.00000001
 40
0.0
 40
0.0
 40
0.0
 40
0.0
 40
0.5
 40
0.5
 40
1.0
 40
1.0
 40
1.0
 40
1.0
 10
20.54006766768443
 20
0.5104020368334865
 30
0.0
 10
20.44727472601399
 20
0.5265319327148958
 30
0.0
 10
20.33441567339456
 20
0.5559198036363444
 30
0.0
 10
20.10943253693327
 20
0.6360643854336487
 30
0.0
 10
20.00233212609807
 20
0.6848609974757807
 30
0.0
 10
19.91396330705797
 20
0.7351860636132113
 30
0.0
  0
SPLINE
  5
516
330
1F
100
AcDbEntity
  8
외형선
  6
Continuous
 62
     1
370
    15
100
AcDbSpline
210
0.0
220
0.0
230
1.0
 70
     8
 71
     3
 72
    17
 73
    13
 74
     0
 42
0.000000001
 43
0.00000001
 40
0.0
 40
0.0
 40
0.0
 40
0.0
 40
0.0000438683116999
 40
0.0000438683116999
 40
0.0000438683116999
 40
0.0000877525219425
 40
0.0000877525219425
 40
0.0000877525219425
 40
0.0001307429042015
 40
0.0001307429042015
 40
0.0001307429042015
 40
0.0001750194920413
 40
0.0001750194920413
 40
0.0001750194920413
 40
0.0001750194920413
 10
20.69627207167503
 20
0.4661786401449923
 30
0.0
 10
20.68252918525762
 20
0.4711610065948868
 30
0.0
 10
20.66869274623593
 20
0.4759366401676211
 30
0.0
 10
20.65500884641355
 20
0.480402977749403
 30
0.0
 10
20.64132204793336
 20
0.4848702614345903
 30
0.0
 10
20.6277024006601
 20
0.4890557260110029
 30
0.0
 10
20.61441589719877
 20
0.4928522267171207
 30
0.0
 10
20.60140077290927
 20
0.496571183228081
 30
0.0
 10
20.58862033517488
 20
0.4999407951842656
 30
0.0
 10
20.57634441213946
 20
0.5028596574214514
 30
0.0
 10
20.56370696915872
 20
0.5058644787277302
 30
0.0
 10
20.55151116822037
 20
0.5084128502763896
 30
0.0
 10
20.54006766768444
 20
0.5104020368334758
 30
0.0
  0
SPLINE
  5
517
330
1F
100
AcDbEntity
  8
외형선
  6
Continuous
 62
     1
370
    15
100
AcDbSpline
210
0.0
220
0.0
230
1.0
 70
     8
 71
     3
 72
     8
 73
     4
 74
     0
 42
0.000000001
 43
0.00000001
 40
0.0
 40
0.0
 40
0.0
 40
0.0
 40
1.0
 40
1.0
 40
1.0
 40
1.0
 10
21.27825970174925
 20
0.2549942437695538
 30
0.0
 10
21.08418625390757
 20
0.3254804552492452
 30
0.0
 10
20.89004632612878
 20
0.3959274929621852
 30
0.0
 10
20.69600160120396
 20
0.4662766968702208
 30
0.0
  0
LWPOLYLINE
  5
518
330
1F
100
AcDbEntity
  8
외형선
  6
Continuous
 62
     1
370
    15
100
AcDbPolyline
 90
        3
 70
   128
 43
0.0
 10
21.27825999259949
 20
0.2549942582845617
 10
21.27856174111366
 20
0.2548842167016048
 10
21.27880015969276
 20
0.2547977783251483
  0
SPLINE
  5
519
330
1F
100
AcDbEntity
  8
외형선
  6
Continuous
 62
     1
370
    15
100
AcDbSpline
210
0.0
220
0.0
230
1.0
 70
     8
 71
     3
 72
     8
 73
     4
 74
     0
 42
0.000000001
 43
0.00000001
 40
0.0
 40
0.0
 40
0.0
 40
0.0
 40
1.0
 40
1.0
 40
1.0
 40
1.0
 10
21.43507377347825
 20
0.188337739116303
 30
0.0
 10
21.39041936979164
 20
0.2108914959295092
 30
0.0
 10
21.33549330382489
 20
0.2341852409620753
 30
0.0
 10
21.27880065198491
 20
0.2547976690783109
 30
0.0
  0
SPLINE
  5
51A
330
1F
100
AcDbEntity
  8
외형선
  6
Continuous
 62
     1
370
    15
100
AcDbSpline
210
0.0
220
0.0
230
1.0
 70
     8
 71
     3
 72
    10
 73
     6
 74
     0
 42
0.000000001
 43
0.00000001
 40
0.0
 40
0.0
 40
0.0
 40
0.0
 40
0.5
 40
0.5
 40
1.0
 40
1.0
 40
1.0
 40
1.0
 10
22.06105025714911
 20
-0.0374340844652146
 30
0.0
 10
21.96828828267732
 20
-0.0149192209299009
 30
0.0
 10
21.85546690437418
 20
0.0177059881062096
 30
0.0
 10
21.63052760895788
 20
0.0979574487894528
 30
0.0
 10
21.5234305902722
 20
0.1437110507219455
 30
0.0
 10
21.43507377347835
 20
0.1883377391162995
 30
0.0
  0
SPLINE
  5
51B
330
1F
100
AcDbEntity
  8
외형선
  6
Continuous
 62
     1
370
    15
100
AcDbSpline
210
0.0
220
0.0
230
1.0
 70
     8
 71
     3
 72
    17
 73
    13
 74
     0
 42
0.000000001
 43
0.00000001
 40
0.0
 40
0.0
 40
0.0
 40
0.0
 40
0.0000438683150579
 40
0.0000438683150579
 40
0.0000438683150579
 40
0.0000877525569064
 40
0.0000877525569064
 40
0.0000877525569064
 40
0.0001307431161397
 40
0.0001307431161397
 40
0.0001307431161397
 40
0.0001750202026033
 40
0.0001750202026033
 40
0.0001750202026033
 40
0.0001750202026033
 10
22.21722792673035
 20
-0.0865275431483035
 30
0.0
 10
22.20348839353422
 20
-0.0815229424685651
 30
0.0
 10
22.18965506794098
 20
-0.0766288238323813
 30
0.0
 10
22.17597398894729
 20
-0.0719471050716969
 30
0.0
 10
22.16229000659322
 20
-0.0672643927697312
 30
0.0
 10
22.14867289181844
 20
-0.0627651381628347
 30
0.0
 10
22.13538863782718
 20
-0.0585588131318406
 30
0.0
 10
22.12237567516701
 20
-0.0544383897643836
 30
0.0
 10
22.10959712832054
 20
-0.0505724459931827
 30
0.0
 10
22.09732286074906
 20
-0.0470683599842339
 30
0.0
 10
22.08468703355851
 20
-0.0434610551074233
 30
0.0
 10
22.07249259823574
 20
-0.0402113296624691
 30
0.0
 10
22.06105025714912
 20
-0.0374340844652092
 30
0.0
  0
SPLINE
  5
51C
330
1F
100
AcDbEntity
  8
외형선
  6
Continuous
 62
     1
370
    15
100
AcDbSpline
210
0.0
220
0.0
230
1.0
 70
     8
 71
     3
 72
     8
 73
     4
 74
     0
 42
0.000000001
 43
0.00000001
 40
0.0
 40
0.0
 40
0.0
 40
0.0
 40
1.0
 40
1.0
 40
1.0
 40
1.0
 10
22.79909571996301
 20
-0.2986206105340194
 30
0.0
 10
22.60508679216353
 20
-0.2279370466243158
 30
0.0
 10
22.41132854217226
 20
-0.1572282899771231
 30
0.0
 10
22.2169574989571
 20
-0.0864290403511738
 30
0.0
  0
LWPOLYLINE
  5
51D
330
1F
100
AcDbEntity
  8
외형선
  6
Continuous
 62
     1
370
    15
100
AcDbPolyline
 90
        3
 70
   128
 43
0.0
 10
22.79909485578537
 20
-0.2986206091009151
 10
22.79939846694469
 20
-0.2987309708260071
 10
22.7996368855238
 20
-0.2988177002407681
  0
SPLINE
  5
51E
330
1F
100
AcDbEntity
  8
외형선
  6
Continuous
 62
     1
370
    15
100
AcDbSpline
210
0.0
220
0.0
230
1.0
 70
     8
 71
     3
 72
     8
 73
     4
 74
     0
 42
0.000000001
 43
0.00000001
 40
0.0
 40
0.0
 40
0.0
 40
0.0
 40
1.0
 40
1.0
 40
1.0
 40
1.0
 10
22.95586631206984
 20
-0.3607323501797044
 30
0.0
 10
22.91122389893169
 20
-0.3411669589633064
 30
0.0
 10
22.8563120081208
 20
-0.3194778638336722
 30
0.0
 10
22.79963664570501
 20
-0.2988177417178832
 30
0.0
  0
SPLINE
  5
51F
330
1F
100
AcDbEntity
  8
외형선
  6
Continuous
 62
     1
370
    15
100
AcDbSpline
210
0.0
220
0.0
230
1.0
 70
     8
 71
     3
 72
    10
 73
     6
 74
     0
 42
0.000000001
 43
0.00000001
 40
0.0
 40
0.0
 40
0.0
 40
0.0
 40
0.5
 40
0.5
 40
1.0
 40
1.0
 40
1.0
 40
1.0
 10
23.58165759669031
 20
-0.5859941788082761
 30
0.0
 10
23.48891354680786
 20
-0.5573281893384348
 30
0.0
 10
23.37610383942996
 20
-0.5217310206296535
 30
0.0
 10
23.15122215561368
 20
-0.4418936145630639
 30
0.0
 10
23.0441760477926
 20
-0.399435780531558
 30
0.0
 10
22.95586631206996
 20
-0.3607323501797044
 30
0.0
  0
SPLINE
  5
520
330
1F
100
AcDbEntity
  8
외형선
  6
Continuous
 62
     1
370
    15
100
AcDbSpline
210
0.0
220
0.0
230
1.0
 70
     8
 71
     3
 72
     8
 73
     4
 74
     0
 42
0.000000001
 43
0.00000001
 40
0.0
 40
0.0
 40
0.0
 40
0.0
 40
1.0
 40
1.0
 40
1.0
 40
1.0
 10
25.3250001430512
 20
-1.210191432499148
 30
0.0
 10
25.3024917193076
 20
-1.202145751168608
 30
0.0
 10
25.2799793159358
 20
-1.194096571875932
 30
0.0
 10
25.25746318501132
 20
-1.186043984039149
 30
0.0
  0
SPLINE
  5
521
330
1F
100
AcDbEntity
  8
외형선
  6
Continuous
 62
     1
370
    15
100
AcDbSpline
210
0.0
220
0.0
230
1.0
 70
     8
 71
     3
 72
     8
 73
     4
 74
     0
 42
0.000000001
 43
0.00000001
 40
0.0
 40
0.0
 40
0.0
 40
0.0
 40
1.0
 40
1.0
 40
1.0
 40
1.0
 10
25.45045795473584
 20
-1.249767640536394
 30
0.0
 10
25.40876558573346
 20
-1.236326270369739
 30
0.0
 10
25.36694386630933
 20
-1.223133702934462
 30
0.0
 10
25.32500014305117
 20
-1.210191432499139
 30
0.0
  0
SPLINE
  5
522
330
1F
100
AcDbEntity
  8
외형선
  6
Continuous
 62
     1
370
    15
100
AcDbSpline
210
0.0
220
0.0
230
1.0
 70
     8
 71
     3
 72
    13
 73
     9
 74
     0
 42
0.000000001
 43
0.00000001
 40
0.0
 40
0.0
 40
0.0
 40
0.0
 40
0.0772159829618993
 40
0.2727951565629718
 40
0.4751883415077905
 40
0.6540433834456885
 40
0.8378130120159208
 40
1.0
 40
1.0
 40
1.0
 40
1.0
 10
25.39465548098087
 20
-1.28884089644999
 30
0.0
 10
25.3851377850395
 20
-1.295505423338396
 30
0.0
 10
25.35151286368449
 20
-1.319050427704109
 30
0.0
 10
25.21645586458803
 20
-1.413616807211351
 30
0.0
 10
24.99067680186289
 20
-1.571709724297913
 30
0.0
 10
24.70034427429036
 20
-1.775003354644134
 30
0.0
 10
24.38605522636453
 20
-1.99506923194906
 30
0.0
 10
24.15191720111338
 20
-2.159015698618083
 30
0.0
 10
24.04215158522129
 20
-2.235874999314554
 30
0.0
  0
SPLINE
  5
523
330
1F
100
AcDbEntity
  8
외형선
  6
Continuous
 62
     1
370
    15
100
AcDbSpline
210
0.0
220
0.0
230
1.0
 70
     8
 71
     3
 72
     8
 73
     4
 74
     0
 42
0.000000001
 43
0.00000001
 40
0.0
 40
0.0
 40
0.0
 40
0.0
 40
1.0
 40
1.0
 40
1.0
 40
1.0
 10
25.87500014305115
 20
-3.206617734408498
 30
0.0
 10
25.26371458796781
 20
-2.889002575351448
 30
0.0
 10
24.65277024406026
 20
-2.565324610803952
 30
0.0
 10
24.04215072629282
 20
-2.235874978017478
 30
0.0
  0
LINE
  5
524
330
1F
100
AcDbEntity
  8
외형선
  6
Continuous
 62
     1
370
    15
100
AcDbLine
 10
25.875
 20
-5.629236344248064
 30
0.0
 11
25.875
 21
-3.206617664545782
 31
0.0
  0
SPLINE
  5
525
330
1F
100
AcDbEntity
  8
외형선
  6
Continuous
 62
     1
370
    15
100
AcDbSpline
210
0.0
220
0.0
230
1.0
 70
     8
 71
     3
 72
     8
 73
     4
 74
     0
 42
0.000000001
 43
0.00000001
 40
0.0
 40
0.0
 40
0.0
 40
0.0
 40
1.0
 40
1.0
 40
1.0
 40
1.0
 10
25.37576644173052
 20
-6.098384347983142
 30
0.0
 10
25.54132113839393
 20
-5.946564150314037
 30
0.0
 10
25.70763017044128
 20
-5.790270636865856
 30
0.0
 10
25.87500014305115
 20
-5.62923620695128
 30
0.0
  0
SPLINE
  5
526
330
1F
100
AcDbEntity
  8
외형선
  6
Continuous
 62
     1
370
    15
100
AcDbSpline
210
0.0
220
0.0
230
1.0
 70
     8
 71
     3
 72
    10
 73
     6
 74
     0
 42
0.000000001
 43
0.00000001
 40
0.0
 40
0.0
 40
0.0
 40
0.0
 40
0.5
 40
0.5
 40
1.0
 40
1.0
 40
1.0
 40
1.0
 10
24.74681497464604
 20
-6.034992309616591
 30
0.0
 10
24.83961625821844
 20
-5.972123573159529
 30
0.0
 10
24.95248319989973
 20
-5.946999926516233
 30
0.0
 10
25.17748270230385
 20
-5.971175277025702
 30
0.0
 10
25.28459172345453
 20
-6.018962453521436
 30
0.0
 10
25.37296951628966
 20
-6.095544580835448
 30
0.0
  0
SPLINE
  5
527
330
1F
100
AcDbEntity
  8
외형선
  6
Continuous
 62
     1
370
    15
100
AcDbSpline
210
0.0
220
0.0
230
1.0
 70
     8
 71
     3
 72
    17
 73
    13
 74
     0
 42
0.000000001
 43
0.00000001
 40
0.0
 40
0.0
 40
0.0
 40
0.0
 40
0.000043868260189
 40
0.000043868260189
 40
0.000043868260189
 40
0.000087752427673
 40
0.000087752427673
 40
0.000087752427673
 40
0.0001307493491786
 40
0.0001307493491786
 40
0.0001307493491786
 40
0.0001750328472669
 40
0.0001750328472669
 40
0.0001750328472669
 40
0.0001750328472669
 10
24.59059709486088
 20
-6.072038161937874
 30
0.0
 10
24.60433999143703
 20
-6.07350006193021
 30
0.0
 10
24.61817641585208
 20
-6.073860658731167
 30
0.0
 10
24.63186037022511
 20
-6.073078184149411
 30
0.0
 10
24.64554722485144
 20
-6.072295543725645
 30
0.0
 10
24.65916696868274
 20
-6.070363544406732
 30
0.0
 10
24.67245368427839
 20
-6.067271067975168
 30
0.0
 10
24.68547099309095
 20
-6.06424129583807
 30
0.0
 10
24.69825364062811
 20
-6.060076760760575
 30
0.0
 10
24.7105317141598
 20
-6.05480774659231
 30
0.0
 10
24.72317141616639
 20
-6.049383543130467
 30
0.0
 10
24.73536943996902
 20
-6.042746149604575
 30
0.0
 10
24.74681497464695
 20
-6.034992309619064
 30
0.0
  0
SPLINE
  5
528
330
1F
100
AcDbEntity
  8
외형선
  6
Continuous
 62
     1
370
    15
100
AcDbSpline
210
0.0
220
0.0
230
1.0
 70
     8
 71
     3
 72
     8
 73
     4
 74
     0
 42
0.000000001
 43
0.00000001
 40
0.0
 40
0.0
 40
0.0
 40
0.0
 40
1.0
 40
1.0
 40
1.0
 40
1.0
 10
24.59059709485977
 20
-6.072038161936238
 30
0.0
 10
24.39652449618298
 20
-6.051393698162126
 30
0.0
 10
24.20236089261789
 20
-6.029621466972429
 30
0.0
 10
24.00826802626317
 20
-6.006739488390661
 30
0.0
  0
SPLINE
  5
52A
330
1F
100
AcDbEntity
  8
외형선
  6
Continuous
 62
     1
370
    15
100
AcDbSpline
210
0.0
220
0.0
230
1.0
 70
     8
 71
     3
 72
    10
 73
     6
 74
     0
 42
0.000000001
 43
0.00000001
 40
0.0
 40
0.0
 40
0.0
 40
0.0
 40
0.5
 40
0.5
 40
1.0
 40
1.0
 40
1.0
 40
1.0
 10
22.79909571996299
 20
-0.2986206105340017
 30
0.0
 10
22.78147746933959
 20
0.1740749016634968
 30
0.0
 10
22.76305028728817
 20
0.6564565366225015
 30
0.0
 10
22.72593024492548
 20
1.603989858696121
 30
0.0
 10
22.70724942593819
 20
2.06882890812879
 30
0.0
 10
22.68915489714857
 20
2.507440362946912
 30
0.0
  0
SPLINE
  5
52B
330
1F
100
AcDbEntity
  8
외형선
  6
Continuous
 62
     1
370
    15
100
AcDbSpline
210
0.0
220
0.0
230
1.0
 70
     8
 71
     3
 72
    17
 73
    13
 74
     0
 42
0.000000001
 43
0.00000001
 40
0.0
 40
0.0
 40
0.0
 40
0.0
 40
0.000043868136956
 40
0.000043868136956
 40
0.000043868136956
 40
0.0000877522287671
 40
0.0000877522287671
 40
0.0000877522287671
 40
0.0001307665340483
 40
0.0001307665340483
 40
0.0001307665340483
 40
0.0001750687407198
 40
0.0001750687407198
 40
0.0001750687407198
 40
0.0001750687407198
 10
22.68915489714861
 20
2.507440362946085
 30
0.0
 10
22.70289148270874
 20
2.502834761378967
 30
0.0
 10
22.7167218759184
 20
2.497905186562544
 30
0.0
 10
22.73040042587274
 20
2.492740477991124
 30
0.0
 10
22.74408188369709
 20
2.487574671474306
 30
0.0
 10
22.7576967607994
 20
2.482141260842994
 30
0.0
 10
22.77097938948188
 20
2.476549120080875
 30
0.0
 10
22.78399793483649
 20
2.47106816146332
 30
0.0
 10
22.79678232969144
 20
2.465398806606878
 30
0.0
 10
22.80906245631772
 20
2.459664496896369
 30
0.0
 10
22.8217044872609
 20
2.453761192882958
 30
0.0
 10
22.83390522155887
 20
2.44774513225348
 30
0.0
 10
22.84535346112604
 20
2.441774150473048
 30
0.0
  0
SPLINE
  5
52C
330
1F
100
AcDbEntity
  8
외형선
  6
Continuous
 62
     1
370
    15
100
AcDbSpline
210
0.0
220
0.0
230
1.0
 70
     8
 71
     3
 72
    10
 73
     6
 74
     0
 42
0.000000001
 43
0.00000001
 40
0.0
 40
0.0
 40
0.0
 40
0.0
 40
0.5
 40
0.5
 40
1.0
 40
1.0
 40
1.0
 40
1.0
 10
22.95586631203876
 20
-0.3607323493480852
 30
0.0
 10
22.93821850415509
 20
0.1098658591756081
 30
0.0
 10
22.91972365809922
 20
0.5909906781731245
 30
0.0
 10
22.8824054859282
 20
1.537475923841406
 30
0.0
 10
22.86359450812442
 20
2.002516542278055
 30
0.0
 10
22.84535347785432
 20
2.441773747629043
 30
0.0
  0
SPLINE
  5
52D
330
1F
100
AcDbEntity
  8
외형선
  6
Continuous
 62
     1
370
    15
100
AcDbSpline
210
0.0
220
0.0
230
1.0
 70
     8
 71
     3
 72
    10
 73
     6
 74
     0
 42
0.000000001
 43
0.00000001
 40
0.0
 40
0.0
 40
0.0
 40
0.0
 40
0.5
 40
0.5
 40
1.0
 40
1.0
 40
1.0
 40
1.0
 10
22.84535346112544
 20
2.441774150472604
 30
0.0
 10
22.93813228118977
 20
2.393384121510907
 30
0.0
 10
23.05096655574663
 20
2.349544411546379
 30
0.0
 10
23.27592275413477
 20
2.275977142237659
 30
0.0
 10
23.38303721031383
 20
2.247587649873866
 30
0.0
 10
23.47141222900515
 20
2.231841243662981
 30
0.0
  0
SPLINE
  5
52E
330
1F
100
AcDbEntity
  8
외형선
  6
Continuous
 62
     1
370
    15
100
AcDbSpline
210
0.0
220
0.0
230
1.0
 70
     8
 71
     3
 72
    10
 73
     6
 74
     0
 42
0.000000001
 43
0.00000001
 40
0.0
 40
0.0
 40
0.0
 40
0.0
 40
0.5
 40
0.5
 40
1.0
 40
1.0
 40
1.0
 40
1.0
 10
22.21722588841733
 20
-0.086473262326983
 30
0.0
 10
22.19939011387854
 20
0.3884977416430022
 30
0.0
 10
22.18083969484231
 20
0.8704926234515913
 30
0.0
 10
22.14369194002329
 20
1.811673108676946
 30
0.0
 10
22.12510671666827
 20
2.270551107738497
 30
0.0
 10
22.10720558914085
 20
2.700973333796625
 30
0.0
  0
SPLINE
  5
52F
330
1F
100
AcDbEntity
  8
외형선
  6
Continuous
 62
     1
370
    15
100
AcDbSpline
210
0.0
220
0.0
230
1.0
 70
     8
 71
     3
 72
     8
 73
     4
 74
     0
 42
0.000000001
 43
0.00000001
 40
0.0
 40
0.0
 40
0.0
 40
0.0
 40
1.0
 40
1.0
 40
1.0
 40
1.0
 10
22.68915489714826
 20
2.507440362945811
 30
0.0
 10
22.49537426052549
 20
2.572411122950157
 30
0.0
 10
22.30135841517257
 20
2.636941728526487
 30
0.0
 10
22.1069371398993
 20
2.701013331607427
 30
0.0
  0
LINE
  5
533
330
1F
100
AcDbEntity
  8
외형선
  6
Continuous
 62
     1
370
    15
100
AcDbLine
 10
25.32500000298023
 20
-1.210191403515644
 30
0.0
 11
25.32500000298023
 21
1.601158757694058
 31
0.0
  0
SPLINE
  5
534
330
1F
100
AcDbEntity
  8
외형선
  6
Continuous
 62
     1
370
    15
100
AcDbSpline
210
0.0
220
0.0
230
1.0
 70
     8
 71
     3
 72
     8
 73
     4
 74
     0
 42
0.000000001
 43
0.00000001
 40
0.0
 40
0.0
 40
0.0
 40
0.0
 40
1.0
 40
1.0
 40
1.0
 40
1.0
 10
25.32500014305268
 20
1.601158780690781
 30
0.0
 10
25.26652210821064
 20
1.621764115882776
 30
0.0
 10
25.20801721050405
 20
1.642345597253472
 30
0.0
 10
25.1494898743473
 20
1.662901640272599
 30
0.0
  0
SPLINE
  5
538
330
1F
100
AcDbEntity
  8
외형선
  6
Continuous
 62
     1
370
    15
100
AcDbSpline
210
0.0
220
0.0
230
1.0
 70
     8
 71
     3
 72
    10
 73
     6
 74
     0
 42
0.000000001
 43
0.00000001
 40
0.0
 40
0.0
 40
0.0
 40
0.0
 40
0.5
 40
0.5
 40
1.0
 40
1.0
 40
1.0
 40
1.0
 10
20.69627000517467
 20
0.4662326242868886
 30
0.0
 10
20.67795665265716
 20
0.9446403307082356
 30
0.0
 10
20.65918689176752
 20
1.422926501083065
 30
0.0
 10
20.62217015323587
 20
2.342427687957381
 30
0.0
 10
20.60393495787262
 20
2.783361167270538
 30
0.0
 10
20.58662555827216
 20
3.190471991442912
 30
0.0
  0
SPLINE
  5
539
330
1F
100
AcDbEntity
  8
외형선
  6
Continuous
 62
     1
370
    15
100
AcDbSpline
210
0.0
220
0.0
230
1.0
 70
     8
 71
     3
 72
     8
 73
     4
 74
     0
 42
0.000000001
 43
0.00000001
 40
0.0
 40
0.0
 40
0.0
 40
0.0
 40
1.0
 40
1.0
 40
1.0
 40
1.0
 10
21.16837185904251
 20
3.005907395350135
 30
0.0
 10
20.9744382630481
 20
3.067997311952713
 30
0.0
 10
20.78046877051608
 20
3.129535322798503
 30
0.0
 10
20.58662463592016
 20
3.190470528676389
 30
0.0
  0
SPLINE
  5
53A
330
1F
100
AcDbEntity
  8
외형선
  6
Continuous
 62
     1
370
    15
100
AcDbSpline
210
0.0
220
0.0
230
1.0
 70
     8
 71
     3
 72
    10
 73
     6
 74
     0
 42
0.000000001
 43
0.00000001
 40
0.0
 40
0.0
 40
0.0
 40
0.0
 40
0.5
 40
0.5
 40
1.0
 40
1.0
 40
1.0
 40
1.0
 10
21.27825970174925
 20
0.2549942437696355
 30
0.0
 10
21.2601135330959
 20
0.7325171720296666
 30
0.0
 10
21.24141013502853
 20
1.212684264128219
 30
0.0
 10
21.2043085500349
 20
2.141348091344163
 30
0.0
 10
21.1859223595047
 20
2.589551144421435
 30
0.0
 10
21.16837185904276
 20
3.005907395351464
 30
0.0
  0
SPLINE
  5
540
330
1F
100
AcDbEntity
  8
외형선
  6
Continuous
 62
     1
370
    15
100
AcDbSpline
210
0.0
220
0.0
230
1.0
 70
     8
 71
     3
 72
    10
 73
     6
 74
     0
 42
0.000000001
 43
0.00000001
 40
0.0
 40
0.0
 40
0.0
 40
0.0
 40
0.5
 40
0.5
 40
1.0
 40
1.0
 40
1.0
 40
1.0
 10
22.06105024616241
 20
-0.0374337948383747
 30
0.0
 10
22.04306422468372
 20
0.4367063226696128
 30
0.0
 10
22.02437752916423
 20
0.9172720027592369
 30
0.0
 10
21.98701587511523
 20
1.854033881775004
 30
0.0
 10
21.96835337837287
 20
2.30991813486639
 30
0.0
 10
21.95041276331787
 20
2.73658886110427
 30
0.0
  0
SPLINE
  5
541
330
1F
100
AcDbEntity
  8
외형선
  6
Continuous
 62
     1
370
    15
100
AcDbSpline
210
0.0
220
0.0
230
1.0
 70
     8
 71
     3
 72
     8
 73
     4
 74
     0
 42
0.000000001
 43
0.00000001
 40
0.0
 40
0.0
 40
0.0
 40
0.0
 40
1.0
 40
1.0
 40
1.0
 40
1.0
 10
21.95041276328598
 20
2.736588861867705
 30
0.0
 10
21.99520454586276
 20
2.732116400969502
 30
0.0
 10
22.05032857199599
 20
2.719668860161676
 30
0.0
 10
22.10720763300785
 20
2.700924190137414
 30
0.0
  0
SPLINE
  5
549
330
1F
100
AcDbEntity
  8
외형선
  6
Continuous
 62
     1
370
    15
100
AcDbSpline
210
0.0
220
0.0
230
1.0
 70
     8
 71
     3
 72
    17
 73
    13
 74
     0
 42
0.000000001
 43
0.00000001
 40
0.0
 40
0.0
 40
0.0
 40
0.0
 40
0.0000438685214115
 40
0.0000438685214115
 40
0.0000438685214115
 40
0.000087752917606
 40
0.000087752917606
 40
0.000087752917606
 40
0.0001307161838439
 40
0.0001307161838439
 40
0.0001307161838439
 40
0.0001749642081409
 40
0.0001749642081409
 40
0.0001749642081409
 40
0.0001749642081409
 10
21.16837185904281
 20
3.005907395350569
 30
0.0
 10
21.18211507546431
 20
3.001507357507268
 30
0.0
 10
21.19595196801984
 20
2.996690265575463
 30
0.0
 10
21.20963605032674
 20
2.991540159510834
 30
0.0
 10
21.22332302712479
 20
2.986388964082956
 30
0.0
 10
21.23694270374627
 20
2.980872176705052
 30
0.0
 10
21.25022874949877
 20
2.975096354118708
 30
0.0
 10
21.26323522561582
 20
2.969442068417379
 30
0.0
 10
21.27600690969737
 20
2.963502399981067
 30
0.0
 10
21.28827428838478
 20
2.957401449132451
 30
0.0
 10
21.30090277316846
 20
2.951120908935486
 30
0.0
 10
21.31308973347562
 20
2.944622588470828
 30
0.0
 10
21.32452510440081
 20
2.938070099935207
 30
0.0
  0
SPLINE
  5
54A
330
1F
100
AcDbEntity
  8
외형선
  6
Continuous
 62
     1
370
    15
100
AcDbSpline
210
0.0
220
0.0
230
1.0
 70
     8
 71
     3
 72
    10
 73
     6
 74
     0
 42
0.000000001
 43
0.00000001
 40
0.0
 40
0.0
 40
0.0
 40
0.0
 40
0.5
 40
0.5
 40
1.0
 40
1.0
 40
1.0
 40
1.0
 10
21.43507377347369
 20
0.1883377392384027
 30
0.0
 10
21.41687837632881
 20
0.6642079859126824
 30
0.0
 10
21.3980883692487
 20
1.143575748330617
 30
0.0
 10
21.36075768966556
 20
2.072012902893571
 30
0.0
 10
21.34222939932138
 20
2.520779823203341
 30
0.0
 10
21.32452510750467
 20
2.93807002679165
 30
0.0
  0
SPLINE
  5
54D
330
1F
100
AcDbEntity
  8
외형선
  6
Continuous
 62
     1
370
    15
100
AcDbSpline
210
0.0
220
0.0
230
1.0
 70
     8
 71
     3
 72
    10
 73
     6
 74
     0
 42
0.000000001
 43
0.00000001
 40
0.0
 40
0.0
 40
0.0
 40
0.0
 40
0.5
 40
0.5
 40
1.0
 40
1.0
 40
1.0
 40
1.0
 10
20.54006760378421
 20
0.510403689328923
 30
0.0
 10
20.5216114032615
 20
0.987691292014123
 30
0.0
 10
20.5027172354886
 20
1.464212278227373
 30
0.0
 10
20.46551679040091
 20
2.37862102362978
 30
0.0
 10
20.44722255820909
 20
2.816225319301218
 30
0.0
 10
20.42989232647567
 20
3.21931066452877
 30
0.0
  0
SPLINE
  5
54E
330
1F
100
AcDbEntity
  8
외형선
  6
Continuous
 62
     1
370
    15
100
AcDbSpline
210
0.0
220
0.0
230
1.0
 70
     8
 71
     3
 72
     8
 73
     4
 74
     0
 42
0.000000001
 43
0.00000001
 40
0.0
 40
0.0
 40
0.0
 40
0.0
 40
1.0
 40
1.0
 40
1.0
 40
1.0
 10
20.42989232644862
 20
3.219310665162407
 30
0.0
 10
20.4746592386596
 20
3.218391549323648
 30
0.0
 10
20.52976254100639
 20
3.208345217418525
 30
0.0
 10
20.58662563380224
 20
3.19047021499199
 30
0.0
  0
SPLINE
  5
54F
330
1F
100
AcDbEntity
  8
외형선
  6
Continuous
 62
     1
370
    15
100
AcDbSpline
210
0.0
220
0.0
230
1.0
 70
     8
 71
     3
 72
    10
 73
     6
 74
     0
 42
0.000000001
 43
0.00000001
 40
0.0
 40
0.0
 40
0.0
 40
0.0
 40
0.5
 40
0.5
 40
1.0
 40
1.0
 40
1.0
 40
1.0
 10
19.17501225995272
 20
1.016274971490311
 30
0.0
 10
19.15635303494557
 20
1.494484477416881
 30
0.0
 10
19.13751203109814
 20
1.9651778107699
 30
0.0
 10
19.10091730029885
 20
2.855747266775705
 30
0.0
 10
19.0832290425902
 20
3.274978665220949
 30
0.0
 10
19.06657735410083
 20
3.656501279288698
 30
0.0
  0
SPLINE
  5
550
330
1F
100
AcDbEntity
  8
외형선
  6
Continuous
 62
     1
370
    15
100
AcDbSpline
210
0.0
220
0.0
230
1.0
 70
     8
 71
     3
 72
     8
 73
     4
 74
     0
 42
0.000000001
 43
0.00000001
 40
0.0
 40
0.0
 40
0.0
 40
0.0
 40
1.0
 40
1.0
 40
1.0
 40
1.0
 10
19.64811379289719
 20
3.48108258770532
 30
0.0
 10
19.45417134705377
 20
3.540223338914743
 30
0.0
 10
19.26069574457799
 20
3.598669927758223
 30
0.0
 10
19.06657738613629
 20
3.656500544026763
 30
0.0
  0
SPLINE
  5
551
330
1F
100
AcDbEntity
  8
외형선
  6
Continuous
 62
     1
370
    15
100
AcDbSpline
210
0.0
220
0.0
230
1.0
 70
     8
 71
     3
 72
    10
 73
     6
 74
     0
 42
0.000000001
 43
0.00000001
 40
0.0
 40
0.0
 40
0.0
 40
0.0
 40
0.5000000000000001
 40
0.5000000000000001
 40
1.0
 40
1.0
 40
1.0
 40
1.0
 10
19.75711345500744
 20
0.8061674481447572
 30
0.0
 10
19.73857012679196
 20
1.284904770826834
 30
0.0
 10
19.71973803304178
 20
1.758982484895135
 30
0.0
 10
19.6829460784415
 20
2.661509182066759
 30
0.0
 10
19.66499743151999
 20
3.089701618414082
 30
0.0
 10
19.64811379289739
 20
3.481082587706609
 30
0.0
  0
SPLINE
  5
552
330
1F
100
AcDbEntity
  8
외형선
  6
Continuous
 62
     1
370
    15
100
AcDbSpline
210
0.0
220
0.0
230
1.0
 70
     8
 71
     3
 72
     8
 73
     4
 74
     0
 42
0.000000001
 43
0.00000001
 40
0.0
 40
0.0
 40
0.0
 40
0.0
 40
1.0
 40
1.0
 40
1.0
 40
1.0
 10
25.32500014305117
 20
1.601158780691694
 30
0.0
 10
25.50732123292556
 20
1.516409096543297
 30
0.0
 10
25.69051479589189
 20
1.447721871404537
 30
0.0
 10
25.87500014305115
 20
1.397032471472579
 30
0.0
  0
LINE
  5
553
330
1F
100
AcDbEntity
  8
외형선
  6
Continuous
 62
     1
370
    15
100
AcDbLine
 10
25.875
 20
1.397032523527734
 30
0.0
 11
25.875
 21
-0.9524999768473279
 31
0.0
  0
SPLINE
  5
554
330
1F
100
AcDbEntity
  8
외형선
  6
Continuous
 62
     1
370
    15
100
AcDbSpline
210
0.0
220
0.0
230
1.0
 70
    24
 71
     3
 72
     8
 73
     4
 74
     0
 42
0.000000001
 43
0.00000001
 40
0.000000302994245
 40
0.000000302994245
 40
0.000000302994245
 40
0.000000302994245
 40
0.0006409124934347
 40
0.0006409124934347
 40
0.0006409124934347
 40
0.0006409124934347
 10
25.87500014305115
 20
-0.9525000000000254
 30
0.0
 10
25.73405228218756
 20
-1.051192754671241
 30
0.0
 10
25.59250347590546
 20
-1.150306295854563
 30
0.0
 10
25.45045795473817
 20
-1.24976764054483
 30
0.0
  0
SPLINE
  5
558
330
1F
100
AcDbEntity
  8
외형선
  6
Continuous
 62
     1
370
    15
100
AcDbSpline
210
0.0
220
0.0
230
1.0
 70
     8
 71
     3
 72
    10
 73
     6
 74
     0
 42
0.000000001
 43
0.00000001
 40
0.0
 40
0.0
 40
0.0
 40
0.0
 40
0.5
 40
0.5
 40
1.0
 40
1.0
 40
1.0
 40
1.0
 10
21.32452510440147
 20
2.938070099933839
 30
0.0
 10
21.41727837343981
 20
2.88492230647816
 30
0.0
 10
21.53009803623289
 20
2.839553845069947
 30
0.0
 10
21.75501431582386
 20
2.769200965268681
 30
0.0
 10
21.86208219032707
 20
2.745408672353932
 30
0.0
 10
21.95041276328578
 20
2.736588861867645
 30
0.0
  0
SPLINE
  5
559
330
1F
100
AcDbEntity
  8
외형선
  6
Continuous
 62
     1
370
    15
100
AcDbSpline
210
0.0
220
0.0
230
1.0
 70
     8
 71
     3
 72
    17
 73
    13
 74
     0
 42
0.000000001
 43
0.00000001
 40
0.0
 40
0.0
 40
0.0
 40
0.0
 40
0.0000438685356122
 40
0.0000438685356122
 40
0.0000438685356122
 40
0.0000877529709682
 40
0.0000877529709682
 40
0.0000877529709682
 40
0.0001307154397362
 40
0.0001307154397362
 40
0.0001307154397362
 40
0.0001749629263358
 40
0.0001749629263358
 40
0.0001749629263358
 40
0.0001749629263358
 10
19.64811379289742
 20
3.481082587705899
 30
0.0
 10
19.66185194778794
 20
3.476893278878102
 30
0.0
 10
19.67568406064468
 20
3.472198193305324
 30
0.0
 10
19.68936371525808
 20
3.467076100055365
 30
0.0
 10
19.70304626812384
 20
3.461952921608496
 30
0.0
 10
19.71666185965005
 20
3.456370210177841
 30
0.0
 10
19.72994418420193
 20
3.450431505297821
 30
0.0
 10
19.74294676483997
 20
3.444617877661592
 30
0.0
 10
19.75571490549595
 20
3.438424820809811
 30
0.0
 10
19.76797910985252
 20
3.431976699574555
 30
0.0
 10
19.78060440710311
 20
3.425338727396664
 30
0.0
 10
19.79278855839671
 20
3.418380718778117
 30
0.0
 10
19.80422152502067
 20
3.411271598163367
 30
0.0
  0
SPLINE
  5
55A
330
1F
100
AcDbEntity
  8
외형선
  6
Continuous
 62
     1
370
    15
100
AcDbSpline
210
0.0
220
0.0
230
1.0
 70
     8
 71
     3
 72
    10
 73
     6
 74
     0
 42
0.000000001
 43
0.00000001
 40
0.0
 40
0.0
 40
0.0
 40
0.0
 40
0.5
 40
0.5
 40
1.0
 40
1.0
 40
1.0
 40
1.0
 10
19.91396327159367
 20
0.7351869735586849
 30
0.0
 10
19.89535178673219
 20
1.212721921609862
 30
0.0
 10
19.87641535021679
 20
1.686455143676922
 30
0.0
 10
19.83936612999909
 20
2.589563849418255
 30
0.0
 10
19.82126500076252
 20
3.018672889452102
 30
0.0
 10
19.80422156262718
 20
3.411270731878613
 30
0.0
  0
SPLINE
  5
561
330
1F
100
AcDbEntity
  8
외형선
  6
Continuous
 62
     1
370
    15
100
AcDbSpline
210
0.0
220
0.0
230
1.0
 70
     8
 71
     3
 72
    10
 73
     6
 74
     0
 42
0.000000001
 43
0.00000001
 40
0.0
 40
0.0
 40
0.0
 40
0.0
 40
0.5
 40
0.5
 40
1.0
 40
1.0
 40
1.0
 40
1.0
 10
19.8042215250201
 20
3.411271598162482
 30
0.0
 10
19.89693398896634
 20
3.353622161199532
 30
0.0
 10
20.00970105760628
 20
3.306935091053262
 30
0.0
 10
20.23454394270577
 20
3.240168032526096
 30
0.0
 10
20.34159065058179
 20
3.221123599422604
 30
0.0
 10
20.42989232644842
 20
3.219310665162336
 30
0.0
  0
SPLINE
  5
562
330
1F
100
AcDbEntity
  8
외형선
  6
Continuous
 62
     1
370
    15
100
AcDbSpline
210
0.0
220
0.0
230
1.0
 70
     8
 71
     3
 72
    10
 73
     6
 74
     0
 42
0.000000001
 43
0.00000001
 40
0.0
 40
0.0
 40
0.0
 40
0.0
 40
0.5
 40
0.5
 40
1.0
 40
1.0
 40
1.0
 40
1.0
 10
19.01878633043951
 20
1.055512544662516
 30
0.0
 10
18.99999508846894
 20
1.532254222178167
 30
0.0
 10
18.9810452050565
 20
2.000790193312676
 30
0.0
 10
18.94430332923369
 20
2.885511040510707
 30
0.0
 10
18.92676516306481
 20
3.299688350572389
 30
0.0
 10
18.90990254321527
 20
3.678431838677561
 30
0.0
  0
SPLINE
  5
563
330
1F
100
AcDbEntity
  8
외형선
  6
Continuous
 62
     1
370
    15
100
AcDbSpline
210
0.0
220
0.0
230
1.0
 70
     8
 71
     3
 72
     8
 73
     4
 74
     0
 42
0.000000001
 43
0.00000001
 40
0.0
 40
0.0
 40
0.0
 40
0.0
 40
1.0
 40
1.0
 40
1.0
 40
1.0
 10
18.90990254321535
 20
3.678431838679987
 30
0.0
 10
18.95465222886398
 20
3.681048296404175
 30
0.0
 10
19.00973594975821
 20
3.673434415310453
 30
0.0
 10
19.06657738619177
 20
3.656500544011919
 30
0.0
  0
SPLINE
  5
566
330
1F
100
AcDbEntity
  8
외형선
  6
Continuous
 62
     1
370
    15
100
AcDbSpline
210
0.0
220
0.0
230
1.0
 70
     8
 71
     3
 72
    17
 73
    13
 74
     0
 42
0.000000001
 43
0.00000001
 40
0.0
 40
0.0
 40
0.0
 40
0.0
 40
0.0000438687501644
 40
0.0000438687501644
 40
0.0000438687501644
 40
0.0000877533607478
 40
0.0000877533607478
 40
0.0000877533607478
 40
0.0001306871921188
 40
0.0001306871921188
 40
0.0001306871921188
 40
0.0001749043248058
 40
0.0001749043248058
 40
0.0001749043248058
 40
0.0001749043248058
 10
24.87779443380157
 20
6.262576570520331
 30
0.0
 10
24.86405209577802
 20
6.263403026134029
 30
0.0
 10
24.85021586443123
 20
6.263108527280806
 30
0.0
 10
24.83653263483515
 20
6.261664086787146
 30
0.0
 10
24.82284651334045
 20
6.260219341016477
 30
0.0
 10
24.80922775431947
 20
6.257614201545302
 30
0.0
 10
24.79594305602862
 20
6.253852629764499
 30
0.0
 10
24.78294680347886
 20
6.250172731600681
 30
0.0
 10
24.77018536153616
 20
6.245360988742732
 30
0.0
 10
24.75792791266417
 20
6.239463758050825
 30
0.0
 10
24.74530979412195
 20
6.23339300411839
 30
0.0
 10
24.73313298244869
 20
6.226124582809295
 30
0.0
 10
24.72170691043017
 20
6.217774141327805
 30
0.0
  0
SPLINE
  5
567
330
1F
100
AcDbEntity
  8
외형선
  6
Continuous
 62
     1
370
    15
100
AcDbSpline
210
0.0
220
0.0
230
1.0
 70
     8
 71
     3
 72
     8
 73
     4
 74
     0
 42
0.000000001
 43
0.00000001
 40
0.0
 40
0.0
 40
0.0
 40
0.0
 40
1.0
 40
1.0
 40
1.0
 40
1.0
 10
25.3250001430512
 20
6.233613454225836
 30
0.0
 10
25.17599156547527
 20
6.24395399423906
 30
0.0
 10
25.02680853784855
 20
6.253615787704067
 30
0.0
 10
24.87752440367234
 20
6.262592809210055
 30
0.0
  0
SPLINE
  5
568
330
1F
100
AcDbEntity
  8
외형선
  6
Continuous
 62
     1
370
    15
100
AcDbSpline
210
0.0
220
0.0
230
1.0
 70
     8
 71
     3
 72
     8
 73
     4
 74
     0
 42
0.000000001
 43
0.00000001
 40
0.0
 40
0.0
 40
0.0
 40
0.0
 40
1.0
 40
1.0
 40
1.0
 40
1.0
 10
25.45045795475224
 20
6.097787000098318
 30
0.0
 10
25.40876558574443
 20
6.143100898287262
 30
0.0
 10
25.36694386631483
 20
6.18837400048125
 30
0.0
 10
25.32500014305117
 20
6.233613454225857
 30
0.0
  0
SPLINE
  5
569
330
1F
100
AcDbEntity
  8
외형선
  6
Continuous
 62
     1
370
    15
100
AcDbSpline
210
0.0
220
0.0
230
1.0
 70
     8
 71
     3
 72
    18
 73
    14
 74
     0
 42
0.000000001
 43
0.00000001
 40
0.0
 40
0.0
 40
0.0
 40
0.0
 40
0.2500000000000007
 40
0.2500000000000007
 40
0.3750000000000004
 40
0.3750000000000004
 40
0.5000000000000001
 40
0.5000000000000001
 40
0.6249999999999999
 40
0.6249999999999999
 40
0.7499999999999999
 40
0.7499999999999999
 40
1.0
 40
1.0
 40
1.0
 40
1.0
 10
25.45045795474586
 20
6.097787000098666
 30
0.0
 10
25.4583014149397
 20
5.792438984789147
 30
0.0
 10
25.43705164537454
 20
5.490286444489907
 30
0.0
 10
25.35295962975621
 20
5.042792964027832
 30
0.0
 10
25.31619531860539
 20
4.895751081808292
 30
0.0
 10
25.2265683677463
 20
4.613210223408526
 30
0.0
 10
25.17352512207825
 20
4.476642902895072
 30
0.0
 10
25.05056220935307
 20
4.213152716297721
 30
0.0
 10
24.97992153450357
 20
4.085191530708865
 30
0.0
 10
24.82473082936028
 20
3.845280152537391
 30
0.0
 10
24.7405355481727
 20
3.733462893739691
 30
0.0
 10
24.46942898206923
 20
3.420849183945908
 30
0.0
 10
24.26170813719168
 20
3.241926662571785
 30
0.0
 10
24.04215072629282
 20
3.098341277540019
 30
0.0
  0
SPLINE
  5
56A
330
1F
100
AcDbEntity
  8
외형선
  6
Continuous
 62
     1
370
    15
100
AcDbSpline
210
0.0
220
0.0
230
1.0
 70
     8
 71
     3
 72
     8
 73
     4
 74
     0
 42
0.000000001
 43
0.00000001
 40
0.0
 40
0.0
 40
0.0
 40
0.0
 40
1.0
 40
1.0
 40
1.0
 40
1.0
 10
25.87500014305115
 20
2.254117734408466
 30
0.0
 10
25.26371458796781
 20
2.541823815447316
 30
0.0
 10
24.65277024406026
 20
2.823129209018425
 30
0.0
 10
24.04215072629282
 20
3.098341277540019
 30
0.0
  0
LINE
  5
56B
330
1F
100
AcDbEntity
  8
외형선
  6
Continuous
 62
     1
370
    15
100
AcDbLine
 10
25.875
 20
1.408956595696502
 30
0.0
 11
25.875
 21
2.254117745906107
 31
0.0
  0
SPLINE
  5
56C
330
1F
100
AcDbEntity
  8
외형선
  6
Continuous
 62
     1
370
    15
100
AcDbSpline
210
0.0
220
0.0
230
1.0
 70
     8
 71
     3
 72
    10
 73
     6
 74
     0
 42
0.000000001
 43
0.00000001
 40
0.0
 40
0.0
 40
0.0
 40
0.0
 40
0.5
 40
0.5
 40
1.0
 40
1.0
 40
1.0
 40
1.0
 10
18.28431220624047
 20
3.859213205992578
 30
0.0
 10
18.37702287187369
 20
3.797603687720326
 30
0.0
 10
18.4897907334753
 20
3.750040100850779
 30
0.0
 10
18.71461636929482
 20
3.687438213364395
 30
0.0
 10
18.82163586878042
 20
3.673270997463455
 30
0.0
 10
18.90990254321517
 20
3.678431838679902
 30
0.0
  0
SPLINE
  5
56D
330
1F
100
AcDbEntity
  8
외형선
  6
Continuous
 62
     1
370
    15
100
AcDbSpline
210
0.0
220
0.0
230
1.0
 70
     8
 71
     3
 72
    17
 73
    13
 74
     0
 42
0.000000001
 43
0.00000001
 40
0.0
 40
0.0
 40
0.0
 40
0.0
 40
0.000043868649001
 40
0.000043868649001
 40
0.000043868649001
 40
0.0000877531748915
 40
0.0000877531748915
 40
0.0000877531748915
 40
0.0001306984760643
 40
0.0001306984760643
 40
0.0001306984760643
 40
0.0001749276253819
 40
0.0001749276253819
 40
0.0001749276253819
 40
0.0001749276253819
 10
18.12819801929473
 20
3.930233473509439
 30
0.0
 10
18.14194106159519
 20
3.926309600014129
 30
0.0
 10
18.15577783091206
 20
3.921794112100685
 30
0.0
 10
18.16946160523014
 20
3.916759611136847
 30
0.0
 10
18.18314827459275
 20
3.911724045035271
 30
0.0
 10
18.19676753382721
 20
3.906137352458366
 30
0.0
 10
18.21005283503942
 20
3.900099050175513
 30
0.0
 10
18.22305314714137
 20
3.894190278293777
 30
0.0
 10
18.23581859176687
 20
3.887810088597085
 30
0.0
 10
18.24807986940857
 20
3.881081866639569
 30
0.0
 10
18.26070198004395
 20
3.874155642113173
 30
0.0
 10
18.2728826417128
 20
3.866808556106118
 30
0.0
 10
18.28431220624101
 20
3.859213205993679
 30
0.0
  0
SPLINE
  5
56E
330
1F
100
AcDbEntity
  8
외형선
  6
Continuous
 62
     1
370
    15
100
AcDbSpline
210
0.0
220
0.0
230
1.0
 70
     8
 71
     3
 72
     8
 73
     4
 74
     0
 42
0.000000001
 43
0.00000001
 40
0.0
 40
0.0
 40
0.0
 40
0.0
 40
1.0
 40
1.0
 40
1.0
 40
1.0
 10
18.12819801929454
 20
3.930233473508721
 30
0.0
 10
17.93424895092505
 20
3.98560924782246
 30
0.0
 10
17.74021293469569
 20
4.040266363012144
 30
0.0
 10
17.54625139433732
 20
4.094159300594427
 30
0.0
  0
SPLINE
  5
56F
330
1F
100
AcDbEntity
  8
외형선
  6
Continuous
 62
     1
370
    15
100
AcDbSpline
210
0.0
220
0.0
230
1.0
 70
     8
 71
     3
 72
     8
 73
     4
 74
     0
 42
0.000000001
 43
0.00000001
 40
0.0
 40
0.0
 40
0.0
 40
0.0
 40
1.0
 40
1.0
 40
1.0
 40
1.0
 10
17.38977697833434
 20
4.108812258904429
 30
0.0
 10
17.43454883671838
 20
4.114965312988279
 30
0.0
 10
17.48965539275744
 20
4.10988491271943
 30
0.0
 10
17.54652165762327
 20
4.094084206453122
 30
0.0
  0
SPLINE
  5
570
330
1F
100
AcDbEntity
  8
외형선
  6
Continuous
 62
     1
370
    15
100
AcDbSpline
210
0.0
220
0.0
230
1.0
 70
     8
 71
     3
 72
    10
 73
     6
 74
     0
 42
0.000000001
 43
0.00000001
 40
0.0
 40
0.0
 40
0.0
 40
0.0
 40
0.5
 40
0.5
 40
1.0
 40
1.0
 40
1.0
 40
1.0
 10
16.76394520667911
 20
4.277208433742256
 30
0.0
 10
16.85668620186276
 20
4.21200424831666
 30
0.0
 10
16.96948167399114
 20
4.16385409471399
 30
0.0
 10
17.19437448903719
 20
4.105841167111603
 30
0.0
 10
17.30145222421739
 20
4.09667367434152
 30
0.0
 10
17.38977697833414
 20
4.108812258904344
 30
0.0
  0
SPLINE
  5
571
330
1F
100
AcDbEntity
  8
외형선
  6
Continuous
 62
     1
370
    15
100
AcDbSpline
210
0.0
220
0.0
230
1.0
 70
     8
 71
     3
 72
    17
 73
    13
 74
     0
 42
0.000000001
 43
0.00000001
 40
0.0
 40
0.0
 40
0.0
 40
0.0
 40
0.0000438683420855
 40
0.0000438683420855
 40
0.0000438683420855
 40
0.0000877526255242
 40
0.0000877526255242
 40
0.0000877526255242
 40
0.0001307385113241
 40
0.0001307385113241
 40
0.0001307385113241
 40
0.0001750107633742
 40
0.0001750107633742
 40
0.0001750107633742
 40
0.0001750107633742
 10
16.60777866426744
 20
4.349108265889956
 30
0.0
 10
16.62151802529284
 20
4.345461021166344
 30
0.0
 10
16.63535120101331
 20
4.341142619623572
 30
0.0
 10
16.64903210126381
 20
4.336218874092296
 30
0.0
 10
16.66271590765156
 20
4.331294082644462
 30
0.0
 10
16.67633283560266
 20
4.325732477629899
 30
0.0
 10
16.68961682569109
 20
4.319628549846712
 30
0.0
 10
16.70262811282926
 20
4.313649927721201
 30
0.0
 10
16.71540497432105
 20
4.307111493038079
 30
0.0
 10
16.72767758577376
 20
4.3001349099133
 30
0.0
 10
16.74031170496586
 20
4.292952821317733
 30
0.0
 10
16.75250444694731
 20
4.285252184163948
 30
0.0
 10
16.76394520667967
 20
4.277208433743581
 30
0.0
  0
SPLINE
  5
572
330
1F
100
AcDbEntity
  8
외형선
  6
Continuous
 62
     1
370
    15
100
AcDbSpline
210
0.0
220
0.0
230
1.0
 70
     8
 71
     3
 72
     8
 73
     4
 74
     0
 42
0.000000001
 43
0.00000001
 40
0.0
 40
0.0
 40
0.0
 40
0.0
 40
1.0
 40
1.0
 40
1.0
 40
1.0
 10
16.60777866426731
 20
4.349108265889107
 30
0.0
 10
16.41350398706308
 20
4.400680336093423
 30
0.0
 10
16.21986404359296
 20
4.451386597510542
 30
0.0
 10
16.02587857937729
 20
4.501285277616862
 30
0.0
  0
SPLINE
  5
573
330
1F
100
AcDbEntity
  8
외형선
  6
Continuous
 62
     1
370
    15
100
AcDbSpline
210
0.0
220
0.0
230
1.0
 70
     8
 71
     3
 72
     8
 73
     4
 74
     0
 42
0.000000001
 43
0.00000001
 40
0.0
 40
0.0
 40
0.0
 40
0.0
 40
1.0
 40
1.0
 40
1.0
 40
1.0
 10
15.86907191732145
 20
4.508888329166123
 30
0.0
 10
15.91386994615337
 20
4.518493133085077
 30
0.0
 10
15.96899706592086
 20
4.515916850429917
 30
0.0
 10
16.02587857940058
 20
4.501285277613121
 30
0.0
  0
SPLINE
  5
574
330
1F
100
AcDbEntity
  8
외형선
  6
Continuous
 62
     1
370
    15
100
AcDbSpline
210
0.0
220
0.0
230
1.0
 70
     8
 71
     3
 72
    10
 73
     6
 74
     0
 42
0.000000001
 43
0.00000001
 40
0.0
 40
0.0
 40
0.0
 40
0.0
 40
0.5
 40
0.5
 40
1.0
 40
1.0
 40
1.0
 40
1.0
 10
15.24305664775275
 20
4.663685772836594
 30
0.0
 10
15.33583952152505
 20
4.595424912778267
 30
0.0
 10
15.44868382078354
 20
4.547087793241111
 30
0.0
 10
15.67363952230974
 20
4.494091048560328
 30
0.0
 10
15.78072425890498
 20
4.48994638109551
 30
0.0
 10
15.86907191732126
 20
4.508888329166002
 30
0.0
  0
SPLINE
  5
575
330
1F
100
AcDbEntity
  8
외형선
  6
Continuous
 62
     1
370
    15
100
AcDbSpline
210
0.0
220
0.0
230
1.0
 70
     8
 71
     3
 72
    17
 73
    13
 74
     0
 42
0.000000001
 43
0.00000001
 40
0.0
 40
0.0
 40
0.0
 40
0.0
 40
0.0000438683172145
 40
0.0000438683172145
 40
0.0000438683172145
 40
0.0000877525392749
 40
0.0000877525392749
 40
0.0000877525392749
 40
0.0001307415781562
 40
0.0001307415781562
 40
0.0001307415781562
 40
0.0001750167685296
 40
0.0001750167685296
 40
0.0001750167685296
 40
0.0001750167685296
 10
15.08685891455725
 20
4.73577217901007
 30
0.0
 10
15.10060146381642
 20
4.73244342339596
 30
0.0
 10
15.1144375597182
 20
4.728367578458339
 30
0.0
 10
15.1281211060853
 20
4.723603253261686
 30
0.0
 10
15.14180755225586
 20
4.718837918414017
 30
0.0
 10
15.15542683916621
 20
4.713353536619422
 30
0.0
 10
15.16871296535196
 20
4.707239031385974
 30
0.0
 10
15.18172731267558
 20
4.701249603488957
 30
0.0
 10
15.19450697320656
 20
4.694615896615041
 30
0.0
 10
15.20678214222183
 20
4.687456783788882
 30
0.0
 10
15.21941880606335
 20
4.68008684028138
 30
0.0
 10
15.2316138451084
 20
4.672104304386629
 30
0.0
 10
15.24305664775331
 20
4.663685772838118
 30
0.0
  0
SPLINE
  5
576
330
1F
100
AcDbEntity
  8
외형선
  6
Continuous
 62
     1
370
    15
100
AcDbSpline
210
0.0
220
0.0
230
1.0
 70
     8
 71
     3
 72
     8
 73
     4
 74
     0
 42
0.000000001
 43
0.00000001
 40
0.0
 40
0.0
 40
0.0
 40
0.0
 40
1.0
 40
1.0
 40
1.0
 40
1.0
 10
15.08685891455718
 20
4.735772179009096
 30
0.0
 10
14.89293991334827
 20
4.782743738054158
 30
0.0
 10
14.69888323225823
 20
4.828850335352012
 30
0.0
 10
14.50485034107115
 20
4.874053079711658
 30
0.0
  0
SPLINE
  5
577
330
1F
100
AcDbEntity
  8
외형선
  6
Continuous
 62
     1
370
    15
100
AcDbSpline
210
0.0
220
0.0
230
1.0
 70
     8
 71
     3
 72
     8
 73
     4
 74
     0
 42
0.000000001
 43
0.00000001
 40
0.0
 40
0.0
 40
0.0
 40
0.0
 40
1.0
 40
1.0
 40
1.0
 40
1.0
 10
14.34801331641663
 20
4.874239857730746
 30
0.0
 10
14.39281854798246
 20
4.887276174784244
 30
0.0
 10
14.44795585060564
 20
4.887307467113274
 30
0.0
 10
14.50485034107685
 20
4.874053079712837
 30
0.0
  0
SPLINE
  5
578
330
1F
100
AcDbEntity
  8
외형선
  6
Continuous
 62
     1
370
    15
100
AcDbSpline
210
0.0
220
0.0
230
1.0
 70
     8
 71
     3
 72
    10
 73
     6
 74
     0
 42
0.000000001
 43
0.00000001
 40
0.0
 40
0.0
 40
0.0
 40
0.0
 40
0.5
 40
0.5
 40
1.0
 40
1.0
 40
1.0
 40
1.0
 10
13.72189576815481
 20
5.014008998011192
 30
0.0
 10
13.81468200714293
 20
4.943203231643913
 30
0.0
 10
13.92752861304446
 20
4.89504323027057
 30
0.0
 10
14.15251199017148
 20
4.847538190497552
 30
0.0
 10
14.25963396243648
 20
4.848525421286265
 30
0.0
 10
14.34801331641644
 20
4.874239857730629
 30
0.0
  0
SPLINE
  5
579
330
1F
100
AcDbEntity
  8
외형선
  6
Continuous
 62
     1
370
    15
100
AcDbSpline
210
0.0
220
0.0
230
1.0
 70
     8
 71
     3
 72
    17
 73
    13
 74
     0
 42
0.000000001
 43
0.00000001
 40
0.0
 40
0.0
 40
0.0
 40
0.0
 40
0.0000438681776058
 40
0.0000438681776058
 40
0.0000438681776058
 40
0.0000877523064948
 40
0.0000877523064948
 40
0.0000877523064948
 40
0.0001307598415652
 40
0.0001307598415652
 40
0.0001307598415652
 40
0.0001750548527301
 40
0.0001750548527301
 40
0.0001750548527301
 40
0.0001750548527301
 10
13.56567575671512
 20
5.085826965144712
 30
0.0
 10
13.57941614127496
 20
5.082831539402868
 30
0.0
 10
13.59325021370067
 20
5.079019951158546
 30
0.0
 10
13.60693216821059
 20
5.074443139769869
 30
0.0
 10
13.62061703071849
 20
5.06986535561386
 30
0.0
 10
13.63423508229158
 20
5.064492878028322
 30
0.0
 10
13.64752051309874
 20
5.058408302792373
 30
0.0
 10
13.66053976003012
 20
5.05244563672462
 30
0.0
 10
13.67332460210537
 20
5.04575953620402
 30
0.0
 10
13.68560494566749
 20
5.038465205254582
 30
0.0
 10
13.69824714103194
 20
5.030955940025226
 30
0.0
 10
13.71044778445926
 20
5.022745026844319
 30
0.0
 10
13.72189576815535
 20
5.014008998012944
 30
0.0
  0
SPLINE
  5
57A
330
1F
100
AcDbEntity
  8
외형선
  6
Continuous
 62
     1
370
    15
100
AcDbSpline
210
0.0
220
0.0
230
1.0
 70
     8
 71
     3
 72
     8
 73
     4
 74
     0
 42
0.000000001
 43
0.00000001
 40
0.0
 40
0.0
 40
0.0
 40
0.0
 40
1.0
 40
1.0
 40
1.0
 40
1.0
 10
13.56567575671511
 20
5.085826965143632
 30
0.0
 10
13.37120996955846
 20
5.12822081680185
 30
0.0
 10
13.17703096079799
 20
5.169645180953506
 30
0.0
 10
12.98330027595895
 20
5.210069024102591
 30
0.0
  0
SPLINE
  5
57B
330
1F
100
AcDbEntity
  8
외형선
  6
Continuous
 62
     1
370
    15
100
AcDbSpline
210
0.0
220
0.0
230
1.0
 70
     8
 71
     3
 72
     8
 73
     4
 74
     0
 42
0.000000001
 43
0.00000001
 40
0.0
 40
0.0
 40
0.0
 40
0.0
 40
1.0
 40
1.0
 40
1.0
 40
1.0
 10
12.82670771679709
 20
5.203015497003296
 30
0.0
 10
12.87152687459823
 20
5.219332353778828
 30
0.0
 10
12.92667228493229
 20
5.221885267801447
 30
0.0
 10
12.98357104261801
 20
5.210012525346031
 30
0.0
  0
SPLINE
  5
57C
330
1F
100
AcDbEntity
  8
외형선
  6
Continuous
 62
     1
370
    15
100
AcDbSpline
210
0.0
220
0.0
230
1.0
 70
     8
 71
     3
 72
    10
 73
     6
 74
     0
 42
0.000000001
 43
0.00000001
 40
0.0
 40
0.0
 40
0.0
 40
0.0
 40
0.5
 40
0.5
 40
1.0
 40
1.0
 40
1.0
 40
1.0
 10
12.20053135418308
 20
5.327015885908416
 30
0.0
 10
12.29334357143631
 20
5.254190480856472
 30
0.0
 10
12.40621944289322
 20
5.206560059274185
 30
0.0
 10
12.6312221562857
 20
5.164813061564299
 30
0.0
 10
12.73832910230095
 20
5.170840390073284
 30
0.0
 10
12.8267077167969
 20
5.203015497003175
 30
0.0
  0
SPLINE
  5
57D
330
1F
100
AcDbEntity
  8
외형선
  6
Continuous
 62
     1
370
    15
100
AcDbSpline
210
0.0
220
0.0
230
1.0
 70
     8
 71
     3
 72
    17
 73
    13
 74
     0
 42
0.000000001
 43
0.00000001
 40
0.0
 40
0.0
 40
0.0
 40
0.0
 40
0.0000438681959322
 40
0.0000438681959322
 40
0.0000438681959322
 40
0.0000877522994929
 40
0.0000877522994929
 40
0.0000877522994929
 40
0.000130757787746
 40
0.000130757787746
 40
0.000130757787746
 40
0.0001750502446196
 40
0.0001750502446196
 40
0.0001750502446196
 40
0.0001750502446196
 10
12.04430671312406
 20
5.397962593952315
 30
0.0
 10
12.05804866335305
 20
5.395330158852971
 30
0.0
 10
12.07188408998951
 20
5.391817405770098
 30
0.0
 10
12.0855671370483
 20
5.387467359607651
 30
0.0
 10
12.09925308415612
 20
5.383116391476069
 30
0.0
 10
12.11287196667249
 20
5.377899987610476
 30
0.0
 10
12.126158006298
 20
5.371893999155976
 30
0.0
 10
12.13917724561762
 20
5.366008618467372
 30
0.0
 10
12.1519618797163
 20
5.359325901570774
 30
0.0
 10
12.16424193741179
 20
5.351956542292797
 30
0.0
 10
12.17688371535451
 20
5.344370111847411
 30
0.0
 10
12.18908383737087
 20
5.335998216829619
 30
0.0
 10
12.20053135418365
 20
5.32701588591032
 30
0.0
  0
SPLINE
  5
57E
330
1F
100
AcDbEntity
  8
외형선
  6
Continuous
 62
     1
370
    15
100
AcDbSpline
210
0.0
220
0.0
230
1.0
 70
     8
 71
     3
 72
     8
 73
     4
 74
     0
 42
0.000000001
 43
0.00000001
 40
0.0
 40
0.0
 40
0.0
 40
0.0
 40
1.0
 40
1.0
 40
1.0
 40
1.0
 10
12.04430671312409
 20
5.397962593951128
 30
0.0
 10
11.85031971255668
 20
5.435123126524818
 30
0.0
 10
11.65614439582876
 20
5.471295706482536
 30
0.0
 10
11.4619425146476
 20
5.506449068621009
 30
0.0
  0
SPLINE
  5
57F
330
1F
100
AcDbEntity
  8
외형선
  6
Continuous
 62
     1
370
    15
100
AcDbSpline
210
0.0
220
0.0
230
1.0
 70
     8
 71
     3
 72
     8
 73
     4
 74
     0
 42
0.000000001
 43
0.00000001
 40
0.0
 40
0.0
 40
0.0
 40
0.0
 40
1.0
 40
1.0
 40
1.0
 40
1.0
 10
11.3053601232387
 20
5.492018229777219
 30
0.0
 10
11.35017107776673
 20
5.511550127252931
 30
0.0
 10
11.40531396925468
 20
5.516699936085345
 30
0.0
 10
11.46221311275937
 20
5.506400085771553
 30
0.0
  0
SPLINE
  5
580
330
1F
100
AcDbEntity
  8
외형선
  6
Continuous
 62
     1
370
    15
100
AcDbSpline
210
0.0
220
0.0
230
1.0
 70
     8
 71
     3
 72
    10
 73
     6
 74
     0
 42
0.000000001
 43
0.00000001
 40
0.0
 40
0.0
 40
0.0
 40
0.0
 40
0.5
 40
0.5
 40
1.0
 40
1.0
 40
1.0
 40
1.0
 10
10.67922462149858
 20
5.598874240761372
 30
0.0
 10
10.77201259757202
 20
5.524625246236546
 30
0.0
 10
10.88486361786534
 20
5.477915817861081
 30
0.0
 10
11.10985560188115
 20
5.442369972034879
 30
0.0
 10
11.21697696579643
 20
5.453494373547507
 30
0.0
 10
11.30536012323849
 20
5.492018229777059
 30
0.0
  0
SPLINE
  5
581
330
1F
100
AcDbEntity
  8
외형선
  6
Continuous
 62
     1
370
    15
100
AcDbSpline
210
0.0
220
0.0
230
1.0
 70
     8
 71
     3
 72
    17
 73
    13
 74
     0
 42
0.000000001
 43
0.00000001
 40
0.0
 40
0.0
 40
0.0
 40
0.0
 40
0.0000438682257147
 40
0.0000438682257147
 40
0.0000438682257147
 40
0.0000877523876545
 40
0.0000877523876545
 40
0.0000877523876545
 40
0.0001307539064593
 40
0.0001307539064593
 40
0.0001307539064593
 40
0.0001750425057661
 40
0.0001750425057661
 40
0.0001750425057661
 40
0.0001750425057661
 10
10.52300860108859
 20
5.66842945647133
 30
0.0
 10
10.53674989591906
 20
5.666175800188135
 30
0.0
 10
10.55058486339915
 20
5.662985072218412
 30
0.0
 10
10.56426759278412
 20
5.658891993660252
 30
0.0
 10
10.57795322754862
 20
5.654798045981142
 30
0.0
 10
10.59157196169407
 20
5.64977511623189
 30
0.0
 10
10.6048579078637
 20
5.643891682347942
 30
0.0
 10
10.61787584356279
 20
5.638126931910659
 30
0.0
 10
10.63065929442004
 20
5.631497610708564
 30
0.0
 10
10.64293824044137
 20
5.624109035828614
 30
0.0
 10
10.65557894020725
 20
5.616502783908228
 30
0.0
 10
10.66777805908055
 20
5.608033786927738
 30
0.0
 10
10.67922462149923
 20
5.598874240763337
 30
0.0
  0
SPLINE
  5
582
330
1F
100
AcDbEntity
  8
외형선
  6
Continuous
 62
     1
370
    15
100
AcDbSpline
210
0.0
220
0.0
230
1.0
 70
     8
 71
     3
 72
     8
 73
     4
 74
     0
 42
0.000000001
 43
0.00000001
 40
0.0
 40
0.0
 40
0.0
 40
0.0
 40
0.8979758125602605
 40
0.8979758125602605
 40
0.8979758125602605
 40
0.8979758125602605
 10
10.5230086010893
 20
5.668429456469671
 30
0.0
 10
10.34844341325127
 20
5.697059213508719
 30
0.0
 10
10.17406821643482
 20
5.724827538824917
 30
0.0
 10
10.0
 20
5.751718293223519
 30
0.0
  0
SPLINE
  5
59B
330
1F
100
AcDbEntity
  8
외형선
  6
Continuous
 62
     1
370
    15
100
AcDbSpline
210
0.0
220
0.0
230
1.0
 70
     8
 71
     3
 72
     9
 73
     5
 74
     0
 42
0.000000001
 43
0.00000001
 40
0.0
 40
0.0
 40
0.0
 40
0.0
 40
0.5835274802986729
 40
1.0
 40
1.0
 40
1.0
 40
1.0
 10
12.55435933917761
 20
5.404084920883172
 30
0.0
 10
12.50511191197052
 20
5.370043724707955
 30
0.0
 10
12.42071584002906
 20
5.311706804297984
 30
0.0
 10
12.32394623646172
 20
5.287684427326255
 30
0.0
 10
12.28364435583353
 20
5.277679767459624
 30
0.0
  0
SPLINE
  5
59C
330
1F
100
AcDbEntity
  8
외형선
  6
Continuous
 62
     1
370
    15
100
AcDbSpline
210
0.0
220
0.0
230
1.0
 70
     8
 71
     3
 72
    17
 73
    13
 74
     0
 42
0.000000001
 43
0.00000001
 40
0.0
 40
0.0
 40
0.0
 40
0.0
 40
0.0000438684361498
 40
0.0000438684361498
 40
0.0000438684361498
 40
0.0000877528070298
 40
0.0000877528070298
 40
0.0000877528070298
 40
0.0001307264872036
 40
0.0001307264872036
 40
0.0001307264872036
 40
0.0001749859077114
 40
0.0001749859077114
 40
0.0001749859077114
 40
0.0001749859077114
 10
12.71049293416036
 20
5.474742630008624
 30
0.0
 10
12.69675447059298
 20
5.472205372134123
 30
0.0
 10
12.68292210960296
 20
5.468771319149273
 30
0.0
 10
12.66924209711534
 20
5.464481473057983
 30
0.0
 10
12.65555917979535
 20
5.46019071605496
 30
0.0
 10
12.64194316439719
 20
5.455016324641367
 30
0.0
 10
12.62866024501247
 20
5.449032544032704
 30
0.0
 10
12.61565369793085
 20
5.443173265514293
 30
0.0
 10
12.60288156966263
 20
5.43649892759419
 30
0.0
 10
12.59061352636826
 20
5.429119029066875
 30
0.0
 10
12.57798417546365
 20
5.42152178426544
 30
0.0
 10
12.56579607831404
 20
5.413118936054417
 30
0.0
 10
12.55435954999754
 20
5.40408493861586
 30
0.0
  0
SPLINE
  5
59D
330
1F
100
AcDbEntity
  8
외형선
  6
Continuous
 62
     1
370
    15
100
AcDbSpline
210
0.0
220
0.0
230
1.0
 70
     8
 71
     3
 72
     8
 73
     4
 74
     0
 42
0.000000001
 43
0.00000001
 40
0.0
 40
0.0
 40
0.0
 40
0.0
 40
1.0
 40
1.0
 40
1.0
 40
1.0
 10
13.29225503011513
 20
5.579169618408827
 30
0.0
 10
13.09810904020271
 20
5.545379516148113
 30
0.0
 10
12.90458143720349
 20
5.510587436759032
 30
0.0
 10
12.71049317530321
 20
5.474742674543521
 30
0.0
  0
LWPOLYLINE
  5
59E
330
1F
100
AcDbEntity
  8
외형선
  6
Continuous
 62
     1
370
    15
100
AcDbPolyline
 90
        3
 70
   128
 43
0.0
 10
13.29225459694862
 20
5.579169839620583
 10
13.29255820810795
 20
5.579222459346049
 10
13.29279569536448
 20
5.579263903200619
  0
SPLINE
  5
59F
330
1F
100
AcDbEntity
  8
외형선
  6
Continuous
 62
     1
370
    15
100
AcDbSpline
210
0.0
220
0.0
230
1.0
 70
     8
 71
     3
 72
     8
 73
     4
 74
     0
 42
0.000000001
 43
0.00000001
 40
0.0
 40
0.0
 40
0.0
 40
0.0
 40
1.0
 40
1.0
 40
1.0
 40
1.0
 10
13.44902122477528
 20
5.562899016446543
 30
0.0
 10
13.4043803254913
 20
5.583189312200862
 30
0.0
 10
13.34947031868488
 20
5.589029988777156
 30
0.0
 10
13.29279583744969
 20
5.579263279420019
 30
0.0
  0
SPLINE
  5
5A0
330
1F
100
AcDbEntity
  8
외형선
  6
Continuous
 62
     1
370
    15
100
AcDbSpline
210
0.0
220
0.0
230
1.0
 70
     8
 71
     3
 72
    10
 73
     6
 74
     0
 42
0.000000001
 43
0.00000001
 40
0.0
 40
0.0
 40
0.0
 40
0.0
 40
0.5
 40
0.5
 40
1.0
 40
1.0
 40
1.0
 40
1.0
 10
14.0749088474673
 20
5.665101389631797
 30
0.0
 10
13.98214915538222
 20
5.590572348061855
 30
0.0
 10
13.86932920213212
 20
5.544164332559834
 30
0.0
 10
13.64441156599128
 20
5.510299297005595
 30
0.0
 10
13.53734505231688
 20
5.522753844378627
 30
0.0
 10
13.44902122477521
 20
5.562899016445851
 30
0.0
  0
SPLINE
  5
5A1
330
1F
100
AcDbEntity
  8
외형선
  6
Continuous
 62
     1
370
    15
100
AcDbSpline
210
0.0
220
0.0
230
1.0
 70
     8
 71
     3
 72
    17
 73
    13
 74
     0
 42
0.000000001
 43
0.00000001
 40
0.0
 40
0.0
 40
0.0
 40
0.0
 40
0.0000438684218178
 40
0.0000438684218178
 40
0.0000438684218178
 40
0.0000877527421704
 40
0.0000877527421704
 40
0.0000877527421704
 40
0.0001307278801751
 40
0.0001307278801751
 40
0.0001307278801751
 40
0.0001749884584371
 40
0.0001749884584371
 40
0.0001749884584371
 40
0.0001749884584371
 10
14.23108214188318
 20
5.734167554079264
 30
0.0
 10
14.21733925231831
 20
5.732021287393618
 30
0.0
 10
14.20350275438497
 20
5.728922833505599
 30
0.0
 10
14.18981894649254
 20
5.724904781255262
 30
0.0
 10
14.17613223978657
 20
5.720885877810264
 30
0.0
 10
14.16251276976411
 20
5.715921161375146
 30
0.0
 10
14.14922671979981
 20
5.710077302676229
 30
0.0
 10
14.13621665201754
 20
5.704354834524505
 30
0.0
 10
14.12344133240894
 20
5.697751204485193
 30
0.0
 10
14.11117041601739
 20
5.690370271470314
 30
0.0
 10
14.09853820462085
 20
5.682772020192871
 30
0.0
 10
14.0863475758139
 20
5.674291992158473
 30
0.0
 10
14.07490884746747
 20
5.665101389631946
 30
0.0
  0
SPLINE
  5
5A2
330
1F
100
AcDbEntity
  8
외형선
  6
Continuous
 62
     1
370
    15
100
AcDbSpline
210
0.0
220
0.0
230
1.0
 70
     8
 71
     3
 72
     8
 73
     4
 74
     0
 42
0.000000001
 43
0.00000001
 40
0.0
 40
0.0
 40
0.0
 40
0.0
 40
1.0
 40
1.0
 40
1.0
 40
1.0
 10
14.81299684668048
 20
5.821835069804035
 30
0.0
 10
14.61903314935907
 20
5.793684160681398
 30
0.0
 10
14.42500778222296
 20
5.764453480440636
 30
0.0
 10
14.23108214188531
 20
5.734167554079583
 30
0.0
  0
LWPOLYLINE
  5
5A3
330
1F
100
AcDbEntity
  8
외형선
  6
Continuous
 62
     1
370
    15
100
AcDbPolyline
 90
        3
 70
   128
 43
0.0
 10
14.81299725919962
 20
5.821835249662392
 10
14.81329993903637
 20
5.821879021823399
 10
14.8135374262929
 20
5.82191348075866
  0
SPLINE
  5
5A4
330
1F
100
AcDbEntity
  8
외형선
  6
Continuous
 62
     1
370
    15
100
AcDbSpline
210
0.0
220
0.0
230
1.0
 70
     8
 71
     3
 72
     8
 73
     4
 74
     0
 42
0.000000001
 43
0.00000001
 40
0.0
 40
0.0
 40
0.0
 40
0.0
 40
1.0
 40
1.0
 40
1.0
 40
1.0
 10
14.96980886269529
 20
5.798409355975615
 30
0.0
 10
14.92515469490718
 20
5.821690069201239
 30
0.0
 10
14.8702297010213
 20
5.830037973859227
 30
0.0
 10
14.81353775497901
 20
5.82191308270238
 30
0.0
  0
SPLINE
  5
5A5
330
1F
100
AcDbEntity
  8
외형선
  6
Continuous
 62
     1
370
    15
100
AcDbSpline
210
0.0
220
0.0
230
1.0
 70
     8
 71
     3
 72
    10
 73
     6
 74
     0
 42
0.000000001
 43
0.00000001
 40
0.0
 40
0.0
 40
0.0
 40
0.0
 40
0.5
 40
0.5
 40
1.0
 40
1.0
 40
1.0
 40
1.0
 10
15.59585361596355
 20
5.882701085970211
 30
0.0
 10
15.50307847450922
 20
5.807424077801382
 30
0.0
 10
15.39024539185857
 20
5.762357469459229
 30
0.0
 10
15.16528657190841
 20
5.734950678967145
 30
0.0
 10
15.05817478755166
 20
5.752339260900023
 30
0.0
 10
14.96980886269564
 20
5.798409355975362
 30
0.0
  0
SPLINE
  5
5A6
330
1F
100
AcDbEntity
  8
외형선
  6
Continuous
 62
     1
370
    15
100
AcDbSpline
210
0.0
220
0.0
230
1.0
 70
     8
 71
     3
 72
    17
 73
    13
 74
     0
 42
0.000000001
 43
0.00000001
 40
0.0
 40
0.0
 40
0.0
 40
0.0
 40
0.0000438681975631
 40
0.0000438681975631
 40
0.0000438681975631
 40
0.0000877523486463
 40
0.0000877523486463
 40
0.0000877523486463
 40
0.0001307572835255
 40
0.0001307572835255
 40
0.0001307572835255
 40
0.0001750495917152
 40
0.0001750495917152
 40
0.0001750495917152
 40
0.0001750495917152
 10
15.75206115193495
 20
5.949750110739593
 30
0.0
 10
15.73832155042925
 20
5.94800137743443
 30
0.0
 10
15.72448821890367
 20
5.94525368589521
 30
0.0
 10
15.71080698485483
 20
5.941530848346371
 30
0.0
 10
15.69712284250909
 20
5.937807219413013
 30
0.0
 10
15.68350548265467
 20
5.93308403319153
 30
0.0
 10
15.67022073774237
 20
5.927419653221893
 30
0.0
 10
15.6572029507106
 20
5.921869099364926
 30
0.0
 10
15.64441953054242
 20
5.915377681734469
 30
0.0
 10
15.63214053350009
 20
5.908042782452899
 30
0.0
 10
15.61949972964906
 20
5.900491756683792
 30
0.0
 10
15.6073004104463
 20
5.891988923512436
 30
0.0
 10
15.59585361596373
 20
5.882701085970368
 30
0.0
  0
SPLINE
  5
5A7
330
1F
100
AcDbEntity
  8
외형선
  6
Continuous
 62
     1
370
    15
100
AcDbSpline
210
0.0
220
0.0
230
1.0
 70
     8
 71
     3
 72
     8
 73
     4
 74
     0
 42
0.000000001
 43
0.00000001
 40
0.0
 40
0.0
 40
0.0
 40
0.0
 40
1.0
 40
1.0
 40
1.0
 40
1.0
 10
16.3341219190616
 20
6.020580100023821
 30
0.0
 10
16.14017346915146
 20
5.998089792452053
 30
0.0
 10
15.94641405808858
 20
5.974486737912216
 30
0.0
 10
15.75206115193215
 20
5.949750110739224
 30
0.0
  0
SPLINE
  5
5A8
330
1F
100
AcDbEntity
  8
외형선
  6
Continuous
 62
     1
370
    15
100
AcDbSpline
210
0.0
220
0.0
230
1.0
 70
     8
 71
     3
 72
     8
 73
     4
 74
     0
 42
0.000000001
 43
0.00000001
 40
0.0
 40
0.0
 40
0.0
 40
0.0
 40
1.0
 40
1.0
 40
1.0
 40
1.0
 10
16.49097262532251
 20
5.990279224352911
 30
0.0
 10
16.44615856804607
 20
6.016440028056866
 30
0.0
 10
16.39101687757081
 20
6.027177652707294
 30
0.0
 10
16.3341219190616
 20
6.020580100023842
 30
0.0
  0
SPLINE
  5
5A9
330
1F
100
AcDbEntity
  8
외형선
  6
Continuous
 62
     1
370
    15
100
AcDbSpline
210
0.0
220
0.0
230
1.0
 70
     8
 71
     3
 72
    10
 73
     6
 74
     0
 42
0.000000001
 43
0.00000001
 40
0.0
 40
0.0
 40
0.0
 40
0.0
 40
0.5
 40
0.5
 40
1.0
 40
1.0
 40
1.0
 40
1.0
 10
17.11711893028736
 20
6.056060420688027
 30
0.0
 10
17.02431423536667
 20
5.980614954853873
 30
0.0
 10
16.91144614693653
 20
5.937251067169221
 30
0.0
 10
16.68645067503176
 20
5.916519510779843
 30
0.0
 10
16.57934592182704
 20
5.938690133718087
 30
0.0
 10
16.49097262532288
 20
5.990279224352655
 30
0.0
  0
SPLINE
  5
5AA
330
1F
100
AcDbEntity
  8
외형선
  6
Continuous
 62
     1
370
    15
100
AcDbSpline
210
0.0
220
0.0
230
1.0
 70
     8
 71
     3
 72
    17
 73
    13
 74
     0
 42
0.000000001
 43
0.00000001
 40
0.0
 40
0.0
 40
0.0
 40
0.0
 40
0.0000438682253407
 40
0.0000438682253407
 40
0.0000438682253407
 40
0.000087752361022
 40
0.000087752361022
 40
0.000087752361022
 40
0.000130753696385
 40
0.000130753696385
 40
0.000130753696385
 40
0.0001750418203379
 40
0.0001750418203379
 40
0.0001750418203379
 40
0.0001750418203379
 10
17.27334004329452
 20
6.120514483090869
 30
0.0
 10
17.25959764617704
 20
6.119183216827736
 30
0.0
 10
17.24576175168443
 20
6.116812308721794
 30
0.0
 10
17.23207828176065
 20
6.113416839279409
 30
0.0
 10
17.21839191114579
 20
6.110020650048259
 30
0.0
 10
17.20477262924805
 20
6.105577470413422
 30
0.0
 10
17.19148628241385
 20
6.100137259037922
 30
0.0
 10
17.17846799948745
 20
6.094806808783279
 30
0.0
 10
17.16568435107189
 20
6.088483429956341
 30
0.0
 10
17.15340528127747
 20
6.081257394999461
 30
0.0
 10
17.14076453366221
 20
6.073818518465792
 30
0.0
 10
17.12856545625833
 20
6.065365860297497
 30
0.0
 10
17.11711893028756
 20
6.05606042068818
 30
0.0
  0
SPLINE
  5
5AB
330
1F
100
AcDbEntity
  8
외형선
  6
Continuous
 62
     1
370
    15
100
AcDbSpline
210
0.0
220
0.0
230
1.0
 70
     8
 71
     3
 72
     8
 73
     4
 74
     0
 42
0.000000001
 43
0.00000001
 40
0.0
 40
0.0
 40
0.0
 40
0.0
 40
1.0
 40
1.0
 40
1.0
 40
1.0
 10
17.85543097746032
 20
6.173476586667725
 30
0.0
 10
17.66135809186856
 20
6.156960633626607
 30
0.0
 10
17.46727393527007
 20
6.139301427279566
 30
0.0
 10
17.27334004328588
 20
6.120514483090012
 30
0.0
  0
LWPOLYLINE
  5
5AC
330
1F
100
AcDbEntity
  8
외형선
  6
Continuous
 62
     1
370
    15
100
AcDbPolyline
 90
        3
 70
   128
 43
0.0
 10
17.85543160140514
 20
6.173476576805108
 10
17.85573334991932
 20
6.17350218817591
 10
17.85597176849842
 20
6.173522677272551
  0
SPLINE
  5
5AD
330
1F
100
AcDbEntity
  8
외형선
  6
Continuous
 62
     1
370
    15
100
AcDbSpline
210
0.0
220
0.0
230
1.0
 70
     8
 71
     3
 72
     8
 73
     4
 74
     0
 42
0.000000001
 43
0.00000001
 40
0.0
 40
0.0
 40
0.0
 40
0.0
 40
1.0
 40
1.0
 40
1.0
 40
1.0
 10
18.01228711354722
 20
6.13642082551608
 30
0.0
 10
17.9676171486951
 20
6.165116985624365
 30
0.0
 10
17.91267736987788
 20
6.178235216943254
 30
0.0
 10
17.85597215896152
 20
6.173522104868869
 30
0.0
  0
SPLINE
  5
5AE
330
1F
100
AcDbEntity
  8
외형선
  6
Continuous
 62
     1
370
    15
100
AcDbSpline
210
0.0
220
0.0
230
1.0
 70
     8
 71
     3
 72
    10
 73
     6
 74
     0
 42
0.000000001
 43
0.00000001
 40
0.0
 40
0.0
 40
0.0
 40
0.0
 40
0.5
 40
0.5
 40
1.0
 40
1.0
 40
1.0
 40
1.0
 10
18.63844833886057
 20
6.183077435866451
 30
0.0
 10
18.54565564477625
 20
6.108054572233762
 30
0.0
 10
18.43280103100531
 20
6.066712970464675
 30
0.0
 10
18.20780326335777
 20
6.052823705230104
 30
0.0
 10
18.10067553277209
 20
6.079639759351959
 30
0.0
 10
18.01228711354757
 20
6.136420825515817
 30
0.0
  0
SPLINE
  5
5AF
330
1F
100
AcDbEntity
  8
외형선
  6
Continuous
 62
     1
370
    15
100
AcDbSpline
210
0.0
220
0.0
230
1.0
 70
     8
 71
     3
 72
    17
 73
    13
 74
     0
 42
0.000000001
 43
0.00000001
 40
0.0
 40
0.0
 40
0.0
 40
0.0
 40
0.0000438681700722
 40
0.0000438681700722
 40
0.0000438681700722
 40
0.0000877522875456
 40
0.0000877522875456
 40
0.0000877522875456
 40
0.0001307610330089
 40
0.0001307610330089
 40
0.0001307610330089
 40
0.0001750572911299
 40
0.0001750572911299
 40
0.0001750572911299
 40
0.0001750572911299
 10
18.79467297193705
 20
6.244484382558902
 30
0.0
 10
18.78093235112023
 20
6.243576325587345
 30
0.0
 10
18.76709805665791
 20
6.241596664190141
 30
0.0
 10
18.75341588403279
 20
6.238551492926174
 30
0.0
 10
18.73973080411257
 20
6.235505674600386
 30
0.0
 10
18.72611254301157
 20
6.231374052360753
 30
0.0
 10
18.71282689602566
 20
6.226197636727839
 30
0.0
 10
18.69980707001156
 20
6.221124791499548
 30
0.0
 10
18.68702165848039
 20
6.215014445147023
 30
0.0
 10
18.67474076743696
 20
6.20794902416235
 30
0.0
 10
18.66209800912384
 20
6.200675414326223
 30
0.0
 10
18.64989682113475
 20
6.192333530141223
 30
0.0
 10
18.63844833886075
 20
6.183077435866593
 30
0.0
  0
SPLINE
  5
5B0
330
1F
100
AcDbEntity
  8
외형선
  6
Continuous
 62
     1
370
    15
100
AcDbSpline
210
0.0
220
0.0
230
1.0
 70
     8
 71
     3
 72
     8
 73
     4
 74
     0
 42
0.000000001
 43
0.00000001
 40
0.0
 40
0.0
 40
0.0
 40
0.0
 40
1.0
 40
1.0
 40
1.0
 40
1.0
 10
19.37677871146946
 20
6.279504953169436
 30
0.0
 10
19.18312483671491
 20
6.26900432326789
 30
0.0
 10
18.98903581107058
 20
6.257328964578857
 30
0.0
 10
18.79467297192053
 20
6.244484382557786
 30
0.0
  0
LWPOLYLINE
  5
5B1
330
1F
100
AcDbEntity
  8
외형선
  6
Continuous
 62
     1
370
    15
100
AcDbPolyline
 90
        3
 70
   128
 43
0.0
 10
19.37677869200706
 20
6.279504857957356
 10
19.37708230316639
 20
6.279521621763699
 10
19.37732072174549
 20
6.279534194618456
  0
SPLINE
  5
5B2
330
1F
100
AcDbEntity
  8
외형선
  6
Continuous
 62
     1
370
    15
100
AcDbSpline
210
0.0
220
0.0
230
1.0
 70
     8
 71
     3
 72
     8
 73
     4
 74
     0
 42
0.000000001
 43
0.00000001
 40
0.0
 40
0.0
 40
0.0
 40
0.0
 40
1.0
 40
1.0
 40
1.0
 40
1.0
 10
19.53363701226333
 20
6.236061280599387
 30
0.0
 10
19.48896218834369
 20
6.267144196508486
 30
0.0
 10
19.43402469494575
 20
6.282492357695954
 30
0.0
 10
19.37732017498388
 20
6.279533758880245
 30
0.0
  0
SPLINE
  5
5B3
330
1F
100
AcDbEntity
  8
외형선
  6
Continuous
 62
     1
370
    15
100
AcDbSpline
210
0.0
220
0.0
230
1.0
 70
     8
 71
     3
 72
    10
 73
     6
 74
     0
 42
0.000000001
 43
0.00000001
 40
0.0
 40
0.0
 40
0.0
 40
0.0
 40
0.5
 40
0.5
 40
1.0
 40
1.0
 40
1.0
 40
1.0
 10
20.15977348396682
 20
6.263339368163898
 30
0.0
 10
20.06696739311012
 20
6.189287579866679
 30
0.0
 10
19.95409684484898
 20
6.15028823699463
 30
0.0
 10
19.72910804403084
 20
6.143342247626528
 30
0.0
 10
19.62200883002788
 20
6.174575782967096
 30
0.0
 10
19.53363701226367
 20
6.23606128059912
 30
0.0
  0
SPLINE
  5
5B4
330
1F
100
AcDbEntity
  8
외형선
  6
Continuous
 62
     1
370
    15
100
AcDbSpline
210
0.0
220
0.0
230
1.0
 70
     8
 71
     3
 72
    17
 73
    13
 74
     0
 42
0.000000001
 43
0.00000001
 40
0.0
 40
0.0
 40
0.0
 40
0.0
 40
0.0000438682417959
 40
0.0000438682417959
 40
0.0000438682417959
 40
0.0000877523806284
 40
0.0000877523806284
 40
0.0000877523806284
 40
0.0001307522185594
 40
0.0001307522185594
 40
0.0001307522185594
 40
0.000175038686571
 40
0.000175038686571
 40
0.000175038686571
 40
0.000175038686571
 10
20.31598494754293
 20
6.321212175250906
 30
0.0
 10
20.30224314934334
 20
6.320736727173848
 30
0.0
 10
20.28840785337935
 20
6.319164908051832
 30
0.0
 10
20.27472499530022
 20
6.316493991726006
 30
0.0
 10
20.26103923915278
 20
6.313822509692503
 30
0.0
 10
20.24742058176359
 20
6.31003392616817
 30
0.0
 10
20.23413486010197
 20
6.305160250371419
 30
0.0
 10
20.22111763953566
 20
6.300385070337484
 30
0.0
 10
20.20833504083507
 20
6.294536031135301
 30
0.0
 10
20.19605695393088
 20
6.287687209499062
 30
0.0
 10
20.18341724884964
 20
6.280636674158217
 30
0.0
 10
20.17121915581737
 20
6.272472092761724
 30
0.0
 10
20.159773483967
 20
6.26333936816404
 30
0.0
  0
SPLINE
  5
5B5
330
1F
100
AcDbEntity
  8
외형선
  6
Continuous
 62
     1
370
    15
100
AcDbSpline
210
0.0
220
0.0
230
1.0
 70
     8
 71
     3
 72
     8
 73
     4
 74
     0
 42
0.000000001
 43
0.00000001
 40
0.0
 40
0.0
 40
0.0
 40
0.0
 40
1.0
 40
1.0
 40
1.0
 40
1.0
 10
20.89800205409074
 20
6.337825731487527
 30
0.0
 10
20.70390281147424
 20
6.333459296685977
 30
0.0
 10
20.5098427319671
 20
6.327919405432745
 30
0.0
 10
20.3159832746893
 20
6.321212117372326
 30
0.0
  0
SPLINE
  5
5B6
330
1F
100
AcDbEntity
  8
외형선
  6
Continuous
 62
     1
370
    15
100
AcDbSpline
210
0.0
220
0.0
230
1.0
 70
     8
 71
     3
 72
     8
 73
     4
 74
     0
 42
0.000000001
 43
0.00000001
 40
0.0
 40
0.0
 40
0.0
 40
0.0
 40
1.0
 40
1.0
 40
1.0
 40
1.0
 10
21.05482527696141
 20
6.288259492182075
 30
0.0
 10
21.01002521975164
 20
6.321606368234292
 30
0.0
 10
20.95489196267212
 20
6.33910552049311
 30
0.0
 10
20.89800205409072
 20
6.337825731487555
 30
0.0
  0
SPLINE
  5
5B7
330
1F
100
AcDbEntity
  8
외형선
  6
Continuous
 62
     1
370
    15
100
AcDbSpline
210
0.0
220
0.0
230
1.0
 70
     8
 71
     3
 72
    10
 73
     6
 74
     0
 42
0.000000001
 43
0.00000001
 40
0.0
 40
0.0
 40
0.0
 40
0.0
 40
0.5
 40
0.5
 40
1.0
 40
1.0
 40
1.0
 40
1.0
 10
21.68083373605513
 20
6.295876512584691
 30
0.0
 10
21.58806720781632
 20
6.223392430963457
 30
0.0
 10
21.47523803276788
 20
6.187016795293101
 30
0.0
 10
21.25028371114655
 20
6.18705567937711
 30
0.0
 10
21.14318508129216
 20
6.222488963603439
 30
0.0
 10
21.05482527696175
 20
6.288259492181798
 30
0.0
  0
SPLINE
  5
5B8
330
1F
100
AcDbEntity
  8
외형선
  6
Continuous
 62
     1
370
    15
100
AcDbSpline
210
0.0
220
0.0
230
1.0
 70
     8
 71
     3
 72
    17
 73
    13
 74
     0
 42
0.000000001
 43
0.00000001
 40
0.0
 40
0.0
 40
0.0
 40
0.0
 40
0.0000438683557241
 40
0.0000438683557241
 40
0.0000438683557241
 40
0.0000877526277492
 40
0.0000877526277492
 40
0.0000877526277492
 40
0.000130737439018
 40
0.000130737439018
 40
0.000130737439018
 40
0.0001750083929773
 40
0.0001750083929773
 40
0.0001750083929773
 40
0.0001750083929773
 10
21.8370178862076
 20
6.349788049225339
 30
0.0
 10
21.82327635425369
 20
6.3497472004955
 30
0.0
 10
21.80944109335263
 20
6.348593677535014
 30
0.0
 10
21.79575825750604
 20
6.346315819431751
 30
0.0
 10
21.78207251984261
 20
6.344037478246833
 30
0.0
 10
21.7684537952658
 20
6.340619201760155
 30
0.0
 10
21.7551681701309
 20
6.336083698680824
 30
0.0
 10
21.74215559944749
 20
6.331641412088711
 30
0.0
 10
21.72937759220929
 20
6.326097307183545
 30
0.0
 10
21.71710396040757
 20
6.319516597559662
 30
0.0
 10
21.70446884407347
 20
6.312742072056388
 30
0.0
 10
21.69227523798085
 20
6.304816447873812
 30
0.0
 10
21.68083373605532
 20
6.295876512584833
 30
0.0
  0
SPLINE
  5
5B9
330
1F
100
AcDbEntity
  8
외형선
  6
Continuous
 62
     1
370
    15
100
AcDbSpline
210
0.0
220
0.0
230
1.0
 70
     8
 71
     3
 72
     8
 73
     4
 74
     0
 42
0.000000001
 43
0.00000001
 40
0.0
 40
0.0
 40
0.0
 40
0.0
 40
1.0
 40
1.0
 40
1.0
 40
1.0
 10
22.41891697986351
 20
6.347983544212031
 30
0.0
 10
22.22528063794631
 20
6.349762567873583
 30
0.0
 10
22.03126053181636
 20
6.350365464129403
 30
0.0
 10
21.83701788618566
 20
6.349788049225246
 30
0.0
  0
SPLINE
  5
5BA
330
1F
100
AcDbEntity
  8
외형선
  6
Continuous
 62
     1
370
    15
100
AcDbSpline
210
0.0
220
0.0
230
1.0
 70
     8
 71
     3
 72
     8
 73
     4
 74
     0
 42
0.000000001
 43
0.00000001
 40
0.0
 40
0.0
 40
0.0
 40
0.0
 40
1.0
 40
1.0
 40
1.0
 40
1.0
 10
22.57570261427892
 20
6.292703313606545
 30
0.0
 10
22.530915527019
 20
6.327958790585569
 30
0.0
 10
22.47579681872952
 20
6.347460963697444
 30
0.0
 10
22.41891697986351
 20
6.347983544212063
 30
0.0
  0
SPLINE
  5
5BB
330
1F
100
AcDbEntity
  8
외형선
  6
Continuous
 62
     1
370
    15
100
AcDbSpline
210
0.0
220
0.0
230
1.0
 70
     8
 71
     3
 72
    10
 73
     6
 74
     0
 42
0.000000001
 43
0.00000001
 40
0.0
 40
0.0
 40
0.0
 40
0.0
 40
0.5
 40
0.5
 40
1.0
 40
1.0
 40
1.0
 40
1.0
 10
23.20156039163948
 20
6.280616203873549
 30
0.0
 10
23.10879700673084
 20
6.210221781035624
 30
0.0
 10
22.99597058255279
 20
6.176765317779576
 30
0.0
 10
22.77107408815189
 20
6.18381992242464
 30
0.0
 10
22.66402807163567
 20
6.223175324200728
 30
0.0
 10
22.57570261427925
 20
6.292703313606264
 30
0.0
  0
SPLINE
  5
5BC
330
1F
100
AcDbEntity
  8
외형선
  6
Continuous
 62
     1
370
    15
100
AcDbSpline
210
0.0
220
0.0
230
1.0
 70
     8
 71
     3
 72
    17
 73
    13
 74
     0
 42
0.000000001
 43
0.00000001
 40
0.0
 40
0.0
 40
0.0
 40
0.0
 40
0.0000438684698099
 40
0.0000438684698099
 40
0.0000438684698099
 40
0.0000877527985681
 40
0.0000877527985681
 40
0.0000877527985681
 40
0.0001307236147933
 40
0.0001307236147933
 40
0.0001307236147933
 40
0.0001749794067994
 40
0.0001749794067994
 40
0.0001749794067994
 40
0.0001749794067994
 10
23.35770502523025
 20
6.330148868029859
 30
0.0
 10
23.34396393872407
 20
6.330543992213208
 30
0.0
 10
23.33012924339145
 20
6.329818352430593
 30
0.0
 10
23.31644727606835
 20
6.32795159859338
 30
0.0
 10
23.30276241774085
 20
6.326084450310439
 30
0.0
 10
23.2891448250428
 20
6.323063130248897
 30
0.0
 10
23.2758606511245
 20
6.318900980748374
 30
0.0
 10
23.26285371816306
 20
6.314825695385373
 30
0.0
 10
23.25008149448119
 20
6.309629043853626
 30
0.0
 10
23.23781347497706
 20
6.303366904154295
 30
0.0
 10
23.22518433629941
 20
6.296920433258563
 30
0.0
 10
23.21299660650905
 20
6.289294689959245
 30
0.0
 10
23.20156039163967
 20
6.280616203873691
 30
0.0
  0
SPLINE
  5
5BD
330
1F
100
AcDbEntity
  8
외형선
  6
Continuous
 62
     1
370
    15
100
AcDbSpline
210
0.0
220
0.0
230
1.0
 70
     8
 71
     3
 72
     8
 73
     4
 74
     0
 42
0.000000001
 43
0.00000001
 40
0.0
 40
0.0
 40
0.0
 40
0.0
 40
1.0
 40
1.0
 40
1.0
 40
1.0
 10
23.93940070493176
 20
6.309923823856668
 30
0.0
 10
23.74535852675687
 20
6.317836133858922
 30
0.0
 10
23.5514062452072
 20
6.324579000150564
 30
0.0
 10
23.35770502521873
 20
6.330148868030161
 30
0.0
  0
SPLINE
  5
5BE
330
1F
100
AcDbEntity
  8
외형선
  6
Continuous
 62
     1
370
    15
100
AcDbSpline
210
0.0
220
0.0
230
1.0
 70
     8
 71
     3
 72
     8
 73
     4
 74
     0
 42
0.000000001
 43
0.00000001
 40
0.0
 40
0.0
 40
0.0
 40
0.0
 40
1.0
 40
1.0
 40
1.0
 40
1.0
 10
24.09611511358847
 20
6.249362009052579
 30
0.0
 10
24.05135451397186
 20
6.28625084111782
 30
0.0
 10
23.99625676515709
 20
6.307605447624059
 30
0.0
 10
23.93940070493178
 20
6.309923823856696
 30
0.0
  0
SPLINE
  5
5BF
330
1F
100
AcDbEntity
  8
외형선
  6
Continuous
 62
     1
370
    15
100
AcDbSpline
210
0.0
220
0.0
230
1.0
 70
     8
 71
     3
 72
    10
 73
     6
 74
     0
 42
0.000000001
 43
0.00000001
 40
0.0
 40
0.0
 40
0.0
 40
0.0
 40
0.5
 40
0.5
 40
1.0
 40
1.0
 40
1.0
 40
1.0
 10
24.72170691042999
 20
6.217774141327666
 30
0.0
 10
24.62900933835247
 20
6.150028581011171
 30
0.0
 10
24.51625002609063
 20
6.119699289818911
 30
0.0
 10
24.29142315530918
 20
6.133636355656272
 30
0.0
 10
24.1843961285135
 20
6.176606425748588
 30
0.0
 10
24.09611511358881
 20
6.249362009052305
 30
0.0
  0
SPLINE
  5
5C3
330
1F
100
AcDbEntity
  8
외형선
  6
Continuous
 62
     1
370
    15
100
AcDbSpline
210
0.0
220
0.0
230
1.0
 70
     8
 71
     3
 72
    12
 73
     8
 74
     0
 42
0.000000001
 43
0.00000001
 40
0.0
 40
0.0
 40
0.0
 40
0.0
 40
0.5000000000000004
 40
0.5000000000000004
 40
0.7500000000000002
 40
0.7500000000000002
 40
1.0
 40
1.0
 40
1.0
 40
1.0
 10
17.65366967791114
 20
1.558029516678186
 30
0.0
 10
17.63487126938682
 20
2.030606311580565
 30
0.0
 10
17.6161777908887
 20
2.488236839233366
 30
0.0
 10
17.58935342170139
 20
3.127239388385185
 30
0.0
 10
17.5806129296915
 20
3.332404507016506
 30
0.0
 10
17.56367757788703
 20
3.724014028371514
 30
0.0
 10
17.55529261774325
 20
3.912012418917268
 30
0.0
 10
17.54651966042005
 20
4.094125665567681
 30
0.0
  0
SPLINE
  5
5C4
330
1F
100
AcDbEntity
  8
외형선
  6
Continuous
 62
     1
370
    15
100
AcDbSpline
210
0.0
220
0.0
230
1.0
 70
     8
 71
     3
 72
    12
 73
     8
 74
     0
 42
0.000000001
 43
0.00000001
 40
0.0
 40
0.0
 40
0.0
 40
0.0
 40
0.5000000000000001
 40
0.5000000000000001
 40
0.75
 40
0.75
 40
1.0
 40
1.0
 40
1.0
 40
1.0
 10
18.23576428193348
 20
1.352091363347025
 30
0.0
 10
18.21698819885799
 20
1.827617835611997
 30
0.0
 10
18.19820657887581
 20
2.291019376374424
 30
0.0
 10
18.17110147850082
 20
2.942074990731005
 30
0.0
 10
18.16224310007539
 20
3.151813267495378
 30
0.0
 10
18.14503062716503
 20
3.553443834233047
 30
0.0
 10
18.13681251238246
 20
3.744450414518337
 30
0.0
 10
18.1281980192947
 20
3.930233473509986
 30
0.0
  0
SPLINE
  5
5C5
330
1F
100
AcDbEntity
  8
외형선
  6
Continuous
 62
     1
370
    15
100
AcDbSpline
210
0.0
220
0.0
230
1.0
 70
     8
 71
     3
 72
    12
 73
     8
 74
     0
 42
0.000000001
 43
0.00000001
 40
0.0
 40
0.0
 40
0.0
 40
0.0
 40
0.5000000000000001
 40
0.5000000000000001
 40
0.75
 40
0.75
 40
1.0
 40
1.0
 40
1.0
 40
1.0
 10
18.39262135028882
 20
1.277564022971537
 30
0.0
 10
18.37375109799882
 20
1.752538352481196
 30
0.0
 10
18.35484108883574
 20
2.216223395625168
 30
0.0
 10
18.32751435341652
 20
2.868520976900431
 30
0.0
 10
18.31857735999304
 20
3.07880702220038
 30
0.0
 10
18.3012025422738
 20
3.481713643852228
 30
0.0
 10
18.2929362762863
 20
3.673173931498994
 30
0.0
 10
18.28431220624275
 20
3.859213205943625
 30
0.0
  0
SPLINE
  5
5CB
330
1F
100
AcDbEntity
  8
외형선
  6
Continuous
 62
     1
370
    15
100
AcDbSpline
210
0.0
220
0.0
230
1.0
 70
     8
 71
     3
 72
    10
 73
     6
 74
     0
 42
0.000000001
 43
0.00000001
 40
0.0
 40
0.0
 40
0.0
 40
0.0
 40
0.5
 40
0.5
 40
1.0
 40
1.0
 40
1.0
 40
1.0
 10
17.49744788688149
 20
1.591701025589892
 30
0.0
 10
17.47854249338128
 20
2.062168243602455
 30
0.0
 10
17.45976912121543
 20
2.516995052751142
 30
0.0
 10
17.42391445246852
 20
3.362034060639012
 30
0.0
 10
17.40751234353624
 20
3.748052911426598
 30
0.0
 10
17.38977697920244
 20
4.108812241242205
 30
0.0
  0
SPLINE
  5
5CF
330
1F
100
AcDbEntity
  8
외형선
  6
Continuous
 62
     1
370
    15
100
AcDbSpline
210
0.0
220
0.0
230
1.0
 70
     8
 71
     3
 72
    12
 73
     8
 74
     0
 42
0.000000001
 43
0.00000001
 40
0.0
 40
0.0
 40
0.0
 40
0.0
 40
0.5000000000000002
 40
0.5000000000000002
 40
0.7500000000000001
 40
0.7500000000000001
 40
1.0
 40
1.0
 40
1.0
 40
1.0
 10
16.87129784402693
 20
1.809120087413426
 30
0.0
 10
16.85242230933926
 20
2.275066148580542
 30
0.0
 10
16.8337989995612
 20
2.722399308303967
 30
0.0
 10
16.80728466474102
 20
3.341615988110657
 30
0.0
 10
16.79884375809846
 20
3.538306967312128
 30
0.0
 10
16.78177220606071
 20
3.917587883503582
 30
0.0
 10
16.77296006199987
 20
4.101399380701558
 30
0.0
 10
16.7639452066803
 20
4.277208433718986
 30
0.0
  0
SPLINE
  5
5D0
330
1F
100
AcDbEntity
  8
외형선
  6
Continuous
 62
     1
370
    15
100
AcDbSpline
210
0.0
220
0.0
230
1.0
 70
     8
 71
     3
 72
    12
 73
     8
 74
     0
 42
0.000000001
 43
0.00000001
 40
0.0
 40
0.0
 40
0.0
 40
0.0
 40
0.5000000000000003
 40
0.5000000000000003
 40
0.7500000000000003
 40
0.7500000000000003
 40
1.0
 40
1.0
 40
1.0
 40
1.0
 10
16.71444555022293
 20
1.886800738021176
 30
0.0
 10
16.69569346760196
 20
2.352533163495938
 30
0.0
 10
16.67722445188816
 20
2.798879196268228
 30
0.0
 10
16.6509614893143
 20
3.415987652621698
 30
0.0
 10
16.64262940656715
 20
3.611723056422896
 30
0.0
 10
16.62557020819277
 20
3.990455433790743
 30
0.0
 10
16.61677199798429
 20
4.173844616176666
 30
0.0
 10
16.60777866426665
 20
4.349108265905485
 30
0.0
  0
SPLINE
  5
5D1
330
1F
100
AcDbEntity
  8
외형선
  6
Continuous
 62
     1
370
    15
100
AcDbSpline
210
0.0
220
0.0
230
1.0
 70
     8
 71
     3
 72
    12
 73
     8
 74
     0
 42
0.000000001
 43
0.00000001
 40
0.0
 40
0.0
 40
0.0
 40
0.0
 40
0.5000000000000003
 40
0.5000000000000003
 40
0.7500000000000003
 40
0.7500000000000003
 40
1.0
 40
1.0
 40
1.0
 40
1.0
 10
16.13236615053013
 20
2.08835572168597
 30
0.0
 10
16.1136933370932
 20
2.548582182353858
 30
0.0
 10
16.09541280905444
 20
2.986767397759547
 30
0.0
 10
16.06956150044063
 20
3.588894691067271
 30
0.0
 10
16.06129691854233
 20
3.779954894511459
 30
0.0
 10
16.04392229928943
 20
4.151622325945695
 30
0.0
 10
16.03498607057517
 20
4.330824587931655
 30
0.0
 10
16.02587858239741
 20
4.501285221531283
 30
0.0
  0
SPLINE
  5
5D4
330
1F
100
AcDbEntity
  8
외형선
  6
Continuous
 62
     1
370
    15
100
AcDbSpline
210
0.0
220
0.0
230
1.0
 70
     8
 71
     3
 72
    10
 73
     6
 74
     0
 42
0.000000001
 43
0.00000001
 40
0.0
 40
0.0
 40
0.0
 40
0.0
 40
0.3347562038891155
 40
0.6688252085000846
 40
1.0
 40
1.0
 40
1.0
 40
1.0
 10
11.43986517190933
 20
-5.46814454719425
 30
0.0
 10
11.48917410798302
 20
-5.435294621783193
 30
0.0
 10
11.58769075701674
 20
-5.369662206440292
 30
0.0
 10
11.75952279000356
 20
-5.319464895843804
 30
0.0
 10
11.86594179847307
 20
-5.320646321683991
 30
0.0
 10
11.91891980916262
 20
-5.321234464645393
 30
0.0
  0
SPLINE
  5
5D5
330
1F
100
AcDbEntity
  8
외형선
  6
Continuous
 62
     1
370
    15
100
AcDbSpline
210
0.0
220
0.0
230
1.0
 70
     8
 71
     3
 72
    17
 73
    13
 74
     0
 42
0.000000001
 43
0.00000001
 40
0.0
 40
0.0
 40
0.0
 40
0.0
 40
0.0000438682659993
 40
0.0000438682659993
 40
0.0000438682659993
 40
0.0000877524494899
 40
0.0000877524494899
 40
0.0000877524494899
 40
0.0001307483607606
 40
0.0001307483607606
 40
0.0001307483607606
 40
0.0001750308929564
 40
0.0001750308929564
 40
0.0001750308929564
 40
0.0001750308929564
 10
11.28364556484209
 20
-5.538435774971678
 30
0.0
 10
11.29738872726796
 20
-5.535992404286928
 30
0.0
 10
11.31122546006421
 20
-5.532639310379343
 30
0.0
 10
11.3249097445569
 20
-5.528415405999931
 30
0.0
 10
11.33859693129658
 20
-5.524190605788979
 30
0.0
 10
11.35221703679724
 20
-5.519067582377362
 30
0.0
 10
11.36550410399384
 20
-5.513118598219233
 30
0.0
 10
11.37852144820185
 20
-5.507290376435709
 30
0.0
 10
11.39130414147931
 20
-5.500630577828748
 30
0.0
 10
11.40358224469122
 20
-5.493247293570825
 30
0.0
 10
11.41622199843536
 20
-5.485646535275137
 30
0.0
 10
11.42842005971356
 20
-5.477221084953396
 30
0.0
 10
11.43986559543815
 20
-5.468144659693483
 30
0.0
  0
SPLINE
  5
5D6
330
1F
100
AcDbEntity
  8
외형선
  6
Continuous
 62
     1
370
    15
100
AcDbSpline
210
0.0
220
0.0
230
1.0
 70
     8
 71
     3
 72
     8
 73
     4
 74
     0
 42
0.000000001
 43
0.00000001
 40
0.0
 40
0.0
 40
0.0
 40
0.0
 40
1.0
 40
1.0
 40
1.0
 40
1.0
 10
11.28364556484087
 20
-5.538435774970448
 30
0.0
 10
11.08945339196812
 20
-5.572960831699053
 30
0.0
 10
10.89528430216802
 20
-5.606457871779018
 30
0.0
 10
10.70130003286036
 20
-5.638900089013003
 30
0.0
  0
SPLINE
  5
5D7
330
1F
100
AcDbEntity
  8
외형선
  6
Continuous
 62
     1
370
    15
100
AcDbSpline
210
0.0
220
0.0
230
1.0
 70
     8
 71
     3
 72
     8
 73
     4
 74
     0
 42
0.000000001
 43
0.00000001
 40
0.0
 40
0.0
 40
0.0
 40
0.0
 40
1.0
 40
1.0
 40
1.0
 40
1.0
 10
10.54472353362681
 20
-5.620908237882915
 30
0.0
 10
10.58953204790058
 20
-5.641969203400885
 30
0.0
 10
10.64467216930129
 20
-5.648370895387664
 30
0.0
 10
10.70157046931084
 20
-5.638854860159363
 30
0.0
  0
SPLINE
  5
5D8
330
1F
100
AcDbEntity
  8
외형선
  6
Continuous
 62
     1
370
    15
100
AcDbSpline
210
0.0
220
0.0
230
1.0
 70
     8
 71
     3
 72
    10
 73
     6
 74
     0
 42
0.000000001
 43
0.00000001
 40
0.138665347832328
 40
0.138665347832328
 40
0.138665347832328
 40
0.138665347832328
 40
0.5
 40
0.5
 40
1.0
 40
1.0
 40
1.0
 40
1.0
 10
10.0
 20
-5.66358398353375
 30
0.0
 10
10.07395982303419
 20
-5.621079936613041
 30
0.0
 10
10.1554370154016
 20
-5.593721475486286
 30
0.0
 10
10.34921355891288
 20
-5.565777411758514
 30
0.0
 10
10.45633804558227
 20
-5.579365157372045
 30
0.0
 10
10.54472353362698
 20
-5.620908237882205
 30
0.0
  0
SPLINE
  5
5F7
330
1F
100
AcDbEntity
  8
외형선
  6
Continuous
 62
     1
370
    15
100
AcDbSpline
210
0.0
220
0.0
230
1.0
 70
     8
 71
     3
 72
     8
 73
     4
 74
     0
 42
0.000000001
 43
0.00000001
 40
0.0
 40
0.0
 40
0.0
 40
0.0
 40
0.4353884657557084
 40
0.4353884657557084
 40
0.4353884657557084
 40
0.4353884657557084
 10
10.27442094270226
 20
-4.937244341873768
 30
0.0
 10
10.19366095644781
 20
-4.876045752098661
 30
0.0
 10
10.09768873501622
 20
-4.831540058846432
 30
0.0
 10
10.0
 20
-4.804920650883083
 30
0.0
  0
SPLINE
  5
5F8
330
1F
100
AcDbEntity
  8
외형선
  6
Continuous
 62
     1
370
    15
100
AcDbSpline
210
0.0
220
0.0
230
1.0
 70
     8
 71
     3
 72
    17
 73
    13
 74
     0
 42
0.000000001
 43
0.00000001
 40
0.0
 40
0.0
 40
0.0
 40
0.0
 40
0.0000438685644929
 40
0.0000438685644929
 40
0.0000438685644929
 40
0.0000877529743995
 40
0.0000877529743995
 40
0.0000877529743995
 40
0.0001307116261173
 40
0.0001307116261173
 40
0.0001307116261173
 40
0.0001749545771432
 40
0.0001749545771432
 40
0.0001749545771432
 40
0.0001749545771432
 10
10.43053949998787
 20
-5.009165901319601
 30
0.0
 10
10.41679853333429
 20
-5.006092097465167
 30
0.0
 10
10.40296391036101
 20
-5.002215848695837
 30
0.0
 10
10.38928213904627
 20
-4.997590284878587
 30
0.0
 10
10.37559747919215
 20
-4.992963744497484
 30
0.0
 10
10.36198015587715
 20
-4.987558070641029
 30
0.0
 10
10.34869646195496
 20
-4.981457905540129
 30
0.0
 10
10.33569367590013
 20
-4.975486739524806
 30
0.0
 10
10.32292564160392
 20
-4.968810539549551
 30
0.0
 10
10.3106616974145
 20
-4.96154561653292
 30
0.0
 10
10.29803683428661
 20
-4.954066892127216
 30
0.0
 10
10.28585330887087
 20
-4.945907600992022
 30
0.0
 10
10.27442094270258
 20
-4.937244341873992
 30
0.0
  0
SPLINE
  5
5F9
330
1F
100
AcDbEntity
  8
외형선
  6
Continuous
 62
     1
370
    15
100
AcDbSpline
210
0.0
220
0.0
230
1.0
 70
     8
 71
     3
 72
     8
 73
     4
 74
     0
 42
0.000000001
 43
0.00000001
 40
0.0
 40
0.0
 40
0.0
 40
0.0
 40
1.0
 40
1.0
 40
1.0
 40
1.0
 10
11.01211446821254
 20
-5.136366934637163
 30
0.0
 10
10.81810401214742
 20
-5.094897936233789
 30
0.0
 10
10.62419200292661
 20
-5.052485256133615
 30
0.0
 10
10.43053949998718
 20
-5.009165901319433
 30
0.0
  0
SPLINE
  5
5FA
330
1F
100
AcDbEntity
  8
외형선
  6
Continuous
 62
     1
370
    15
100
AcDbSpline
210
0.0
220
0.0
230
1.0
 70
     8
 71
     3
 72
     8
 73
     4
 74
     0
 42
0.000000001
 43
0.00000001
 40
0.0
 40
0.0
 40
0.0
 40
0.0
 40
1.0
 40
1.0
 40
1.0
 40
1.0
 10
11.16878934871299
 20
-5.130884884146479
 30
0.0
 10
11.12404309896891
 20
-5.146492661422503
 30
0.0
 10
11.06895829349921
 20
-5.148517086478629
 30
0.0
 10
11.01211446821341
 20
-5.136366934637369
 30
0.0
  0
SPLINE
  5
5FB
330
1F
100
AcDbEntity
  8
외형선
  6
Continuous
 62
     1
370
    15
100
AcDbSpline
210
0.0
220
0.0
230
1.0
 70
     8
 71
     3
 72
    10
 73
     6
 74
     0
 42
0.000000001
 43
0.00000001
 40
0.0
 40
0.0
 40
0.0
 40
0.0
 40
0.5
 40
0.5
 40
1.0
 40
1.0
 40
1.0
 40
1.0
 10
11.79431068659882
 20
-5.258255815612809
 30
0.0
 10
11.70162083737401
 20
-5.185921380276858
 30
0.0
 10
11.5888759850742
 20
-5.138163958594578
 30
0.0
 10
11.36407010227039
 20
-5.095152802819609
 30
0.0
 10
11.25705220555845
 20
-5.10009823679013
 30
0.0
 10
11.16878934871302
 20
-5.130884884146463
 30
0.0
  0
SPLINE
  5
5FC
330
1F
100
AcDbEntity
  8
외형선
  6
Continuous
 62
     1
370
    15
100
AcDbSpline
210
0.0
220
0.0
230
1.0
 70
     8
 71
     3
 72
    17
 73
    13
 74
     0
 42
0.000000001
 43
0.00000001
 40
0.0
 40
0.0
 40
0.0
 40
0.0
 40
0.0000438686868608
 40
0.0000438686868608
 40
0.0000438686868608
 40
0.0000877532672001
 40
0.0000877532672001
 40
0.0000877532672001
 40
0.0001306935001213
 40
0.0001306935001213
 40
0.0001306935001213
 40
0.0001749175083314
 40
0.0001749175083314
 40
0.0001749175083314
 40
0.0001749175083314
 10
11.95041185895776
 20
-5.329407648553818
 30
0.0
 10
11.93666944302703
 20
-5.326690481825555
 30
0.0
 10
11.92283316882128
 20
-5.323105711808999
 30
0.0
 10
11.90914982349069
 20
-5.318698537124693
 30
0.0
 10
11.89546358004065
 20
-5.314290429005004
 30
0.0
 10
11.88184465675505
 20
-5.30903134055993
 30
0.0
 10
11.8685596950465
 20
-5.302999309874966
 30
0.0
 10
11.85556125498262
 20
-5.297097374209503
 30
0.0
 10
11.84279761064442
 20
-5.290416242642831
 30
0.0
 10
11.83053805347193
 20
-5.283067904323154
 30
0.0
 10
11.81791768924602
 20
-5.275503299440242
 30
0.0
 10
11.80573870172893
 20
-5.267174149479551
 30
0.0
 10
11.79431068659912
 20
-5.258255815613044
 30
0.0
  0
SPLINE
  5
5FD
330
1F
100
AcDbEntity
  8
외형선
  6
Continuous
 62
     1
370
    15
100
AcDbSpline
210
0.0
220
0.0
230
1.0
 70
     8
 71
     3
 72
     8
 73
     4
 74
     0
 42
0.000000001
 43
0.00000001
 40
0.0
 40
0.0
 40
0.0
 40
0.0
 40
1.0
 40
1.0
 40
1.0
 40
1.0
 10
12.53204325215643
 20
-5.441512006544755
 30
0.0
 10
12.33843589721045
 20
-5.405161649770593
 30
0.0
 10
12.14450507966045
 20
-5.367783989666716
 30
0.0
 10
11.9504118589895
 20
-5.329407648560077
 30
0.0
  0
SPLINE
  5
5FE
330
1F
100
AcDbEntity
  8
외형선
  6
Continuous
 62
     1
370
    15
100
AcDbSpline
210
0.0
220
0.0
230
1.0
 70
     8
 71
     3
 72
     8
 73
     4
 74
     0
 42
0.000000001
 43
0.00000001
 40
0.0
 40
0.0
 40
0.0
 40
0.0
 40
1.0
 40
1.0
 40
1.0
 40
1.0
 10
12.68877714252248
 20
-5.428851810317635
 30
0.0
 10
12.64400850962721
 20
-5.447641881814777
 30
0.0
 10
12.58890698027722
 20
-5.452188340639825
 30
0.0
 10
12.53204325215755
 20
-5.44151200654499
 30
0.0
  0
SPLINE
  5
5FF
330
1F
100
AcDbEntity
  8
외형선
  6
Continuous
 62
     1
370
    15
100
AcDbSpline
210
0.0
220
0.0
230
1.0
 70
     8
 71
     3
 72
    10
 73
     6
 74
     0
 42
0.000000001
 43
0.00000001
 40
0.0
 40
0.0
 40
0.0
 40
0.0
 40
0.5
 40
0.5
 40
1.0
 40
1.0
 40
1.0
 40
1.0
 10
13.31457965776477
 20
-5.539979406832026
 30
0.0
 10
13.22182330507398
 20
-5.465991919686529
 30
0.0
 10
13.10901798639462
 20
-5.418998409578936
 30
0.0
 10
12.88415292324292
 20
-5.381876610823188
 30
0.0
 10
12.77709711681663
 20
-5.391782582952697
 30
0.0
 10
12.68877714252248
 20
-5.428851810317639
 30
0.0
  0
SPLINE
  5
600
330
1F
100
AcDbEntity
  8
외형선
  6
Continuous
 62
     1
370
    15
100
AcDbSpline
210
0.0
220
0.0
230
1.0
 70
     8
 71
     3
 72
    17
 73
    13
 74
     0
 42
0.000000001
 43
0.00000001
 40
0.0
 40
0.0
 40
0.0
 40
0.0
 40
0.0000438683679907
 40
0.0000438683679907
 40
0.0000438683679907
 40
0.0000877526204521
 40
0.0000877526204521
 40
0.0000877526204521
 40
0.0001307356620966
 40
0.0001307356620966
 40
0.0001307356620966
 40
0.0001750043904616
 40
0.0001750043904616
 40
0.0001750043904616
 40
0.0001750043904616
 10
13.4707366825433
 20
-5.609929052807692
 30
0.0
 10
13.45699677694509
 20
-5.607584539196971
 30
0.0
 10
13.44316331203056
 20
-5.604314521032332
 30
0.0
 10
13.42948241472152
 20
-5.60015587494571
 30
0.0
 10
13.41579862191816
 20
-5.595996348702196
 30
0.0
 10
13.40218199696612
 20
-5.590921152789271
 30
0.0
 10
13.38889852517418
 20
-5.58500082284319
 30
0.0
 10
13.37588858648414
 20
-5.579202404264839
 30
0.0
 10
13.36311326897963
 20
-5.572554674429586
 30
0.0
 10
13.35084219674164
 20
-5.565164450642296
 30
0.0
 10
13.3382098256323
 20
-5.557556635477368
 30
0.0
 10
13.32601886421958
 20
-5.549103937022956
 30
0.0
 10
13.31457965776509
 20
-5.539979406832275
 30
0.0
  0
SPLINE
  5
601
330
1F
100
AcDbEntity
  8
외형선
  6
Continuous
 62
     1
370
    15
100
AcDbSpline
210
0.0
220
0.0
230
1.0
 70
     8
 71
     3
 72
     8
 73
     4
 74
     0
 42
0.000000001
 43
0.00000001
 40
0.0
 40
0.0
 40
0.0
 40
0.0
 40
1.0
 40
1.0
 40
1.0
 40
1.0
 10
14.05257789808454
 20
-5.705987615926134
 30
0.0
 10
13.85842740137328
 20
-5.675008640507922
 30
0.0
 10
13.66442663409813
 20
-5.642979405039895
 30
0.0
 10
13.47073684049685
 20
-5.609929079760114
 30
0.0
  0
SPLINE
  5
602
330
1F
100
AcDbEntity
  8
외형선
  6
Continuous
 62
     1
370
    15
100
AcDbSpline
210
0.0
220
0.0
230
1.0
 70
     8
 71
     3
 72
     8
 73
     4
 74
     0
 42
0.000000001
 43
0.00000001
 40
0.0
 40
0.0
 40
0.0
 40
0.0
 40
1.0
 40
1.0
 40
1.0
 40
1.0
 10
14.20936732724292
 20
-5.686093185383282
 30
0.0
 10
14.1645783540632
 20
-5.707976047542047
 30
0.0
 10
14.10945653363528
 20
-5.715063265395798
 30
0.0
 10
14.05257789808564
 20
-5.705987615926334
 30
0.0
  0
SPLINE
  5
603
330
1F
100
AcDbEntity
  8
외형선
  6
Continuous
 62
     1
370
    15
100
AcDbSpline
210
0.0
220
0.0
230
1.0
 70
     8
 71
     3
 72
    10
 73
     6
 74
     0
 42
0.000000001
 43
0.00000001
 40
0.0
 40
0.0
 40
0.0
 40
0.0
 40
0.5
 40
0.5
 40
1.0
 40
1.0
 40
1.0
 40
1.0
 10
14.83533352051106
 20
-5.779339634199058
 30
0.0
 10
14.74257036716563
 20
-5.704380501533588
 30
0.0
 10
14.62974577373895
 20
-5.658612374889785
 30
0.0
 10
14.40480261781786
 20
-5.627977186214242
 30
0.0
 10
14.2977121990962
 20
-5.642929912909
 30
0.0
 10
14.20936732724292
 20
-5.686093185383266
 30
0.0
  0
SPLINE
  5
604
330
1F
100
AcDbEntity
  8
외형선
  6
Continuous
 62
     1
370
    15
100
AcDbSpline
210
0.0
220
0.0
230
1.0
 70
     8
 71
     3
 72
    17
 73
    13
 74
     0
 42
0.000000001
 43
0.00000001
 40
0.0
 40
0.0
 40
0.0
 40
0.0
 40
0.0000438683650611
 40
0.0000438683650611
 40
0.0000438683650611
 40
0.0000877526516125
 40
0.0000877526516125
 40
0.0000877526516125
 40
0.0001307350733708
 40
0.0001307350733708
 40
0.0001307350733708
 40
0.0001750034959289
 40
0.0001750034959289
 40
0.0001750034959289
 40
0.0001750034959289
 10
14.99152361458482
 20
-5.847443192039222
 30
0.0
 10
14.97778082541072
 20
-5.845495186417578
 30
0.0
 10
14.96394437149048
 20
-5.842570494211969
 30
0.0
 10
14.95026045149551
 20
-5.8386973538645
 30
0.0
 10
14.93657362843018
 20
-5.834823391822745
 30
0.0
 10
14.92295391417669
 20
-5.829975642279546
 30
0.0
 10
14.9096674411002
 20
-5.824216725652303
 30
0.0
 10
14.89665476243314
 20
-5.818576483045462
 30
0.0
 10
14.88387674775578
 20
-5.812024575693052
 30
0.0
 10
14.87160319573651
 20
-5.804661730279493
 30
0.0
 10
14.85896817989874
 20
-5.797082044442377
 30
0.0
 10
14.84677477190944
 20
-5.788584967615385
 30
0.0
 10
14.83533352051137
 20
-5.779339634199321
 30
0.0
  0
SPLINE
  5
605
330
1F
100
AcDbEntity
  8
외형선
  6
Continuous
 62
     1
370
    15
100
AcDbSpline
210
0.0
220
0.0
230
1.0
 70
     8
 71
     3
 72
     8
 73
     4
 74
     0
 42
0.000000001
 43
0.00000001
 40
0.0
 40
0.0
 40
0.0
 40
0.0
 40
1.0
 40
1.0
 40
1.0
 40
1.0
 10
15.57351179874678
 20
-5.926720789774715
 30
0.0
 10
15.37973486574352
 20
-5.901397563857154
 30
0.0
 10
15.18568500614209
 20
-5.874965078424022
 30
0.0
 10
14.99152361458421
 20
-5.847443192039115
 30
0.0
  0
SPLINE
  5
606
330
1F
100
AcDbEntity
  8
외형선
  6
Continuous
 62
     1
370
    15
100
AcDbSpline
210
0.0
220
0.0
230
1.0
 70
     8
 71
     3
 72
     8
 73
     4
 74
     0
 42
0.000000001
 43
0.00000001
 40
0.0
 40
0.0
 40
0.0
 40
0.0
 40
1.0
 40
1.0
 40
1.0
 40
1.0
 10
15.73034586635669
 20
-5.899843513273495
 30
0.0
 10
15.68554139210616
 20
-5.924617745212176
 30
0.0
 10
15.63040633861634
 20
-5.934155902221926
 30
0.0
 10
15.57351179874793
 20
-5.926720789774894
 30
0.0
  0
SPLINE
  5
607
330
1F
100
AcDbEntity
  8
외형선
  6
Continuous
 62
     1
370
    15
100
AcDbSpline
210
0.0
220
0.0
230
1.0
 70
     8
 71
     3
 72
    10
 73
     6
 74
     0
 42
0.000000001
 43
0.00000001
 40
0.0
 40
0.0
 40
0.0
 40
0.0
 40
0.5
 40
0.5
 40
1.0
 40
1.0
 40
1.0
 40
1.0
 10
16.3564678289701
 20
-5.975115915757677
 30
0.0
 10
16.26366632587323
 20
-5.899652620356793
 30
0.0
 10
16.15082388893046
 20
-5.855360493951519
 30
0.0
 10
15.92585413957826
 20
-5.83120065822709
 30
0.0
 10
15.81873175767616
 20
-5.85097132788837
 30
0.0
 10
15.7303458663567
 20
-5.899843513273488
 30
0.0
  0
SPLINE
  5
608
330
1F
100
AcDbEntity
  8
외형선
  6
Continuous
 62
     1
370
    15
100
AcDbSpline
210
0.0
220
0.0
230
1.0
 70
     8
 71
     3
 72
    17
 73
    13
 74
     0
 42
0.000000001
 43
0.00000001
 40
0.0
 40
0.0
 40
0.0
 40
0.0
 40
0.0000438680867829
 40
0.0000438680867829
 40
0.0000438680867829
 40
0.000087752078465
 40
0.000087752078465
 40
0.000087752078465
 40
0.0001307726002057
 40
0.0001307726002057
 40
0.0001307726002057
 40
0.0001750807627884
 40
0.0001750807627884
 40
0.0001750807627884
 40
0.0001750807627884
 10
16.51268807638523
 20
-6.040961189483232
 30
0.0
 10
16.49894942796284
 20
-6.039418116710364
 30
0.0
 10
16.4851173592519
 20
-6.03685498965762
 30
0.0
 10
16.47143744790969
 20
-6.033291310948435
 30
0.0
 10
16.45775463782078
 20
-6.02972687710264
 30
0.0
 10
16.444138755875
 20
-6.025138466901348
 30
0.0
 10
16.4308552992286
 20
-6.019580241688773
 30
0.0
 10
16.41783404158608
 20
-6.014131728966914
 30
0.0
 10
16.40504721050668
 20
-6.00771484119689
 30
0.0
 10
16.39276483846129
 20
-6.000423479014822
 30
0.0
 10
16.38012062351342
 20
-5.9929173107965
 30
0.0
 10
16.36791790602709
 20
-5.984426762225425
 30
0.0
 10
16.35646782897042
 20
-5.975115915757932
 30
0.0
  0
SPLINE
  5
609
330
1F
100
AcDbEntity
  8
외형선
  6
Continuous
 62
     1
370
    15
100
AcDbSpline
210
0.0
220
0.0
230
1.0
 70
     8
 71
     3
 72
     8
 73
     4
 74
     0
 42
0.000000001
 43
0.00000001
 40
0.0
 40
0.0
 40
0.0
 40
0.0
 40
1.0
 40
1.0
 40
1.0
 40
1.0
 10
17.09477160857983
 20
-6.102893195805834
 30
0.0
 10
16.90048921399914
 20
-6.083369861853567
 30
0.0
 10
16.70640756977008
 20
-6.062719026690051
 30
0.0
 10
16.51268807637895
 20
-6.040961189482498
 30
0.0
  0
SPLINE
  5
60A
330
1F
100
AcDbEntity
  8
외형선
  6
Continuous
 62
     1
370
    15
100
AcDbSpline
210
0.0
220
0.0
230
1.0
 70
     8
 71
     3
 72
     8
 73
     4
 74
     0
 42
0.000000001
 43
0.00000001
 40
0.0
 40
0.0
 40
0.0
 40
0.0
 40
1.0
 40
1.0
 40
1.0
 40
1.0
 10
17.251625335336
 20
-6.069161737050933
 30
0.0
 10
17.20681283833991
 20
-6.096667487791581
 30
0.0
 10
17.15166966936641
 20
-6.108610851511752
 30
0.0
 10
17.09477160858094
 20
-6.102893195805978
 30
0.0
  0
SPLINE
  5
60B
330
1F
100
AcDbEntity
  8
외형선
  6
Continuous
 62
     1
370
    15
100
AcDbSpline
210
0.0
220
0.0
230
1.0
 70
     8
 71
     3
 72
    10
 73
     6
 74
     0
 42
0.000000001
 43
0.00000001
 40
0.0
 40
0.0
 40
0.0
 40
0.0
 40
0.5
 40
0.5
 40
1.0
 40
1.0
 40
1.0
 40
1.0
 10
17.87777910732976
 20
-6.12537185379394
 30
0.0
 10
17.7849846966991
 20
-6.050076563101246
 30
0.0
 10
17.67212534442643
 20
-6.007690910339583
 30
0.0
 10
17.44712369111875
 20
-5.990384440650164
 30
0.0
 10
17.34000620595111
 20
-6.014913874058784
 30
0.0
 10
17.251625335336
 20
-6.069161737050942
 30
0.0
  0
SPLINE
  5
60C
330
1F
100
AcDbEntity
  8
외형선
  6
Continuous
 62
     1
370
    15
100
AcDbSpline
210
0.0
220
0.0
230
1.0
 70
     8
 71
     3
 72
    17
 73
    13
 74
     0
 42
0.000000001
 43
0.00000001
 40
0.0
 40
0.0
 40
0.0
 40
0.0
 40
0.0000438682529114
 40
0.0000438682529114
 40
0.0000438682529114
 40
0.0000877524302312
 40
0.0000877524302312
 40
0.0000877524302312
 40
0.0001307498741803
 40
0.0001307498741803
 40
0.0001307498741803
 40
0.0001750340645223
 40
0.0001750340645223
 40
0.0001750340645223
 40
0.0001750340645223
 10
18.03400167891043
 20
-6.188350984546537
 30
0.0
 10
18.02025862883001
 20
-6.187231036026994
 30
0.0
 10
18.00642199754338
 20
-6.18505425220317
 30
0.0
 10
17.9927377791378
 20
-6.181831248512019
 30
0.0
 10
17.97905065721102
 20
-6.178607560963068
 30
0.0
 10
17.9654305878822
 20
-6.174316266562514
 30
0.0
 10
17.95214351622363
 20
-6.169002946704119
 30
0.0
 10
17.93912570580673
 20
-6.1637973007666
 30
0.0
 10
17.92634252599512
 20
-6.157575696604548
 30
0.0
 10
17.9140639452594
 20
-6.150424594429207
 30
0.0
 10
17.90142367859679
 20
-6.143062844698226
 30
0.0
 10
17.88922510636928
 20
-6.13465937250427
 30
0.0
 10
17.87777910733007
 20
-6.125371853794199
 30
0.0
  0
SPLINE
  5
60D
330
1F
100
AcDbEntity
  8
외형선
  6
Continuous
 62
     1
370
    15
100
AcDbSpline
210
0.0
220
0.0
230
1.0
 70
     8
 71
     3
 72
     8
 73
     4
 74
     0
 42
0.000000001
 43
0.00000001
 40
0.0
 40
0.0
 40
0.0
 40
0.0
 40
1.0
 40
1.0
 40
1.0
 40
1.0
 10
18.61610000145808
 20
-6.23235965332071
 30
0.0
 10
18.42223588957904
 20
-6.218845528975544
 30
0.0
 10
18.22814927689785
 20
-6.204172458940221
 30
0.0
 10
18.03400167890167
 20
-6.188350984545796
 30
0.0
  0
SPLINE
  5
60E
330
1F
100
AcDbEntity
  8
외형선
  6
Continuous
 62
     1
370
    15
100
AcDbSpline
210
0.0
220
0.0
230
1.0
 70
     8
 71
     3
 72
     8
 73
     4
 74
     0
 42
0.000000001
 43
0.00000001
 40
0.0
 40
0.0
 40
0.0
 40
0.0
 40
1.0
 40
1.0
 40
1.0
 40
1.0
 10
18.77295794786751
 20
-6.192071986481672
 30
0.0
 10
18.72814524732229
 20
-6.222081935644347
 30
0.0
 10
18.67300180311568
 20
-6.236326235972712
 30
0.0
 10
18.6161000014592
 20
-6.232359653320822
 30
0.0
  0
SPLINE
  5
60F
330
1F
100
AcDbEntity
  8
외형선
  6
Continuous
 62
     1
370
    15
100
AcDbSpline
210
0.0
220
0.0
230
1.0
 70
     8
 71
     3
 72
    10
 73
     6
 74
     0
 42
0.000000001
 43
0.00000001
 40
0.0
 40
0.0
 40
0.0
 40
0.0
 40
0.5
 40
0.5
 40
1.0
 40
1.0
 40
1.0
 40
1.0
 10
19.39912665535795
 20
-6.229138100615383
 30
0.0
 10
19.30632718289692
 20
-6.154518622973052
 30
0.0
 10
19.19347413114839
 20
-6.114297068110758
 30
0.0
 10
18.96848902046251
 20
-6.103835933487632
 30
0.0
 10
18.86135402953217
 20
-6.132875332750473
 30
0.0
 10
18.77295794786754
 20
-6.192071986481661
 30
0.0
  0
SPLINE
  5
610
330
1F
100
AcDbEntity
  8
외형선
  6
Continuous
 62
     1
370
    15
100
AcDbSpline
210
0.0
220
0.0
230
1.0
 70
     8
 71
     3
 72
    17
 73
    13
 74
     0
 42
0.000000001
 43
0.00000001
 40
0.0
 40
0.0
 40
0.0
 40
0.0
 40
0.0000438680179596
 40
0.0000438680179596
 40
0.0000438680179596
 40
0.0000877519362465
 40
0.0000877519362465
 40
0.0000877519362465
 40
0.000130782056532
 40
0.000130782056532
 40
0.000130782056532
 40
0.0001751004335772
 40
0.0001751004335772
 40
0.0001751004335772
 40
0.0001751004335772
 10
19.55535271288741
 20
-6.288856951050711
 30
0.0
 10
19.54161542917332
 20
-6.288163248095094
 30
0.0
 10
19.52778475313934
 20
-6.28638513707693
 30
0.0
 10
19.5141061022659
 20
-6.283524317506739
 30
0.0
 10
19.50042455387371
 20
-6.280662891935384
 30
0.0
 10
19.48680985148408
 20
-6.276699618887982
 30
0.0
 10
19.47352733091864
 20
-6.27167090668795
 30
0.0
 10
19.4605040858069
 20
-6.26674035519701
 30
0.0
 10
19.4477151710289
 20
-6.260752370893218
 30
0.0
 10
19.43543068053745
 20
-6.253785157399722
 30
0.0
 10
19.42278421099621
 20
-6.246612645581347
 30
0.0
 10
19.41057909509135
 20
-6.23834693605345
 30
0.0
 10
19.39912665535827
 20
-6.229138100615643
 30
0.0
  0
SPLINE
  5
611
330
1F
100
AcDbEntity
  8
외형선
  6
Continuous
 62
     1
370
    15
100
AcDbSpline
210
0.0
220
0.0
230
1.0
 70
     8
 71
     3
 72
     8
 73
     4
 74
     0
 42
0.000000001
 43
0.00000001
 40
0.0
 40
0.0
 40
0.0
 40
0.0
 40
1.0
 40
1.0
 40
1.0
 40
1.0
 10
20.13742897130368
 20
-6.314702233952287
 30
0.0
 10
19.94309788642551
 20
-6.307255494320856
 30
0.0
 10
19.74901848551058
 20
-6.298636653896015
 30
0.0
 10
19.55535210868274
 20
-6.288856920539654
 30
0.0
  0
SPLINE
  5
612
330
1F
100
AcDbEntity
  8
외형선
  6
Continuous
 62
     1
370
    15
100
AcDbSpline
210
0.0
220
0.0
230
1.0
 70
     8
 71
     3
 72
     8
 73
     4
 74
     0
 42
0.000000001
 43
0.00000001
 40
0.0
 40
0.0
 40
0.0
 40
0.0
 40
1.0
 40
1.0
 40
1.0
 40
1.0
 10
20.29427007321708
 20
-6.268139312264889
 30
0.0
 10
20.24946189494662
 20
-6.300437942869893
 30
0.0
 10
20.19432271490342
 20
-6.31688239414369
 30
0.0
 10
20.13742897130616
 20
-6.314702233952419
 30
0.0
  0
SPLINE
  5
613
330
1F
100
AcDbEntity
  8
외형선
  6
Continuous
 62
     1
370
    15
100
AcDbSpline
210
0.0
220
0.0
230
1.0
 70
     8
 71
     3
 72
    10
 73
     6
 74
     0
 42
0.000000001
 43
0.00000001
 40
0.0
 40
0.0
 40
0.0
 40
0.0
 40
0.5
 40
0.5
 40
1.0
 40
1.0
 40
1.0
 40
1.0
 10
20.92034242528212
 20
-6.285569459742891
 30
0.0
 10
20.82756043683702
 20
-6.21223777269806
 30
0.0
 10
20.71471248772175
 20
-6.174516491247527
 30
0.0
 10
20.48973619101024
 20
-6.171070147938281
 30
0.0
 10
20.38263588656042
 20
-6.204443467589829
 30
0.0
 10
20.29427007321709
 20
-6.268139312264887
 30
0.0
  0
SPLINE
  5
614
330
1F
100
AcDbEntity
  8
외형선
  6
Continuous
 62
     1
370
    15
100
AcDbSpline
210
0.0
220
0.0
230
1.0
 70
     8
 71
     3
 72
    17
 73
    13
 74
     0
 42
0.000000001
 43
0.00000001
 40
0.0
 40
0.0
 40
0.0
 40
0.0
 40
0.000043868353946
 40
0.000043868353946
 40
0.000043868353946
 40
0.0000877526101145
 40
0.0000877526101145
 40
0.0000877526101145
 40
0.0001307373456218
 40
0.0001307373456218
 40
0.0001307373456218
 40
0.0001750080641209
 40
0.0001750080641209
 40
0.0001750080641209
 40
0.0001750080641209
 10
21.07653993145752
 20
-6.341511014299144
 30
0.0
 10
21.06279672716155
 20
-6.34125281945489
 30
0.0
 10
21.04895991361268
 20
-6.339888826694086
 30
0.0
 10
21.03527567096479
 20
-6.337411860499367
 30
0.0
 10
21.02158852884406
 20
-6.334934369475
 30
0.0
 10
21.00796854123949
 20
-6.331327078969649
 30
0.0
 10
20.99468179404484
 20
-6.326617437171429
 30
0.0
 10
20.98166814148105
 20
-6.322004596935667
 30
0.0
 10
20.96888918734174
 20
-6.316303116258792
 30
0.0
 10
20.95661472615714
 20
-6.309582753020056
 30
0.0
 10
20.94397880003309
 20
-6.302664484907577
 30
0.0
 10
20.93178450898223
 20
-6.294612888484801
 30
0.0
 10
20.92034242528243
 20
-6.285569459743151
 30
0.0
  0
SPLINE
  5
615
330
1F
100
AcDbEntity
  8
외형선
  6
Continuous
 62
     1
370
    15
100
AcDbSpline
210
0.0
220
0.0
230
1.0
 70
     8
 71
     3
 72
     8
 73
     4
 74
     0
 42
0.000000001
 43
0.00000001
 40
0.0
 40
0.0
 40
0.0
 40
0.0
 40
1.0
 40
1.0
 40
1.0
 40
1.0
 10
21.65849809522364
 20
-6.348925475876495
 30
0.0
 10
21.46454008938841
 20
-6.34762785869272
 30
0.0
 10
21.27041000771969
 20
-6.345154359136689
 30
0.0
 10
21.07626949447547
 20
-6.341505932815018
 30
0.0
  0
SPLINE
  5
616
330
1F
100
AcDbEntity
  8
외형선
  6
Continuous
 62
     1
370
    15
100
AcDbSpline
210
0.0
220
0.0
230
1.0
 70
     8
 71
     3
 72
     8
 73
     4
 74
     0
 42
0.000000001
 43
0.00000001
 40
0.0
 40
0.0
 40
0.0
 40
0.0
 40
1.0
 40
1.0
 40
1.0
 40
1.0
 10
21.81530285964288
 20
-6.296458089166217
 30
0.0
 10
21.77050982085186
 20
-6.330789273832195
 30
0.0
 10
21.71538337212759
 20
-6.349306049560234
 30
0.0
 10
21.65849809522476
 20
-6.348925475876534
 30
0.0
  0
SPLINE
  5
617
330
1F
100
AcDbEntity
  8
외형선
  6
Continuous
 62
     1
370
    15
100
AcDbSpline
210
0.0
220
0.0
230
1.0
 70
     8
 71
     3
 72
     9
 73
     5
 74
     0
 42
0.000000001
 43
0.00000001
 40
0.0
 40
0.0
 40
0.0
 40
0.0
 40
0.3656482611679828
 40
0.9999999999999999
 40
0.9999999999999999
 40
0.9999999999999999
 40
0.9999999999999999
 10
22.04015636444092
 20
-6.205017212778337
 30
0.0
 10
22.0100160412868
 20
-6.208896368703986
 30
0.0
 10
21.92758621362168
 20
-6.219505350990012
 30
0.0
 10
21.85888448865475
 20
-6.266589975202768
 30
0.0
 10
21.8153034299612
 20
-6.296458188444383
 30
0.0
  0
SPLINE
  5
619
330
1F
100
AcDbEntity
  8
외형선
  6
Continuous
 62
     1
370
    15
100
AcDbSpline
210
0.0
220
0.0
230
1.0
 70
     8
 71
     3
 72
    12
 73
     8
 74
     0
 42
0.000000001
 43
0.00000001
 40
0.0
 40
0.0
 40
0.0
 40
0.0
 40
0.5
 40
0.5
 40
0.7499999999999998
 40
0.7499999999999998
 40
1.0
 40
1.0
 40
1.0
 40
1.0
 10
15.97614957695622
 20
2.116528487475351
 30
0.0
 10
15.95739528403536
 20
2.574065864231869
 30
0.0
 10
15.93906307592309
 20
3.008894435854753
 30
0.0
 10
15.91318571654978
 20
3.605133740118617
 30
0.0
 10
15.9048444908714
 20
3.794674818400196
 30
0.0
 10
15.88728669300275
 20
4.163093475680782
 30
0.0
 10
15.87826208756893
 20
4.340465889496862
 30
0.0
 10
15.86907192835959
 20
4.508888126873533
 30
0.0
  0
SPLINE
  5
61D
330
1F
100
AcDbEntity
  8
외형선
  6
Continuous
 62
     1
370
    15
100
AcDbSpline
210
0.0
220
0.0
230
1.0
 70
     8
 71
     3
 72
    10
 73
     6
 74
     0
 42
0.000000001
 43
0.00000001
 40
0.0
 40
0.0
 40
0.0
 40
0.0
 40
0.5000000000000002
 40
0.5000000000000002
 40
1.0
 40
1.0
 40
1.0
 40
1.0
 10
15.35006540755371
 20
2.328043250032826
 30
0.0
 10
15.33145062783503
 20
2.778381608611578
 30
0.0
 10
15.31337348441866
 20
3.203299465247518
 30
0.0
 10
15.27954944423014
 20
3.975072515358704
 30
0.0
 10
15.26162977825879
 20
4.33827866495027
 30
0.0
 10
15.2430566623671
 20
4.663685516788604
 30
0.0
  0
SPLINE
  5
61E
330
1F
100
AcDbEntity
  8
외형선
  6
Continuous
 62
     1
370
    15
100
AcDbSpline
210
0.0
220
0.0
230
1.0
 70
     8
 71
     3
 72
    10
 73
     6
 74
     0
 42
0.000000001
 43
0.00000001
 40
0.0
 40
0.0
 40
0.0
 40
0.0
 40
0.5
 40
0.5
 40
1.0
 40
1.0
 40
1.0
 40
1.0
 10
15.19324230574745
 20
2.408160433931293
 30
0.0
 10
15.17477933438582
 20
2.857517148333841
 30
0.0
 10
15.1569662351932
 20
3.280142973997854
 30
0.0
 10
15.12333231814054
 20
4.04939305042889
 30
0.0
 10
15.10536339204819
 20
4.412011374845445
 30
0.0
 10
15.08685891455724
 20
4.735772179010347
 30
0.0
  0
SPLINE
  5
61F
330
1F
100
AcDbEntity
  8
외형선
  6
Continuous
 62
     1
370
    15
100
AcDbSpline
210
0.0
220
0.0
230
1.0
 70
     8
 71
     3
 72
    12
 73
     8
 74
     0
 42
0.000000001
 43
0.00000001
 40
0.0
 40
0.0
 40
0.0
 40
0.0
 40
0.2500000000000001
 40
0.2500000000000001
 40
0.5000000000000002
 40
0.5000000000000002
 40
1.0
 40
1.0
 40
1.0
 40
1.0
 10
14.61129089619988
 20
2.602539479675393
 30
0.0
 10
14.60214858426698
 20
2.823276970086027
 30
0.0
 10
14.59316899019339
 20
3.037018797714573
 30
0.0
 10
14.57569322424952
 20
3.447022716737088
 30
0.0
 10
14.5673873800304
 20
3.64193773725345
 30
0.0
 10
14.54169104998596
 20
4.208666494532984
 30
0.0
 10
14.52348555035033
 20
4.561869109049436
 30
0.0
 10
14.50485033882487
 20
4.874053117445587
 30
0.0
  0
SPLINE
  5
621
330
1F
100
AcDbEntity
  8
외형선
  6
Continuous
 62
     1
370
    15
100
AcDbSpline
210
0.0
220
0.0
230
1.0
 70
     8
 71
     3
 72
    12
 73
     8
 74
     0
 42
0.000000001
 43
0.00000001
 40
0.0
 40
0.0
 40
0.0
 40
0.0
 40
0.2499999999999998
 40
0.2499999999999998
 40
0.4999999999999996
 40
0.4999999999999996
 40
1.0
 40
1.0
 40
1.0
 40
1.0
 10
14.455109265107
 20
2.624624443110825
 30
0.0
 10
14.44593881865954
 20
2.843773131002315
 30
0.0
 10
14.43693865503059
 20
3.055777708248034
 30
0.0
 10
14.41943768342846
 20
3.46204071863891
 30
0.0
 10
14.41112015167731
 20
3.655043187465619
 30
0.0
 10
14.38515907528156
 20
4.217218978447697
 30
0.0
 10
14.36678687353124
 20
4.566616287930348
 30
0.0
 10
14.34801334951626
 20
4.874239315356913
 30
0.0
  0
SPLINE
  5
622
330
1F
100
AcDbEntity
  8
외형선
  6
Continuous
 62
     1
370
    15
100
AcDbSpline
210
0.0
220
0.0
230
1.0
 70
     8
 71
     3
 72
    10
 73
     6
 74
     0
 42
0.000000001
 43
0.00000001
 40
0.0
 40
0.0
 40
0.0
 40
0.0
 40
0.5000000000000001
 40
0.5000000000000001
 40
1.0
 40
1.0
 40
1.0
 40
1.0
 10
10.27442086244902
 20
-4.937242986787627
 30
0.0
 10
10.25721222723496
 20
-4.646672931642691
 30
0.0
 10
10.2389984963704
 20
-4.309053992594725
 30
0.0
 10
10.20185698949234
 20
-3.559351839924187
 30
0.0
 10
10.18294110566637
 20
-3.147471958365834
 30
0.0
 10
10.16441455224653
 20
-2.714624816424209
 30
0.0
  0
SPLINE
  5
623
330
1F
100
AcDbEntity
  8
외형선
  6
Continuous
 62
     1
370
    15
100
AcDbSpline
210
0.0
220
0.0
230
1.0
 70
     8
 71
     3
 72
    10
 73
     6
 74
     0
 42
0.000000001
 43
0.00000001
 40
0.0
 40
0.0
 40
0.0
 40
0.0
 40
0.5000000000000001
 40
0.5000000000000001
 40
1.0
 40
1.0
 40
1.0
 40
1.0
 10
10.43053949687496
 20
-5.009165848686099
 30
0.0
 10
10.41348925863838
 20
-4.720879549390173
 30
0.0
 10
10.39542559735449
 20
-4.385444997691231
 30
0.0
 10
10.35853477369035
 20
-3.639214694060467
 30
0.0
 10
10.33971907393544
 20
-3.228611759416987
 30
0.0
 10
10.32125621138837
 20
-2.796273932276812
 30
0.0
  0
SPLINE
  5
624
330
1F
100
AcDbEntity
  8
외형선
  6
Continuous
 62
     1
370
    15
100
AcDbSpline
210
0.0
220
0.0
230
1.0
 70
     8
 71
     3
 72
    10
 73
     6
 74
     0
 42
0.000000001
 43
0.00000001
 40
0.0
 40
0.0
 40
0.0
 40
0.0
 40
0.5000000000000001
 40
0.5000000000000001
 40
1.0
 40
1.0
 40
1.0
 40
1.0
 10
11.01211446821227
 20
-5.136366934637145
 30
0.0
 10
10.99534124941819
 20
-4.861638718273548
 30
0.0
 10
10.97747078462795
 20
-4.538789164382276
 30
0.0
 10
10.94075176235921
 20
-3.813615302543848
 30
0.0
 10
10.92191423719515
 20
-3.41145839969184
 30
0.0
 10
10.90332405802954
 20
-2.984853737629722
 30
0.0
  0
SPLINE
  5
625
330
1F
100
AcDbEntity
  8
외형선
  6
Continuous
 62
     1
370
    15
100
AcDbSpline
210
0.0
220
0.0
230
1.0
 70
     8
 71
     3
 72
    12
 73
     8
 74
     0
 42
0.000000001
 43
0.00000001
 40
0.0
 40
0.0
 40
0.0
 40
0.0
 40
0.2499999999999999
 40
0.2499999999999999
 40
0.4999999999999998
 40
0.4999999999999998
 40
1.0
 40
1.0
 40
1.0
 40
1.0
 10
13.82918231615102
 20
2.828026559915063
 30
0.0
 10
13.82013312240825
 20
3.042374429601814
 30
0.0
 10
13.81128019908203
 20
3.249003262690643
 30
0.0
 10
13.79411666525155
 20
3.643645201510559
 30
0.0
 10
13.78574211831504
 20
3.832286319727274
 30
0.0
 10
13.75933372445945
 20
4.381661803641926
 30
0.0
 10
13.74075618048019
 20
4.719772609164796
 30
0.0
 10
13.72189577862397
 20
5.014008834684454
 30
0.0
  0
SPLINE
  5
626
330
1F
100
AcDbEntity
  8
외형선
  6
Continuous
 62
     1
370
    15
100
AcDbSpline
210
0.0
220
0.0
230
1.0
 70
     8
 71
     3
 72
    12
 73
     8
 74
     0
 42
0.000000001
 43
0.00000001
 40
0.0
 40
0.0
 40
0.0
 40
0.0
 40
0.25
 40
0.25
 40
0.5
 40
0.5
 40
1.0
 40
1.0
 40
1.0
 40
1.0
 10
13.67240442781029
 20
2.910033564625831
 30
0.0
 10
13.66344399545704
 20
3.123526530482714
 30
0.0
 10
13.65468474580882
 20
3.329166482878087
 30
0.0
 10
13.63771326719166
 20
3.721669329273396
 30
0.0
 10
13.62931727659978
 20
3.910041031398617
 30
0.0
 10
13.6029543282586
 20
4.457503861562277
 30
0.0
 10
13.58444213868965
 20
4.793747877620937
 30
0.0
 10
13.56567575671512
 20
5.085826965144868
 30
0.0
  0
SPLINE
  5
627
330
1F
100
AcDbEntity
  8
외형선
  6
Continuous
 62
     1
370
    15
100
AcDbSpline
210
0.0
220
0.0
230
1.0
 70
     8
 71
     3
 72
    10
 73
     6
 74
     0
 42
0.000000001
 43
0.00000001
 40
0.0
 40
0.0
 40
0.0
 40
0.0
 40
0.4999999999999998
 40
0.4999999999999998
 40
1.0
 40
1.0
 40
1.0
 40
1.0
 10
13.09060007087929
 20
3.096784923922797
 30
0.0
 10
13.07295039652878
 20
3.513741098092293
 30
0.0
 10
13.05664186277542
 20
3.894847477771627
 30
0.0
 10
13.02102131194877
 20
4.606583522754843
 30
0.0
 10
13.00236689439701
 20
4.93125584926581
 30
0.0
 10
12.98356895977598
 20
5.210043415666238
 30
0.0
  0
SPLINE
  5
628
330
1F
100
AcDbEntity
  8
외형선
  6
Continuous
 62
     1
370
    15
100
AcDbSpline
210
0.0
220
0.0
230
1.0
 70
     8
 71
     3
 72
    10
 73
     6
 74
     0
 42
0.000000001
 43
0.00000001
 40
0.0
 40
0.0
 40
0.0
 40
0.0
 40
0.5
 40
0.5
 40
1.0
 40
1.0
 40
1.0
 40
1.0
 10
11.16878934450554
 20
-5.130884816501755
 30
0.0
 10
11.15201022939733
 20
-4.861120949292189
 30
0.0
 10
11.13409582131473
 20
-4.542814561871136
 30
0.0
 10
11.09721904018745
 20
-3.825387516441554
 30
0.0
 10
11.07826788034087
 20
-3.426430363622053
 30
0.0
 10
11.05954208931885
 20
-3.002316915852401
 30
0.0
  0
SPLINE
  5
629
330
1F
100
AcDbEntity
  8
외형선
  6
Continuous
 62
     1
370
    15
100
AcDbSpline
210
0.0
220
0.0
230
1.0
 70
     8
 71
     3
 72
    12
 73
     8
 74
     0
 42
0.000000001
 43
0.00000001
 40
0.0
 40
0.0
 40
0.0
 40
0.0
 40
0.25
 40
0.25
 40
0.5
 40
0.5
 40
1.0
 40
1.0
 40
1.0
 40
1.0
 10
12.93445117905974
 20
3.113002164770723
 30
0.0
 10
12.92561096509826
 20
3.31967586299691
 30
0.0
 10
12.91714491924952
 20
3.516854856666331
 30
0.0
 10
12.90014265574939
 20
3.896378865369257
 30
0.0
 10
12.89136360302646
 20
4.080414266535872
 30
0.0
 10
12.86441088227684
 20
4.608839129657497
 30
0.0
 10
12.84561468392567
 20
4.929184920433023
 30
0.0
 10
12.82670771679875
 20
5.203015496976359
 30
0.0
  0
SPLINE
  5
62A
330
1F
100
AcDbEntity
  8
외형선
  6
Continuous
 62
     1
370
    15
100
AcDbSpline
210
0.0
220
0.0
230
1.0
 70
     8
 71
     3
 72
    12
 73
     8
 74
     0
 42
0.000000001
 43
0.00000001
 40
0.0
 40
0.0
 40
0.0
 40
0.0
 40
0.2499999999999999
 40
0.2499999999999999
 40
0.5000000000000001
 40
0.5000000000000001
 40
1.0
 40
1.0
 40
1.0
 40
1.0
 10
11.79431068659811
 20
-5.258255815602078
 30
0.0
 10
11.78579467513626
 20
-5.129384245298851
 30
0.0
 10
11.7774468632185
 20
-4.99056576522392
 30
0.0
 10
11.75992053657043
 20
-4.687992588837247
 30
0.0
 10
11.7509215795416
 20
-4.5250984615534
 30
0.0
 10
11.72345624905253
 20
-4.004948063313307
 30
0.0
 10
11.70451804856978
 20
-3.615849064684587
 30
0.0
 10
11.68568771157263
 20
-3.198714276097743
 30
0.0
  0
SPLINE
  5
62B
330
1F
100
AcDbEntity
  8
외형선
  6
Continuous
 62
     1
370
    15
100
AcDbSpline
210
0.0
220
0.0
230
1.0
 70
     8
 71
     3
 72
    12
 73
     8
 74
     0
 42
0.000000001
 43
0.00000001
 40
0.0
 40
0.0
 40
0.0
 40
0.0
 40
0.2499999999999998
 40
0.2499999999999998
 40
0.4999999999999996
 40
0.4999999999999996
 40
1.0
 40
1.0
 40
1.0
 40
1.0
 10
11.95041181336441
 20
-5.329406962850332
 30
0.0
 10
11.94190243149215
 20
-5.20142968040593
 30
0.0
 10
11.93364496621642
 20
-5.06387635391399
 30
0.0
 10
11.91627676766075
 20
-4.763710237161746
 30
0.0
 10
11.90735394581441
 20
-4.601977242856101
 30
0.0
 10
11.88010183201777
 20
-4.085047006190209
 30
0.0
 10
11.86128507249249
 20
-3.697738380375085
 30
0.0
 10
11.84254142913022
 20
-3.281684312359204
 30
0.0
  0
SPLINE
  5
62C
330
1F
100
AcDbEntity
  8
외형선
  6
Continuous
 62
     1
370
    15
100
AcDbSpline
210
0.0
220
0.0
230
1.0
 70
     8
 71
     3
 72
    12
 73
     8
 74
     0
 42
0.000000001
 43
0.00000001
 40
0.0
 40
0.0
 40
0.0
 40
0.0
 40
0.2499999999999996
 40
0.2499999999999996
 40
0.4999999999999996
 40
0.4999999999999996
 40
1.0
 40
1.0
 40
1.0
 40
1.0
 10
12.53204325215643
 20
-5.441512006544766
 30
0.0
 10
12.523365486054
 20
-5.319239462883512
 30
0.0
 10
12.51511644787684
 20
-5.187763949500997
 30
0.0
 10
12.49800709814781
 20
-4.900919665779174
 30
0.0
 10
12.48919211326752
 20
-4.745575676216536
 30
0.0
 10
12.46218864518507
 20
-4.24657096598153
 30
0.0
 10
12.44343602363344
 20
-3.869522137333668
 30
0.0
 10
12.42464636864523
 20
-3.461177590369839
 30
0.0
  0
SPLINE
  5
62D
330
1F
100
AcDbEntity
  8
외형선
  6
Continuous
 62
     1
370
    15
100
AcDbSpline
210
0.0
220
0.0
230
1.0
 70
     8
 71
     3
 72
    12
 73
     8
 74
     0
 42
0.000000001
 43
0.00000001
 40
0.0
 40
0.0
 40
0.0
 40
0.0
 40
0.2500000000000003
 40
0.2500000000000003
 40
0.5000000000000007
 40
0.5000000000000007
 40
1.0
 40
1.0
 40
1.0
 40
1.0
 10
12.30871453221695
 20
3.307498699335685
 30
0.0
 10
12.3000448036158
 20
3.508268040896965
 30
0.0
 10
12.29177993330566
 20
3.699128311025056
 30
0.0
 10
12.27447525301288
 20
4.070258742017085
 30
0.0
 10
12.26556743669636
 20
4.249423696462891
 30
0.0
 10
12.23830779165098
 20
4.761380428476173
 30
0.0
 10
12.21941475587715
 20
5.068234192449857
 30
0.0
 10
12.20053143792347
 20
5.327014738314713
 30
0.0
  0
SPLINE
  5
62E
330
1F
100
AcDbEntity
  8
외형선
  6
Continuous
 62
     1
370
    15
100
AcDbSpline
210
0.0
220
0.0
230
1.0
 70
     8
 71
     3
 72
    12
 73
     8
 74
     0
 42
0.000000001
 43
0.00000001
 40
0.0
 40
0.0
 40
0.0
 40
0.0
 40
0.2499999999999999
 40
0.2499999999999999
 40
0.5000000000000001
 40
0.5000000000000001
 40
1.0
 40
1.0
 40
1.0
 40
1.0
 10
12.15200136844388
 20
3.390754123677286
 30
0.0
 10
12.14343197579636
 20
3.590325991817497
 30
0.0
 10
12.13521005788505
 20
3.780356627596717
 30
0.0
 10
12.11792822961314
 20
4.150087328548302
 30
0.0
 10
12.10904095904797
 20
4.328393473720233
 30
0.0
 10
12.08186924588827
 20
4.837401612459189
 30
0.0
 10
12.06307045290706
 20
5.141791422849167
 30
0.0
 10
12.04430671312406
 20
5.397962593952364
 30
0.0
  0
SPLINE
  5
62F
330
1F
100
AcDbEntity
  8
외형선
  6
Continuous
 62
     1
370
    15
100
AcDbSpline
210
0.0
220
0.0
230
1.0
 70
     8
 71
     3
 72
    12
 73
     8
 74
     0
 42
0.000000001
 43
0.00000001
 40
0.0
 40
0.0
 40
0.0
 40
0.0
 40
0.25
 40
0.25
 40
0.5
 40
0.5
 40
1.0
 40
1.0
 40
1.0
 40
1.0
 10
11.57043848369126
 20
3.567634934577949
 30
0.0
 10
11.56204743782212
 20
3.761260767901668
 30
0.0
 10
11.55362887565717
 20
3.94788873421825
 30
0.0
 10
11.53610904708766
 20
4.308615582782007
 30
0.0
 10
11.52712524628376
 20
4.481816748551388
 30
0.0
 10
11.49974051434789
 20
4.973910400401721
 30
0.0
 10
11.48090362694761
 20
5.264862240793104
 30
0.0
 10
11.46221103431938
 20
5.506426945686208
 30
0.0
  0
SPLINE
  5
630
330
1F
100
AcDbEntity
  8
외형선
  6
Continuous
 62
     1
370
    15
100
AcDbSpline
210
0.0
220
0.0
230
1.0
 70
     8
 71
     3
 72
    12
 73
     8
 74
     0
 42
0.000000001
 43
0.00000001
 40
0.0
 40
0.0
 40
0.0
 40
0.0
 40
0.25
 40
0.25
 40
0.5
 40
0.5
 40
1.0
 40
1.0
 40
1.0
 40
1.0
 10
12.68877714276599
 20
-5.428851813650152
 30
0.0
 10
12.68000165718148
 20
-5.308747564020557
 30
0.0
 10
12.67165393097652
 20
-5.179206411851936
 30
0.0
 10
12.65452873866134
 20
-4.897068308639053
 30
0.0
 10
12.64569683083636
 20
-4.743974137117753
 30
0.0
 10
12.6186162786386
 20
-4.251310754187044
 30
0.0
 10
12.59977659860728
 20
-3.877930951889788
 30
0.0
 10
12.58087354944462
 20
-3.472579131117001
 30
0.0
  0
SPLINE
  5
631
330
1F
100
AcDbEntity
  8
외형선
  6
Continuous
 62
     1
370
    15
100
AcDbSpline
210
0.0
220
0.0
230
1.0
 70
     8
 71
     3
 72
    10
 73
     6
 74
     0
 42
0.000000001
 43
0.00000001
 40
0.0
 40
0.0
 40
0.0
 40
0.0
 40
0.5
 40
0.5
 40
1.0
 40
1.0
 40
1.0
 40
1.0
 10
11.41435315910182
 20
3.577460362836696
 30
0.0
 10
11.39756343376101
 20
3.960803170272698
 30
0.0
 10
11.37986936856318
 20
4.321360093544225
 30
0.0
 10
11.34308335955137
 20
4.969407586675544
 30
0.0
 10
11.32413197884998
 20
5.255646372686474
 30
0.0
 10
11.30536012324902
 20
5.492018229644874
 30
0.0
  0
SPLINE
  5
632
330
1F
100
AcDbEntity
  8
외형선
  6
Continuous
 62
     1
370
    15
100
AcDbSpline
210
0.0
220
0.0
230
1.0
 70
     8
 71
     3
 72
    10
 73
     6
 74
     0
 42
0.000000001
 43
0.00000001
 40
0.0
 40
0.0
 40
0.0
 40
0.0
 40
0.5000000000000002
 40
0.5000000000000002
 40
1.0
 40
1.0
 40
1.0
 40
1.0
 10
13.31457965776431
 20
-5.539979406826202
 30
0.0
 10
13.29671141685685
 20
-5.313036597710513
 30
0.0
 10
13.28031686466903
 20
-5.045982911553537
 30
0.0
 10
13.2446691916069
 20
-4.416345690457451
 30
0.0
 10
13.22595478226748
 20
-4.055053742288571
 30
0.0
 10
13.20705623632396
 20
-3.659197108501631
 30
0.0
  0
SPLINE
  5
633
330
1F
100
AcDbEntity
  8
외형선
  6
Continuous
 62
     1
370
    15
100
AcDbSpline
210
0.0
220
0.0
230
1.0
 70
     8
 71
     3
 72
    10
 73
     6
 74
     0
 42
0.000000001
 43
0.00000001
 40
0.0
 40
0.0
 40
0.0
 40
0.0
 40
0.5000000000000001
 40
0.5000000000000001
 40
1.0
 40
1.0
 40
1.0
 40
1.0
 10
13.47073668966226
 20
-5.609929142497837
 30
0.0
 10
13.45290565761084
 20
-5.385280305911152
 30
0.0
 10
13.4365815966823
 20
-5.12041548189884
 30
0.0
 10
13.4012603332522
 20
-4.49600273625936
 30
0.0
 10
13.38269433018191
 20
-4.13711758926631
 30
0.0
 10
13.36391239665798
 20
-3.743066707737597
 30
0.0
  0
SPLINE
  5
634
330
1F
100
AcDbEntity
  8
외형선
  6
Continuous
 62
     1
370
    15
100
AcDbSpline
210
0.0
220
0.0
230
1.0
 70
     8
 71
     3
 72
    12
 73
     8
 74
     0
 42
0.000000001
 43
0.00000001
 40
0.0
 40
0.0
 40
0.0
 40
0.0
 40
0.2499999999999999
 40
0.2499999999999999
 40
0.4999999999999998
 40
0.4999999999999998
 40
1.0
 40
1.0
 40
1.0
 40
1.0
 10
14.05257789808471
 20
-5.705987615928171
 30
0.0
 10
14.04353823102225
 20
-5.600235938563157
 30
0.0
 10
14.03468451640626
 20
-5.48284305387369
 30
0.0
 10
14.0174993016534
 20
-5.228138412078174
 30
0.0
 10
14.00922697987312
 20
-5.091342004832999
 30
0.0
 10
13.9831196681634
 20
-4.64297483351552
 30
0.0
 10
13.96472028646036
 20
-4.296245660779201
 30
0.0
 10
13.9459950696251
 20
-3.912144690160348
 30
0.0
  0
SPLINE
  5
635
330
1F
100
AcDbEntity
  8
외형선
  6
Continuous
 62
     1
370
    15
100
AcDbSpline
210
0.0
220
0.0
230
1.0
 70
     8
 71
     3
 72
    10
 73
     6
 74
     0
 42
0.000000001
 43
0.00000001
 40
0.0
 40
0.0
 40
0.0
 40
0.0
 40
0.5
 40
0.5
 40
1.0
 40
1.0
 40
1.0
 40
1.0
 10
10.78882942450906
 20
3.760677684506177
 30
0.0
 10
10.77186300393517
 20
4.134894102975455
 30
0.0
 10
10.75381562510299
 20
4.485563977945137
 30
0.0
 10
10.7168141778845
 20
5.107573788768107
 30
0.0
 10
10.69787164205026
 20
5.378646078003513
 30
0.0
 10
10.67922470896066
 20
5.598873207803326
 30
0.0
  0
SPLINE
  5
636
330
1F
100
AcDbEntity
  8
외형선
  6
Continuous
 62
     1
370
    15
100
AcDbSpline
210
0.0
220
0.0
230
1.0
 70
     8
 71
     3
 72
    10
 73
     6
 74
     0
 42
0.000000001
 43
0.00000001
 40
0.0
 40
0.0
 40
0.0
 40
0.0
 40
0.4999999999999998
 40
0.4999999999999998
 40
1.0
 40
1.0
 40
1.0
 40
1.0
 10
10.63213336465287
 20
3.844536139969517
 30
0.0
 10
10.61517746554793
 20
4.217355513076196
 30
0.0
 10
10.5971787346527
 20
4.565925172120913
 30
0.0
 10
10.56034316408274
 20
5.182932770525245
 30
0.0
 10
10.54151764894858
 20
5.451113522511164
 30
0.0
 10
10.52300860108896
 20
5.668429456470562
 30
0.0
  0
SPLINE
  5
638
330
1F
100
AcDbEntity
  8
외형선
  6
Continuous
 62
     1
370
    15
100
AcDbSpline
210
0.0
220
0.0
230
1.0
 70
     8
 71
     3
 72
    12
 73
     8
 74
     0
 42
0.000000001
 43
0.00000001
 40
0.0
 40
0.0
 40
0.0
 40
0.0
 40
0.25
 40
0.25
 40
0.5
 40
0.5
 40
1.0
 40
1.0
 40
1.0
 40
1.0
 10
14.20936731499008
 20
-5.686093046572489
 30
0.0
 10
14.20024200004403
 20
-5.582713519233495
 30
0.0
 10
14.19129732142923
 20
-5.467518811957344
 30
0.0
 10
14.17392460233091
 20
-5.216837503190371
 30
0.0
 10
14.16562298300269
 20
-5.082196485492434
 30
0.0
 10
14.1394800109729
 20
-4.640534440593427
 30
0.0
 10
14.12102217940689
 20
-4.297862567830748
 30
0.0
 10
14.10220927579238
 20
-3.917217171478525
 30
0.0
  0
SPLINE
  5
639
330
1F
100
AcDbEntity
  8
외형선
  6
Continuous
 62
     1
370
    15
100
AcDbSpline
210
0.0
220
0.0
230
1.0
 70
     8
 71
     3
 72
    12
 73
     8
 74
     0
 42
0.000000001
 43
0.00000001
 40
0.0
 40
0.0
 40
0.0
 40
0.0
 40
0.2499999999999997
 40
0.2499999999999997
 40
0.4999999999999993
 40
0.4999999999999993
 40
1.0
 40
1.0
 40
1.0
 40
1.0
 10
14.83533349160967
 20
-5.779339333924385
 30
0.0
 10
14.82609957400317
 20
-5.68340230253165
 30
0.0
 10
14.81701956575978
 20
-5.575187926385816
 30
0.0
 10
14.79933114259084
 20
-5.337331048447005
 30
0.0
 10
14.7908918243253
 20
-5.208624114876155
 30
0.0
 10
14.76522771020798
 20
-4.789119781542137
 30
0.0
 10
14.74700052736556
 20
-4.460296179667465
 30
0.0
 10
14.72830126091959
 20
-4.091345355883499
 30
0.0
  0
SPLINE
  5
63C
330
1F
100
AcDbEntity
  8
외형선
  6
Continuous
 62
     1
370
    15
100
AcDbSpline
210
0.0
220
0.0
230
1.0
 70
     8
 71
     3
 72
    12
 73
     8
 74
     0
 42
0.000000001
 43
0.00000001
 40
0.0
 40
0.0
 40
0.0
 40
0.0
 40
0.2499999999999998
 40
0.2499999999999998
 40
0.4999999999999996
 40
0.4999999999999996
 40
1.0
 40
1.0
 40
1.0
 40
1.0
 10
14.99152362750155
 20
-5.847443324781219
 30
0.0
 10
14.98232081063803
 20
-5.752868296180303
 30
0.0
 10
14.97326438232025
 20
-5.645958135072089
 30
0.0
 10
14.95560705511883
 20
-5.410517352596312
 30
0.0
 10
14.947132555054
 20
-5.282678111396367
 30
0.0
 10
14.92173854096178
 20
-4.867622828624082
 30
0.0
 10
14.90368328802455
 20
-4.541717490727105
 30
0.0
 10
14.88512886530387
 20
-4.175227329717256
 30
0.0
  0
SPLINE
  5
63D
330
1F
100
AcDbEntity
  8
외형선
  6
Continuous
 62
     1
370
    15
100
AcDbSpline
210
0.0
220
0.0
230
1.0
 70
     8
 71
     3
 72
    12
 73
     8
 74
     0
 42
0.000000001
 43
0.00000001
 40
0.0
 40
0.0
 40
0.0
 40
0.0
 40
0.5
 40
0.5
 40
0.75
 40
0.75
 40
1.0
 40
1.0
 40
1.0
 40
1.0
 10
15.57351179874679
 20
-5.926720789774745
 30
0.0
 10
15.5549521464375
 20
-5.752085474651498
 30
0.0
 10
15.5368875697757
 20
-5.526279184461398
 30
0.0
 10
15.51147511000781
 20
-5.129898682984066
 30
0.0
 10
15.50301392059865
 20
-4.986993982390656
 30
0.0
 10
15.48536701383927
 20
-4.676560398042506
 30
0.0
 10
15.47631495119771
 20
-4.509701534744968
 30
0.0
 10
15.46711551925898
 20
-4.332385953572668
 30
0.0
  0
SPLINE
  5
640
330
1F
100
AcDbEntity
  8
외형선
  6
Continuous
 62
     1
370
    15
100
AcDbSpline
210
0.0
220
0.0
230
1.0
 70
     8
 71
     3
 72
    12
 73
     8
 74
     0
 42
0.000000001
 43
0.00000001
 40
0.0
 40
0.0
 40
0.0
 40
0.0
 40
0.5000000000000004
 40
0.5000000000000004
 40
0.7500000000000004
 40
0.7500000000000004
 40
1.0
 40
1.0
 40
1.0
 40
1.0
 10
15.73034586635609
 20
-5.899843513267948
 30
0.0
 10
15.71164116990322
 20
-5.730242490905995
 30
0.0
 10
15.69340433077701
 20
-5.508892624987666
 30
0.0
 10
15.66772114853769
 20
-5.118131423954075
 30
0.0
 10
15.65929227897027
 20
-4.977625254773642
 30
0.0
 10
15.64161428917231
 20
-4.671452573133323
 30
0.0
 10
15.63253863412356
 20
-4.506625832314661
 30
0.0
 10
15.62330806841729
 20
-4.331218456319117
 30
0.0
  0
SPLINE
  5
641
330
1F
100
AcDbEntity
  8
외형선
  6
Continuous
 62
     1
370
    15
100
AcDbSpline
210
0.0
220
0.0
230
1.0
 70
     8
 71
     3
 72
    12
 73
     8
 74
     0
 42
0.000000001
 43
0.00000001
 40
0.0
 40
0.0
 40
0.0
 40
0.0
 40
0.4999999999999997
 40
0.4999999999999997
 40
0.7499999999999997
 40
0.7499999999999997
 40
1.0
 40
1.0
 40
1.0
 40
1.0
 10
16.35646782896849
 20
-5.975115915744571
 30
0.0
 10
16.33765042274138
 20
-5.821723212351454
 30
0.0
 10
16.31918338956177
 20
-5.615237761784986
 30
0.0
 10
16.29302126246358
 20
-5.243310972930598
 30
0.0
 10
16.28471812551513
 20
-5.11008410625932
 30
0.0
 10
16.26735783636859
 20
-4.818837123163917
 30
0.0
 10
16.25841849285395
 20
-4.661229794745104
 30
0.0
 10
16.24929746734841
 20
-4.492635454140611
 30
0.0
  0
SPLINE
  5
644
330
1F
100
AcDbEntity
  8
외형선
  6
Continuous
 62
     1
370
    15
100
AcDbSpline
210
0.0
220
0.0
230
1.0
 70
     8
 71
     3
 72
    12
 73
     8
 74
     0
 42
0.000000001
 43
0.00000001
 40
0.0
 40
0.0
 40
0.0
 40
0.0
 40
0.4999999999999998
 40
0.4999999999999998
 40
0.7499999999999999
 40
0.7499999999999999
 40
1.0
 40
1.0
 40
1.0
 40
1.0
 10
16.51268805711162
 20
-6.040961034830653
 30
0.0
 10
16.49395861472497
 20
-5.89067499733812
 30
0.0
 10
16.47555026847226
 20
-5.687200492650494
 30
0.0
 10
16.44942404063002
 20
-5.319144932464631
 30
0.0
 10
16.4411467895322
 20
-5.187190136381393
 30
0.0
 10
16.42397443728812
 20
-4.899209322940319
 30
0.0
 10
16.41512628678869
 20
-4.743214478281779
 30
0.0
 10
16.40609114673467
 20
-4.576158255994649
 30
0.0
  0
SPLINE
  5
645
330
1F
100
AcDbEntity
  8
외형선
  6
Continuous
 62
     1
370
    15
100
AcDbSpline
210
0.0
220
0.0
230
1.0
 70
     8
 71
     3
 72
    10
 73
     6
 74
     0
 42
0.000000001
 43
0.00000001
 40
0.0
 40
0.0
 40
0.0
 40
0.0
 40
0.5
 40
0.5
 40
1.0
 40
1.0
 40
1.0
 40
1.0
 10
17.09477160857982
 20
-6.102893195805859
 30
0.0
 10
17.07598880214631
 20
-5.968141616915027
 30
0.0
 10
17.05741708482029
 20
-5.779247140371439
 30
0.0
 10
17.02207617224057
 20
-5.313749116134188
 30
0.0
 10
17.00575737291621
 20
-5.041155022241465
 30
0.0
 10
16.98793879089959
 20
-4.720540422523062
 30
0.0
  0
SPLINE
  5
648
330
1F
100
AcDbEntity
  8
외형선
  6
Continuous
 62
     1
370
    15
100
AcDbSpline
210
0.0
220
0.0
230
1.0
 70
     8
 71
     3
 72
    10
 73
     6
 74
     0
 42
0.000000001
 43
0.00000001
 40
0.0
 40
0.0
 40
0.0
 40
0.0
 40
0.5
 40
0.5
 40
1.0
 40
1.0
 40
1.0
 40
1.0
 10
17.2516253353331
 20
-6.069161737030949
 30
0.0
 10
17.23272632127471
 20
-5.939596144901518
 30
0.0
 10
17.21400657873185
 20
-5.755470879820919
 30
0.0
 10
17.17833989332469
 20
-5.298241449075466
 30
0.0
 10
17.16194755642536
 20
-5.02960065411688
 30
0.0
 10
17.14409198359792
 20
-4.713060644053106
 30
0.0
  0
SPLINE
  5
649
330
1F
100
AcDbEntity
  8
외형선
  6
Continuous
 62
     1
370
    15
100
AcDbSpline
210
0.0
220
0.0
230
1.0
 70
     8
 71
     3
 72
    12
 73
     8
 74
     0
 42
0.000000001
 43
0.00000001
 40
0.0
 40
0.0
 40
0.0
 40
0.0
 40
0.5
 40
0.5
 40
0.75
 40
0.75
 40
1.0
 40
1.0
 40
1.0
 40
1.0
 10
17.87777910732858
 20
-6.125371853786795
 30
0.0
 10
17.85887745172738
 20
-6.012810403955831
 30
0.0
 10
17.8400347060348
 20
-5.844984926256174
 30
0.0
 10
17.81294348722201
 20
-5.523667236608059
 30
0.0
 10
17.8041070308015
 20
-5.405090415937423
 30
0.0
 10
17.78697104171728
 20
-5.148409013117577
 30
0.0
 10
17.77863220406742
 20
-5.010307603115727
 30
0.0
 10
17.76986333324601
 20
-4.859598822552378
 30
0.0
  0
SPLINE
  5
64C
330
1F
100
AcDbEntity
  8
외형선
  6
Continuous
 62
     1
370
    15
100
AcDbSpline
210
0.0
220
0.0
230
1.0
 70
     8
 71
     3
 72
    12
 73
     8
 74
     0
 42
0.000000001
 43
0.00000001
 40
0.0
 40
0.0
 40
0.0
 40
0.0
 40
0.4999999999999998
 40
0.4999999999999998
 40
0.7499999999999999
 40
0.7499999999999999
 40
1.0
 40
1.0
 40
1.0
 40
1.0
 10
18.03400168924755
 20
-6.18835104462072
 30
0.0
 10
18.01521361918252
 20
-6.079164049157217
 30
0.0
 10
17.99645824494081
 20
-5.914773805667537
 30
0.0
 10
17.9694446948034
 20
-5.59815823666856
 30
0.0
 10
17.96062537475909
 20
-5.48107313705831
 30
0.0
 10
17.94350567666331
 20
-5.227140564147597
 30
0.0
 10
17.93526195930893
 20
-5.090793314807913
 30
0.0
 10
17.92659078524314
 20
-4.941874094082142
 30
0.0
  0
SPLINE
  5
64D
330
1F
100
AcDbEntity
  8
외형선
  6
Continuous
 62
     1
370
    15
100
AcDbSpline
210
0.0
220
0.0
230
1.0
 70
     8
 71
     3
 72
    12
 73
     8
 74
     0
 42
0.000000001
 43
0.00000001
 40
0.0
 40
0.0
 40
0.0
 40
0.0
 40
0.5000000000000001
 40
0.5000000000000001
 40
0.75
 40
0.75
 40
1.0
 40
1.0
 40
1.0
 40
1.0
 10
18.61610000145799
 20
-6.232359653320351
 30
0.0
 10
18.59735912646363
 20
-6.139257986740843
 30
0.0
 10
18.57854092904219
 20
-5.990601416381326
 30
0.0
 10
18.55128065490581
 20
-5.695294375950574
 30
0.0
 10
18.54235412992375
 20
-5.584934531340185
 30
0.0
 10
18.52497679404287
 20
-5.343486267168171
 30
0.0
 10
18.51671333830436
 20
-5.213476556055513
 30
0.0
 10
18.50821086522079
 20
-5.071895840885015
 30
0.0
  0
SPLINE
  5
650
330
1F
100
AcDbEntity
  8
외형선
  6
Continuous
 62
     1
370
    15
100
AcDbSpline
210
0.0
220
0.0
230
1.0
 70
     8
 71
     3
 72
    12
 73
     8
 74
     0
 42
0.000000001
 43
0.00000001
 40
0.0
 40
0.0
 40
0.0
 40
0.0
 40
0.4999999999999999
 40
0.4999999999999999
 40
0.7499999999999999
 40
0.7499999999999999
 40
1.0
 40
1.0
 40
1.0
 40
1.0
 10
18.77295794786333
 20
-6.192071986462153
 30
0.0
 10
18.75413033739372
 20
-6.104179085138817
 30
0.0
 10
18.73519056190659
 20
-5.96048596547929
 30
0.0
 10
18.70771674316046
 20
-5.671826854330288
 30
0.0
 10
18.69871395388162
 20
-5.563553093823213
 30
0.0
 10
18.68117820133268
 20
-5.325985139965381
 30
0.0
 10
18.67282146079005
 20
-5.1976732767051
 30
0.0
 10
18.66431232724889
 20
-5.05820187153504
 30
0.0
  0
SPLINE
  5
651
330
1F
100
AcDbEntity
  8
외형선
  6
Continuous
 62
     1
370
    15
100
AcDbSpline
210
0.0
220
0.0
230
1.0
 70
     8
 71
     3
 72
    10
 73
     6
 74
     0
 42
0.000000001
 43
0.00000001
 40
0.0
 40
0.0
 40
0.0
 40
0.0
 40
0.5
 40
0.5
 40
1.0
 40
1.0
 40
1.0
 40
1.0
 10
19.39912657315675
 20
-6.229137791224463
 30
0.0
 10
19.38040459424447
 20
-6.158671462800839
 30
0.0
 10
19.36145269564533
 20
-6.032359898790615
 30
0.0
 10
19.32456554762646
 20
-5.679477343310275
 30
0.0
 10
19.30664153592581
 20
-5.453112290756682
 30
0.0
 10
19.28984955231816
 20
-5.189487105064405
 30
0.0
  0
SPLINE
  5
654
330
1F
100
AcDbEntity
  8
외형선
  6
Continuous
 62
     1
370
    15
100
AcDbSpline
210
0.0
220
0.0
230
1.0
 70
     8
 71
     3
 72
    10
 73
     6
 74
     0
 42
0.000000001
 43
0.00000001
 40
0.0
 40
0.0
 40
0.0
 40
0.0
 40
0.5
 40
0.5
 40
1.0
 40
1.0
 40
1.0
 40
1.0
 10
19.55535268722376
 20
-6.28885685867
 30
0.0
 10
19.53676625610598
 20
-6.22195180035424
 30
0.0
 10
19.51792788111868
 20
-6.099406029203621
 30
0.0
 10
19.48119819065735
 20
-5.753739784774766
 30
0.0
 10
19.46331793162287
 20
-5.530814228731222
 30
0.0
 10
19.4465316198729
 20
-5.270099472417657
 30
0.0
  0
SPLINE
  5
655
330
1F
100
AcDbEntity
  8
외형선
  6
Continuous
 62
     1
370
    15
100
AcDbSpline
210
0.0
220
0.0
230
1.0
 70
     8
 71
     3
 72
    10
 73
     6
 74
     0
 42
0.000000001
 43
0.00000001
 40
0.0
 40
0.0
 40
0.0
 40
0.0
 40
0.4999999999999999
 40
0.4999999999999999
 40
1.0
 40
1.0
 40
1.0
 40
1.0
 10
20.13742897130487
 20
-6.314702233951946
 30
0.0
 10
20.11897257882265
 20
-6.264009028461963
 30
0.0
 10
20.10015876862657
 20
-6.157838289423298
 30
0.0
 10
20.06326213942884
 20
-5.842746979642591
 30
0.0
 10
20.0451907983971
 20
-5.63399446369904
 30
0.0
 10
20.02812904601417
 20
-5.3854259572524
 30
0.0
  0
SPLINE
  5
658
330
1F
100
AcDbEntity
  8
외형선
  6
Continuous
 62
     1
370
    15
100
AcDbSpline
210
0.0
220
0.0
230
1.0
 70
     8
 71
     3
 72
    10
 73
     6
 74
     0
 42
0.000000001
 43
0.00000001
 40
0.0
 40
0.0
 40
0.0
 40
0.0
 40
0.5
 40
0.5
 40
1.0
 40
1.0
 40
1.0
 40
1.0
 10
20.29427007321598
 20
-6.268139312262189
 30
0.0
 10
20.2757502319685
 20
-6.222535064396119
 30
0.0
 10
20.25683645590388
 20
-6.121343344535404
 30
0.0
 10
20.21968946825019
 20
-5.815336143246263
 30
0.0
 10
20.2014681635586
 20
-5.610684521085922
 30
0.0
 10
20.18424806000834
 20
-5.365637477167386
 30
0.0
  0
SPLINE
  5
659
330
1F
100
AcDbEntity
  8
외형선
  6
Continuous
 62
     1
370
    15
100
AcDbSpline
210
0.0
220
0.0
230
1.0
 70
     8
 71
     3
 72
    10
 73
     6
 74
     0
 42
0.000000001
 43
0.00000001
 40
0.0
 40
0.0
 40
0.0
 40
0.0
 40
0.4999999999999998
 40
0.4999999999999998
 40
1.0
 40
1.0
 40
1.0
 40
1.0
 10
20.92034241697041
 20
-6.285569446903533
 30
0.0
 10
20.90199146455336
 20
-6.257222122612653
 30
0.0
 10
20.88313527788441
 20
-6.173643809157507
 30
0.0
 10
20.8458671425488
 20
-5.900863283723794
 30
0.0
 10
20.82746741417591
 20
-5.711793709601345
 30
0.0
 10
20.80997306966302
 20
-5.480243273664213
 30
0.0
  0
SPLINE
  5
65C
330
1F
100
AcDbEntity
  8
외형선
  6
Continuous
 62
     1
370
    15
100
AcDbSpline
210
0.0
220
0.0
230
1.0
 70
     8
 71
     3
 72
    10
 73
     6
 74
     0
 42
0.000000001
 43
0.00000001
 40
0.0
 40
0.0
 40
0.0
 40
0.0
 40
0.5000000000000001
 40
0.5000000000000001
 40
1.0
 40
1.0
 40
1.0
 40
1.0
 10
21.07653784409415
 20
-6.341508178129322
 30
0.0
 10
21.05833140521136
 20
-6.316768439679748
 30
0.0
 10
21.03960241845431
 20
-6.23707241510925
 30
0.0
 10
21.00252519592129
 20
-5.971940630333187
 30
0.0
 10
20.98418889486408
 20
-5.786627044574303
 30
0.0
 10
20.96671988570505
 20
-5.558387482694329
 30
0.0
  0
SPLINE
  5
65D
330
1F
100
AcDbEntity
  8
외형선
  6
Continuous
 62
     1
370
    15
100
AcDbSpline
210
0.0
220
0.0
230
1.0
 70
     8
 71
     3
 72
    10
 73
     6
 74
     0
 42
0.000000001
 43
0.00000001
 40
0.0
 40
0.0
 40
0.0
 40
0.0
 40
0.5
 40
0.5
 40
1.0
 40
1.0
 40
1.0
 40
1.0
 10
21.65849809522362
 20
-6.34892547587652
 30
0.0
 10
21.640471668101
 20
-6.340155571762946
 30
0.0
 10
21.62182348258047
 20
-6.276911543559777
 30
0.0
 10
21.58468985328942
 20
-6.043155920924825
 30
0.0
 10
21.56621648688593
 20
-5.872736722331759
 30
0.0
 10
21.54851832915979
 20
-5.657566219846297
 30
0.0
  0
LINE
  5
65E
330
1F
100
AcDbEntity
  8
외형선
  6
Continuous
 62
     1
370
    15
100
AcDbLine
 10
25.875
 20
-0.9524999768473279
 30
0.0
 11
25.875
 21
-3.206617664545782
 31
0.0
  0
SPLINE
  5
661
330
1F
100
AcDbEntity
  8
외형선
  6
Continuous
 62
     1
370
    15
100
AcDbSpline
210
0.0
220
0.0
230
1.0
 70
     8
 71
     3
 72
    10
 73
     6
 74
     0
 42
0.000000001
 43
0.00000001
 40
0.0
 40
0.0
 40
0.0
 40
0.0
 40
0.5
 40
0.5
 40
1.0
 40
1.0
 40
1.0
 40
1.0
 10
21.81530285816734
 20
-6.296458088850585
 30
0.0
 10
21.79723199915082
 20
-6.292592647888515
 30
0.0
 10
21.77850175829037
 20
-6.234250499279799
 30
0.0
 10
21.74114635422815
 20
-6.009585897509236
 30
0.0
 10
21.72253363694418
 20
-5.843349388683592
 30
0.0
 10
21.70468330044787
 20
-5.631809024489968
 30
0.0
  0
LINE
  5
662
330
1F
100
AcDbEntity
  8
외형선
  6
Continuous
 62
     1
370
    15
100
AcDbLine
 10
22.42748038470745
 20
-6.284008733928211
 30
0.0
 11
22.42270269989967
 21
-6.273829843848951
 31
0.0
  0
LINE
  5
665
330
1F
100
AcDbEntity
  8
외형선
  6
Continuous
 62
     1
370
    15
100
AcDbLine
 10
22.58881153166294
 20
-6.341247819364078
 30
0.0
 11
22.57999563217163
 21
-6.336370017379529
 31
0.0
  0
SPLINE
  5
668
330
1F
100
AcDbEntity
  8
외형선
  6
Continuous
 62
     1
370
    15
100
AcDbSpline
210
0.0
220
0.0
230
1.0
 70
     8
 71
     3
 72
     8
 73
     4
 74
     0
 42
0.000000001
 43
0.00000001
 40
0.000000302994245
 40
0.000000302994245
 40
0.000000302994245
 40
0.000000302994245
 40
0.0006409124934159
 40
0.0006409124934159
 40
0.0006409124934159
 40
0.0006409124934159
 10
25.87500014305115
 20
5.721253686911627
 30
0.0
 10
25.73405228219171
 20
5.847710716044645
 30
0.0
 10
25.59250347591379
 20
5.973173797138752
 30
0.0
 10
25.4504579547507
 20
6.097787000101032
 30
0.0
  0
LINE
  5
669
330
1F
100
AcDbEntity
  8
외형선
  6
Continuous
 62
     1
370
    15
100
AcDbLine
 10
25.875
 20
1.397032523527734
 30
0.0
 11
25.875
 21
1.408956595696502
 31
0.0
  0
LINE
  5
66A
330
1F
100
AcDbEntity
  8
외형선
  6
Continuous
 62
     1
370
    15
100
AcDbLine
 10
25.875
 20
2.254117745906107
 30
0.0
 11
25.875
 21
5.721253808587782
 31
0.0
  0
LINE
  5
66B
330
1F
100
AcDbEntity
  8
외형선
  6
Continuous
 62
     1
370
    15
100
AcDbLine
 10
23.3208385258913
 20
-6.283004768192775
 30
0.0
 11
23.31713558733463
 21
-6.284480448812253
 31
0.0
  0
SPLINE
  5
66E
330
1F
100
AcDbEntity
  8
외형선
  6
Continuous
 62
     1
370
    15
100
AcDbSpline
210
0.0
220
0.0
230
1.0
 70
     8
 71
     3
 72
     8
 73
     4
 74
     0
 42
0.000000001
 43
0.00000001
 40
0.0
 40
0.0
 40
0.0
 40
0.0
 40
1.0
 40
1.0
 40
1.0
 40
1.0
 10
25.3783334763845
 20
-6.128657437942511
 30
0.0
 10
25.37647137298484
 20
-6.117674177413541
 30
0.0
 10
25.37460969480517
 20
-6.106160459522421
 30
0.0
 10
25.37274916717038
 20
-6.094121221106187
 30
0.0
  0
SPLINE
  5
66F
330
1F
100
AcDbEntity
  8
외형선
  6
Continuous
 62
     1
370
    15
100
AcDbSpline
210
0.0
220
0.0
230
1.0
 70
     8
 71
     3
 72
     9
 73
     5
 74
     0
 42
0.000000001
 43
0.00000001
 40
0.0
 40
0.0
 40
0.0
 40
0.0
 40
0.6888314366264329
 40
0.9999999999999999
 40
0.9999999999999999
 40
0.9999999999999999
 40
0.9999999999999999
 10
25.37833312153816
 20
-6.128657609224327
 30
0.0
 10
25.38400517308889
 20
-6.19040034180318
 30
0.0
 10
25.39223948303632
 20
-6.280034364433217
 30
0.0
 10
25.39952584912479
 20
-6.26407851037184
 30
0.0
 10
25.40179313719273
 20
-6.259113550186164
 30
0.0
  0
LINE
  5
670
330
1F
100
AcDbEntity
  8
외형선
  6
Continuous
 62
     1
370
    15
100
AcDbLine
 10
25.875
 20
-5.629236344248064
 30
0.0
 11
25.875
 21
-5.799999926239259
 31
0.0
  0
LINE
  5
671
330
1F
100
AcDbEntity
  8
외형선
  6
Continuous
 62
     1
370
    15
100
AcDbLine
 10
25.32500000298023
 20
6.233613472431891
 30
0.0
 11
25.32500000298023
 21
6.349999923259013
 31
0.0
  0
LINE
  5
672
330
1F
100
AcDbEntity
  8
외형선
  6
Continuous
 62
     1
370
    15
100
AcDbLine
 10
25.875
 20
5.799999926239245
 30
0.0
 11
25.875
 21
5.721253808587782
 31
0.0
  0
LINE
  5
673
330
1F
100
AcDbEntity
  8
외형선
  6
Continuous
 62
     1
370
    15
100
AcDbLine
 10
24.07491923868656
 20
6.288741249591105
 30
0.0
 11
24.07207497954369
 21
6.286208052188151
 31
0.0
  0
LINE
  5
675
330
1F
100
AcDbEntity
  8
외형선
  6
Continuous
 62
     1
370
    15
100
AcDbLine
 10
23.17718946933746
 20
6.274160929024212
 30
0.0
 11
23.17568445205688
 21
6.273762322962277
 31
0.0
  0
LINE
  5
676
330
1F
100
AcDbEntity
  8
외형선
  6
Continuous
 62
     1
370
    15
100
AcDbLine
 10
22.57570223510265
 20
6.292703095823519
 30
0.0
 11
22.56561601161957
 21
6.285298615694039
 31
0.0
  0
SPLINE
  5
678
330
1F
100
AcDbEntity
  8
외형선
  6
Continuous
 62
     1
370
    15
100
AcDbSpline
210
0.0
220
0.0
230
1.0
 70
     8
 71
     3
 72
    10
 73
     6
 74
     0
 42
0.000000001
 43
0.00000001
 40
0.0
 40
0.0
 40
0.0
 40
0.0
 40
0.2903857072432968
 40
0.6989761235011268
 40
0.9999999999999999
 40
0.9999999999999999
 40
0.9999999999999999
 40
0.9999999999999999
 10
22.42270269989967
 20
-6.273829843848951
 30
0.0
 10
22.41384162787048
 20
-6.260933833908002
 30
0.0
 10
22.39251248658515
 20
-6.229892350762267
 30
0.0
 10
22.3613762832519
 20
-6.035495886684338
 30
0.0
 10
22.33978421998596
 20
-5.820445464487186
 30
0.0
 10
22.33062469959259
 20
-5.729219410568483
 30
0.0
  0
SPLINE
  5
67B
330
1F
100
AcDbEntity
  8
외형선
  6
Continuous
 62
     1
370
    15
100
AcDbSpline
210
0.0
220
0.0
230
1.0
 70
     8
 71
     3
 72
    11
 73
     7
 74
     0
 42
0.000000001
 43
0.00000001
 40
0.0
 40
0.0
 40
0.0
 40
0.0
 40
0.1088231448906659
 40
0.4058821152912385
 40
0.7029410494048598
 40
1.0
 40
1.0
 40
1.0
 40
1.0
 10
22.57999563217163
 20
-6.336370017379529
 30
0.0
 10
22.57663790030008
 20
-6.335691187339307
 30
0.0
 10
22.564114430996
 20
-6.333159327293126
 30
0.0
 10
22.54242548190439
 20
-6.243582563062631
 30
0.0
 10
22.51493218891696
 20
-6.07543444430409
 30
0.0
 10
22.49660086765576
 20
-5.894823641578151
 30
0.0
 10
22.4874352067709
 20
-5.804518237710006
 30
0.0
  0
SPLINE
  5
67C
330
1F
100
AcDbEntity
  8
외형선
  6
Continuous
 62
     1
370
    15
100
AcDbSpline
210
0.0
220
0.0
230
1.0
 70
     8
 71
     3
 72
    10
 73
     6
 74
     0
 42
0.000000001
 43
0.00000001
 40
0.0
 40
0.0
 40
0.0
 40
0.0
 40
0.2112645456236797
 40
0.6058489979805501
 40
1.0
 40
1.0
 40
1.0
 40
1.0
 10
23.16276328265667
 20
-6.332268472760923
 30
0.0
 10
23.15631762679254
 20
-6.33490515294687
 30
0.0
 10
23.13783324676992
 20
-6.342466431361737
 30
0.0
 10
23.10624768126446
 20
-6.204662365508494
 30
0.0
 10
23.08169175970679
 20
-5.993065929566566
 30
0.0
 10
23.06942054629326
 20
-5.887325853109367
 30
0.0
  0
SPLINE
  5
67F
330
1F
100
AcDbEntity
  8
외형선
  6
Continuous
 62
     1
370
    15
100
AcDbSpline
210
0.0
220
0.0
230
1.0
 70
     8
 71
     3
 72
    11
 73
     7
 74
     0
 42
0.000000001
 43
0.00000001
 40
0.0
 40
0.0
 40
0.0
 40
0.0
 40
0.1299489446067064
 40
0.4739130879993539
 40
0.737343795357709
 40
1.0
 40
1.0
 40
1.0
 40
1.0
 10
23.31713558733463
 20
-6.284480448812253
 30
0.0
 10
23.31326399987857
 20
-6.287637211046025
 30
0.0
 10
23.29914463959972
 20
-6.299149662669347
 30
0.0
 10
23.27643018471097
 20
-6.217172719479386
 30
0.0
 10
23.2496730668184
 20
-6.068968164134164
 30
0.0
 10
23.23363112898912
 20
-5.926810276127522
 30
0.0
 10
23.22562196850777
 20
-5.855835974216468
 30
0.0
  0
SPLINE
  5
680
330
1F
100
AcDbEntity
  8
외형선
  6
Continuous
 62
     1
370
    15
100
AcDbSpline
210
0.0
220
0.0
230
1.0
 70
     8
 71
     3
 72
    10
 73
     6
 74
     0
 42
0.000000001
 43
0.00000001
 40
0.0
 40
0.0
 40
0.0
 40
0.0
 40
0.0227265768090212
 40
0.4886868217262656
 40
1.0
 40
1.0
 40
1.0
 40
1.0
 10
23.92896050214767
 20
-6.291786208748825
 30
0.0
 10
23.92839279101423
 20
-6.292465981397228
 30
0.0
 10
23.91618536744163
 20
-6.307083050119726
 30
0.0
 10
23.89008230995569
 20
-6.213011630809849
 30
0.0
 10
23.86488380027177
 20
-6.030539054848413
 30
0.0
 10
23.85169984400272
 20
-5.935068707913167
 30
0.0
  0
SPLINE
  5
682
330
1F
100
AcDbEntity
  8
외형선
  6
Continuous
 62
     1
370
    15
100
AcDbSpline
210
0.0
220
0.0
230
1.0
 70
     8
 71
     3
 72
    10
 73
     6
 74
     0
 42
0.000000001
 43
0.00000001
 40
0.0
 40
0.0
 40
0.0
 40
0.0
 40
0.3201163071325722
 40
0.6600581713284517
 40
1.0
 40
1.0
 40
1.0
 40
1.0
 10
24.08891329169273
 20
-6.347741466015584
 30
0.0
 10
24.08033717043423
 20
-6.342059154818404
 30
0.0
 10
24.06265378852314
 20
-6.330342613504637
 30
0.0
 10
24.03586086884795
 20
-6.216646546935349
 30
0.0
 10
24.01764705830104
 20
-6.07672842673329
 30
0.0
 10
24.00854015350342
 20
-6.006769370287664
 30
0.0
  0
SPLINE
  5
683
330
1F
100
AcDbEntity
  8
외형선
  6
Continuous
 62
     1
370
    15
100
AcDbSpline
210
0.0
220
0.0
230
1.0
 70
     8
 71
     3
 72
     9
 73
     5
 74
     0
 42
0.000000001
 43
0.00000001
 40
0.0
 40
0.0
 40
0.0
 40
0.0
 40
0.4869209032887536
 40
1.0
 40
1.0
 40
1.0
 40
1.0
 10
24.6628892570734
 20
-6.346828304231174
 30
0.0
 10
24.65125481811872
 20
-6.336979365562861
 30
0.0
 10
24.62736091897389
 20
-6.316752387008872
 30
0.0
 10
24.60306301841315
 20
-6.155019885000945
 30
0.0
 10
24.59059627354145
 20
-6.072038318961866
 30
0.0
  0
SPLINE
  5
684
330
1F
100
AcDbEntity
  8
외형선
  6
Continuous
 62
     1
370
    15
100
AcDbSpline
210
0.0
220
0.0
230
1.0
 70
     8
 71
     3
 72
    10
 73
     6
 74
     0
 42
0.000000001
 43
0.00000001
 40
0.0
 40
0.0
 40
0.0
 40
0.0
 40
0.2362181164752596
 40
0.6174974905442328
 40
1.0
 40
1.0
 40
1.0
 40
1.0
 10
24.82498222589493
 20
-6.286244373768575
 30
0.0
 10
24.81895703999528
 20
-6.290515319931703
 30
0.0
 10
24.80320660887418
 20
-6.301679995094364
 30
0.0
 10
24.7769420279152
 20
-6.227861229414026
 30
0.0
 10
24.75686769815593
 20
-6.099350766368929
 30
0.0
 10
24.7468144595623
 20
-6.034992635250099
 30
0.0
  0
LINE
  5
685
330
1F
100
AcDbEntity
  8
외형선
  6
Continuous
 62
     1
370
    15
100
AcDbLine
 10
24.87779380381107
 20
6.262576673179858
 30
0.0
 11
24.83792388439178
 21
6.318274419754736
 31
0.0
  0
SPLINE
  5
686
330
1F
100
AcDbEntity
  8
외형선
  6
Continuous
 62
     1
370
    15
100
AcDbSpline
210
0.0
220
0.0
230
1.0
 70
     8
 71
     3
 72
     9
 73
     5
 74
     0
 42
0.000000001
 43
0.00000001
 40
0.0
 40
0.0
 40
0.0
 40
0.0
 40
0.6226392174411098
 40
1.0
 40
1.0
 40
1.0
 40
1.0
 10
24.72170600295067
 20
6.217774003744118
 30
0.0
 10
24.71282718658345
 20
6.25233486679852
 30
0.0
 10
24.69856721689555
 20
6.307841911787488
 30
0.0
 10
24.68354492410674
 20
6.284650021249568
 30
0.0
 10
24.67787609994411
 20
6.275898311287158
 30
0.0
  0
SPLINE
  5
687
330
1F
100
AcDbEntity
  8
외형선
  6
Continuous
 62
     1
370
    15
100
AcDbSpline
210
0.0
220
0.0
230
1.0
 70
     8
 71
     3
 72
     9
 73
     5
 74
     0
 42
0.000000001
 43
0.00000001
 40
0.0
 40
0.0
 40
0.0
 40
0.0
 40
0.8861084199535605
 40
1.0
 40
1.0
 40
1.0
 40
1.0
 10
24.09611427783966
 20
6.249362137168639
 30
0.0
 10
24.08995418897752
 20
6.271899060989043
 30
0.0
 10
24.08300234344325
 20
6.297332657276939
 30
0.0
 10
24.0757457083259
 20
6.289619691455368
 30
0.0
 10
24.07491923868656
 20
6.288741249591105
 30
0.0
  0
LINE
  5
688
330
1F
100
AcDbEntity
  8
외형선
  6
Continuous
 62
     1
370
    15
100
AcDbLine
 10
23.93940062820911
 20
6.309923715889447
 30
0.0
 11
23.91353034973145
 21
6.336022168397896
 31
0.0
  0
LINE
  5
689
330
1F
100
AcDbEntity
  8
외형선
  6
Continuous
 62
     1
370
    15
100
AcDbLine
 10
23.35770586133003
 20
6.330148782581084
 30
0.0
 11
23.33855786919594
 21
6.313054356724017
 31
0.0
  0
LINE
  5
68F
330
1F
100
AcDbEntity
  8
외형선
  6
Continuous
 62
     1
370
    15
100
AcDbLine
 10
22.41891780495644
 20
6.34798360988497
 30
0.0
 11
22.4129387140274
 21
6.340119987726204
 31
0.0
  0
LINE
  5
691
330
1F
100
AcDbEntity
  8
외형선
  6
Continuous
 62
     1
370
    15
100
AcDbLine
 10
21.68083348870277
 20
6.295876577496522
 30
0.0
 11
21.67813451588154
 21
6.291074678301804
 31
0.0
  0
LINE
  5
692
330
1F
100
AcDbEntity
  8
중심선
100
AcDbLine
 10
-53.32499985694884
 20
-0.0000000000000071
 30
0.0
 11
28.87500014305117
 21
0.0000000000000036
 31
0.0
  0
CIRCLE
  5
693
330
1F
100
AcDbEntity
  8
해칭선
100
AcDbCircle
 10
0.0
 20
0.0
 30
0.0
 40
3.000000000000005
  0
POINT
  5
694
330
1F
100
AcDbEntity
  8
치수문자_일반주서
100
AcDbPoint
 10
-9.524999856948838
 20
-0.3168705809327417
 30
0.0
  0
DIMENSION
  5
695
330
1F
100
AcDbEntity
  8
치수문자_일반주서
100
AcDbDimension
  2
*D12
 10
36.79501018879804
 20
-6.349999923258974
 30
0.0
 11
36.79501018879793
 21
25.20400000000014
 31
0.0
 70
   160
  1
%%c<>
 71
     2
 42
12.69976938443981
 52
-270.0
  3
SLDDIMSTYLE0
100
AcDbAlignedDimension
 13
22.12819479691715
 23
6.34976946118078
 33
0.0
 14
22.88403706252575
 24
-6.349999923259027
 34
0.0
 50
90.0000000000002
100
AcDbRotatedDimension
1001
ACAD
1000
DSTYLE
1002
{
1070
   171
1070
     6
1070
   273
1070
     7
1002
}
  0
DIMENSION
  5
696
330
1F
100
AcDbEntity
  8
치수문자_일반주서
100
AcDbDimension
  2
*D13
 10
-60.13499985694883
 20
-6.350000000000043
 30
0.0
 11
-60.13499985694885
 21
-1.017344347620631
 31
0.0
 70
   160
  1
%%c<>
 71
     2
 42
12.69999999999999
 52
-270.0
  3
SLDDIMSTYLE1
100
AcDbAlignedDimension
 13
-49.32499985694884
 23
6.349999999999987
 33
0.0
 14
-49.32499985694884
 24
-6.350000000000001
 34
0.0
 50
90.0000000000002
100
AcDbRotatedDimension
1001
ACAD
1000
DSTYLE
1002
{
1070
   171
1070
     6
1070
   273
1070
     7
1002
}
  0
DIMENSION
  5
697
330
1F
100
AcDbEntity
  8
치수문자_일반주서
100
AcDbDimension
  2
*D14
 10
10.0
 20
23.04896884953977
 30
0.0
 11
13.17500014305114
 21
23.04896884953977
 31
0.0
 70
   160
  1
<>
 71
     2
 42
15.87500014305115
  3
SLDDIMSTYLE0
100
AcDbAlignedDimension
 13
25.87500014305115
 23
5.721253686911627
 33
0.0
 14
10.0
 24
6.35
 34
0.0
 50
0.000000000000016
100
AcDbRotatedDimension
1001
ACAD
1000
DSTYLE
1002
{
1070
   171
1070
     6
1070
   273
1070
     7
1002
}
  0
DIMENSION
  5
698
330
1F
100
AcDbEntity
  8
치수문자_일반주서
100
AcDbDimension
  2
*D15
 10
-50.32499985694885
 20
39.71863385053561
 30
0.0
 11
-8.893455786111836
 21
39.71863385053561
 31
0.0
 70
   160
  1
<>
 71
     2
 42
76.19999999999999
  3
SLDDIMSTYLE0
100
AcDbAlignedDimension
 13
25.87500014305115
 23
5.721253686911627
 33
0.0
 14
-50.32499985694884
 24
5.349999999999987
 34
0.0
100
AcDbRotatedDimension
1001
ACAD
1000
DSTYLE
1002
{
1070
   171
1070
     6
1070
   273
1070
     7
1002
}
  0
INSERT
  5
699
330
1F
100
AcDbEntity
  8
해칭선
100
AcDbBlockReference
  2
SW_DOWELSYMBOL_0
 10
0.0
 20
0.0
 30
0.0
  0
LINE
  5
6CD
330
1F
100
AcDbEntity
  8
외형선
  6
Continuous
 62
     1
370
    15
100
AcDbLine
 10
10.0
 20
1.397032523527734
 30
0.0
 11
10.0
 21
-0.9524999768473279
 31
0.0
  0
LINE
  5
6CE
330
1F
100
AcDbEntity
  8
외형선
  6
Continuous
370
    15
100
AcDbLine
 10
10.0
 20
6.35
 30
0.0
 11
10.0
 21
-6.35
 31
0.0
  0
ENDSEC
  0
SECTION
  2
OBJECTS
  0
DICTIONARY
  5
C
330
0
100
AcDbDictionary
281
     1
  3
ACAD_GROUP
350
D
  3
ACAD_IMAGE_VARS
350
187
  3
ACAD_LAYOUT
350
1A
  3
ACAD_MLINESTYLE
350
17
  3
ACAD_PLOTSETTINGS
350
19
  3
ACAD_PLOTSTYLENAME
350
E
  3
ACAD_SCALELIST
350
47
  3
APPDATA
350
185
  3
DWGPROPS
350
6D1
  0
DICTIONARY
  5
D
102
{ACAD_REACTORS
330
C
102
}
330
C
100
AcDbDictionary
281
     1
  0
RASTERVARIABLES
  5
187
102
{ACAD_REACTORS
330
C
102
}
330
C
100
AcDbRasterVariables
 90
        0
 70
     1
 71
     1
 72
     1
  0
DICTIONARY
  5
1A
102
{ACAD_REACTORS
330
C
102
}
330
C
100
AcDbDictionary
281
     1
  3
Layout1
350
1E
  3
Layout2
350
26
  3
Model
350
22
  0
DICTIONARY
  5
17
102
{ACAD_REACTORS
330
C
102
}
330
C
100
AcDbDictionary
281
     1
  3
Standard
350
18
  0
DICTIONARY
  5
19
102
{ACAD_REACTORS
330
C
102
}
330
C
100
AcDbDictionary
281
     1
  0
ACDBDICTIONARYWDFLT
  5
E
102
{ACAD_REACTORS
330
C
102
}
330
C
100
AcDbDictionary
281
     1
  3
Normal
350
F
100
AcDbDictionaryWithDefault
340
F
  0
DICTIONARY
  5
47
102
{ACAD_REACTORS
330
C
102
}
330
C
100
AcDbDictionary
281
     1
  3
A0
350
48
  3
A1
350
49
  3
A2
350
4A
  3
A3
350
4B
  3
A4
350
4C
  3
A5
350
4D
  3
A6
350
4E
  3
A7
350
4F
  3
A8
350
50
  3
A9
350
51
  3
B0
350
52
  3
B1
350
53
  3
B2
350
54
  3
B3
350
55
  3
B4
350
56
  3
B5
350
57
  3
B6
350
58
  3
B7
350
59
  3
B8
350
5A
  3
B9
350
5B
  3
C0
350
5C
  3
C1
350
5D
  3
C2
350
5E
  3
C3
350
5F
  3
C4
350
60
  3
C5
350
61
  3
C6
350
62
  3
C7
350
63
  3
C8
350
64
  3
C9
350
65
  3
D0
350
66
  3
D1
350
67
  3
D2
350
68
  0
DICTIONARY
  5
185
102
{ACAD_REACTORS
330
C
102
}
330
C
100
AcDbDictionary
281
     1
  0
XRECORD
  5
6D1
102
{ACAD_REACTORS
330
C
102
}
330
C
100
AcDbXrecord
280
     1
  1
DWGPROPS COOKIE
  2

  3

  4

  6

  7

  8
12016016
  9

300
=
301
=
302
=
303
=
304
=
305
=
306
=
307
=
308
=
309
=
 40
0.0
 41
2458298.995721736
 42
2458302.360770578
  1

 90
        0
  0
LAYOUT
  5
1E
102
{ACAD_REACTORS
330
1A
102
}
330
1A
100
AcDbPlotSettings
  1

  2
none_device
  4

  6

 40
0.0
 41
0.0
 42
0.0
 43
0.0
 44
0.0
 45
0.0
 46
0.0
 47
0.0
 48
0.0
 49
0.0
140
0.0
141
0.0
142
1.0
143
1.0
 70
   688
 72
     1
 73
     0
 74
     5
  7

 75
    16
147
1.0
148
0.0
149
0.0
100
AcDbLayout
  1
Layout1
 70
     1
 71
     1
 10
0.0
 20
0.0
 11
420.0
 21
297.0
 12
0.0
 22
0.0
 32
0.0
 14
1.000000000000000E+20
 24
1.000000000000000E+20
 34
1.000000000000000E+20
 15
-1.000000000000000E+20
 25
-1.000000000000000E+20
 35
-1.000000000000000E+20
146
0.0
 13
0.0
 23
0.0
 33
0.0
 16
1.0
 26
0.0
 36
0.0
 17
0.0
 27
1.0
 37
0.0
 76
     0
330
1B
  0
LAYOUT
  5
26
102
{ACAD_REACTORS
330
1A
102
}
330
1A
100
AcDbPlotSettings
  1

  2
none_device
  4

  6

 40
0.0
 41
0.0
 42
0.0
 43
0.0
 44
0.0
 45
0.0
 46
0.0
 47
0.0
 48
0.0
 49
0.0
140
0.0
141
0.0
142
1.0
143
1.0
 70
   688
 72
     1
 73
     0
 74
     5
  7

 75
    16
147
1.0
148
0.0
149
0.0
100
AcDbLayout
  1
Layout2
 70
     1
 71
     2
 10
0.0
 20
0.0
 11
0.0
 21
0.0
 12
0.0
 22
0.0
 32
0.0
 14
0.0
 24
0.0
 34
0.0
 15
0.0
 25
0.0
 35
0.0
146
0.0
 13
0.0
 23
0.0
 33
0.0
 16
1.0
 26
0.0
 36
0.0
 17
0.0
 27
1.0
 37
0.0
 76
     0
330
23
  0
LAYOUT
  5
22
102
{ACAD_REACTORS
330
1A
102
}
330
1A
100
AcDbPlotSettings
  1

  2
none_device
  4
ANSI_A_(11.00_x_8.50_Inches)
  6

 40
6.35
 41
19.05
 42
6.35000508
 43
19.05000254
 44
279.4
 45
215.9
 46
104.7392001083598
 47
91.44654543687955
 48
0.0
 49
0.0
140
0.0
141
0.0
142
0.0759908789109562
143
1.0
 70
  1696
 72
     0
 73
     0
 74
     0
  7

 75
     0
147
0.0235690232323232
148
0.0
149
0.0
100
AcDbLayout
  1
Model
 70
     1
 71
     0
 10
0.0
 20
0.0
 11
420.0
 21
297.0
 12
0.0
 22
0.0
 32
0.0
 14
1.000000000000000E+20
 24
1.000000000000000E+20
 34
1.000000000000000E+20
 15
-1.000000000000000E+20
 25
-1.000000000000000E+20
 35
-1.000000000000000E+20
146
0.0
 13
0.0
 23
0.0
 33
0.0
 16
1.0
 26
0.0
 36
0.0
 17
0.0
 27
1.0
 37
0.0
 76
     0
330
1F
331
29
  0
MLINESTYLE
  5
18
102
{ACAD_REACTORS
330
17
102
}
330
17
100
AcDbMlineStyle
  2
Standard
 70
     0
  3

 62
   256
 51
90.0
 52
90.0
 71
     2
 49
0.5
 62
   256
  6
BYLAYER
 49
-0.5
 62
   256
  6
BYLAYER
  0
ACDBPLACEHOLDER
  5
F
102
{ACAD_REACTORS
330
E
102
}
330
E
  0
SCALE
  5
48
102
{ACAD_REACTORS
330
47
102
}
330
47
100
AcDbScale
 70
     0
300
1:1
140
1.0
141
1.0
290
     1
  0
SCALE
  5
49
102
{ACAD_REACTORS
330
47
102
}
330
47
100
AcDbScale
 70
     0
300
1:2
140
1.0
141
2.0
290
     0
  0
SCALE
  5
4A
102
{ACAD_REACTORS
330
47
102
}
330
47
100
AcDbScale
 70
     0
300
1:4
140
1.0
141
4.0
290
     0
  0
SCALE
  5
4B
102
{ACAD_REACTORS
330
47
102
}
330
47
100
AcDbScale
 70
     0
300
1:5
140
1.0
141
5.0
290
     0
  0
SCALE
  5
4C
102
{ACAD_REACTORS
330
47
102
}
330
47
100
AcDbScale
 70
     0
300
1:8
140
1.0
141
8.0
290
     0
  0
SCALE
  5
4D
102
{ACAD_REACTORS
330
47
102
}
330
47
100
AcDbScale
 70
     0
300
1:10
140
1.0
141
10.0
290
     0
  0
SCALE
  5
4E
102
{ACAD_REACTORS
330
47
102
}
330
47
100
AcDbScale
 70
     0
300
1:16
140
1.0
141
16.0
290
     0
  0
SCALE
  5
4F
102
{ACAD_REACTORS
330
47
102
}
330
47
100
AcDbScale
 70
     0
300
1:20
140
1.0
141
20.0
290
     0
  0
SCALE
  5
50
102
{ACAD_REACTORS
330
47
102
}
330
47
100
AcDbScale
 70
     0
300
1:30
140
1.0
141
30.0
290
     0
  0
SCALE
  5
51
102
{ACAD_REACTORS
330
47
102
}
330
47
100
AcDbScale
 70
     0
300
1:40
140
1.0
141
40.0
290
     0
  0
SCALE
  5
52
102
{ACAD_REACTORS
330
47
102
}
330
47
100
AcDbScale
 70
     0
300
1:50
140
1.0
141
50.0
290
     0
  0
SCALE
  5
53
102
{ACAD_REACTORS
330
47
102
}
330
47
100
AcDbScale
 70
     0
300
1:100
140
1.0
141
100.0
290
     0
  0
SCALE
  5
54
102
{ACAD_REACTORS
330
47
102
}
330
47
100
AcDbScale
 70
     0
300
2:1
140
2.0
141
1.0
290
     0
  0
SCALE
  5
55
102
{ACAD_REACTORS
330
47
102
}
330
47
100
AcDbScale
 70
     0
300
4:1
140
4.0
141
1.0
290
     0
  0
SCALE
  5
56
102
{ACAD_REACTORS
330
47
102
}
330
47
100
AcDbScale
 70
     0
300
8:1
140
8.0
141
1.0
290
     0
  0
SCALE
  5
57
102
{ACAD_REACTORS
330
47
102
}
330
47
100
AcDbScale
 70
     0
300
10:1
140
10.0
141
1.0
290
     0
  0
SCALE
  5
58
102
{ACAD_REACTORS
330
47
102
}
330
47
100
AcDbScale
 70
     0
300
100:1
140
100.0
141
1.0
290
     0
  0
SCALE
  5
59
102
{ACAD_REACTORS
330
47
102
}
330
47
100
AcDbScale
 70
     0
300
1/128" = 1'-0"
140
0.0078125
141
12.0
290
     0
  0
SCALE
  5
5A
102
{ACAD_REACTORS
330
47
102
}
330
47
100
AcDbScale
 70
     0
300
1/64" = 1'-0"
140
0.015625
141
12.0
290
     0
  0
SCALE
  5
5B
102
{ACAD_REACTORS
330
47
102
}
330
47
100
AcDbScale
 70
     0
300
1/32" = 1'-0"
140
0.03125
141
12.0
290
     0
  0
SCALE
  5
5C
102
{ACAD_REACTORS
330
47
102
}
330
47
100
AcDbScale
 70
     0
300
1/16" = 1'-0"
140
0.0625
141
12.0
290
     0
  0
SCALE
  5
5D
102
{ACAD_REACTORS
330
47
102
}
330
47
100
AcDbScale
 70
     0
300
3/32" = 1'-0"
140
0.09375
141
12.0
290
     0
  0
SCALE
  5
5E
102
{ACAD_REACTORS
330
47
102
}
330
47
100
AcDbScale
 70
     0
300
1/8" = 1'-0"
140
0.125
141
12.0
290
     0
  0
SCALE
  5
5F
102
{ACAD_REACTORS
330
47
102
}
330
47
100
AcDbScale
 70
     0
300
3/16" = 1'-0"
140
0.1875
141
12.0
290
     0
  0
SCALE
  5
60
102
{ACAD_REACTORS
330
47
102
}
330
47
100
AcDbScale
 70
     0
300
1/4" = 1'-0"
140
0.25
141
12.0
290
     0
  0
SCALE
  5
61
102
{ACAD_REACTORS
330
47
102
}
330
47
100
AcDbScale
 70
     0
300
3/8" = 1'-0"
140
0.375
141
12.0
290
     0
  0
SCALE
  5
62
102
{ACAD_REACTORS
330
47
102
}
330
47
100
AcDbScale
 70
     0
300
1/2" = 1'-0"
140
0.5
141
12.0
290
     0
  0
SCALE
  5
63
102
{ACAD_REACTORS
330
47
102
}
330
47
100
AcDbScale
 70
     0
300
3/4" = 1'-0"
140
0.75
141
12.0
290
     0
  0
SCALE
  5
64
102
{ACAD_REACTORS
330
47
102
}
330
47
100
AcDbScale
 70
     0
300
1" = 1'-0"
140
1.0
141
12.0
290
     0
  0
SCALE
  5
65
102
{ACAD_REACTORS
330
47
102
}
330
47
100
AcDbScale
 70
     0
300
1-1/2" = 1'-0"
140
1.5
141
12.0
290
     0
  0
SCALE
  5
66
102
{ACAD_REACTORS
330
47
102
}
330
47
100
AcDbScale
 70
     0
300
3" = 1'-0"
140
3.0
141
12.0
290
     0
  0
SCALE
  5
67
102
{ACAD_REACTORS
330
47
102
}
330
47
100
AcDbScale
 70
     0
300
6" = 1'-0"
140
6.0
141
12.0
290
     0
  0
SCALE
  5
68
102
{ACAD_REACTORS
330
47
102
}
330
47
100
AcDbScale
 70
     0
300
1'-0" = 1'-0"
140
12.0
141
12.0
290
     0
  0
ENDSEC
  0
EOF
