  0
SECTION
  2
HEADER
  9
$ACADVER
  1
AC1015
  9
$ACADMAINTVER
 70
     6
  9
$DWGCODEPAGE
  3
ANSI_949
  9
$INSBASE
 10
0.0
 20
0.0
 30
0.0
  9
$EXTMIN
 10
1.000000000000000E+20
 20
1.000000000000000E+20
 30
1.000000000000000E+20
  9
$EXTMAX
 10
-1.000000000000000E+20
 20
-1.000000000000000E+20
 30
-1.000000000000000E+20
  9
$LIMMIN
 10
0.0
 20
0.0
  9
$LIMMAX
 10
420.0
 20
297.0
  9
$ORTHOMODE
 70
     1
  9
$REGENMODE
 70
     1
  9
$FILLMODE
 70
     1
  9
$QTEXTMODE
 70
     0
  9
$MIRRTEXT
 70
     1
  9
$LTSCALE
 40
1.0
  9
$ATTMODE
 70
     1
  9
$TEXTSIZE
 40
3.5
  9
$TRACEWID
 40
1.0
  9
$TEXTSTYLE
  7
Standard
  9
$CLAYER
  8
0
  9
$CELTYPE
  6
ByLayer
  9
$CECOLOR
 62
   256
  9
$CELTSCALE
 40
1.0
  9
$DISPSILH
 70
     0
  9
$DIMSCALE
 40
1.0
  9
$DIMASZ
 40
3.302
  9
$DIMEXO
 40
1.0
  9
$DIMDLI
 40
3.75
  9
$DIMRND
 40
0.0
  9
$DIMDLE
 40
0.0
  9
$DIMEXE
 40
1.0
  9
$DIMTP
 40
0.0
  9
$DIMTM
 40
0.0
  9
$DIMTXT
 40
3.5
  9
$DIMCEN
 40
2.5
  9
$DIMTSZ
 40
0.0
  9
$DIMTOL
 70
     0
  9
$DIMLIM
 70
     0
  9
$DIMTIH
 70
     1
  9
$DIMTOH
 70
     1
  9
$DIMSE1
 70
     0
  9
$DIMSE2
 70
     0
  9
$DIMTAD
 70
     1
  9
$DIMZIN
 70
     0
  9
$DIMBLK
  1

  9
$DIMASO
 70
     1
  9
$DIMSHO
 70
     1
  9
$DIMPOST
  1

  9
$DIMAPOST
  1

  9
$DIMALT
 70
     0
  9
$DIMALTD
 70
     3
  9
$DIMALTF
 40
0.0393700787401575
  9
$DIMLFAC
 40
1.0
  9
$DIMTOFL
 70
     1
  9
$DIMTVP
 40
0.0
  9
$DIMTIX
 70
     0
  9
$DIMSOXD
 70
     0
  9
$DIMSAH
 70
     0
  9
$DIMBLK1
  1

  9
$DIMBLK2
  1

  9
$DIMSTYLE
  2
ISO-25
  9
$DIMCLRD
 70
     0
  9
$DIMCLRE
 70
     0
  9
$DIMCLRT
 70
     0
  9
$DIMTFAC
 40
1.0
  9
$DIMGAP
 40
1.524
  9
$DIMJUST
 70
     0
  9
$DIMSD1
 70
     0
  9
$DIMSD2
 70
     0
  9
$DIMTOLJ
 70
     0
  9
$DIMTZIN
 70
     0
  9
$DIMALTZ
 70
     0
  9
$DIMALTTZ
 70
     0
  9
$DIMUPT
 70
     0
  9
$DIMDEC
 70
     2
  9
$DIMTDEC
 70
     2
  9
$DIMALTU
 70
     2
  9
$DIMALTTD
 70
     3
  9
$DIMTXSTY
  7
Standard
  9
$DIMAUNIT
 70
     0
  9
$DIMADEC
 70
     2
  9
$DIMALTRND
 40
0.0
  9
$DIMAZIN
 70
     0
  9
$DIMDSEP
 70
    44
  9
$DIMATFIT
 70
     3
  9
$DIMFRAC
 70
     0
  9
$DIMLDRBLK
  1

  9
$DIMLUNIT
 70
     2
  9
$DIMLWD
 70
    -2
  9
$DIMLWE
 70
    -2
  9
$DIMTMOVE
 70
     0
  9
$LUNITS
 70
     2
  9
$LUPREC
 70
     2
  9
$SKETCHINC
 40
1.0
  9
$FILLETRAD
 40
10.0
  9
$AUNITS
 70
     0
  9
$AUPREC
 70
     2
  9
$MENU
  1
.
  9
$ELEVATION
 40
0.0
  9
$PELEVATION
 40
0.0
  9
$THICKNESS
 40
0.0
  9
$LIMCHECK
 70
     0
  9
$CHAMFERA
 40
0.0
  9
$CHAMFERB
 40
0.0
  9
$CHAMFERC
 40
0.0
  9
$CHAMFERD
 40
0.0
  9
$SKPOLY
 70
     0
  9
$TDCREATE
 40
2458299.377736516
  9
$TDUCREATE
 40
2458299.002736516
  9
$TDUPDATE
 40
2458302.734571644
  9
$TDUUPDATE
 40
2458302.359571644
  9
$TDINDWG
 40
0.0018115394
  9
$TDUSRTIMER
 40
2458302.357760278
  9
$USRTIMER
 70
     1
  9
$ANGBASE
 50
0.0
  9
$ANGDIR
 70
     0
  9
$PDMODE
 70
     0
  9
$PDSIZE
 40
-1.0
  9
$PLINEWID
 40
0.0
  9
$SPLFRAME
 70
     0
  9
$SPLINETYPE
 70
     6
  9
$SPLINESEGS
 70
     8
  9
$HANDSEED
  5
666
  9
$SURFTAB1
 70
     6
  9
$SURFTAB2
 70
     6
  9
$SURFTYPE
 70
     6
  9
$SURFU
 70
     6
  9
$SURFV
 70
     6
  9
$UCSBASE
  2

  9
$UCSNAME
  2

  9
$UCSORG
 10
0.0
 20
0.0
 30
0.0
  9
$UCSXDIR
 10
1.0
 20
0.0
 30
0.0
  9
$UCSYDIR
 10
0.0
 20
1.0
 30
0.0
  9
$UCSORTHOREF
  2

  9
$UCSORTHOVIEW
 70
     0
  9
$UCSORGTOP
 10
0.0
 20
0.0
 30
0.0
  9
$UCSORGBOTTOM
 10
0.0
 20
0.0
 30
0.0
  9
$UCSORGLEFT
 10
0.0
 20
0.0
 30
0.0
  9
$UCSORGRIGHT
 10
0.0
 20
0.0
 30
0.0
  9
$UCSORGFRONT
 10
0.0
 20
0.0
 30
0.0
  9
$UCSORGBACK
 10
0.0
 20
0.0
 30
0.0
  9
$PUCSBASE
  2

  9
$PUCSNAME
  2

  9
$PUCSORG
 10
0.0
 20
0.0
 30
0.0
  9
$PUCSXDIR
 10
1.0
 20
0.0
 30
0.0
  9
$PUCSYDIR
 10
0.0
 20
1.0
 30
0.0
  9
$PUCSORTHOREF
  2

  9
$PUCSORTHOVIEW
 70
     0
  9
$PUCSORGTOP
 10
0.0
 20
0.0
 30
0.0
  9
$PUCSORGBOTTOM
 10
0.0
 20
0.0
 30
0.0
  9
$PUCSORGLEFT
 10
0.0
 20
0.0
 30
0.0
  9
$PUCSORGRIGHT
 10
0.0
 20
0.0
 30
0.0
  9
$PUCSORGFRONT
 10
0.0
 20
0.0
 30
0.0
  9
$PUCSORGBACK
 10
0.0
 20
0.0
 30
0.0
  9
$USERI1
 70
     0
  9
$USERI2
 70
     0
  9
$USERI3
 70
     0
  9
$USERI4
 70
     0
  9
$USERI5
 70
     0
  9
$USERR1
 40
0.0
  9
$USERR2
 40
0.0
  9
$USERR3
 40
0.0
  9
$USERR4
 40
0.0
  9
$USERR5
 40
0.0
  9
$WORLDVIEW
 70
     1
  9
$SHADEDGE
 70
     3
  9
$SHADEDIF
 70
    70
  9
$TILEMODE
 70
     1
  9
$MAXACTVP
 70
    64
  9
$PINSBASE
 10
0.0
 20
0.0
 30
0.0
  9
$PLIMCHECK
 70
     0
  9
$PEXTMIN
 10
1.000000000000000E+20
 20
1.000000000000000E+20
 30
1.000000000000000E+20
  9
$PEXTMAX
 10
-1.000000000000000E+20
 20
-1.000000000000000E+20
 30
-1.000000000000000E+20
  9
$PLIMMIN
 10
0.0
 20
0.0
  9
$PLIMMAX
 10
0.0
 20
0.0
  9
$UNITMODE
 70
     0
  9
$VISRETAIN
 70
     1
  9
$PLINEGEN
 70
     0
  9
$PSLTSCALE
 70
     1
  9
$TREEDEPTH
 70
  3020
  9
$CMLSTYLE
  2
Standard
  9
$CMLJUST
 70
     0
  9
$CMLSCALE
 40
20.0
  9
$PROXYGRAPHICS
 70
     1
  9
$MEASUREMENT
 70
     1
  9
$CELWEIGHT
370
    -1
  9
$ENDCAPS
280
     0
  9
$JOINSTYLE
280
     0
  9
$LWDISPLAY
290
     1
  9
$INSUNITS
 70
     4
  9
$HYPERLINKBASE
  1

  9
$STYLESHEET
  1

  9
$XEDIT
290
     1
  9
$CEPSNTYPE
380
     0
  9
$PSTYLEMODE
290
     1
  9
$FINGERPRINTGUID
  2
{2B36E53E-3FC4-454C-BEF3-B1312E5BFE4E}
  9
$VERSIONGUID
  2
{FAEB1C32-E019-11D5-929B-00C0DF256EC4}
  9
$EXTNAMES
290
     1
  9
$PSVPSCALE
 40
0.0
  9
$OLESTARTUP
290
     0
  0
ENDSEC
  0
SECTION
  2
CLASSES
  0
CLASS
  1
ACDBDICTIONARYWDFLT
  2
AcDbDictionaryWithDefault
  3
ObjectDBX Classes
 90
        0
280
     0
281
     0
  0
CLASS
  1
VISUALSTYLE
  2
AcDbVisualStyle
  3
ObjectDBX Classes
 90
     4095
280
     0
281
     0
  0
CLASS
  1
MATERIAL
  2
AcDbMaterial
  3
ObjectDBX Classes
 90
     1153
280
     0
281
     0
  0
CLASS
  1
SCALE
  2
AcDbScale
  3
ObjectDBX Classes
 90
     1153
280
     0
281
     0
  0
CLASS
  1
SUN
  2
AcDbSun
  3
SCENEOE
 90
     1153
280
     0
281
     0
  0
CLASS
  1
ACDBPLACEHOLDER
  2
AcDbPlaceHolder
  3
ObjectDBX Classes
 90
        0
280
     0
281
     0
  0
CLASS
  1
LAYOUT
  2
AcDbLayout
  3
ObjectDBX Classes
 90
        0
280
     0
281
     0
  0
CLASS
  1
TABLESTYLE
  2
AcDbTableStyle
  3
ObjectDBX Classes
 90
     4095
280
     0
281
     0
  0
CLASS
  1
MLEADERSTYLE
  2
AcDbMLeaderStyle
  3
ACDB_MLEADERSTYLE_CLASS
 90
     4095
280
     0
281
     0
  0
CLASS
  1
RASTERVARIABLES
  2
AcDbRasterVariables
  3
ISM
 90
        0
280
     0
281
     0
  0
ENDSEC
  0
SECTION
  2
TABLES
  0
TABLE
  2
VPORT
  5
8
330
0
100
AcDbSymbolTable
 70
     1
  0
VPORT
  5
29
330
8
100
AcDbSymbolTableRecord
100
AcDbViewportTableRecord
  2
*Active
 70
     0
 10
0.0
 20
0.0
 11
1.0
 21
1.0
 12
9.733745166983525
 22
-8.645578950155574
 13
0.0
 23
0.0
 14
10.0
 24
10.0
 15
10.0
 25
10.0
 16
0.0
 26
0.0
 36
1.0
 17
0.0
 27
0.0
 37
0.0
 40
130.2872167126384
 41
1.31452581032413
 42
50.0
 43
0.0
 44
0.0
 50
0.0
 51
0.0
 71
    16
 72
  2000
 73
     1
 74
     3
 75
     0
 76
     0
 77
     0
 78
     0
281
     0
 65
     1
110
0.0
120
0.0
130
0.0
111
1.0
121
0.0
131
0.0
112
0.0
122
1.0
132
0.0
 79
     0
146
0.0
  0
ENDTAB
  0
TABLE
  2
LTYPE
  5
5
330
0
100
AcDbSymbolTable
 70
     6
  0
LTYPE
  5
14
330
5
100
AcDbSymbolTableRecord
100
AcDbLinetypeTableRecord
  2
ByBlock
 70
     0
  3

 72
    65
 73
     0
 40
0.0
  0
LTYPE
  5
15
330
5
100
AcDbSymbolTableRecord
100
AcDbLinetypeTableRecord
  2
ByLayer
 70
     0
  3

 72
    65
 73
     0
 40
0.0
  0
LTYPE
  5
16
330
5
100
AcDbSymbolTableRecord
100
AcDbLinetypeTableRecord
  2
Continuous
 70
     0
  3
Solid line
 72
    65
 73
     0
 40
0.0
  0
LTYPE
  5
6A
330
5
100
AcDbSymbolTableRecord
100
AcDbLinetypeTableRecord
  2
HIDDEN
 70
     0
  3
Hidden __ __ __ __ __ __ __ __ __ __ __ __ __ __
 72
    65
 73
     2
 40
1.905
 49
1.27
 74
     0
 49
-0.635
 74
     0
  0
LTYPE
  5
6B
330
5
100
AcDbSymbolTableRecord
100
AcDbLinetypeTableRecord
  2
PHANTOM
 70
     0
  3
Phantom ______  __  __  ______  __  __  ______
 72
    65
 73
     6
 40
12.7
 49
6.35
 74
     0
 49
-1.27
 74
     0
 49
1.27
 74
     0
 49
-1.27
 74
     0
 49
1.27
 74
     0
 49
-1.27
 74
     0
  0
LTYPE
  5
6C
330
5
100
AcDbSymbolTableRecord
100
AcDbLinetypeTableRecord
  2
CENTER
 70
     0
  3
Center ____ _ ____ _ ____ _ ____ _ ____ _ ____
 72
    65
 73
     4
 40
10.16
 49
6.35
 74
     0
 49
-1.27
 74
     0
 49
1.27
 74
     0
 49
-1.27
 74
     0
  0
LTYPE
  5
6D
330
5
100
AcDbSymbolTableRecord
100
AcDbLinetypeTableRecord
  2
CENTERX2
 70
     0
  3
Center (2x) ________  __  ________  __  _____
 72
    65
 73
     4
 40
20.32
 49
12.7
 74
     0
 49
-2.54
 74
     0
 49
2.54
 74
     0
 49
-2.54
 74
     0
  0
LTYPE
  5
6E
330
5
100
AcDbSymbolTableRecord
100
AcDbLinetypeTableRecord
  2
DOT2
 70
     0
  3
Dot (.5x) ........................................
 72
    65
 73
     2
 40
0.635
 49
0.0
 74
     0
 49
-0.635
 74
     0
  0
ENDTAB
  0
TABLE
  2
LAYER
  5
2
330
0
100
AcDbSymbolTable
 70
    18
  0
LAYER
  5
10
330
2
100
AcDbSymbolTableRecord
100
AcDbLayerTableRecord
  2
0
 70
     0
 62
     7
  6
Continuous
370
    -3
390
F
  0
LAYER
  5
6F
330
2
100
AcDbSymbolTableRecord
100
AcDbLayerTableRecord
  2
FORMAT
 70
     0
 62
     2
  6
Continuous
370
    -3
390
F
  0
LAYER
  5
70
330
2
100
AcDbSymbolTableRecord
100
AcDbLayerTableRecord
  2
외형선
 70
     0
 62
     4
  6
Continuous
370
    30
390
F
  0
LAYER
  5
71
330
2
100
AcDbSymbolTableRecord
100
AcDbLayerTableRecord
  2
숨은선
 70
     0
 62
     2
  6
HIDDEN
370
    15
390
F
  0
LAYER
  5
72
330
2
100
AcDbSymbolTableRecord
100
AcDbLayerTableRecord
  2
중심선
 70
     0
 62
     1
  6
CENTERX2
370
    -3
390
F
  0
LAYER
  5
73
330
2
100
AcDbSymbolTableRecord
100
AcDbLayerTableRecord
  2
파단선
 70
     0
 62
     4
  6
Continuous
370
    -3
390
F
  0
LAYER
  5
74
330
2
100
AcDbSymbolTableRecord
100
AcDbLayerTableRecord
  2
해칭선
 70
     0
 62
   100
  6
Continuous
370
    -3
390
F
  0
LAYER
  5
75
330
2
100
AcDbSymbolTableRecord
100
AcDbLayerTableRecord
  2
가는실선
 70
     0
 62
     4
  6
Continuous
370
    -3
390
F
  0
LAYER
  5
76
330
2
100
AcDbSymbolTableRecord
100
AcDbLayerTableRecord
  2
치수_보조선
 70
     0
 62
     4
  6
Continuous
370
    -3
390
F
  0
LAYER
  5
77
330
2
100
AcDbSymbolTableRecord
100
AcDbLayerTableRecord
  2
치수문자_일반주서
 70
     0
 62
     7
  6
Continuous
370
    15
390
F
  0
LAYER
  5
78
330
2
100
AcDbSymbolTableRecord
100
AcDbLayerTableRecord
  2
개별주서
 70
     0
 62
   100
  6
Continuous
370
    30
390
F
  0
LAYER
  5
79
330
2
100
AcDbSymbolTableRecord
100
AcDbLayerTableRecord
  2
중간선
 70
     0
 62
     2
  6
Continuous
370
    15
390
F
  0
LAYER
  5
7A
330
2
100
AcDbSymbolTableRecord
100
AcDbLayerTableRecord
  2
윤곽선
 70
     0
 62
     3
  6
Continuous
370
    40
390
F
  0
LAYER
  5
7B
330
2
100
AcDbSymbolTableRecord
100
AcDbLayerTableRecord
  2
중심마크
 70
     0
 62
   100
  6
Continuous
370
    30
390
F
  0
LAYER
  5
7C
330
2
100
AcDbSymbolTableRecord
100
AcDbLayerTableRecord
  2
가상선
 70
     0
 62
     4
  6
PHANTOM
370
    -3
390
F
  0
LAYER
  5
7D
330
2
100
AcDbSymbolTableRecord
100
AcDbLayerTableRecord
  2
특수지정선
 70
     0
 62
     5
  6
CENTERX2
370
    60
390
F
  0
LAYER
  5
7E
330
2
100
AcDbSymbolTableRecord
100
AcDbLayerTableRecord
  2
참조1
 70
     0
 62
    -4
  6
Continuous
370
    -3
390
F
  0
LAYER
  5
15B
330
2
100
AcDbSymbolTableRecord
100
AcDbLayerTableRecord
  2
Defpoints
 70
     0
 62
     7
  6
Continuous
290
     0
370
    -3
390
F
  0
ENDTAB
  0
TABLE
  2
STYLE
  5
3
330
0
100
AcDbSymbolTable
 70
     2
  0
STYLE
  5
11
330
3
100
AcDbSymbolTableRecord
100
AcDbTextStyleTableRecord
  2
Standard
 70
     0
 40
0.0
 41
1.0
 50
0.0
 71
     0
 42
3.5
  3
txt
  4

  0
STYLE
  5
94
330
3
100
AcDbSymbolTableRecord
100
AcDbTextStyleTableRecord
  2
SLDTEXTSTYLE0
 70
     0
 40
0.0
 41
0.75
 50
0.0
 71
     0
 42
3.5
  3
TXT
  4

  0
ENDTAB
  0
TABLE
  2
VIEW
  5
6
330
0
100
AcDbSymbolTable
 70
     0
  0
ENDTAB
  0
TABLE
  2
UCS
  5
7
330
0
100
AcDbSymbolTable
 70
     0
  0
ENDTAB
  0
TABLE
  2
APPID
  5
9
330
0
100
AcDbSymbolTable
 70
     1
  0
APPID
  5
12
330
9
100
AcDbSymbolTableRecord
100
AcDbRegAppTableRecord
  2
ACAD
 70
     0
  0
ENDTAB
  0
TABLE
  2
DIMSTYLE
  5
A
330
0
100
AcDbSymbolTable
 70
     4
100
AcDbDimStyleTable
  0
DIMSTYLE
105
27
330
A
100
AcDbSymbolTableRecord
100
AcDbDimStyleTableRecord
  2
ISO-25
 70
     0
 41
2.5
 42
0.625
 43
3.75
 44
1.25
 73
     0
 74
     0
 77
     1
 78
     8
140
2.5
141
2.5
143
0.03937007874016
147
0.625
171
     3
172
     1
178
     0
271
     2
272
     2
274
     3
278
    44
283
     0
284
     8
340
11
  0
DIMSTYLE
105
DA
102
{ACAD_REACTORS
330
3A1
330
3BB
330
62A
330
62C
102
}
330
A
100
AcDbSymbolTableRecord
100
AcDbDimStyleTableRecord
  2
SLDDIMSTYLE0
 70
     0
 41
3.302
 44
0.0
 45
0.000000001
 73
     0
 74
     0
 77
     1
 78
    12
 79
     3
140
3.5
143
0.0393700787401575
147
0.875
148
0.000000001
170
     1
173
     1
178
     0
271
     2
272
     2
276
     2
284
    12
340
94
  0
DIMSTYLE
105
ED
102
{ACAD_REACTORS
330
3AE
330
62B
102
}
330
A
100
AcDbSymbolTableRecord
100
AcDbDimStyleTableRecord
  2
SLDDIMSTYLE1
 70
     0
 41
3.302
 44
0.0
 45
0.000000001
 73
     0
 74
     0
 77
     1
 78
    12
 79
     3
140
3.5
143
0.0393700787401575
147
0.875
148
0.000000001
170
     1
172
     1
173
     1
178
     0
271
     2
272
     2
276
     2
284
    12
289
     0
340
94
  0
DIMSTYLE
105
167
102
{ACAD_REACTORS
330
3C8
330
62D
102
}
330
A
100
AcDbSymbolTableRecord
100
AcDbDimStyleTableRecord
  2
SLDDIMSTYLE2
 70
     0
 41
3.302
 44
0.0
 45
0.000000001
 73
     0
 74
     0
 77
     1
 78
     4
 79
     1
140
3.5
143
0.0393700787401575
147
0.875
148
0.000000001
170
     1
173
     1
178
     0
271
     2
272
     2
276
     2
284
    12
340
94
  0
ENDTAB
  0
TABLE
  2
BLOCK_RECORD
  5
1
330
0
100
AcDbSymbolTable
 70
    16
  0
BLOCK_RECORD
  5
1F
330
1
100
AcDbSymbolTableRecord
100
AcDbBlockTableRecord
  2
*Model_Space
340
22
  0
BLOCK_RECORD
  5
1B
330
1
100
AcDbSymbolTableRecord
100
AcDbBlockTableRecord
  2
*Paper_Space
340
1E
  0
BLOCK_RECORD
  5
23
330
1
100
AcDbSymbolTableRecord
100
AcDbBlockTableRecord
  2
*Paper_Space0
340
26
  0
BLOCK_RECORD
  5
7F
330
1
100
AcDbSymbolTableRecord
100
AcDbBlockTableRecord
  2
블럭10
340
0
102
{BLKREFS
331
D1
102
}
  0
BLOCK_RECORD
  5
DB
330
1
100
AcDbSymbolTableRecord
100
AcDbBlockTableRecord
  2
_D
340
0
  0
BLOCK_RECORD
  5
EE
330
1
100
AcDbSymbolTableRecord
100
AcDbBlockTableRecord
  2
_D_1
340
0
  0
BLOCK_RECORD
  5
102
330
1
100
AcDbSymbolTableRecord
100
AcDbBlockTableRecord
  2
_D_2
340
0
  0
BLOCK_RECORD
  5
116
330
1
100
AcDbSymbolTableRecord
100
AcDbBlockTableRecord
  2
_D_3
340
0
  0
BLOCK_RECORD
  5
12F
330
1
100
AcDbSymbolTableRecord
100
AcDbBlockTableRecord
  2
SW_DOWELSYMBOL_0
340
0
102
{BLKREFS
331
0
331
3D5
331
62E
102
}
  0
BLOCK_RECORD
  5
3DE
330
1
100
AcDbSymbolTableRecord
100
AcDbBlockTableRecord
  2
*D8
340
0
  0
BLOCK_RECORD
  5
3EA
330
1
100
AcDbSymbolTableRecord
100
AcDbBlockTableRecord
  2
*D9
340
0
  0
BLOCK_RECORD
  5
3F6
330
1
100
AcDbSymbolTableRecord
100
AcDbBlockTableRecord
  2
*D10
340
0
  0
BLOCK_RECORD
  5
402
330
1
100
AcDbSymbolTableRecord
100
AcDbBlockTableRecord
  2
*D11
340
0
  0
BLOCK_RECORD
  5
62F
330
1
100
AcDbSymbolTableRecord
100
AcDbBlockTableRecord
  2
*D12
340
0
  0
BLOCK_RECORD
  5
63B
330
1
100
AcDbSymbolTableRecord
100
AcDbBlockTableRecord
  2
*D13
340
0
  0
BLOCK_RECORD
  5
647
330
1
100
AcDbSymbolTableRecord
100
AcDbBlockTableRecord
  2
*D14
340
0
  0
BLOCK_RECORD
  5
653
330
1
100
AcDbSymbolTableRecord
100
AcDbBlockTableRecord
  2
*D15
340
0
  0
ENDTAB
  0
ENDSEC
  0
SECTION
  2
BLOCKS
  0
BLOCK
  5
20
330
1F
100
AcDbEntity
  8
0
100
AcDbBlockBegin
  2
*Model_Space
 70
     0
 10
0.0
 20
0.0
 30
0.0
  3
*Model_Space
  1
*Model_Space
  0
ENDBLK
  5
21
330
1F
100
AcDbEntity
  8
0
100
AcDbBlockEnd
  0
BLOCK
  5
1C
330
1B
100
AcDbEntity
 67
     1
  8
0
100
AcDbBlockBegin
  2
*Paper_Space
 70
     0
 10
0.0
 20
0.0
 30
0.0
  3
*Paper_Space
  1
*Paper_Space
  0
ENDBLK
  5
1D
330
1B
100
AcDbEntity
 67
     1
  8
0
100
AcDbBlockEnd
  0
BLOCK
  5
24
330
23
100
AcDbEntity
  8
0
100
AcDbBlockBegin
  2
*Paper_Space0
 70
     0
 10
0.0
 20
0.0
 30
0.0
  3
*Paper_Space0
  1
*Paper_Space0
  0
ENDBLK
  5
25
330
23
100
AcDbEntity
  8
0
100
AcDbBlockEnd
  0
BLOCK
  5
80
330
7F
100
AcDbEntity
  8
0
100
AcDbBlockBegin
  2
블럭10
 70
     2
 10
0.0
 20
0.0
 30
0.0
  3
블럭10
  1
블럭10
  0
ELLIPSE
  5
82
330
7F
100
AcDbEntity
  8
중심선
100
AcDbEllipse
 10
20.54032771741204
 20
12.0471743016438
 30
0.0
 11
6.600054785286829
 21
-1.261213355974178E-13
 31
0.0
210
0.0
220
0.0
230
1.0
 40
0.636358354079598
 41
0.9219305317359503
 42
6.513795318482858
  0
ELLIPSE
  5
83
330
7F
100
AcDbEntity
  8
중심선
100
AcDbEllipse
 10
20.54032771746488
 20
12.04717430159265
 30
0.0
 11
3.960054785062283
 21
1.540847449632565E-10
 31
0.0
210
0.0
220
0.0
230
1.0
 40
0.3939339440162632
 41
1.131841032648279
 42
5.62031148352944
  0
LINE
  5
84
330
7F
100
AcDbEntity
  8
중심선
100
AcDbLine
 10
2.268634060543552
 20
16.24717430164393
 30
0.0
 11
5.714909304380834
 21
16.24717430164393
 31
0.0
  0
LINE
  5
85
330
7F
100
AcDbEntity
  8
중심선
100
AcDbLine
 10
5.245725140726316
 20
7.84717430164391
 30
0.0
 11
8.692000384563599
 21
7.84717430164391
 31
0.0
  0
LINE
  5
86
330
7F
100
AcDbEntity
  8
중심선
100
AcDbLine
 10
15.74043728645272
 20
16.24717430164393
 30
0.0
 11
8.692000384563599
 21
7.84717430164391
 31
0.0
  0
LINE
  5
87
330
7F
100
AcDbEntity
  8
중심선
100
AcDbLine
 10
0.1404042013395286
 20
13.71084872107135
 30
0.0
 11
3.58671253028996
 21
13.71088815037384
 31
0.0
  0
LINE
  5
88
330
7F
100
AcDbEntity
  8
중심선
100
AcDbLine
 10
2.750260043222114
 20
10.84717430164391
 30
0.0
 11
6.196535287059397
 21
10.84717430164391
 31
0.0
  0
LINE
  5
89
330
7F
100
AcDbEntity
  8
중심선
100
AcDbLine
 10
12.29416204261559
 20
16.24717430164393
 30
0.0
 11
5.245725140726316
 21
7.84717430164391
 31
0.0
  0
LINE
  5
8A
330
7F
100
AcDbEntity
  8
중심선
100
AcDbLine
 10
10.72767329541681
 20
16.24717430164393
 30
0.0
 11
6.196535287059397
 21
10.84717430164391
 31
0.0
  0
LINE
  5
8B
330
7F
100
AcDbEntity
  8
중심선
100
AcDbLine
 10
7.28139805157953
 20
16.24717430164393
 30
0.0
 11
2.750260043222114
 21
10.84717430164391
 31
0.0
  0
LINE
  5
8C
330
7F
100
AcDbEntity
  8
중심선
100
AcDbLine
 10
5.714909304380834
 20
16.24717430164393
 30
0.0
 11
3.58671253028996
 21
13.71088815037384
 31
0.0
  0
LINE
  5
8D
330
7F
100
AcDbEntity
  8
중심선
100
AcDbLine
 10
2.268634060543552
 20
16.24717430164393
 30
0.0
 11
0.1404042013395286
 21
13.71084872107135
 31
0.0
  0
LINE
  5
8E
330
7F
100
AcDbEntity
  8
중심선
100
AcDbLine
 10
7.28139805157953
 20
16.24717430164393
 30
0.0
 11
10.72767329541681
 21
16.24717430164393
 31
0.0
  0
LINE
  5
8F
330
7F
100
AcDbEntity
  8
중심선
100
AcDbLine
 10
12.29416204261559
 20
16.24717430164393
 30
0.0
 11
15.74043728645272
 21
16.24717430164393
 31
0.0
  0
LINE
  5
90
330
7F
100
AcDbEntity
  8
중심선
100
AcDbLine
 10
19.22036997980202
 20
11.08717430171403
 30
0.0
 11
23.66174974927406
 21
11.08717430171406
 31
0.0
  0
LINE
  5
91
330
7F
100
AcDbEntity
  8
중심선
100
AcDbLine
 10
19.22039502424796
 20
13.00717430171391
 30
0.0
 11
19.22036997980202
 21
11.08717430171403
 31
0.0
  0
LINE
  5
92
330
7F
100
AcDbEntity
  8
중심선
100
AcDbLine
 10
19.22039502424796
 20
13.00717430171391
 30
0.0
 11
26.96566020931264
 21
13.00717430171391
 31
0.0
  0
LINE
  5
93
330
7F
100
AcDbEntity
  8
중심선
100
AcDbLine
 10
22.22332737316547
 20
13.45928029700563
 30
0.0
 11
24.52862924686651
 21
15.39360700705356
 31
0.0
  0
ATTDEF
  5
95
330
7F
100
AcDbEntity
  8
FORMAT
 62
     2
100
AcDbText
 10
-10.14163601213663
 20
2.075366912832191
 30
0.0
 40
4.233333333333333
  1
EM666040 [ 4 FLUTE ]
 41
0.75
  7
SLDTEXTSTYLE0
 11
-10.14163601213663
 21
-0.0412997538344756
 31
0.0
100
AcDbAttributeDefinition
  3

  2
AUTOATTR0
 70
     0
 74
     1
  0
ENDBLK
  5
81
330
7F
100
AcDbEntity
  8
0
100
AcDbBlockEnd
  0
BLOCK
  5
DC
330
DB
100
AcDbEntity
  8
0
100
AcDbBlockBegin
  2
_D
 70
     0
 10
0.0
 20
0.0
 30
0.0
  3
_D
  1
_D
  0
SOLID
  5
DE
330
DB
100
AcDbEntity
  8
치수문자_일반주서
100
AcDbTrace
 10
41.77004173836691
 20
8.254370580932727
 30
0.0
 11
41.2620417383669
 21
4.952370580932728
 31
0.0
 12
42.27804173836691
 22
4.952370580932728
 32
0.0
 13
42.27804173836691
 23
4.952370580932728
 33
0.0
  0
SOLID
  5
DF
330
DB
100
AcDbEntity
  8
치수문자_일반주서
100
AcDbTrace
 10
41.77004173836691
 20
-7.620629419067271
 30
0.0
 11
42.27804173836691
 21
-4.318629419067271
 31
0.0
 12
41.2620417383669
 22
-4.318629419067271
 32
0.0
 13
41.2620417383669
 23
-4.318629419067271
 33
0.0
  0
LINE
  5
E0
330
DB
100
AcDbEntity
  8
치수문자_일반주서
100
AcDbLine
 10
30.97716002232418
 20
11.35484009084036
 30
0.0
 11
30.97716002232418
 21
10.64390260527586
 31
0.0
  0
LINE
  5
E1
330
DB
100
AcDbEntity
  8
치수문자_일반주서
100
AcDbLine
 10
30.97716002232418
 20
10.64390260527586
 30
0.0
 11
36.53341001338349
 21
10.6439026052759
 31
0.0
  0
LINE
  5
E2
330
DB
100
AcDbEntity
  8
치수문자_일반주서
100
AcDbLine
 10
36.53341001338349
 20
10.6439026052759
 30
0.0
 11
36.53341001338348
 21
11.3548400908404
 31
0.0
  0
LINE
  5
E3
330
DB
100
AcDbEntity
  8
치수문자_일반주서
100
AcDbLine
 10
30.9771600223241
 20
22.18357295297762
 30
0.0
 11
30.9771600223241
 21
22.89451043854212
 31
0.0
  0
LINE
  5
E4
330
DB
100
AcDbEntity
  8
치수문자_일반주서
100
AcDbLine
 10
30.9771600223241
 20
22.89451043854212
 30
0.0
 11
36.5334100133834
 21
22.89451043854216
 31
0.0
  0
LINE
  5
E5
330
DB
100
AcDbEntity
  8
치수문자_일반주서
100
AcDbLine
 10
36.5334100133834
 20
22.89451043854216
 30
0.0
 11
36.53341001338341
 21
22.18357295297766
 31
0.0
  0
LINE
  5
E6
330
DB
100
AcDbEntity
  8
치수문자_일반주서
100
AcDbLine
 10
6.450031692620095
 20
8.25437058093273
 30
0.0
 11
42.77004173836691
 21
8.254370580932727
 31
0.0
  0
LINE
  5
E7
330
DB
100
AcDbEntity
  8
치수문자_일반주서
100
AcDbLine
 10
41.77004173836691
 20
8.254370580932727
 30
0.0
 11
41.77004173836691
 21
25.22717546473009
 31
0.0
  0
LINE
  5
E8
330
DB
100
AcDbEntity
  8
치수문자_일반주서
100
AcDbLine
 10
41.77004173836691
 20
8.254370580932727
 30
0.0
 11
41.77004173836691
 21
-7.620629419067271
 31
0.0
  0
MTEXT
  5
E9
330
DB
100
AcDbEntity
  8
치수문자_일반주서
100
AcDbMText
 10
32.02167309880458
 20
12.24351199145174
 30
0.0
 40
3.5
 41
0.0
 71
     1
 72
     1
  1
0.63
  7
SLDTEXTSTYLE0
 11
-7.044195017643634E-15
 21
1.0
 31
0.0
 73
     1
 44
1.0
  0
MTEXT
  5
EA
330
DB
100
AcDbEntity
  8
치수문자_일반주서
100
AcDbMText
 10
37.25830464916509
 20
8.311237579088006
 30
0.0
 40
3.5
 41
0.0
 71
     1
 72
     1
  1
%%c
  7
SLDTEXTSTYLE0
 11
-7.044195017643634E-15
 21
1.0
 31
0.0
 73
     1
 44
1.0
  0
MTEXT
  5
EB
330
DB
100
AcDbEntity
  8
치수문자_일반주서
100
AcDbMText
 10
37.25830464916505
 20
13.58967497746209
 30
0.0
 40
3.5
 41
0.0
 71
     1
 72
     1
  1
15.88
  7
SLDTEXTSTYLE0
 11
-7.044195017643634E-15
 21
1.0
 31
0.0
 73
     1
 44
1.0
  0
ENDBLK
  5
DD
330
DB
100
AcDbEntity
  8
0
100
AcDbBlockEnd
  0
BLOCK
  5
EF
330
EE
100
AcDbEntity
  8
0
100
AcDbBlockBegin
  2
_D_1
 70
     0
 10
0.0
 20
0.0
 30
0.0
  3
_D_1
  1
_D_1
  0
SOLID
  5
F1
330
EE
100
AcDbEntity
  8
치수문자_일반주서
100
AcDbTrace
 10
-60.13500000000003
 20
8.254370580932717
 30
0.0
 11
-59.62700000000003
 21
11.55637058093272
 31
0.0
 12
-60.64300000000004
 22
11.55637058093272
 32
0.0
 13
-60.64300000000004
 23
11.55637058093272
 33
0.0
  0
SOLID
  5
F2
330
EE
100
AcDbEntity
  8
치수문자_일반주서
100
AcDbTrace
 10
-60.13500000000003
 20
-7.620629419067284
 30
0.0
 11
-60.64300000000004
 21
-10.92262941906728
 31
0.0
 12
-59.62700000000003
 22
-10.92262941906728
 32
0.0
 13
-59.62700000000003
 23
-10.92262941906728
 33
0.0
  0
LINE
  5
F3
330
EE
100
AcDbEntity
  8
치수문자_일반주서
100
AcDbLine
 10
-70.92788171604273
 20
-6.369176284661766
 30
0.0
 11
-70.92788171604273
 21
-7.080113770226266
 31
0.0
  0
LINE
  5
F4
330
EE
100
AcDbEntity
  8
치수문자_일반주서
100
AcDbLine
 10
-70.92788171604273
 20
-7.080113770226266
 30
0.0
 11
-65.37163172498343
 21
-7.080113770226227
 31
0.0
  0
LINE
  5
F5
330
EE
100
AcDbEntity
  8
치수문자_일반주서
100
AcDbLine
 10
-65.37163172498343
 20
-7.080113770226227
 30
0.0
 11
-65.37163172498343
 21
-6.369176284661727
 31
0.0
  0
LINE
  5
F6
330
EE
100
AcDbEntity
  8
치수문자_일반주서
100
AcDbLine
 10
-70.92788171604282
 20
4.459556577475492
 30
0.0
 11
-70.92788171604282
 21
5.170494063039992
 31
0.0
  0
LINE
  5
F7
330
EE
100
AcDbEntity
  8
치수문자_일반주서
100
AcDbLine
 10
-70.92788171604282
 20
5.170494063039992
 30
0.0
 11
-65.37163172498352
 21
5.170494063040032
 31
0.0
  0
LINE
  5
F8
330
EE
100
AcDbEntity
  8
치수문자_일반주서
100
AcDbLine
 10
-65.37163172498352
 20
5.170494063040032
 30
0.0
 11
-65.37163172498352
 21
4.459556577475531
 31
0.0
  0
LINE
  5
F9
330
EE
100
AcDbEntity
  8
치수문자_일반주서
100
AcDbLine
 10
-50.325
 20
8.254370580932717
 30
0.0
 11
-61.13500000000003
 21
8.254370580932717
 31
0.0
  0
LINE
  5
FA
330
EE
100
AcDbEntity
  8
치수문자_일반주서
100
AcDbLine
 10
-50.325
 20
-7.620629419067283
 30
0.0
 11
-61.13500000000003
 21
-7.620629419067284
 31
0.0
  0
LINE
  5
FB
330
EE
100
AcDbEntity
  8
치수문자_일반주서
100
AcDbLine
 10
-60.13500000000003
 20
8.254370580932717
 30
0.0
 11
-60.13500000000003
 21
14.60437058093272
 31
0.0
  0
LINE
  5
FC
330
EE
100
AcDbEntity
  8
치수문자_일반주서
100
AcDbLine
 10
-60.13500000000003
 20
8.254370580932717
 30
0.0
 11
-60.13500000000003
 21
-7.620629419067284
 31
0.0
  0
LINE
  5
FD
330
EE
100
AcDbEntity
  8
치수문자_일반주서
100
AcDbLine
 10
-60.13500000000003
 20
-7.620629419067284
 30
0.0
 11
-60.13500000000003
 21
-13.97062941906728
 31
0.0
  0
MTEXT
  5
FE
330
EE
100
AcDbEntity
  8
치수문자_일반주서
100
AcDbMText
 10
-69.88336863956235
 20
-5.480504384050388
 30
0.0
 40
3.5
 41
0.0
 71
     1
 72
     1
  1
0.63
  7
SLDTEXTSTYLE0
 11
-7.044195017643634E-15
 21
1.0
 31
0.0
 73
     1
 44
1.0
  0
MTEXT
  5
FF
330
EE
100
AcDbEntity
  8
치수문자_일반주서
100
AcDbMText
 10
-64.64673708920185
 20
-9.412778796414118
 30
0.0
 40
3.5
 41
0.0
 71
     1
 72
     1
  1
%%c
  7
SLDTEXTSTYLE0
 11
-7.044195017643634E-15
 21
1.0
 31
0.0
 73
     1
 44
1.0
  0
MTEXT
  5
100
330
EE
100
AcDbEntity
  8
치수문자_일반주서
100
AcDbMText
 10
-64.64673708920188
 20
-4.134341398040039
 30
0.0
 40
3.5
 41
0.0
 71
     1
 72
     1
  1
15.88
  7
SLDTEXTSTYLE0
 11
-7.044195017643634E-15
 21
1.0
 31
0.0
 73
     1
 44
1.0
  0
ENDBLK
  5
F0
330
EE
100
AcDbEntity
  8
0
100
AcDbBlockEnd
  0
BLOCK
  5
103
330
102
100
AcDbEntity
  8
0
100
AcDbBlockBegin
  2
_D_2
 70
     0
 10
0.0
 20
0.0
 30
0.0
  3
_D_2
  1
_D_2
  0
SOLID
  5
105
330
102
100
AcDbEntity
  8
치수문자_일반주서
100
AcDbTrace
 10
32.22499999999999
 20
25.28993193319645
 30
0.0
 11
28.92299999999999
 21
25.79793193319644
 31
0.0
 12
28.92299999999999
 22
24.78193193319645
 32
0.0
 13
28.92299999999999
 23
24.78193193319645
 33
0.0
  0
SOLID
  5
106
330
102
100
AcDbEntity
  8
치수문자_일반주서
100
AcDbTrace
 10
9.99999999999999
 20
25.28993193319644
 30
0.0
 11
13.30199999999999
 21
24.78193193319644
 31
0.0
 12
13.30199999999999
 22
25.79793193319644
 32
0.0
 13
13.30199999999999
 23
25.79793193319644
 33
0.0
  0
LINE
  5
107
330
102
100
AcDbEntity
  8
치수문자_일반주서
100
AcDbLine
 10
54.88235315761812
 20
36.08281364923923
 30
0.0
 11
54.17141567205362
 21
36.08281364923923
 31
0.0
  0
LINE
  5
108
330
102
100
AcDbEntity
  8
치수문자_일반주서
100
AcDbLine
 10
54.17141567205362
 20
36.08281364923923
 30
0.0
 11
54.17141567205366
 21
30.52656365817993
 31
0.0
  0
LINE
  5
109
330
102
100
AcDbEntity
  8
치수문자_일반주서
100
AcDbLine
 10
54.17141567205366
 20
30.52656365817993
 30
0.0
 11
54.88235315761816
 21
30.52656365817993
 31
0.0
  0
LINE
  5
10A
330
102
100
AcDbEntity
  8
치수문자_일반주서
100
AcDbLine
 10
65.71108601975538
 20
36.08281364923931
 30
0.0
 11
66.42202350531988
 21
36.08281364923932
 31
0.0
  0
LINE
  5
10B
330
102
100
AcDbEntity
  8
치수문자_일반주서
100
AcDbLine
 10
66.42202350531988
 20
36.08281364923932
 30
0.0
 11
66.42202350531993
 21
30.52656365818002
 31
0.0
  0
LINE
  5
10C
330
102
100
AcDbEntity
  8
치수문자_일반주서
100
AcDbLine
 10
66.42202350531993
 20
30.52656365818002
 30
0.0
 11
65.71108601975543
 21
30.52656365818001
 31
0.0
  0
LINE
  5
10D
330
102
100
AcDbEntity
  8
치수문자_일반주서
100
AcDbLine
 10
32.225
 20
8.9622167705683
 30
0.0
 11
32.22499999999999
 21
26.28993193319645
 31
0.0
  0
LINE
  5
10E
330
102
100
AcDbEntity
  8
치수문자_일반주서
100
AcDbLine
 10
9.999999999999995
 20
8.8304009006726
 30
0.0
 11
9.99999999999999
 21
26.28993193319644
 31
0.0
  0
LINE
  5
10F
330
102
100
AcDbEntity
  8
치수문자_일반주서
100
AcDbLine
 10
32.22499999999999
 20
25.28993193319645
 30
0.0
 11
68.24828153231464
 21
25.28993193319646
 31
0.0
  0
LINE
  5
110
330
102
100
AcDbEntity
  8
치수문자_일반주서
100
AcDbLine
 10
32.22499999999999
 20
25.28993193319645
 30
0.0
 11
9.99999999999999
 21
25.28993193319644
 31
0.0
  0
MTEXT
  5
111
330
102
100
AcDbEntity
  8
치수문자_일반주서
100
AcDbMText
 10
53.65765694656697
 20
29.85514119905819
 30
0.0
 40
3.5
 41
0.0
 71
     1
 72
     1
  1

  7
SLDTEXTSTYLE0
 73
     1
 44
1.0
  0
MTEXT
  5
112
330
102
100
AcDbEntity
  8
치수문자_일반주서
100
AcDbMText
 10
55.7710250582295
 20
35.03830057275883
 30
0.0
 40
3.5
 41
0.0
 71
     1
 72
     1
  1
0.88
  7
SLDTEXTSTYLE0
 73
     1
 44
1.0
  0
MTEXT
  5
113
330
102
100
AcDbEntity
  8
치수문자_일반주서
100
AcDbMText
 10
54.47796934505281
 20
29.80166902239835
 30
0.0
 40
3.5
 41
0.0
 71
     1
 72
     1
  1
22.23
  7
SLDTEXTSTYLE0
 73
     1
 44
1.0
  0
MTEXT
  5
114
330
102
100
AcDbEntity
  8
치수문자_일반주서
100
AcDbMText
 10
68.26772675046053
 20
29.85514119905829
 30
0.0
 40
3.5
 41
0.0
 71
     1
 72
     1
  1

  7
SLDTEXTSTYLE0
 73
     1
 44
1.0
  0
ENDBLK
  5
104
330
102
100
AcDbEntity
  8
0
100
AcDbBlockEnd
  0
BLOCK
  5
117
330
116
100
AcDbEntity
  8
0
100
AcDbBlockBegin
  2
_D_3
 70
     0
 10
0.0
 20
0.0
 30
0.0
  3
_D_3
  1
_D_3
  0
SOLID
  5
119
330
116
100
AcDbEntity
  8
치수문자_일반주서
100
AcDbTrace
 10
32.225
 20
41.9595969341923
 30
0.0
 11
28.923
 21
42.4675969341923
 31
0.0
 12
28.923
 22
41.4515969341923
 32
0.0
 13
28.923
 23
41.4515969341923
 33
0.0
  0
SOLID
  5
11A
330
116
100
AcDbEntity
  8
치수문자_일반주서
100
AcDbTrace
 10
-50.32500000000001
 20
41.9595969341923
 30
0.0
 11
-47.02300000000001
 21
41.4515969341923
 31
0.0
 12
-47.02300000000001
 22
42.4675969341923
 32
0.0
 13
-47.02300000000001
 23
42.4675969341923
 33
0.0
  0
LINE
  5
11B
330
116
100
AcDbEntity
  8
치수문자_일반주서
100
AcDbLine
 10
-10.85519333841592
 20
52.75247865023503
 30
0.0
 11
-11.56613082398042
 21
52.75247865023503
 31
0.0
  0
LINE
  5
11C
330
116
100
AcDbEntity
  8
치수문자_일반주서
100
AcDbLine
 10
-11.56613082398042
 20
52.75247865023503
 30
0.0
 11
-11.56613082398046
 21
47.19622865917573
 31
0.0
  0
LINE
  5
11D
330
116
100
AcDbEntity
  8
치수문자_일반주서
100
AcDbLine
 10
-11.56613082398046
 20
47.19622865917573
 30
0.0
 11
-10.85519333841596
 21
47.19622865917572
 31
0.0
  0
LINE
  5
11E
330
116
100
AcDbEntity
  8
치수문자_일반주서
100
AcDbLine
 10
-0.0264604762786596
 20
52.75247865023495
 30
0.0
 11
0.6844770092858405
 21
52.75247865023494
 31
0.0
  0
LINE
  5
11F
330
116
100
AcDbEntity
  8
치수문자_일반주서
100
AcDbLine
 10
0.6844770092858405
 20
52.75247865023494
 30
0.0
 11
0.684477009285801
 21
47.19622865917564
 31
0.0
  0
LINE
  5
120
330
116
100
AcDbEntity
  8
치수문자_일반주서
100
AcDbLine
 10
0.684477009285801
 20
47.19622865917564
 30
0.0
 11
-0.0264604762786991
 21
47.19622865917565
 31
0.0
  0
LINE
  5
121
330
116
100
AcDbEntity
  8
치수문자_일반주서
100
AcDbLine
 10
32.225
 20
8.962216770568302
 30
0.0
 11
32.225
 21
42.9595969341923
 31
0.0
  0
LINE
  5
122
330
116
100
AcDbEntity
  8
치수문자_일반주서
100
AcDbLine
 10
-50.32500000000001
 20
8.254370580932722
 30
0.0
 11
-50.32500000000001
 21
42.9595969341923
 31
0.0
  0
LINE
  5
123
330
116
100
AcDbEntity
  8
치수문자_일반주서
100
AcDbLine
 10
32.225
 20
41.9595969341923
 30
0.0
 11
-50.32500000000001
 21
41.9595969341923
 31
0.0
  0
MTEXT
  5
124
330
116
100
AcDbEntity
  8
치수문자_일반주서
100
AcDbMText
 10
-12.07988954946716
 20
46.52480620005401
 30
0.0
 40
3.5
 41
0.0
 71
     1
 72
     1
  1

  7
SLDTEXTSTYLE0
 73
     1
 44
1.0
  0
MTEXT
  5
125
330
116
100
AcDbEntity
  8
치수문자_일반주서
100
AcDbMText
 10
-9.966521437804555
 20
51.70796557375461
 30
0.0
 40
3.5
 41
0.0
 71
     1
 72
     1
  1
3.25
  7
SLDTEXTSTYLE0
 73
     1
 44
1.0
  0
MTEXT
  5
126
330
116
100
AcDbEntity
  8
치수문자_일반주서
100
AcDbMText
 10
-11.25957715098132
 20
46.47133402339415
 30
0.0
 40
3.5
 41
0.0
 71
     1
 72
     1
  1
82.55
  7
SLDTEXTSTYLE0
 73
     1
 44
1.0
  0
MTEXT
  5
127
330
116
100
AcDbEntity
  8
치수문자_일반주서
100
AcDbMText
 10
2.530180254426408
 20
46.52480620005391
 30
0.0
 40
3.5
 41
0.0
 71
     1
 72
     1
  1

  7
SLDTEXTSTYLE0
 73
     1
 44
1.0
  0
ENDBLK
  5
118
330
116
100
AcDbEntity
  8
0
100
AcDbBlockEnd
  0
BLOCK
  5
130
330
12F
100
AcDbEntity
  8
0
100
AcDbBlockBegin
  2
SW_DOWELSYMBOL_0
 70
     0
 10
0.0
 20
0.0
 30
0.0
  3
SW_DOWELSYMBOL_0
  1
SW_DOWELSYMBOL_0
  0
CIRCLE
  5
132
330
12F
100
AcDbEntity
  8
해칭선
 62
     0
100
AcDbCircle
 10
0.0
 20
0.0
 30
0.0
 40
3.000000000000001
  0
HATCH
  5
133
330
12F
100
AcDbEntity
  8
0
  6
Continuous
 62
     0
370
     0
100
AcDbHatch
 10
0.0
 20
0.0
 30
0.0
210
0.0
220
0.0
230
1.0
  2
SOLID
 70
     1
 71
     0
 91
        1
 92
        0
 93
        3
 72
     2
 10
0.0000000000000087
 20
-0.0000000000000035
 40
3.000000000000001
 50
0.0
 51
90.0
 73
     1
 72
     1
 10
0.0000000000000087
 20
2.999999999999998
 11
0.0000000000000087
 21
-0.0000000000000036
 72
     1
 10
0.0000000000000087
 20
-0.0000000000000035
 11
3.00000000000001
 21
-0.0000000000000035
 97
        0
 75
     0
 76
     1
 98
        1
 10
0.0
 20
0.0
  0
HATCH
  5
134
330
12F
100
AcDbEntity
  8
0
  6
Continuous
 62
     0
370
     0
100
AcDbHatch
 10
0.0
 20
0.0
 30
0.0
210
0.0
220
0.0
230
1.0
  2
SOLID
 70
     1
 71
     0
 91
        1
 92
        0
 93
        3
 72
     2
 10
0.0000000000000087
 20
-0.0000000000000035
 40
3.000000000000001
 50
180.0
 51
270.0000000000008
 73
     1
 72
     1
 10
0.0000000000000087
 20
-3.000000000000005
 11
0.0000000000000087
 21
-0.0000000000000036
 72
     1
 10
0.0000000000000087
 20
-0.0000000000000035
 11
-2.999999999999993
 21
-0.0000000000000035
 97
        0
 75
     0
 76
     1
 98
        1
 10
0.0
 20
0.0
  0
ENDBLK
  5
131
330
12F
100
AcDbEntity
  8
0
100
AcDbBlockEnd
  0
BLOCK
  5
3DF
330
3DE
100
AcDbEntity
  8
0
100
AcDbBlockBegin
  2
*D8
 70
     1
 10
0.0
 20
0.0
 30
0.0
  3
*D8
  1
*D8
  0
LINE
  5
3E1
330
3DE
100
AcDbEntity
  8
치수문자_일반주서
 62
     0
370
    -2
100
AcDbLine
 10
71.3975000000001
 20
22.33418043452579
 30
0.0
 11
120.8671970432572
 21
22.33418043452598
 31
0.0
  0
LINE
  5
3E2
330
3DE
100
AcDbEntity
  8
치수문자_일반주서
 62
     0
370
    -2
100
AcDbLine
 10
101.1475557973982
 20
6.459180181206056
 30
0.0
 11
120.8671970432573
 21
6.45918018120613
 31
0.0
  0
LINE
  5
3E3
330
3DE
100
AcDbEntity
  8
치수문자_일반주서
 62
     0
370
    -2
100
AcDbLine
 10
120.8671970432573
 20
19.03218043452598
 30
0.0
 11
120.8671970432573
 21
9.761180181206129
 31
0.0
  0
SOLID
  5
3E4
330
3DE
100
AcDbEntity
  8
치수문자_일반주서
 62
     0
100
AcDbTrace
 10
121.4175303765906
 20
19.03218043452598
 30
0.0
 11
120.3168637099239
 21
19.03218043452598
 31
0.0
 12
120.8671970432572
 22
22.33418043452598
 32
0.0
 13
120.8671970432572
 23
22.33418043452598
 33
0.0
  0
SOLID
  5
3E5
330
3DE
100
AcDbEntity
  8
치수문자_일반주서
 62
     0
100
AcDbTrace
 10
120.316863709924
 20
9.761180181206127
 30
0.0
 11
121.4175303765906
 21
9.76118018120613
 31
0.0
 12
120.8671970432573
 22
6.45918018120613
 32
0.0
 13
120.8671970432573
 23
6.45918018120613
 33
0.0
  0
MTEXT
  5
3E6
330
3DE
100
AcDbEntity
  8
치수문자_일반주서
 62
     0
100
AcDbMText
 10
116.4921970432573
 20
14.05783273524936
 30
0.0
 40
3.5
 41
0.0
 71
     2
 72
     1
  1
\A1;%%c15.88 [3/4]
  7
SLDTEXTSTYLE0
 11
-3.580687745118030E-15
 21
1.0
 31
0.0
 73
     1
 44
1.0
  0
POINT
  5
3E7
330
3DE
100
AcDbEntity
  8
Defpoints
 62
     0
100
AcDbPoint
 10
71.3350000000001
 20
22.33418043452579
 30
0.0
  0
POINT
  5
3E8
330
3DE
100
AcDbEntity
  8
Defpoints
 62
     0
100
AcDbPoint
 10
101.0850557973982
 20
6.459180181206056
 30
0.0
  0
POINT
  5
3E9
330
3DE
100
AcDbEntity
  8
Defpoints
 62
     0
100
AcDbPoint
 10
120.8671970432573
 20
6.45918018120613
 30
0.0
  0
ENDBLK
  5
3E0
330
3DE
100
AcDbEntity
  8
0
100
AcDbBlockEnd
  0
BLOCK
  5
3EB
330
3EA
100
AcDbEntity
  8
0
100
AcDbBlockBegin
  2
*D9
 70
     1
 10
0.0
 20
0.0
 30
0.0
  3
*D9
  1
*D9
  0
LINE
  5
3ED
330
3EA
100
AcDbEntity
  8
치수문자_일반주서
 62
     0
370
    -2
100
AcDbLine
 10
15.12250000000007
 20
22.33418043452578
 30
0.0
 11
4.375000000000011
 21
22.33418043452574
 31
0.0
  0
LINE
  5
3EE
330
3EA
100
AcDbEntity
  8
치수문자_일반주서
 62
     0
370
    -2
100
AcDbLine
 10
15.12250000000007
 20
6.459180434525783
 30
0.0
 11
4.375000000000066
 21
6.459180434525741
 31
0.0
  0
LINE
  5
3EF
330
3EA
100
AcDbEntity
  8
치수문자_일반주서
 62
     0
370
    -2
100
AcDbLine
 10
4.375000000000022
 20
19.03218043452574
 30
0.0
 11
4.375000000000054
 21
9.761180434525741
 31
0.0
  0
SOLID
  5
3F0
330
3EA
100
AcDbEntity
  8
치수문자_일반주서
 62
     0
100
AcDbTrace
 10
4.925333333333356
 20
19.03218043452575
 30
0.0
 11
3.824666666666689
 21
19.03218043452574
 31
0.0
 12
4.375000000000011
 22
22.33418043452574
 32
0.0
 13
4.375000000000011
 23
22.33418043452574
 33
0.0
  0
SOLID
  5
3F1
330
3EA
100
AcDbEntity
  8
치수문자_일반주서
 62
     0
100
AcDbTrace
 10
3.824666666666721
 20
9.76118043452574
 30
0.0
 11
4.925333333333388
 21
9.761180434525743
 31
0.0
 12
4.375000000000066
 22
6.459180434525741
 32
0.0
 13
4.375000000000066
 23
6.459180434525741
 33
0.0
  0
MTEXT
  5
3F2
330
3EA
100
AcDbEntity
  8
치수문자_일반주서
 62
     0
100
AcDbMText
 10
0.0000000000000426
 20
13.125
 30
0.0
 40
3.5
 41
0.0
 71
     2
 72
     1
  1
\A1;%%c15.88 [3/4]
  7
SLDTEXTSTYLE0
 11
-3.468791308435135E-15
 21
1.0
 31
0.0
 73
     1
 44
1.0
  0
POINT
  5
3F3
330
3EA
100
AcDbEntity
  8
Defpoints
 62
     0
100
AcDbPoint
 10
15.18500000000007
 20
22.33418043452578
 30
0.0
  0
POINT
  5
3F4
330
3EA
100
AcDbEntity
  8
Defpoints
 62
     0
100
AcDbPoint
 10
15.18500000000007
 20
6.459180434525783
 30
0.0
  0
POINT
  5
3F5
330
3EA
100
AcDbEntity
  8
Defpoints
 62
     0
100
AcDbPoint
 10
4.375000000000064
 20
6.459180434525743
 30
0.0
  0
ENDBLK
  5
3EC
330
3EA
100
AcDbEntity
  8
0
100
AcDbBlockEnd
  0
BLOCK
  5
3F7
330
3F6
100
AcDbEntity
  8
0
100
AcDbBlockBegin
  2
*D10
 70
     1
 10
0.0
 20
0.0
 30
0.0
  3
*D10
  1
*D10
  0
LINE
  5
3F9
330
3F6
100
AcDbEntity
  8
치수문자_일반주서
 62
     0
370
    -2
100
AcDbLine
 10
103.0850000000001
 20
21.75010413179317
 30
0.0
 11
103.0850000000001
 21
39.01531929442132
 31
0.0
  0
LINE
  5
3FA
330
3F6
100
AcDbEntity
  8
치수문자_일반주서
 62
     0
370
    -2
100
AcDbLine
 10
71.33500000000008
 20
22.3966804345258
 30
0.0
 11
71.33500000000008
 21
39.01531929442132
 31
0.0
  0
LINE
  5
3FB
330
3F6
100
AcDbEntity
  8
치수문자_일반주서
 62
     0
370
    -2
100
AcDbLine
 10
99.78300000000007
 20
39.01531929442132
 30
0.0
 11
74.63700000000009
 21
39.01531929442132
 31
0.0
  0
SOLID
  5
3FC
330
3F6
100
AcDbEntity
  8
치수문자_일반주서
 62
     0
100
AcDbTrace
 10
99.78300000000007
 20
38.46498596108799
 30
0.0
 11
99.78300000000007
 21
39.56565262775466
 31
0.0
 12
103.0850000000001
 22
39.01531929442132
 32
0.0
 13
103.0850000000001
 23
39.01531929442132
 33
0.0
  0
SOLID
  5
3FD
330
3F6
100
AcDbEntity
  8
치수문자_일반주서
 62
     0
100
AcDbTrace
 10
74.63700000000009
 20
39.56565262775466
 30
0.0
 11
74.63700000000009
 21
38.46498596108799
 31
0.0
 12
71.33500000000008
 22
39.01531929442132
 32
0.0
 13
71.33500000000008
 23
39.01531929442132
 33
0.0
  0
MTEXT
  5
3FE
330
3F6
100
AcDbEntity
  8
치수문자_일반주서
 62
     0
100
AcDbMText
 10
87.21000000000008
 20
43.39031929442132
 30
0.0
 40
3.5
 41
0.0
 71
     2
 72
     1
  1
\A1;31.75 [1 1/4]
  7
SLDTEXTSTYLE0
 73
     1
 44
1.0
  0
POINT
  5
3FF
330
3F6
100
AcDbEntity
  8
Defpoints
 62
     0
100
AcDbPoint
 10
103.0850000000001
 20
21.68760413179317
 30
0.0
  0
POINT
  5
400
330
3F6
100
AcDbEntity
  8
Defpoints
 62
     0
100
AcDbPoint
 10
71.33500000000008
 20
22.3341804345258
 30
0.0
  0
POINT
  5
401
330
3F6
100
AcDbEntity
  8
Defpoints
 62
     0
100
AcDbPoint
 10
71.33500000000008
 20
39.01531929442132
 30
0.0
  0
ENDBLK
  5
3F8
330
3F6
100
AcDbEntity
  8
0
100
AcDbBlockEnd
  0
BLOCK
  5
403
330
402
100
AcDbEntity
  8
0
100
AcDbBlockBegin
  2
*D11
 70
     1
 10
0.0
 20
0.0
 30
0.0
  3
*D11
  1
*D11
  0
LINE
  5
405
330
402
100
AcDbEntity
  8
치수문자_일반주서
 62
     0
370
    -2
100
AcDbLine
 10
103.0850000000001
 20
21.75010413179317
 30
0.0
 11
103.0850000000001
 21
55.68498429541715
 31
0.0
  0
LINE
  5
406
330
402
100
AcDbEntity
  8
치수문자_일반주서
 62
     0
370
    -2
100
AcDbLine
 10
14.18500000000006
 20
21.39668043452579
 30
0.0
 11
14.18500000000006
 21
55.68498429541715
 31
0.0
  0
LINE
  5
407
330
402
100
AcDbEntity
  8
치수문자_일반주서
 62
     0
370
    -2
100
AcDbLine
 10
99.78300000000007
 20
55.68498429541715
 30
0.0
 11
17.48700000000006
 21
55.68498429541715
 31
0.0
  0
SOLID
  5
408
330
402
100
AcDbEntity
  8
치수문자_일반주서
 62
     0
100
AcDbTrace
 10
99.78300000000007
 20
55.13465096208382
 30
0.0
 11
99.78300000000007
 21
56.23531762875049
 31
0.0
 12
103.0850000000001
 22
55.68498429541715
 32
0.0
 13
103.0850000000001
 23
55.68498429541715
 33
0.0
  0
SOLID
  5
409
330
402
100
AcDbEntity
  8
치수문자_일반주서
 62
     0
100
AcDbTrace
 10
17.48700000000006
 20
56.23531762875049
 30
0.0
 11
17.48700000000006
 21
55.13465096208382
 31
0.0
 12
14.18500000000006
 22
55.68498429541715
 32
0.0
 13
14.18500000000006
 23
55.68498429541715
 33
0.0
  0
MTEXT
  5
40A
330
402
100
AcDbEntity
  8
치수문자_일반주서
 62
     0
100
AcDbMText
 10
62.52180141597658
 20
60.05998429541715
 30
0.0
 40
3.5
 41
0.0
 71
     2
 72
     1
  1
\A1;88.90 [3 1/2]
  7
SLDTEXTSTYLE0
 73
     1
 44
1.0
  0
POINT
  5
40B
330
402
100
AcDbEntity
  8
Defpoints
 62
     0
100
AcDbPoint
 10
103.0850000000001
 20
21.68760413179317
 30
0.0
  0
POINT
  5
40C
330
402
100
AcDbEntity
  8
Defpoints
 62
     0
100
AcDbPoint
 10
14.18500000000006
 20
21.33418043452579
 30
0.0
  0
POINT
  5
40D
330
402
100
AcDbEntity
  8
Defpoints
 62
     0
100
AcDbPoint
 10
14.18500000000006
 20
55.68498429541715
 30
0.0
  0
ENDBLK
  5
404
330
402
100
AcDbEntity
  8
0
100
AcDbBlockEnd
  0
BLOCK
  5
630
330
62F
100
AcDbEntity
  8
0
100
AcDbBlockBegin
  2
*D12
 70
     1
 10
0.0
 20
0.0
 30
0.0
  3
*D12
  1
*D12
  0
LINE
  5
632
330
62F
100
AcDbEntity
  8
치수문자_일반주서
 62
     0
370
    -2
100
AcDbLine
 10
30.28633914815522
 20
7.937355896153272
 30
0.0
 11
53.00719772871059
 21
7.937355896153356
 31
0.0
  0
LINE
  5
633
330
62F
100
AcDbEntity
  8
치수문자_일반주서
 62
     0
370
    -2
100
AcDbLine
 10
33.2875564828515
 20
-7.937500253319755
 30
0.0
 11
53.00719772871065
 21
-7.937500253319681
 31
0.0
  0
LINE
  5
634
330
62F
100
AcDbEntity
  8
치수문자_일반주서
 62
     0
370
    -2
100
AcDbLine
 10
53.00719772871061
 20
4.635355896153357
 30
0.0
 11
53.00719772871064
 21
-4.635500253319681
 31
0.0
  0
SOLID
  5
635
330
62F
100
AcDbEntity
  8
치수문자_일반주서
 62
     0
100
AcDbTrace
 10
53.55753106204394
 20
4.635355896153358
 30
0.0
 11
52.45686439537727
 21
4.635355896153355
 31
0.0
 12
53.00719772871059
 22
7.937355896153356
 32
0.0
 13
53.00719772871059
 23
7.937355896153356
 33
0.0
  0
SOLID
  5
636
330
62F
100
AcDbEntity
  8
치수문자_일반주서
 62
     0
100
AcDbTrace
 10
52.4568643953773
 20
-4.635500253319683
 30
0.0
 11
53.55753106204397
 21
-4.635500253319679
 31
0.0
 12
53.00719772871065
 22
-7.937500253319681
 32
0.0
 13
53.00719772871065
 23
-7.937500253319681
 33
0.0
  0
MTEXT
  5
637
330
62F
100
AcDbEntity
  8
치수문자_일반주서
 62
     0
100
AcDbMText
 10
48.63219772871062
 20
-0.3388476992764437
 30
0.0
 40
3.5
 41
0.0
 71
     2
 72
     1
  1
\A1;%%c15.87 [5/8]
  7
SLDTEXTSTYLE0
 11
-3.580720248774973E-15
 21
1.0
 31
0.0
 73
     1
 44
1.0
  0
POINT
  5
638
330
62F
100
AcDbEntity
  8
Defpoints
 62
     0
100
AcDbPoint
 10
30.22383914815522
 20
7.937355896153272
 30
0.0
  0
POINT
  5
639
330
62F
100
AcDbEntity
  8
Defpoints
 62
     0
100
AcDbPoint
 10
33.2250564828515
 20
-7.937500253319755
 30
0.0
  0
POINT
  5
63A
330
62F
100
AcDbEntity
  8
Defpoints
 62
     0
100
AcDbPoint
 10
53.00719772871065
 20
-7.937500253319681
 30
0.0
  0
ENDBLK
  5
631
330
62F
100
AcDbEntity
  8
0
100
AcDbBlockEnd
  0
BLOCK
  5
63C
330
63B
100
AcDbEntity
  8
0
100
AcDbBlockBegin
  2
*D13
 70
     1
 10
0.0
 20
0.0
 30
0.0
  3
*D13
  1
*D13
  0
LINE
  5
63E
330
63B
100
AcDbEntity
  8
치수문자_일반주서
 62
     0
370
    -2
100
AcDbLine
 10
-46.38749945759774
 20
7.937499999999989
 30
0.0
 11
-57.13499945759779
 21
7.937499999999948
 31
0.0
  0
LINE
  5
63F
330
63B
100
AcDbEntity
  8
치수문자_일반주서
 62
     0
370
    -2
100
AcDbLine
 10
-46.38749945759774
 20
-7.937500000000018
 30
0.0
 11
-57.13499945759774
 21
-7.93750000000006
 31
0.0
  0
LINE
  5
640
330
63B
100
AcDbEntity
  8
치수문자_일반주서
 62
     0
370
    -2
100
AcDbLine
 10
-57.13499945759778
 20
4.635499999999949
 30
0.0
 11
-57.13499945759775
 21
-4.63550000000006
 31
0.0
  0
SOLID
  5
641
330
63B
100
AcDbEntity
  8
치수문자_일반주서
 62
     0
100
AcDbTrace
 10
-56.58466612426444
 20
4.635499999999951
 30
0.0
 11
-57.68533279093111
 21
4.635499999999947
 31
0.0
 12
-57.13499945759779
 22
7.937499999999948
 32
0.0
 13
-57.13499945759779
 23
7.937499999999948
 33
0.0
  0
SOLID
  5
642
330
63B
100
AcDbEntity
  8
치수문자_일반주서
 62
     0
100
AcDbTrace
 10
-57.68533279093108
 20
-4.635500000000062
 30
0.0
 11
-56.58466612426442
 21
-4.635500000000058
 31
0.0
 12
-57.13499945759774
 22
-7.93750000000006
 32
0.0
 13
-57.13499945759774
 23
-7.93750000000006
 33
0.0
  0
MTEXT
  5
643
330
63B
100
AcDbEntity
  8
치수문자_일반주서
 62
     0
100
AcDbMText
 10
-61.50999945759776
 20
-1.271680434525796
 30
0.0
 40
3.5
 41
0.0
 71
     2
 72
     1
  1
\A1;%%c15.88 [5/8]
  7
SLDTEXTSTYLE0
 11
-3.580687802255622E-15
 21
1.0
 31
0.0
 73
     1
 44
1.0
  0
POINT
  5
644
330
63B
100
AcDbEntity
  8
Defpoints
 62
     0
100
AcDbPoint
 10
-46.32499945759774
 20
7.937499999999989
 30
0.0
  0
POINT
  5
645
330
63B
100
AcDbEntity
  8
Defpoints
 62
     0
100
AcDbPoint
 10
-46.32499945759774
 20
-7.937500000000018
 30
0.0
  0
POINT
  5
646
330
63B
100
AcDbEntity
  8
Defpoints
 62
     0
100
AcDbPoint
 10
-57.13499945759774
 20
-7.937500000000058
 30
0.0
  0
ENDBLK
  5
63D
330
63B
100
AcDbEntity
  8
0
100
AcDbBlockEnd
  0
BLOCK
  5
648
330
647
100
AcDbEntity
  8
0
100
AcDbBlockBegin
  2
*D14
 70
     1
 10
0.0
 20
0.0
 30
0.0
  3
*D14
  1
*D14
  0
LINE
  5
64A
330
647
100
AcDbEntity
  8
치수문자_일반주서
 62
     0
370
    -2
100
AcDbLine
 10
35.22500068545341
 20
7.353423697267367
 30
0.0
 11
35.22500068545341
 21
24.61863885989552
 31
0.0
  0
LINE
  5
64B
330
647
100
AcDbEntity
  8
치수문자_일반주서
 62
     0
370
    -2
100
AcDbLine
 10
13.0
 20
8.0
 30
0.0
 11
13.0
 21
24.61863885989552
 31
0.0
  0
LINE
  5
64C
330
647
100
AcDbEntity
  8
치수문자_일반주서
 62
     0
370
    -2
100
AcDbLine
 10
31.92300068545341
 20
24.61863885989552
 30
0.0
 11
16.302
 21
24.61863885989552
 31
0.0
  0
SOLID
  5
64D
330
647
100
AcDbEntity
  8
치수문자_일반주서
 62
     0
100
AcDbTrace
 10
31.92300068545341
 20
24.06830552656218
 30
0.0
 11
31.92300068545341
 21
25.16897219322885
 31
0.0
 12
35.22500068545341
 22
24.61863885989552
 32
0.0
 13
35.22500068545341
 23
24.61863885989552
 33
0.0
  0
SOLID
  5
64E
330
647
100
AcDbEntity
  8
치수문자_일반주서
 62
     0
100
AcDbTrace
 10
16.302
 20
25.16897219322885
 30
0.0
 11
16.302
 21
24.06830552656218
 31
0.0
 12
13.0
 22
24.61863885989552
 32
0.0
 13
13.0
 23
24.61863885989552
 33
0.0
  0
MTEXT
  5
64F
330
647
100
AcDbEntity
  8
치수문자_일반주서
 62
     0
100
AcDbMText
 10
24.1125003427267
 20
28.99363885989552
 30
0.0
 40
3.5
 41
0.0
 71
     2
 72
     1
  1
\A1;22.23 [7/8]
  7
SLDTEXTSTYLE0
 73
     1
 44
1.0
  0
POINT
  5
650
330
647
100
AcDbEntity
  8
Defpoints
 62
     0
100
AcDbPoint
 10
35.22500068545341
 20
7.290923697267367
 30
0.0
  0
POINT
  5
651
330
647
100
AcDbEntity
  8
Defpoints
 62
     0
100
AcDbPoint
 10
13.0
 20
7.9375
 30
0.0
  0
POINT
  5
652
330
647
100
AcDbEntity
  8
Defpoints
 62
     0
100
AcDbPoint
 10
13.0
 20
24.61863885989552
 30
0.0
  0
ENDBLK
  5
649
330
647
100
AcDbEntity
  8
0
100
AcDbBlockEnd
  0
BLOCK
  5
654
330
653
100
AcDbEntity
  8
0
100
AcDbBlockBegin
  2
*D15
 70
     1
 10
0.0
 20
0.0
 30
0.0
  3
*D15
  1
*D15
  0
LINE
  5
656
330
653
100
AcDbEntity
  8
치수문자_일반주서
 62
     0
370
    -2
100
AcDbLine
 10
35.22500068545341
 20
7.353423697267367
 30
0.0
 11
35.22500068545341
 21
41.28830386089135
 31
0.0
  0
LINE
  5
657
330
653
100
AcDbEntity
  8
치수문자_일반주서
 62
     0
370
    -2
100
AcDbLine
 10
-47.325
 20
7.000000089406971
 30
0.0
 11
-47.325
 21
41.28830386089135
 31
0.0
  0
LINE
  5
658
330
653
100
AcDbEntity
  8
치수문자_일반주서
 62
     0
370
    -2
100
AcDbLine
 10
31.92300068545341
 20
41.28830386089135
 30
0.0
 11
-44.023
 21
41.28830386089135
 31
0.0
  0
SOLID
  5
659
330
653
100
AcDbEntity
  8
치수문자_일반주서
 62
     0
100
AcDbTrace
 10
31.92300068545341
 20
40.73797052755801
 30
0.0
 11
31.92300068545341
 21
41.83863719422468
 31
0.0
 12
35.22500068545341
 22
41.28830386089135
 32
0.0
 13
35.22500068545341
 23
41.28830386089135
 33
0.0
  0
SOLID
  5
65A
330
653
100
AcDbEntity
  8
치수문자_일반주서
 62
     0
100
AcDbTrace
 10
-44.023
 20
41.83863719422468
 30
0.0
 11
-44.023
 21
40.73797052755801
 31
0.0
 12
-47.325
 22
41.28830386089135
 32
0.0
 13
-47.325
 23
41.28830386089135
 33
0.0
  0
MTEXT
  5
65B
330
653
100
AcDbEntity
  8
치수문자_일반주서
 62
     0
100
AcDbMText
 10
-6.049999657273297
 20
45.66330386089135
 30
0.0
 40
3.5
 41
0.0
 71
     2
 72
     1
  1
\A1;82.55 [3 1/4]
  7
SLDTEXTSTYLE0
 73
     1
 44
1.0
  0
POINT
  5
65C
330
653
100
AcDbEntity
  8
Defpoints
 62
     0
100
AcDbPoint
 10
35.22500068545341
 20
7.290923697267367
 30
0.0
  0
POINT
  5
65D
330
653
100
AcDbEntity
  8
Defpoints
 62
     0
100
AcDbPoint
 10
-47.325
 20
6.937500089406971
 30
0.0
  0
POINT
  5
65E
330
653
100
AcDbEntity
  8
Defpoints
 62
     0
100
AcDbPoint
 10
-47.325
 20
41.28830386089135
 30
0.0
  0
ENDBLK
  5
655
330
653
100
AcDbEntity
  8
0
100
AcDbBlockEnd
  0
ENDSEC
  0
SECTION
  2
ENTITIES
  0
LINE
  5
CC
330
1F
100
AcDbEntity
  8
참조1
100
AcDbLine
 10
-15.57499931454655
 20
-0.0000000000000035
 30
0.0
 11
-15.57499931454655
 21
-40.0
 31
0.0
  0
LINE
  5
CD
330
1F
100
AcDbEntity
  8
참조1
100
AcDbLine
 10
-26.25360696974303
 20
-7.620629419067264
 30
0.0
 11
41.88897337384944
 21
-7.620629419067264
 31
0.0
  0
LINE
  5
CE
330
1F
100
AcDbEntity
  8
참조1
100
AcDbLine
 10
41.88897337384944
 20
-7.620629419067264
 30
0.0
 11
41.88897337384944
 21
-6.610378025244112
 31
0.0
  0
LINE
  5
CF
330
1F
100
AcDbEntity
  8
참조1
100
AcDbLine
 10
-15.57499931454655
 20
-40.0
 30
0.0
 11
-30.72104912181226
 21
-40.0
 31
0.0
  0
INSERT
  5
D1
330
1F
100
AcDbEntity
  8
0
  6
Continuous
 62
     7
100
AcDbBlockReference
 66
     1
  2
블럭10
 10
-29.51527224667176
 20
-52.04717430164393
 30
0.0
  0
ATTRIB
  5
D2
330
D1
100
AcDbEntity
  8
FORMAT
 62
     2
100
AcDbText
 10
-39.65690825880839
 20
-49.97180738881173
 30
0.0
 40
4.233333333333333
  1
EM666040 [ 4 FLUTE ]
 41
0.75
  7
SLDTEXTSTYLE0
 11
-39.65690825880839
 21
-52.0884740554784
 31
0.0
100
AcDbAttribute
  2
AUTOATTR0
 70
     0
 74
     1
  0
SEQEND
  5
D3
330
D1
100
AcDbEntity
  8
0
  6
Continuous
 62
     7
  0
HATCH
  5
D4
330
1F
100
AcDbEntity
  8
중심선
100
AcDbHatch
 10
0.0
 20
0.0
 30
0.0
210
0.0
220
0.0
230
1.0
  2
SOLID
 70
     1
 71
     0
 91
        1
 92
        0
 93
        4
 72
     1
 10
-23.80036294229091
 20
-35.8
 11
-27.24663818612819
 21
-35.8
 72
     1
 10
-27.24663818612819
 20
-35.8
 11
-29.37486804533221
 21
-38.33632558057259
 72
     1
 10
-29.37486804533221
 20
-38.33632558057259
 11
-25.92855971638178
 21
-38.3362861512701
 72
     1
 10
-25.92855971638178
 20
-38.3362861512701
 11
-23.80036294229091
 21
-35.8
 97
        0
 75
     0
 76
     1
 98
        1
 10
-6.524999314546562
 20
0.0
  0
HATCH
  5
D5
330
1F
100
AcDbEntity
  8
중심선
100
AcDbHatch
 10
0.0
 20
0.0
 30
0.0
210
0.0
220
0.0
230
1.0
  2
SOLID
 70
     1
 71
     0
 91
        1
 92
        0
 93
        4
 72
     1
 10
-18.78759895125496
 20
-35.8
 11
-22.23387419509224
 21
-35.8
 72
     1
 10
-22.23387419509224
 20
-35.8
 11
-26.76501220344963
 21
-41.20000000000002
 72
     1
 10
-26.76501220344963
 20
-41.20000000000002
 11
-23.31873695961234
 21
-41.20000000000002
 72
     1
 10
-23.31873695961234
 20
-41.20000000000002
 11
-18.78759895125496
 21
-35.8
 97
        0
 75
     0
 76
     1
 98
        1
 10
-6.524999314546562
 20
0.0
  0
HATCH
  5
D6
330
1F
100
AcDbEntity
  8
중심선
100
AcDbHatch
 10
0.0
 20
0.0
 30
0.0
210
0.0
220
0.0
230
1.0
  2
SOLID
 70
     1
 71
     0
 91
        1
 92
        0
 93
        4
 72
     1
 10
-13.77483496021909
 20
-35.8
 11
-17.22111020405621
 21
-35.8
 72
     1
 10
-17.2211102040562
 20
-35.8
 11
-24.26954710594542
 21
-44.20000000000002
 72
     1
 10
-24.26954710594542
 20
-44.20000000000002
 11
-20.82327186210814
 21
-44.20000000000002
 72
     1
 10
-20.82327186210814
 20
-44.20000000000002
 11
-13.77483496021909
 21
-35.8
 97
        0
 75
     0
 76
     1
 98
        1
 10
-6.524999314546562
 20
0.0
  0
HATCH
  5
D7
330
1F
100
AcDbEntity
  8
중심선
100
AcDbHatch
 10
0.0
 20
0.0
 30
0.0
210
0.0
220
0.0
230
1.0
  2
SOLID
 70
     1
 71
     0
 91
        1
 92
        0
 93
        6
 72
     3
 10
-8.97494452920686
 20
-40.00000000005127
 11
3.960054785062283
 21
1.540882976769353E-10
 40
0.3939339440162628
 50
17.09539180608437
 51
320.0019657685086
 73
     0
 72
     1
 10
-7.291944873506266
 20
-38.58789400463833
 11
-4.986642999805228
 21
-36.65356729459038
 72
     3
 10
-8.974944529259707
 20
-40.00000000000015
 11
6.600054785286829
 21
-1.278976924368180E-13
 40
0.636358354079598
 50
39.99873849337411
 51
368.4976242363725
 73
     1
 72
     1
 10
-2.549612037359098
 20
-39.03999999993002
 11
-10.29487722242379
 21
-39.03999999992999
 72
     1
 10
-10.29487722242379
 20
-39.03999999992999
 11
-10.29490226686972
 21
-40.95999999992991
 72
     1
 10
-10.29490226686972
 20
-40.95999999992991
 11
-5.853522497397683
 21
-40.95999999992988
 97
        0
 75
     0
 76
     1
 98
        1
 10
-6.524999314546562
 20
0.0
  0
LINE
  5
128
330
1F
100
AcDbEntity
  8
참조1
100
AcDbLine
 10
67.25129150784201
 20
7.440000000000002
 30
0.0
 11
67.25129150784201
 21
-7.440000000000002
 31
0.0
  0
LINE
  5
129
330
1F
100
AcDbEntity
  8
참조1
100
AcDbLine
 10
79.95129150784201
 20
5.440000000000002
 30
0.0
 11
67.25129150784201
 21
5.440000000000002
 31
0.0
  0
SOLID
  5
12A
330
1F
100
AcDbEntity
  8
참조1
100
AcDbTrace
 10
67.25129150784201
 20
5.440000000000002
 30
0.0
 11
73.601291507842
 21
4.424000000000002
 31
0.0
 12
73.601291507842
 22
6.456000000000002
 32
0.0
 13
73.601291507842
 23
6.456000000000002
 33
0.0
  0
LINE
  5
12B
330
1F
100
AcDbEntity
  8
참조1
100
AcDbLine
 10
79.95129150784201
 20
-5.440000000000002
 30
0.0
 11
67.25129150784201
 21
-5.440000000000002
 31
0.0
  0
SOLID
  5
12C
330
1F
100
AcDbEntity
  8
참조1
100
AcDbTrace
 10
67.25129150784201
 20
-5.440000000000002
 30
0.0
 11
73.601291507842
 21
-6.456000000000002
 31
0.0
 12
73.601291507842
 22
-4.424000000000002
 32
0.0
 13
73.601291507842
 23
-4.424000000000002
 33
0.0
  0
MTEXT
  5
12D
330
1F
100
AcDbEntity
  8
참조1
100
AcDbMText
 10
76.85140631840457
 20
11.06571756601608
 30
0.0
 40
3.5
 41
0.0
 71
     1
 72
     1
  1
A
  7
SLDTEXTSTYLE0
 73
     1
 44
1.0
  0
MTEXT
  5
12E
330
1F
100
AcDbEntity
  8
참조1
100
AcDbMText
 10
76.85140631840457
 20
0.1857175660160736
 30
0.0
 40
3.5
 41
0.0
 71
     1
 72
     1
  1
A
  7
SLDTEXTSTYLE0
 73
     1
 44
1.0
  0
LINE
  5
40F
330
1F
100
AcDbEntity
  8
외형선
  6
Continuous
370
    15
100
AcDbLine
 10
-46.32499797344208
 20
7.937500253319744
 30
0.0
 11
-47.325
 21
6.937500089406971
 31
0.0
  0
LINE
  5
410
330
1F
100
AcDbEntity
  8
외형선
  6
Continuous
370
    15
100
AcDbLine
 10
-47.325
 20
-6.937500089406971
 30
0.0
 11
-46.32499797344208
 21
-7.937500253319744
 31
0.0
  0
LINE
  5
411
330
1F
100
AcDbEntity
  8
외형선
  6
Continuous
370
    15
100
AcDbLine
 10
13.0
 20
7.9375
 30
0.0
 11
-52.67499783039094
 21
7.937500253319733
 31
0.0
  0
LINE
  5
412
330
1F
100
AcDbEntity
  8
외형선
  6
Continuous
370
    15
100
AcDbLine
 10
-52.67499783039094
 20
-7.937500253319755
 30
0.0
 11
13.0
 21
-7.9375
 31
0.0
  0
SPLINE
  5
414
330
1F
100
AcDbEntity
  8
외형선
  6
Continuous
 62
     1
370
    15
100
AcDbSpline
210
0.0
220
0.0
230
1.0
 70
     8
 71
     3
 72
     9
 73
     5
 74
     0
 42
0.000000001
 43
0.00000001
 40
0.0
 40
0.0
 40
0.0
 40
0.0
 40
0.250010239524384
 40
1.0
 40
1.0
 40
1.0
 40
1.0
 10
30.24347475767135
 20
-7.790595293045058
 30
0.0
 10
30.26983935454277
 20
-7.787952574287274
 30
0.0
 10
30.37529342283028
 20
-7.777382132201382
 30
0.0
 10
30.46027033880429
 20
-7.836093329392199
 30
0.0
 10
30.52400215566158
 20
-7.880126126110568
 30
0.0
  0
SPLINE
  5
416
330
1F
100
AcDbEntity
  8
외형선
  6
Continuous
 62
     1
370
    15
100
AcDbSpline
210
0.0
220
0.0
230
1.0
 70
     8
 71
     3
 72
     9
 73
     5
 74
     0
 42
0.000000001
 43
0.00000001
 40
0.0
 40
0.0
 40
0.0
 40
0.0
 40
0.4991251904784689
 40
1.0
 40
1.0
 40
1.0
 40
1.0
 10
30.52400215566158
 20
-7.880126126110568
 30
0.0
 10
30.5492308866354
 20
-7.896670579630182
 30
0.0
 10
30.59977678464875
 20
-7.929817481119471
 30
0.0
 10
30.65897537604926
 20
-7.934936343899722
 30
0.0
 10
30.68862645924091
 20
-7.937500253319755
 30
0.0
  0
LINE
  5
417
330
1F
100
AcDbEntity
  8
외형선
  6
Continuous
 62
     1
370
    15
100
AcDbLine
 10
30.68863204717636
 20
-7.937500253319755
 30
0.0
 11
31.76242648661136
 21
-7.937500253319755
 31
0.0
  0
SPLINE
  5
41B
330
1F
100
AcDbEntity
  8
외형선
  6
Continuous
 62
     1
370
    15
100
AcDbSpline
210
0.0
220
0.0
230
1.0
 70
     8
 71
     3
 72
     9
 73
     5
 74
     0
 42
0.000000001
 43
0.00000001
 40
0.0
 40
0.0
 40
0.0
 40
0.0
 40
0.5008453270323253
 40
1.0
 40
1.0
 40
1.0
 40
1.0
 10
31.75728744864463
 20
-7.936427369713783
 30
0.0
 10
31.78606472086852
 20
-7.934331366664395
 30
0.0
 10
31.84352212472291
 20
-7.930146435835908
 30
0.0
 10
31.8922914446014
 20
-7.899473799320447
 30
0.0
 10
31.91663487851619
 20
-7.884163409471526
 30
0.0
  0
SPLINE
  5
41C
330
1F
100
AcDbEntity
  8
외형선
  6
Continuous
 62
     1
370
    15
100
AcDbSpline
210
0.0
220
0.0
230
1.0
 70
     8
 71
     3
 72
    11
 73
     7
 74
     0
 42
0.000000001
 43
0.00000001
 40
0.0
 40
0.0
 40
0.0
 40
0.0
 40
0.2444581732507249
 40
0.4999549831182185
 40
0.7554730258047075
 40
1.0
 40
1.0
 40
1.0
 40
1.0
 10
31.92056133449077
 20
-7.883652113378062
 30
0.0
 10
31.96488860765493
 20
-7.854607671746905
 30
0.0
 10
32.0555447751774
 20
-7.795207271538203
 30
0.0
 10
32.2230120092658
 20
-7.76837092229168
 30
0.0
 10
32.39047860082442
 20
-7.794023506218622
 30
0.0
 10
32.48110598954062
 20
-7.852546316130372
 30
0.0
 10
32.52542368173599
 20
-7.881164550781264
 30
0.0
  0
SPLINE
  5
41E
330
1F
100
AcDbEntity
  8
외형선
  6
Continuous
 62
     1
370
    15
100
AcDbSpline
210
0.0
220
0.0
230
1.0
 70
     8
 71
     3
 72
     9
 73
     5
 74
     0
 42
0.000000001
 43
0.00000001
 40
0.0
 40
0.0
 40
0.0
 40
0.0
 40
0.4991289136166368
 40
1.0
 40
1.0
 40
1.0
 40
1.0
 10
32.5261128604412
 20
-7.881612516939654
 30
0.0
 10
32.55089965259148
 20
-7.897682039780918
 30
0.0
 10
32.60055975336721
 20
-7.929877174951173
 30
0.0
 10
32.65888581875433
 20
-7.934948831382385
 30
0.0
 10
32.68809965848922
 20
-7.937489077448859
 30
0.0
  0
LINE
  5
41F
330
1F
100
AcDbEntity
  8
외형선
  6
Continuous
 62
     1
370
    15
100
AcDbLine
 10
32.68825798332691
 20
-7.937500253319755
 30
0.0
 11
33.76185498237609
 21
-7.937500253319755
 31
0.0
  0
SPLINE
  5
421
330
1F
100
AcDbEntity
  8
외형선
  6
Continuous
 62
     1
370
    15
100
AcDbSpline
210
0.0
220
0.0
230
1.0
 70
     8
 71
     3
 72
     9
 73
     5
 74
     0
 42
0.000000001
 43
0.00000001
 40
0.0
 40
0.0
 40
0.0
 40
0.0
 40
0.5013203954527541
 40
1.0
 40
1.0
 40
1.0
 40
1.0
 10
33.76364684700965
 20
-7.937454618513598
 30
0.0
 10
33.793399809856
 20
-7.934721731800593
 30
0.0
 10
33.85274900672931
 20
-7.929270354322668
 30
0.0
 10
33.90355657567767
 20
-7.895471334203975
 30
0.0
 10
33.92889327406883
 20
-7.878616452217116
 30
0.0
  0
SPLINE
  5
422
330
1F
100
AcDbEntity
  8
외형선
  6
Continuous
 62
     1
370
    15
100
AcDbSpline
210
0.0
220
0.0
230
1.0
 70
     8
 71
     3
 72
    11
 73
     7
 74
     0
 42
0.000000001
 43
0.00000001
 40
0.0
 40
0.0
 40
0.0
 40
0.0
 40
0.2160154956983804
 40
0.4574684692368245
 40
0.7219169931668481
 40
1.0
 40
1.0
 40
1.0
 40
1.0
 10
33.92925835251808
 20
-7.878275588154807
 30
0.0
 10
33.9627527468852
 20
-7.855835661253053
 30
0.0
 10
34.0336857568972
 20
-7.808313334318399
 30
0.0
 10
34.18614043052358
 20
-7.770093739140464
 30
0.0
 10
34.36640996210073
 20
-7.783119224338165
 30
0.0
 10
34.47000180957534
 20
-7.846766199230032
 30
0.0
 10
34.52309942841529
 20
-7.879389449954047
 30
0.0
  0
SPLINE
  5
423
330
1F
100
AcDbEntity
  8
외형선
  6
Continuous
 62
     1
370
    15
100
AcDbSpline
210
0.0
220
0.0
230
1.0
 70
     8
 71
     3
 72
     9
 73
     5
 74
     0
 42
0.000000001
 43
0.00000001
 40
0.0
 40
0.0
 40
0.0
 40
0.0
 40
0.4991283713366358
 40
1.0
 40
1.0
 40
1.0
 40
1.0
 10
34.52400094866752
 20
-7.880125194787993
 30
0.0
 10
34.54923424229651
 20
-7.896671896011071
 30
0.0
 10
34.5997889594355
 20
-7.929823089518209
 30
0.0
 10
34.6589936527991
 20
-7.934938226385967
 30
0.0
 10
34.68864760398864
 20
-7.937500253319755
 30
0.0
  0
LINE
  5
424
330
1F
100
AcDbEntity
  8
외형선
  6
Continuous
 62
     1
370
    15
100
AcDbLine
 10
34.67546007633209
 20
-7.93704017996788
 30
0.0
 11
35.22499999999999
 21
-7.387499790638699
 31
0.0
  0
LINE
  5
425
330
1F
100
AcDbEntity
  8
외형선
  6
Continuous
 62
     1
370
    15
100
AcDbLine
 10
35.22499999999999
 20
7.387499790638678
 30
0.0
 11
34.67500186562538
 21
7.937500253319733
 31
0.0
  0
LINE
  5
426
330
1F
100
AcDbEntity
  8
외형선
  6
Continuous
 62
     1
370
    15
100
AcDbLine
 10
34.67500186562538
 20
7.937500253319733
 30
0.0
 11
33.68794522285461
 21
7.937500253319733
 31
0.0
  0
SPLINE
  5
427
330
1F
100
AcDbEntity
  8
외형선
  6
Continuous
 62
     1
370
    15
100
AcDbSpline
210
0.0
220
0.0
230
1.0
 70
     8
 71
     3
 72
     9
 73
     5
 74
     0
 42
0.000000001
 43
0.00000001
 40
0.0
 40
0.0
 40
0.0
 40
0.0
 40
0.5008284624860679
 40
1.0
 40
1.0
 40
1.0
 40
1.0
 10
33.69082487225532
 20
7.937313057482235
 30
0.0
 10
33.66081547633189
 20
7.935021299985195
 30
0.0
 10
33.60089596661695
 20
7.930445366968797
 30
0.0
 10
33.54963151705547
 20
7.896901789978202
 30
0.0
 10
33.52404176294803
 20
7.880157791078084
 30
0.0
  0
SPLINE
  5
428
330
1F
100
AcDbEntity
  8
외형선
  6
Continuous
 62
     1
370
    15
100
AcDbSpline
210
0.0
220
0.0
230
1.0
 70
     8
 71
     3
 72
    11
 73
     7
 74
     0
 42
0.000000001
 43
0.00000001
 40
0.0
 40
0.0
 40
0.0
 40
0.0
 40
0.2194080088687795
 40
0.4620416700752757
 40
0.7257693062851551
 40
0.9999999999999999
 40
0.9999999999999999
 40
0.9999999999999999
 40
0.9999999999999999
 10
33.52391324043273
 20
7.88005627691745
 30
0.0
 10
33.49041845136634
 20
7.857267754215478
 30
0.0
 10
33.41988324912438
 20
7.809278407144447
 30
0.0
 10
33.2665962827202
 20
7.770097187653533
 30
0.0
 10
33.0859247329611
 20
7.782515664354882
 30
0.0
 10
32.98059502239985
 20
7.847291919641947
 30
0.0
 10
32.92690194249153
 20
7.88031239062547
 30
0.0
  0
SPLINE
  5
429
330
1F
100
AcDbEntity
  8
외형선
  6
Continuous
 62
     1
370
    15
100
AcDbSpline
210
0.0
220
0.0
230
1.0
 70
     8
 71
     3
 72
     9
 73
     5
 74
     0
 42
0.000000001
 43
0.00000001
 40
0.0
 40
0.0
 40
0.0
 40
0.0
 40
0.4989894253260257
 40
1.0
 40
1.0
 40
1.0
 40
1.0
 10
32.92400739192962
 20
7.882223464548581
 30
0.0
 10
32.89942573236874
 20
7.89810847352652
 30
0.0
 10
32.85016284559546
 20
7.929942833478236
 30
0.0
 10
32.7922636412552
 20
7.934965312011833
 30
0.0
 10
32.76325552761554
 20
7.937481626868241
 30
0.0
  0
LINE
  5
42A
330
1F
100
AcDbEntity
  8
외형선
  6
Continuous
 62
     1
370
    15
100
AcDbLine
 10
32.76216960549354
 20
7.937500253319733
 30
0.0
 11
31.68850927650928
 21
7.937500253319733
 31
0.0
  0
SPLINE
  5
42E
330
1F
100
AcDbEntity
  8
외형선
  6
Continuous
 62
     1
370
    15
100
AcDbSpline
210
0.0
220
0.0
230
1.0
 70
     8
 71
     3
 72
     9
 73
     5
 74
     0
 42
0.000000001
 43
0.00000001
 40
0.0
 40
0.0
 40
0.0
 40
0.0
 40
0.5007972184203773
 40
1.0
 40
1.0
 40
1.0
 40
1.0
 10
31.68150759339332
 20
7.935547269880765
 30
0.0
 10
31.65263969125266
 20
7.932596574552647
 30
0.0
 10
31.59499579652069
 20
7.926704578312282
 30
0.0
 10
31.54604885690102
 20
7.89424238618286
 30
0.0
 10
31.52161440849304
 20
7.878037169575684
 30
0.0
  0
SPLINE
  5
431
330
1F
100
AcDbEntity
  8
외형선
  6
Continuous
 62
     1
370
    15
100
AcDbSpline
210
0.0
220
0.0
230
1.0
 70
     8
 71
     3
 72
    11
 73
     7
 74
     0
 42
0.000000001
 43
0.00000001
 40
0.0
 40
0.0
 40
0.0
 40
0.0
 40
0.2440162132136771
 40
0.5000170795868681
 40
0.7560104416887135
 40
1.0
 40
1.0
 40
1.0
 40
1.0
 10
31.51998086869716
 20
7.876360788941376
 30
0.0
 10
31.47539031532949
 20
7.847975998189128
 30
0.0
 10
31.38401918068877
 20
7.789812321318209
 30
0.0
 10
31.21627191002889
 20
7.765370384098617
 30
0.0
 10
31.04852394833878
 20
7.793195825108924
 30
0.0
 10
30.95713829631381
 20
7.853842558733163
 30
0.0
 10
30.91254248321056
 20
7.883437909185879
 30
0.0
  0
LINE
  5
432
330
1F
100
AcDbEntity
  8
외형선
  6
Continuous
 62
     1
370
    15
100
AcDbLine
 10
30.89956543445587
 20
7.895985618233674
 30
0.0
 11
30.88918305039405
 21
7.90138449519872
 31
0.0
  0
LINE
  5
433
330
1F
100
AcDbEntity
  8
외형선
  6
Continuous
 62
     1
370
    15
100
AcDbLine
 10
30.77509230971336
 20
7.935470901429646
 30
0.0
 11
30.76256043314933
 21
7.937500253319733
 31
0.0
  0
LINE
  5
434
330
1F
100
AcDbEntity
  8
외형선
  6
Continuous
 62
     1
370
    15
100
AcDbLine
 10
30.76256229579448
 20
7.937500253319733
 30
0.0
 11
30.35517199933528
 21
7.937500253319733
 31
0.0
  0
LINE
  5
439
330
1F
100
AcDbEntity
  8
외형선
  6
Continuous
370
    15
100
AcDbLine
 10
-46.32499797344208
 20
7.937500253319744
 30
0.0
 11
-46.32499797344208
 21
-7.937500253319744
 31
0.0
  0
LINE
  5
43A
330
1F
100
AcDbEntity
  8
외형선
  6
Continuous
370
    15
100
AcDbLine
 10
-47.325
 20
6.937500089406971
 30
0.0
 11
-47.325
 21
-6.937500089406971
 31
0.0
  0
SPLINE
  5
44E
330
1F
100
AcDbEntity
  8
외형선
  6
Continuous
 62
     1
370
    15
100
AcDbSpline
210
0.0
220
0.0
230
1.0
 70
     8
 71
     3
 72
     8
 73
     4
 74
     0
 42
0.000000001
 43
0.00000001
 40
0.0
 40
0.0
 40
0.0
 40
0.0
 40
1.0
 40
1.0
 40
1.0
 40
1.0
 10
34.24482463067449
 20
-1.408150834111552
 30
0.0
 10
34.18963041604928
 20
-1.388388912426066
 30
0.0
 10
34.13408900548291
 20
-1.367788856024632
 30
0.0
 10
34.08848842635226
 20
-1.35090775547738
 30
0.0
  0
SPLINE
  5
44F
330
1F
100
AcDbEntity
  8
외형선
  6
Continuous
 62
     1
370
    15
100
AcDbSpline
210
0.0
220
0.0
230
1.0
 70
     8
 71
     3
 72
    12
 73
     8
 74
     0
 42
0.000000001
 43
0.00000001
 40
0.0
 40
0.0
 40
0.0
 40
0.0
 40
0.5
 40
0.5
 40
0.75
 40
0.75
 40
1.0
 40
1.0
 40
1.0
 40
1.0
 10
34.08848842635112
 20
-1.35090775545919
 30
0.0
 10
34.06367378069277
 20
-0.7552774973670893
 30
0.0
 10
34.03887776412012
 20
-0.147866468578826
 30
0.0
 10
34.00312976102461
 20
0.7454690027114736
 30
0.0
 10
33.99165250056538
 20
1.038652008193452
 30
0.0
 10
33.9683110560031
 20
1.622598376452601
 30
0.0
 10
33.95635281300662
 20
1.914116153375659
 30
0.0
 10
33.94421463632779
 20
2.202260570817685
 30
0.0
  0
SPLINE
  5
450
330
1F
100
AcDbEntity
  8
외형선
  6
Continuous
 62
     1
370
    15
100
AcDbSpline
210
0.0
220
0.0
230
1.0
 70
     8
 71
     3
 72
     8
 73
     4
 74
     0
 42
0.000000001
 43
0.00000001
 40
0.0
 40
0.0
 40
0.0
 40
0.0
 40
1.0
 40
1.0
 40
1.0
 40
1.0
 10
33.94421462324692
 20
2.202260881342781
 30
0.0
 10
33.98907343435042
 20
2.191197214430275
 30
0.0
 10
34.04425294889427
 20
2.174500336329771
 30
0.0
 10
34.10117281257348
 20
2.154574095598676
 30
0.0
  0
SPLINE
  5
451
330
1F
100
AcDbEntity
  8
외형선
  6
Continuous
 62
     1
370
    15
100
AcDbSpline
210
0.0
220
0.0
230
1.0
 70
     8
 71
     3
 72
    12
 73
     8
 74
     0
 42
0.000000001
 43
0.00000001
 40
0.0
 40
0.0
 40
0.0
 40
0.0
 40
0.4999999999999999
 40
0.4999999999999999
 40
0.7499999999999999
 40
0.7499999999999999
 40
1.0
 40
1.0
 40
1.0
 40
1.0
 10
34.24482442329818
 20
-1.408145828122329
 30
0.0
 10
34.22012376192436
 20
-0.8118882658355773
 30
0.0
 10
34.19541479753369
 20
-0.2032332148277618
 30
0.0
 10
34.15974298517099
 20
0.6930892412741372
 30
0.0
 10
34.14825579514385
 20
0.987655799602777
 30
0.0
 10
34.12509896166827
 20
1.572954943093663
 30
0.0
 10
34.11322903367684
 20
1.865342802304468
 30
0.0
 10
34.10117268456659
 20
2.154577166521477
 30
0.0
  0
SPLINE
  5
452
330
1F
100
AcDbEntity
  8
외형선
  6
Continuous
 62
     1
370
    15
100
AcDbSpline
210
0.0
220
0.0
230
1.0
 70
     8
 71
     3
 72
     8
 73
     4
 74
     0
 42
0.000000001
 43
0.00000001
 40
0.0
 40
0.0
 40
0.0
 40
0.0
 40
1.0
 40
1.0
 40
1.0
 40
1.0
 10
34.67500068545345
 20
-1.561955873672275
 30
0.0
 10
34.53171556633384
 20
-1.510797974314585
 30
0.0
 10
34.3883086415062
 20
-1.459524331493611
 30
0.0
 10
34.24482163872082
 20
-1.408149762861484
 30
0.0
  0
SPLINE
  5
453
330
1F
100
AcDbEntity
  8
외형선
  6
Continuous
 62
     1
370
    15
100
AcDbSpline
210
0.0
220
0.0
230
1.0
 70
     8
 71
     3
 72
     8
 73
     4
 74
     0
 42
0.000000001
 43
0.00000001
 40
0.0
 40
0.0
 40
0.0
 40
0.0
 40
1.0
 40
1.0
 40
1.0
 40
1.0
 10
34.68874856120291
 20
-1.566112779781164
 30
0.0
 10
34.68416709840028
 20
-1.564724755006708
 30
0.0
 10
34.67958447122308
 20
-1.56333911909023
 30
0.0
 10
34.6750006854534
 20
-1.561955873672275
 30
0.0
  0
SPLINE
  5
454
330
1F
100
AcDbEntity
  8
외형선
  6
Continuous
 62
     1
370
    15
100
AcDbSpline
210
0.0
220
0.0
230
1.0
 70
     8
 71
     3
 72
    13
 73
     9
 74
     0
 42
0.000000001
 43
0.00000001
 40
0.0
 40
0.0
 40
0.0
 40
0.0
 40
0.0929630410870123
 40
0.2851977001470582
 40
0.4841281517904199
 40
0.6599419377152309
 40
0.8405870794694159
 40
0.9999999999999999
 40
0.9999999999999999
 40
0.9999999999999999
 40
0.9999999999999999
 10
34.63112167119979
 20
-1.606462523341179
 30
0.0
 10
34.61774973318634
 20
-1.61582628147832
 30
0.0
 10
34.57672648434075
 20
-1.644552991084836
 30
0.0
 10
34.40177270323059
 20
-1.767053498102385
 30
0.0
 10
34.11956286049298
 20
-1.964661353780755
 30
0.0
 10
33.7566634755168
 20
-2.218767192729857
 30
0.0
 10
33.36380778453784
 20
-2.49384652914749
 30
0.0
 10
33.07113618008339
 20
-2.698777128117641
 30
0.0
 10
32.93393715322017
 20
-2.79484479688108
 30
0.0
  0
SPLINE
  5
455
330
1F
100
AcDbEntity
  8
외형선
  6
Continuous
 62
     1
370
    15
100
AcDbSpline
210
0.0
220
0.0
230
1.0
 70
     8
 71
     3
 72
     8
 73
     4
 74
     0
 42
0.000000001
 43
0.00000001
 40
0.0
 40
0.0
 40
0.0
 40
0.0
 40
1.0
 40
1.0
 40
1.0
 40
1.0
 10
35.22500068545341
 20
-4.00827216801062
 30
0.0
 10
34.46089427274276
 20
-3.611231113586143
 30
0.0
 10
33.6972118472662
 20
-3.20665966530639
 30
0.0
 10
32.93393724612659
 20
-2.79484489073333
 30
0.0
  0
LINE
  5
456
330
1F
100
AcDbEntity
  8
외형선
  6
Continuous
 62
     1
370
    15
100
AcDbLine
 10
35.22499999999999
 20
-7.17931287363173
 30
0.0
 11
35.22499999999999
 21
-4.00827219709754
 31
0.0
  0
SPLINE
  5
457
330
1F
100
AcDbEntity
  8
외형선
  6
Continuous
 62
     1
370
    15
100
AcDbSpline
210
0.0
220
0.0
230
1.0
 70
     8
 71
     3
 72
     8
 73
     4
 74
     0
 42
0.000000001
 43
0.00000001
 40
0.0
 40
0.0
 40
0.0
 40
0.0
 40
1.0
 40
1.0
 40
1.0
 40
1.0
 10
34.6750006854534
 20
-7.693518801369692
 30
0.0
 10
34.85740870211495
 20
-7.52658257746377
 30
0.0
 10
35.04064268423321
 20
-7.355237026361849
 30
0.0
 10
35.22500068545341
 20
-7.17931277998575
 30
0.0
  0
SPLINE
  5
458
330
1F
100
AcDbEntity
  8
외형선
  6
Continuous
 62
     1
370
    15
100
AcDbSpline
210
0.0
220
0.0
230
1.0
 70
     8
 71
     3
 72
     8
 73
     4
 74
     0
 42
0.000000001
 43
0.00000001
 40
0.0
 40
0.0
 40
0.0
 40
0.0
 40
1.0
 40
1.0
 40
1.0
 40
1.0
 10
34.67500068545527
 20
-7.693518801368029
 30
0.0
 10
34.65247116036821
 20
-7.691500307281601
 30
0.0
 10
34.62993862428263
 20
-7.689469394300332
 30
0.0
 10
34.60740323906703
 20
-7.687426073855818
 30
0.0
  0
SPLINE
  5
459
330
1F
100
AcDbEntity
  8
외형선
  6
Continuous
 62
     1
370
    15
100
AcDbSpline
210
0.0
220
0.0
230
1.0
 70
     8
 71
     3
 72
     8
 73
     4
 74
     0
 42
0.000000001
 43
0.00000001
 40
0.0
 40
0.0
 40
0.0
 40
0.0
 40
1.0
 40
1.0
 40
1.0
 40
1.0
 10
34.45042002002918
 20
-7.619397195961312
 30
0.0
 10
34.4952885619889
 20
-7.658306623791418
 30
0.0
 10
34.55047646844596
 20
-7.682264429936609
 30
0.0
 10
34.60740324414169
 20
-7.687426074319731
 30
0.0
  0
SPLINE
  5
45A
330
1F
100
AcDbEntity
  8
외형선
  6
Continuous
 62
     1
370
    15
100
AcDbSpline
210
0.0
220
0.0
230
1.0
 70
     8
 71
     3
 72
    10
 73
     6
 74
     0
 42
0.000000001
 43
0.00000001
 40
0.0
 40
0.0
 40
0.0
 40
0.0
 40
0.5
 40
0.5
 40
1.0
 40
1.0
 40
1.0
 40
1.0
 10
33.82383390807536
 20
-7.558085069528985
 30
0.0
 10
33.9167022289013
 20
-7.49525479016873
 30
0.0
 10
34.0295152125106
 20
-7.470357605681855
 30
0.0
 10
34.25459554051494
 20
-7.4947467256641
 30
0.0
 10
34.36189358426356
 20
-7.542628198952372
 30
0.0
 10
34.45042002002884
 20
-7.619397195961042
 30
0.0
  0
SPLINE
  5
45B
330
1F
100
AcDbEntity
  8
외형선
  6
Continuous
 62
     1
370
    15
100
AcDbSpline
210
0.0
220
0.0
230
1.0
 70
     8
 71
     3
 72
     8
 73
     4
 74
     0
 42
0.000000001
 43
0.00000001
 40
0.0
 40
0.0
 40
0.0
 40
0.0
 40
1.0
 40
1.0
 40
1.0
 40
1.0
 10
33.66752211991351
 20
-7.595174404165832
 30
0.0
 10
33.72271060013756
 20
-7.601003564242859
 30
0.0
 10
33.77824272065888
 20
-7.588929893862968
 30
0.0
 10
33.82383390807675
 20
-7.558085069531799
 30
0.0
  0
SPLINE
  5
45C
330
1F
100
AcDbEntity
  8
외형선
  6
Continuous
 62
     1
370
    15
100
AcDbSpline
210
0.0
220
0.0
230
1.0
 70
     8
 71
     3
 72
     8
 73
     4
 74
     0
 42
0.000000001
 43
0.00000001
 40
0.0
 40
0.0
 40
0.0
 40
0.0
 40
1.0
 40
1.0
 40
1.0
 40
1.0
 10
33.66752177152199
 20
-7.595174367366226
 30
0.0
 10
33.30417263991572
 20
-7.556796424091047
 30
0.0
 10
32.94067064289197
 20
-7.515255368943926
 30
0.0
 10
32.57769472537214
 20
-7.470632020437421
 30
0.0
  0
SPLINE
  5
45D
330
1F
100
AcDbEntity
  8
외형선
  6
Continuous
 62
     1
370
    15
100
AcDbSpline
210
0.0
220
0.0
230
1.0
 70
     8
 71
     3
 72
     8
 73
     4
 74
     0
 42
0.000000001
 43
0.00000001
 40
0.0
 40
0.0
 40
0.0
 40
0.0
 40
1.0
 40
1.0
 40
1.0
 40
1.0
 10
32.42075371930787
 20
-7.398328302848086
 30
0.0
 10
32.46560545232484
 20
-7.438177966835937
 30
0.0
 10
32.5207790970789
 20
-7.463634956572221
 30
0.0
 10
32.57769545316324
 20
-7.47063210991395
 30
0.0
  0
SPLINE
  5
45E
330
1F
100
AcDbEntity
  8
외형선
  6
Continuous
 62
     1
370
    15
100
AcDbSpline
210
0.0
220
0.0
230
1.0
 70
     8
 71
     3
 72
    10
 73
     6
 74
     0
 42
0.000000001
 43
0.00000001
 40
0.0
 40
0.0
 40
0.0
 40
0.0
 40
0.5
 40
0.5
 40
1.0
 40
1.0
 40
1.0
 40
1.0
 10
31.79431375909562
 20
-7.316955300608726
 30
0.0
 10
31.88715619410726
 20
-7.258332621705421
 30
0.0
 10
31.9999274397085
 20
-7.237456454335714
 30
0.0
 10
32.22496294986064
 20
-7.268902872610226
 30
0.0
 10
32.33224430388648
 20
-7.319689859535558
 30
0.0
 10
32.42075371930753
 20
-7.398328302847816
 30
0.0
  0
SPLINE
  5
45F
330
1F
100
AcDbEntity
  8
외형선
  6
Continuous
 62
     1
370
    15
100
AcDbSpline
210
0.0
220
0.0
230
1.0
 70
     8
 71
     3
 72
     8
 73
     4
 74
     0
 42
0.000000001
 43
0.00000001
 40
0.0
 40
0.0
 40
0.0
 40
0.0
 40
1.0
 40
1.0
 40
1.0
 40
1.0
 10
31.63803227577048
 20
-7.348071579461262
 30
0.0
 10
31.69320479602018
 20
-7.355682220074542
 30
0.0
 10
31.74872665705166
 20
-7.345739961902254
 30
0.0
 10
31.79431375909638
 20
-7.3169553006109
 30
0.0
  0
SPLINE
  5
460
330
1F
100
AcDbEntity
  8
외형선
  6
Continuous
 62
     1
370
    15
100
AcDbSpline
210
0.0
220
0.0
230
1.0
 70
     8
 71
     3
 72
     8
 73
     4
 74
     0
 42
0.000000001
 43
0.00000001
 40
0.0
 40
0.0
 40
0.0
 40
0.0
 40
1.0
 40
1.0
 40
1.0
 40
1.0
 10
31.63803188445698
 20
-7.348071525481089
 30
0.0
 10
31.27569525647186
 20
-7.298089868486898
 30
0.0
 10
30.91237655051199
 20
-7.245005467581109
 30
0.0
 10
30.54852266853365
 20
-7.188893797514226
 30
0.0
  0
SPLINE
  5
461
330
1F
100
AcDbEntity
  8
외형선
  6
Continuous
 62
     1
370
    15
100
AcDbSpline
210
0.0
220
0.0
230
1.0
 70
     8
 71
     3
 72
     8
 73
     4
 74
     0
 42
0.000000001
 43
0.00000001
 40
0.0
 40
0.0
 40
0.0
 40
0.0
 40
1.0
 40
1.0
 40
1.0
 40
1.0
 10
30.39164534094502
 20
-7.112947340633639
 30
0.0
 10
30.43647438024666
 20
-7.153388368565047
 30
0.0
 10
30.49162776324673
 20
-7.180119758508482
 30
0.0
 10
30.54852266853572
 20
-7.188893797518162
 30
0.0
  0
SPLINE
  5
462
330
1F
100
AcDbEntity
  8
외형선
  6
Continuous
 62
     1
370
    15
100
AcDbSpline
210
0.0
220
0.0
230
1.0
 70
     8
 71
     3
 72
    10
 73
     6
 74
     0
 42
0.000000001
 43
0.00000001
 40
0.0
 40
0.0
 40
0.0
 40
0.0
 40
0.5
 40
0.5
 40
1.0
 40
1.0
 40
1.0
 40
1.0
 10
29.76541441047249
 20
-7.012476826572566
 30
0.0
 10
29.85822234933963
 20
-6.958502684289201
 30
0.0
 10
29.97096828742346
 20
-6.941758050807579
 30
0.0
 10
30.19594153615276
 20
-6.979908068199677
 30
0.0
 10
30.30318538233303
 20
-7.033146128901535
 30
0.0
 10
30.39164534094468
 20
-7.112947340633397
 30
0.0
  0
SPLINE
  5
463
330
1F
100
AcDbEntity
  8
외형선
  6
Continuous
 62
     1
370
    15
100
AcDbSpline
210
0.0
220
0.0
230
1.0
 70
     8
 71
     3
 72
     8
 73
     4
 74
     0
 42
0.000000001
 43
0.00000001
 40
0.0
 40
0.0
 40
0.0
 40
0.0
 40
1.0
 40
1.0
 40
1.0
 40
1.0
 10
29.609163958278
 20
-7.037480529852019
 30
0.0
 10
29.66433325011184
 20
-7.046757652574598
 30
0.0
 10
29.7198438904779
 20
-7.038979190059706
 30
0.0
 10
29.76541441047308
 20
-7.012476826575138
 30
0.0
  0
SPLINE
  5
464
330
1F
100
AcDbEntity
  8
외형선
  6
Continuous
 62
     1
370
    15
100
AcDbSpline
210
0.0
220
0.0
230
1.0
 70
     8
 71
     3
 72
     8
 73
     4
 74
     0
 42
0.000000001
 43
0.00000001
 40
0.0
 40
0.0
 40
0.0
 40
0.0
 40
1.0
 40
1.0
 40
1.0
 40
1.0
 10
29.60916345049699
 20
-7.037480444463682
 30
0.0
 10
29.24562773705634
 20
-6.976349234198622
 30
0.0
 10
28.88222156749029
 20
-6.912296545697657
 30
0.0
 10
28.51962318063281
 20
-6.845449507433585
 30
0.0
  0
SPLINE
  5
465
330
1F
100
AcDbEntity
  8
외형선
  6
Continuous
 62
     1
370
    15
100
AcDbSpline
210
0.0
220
0.0
230
1.0
 70
     8
 71
     3
 72
     8
 73
     4
 74
     0
 42
0.000000001
 43
0.00000001
 40
0.0
 40
0.0
 40
0.0
 40
0.0
 40
1.0
 40
1.0
 40
1.0
 40
1.0
 10
28.36269423028878
 20
-6.766451354495089
 30
0.0
 10
28.40754269459765
 20
-6.807159757832849
 30
0.0
 10
28.46271147467095
 20
-6.834957517487013
 30
0.0
 10
28.51962433568633
 20
-6.845449720377658
 30
0.0
  0
SPLINE
  5
466
330
1F
100
AcDbEntity
  8
외형선
  6
Continuous
 62
     1
370
    15
100
AcDbSpline
210
0.0
220
0.0
230
1.0
 70
     8
 71
     3
 72
    10
 73
     6
 74
     0
 42
0.000000001
 43
0.00000001
 40
0.0
 40
0.0
 40
0.0
 40
0.0
 40
0.5
 40
0.5
 40
1.0
 40
1.0
 40
1.0
 40
1.0
 10
27.73621803821024
 20
-6.64722009134519
 30
0.0
 10
27.82908000063387
 20
-6.598421864242027
 30
0.0
 10
27.94186833220255
 20
-6.586095849097205
 30
0.0
 10
28.16689725713547
 20
-6.630830433440025
 30
0.0
 10
28.27418216685578
 20
-6.686110035477256
 30
0.0
 10
28.36269423028861
 20
-6.766451354495132
 30
0.0
  0
SPLINE
  5
467
330
1F
100
AcDbEntity
  8
외형선
  6
Continuous
 62
     1
370
    15
100
AcDbSpline
210
0.0
220
0.0
230
1.0
 70
     8
 71
     3
 72
     8
 73
     4
 74
     0
 42
0.000000001
 43
0.00000001
 40
0.0
 40
0.0
 40
0.0
 40
0.0
 40
1.0
 40
1.0
 40
1.0
 40
1.0
 10
27.57991722864065
 20
-6.665745860045121
 30
0.0
 10
27.6351001896125
 20
-6.676659631579682
 30
0.0
 10
27.69062753683468
 20
-6.671177539389774
 30
0.0
 10
27.73621803821104
 20
-6.647220091347307
 30
0.0
  0
SPLINE
  5
468
330
1F
100
AcDbEntity
  8
외형선
  6
Continuous
 62
     1
370
    15
100
AcDbSpline
210
0.0
220
0.0
230
1.0
 70
     8
 71
     3
 72
     8
 73
     4
 74
     0
 42
0.000000001
 43
0.00000001
 40
0.0
 40
0.0
 40
0.0
 40
0.0
 40
1.0
 40
1.0
 40
1.0
 40
1.0
 10
27.57991590378677
 20
-6.665745598021999
 30
0.0
 10
27.21725470662713
 20
-6.594020526765263
 30
0.0
 10
26.85373951615838
 20
-6.519467776584307
 30
0.0
 10
26.49004913973104
 20
-6.442219042767448
 30
0.0
  0
SPLINE
  5
469
330
1F
100
AcDbEntity
  8
외형선
  6
Continuous
 62
     1
370
    15
100
AcDbSpline
210
0.0
220
0.0
230
1.0
 70
     8
 71
     3
 72
     8
 73
     4
 74
     0
 42
0.000000001
 43
0.00000001
 40
0.0
 40
0.0
 40
0.0
 40
0.0
 40
1.0
 40
1.0
 40
1.0
 40
1.0
 10
26.33307703207259
 20
-6.360950138794877
 30
0.0
 10
26.37794034563456
 20
-6.401540697541265
 30
0.0
 10
26.43312443019826
 20
-6.430128093932097
 30
0.0
 10
26.49004913973306
 20
-6.442219042771242
 30
0.0
  0
SPLINE
  5
46A
330
1F
100
AcDbEntity
  8
외형선
  6
Continuous
 62
     1
370
    15
100
AcDbSpline
210
0.0
220
0.0
230
1.0
 70
     8
 71
     3
 72
    10
 73
     6
 74
     0
 42
0.000000001
 43
0.00000001
 40
0.0
 40
0.0
 40
0.0
 40
0.0
 40
0.5
 40
0.5
 40
1.0
 40
1.0
 40
1.0
 40
1.0
 10
25.70647982690707
 20
-6.22465184474234
 30
0.0
 10
25.79934573833287
 20
-6.181384861860749
 30
0.0
 10
25.91215081058479
 20
-6.173425436259009
 30
0.0
 10
26.13723966932852
 20
-6.224088625560171
 30
0.0
 10
26.2445463571168
 20
-6.280851071709606
 30
0.0
 10
26.33307703207225
 20
-6.360950138794664
 30
0.0
  0
SPLINE
  5
46B
330
1F
100
AcDbEntity
  8
외형선
  6
Continuous
 62
     1
370
    15
100
AcDbSpline
210
0.0
220
0.0
230
1.0
 70
     8
 71
     3
 72
     8
 73
     4
 74
     0
 42
0.000000001
 43
0.00000001
 40
0.0
 40
0.0
 40
0.0
 40
0.0
 40
1.0
 40
1.0
 40
1.0
 40
1.0
 10
25.55015509577569
 20
-6.236668350781486
 30
0.0
 10
25.60534629191972
 20
-6.249085878298601
 30
0.0
 10
25.66088359482245
 20
-6.24589549984654
 30
0.0
 10
25.70647982690784
 20
-6.224651844744358
 30
0.0
  0
SPLINE
  5
46C
330
1F
100
AcDbEntity
  8
외형선
  6
Continuous
 62
     1
370
    15
100
AcDbSpline
210
0.0
220
0.0
230
1.0
 70
     8
 71
     3
 72
     8
 73
     4
 74
     0
 42
0.000000001
 43
0.00000001
 40
0.0
 40
0.0
 40
0.0
 40
0.0
 40
1.0
 40
1.0
 40
1.0
 40
1.0
 10
25.55015491057716
 20
-6.236668309113298
 30
0.0
 10
25.18615878384108
 20
-6.15477242197872
 30
0.0
 10
24.82257652800575
 20
-6.070303407213146
 30
0.0
 10
24.46008704562254
 20
-5.983430025397382
 30
0.0
  0
SPLINE
  5
46D
330
1F
100
AcDbEntity
  8
외형선
  6
Continuous
 62
     1
370
    15
100
AcDbSpline
210
0.0
220
0.0
230
1.0
 70
     8
 71
     3
 72
     8
 73
     4
 74
     0
 42
0.000000001
 43
0.00000001
 40
0.0
 40
0.0
 40
0.0
 40
0.0
 40
1.0
 40
1.0
 40
1.0
 40
1.0
 10
24.30308409381414
 20
-5.90041804561497
 30
0.0
 10
24.34796159725735
 20
-5.94059303313783
 30
0.0
 10
24.4031534248671
 20
-5.969785447068872
 30
0.0
 10
24.46008717985868
 20
-5.983430057571297
 30
0.0
  0
SPLINE
  5
46E
330
1F
100
AcDbEntity
  8
외형선
  6
Continuous
 62
     1
370
    15
100
AcDbSpline
210
0.0
220
0.0
230
1.0
 70
     8
 71
     3
 72
    10
 73
     6
 74
     0
 42
0.000000001
 43
0.00000001
 40
0.0
 40
0.0
 40
0.0
 40
0.0
 40
0.5
 40
0.5
 40
1.0
 40
1.0
 40
1.0
 40
1.0
 10
23.67640248570748
 20
-5.747592136591251
 30
0.0
 10
23.76929638048563
 20
-5.710287357527761
 30
0.0
 10
23.8821315728141
 20
-5.706887746823071
 30
0.0
 10
24.10723742962745
 20
-5.763293175112437
 30
0.0
 10
24.21454407085363
 20
-5.821155741680741
 30
0.0
 10
24.30308409381385
 20
-5.90041804561487
 30
0.0
  0
SPLINE
  5
46F
330
1F
100
AcDbEntity
  8
외형선
  6
Continuous
 62
     1
370
    15
100
AcDbSpline
210
0.0
220
0.0
230
1.0
 70
     8
 71
     3
 72
     8
 73
     4
 74
     0
 42
0.000000001
 43
0.00000001
 40
0.0
 40
0.0
 40
0.0
 40
0.0
 40
1.0
 40
1.0
 40
1.0
 40
1.0
 10
23.52006533018024
 20
-5.752904406072787
 30
0.0
 10
23.57526084841405
 20
-5.766742207872042
 30
0.0
 10
23.63080156478705
 20
-5.765904774728341
 30
0.0
 10
23.67640248570825
 20
-5.747592136593212
 30
0.0
  0
SPLINE
  5
470
330
1F
100
AcDbEntity
  8
외형선
  6
Continuous
 62
     1
370
    15
100
AcDbSpline
210
0.0
220
0.0
230
1.0
 70
     8
 71
     3
 72
     8
 73
     4
 74
     0
 42
0.000000001
 43
0.00000001
 40
0.0
 40
0.0
 40
0.0
 40
0.0
 40
1.0
 40
1.0
 40
1.0
 40
1.0
 10
23.52006524243251
 20
-5.752904384073275
 30
0.0
 10
23.15704621884052
 20
-5.66189363755916
 30
0.0
 10
22.79345634818608
 20
-5.568443835253689
 30
0.0
 10
22.42997505032102
 20
-5.472726684688482
 30
0.0
  0
SPLINE
  5
471
330
1F
100
AcDbEntity
  8
외형선
  6
Continuous
 62
     1
370
    15
100
AcDbSpline
210
0.0
220
0.0
230
1.0
 70
     8
 71
     3
 72
     8
 73
     4
 74
     0
 42
0.000000001
 43
0.00000001
 40
0.0
 40
0.0
 40
0.0
 40
0.0
 40
1.0
 40
1.0
 40
1.0
 40
1.0
 10
22.27297942732795
 20
-5.388938500641487
 30
0.0
 10
22.3178507729028
 20
-5.42827646201296
 30
0.0
 10
22.3730425794696
 20
-5.4577344033477
 30
0.0
 10
22.42997506676173
 20
-5.472726689020874
 30
0.0
  0
SPLINE
  5
472
330
1F
100
AcDbEntity
  8
외형선
  6
Continuous
 62
     1
370
    15
100
AcDbSpline
210
0.0
220
0.0
230
1.0
 70
     8
 71
     3
 72
    10
 73
     6
 74
     0
 42
0.000000001
 43
0.00000001
 40
0.0
 40
0.0
 40
0.0
 40
0.0
 40
0.5
 40
0.5
 40
1.0
 40
1.0
 40
1.0
 40
1.0
 10
21.64632862932064
 20
-5.221483007344219
 30
0.0
 10
21.73920268109981
 20
-5.190442469487721
 30
0.0
 10
21.85201407541811
 20
-5.19154187331462
 30
0.0
 10
22.07711872278767
 20
-5.25297592190654
 30
0.0
 10
22.18443479299742
 20
-5.311312894359062
 30
0.0
 10
22.27297942732758
 20
-5.388938500641302
 30
0.0
  0
SPLINE
  5
473
330
1F
100
AcDbEntity
  8
외형선
  6
Continuous
 62
     1
370
    15
100
AcDbSpline
210
0.0
220
0.0
230
1.0
 70
     8
 71
     3
 72
     8
 73
     4
 74
     0
 42
0.000000001
 43
0.00000001
 40
0.0
 40
0.0
 40
0.0
 40
0.0
 40
1.0
 40
1.0
 40
1.0
 40
1.0
 10
21.48999794856726
 20
-5.220079266820093
 30
0.0
 10
21.54518931999428
 20
-5.235214576962107
 30
0.0
 10
21.6007287896708
 20
-5.236723470336443
 30
0.0
 10
21.64632862932146
 20
-5.22148300734608
 30
0.0
  0
SPLINE
  5
474
330
1F
100
AcDbEntity
  8
외형선
  6
Continuous
 62
     1
370
    15
100
AcDbSpline
210
0.0
220
0.0
230
1.0
 70
     8
 71
     3
 72
     8
 73
     4
 74
     0
 42
0.000000001
 43
0.00000001
 40
0.0
 40
0.0
 40
0.0
 40
0.0
 40
1.0
 40
1.0
 40
1.0
 40
1.0
 10
21.48999794588227
 20
-5.220079266083275
 30
0.0
 10
21.12603592150541
 20
-5.12026877075624
 30
0.0
 10
20.76351617786966
 20
-5.018411286866012
 30
0.0
 10
20.39996896740163
 20
-4.914406252807609
 30
0.0
  0
SPLINE
  5
475
330
1F
100
AcDbEntity
  8
외형선
  6
Continuous
 62
     1
370
    15
100
AcDbSpline
210
0.0
220
0.0
230
1.0
 70
     8
 71
     3
 72
     8
 73
     4
 74
     0
 42
0.000000001
 43
0.00000001
 40
0.0
 40
0.0
 40
0.0
 40
0.0
 40
1.0
 40
1.0
 40
1.0
 40
1.0
 10
20.24299240462989
 20
-4.830371506068602
 30
0.0
 10
20.28785904207129
 20
-4.868585812575731
 30
0.0
 10
20.34304466578251
 20
-4.898121121863284
 30
0.0
 10
20.39996897205143
 20
-4.914406254140587
 30
0.0
  0
SPLINE
  5
476
330
1F
100
AcDbEntity
  8
외형선
  6
Continuous
 62
     1
370
    15
100
AcDbSpline
210
0.0
220
0.0
230
1.0
 70
     8
 71
     3
 72
    10
 73
     6
 74
     0
 42
0.000000001
 43
0.00000001
 40
0.0
 40
0.0
 40
0.0
 40
0.0
 40
0.5
 40
0.5
 40
1.0
 40
1.0
 40
1.0
 40
1.0
 10
19.61643462219095
 20
-4.649413289998677
 30
0.0
 10
19.70930062953471
 20
-4.624894606701943
 30
0.0
 10
19.82211107964437
 20
-4.630518149517258
 30
0.0
 10
20.04718087679484
 20
-4.696580712338545
 30
0.0
 10
20.15447215727514
 20
-4.754976066217964
 30
0.0
 10
20.24299240462955
 20
-4.830371506068431
 30
0.0
  0
SPLINE
  5
477
330
1F
100
AcDbEntity
  8
외형선
  6
Continuous
 62
     1
370
    15
100
AcDbSpline
210
0.0
220
0.0
230
1.0
 70
     8
 71
     3
 72
     8
 73
     4
 74
     0
 42
0.000000001
 43
0.00000001
 40
0.0
 40
0.0
 40
0.0
 40
0.0
 40
1.0
 40
1.0
 40
1.0
 40
1.0
 10
19.46013000137839
 20
-4.641343977320375
 30
0.0
 10
19.5153161817916
 20
-4.657623399983692
 30
0.0
 10
19.57084557872616
 20
-4.661449807456975
 30
0.0
 10
19.61643462219175
 20
-4.64941329000041
 30
0.0
  0
SPLINE
  5
478
330
1F
100
AcDbEntity
  8
외형선
  6
Continuous
 62
     1
370
    15
100
AcDbSpline
210
0.0
220
0.0
230
1.0
 70
     8
 71
     3
 72
     8
 73
     4
 74
     0
 42
0.000000001
 43
0.00000001
 40
0.0
 40
0.0
 40
0.0
 40
0.0
 40
1.0
 40
1.0
 40
1.0
 40
1.0
 10
19.46013001814401
 20
-4.641343982265766
 30
0.0
 10
19.096940414828
 20
-4.534206343599024
 30
0.0
 10
18.73346321482757
 20
-4.425111864333473
 30
0.0
 10
18.37037725371201
 20
-4.314264824379947
 30
0.0
  0
SPLINE
  5
479
330
1F
100
AcDbEntity
  8
외형선
  6
Continuous
 62
     1
370
    15
100
AcDbSpline
210
0.0
220
0.0
230
1.0
 70
     8
 71
     3
 72
     8
 73
     4
 74
     0
 42
0.000000001
 43
0.00000001
 40
0.0
 40
0.0
 40
0.0
 40
0.0
 40
1.0
 40
1.0
 40
1.0
 40
1.0
 10
18.21344982531647
 20
-4.23085697290314
 30
0.0
 10
18.25829616184242
 20
-4.26757910444897
 30
0.0
 10
18.3134652890225
 20
-4.296890087986355
 30
0.0
 10
18.37037705132641
 20
-4.314264762595855
 30
0.0
  0
SPLINE
  5
47A
330
1F
100
AcDbEntity
  8
외형선
  6
Continuous
 62
     1
370
    15
100
AcDbSpline
210
0.0
220
0.0
230
1.0
 70
     8
 71
     3
 72
    10
 73
     6
 74
     0
 42
0.000000001
 43
0.00000001
 40
0.0
 40
0.0
 40
0.0
 40
0.0
 40
0.5
 40
0.5
 40
1.0
 40
1.0
 40
1.0
 40
1.0
 10
17.58706663448959
 20
-4.038021254412115
 30
0.0
 10
17.67989791475165
 20
-4.02029199393904
 30
0.0
 10
17.79266128639816
 20
-4.030407930694665
 30
0.0
 10
18.01767970207266
 20
-4.100491140061152
 30
0.0
 10
18.12495208914029
 20
-4.158391176115018
 30
0.0
 10
18.21344982531613
 20
-4.230856972902984
 30
0.0
  0
SPLINE
  5
47B
330
1F
100
AcDbEntity
  8
외형선
  6
Continuous
 62
     1
370
    15
100
AcDbSpline
210
0.0
220
0.0
230
1.0
 70
     8
 71
     3
 72
     8
 73
     4
 74
     0
 42
0.000000001
 43
0.00000001
 40
0.0
 40
0.0
 40
0.0
 40
0.0
 40
1.0
 40
1.0
 40
1.0
 40
1.0
 10
17.43079870212389
 20
-4.023236384511264
 30
0.0
 10
17.48596840597125
 20
-4.040571004245521
 30
0.0
 10
17.54148542225454
 20
-4.046726522531358
 30
0.0
 10
17.58706663449036
 20
-4.038021254413678
 30
0.0
  0
SPLINE
  5
47C
330
1F
100
AcDbEntity
  8
외형선
  6
Continuous
 62
     1
370
    15
100
AcDbSpline
210
0.0
220
0.0
230
1.0
 70
     8
 71
     3
 72
     8
 73
     4
 74
     0
 42
0.000000001
 43
0.00000001
 40
0.0
 40
0.0
 40
0.0
 40
0.0
 40
1.0
 40
1.0
 40
1.0
 40
1.0
 10
17.43079871381462
 20
-4.023236388184444
 30
0.0
 10
17.06783836847927
 20
-3.909192282011119
 30
0.0
 10
16.70523724567815
 20
-3.793510470579193
 30
0.0
 10
16.34138366590778
 20
-3.6761607420883
 30
0.0
  0
SPLINE
  5
47D
330
1F
100
AcDbEntity
  8
외형선
  6
Continuous
 62
     1
370
    15
100
AcDbSpline
210
0.0
220
0.0
230
1.0
 70
     8
 71
     3
 72
     8
 73
     4
 74
     0
 42
0.000000001
 43
0.00000001
 40
0.0
 40
0.0
 40
0.0
 40
0.0
 40
1.0
 40
1.0
 40
1.0
 40
1.0
 10
16.18450608179759
 20
-3.594031745486745
 30
0.0
 10
16.22933627787168
 20
-3.628957051582205
 30
0.0
 10
16.28448911622661
 20
-3.657811163224025
 30
0.0
 10
16.34138366590508
 20
-3.676160742089621
 30
0.0
  0
SPLINE
  5
47E
330
1F
100
AcDbEntity
  8
외형선
  6
Continuous
 62
     1
370
    15
100
AcDbSpline
210
0.0
220
0.0
230
1.0
 70
     8
 71
     3
 72
    10
 73
     6
 74
     0
 42
0.000000001
 43
0.00000001
 40
0.0
 40
0.0
 40
0.0
 40
0.0
 40
0.5
 40
0.5
 40
1.0
 40
1.0
 40
1.0
 40
1.0
 10
15.5582161995647
 20
-3.3912286810925
 30
0.0
 10
15.65103556336348
 20
-3.380338494821771
 30
0.0
 10
15.76379358517465
 20
-3.394782934524116
 30
0.0
 10
15.98878472661065
 20
-3.468205636768715
 30
0.0
 10
16.09603822828623
 20
-3.525110189614168
 30
0.0
 10
16.18450608179725
 20
-3.594031745486632
 30
0.0
  0
SPLINE
  5
47F
330
1F
100
AcDbEntity
  8
외형선
  6
Continuous
 62
     1
370
    15
100
AcDbSpline
210
0.0
220
0.0
230
1.0
 70
     8
 71
     3
 72
     8
 73
     4
 74
     0
 42
0.000000001
 43
0.00000001
 40
0.0
 40
0.0
 40
0.0
 40
0.0
 40
1.0
 40
1.0
 40
1.0
 40
1.0
 10
15.4019529164357
 20
-3.370055116114003
 30
0.0
 10
15.45712638797579
 20
-3.388216070002116
 30
0.0
 10
15.51264148821716
 20
-3.396575809920051
 30
0.0
 10
15.55821619956487
 20
-3.39122868109402
 30
0.0
  0
SPLINE
  5
480
330
1F
100
AcDbEntity
  8
외형선
  6
Continuous
 62
     1
370
    15
100
AcDbSpline
210
0.0
220
0.0
230
1.0
 70
     8
 71
     3
 72
     8
 73
     4
 74
     0
 42
0.000000001
 43
0.00000001
 40
0.0
 40
0.0
 40
0.0
 40
0.0
 40
1.0
 40
1.0
 40
1.0
 40
1.0
 10
15.40195291643263
 20
-3.370055116113065
 30
0.0
 10
15.03852265238822
 20
-3.25042805472053
 30
0.0
 10
14.67508678944355
 20
-3.129398868814832
 30
0.0
 10
14.31232383222303
 20
-3.007196078793697
 30
0.0
  0
SPLINE
  5
481
330
1F
100
AcDbEntity
  8
외형선
  6
Continuous
 62
     1
370
    15
100
AcDbSpline
210
0.0
220
0.0
230
1.0
 70
     8
 71
     3
 72
     8
 73
     4
 74
     0
 42
0.000000001
 43
0.00000001
 40
0.0
 40
0.0
 40
0.0
 40
0.0
 40
1.0
 40
1.0
 40
1.0
 40
1.0
 10
14.15538134842072
 20
-2.926997593338015
 30
0.0
 10
14.20023402224072
 20
-2.95985427520371
 30
0.0
 10
14.25540720626884
 20
-2.988022758168796
 30
0.0
 10
14.31232383221894
 20
-3.007196078794237
 30
0.0
  0
SPLINE
  5
482
330
1F
100
AcDbEntity
  8
외형선
  6
Continuous
 62
     1
370
    15
100
AcDbSpline
210
0.0
220
0.0
230
1.0
 70
     8
 71
     3
 72
    10
 73
     6
 74
     0
 42
0.000000001
 43
0.00000001
 40
0.0
 40
0.0
 40
0.0
 40
0.0
 40
0.5
 40
0.5
 40
1.0
 40
1.0
 40
1.0
 40
1.0
 10
13.52886397171304
 20
-2.715206540853472
 30
0.0
 10
13.6217257815787
 20
-2.711414673183185
 30
0.0
 10
13.73450749537494
 20
-2.730260365058001
 30
0.0
 10
13.95956343063332
 20
-2.806654625792277
 30
0.0
 10
14.06685969673924
 20
-2.862151342271687
 30
0.0
 10
14.15538134842038
 20
-2.926997593337944
 30
0.0
  0
SPLINE
  5
483
330
1F
100
AcDbEntity
  8
외형선
  6
Continuous
 62
     1
370
    15
100
AcDbSpline
210
0.0
220
0.0
230
1.0
 70
     8
 71
     3
 72
     8
 73
     4
 74
     0
 42
0.000000001
 43
0.00000001
 40
0.0
 40
0.0
 40
0.0
 40
0.0
 40
1.0
 40
1.0
 40
1.0
 40
1.0
 10
13.37255287246509
 20
-2.68754130673338
 30
0.0
 10
13.42773811514817
 20
-2.706469201016134
 30
0.0
 10
13.48326888203363
 20
-2.717068345473081
 30
0.0
 10
13.52886397171383
 20
-2.715206540854808
 30
0.0
  0
SPLINE
  5
484
330
1F
100
AcDbEntity
  8
외형선
  6
Continuous
 62
     1
370
    15
100
AcDbSpline
210
0.0
220
0.0
230
1.0
 70
     8
 71
     3
 72
     8
 73
     4
 74
     0
 42
0.000000001
 43
0.00000001
 40
0.0
 40
0.0
 40
0.0
 40
0.0
 40
0.3422370651780807
 40
0.3422370651780807
 40
0.3422370651780807
 40
0.3422370651780807
 10
13.37255287246344
 20
-2.687541306733124
 30
0.0
 10
13.24847540565934
 20
-2.644984183479792
 30
0.0
 10
13.12428204511568
 20
-2.602282847259886
 30
0.0
 10
13.00000000000001
 20
-2.559446569534559
 30
0.0
  0
SPLINE
  5
4A7
330
1F
100
AcDbEntity
  8
외형선
  6
Continuous
 62
     1
370
    15
100
AcDbSpline
210
0.0
220
0.0
230
1.0
 70
     8
 71
     3
 72
     8
 73
     4
 74
     0
 42
0.000000001
 43
0.00000001
 40
0.0
 40
0.0
 40
0.0
 40
0.0
 40
0.0083032811912637
 40
0.0083032811912637
 40
0.0083032811912637
 40
0.0083032811912637
 10
13.00903357183105
 20
5.668563288758776
 30
0.0
 10
13.00602243359315
 20
5.669330786659305
 30
0.0
 10
13.00301124285337
 20
5.670098126675223
 30
0.0
 10
13.0
 20
5.670865308706907
 30
0.0
  0
SPLINE
  5
4A8
330
1F
100
AcDbEntity
  8
외형선
  6
Continuous
 62
     1
370
    15
100
AcDbSpline
210
0.0
220
0.0
230
1.0
 70
     8
 71
     3
 72
     8
 73
     4
 74
     0
 42
0.000000001
 43
0.00000001
 40
0.0
 40
0.0
 40
0.0
 40
0.0
 40
1.0
 40
1.0
 40
1.0
 40
1.0
 10
13.16592287690059
 20
5.584983459364636
 30
0.0
 10
13.12108987757014
 20
5.624670504468298
 30
0.0
 10
13.06593388100222
 20
5.654060179199774
 30
0.0
 10
13.00903354015793
 20
5.668563296831863
 30
0.0
  0
SPLINE
  5
4A9
330
1F
100
AcDbEntity
  8
외형선
  6
Continuous
 62
     1
370
    15
100
AcDbSpline
210
0.0
220
0.0
230
1.0
 70
     8
 71
     3
 72
    10
 73
     6
 74
     0
 42
0.000000001
 43
0.00000001
 40
0.0
 40
0.0
 40
0.0
 40
0.0
 40
0.5
 40
0.5
 40
1.0
 40
1.0
 40
1.0
 40
1.0
 10
13.79217620370852
 20
5.4226253048746
 30
0.0
 10
13.69935381021824
 20
5.389258754355893
 30
0.0
 10
13.58661049365341
 20
5.388731738564701
 30
0.0
 10
13.36164624493367
 20
5.448423326101391
 30
0.0
 10
13.25439748449483
 20
5.506664011757721
 30
0.0
 10
13.16592287690065
 20
5.584983459364594
 30
0.0
  0
SPLINE
  5
4AA
330
1F
100
AcDbEntity
  8
외형선
  6
Continuous
 62
     1
370
    15
100
AcDbSpline
210
0.0
220
0.0
230
1.0
 70
     8
 71
     3
 72
     8
 73
     4
 74
     0
 42
0.000000001
 43
0.00000001
 40
0.0
 40
0.0
 40
0.0
 40
0.0
 40
1.0
 40
1.0
 40
1.0
 40
1.0
 10
13.94842540926749
 20
5.423686953139665
 30
0.0
 10
13.89325863222004
 20
5.438362895589705
 30
0.0
 10
13.83774976280461
 20
5.439007477373153
 30
0.0
 10
13.79217620370886
 20
5.422625304874714
 30
0.0
  0
SPLINE
  5
4AB
330
1F
100
AcDbEntity
  8
외형선
  6
Continuous
 62
     1
370
    15
100
AcDbSpline
210
0.0
220
0.0
230
1.0
 70
     8
 71
     3
 72
     8
 73
     4
 74
     0
 42
0.000000001
 43
0.00000001
 40
0.0
 40
0.0
 40
0.0
 40
0.0
 40
1.0
 40
1.0
 40
1.0
 40
1.0
 10
15.03791988119121
 20
5.127564992944642
 30
0.0
 10
14.67430716721154
 20
5.228487392113664
 30
0.0
 10
14.31091632141246
 20
5.327253990216775
 30
0.0
 10
13.94842540927252
 20
5.423686953138983
 30
0.0
  0
SPLINE
  5
4AC
330
1F
100
AcDbEntity
  8
외형선
  6
Continuous
 62
     1
370
    15
100
AcDbSpline
210
0.0
220
0.0
230
1.0
 70
     8
 71
     3
 72
     8
 73
     4
 74
     0
 42
0.000000001
 43
0.00000001
 40
0.0
 40
0.0
 40
0.0
 40
0.0
 40
1.0
 40
1.0
 40
1.0
 40
1.0
 10
15.19483838331197
 20
5.043604298303862
 30
0.0
 10
15.14999431698871
 20
5.082254318145857
 30
0.0
 10
15.09482794540818
 20
5.111769895160108
 30
0.0
 10
15.03791988115867
 20
5.127564992953694
 30
0.0
  0
SPLINE
  5
4AD
330
1F
100
AcDbEntity
  8
외형선
  6
Continuous
 62
     1
370
    15
100
AcDbSpline
210
0.0
220
0.0
230
1.0
 70
     8
 71
     3
 72
    10
 73
     6
 74
     0
 42
0.000000001
 43
0.00000001
 40
0.0
 40
0.0
 40
0.0
 40
0.0
 40
0.5
 40
0.5
 40
1.0
 40
1.0
 40
1.0
 40
1.0
 10
15.82126526928005
 20
4.867674898866511
 30
0.0
 10
15.72842674453022
 20
4.840688256954635
 30
0.0
 10
15.61565053972478
 20
4.844596076527992
 30
0.0
 10
15.39061468120332
 20
4.908930361995914
 30
0.0
 10
15.28333553034668
 20
4.967330740411114
 30
0.0
 10
15.194838383312
 20
5.043604298303848
 30
0.0
  0
SPLINE
  5
4AE
330
1F
100
AcDbEntity
  8
외형선
  6
Continuous
 62
     1
370
    15
100
AcDbSpline
210
0.0
220
0.0
230
1.0
 70
     8
 71
     3
 72
     8
 73
     4
 74
     0
 42
0.000000001
 43
0.00000001
 40
0.0
 40
0.0
 40
0.0
 40
0.0
 40
1.0
 40
1.0
 40
1.0
 40
1.0
 10
15.97755696057945
 20
4.862106660634964
 30
0.0
 10
15.92237573274957
 20
4.877969585420956
 30
0.0
 10
15.8668502217194
 20
4.880925699558929
 30
0.0
 10
15.82126526928042
 20
4.867674898866568
 30
0.0
  0
SPLINE
  5
4AF
330
1F
100
AcDbEntity
  8
외형선
  6
Continuous
 62
     1
370
    15
100
AcDbSpline
210
0.0
220
0.0
230
1.0
 70
     8
 71
     3
 72
     8
 73
     4
 74
     0
 42
0.000000001
 43
0.00000001
 40
0.0
 40
0.0
 40
0.0
 40
0.0
 40
1.0
 40
1.0
 40
1.0
 40
1.0
 10
17.06740257186871
 20
4.542525244037876
 30
0.0
 10
16.70493959950559
 20
4.650907604893817
 30
0.0
 10
16.34143154528817
 20
4.757503783967508
 30
0.0
 10
15.97755696066724
 20
4.862106660610451
 30
0.0
  0
SPLINE
  5
4B0
330
1F
100
AcDbEntity
  8
외형선
  6
Continuous
 62
     1
370
    15
100
AcDbSpline
210
0.0
220
0.0
230
1.0
 70
     8
 71
     3
 72
     8
 73
     4
 74
     0
 42
0.000000001
 43
0.00000001
 40
0.0
 40
0.0
 40
0.0
 40
0.0
 40
1.0
 40
1.0
 40
1.0
 40
1.0
 10
17.22437763841813
 20
4.458686119089151
 30
0.0
 10
17.17951151932536
 20
4.496037180274101
 30
0.0
 10
17.1243292151805
 20
4.525503246017934
 30
0.0
 10
17.06740257173638
 20
4.542525244077467
 30
0.0
  0
SPLINE
  5
4B1
330
1F
100
AcDbEntity
  8
외형선
  6
Continuous
 62
     1
370
    15
100
AcDbSpline
210
0.0
220
0.0
230
1.0
 70
     8
 71
     3
 72
    10
 73
     6
 74
     0
 42
0.000000001
 43
0.00000001
 40
0.0
 40
0.0
 40
0.0
 40
0.0
 40
0.5
 40
0.5
 40
1.0
 40
1.0
 40
1.0
 40
1.0
 10
17.85098188817798
 20
4.269825631058666
 30
0.0
 10
17.75809893637214
 20
4.249548470596707
 30
0.0
 10
17.64527666699971
 20
4.258034002661759
 30
0.0
 10
17.42019524348032
 20
4.326785956473344
 30
0.0
 10
17.31290175805458
 20
4.384989755870208
 30
0.0
 10
17.22437763841816
 20
4.458686119089151
 30
0.0
  0
SPLINE
  5
4B2
330
1F
100
AcDbEntity
  8
외형선
  6
Continuous
 62
     1
370
    15
100
AcDbSpline
210
0.0
220
0.0
230
1.0
 70
     8
 71
     3
 72
     8
 73
     4
 74
     0
 42
0.000000001
 43
0.00000001
 40
0.0
 40
0.0
 40
0.0
 40
0.0
 40
1.0
 40
1.0
 40
1.0
 40
1.0
 10
18.00730608869983
 20
4.257533386352435
 30
0.0
 10
17.95211473937107
 20
4.274485337588686
 30
0.0
 10
17.89657868022161
 20
4.279779809417946
 30
0.0
 10
17.85098188817832
 20
4.269825631058751
 30
0.0
  0
SPLINE
  5
4B3
330
1F
100
AcDbEntity
  8
외형선
  6
Continuous
 62
     1
370
    15
100
AcDbSpline
210
0.0
220
0.0
230
1.0
 70
     8
 71
     3
 72
     8
 73
     4
 74
     0
 42
0.000000001
 43
0.00000001
 40
0.0
 40
0.0
 40
0.0
 40
0.0
 40
1.0
 40
1.0
 40
1.0
 40
1.0
 10
19.0973372373351
 20
3.917802917512915
 30
0.0
 10
18.73382856253642
 20
4.032739827332762
 30
0.0
 10
18.37025841719245
 20
4.146053050235409
 30
0.0
 10
18.00730608873155
 20
4.257533386343439
 30
0.0
  0
SPLINE
  5
4B4
330
1F
100
AcDbEntity
  8
외형선
  6
Continuous
 62
     1
370
    15
100
AcDbSpline
210
0.0
220
0.0
230
1.0
 70
     8
 71
     3
 72
     8
 73
     4
 74
     0
 42
0.000000001
 43
0.00000001
 40
0.0
 40
0.0
 40
0.0
 40
0.0
 40
1.0
 40
1.0
 40
1.0
 40
1.0
 10
19.25433108999292
 20
3.835115724979858
 30
0.0
 10
19.20946024668032
 20
3.870750062100825
 30
0.0
 10
19.15426908642397
 20
3.899801776801823
 30
0.0
 10
19.09733723733729
 20
3.917802917512233
 30
0.0
  0
SPLINE
  5
4B5
330
1F
100
AcDbEntity
  8
외형선
  6
Continuous
 62
     1
370
    15
100
AcDbSpline
210
0.0
220
0.0
230
1.0
 70
     8
 71
     3
 72
    10
 73
     6
 74
     0
 42
0.000000001
 43
0.00000001
 40
0.0
 40
0.0
 40
0.0
 40
0.0
 40
0.5
 40
0.5
 40
1.0
 40
1.0
 40
1.0
 40
1.0
 10
19.8809931870195
 20
3.635769283534202
 30
0.0
 10
19.78811695021471
 20
3.622327877758096
 30
0.0
 10
19.67530360335755
 20
3.635193751737532
 30
0.0
 10
19.45019470510451
 20
3.707464436856824
 30
0.0
 10
19.34287660596274
 20
3.764796993846659
 30
0.0
 10
19.25433108999297
 20
3.835115724979843
 30
0.0
  0
SPLINE
  5
4B6
330
1F
100
AcDbEntity
  8
외형선
  6
Continuous
 62
     1
370
    15
100
AcDbSpline
210
0.0
220
0.0
230
1.0
 70
     8
 71
     3
 72
     8
 73
     4
 74
     0
 42
0.000000001
 43
0.00000001
 40
0.0
 40
0.0
 40
0.0
 40
0.0
 40
1.0
 40
1.0
 40
1.0
 40
1.0
 10
20.03732979538813
 20
3.616926439911779
 30
0.0
 10
19.98213627399494
 20
3.634808292828694
 30
0.0
 10
19.92659465832227
 20
3.642368903639962
 30
0.0
 10
19.88099318701981
 20
3.635769283534287
 30
0.0
  0
SPLINE
  5
4B7
330
1F
100
AcDbEntity
  8
외형선
  6
Continuous
 62
     1
370
    15
100
AcDbSpline
210
0.0
220
0.0
230
1.0
 70
     8
 71
     3
 72
     8
 73
     4
 74
     0
 42
0.000000001
 43
0.00000001
 40
0.0
 40
0.0
 40
0.0
 40
0.0
 40
1.0
 40
1.0
 40
1.0
 40
1.0
 10
21.12745696558562
 20
3.258922475323587
 30
0.0
 10
20.76403769323483
 20
3.379672630264494
 30
0.0
 10
20.40138153501678
 20
3.498979270041929
 30
0.0
 10
20.03732968222207
 20
3.61692647657668
 30
0.0
  0
SPLINE
  5
4B8
330
1F
100
AcDbEntity
  8
외형선
  6
Continuous
 62
     1
370
    15
100
AcDbSpline
210
0.0
220
0.0
230
1.0
 70
     8
 71
     3
 72
     8
 73
     4
 74
     0
 42
0.000000001
 43
0.00000001
 40
0.0
 40
0.0
 40
0.0
 40
0.0
 40
1.0
 40
1.0
 40
1.0
 40
1.0
 10
21.28445864954799
 20
3.177852908070349
 30
0.0
 10
21.23958262268584
 20
3.211532607165424
 30
0.0
 10
21.18438892652048
 20
3.240006188708719
 30
0.0
 10
21.12745707373361
 20
3.258922439390233
 30
0.0
  0
SPLINE
  5
4B9
330
1F
100
AcDbEntity
  8
외형선
  6
Continuous
 62
     1
370
    15
100
AcDbSpline
210
0.0
220
0.0
230
1.0
 70
     8
 71
     3
 72
    10
 73
     6
 74
     0
 42
0.000000001
 43
0.00000001
 40
0.0
 40
0.0
 40
0.0
 40
0.0
 40
0.5
 40
0.5
 40
1.0
 40
1.0
 40
1.0
 40
1.0
 10
21.91112166126953
 20
2.969242535647652
 30
0.0
 10
21.81823688607682
 20
2.962764176124921
 30
0.0
 10
21.70540836608305
 20
2.97995993172043
 30
0.0
 10
21.48030545880047
 20
3.055314981991458
 30
0.0
 10
21.3729976099826
 20
3.111403942907117
 30
0.0
 10
21.28445864954801
 20
3.177852908070363
 30
0.0
  0
SPLINE
  5
4BA
330
1F
100
AcDbEntity
  8
외형선
  6
Continuous
 62
     1
370
    15
100
AcDbSpline
210
0.0
220
0.0
230
1.0
 70
     8
 71
     3
 72
     8
 73
     4
 74
     0
 42
0.000000001
 43
0.00000001
 40
0.0
 40
0.0
 40
0.0
 40
0.0
 40
1.0
 40
1.0
 40
1.0
 40
1.0
 10
22.06745237555791
 20
2.944027281907978
 30
0.0
 10
22.01225822231598
 20
2.962667800099069
 30
0.0
 10
21.95671951755102
 20
2.972422812564261
 30
0.0
 10
21.91112166126987
 20
2.969242535647666
 30
0.0
  0
SPLINE
  5
4BB
330
1F
100
AcDbEntity
  8
외형선
  6
Continuous
 62
     1
370
    15
100
AcDbSpline
210
0.0
220
0.0
230
1.0
 70
     8
 71
     3
 72
     8
 73
     4
 74
     0
 42
0.000000001
 43
0.00000001
 40
0.0
 40
0.0
 40
0.0
 40
0.0
 40
1.0
 40
1.0
 40
1.0
 40
1.0
 10
23.15746267743305
 20
2.572459086091399
 30
0.0
 10
22.79424418305993
 20
2.6974221580071
 30
0.0
 10
22.43068096765703
 20
2.821355426681976
 30
0.0
 10
22.06745235072563
 20
2.944027290295381
 30
0.0
  0
SPLINE
  5
4BC
330
1F
100
AcDbEntity
  8
외형선
  6
Continuous
 62
     1
370
    15
100
AcDbSpline
210
0.0
220
0.0
230
1.0
 70
     8
 71
     3
 72
     8
 73
     4
 74
     0
 42
0.000000001
 43
0.00000001
 40
0.0
 40
0.0
 40
0.0
 40
0.0
 40
1.0
 40
1.0
 40
1.0
 40
1.0
 10
23.31444007343063
 20
2.493906252576068
 30
0.0
 10
23.26957546610356
 20
2.52528899128626
 30
0.0
 10
23.21438988579092
 20
2.552873632850748
 30
0.0
 10
23.15746272404616
 20
2.572459070054464
 30
0.0
  0
SPLINE
  5
4BD
330
1F
100
AcDbEntity
  8
외형선
  6
Continuous
 62
     1
370
    15
100
AcDbSpline
210
0.0
220
0.0
230
1.0
 70
     8
 71
     3
 72
    10
 73
     6
 74
     0
 42
0.000000001
 43
0.00000001
 40
0.0
 40
0.0
 40
0.0
 40
0.0
 40
0.5
 40
0.5
 40
1.0
 40
1.0
 40
1.0
 40
1.0
 10
23.94101598611138
 20
2.278016215586945
 30
0.0
 10
23.84815298808937
 20
2.278599508064104
 30
0.0
 10
23.7353568803251
 20
2.299976556617111
 30
0.0
 10
23.51027703544136
 20
2.377689554421323
 30
0.0
 10
23.40297309361594
 20
2.431977511743838
 30
0.0
 10
23.31444007343069
 20
2.493906252576068
 30
0.0
  0
SPLINE
  5
4BE
330
1F
100
AcDbEntity
  8
외형선
  6
Continuous
 62
     1
370
    15
100
AcDbSpline
210
0.0
220
0.0
230
1.0
 70
     8
 71
     3
 72
     8
 73
     4
 74
     0
 42
0.000000001
 43
0.00000001
 40
0.0
 40
0.0
 40
0.0
 40
0.0
 40
1.0
 40
1.0
 40
1.0
 40
1.0
 10
24.09732868290561
 20
2.246538497345441
 30
0.0
 10
24.04214475592872
 20
2.26582575707971
 30
0.0
 10
23.98661170559021
 20
2.277729819059445
 30
0.0
 10
23.94101598611169
 20
2.278016215586959
 30
0.0
  0
SPLINE
  5
4BF
330
1F
100
AcDbEntity
  8
외형선
  6
Continuous
 62
     1
370
    15
100
AcDbSpline
210
0.0
220
0.0
230
1.0
 70
     8
 71
     3
 72
     8
 73
     4
 74
     0
 42
0.000000001
 43
0.00000001
 40
0.0
 40
0.0
 40
0.0
 40
0.0
 40
1.0
 40
1.0
 40
1.0
 40
1.0
 10
25.18715438585414
 20
1.862977912911859
 30
0.0
 10
24.8231938180331
 20
1.991743156109266
 30
0.0
 10
24.460610022879
 20
2.119568528613542
 30
0.0
 10
24.09732801573091
 20
2.24653873052965
 30
0.0
  0
SPLINE
  5
4C0
330
1F
100
AcDbEntity
  8
외형선
  6
Continuous
 62
     1
370
    15
100
AcDbSpline
210
0.0
220
0.0
230
1.0
 70
     8
 71
     3
 72
     8
 73
     4
 74
     0
 42
0.000000001
 43
0.00000001
 40
0.0
 40
0.0
 40
0.0
 40
0.0
 40
1.0
 40
1.0
 40
1.0
 40
1.0
 10
25.34408941309877
 20
1.787518117048961
 30
0.0
 10
25.29923882132201
 20
1.816353128245055
 30
0.0
 10
25.24406660054601
 20
1.842842997721291
 30
0.0
 10
25.18715438586631
 20
1.862977912907581
 30
0.0
  0
SPLINE
  5
4C1
330
1F
100
AcDbEntity
  8
외형선
  6
Continuous
 62
     1
370
    15
100
AcDbSpline
210
0.0
220
0.0
230
1.0
 70
     8
 71
     3
 72
    10
 73
     6
 74
     0
 42
0.000000001
 43
0.00000001
 40
0.0
 40
0.0
 40
0.0
 40
0.0
 40
0.5
 40
0.5
 40
1.0
 40
1.0
 40
1.0
 40
1.0
 10
25.97048987216695
 20
1.566423023530646
 30
0.0
 10
25.87765413246186
 20
1.573960903576477
 30
0.0
 10
25.76487370370947
 20
1.599259993552437
 30
0.0
 10
25.53985137052476
 20
1.678595887027427
 30
0.0
 10
25.43258228755519
 20
1.730624931816862
 30
0.0
 10
25.34408941309883
 20
1.787518117048975
 30
0.0
  0
SPLINE
  5
4C2
330
1F
100
AcDbEntity
  8
외형선
  6
Continuous
 62
     1
370
    15
100
AcDbSpline
210
0.0
220
0.0
230
1.0
 70
     8
 71
     3
 72
     8
 73
     4
 74
     0
 42
0.000000001
 43
0.00000001
 40
0.0
 40
0.0
 40
0.0
 40
0.0
 40
1.0
 40
1.0
 40
1.0
 40
1.0
 10
26.1267585214494
 20
1.529165396668532
 30
0.0
 10
26.07158336322826
 20
1.548849024982346
 30
0.0
 10
26.01606659666007
 20
1.562722381049554
 30
0.0
 10
25.97048987216729
 20
1.566423023530604
 30
0.0
  0
SPLINE
  5
4C3
330
1F
100
AcDbEntity
  8
외형선
  6
Continuous
 62
     1
370
    15
100
AcDbSpline
210
0.0
220
0.0
230
1.0
 70
     8
 71
     3
 72
     8
 73
     4
 74
     0
 42
0.000000001
 43
0.00000001
 40
0.0
 40
0.0
 40
0.0
 40
0.0
 40
1.0
 40
1.0
 40
1.0
 40
1.0
 10
27.21619114248927
 20
1.138645006083294
 30
0.0
 10
26.85344725709732
 20
1.269297427332873
 30
0.0
 10
26.49007699539308
 20
1.399552251345625
 30
0.0
 10
26.12675852142999
 20
1.52916539667639
 30
0.0
  0
SPLINE
  5
4C4
330
1F
100
AcDbEntity
  8
외형선
  6
Continuous
 62
     1
370
    15
100
AcDbSpline
210
0.0
220
0.0
230
1.0
 70
     8
 71
     3
 72
     8
 73
     4
 74
     0
 42
0.000000001
 43
0.00000001
 40
0.0
 40
0.0
 40
0.0
 40
0.0
 40
1.0
 40
1.0
 40
1.0
 40
1.0
 10
27.37306274989839
 20
1.066944395717286
 30
0.0
 10
27.32823611436621
 20
1.092988237492222
 30
0.0
 10
27.27308625415984
 20
1.11815262997375
 30
0.0
 10
27.21619166152956
 20
1.138644819136331
 30
0.0
  0
SPLINE
  5
4C5
330
1F
100
AcDbEntity
  8
외형선
  6
Continuous
 62
     1
370
    15
100
AcDbSpline
210
0.0
220
0.0
230
1.0
 70
     8
 71
     3
 72
    10
 73
     6
 74
     0
 42
0.000000001
 43
0.00000001
 40
0.0
 40
0.0
 40
0.0
 40
0.0
 40
0.5
 40
0.5
 40
1.0
 40
1.0
 40
1.0
 40
1.0
 10
27.99934033577588
 20
0.8419362156813435
 30
0.0
 10
27.90652061457925
 20
0.8565299383770224
 30
0.0
 10
27.79377885341046
 20
0.8856837345807094
 30
0.0
 10
27.56879643426254
 20
0.9661653207996324
 30
0.0
 10
27.46153781413199
 20
1.015541238942959
 30
0.0
 10
27.37306274989845
 20
1.066944395717272
 30
0.0
  0
SPLINE
  5
4C6
330
1F
100
AcDbEntity
  8
외형선
  6
Continuous
 62
     1
370
    15
100
AcDbSpline
210
0.0
220
0.0
230
1.0
 70
     8
 71
     3
 72
     8
 73
     4
 74
     0
 42
0.000000001
 43
0.00000001
 40
0.0
 40
0.0
 40
0.0
 40
0.0
 40
1.0
 40
1.0
 40
1.0
 40
1.0
 10
28.15560460007308
 20
0.7989210545604948
 30
0.0
 10
28.10043414205185
 20
0.8189347044751827
 30
0.0
 10
28.04492038301922
 20
0.8347698230079601
 30
0.0
 10
27.99934033577625
 20
0.8419362156812724
 30
0.0
  0
SPLINE
  5
4C7
330
1F
100
AcDbEntity
  8
외형선
  6
Continuous
 62
     1
370
    15
100
AcDbSpline
210
0.0
220
0.0
230
1.0
 70
     8
 71
     3
 72
     8
 73
     4
 74
     0
 42
0.000000001
 43
0.00000001
 40
0.0
 40
0.0
 40
0.0
 40
0.0
 40
1.0
 40
1.0
 40
1.0
 40
1.0
 10
29.24520463314681
 20
0.4034120599450119
 30
0.0
 10
28.88142106645046
 20
0.5355419354501123
 30
0.0
 10
28.51799502061391
 20
0.6674602099467961
 30
0.0
 10
28.15560460007083
 20
0.7989210545622285
 30
0.0
  0
SPLINE
  5
4C8
330
1F
100
AcDbEntity
  8
외형선
  6
Continuous
 62
     1
370
    15
100
AcDbSpline
210
0.0
220
0.0
230
1.0
 70
     8
 71
     3
 72
     8
 73
     4
 74
     0
 42
0.000000001
 43
0.00000001
 40
0.0
 40
0.0
 40
0.0
 40
0.0
 40
1.0
 40
1.0
 40
1.0
 40
1.0
 10
29.40213792181297
 20
0.3361240701080135
 30
0.0
 10
29.35728824965631
 20
0.3591356104073924
 30
0.0
 10
29.30211696793961
 20
0.3827409235899211
 30
0.0
 10
29.24520463316503
 20
0.4034120599384181
 30
0.0
  0
SPLINE
  5
4C9
330
1F
100
AcDbEntity
  8
외형선
  6
Continuous
 62
     1
370
    15
100
AcDbSpline
210
0.0
220
0.0
230
1.0
 70
     8
 71
     3
 72
    10
 73
     6
 74
     0
 42
0.000000001
 43
0.00000001
 40
0.0
 40
0.0
 40
0.0
 40
0.0
 40
0.5
 40
0.5
 40
1.0
 40
1.0
 40
1.0
 40
1.0
 10
30.02861120525921
 20
0.1099846067916843
 30
0.0
 10
29.93576440711271
 20
0.1312995381869939
 30
0.0
 10
29.82297826715813
 20
0.163865509508156
 30
0.0
 10
29.59792848728463
 20
0.2445108180972113
 30
0.0
 10
29.49064301959848
 20
0.2907137353952294
 30
0.0
 10
29.40213792181299
 20
0.3361240701080135
 30
0.0
  0
SPLINE
  5
4CA
330
1F
100
AcDbEntity
  8
외형선
  6
Continuous
 62
     1
370
    15
100
AcDbSpline
210
0.0
220
0.0
230
1.0
 70
     8
 71
     3
 72
     8
 73
     4
 74
     0
 42
0.000000001
 43
0.00000001
 40
0.0
 40
0.0
 40
0.0
 40
0.0
 40
1.0
 40
1.0
 40
1.0
 40
1.0
 10
30.18491163364052
 20
0.0619193736424677
 30
0.0
 10
30.12972721945508
 20
0.0819842370704293
 30
0.0
 10
30.07419868259009
 20
0.0995190444761818
 30
0.0
 10
30.02861120525952
 20
0.109984606791599
 30
0.0
  0
SPLINE
  5
4CB
330
1F
100
AcDbEntity
  8
외형선
  6
Continuous
 62
     1
370
    15
100
AcDbSpline
210
0.0
220
0.0
230
1.0
 70
     8
 71
     3
 72
     8
 73
     4
 74
     0
 42
0.000000001
 43
0.00000001
 40
0.0
 40
0.0
 40
0.0
 40
0.0
 40
1.0
 40
1.0
 40
1.0
 40
1.0
 10
31.27481359886525
 20
-0.3346098845293
 30
0.0
 10
30.91219639240884
 20
-0.2026005516817975
 30
0.0
 10
30.54866946490944
 20
-0.0703417242238942
 30
0.0
 10
30.18491163362356
 20
0.0619193736495731
 30
0.0
  0
SPLINE
  5
4CC
330
1F
100
AcDbEntity
  8
외형선
  6
Continuous
 62
     1
370
    15
100
AcDbSpline
210
0.0
220
0.0
230
1.0
 70
     8
 71
     3
 72
     8
 73
     4
 74
     0
 42
0.000000001
 43
0.00000001
 40
0.0
 40
0.0
 40
0.0
 40
0.0
 40
1.0
 40
1.0
 40
1.0
 40
1.0
 10
31.43179565906559
 20
-0.3970844559856488
 30
0.0
 10
31.38692823667063
 20
-0.3772428189165282
 30
0.0
 10
31.33174252686646
 20
-0.3553346313735801
 30
0.0
 10
31.27481359888569
 20
-0.3346098845367322
 30
0.0
  0
SPLINE
  5
4CD
330
1F
100
AcDbEntity
  8
외형선
  6
Continuous
 62
     1
370
    15
100
AcDbSpline
210
0.0
220
0.0
230
1.0
 70
     8
 71
     3
 72
    10
 73
     6
 74
     0
 42
0.000000001
 43
0.00000001
 40
0.0
 40
0.0
 40
0.0
 40
0.0
 40
0.5
 40
0.5
 40
1.0
 40
1.0
 40
1.0
 40
1.0
 10
32.05843108646556
 20
-0.6235169202529534
 30
0.0
 10
31.96554127614138
 20
-0.5954786879012772
 30
0.0
 10
31.85271487808936
 20
-0.5595741387422208
 30
0.0
 10
31.62763078714704
 20
-0.4790591472025056
 30
0.0
 10
31.52033447443873
 20
-0.4362388122510339
 30
0.0
 10
31.43179565906561
 20
-0.3970844559856488
 30
0.0
  0
SPLINE
  5
4CE
330
1F
100
AcDbEntity
  8
외형선
  6
Continuous
 62
     1
370
    15
100
AcDbSpline
210
0.0
220
0.0
230
1.0
 70
     8
 71
     3
 72
     8
 73
     4
 74
     0
 42
0.000000001
 43
0.00000001
 40
0.0
 40
0.0
 40
0.0
 40
0.0
 40
1.0
 40
1.0
 40
1.0
 40
1.0
 10
32.21476139804585
 20
-0.6764861254392827
 30
0.0
 10
32.15956878448907
 20
-0.6564629036851954
 30
0.0
 10
32.10403076640694
 20
-0.6372809102632431
 30
0.0
 10
32.0584310864659
 20
-0.6235169202530528
 30
0.0
  0
SPLINE
  5
4CF
330
1F
100
AcDbEntity
  8
외형선
  6
Continuous
 62
     1
370
    15
100
AcDbSpline
210
0.0
220
0.0
230
1.0
 70
     8
 71
     3
 72
     8
 73
     4
 74
     0
 42
0.000000001
 43
0.00000001
 40
0.0
 40
0.0
 40
0.0
 40
0.0
 40
1.0
 40
1.0
 40
1.0
 40
1.0
 10
33.30482328528228
 20
-1.070557245112084
 30
0.0
 10
32.9410788225496
 20
-0.9395222722163936
 30
0.0
 10
32.57740793138507
 20
-0.8080501919653926
 30
0.0
 10
32.21449037758865
 20
-0.6763878023635925
 30
0.0
  0
SPLINE
  5
4D0
330
1F
100
AcDbEntity
  8
외형선
  6
Continuous
 62
     1
370
    15
100
AcDbSpline
210
0.0
220
0.0
230
1.0
 70
     8
 71
     3
 72
     8
 73
     4
 74
     0
 42
0.000000001
 43
0.00000001
 40
0.0
 40
0.0
 40
0.0
 40
0.0
 40
1.0
 40
1.0
 40
1.0
 40
1.0
 10
33.46182212759751
 20
-1.127394276996498
 30
0.0
 10
33.41695015521057
 20
-1.110987419266394
 30
0.0
 10
33.36175793520118
 20
-1.091067331091139
 30
0.0
 10
33.30482543428374
 20
-1.0705580192664
 30
0.0
  0
SPLINE
  5
4D1
330
1F
100
AcDbEntity
  8
외형선
  6
Continuous
 62
     1
370
    15
100
AcDbSpline
210
0.0
220
0.0
230
1.0
 70
     8
 71
     3
 72
    10
 73
     6
 74
     0
 42
0.000000001
 43
0.00000001
 40
0.0
 40
0.0
 40
0.0
 40
0.0
 40
0.4999999999999931
 40
0.4999999999999931
 40
1.0
 40
1.0
 40
1.0
 40
1.0
 10
34.08848842635189
 20
-1.350907755477238
 30
0.0
 10
33.99561179138053
 20
-1.316525301496782
 30
0.0
 10
33.88279578819009
 20
-1.277789666007237
 30
0.0
 10
33.65768570254292
 20
-1.198571679526864
 30
0.0
 10
33.55036758005303
 20
-1.159769779204339
 30
0.0
 10
33.46182212759757
 20
-1.127394276996498
 30
0.0
  0
SPLINE
  5
4D3
330
1F
100
AcDbEntity
  8
외형선
  6
Continuous
 62
     1
370
    15
100
AcDbSpline
210
0.0
220
0.0
230
1.0
 70
     8
 71
     3
 72
    12
 73
     8
 74
     0
 42
0.000000001
 43
0.00000001
 40
0.0
 40
0.0
 40
0.0
 40
0.0
 40
0.5000000000000001
 40
0.5000000000000001
 40
0.7500000000000002
 40
0.7500000000000002
 40
1.0
 40
1.0
 40
1.0
 40
1.0
 10
33.30482528684175
 20
-1.070554433134461
 30
0.0
 10
33.28013922961452
 20
-0.470119764731237
 30
0.0
 10
33.25563127659564
 20
0.138190342017424
 30
0.0
 10
33.22050311408142
 20
1.027618528107098
 30
0.0
 10
33.20915811074613
 20
1.319536569821764
 30
0.0
 10
33.18557798836065
 20
1.903935905483664
 30
0.0
 10
33.17353421419105
 20
2.194786437636708
 30
0.0
 10
33.16134719088436
 20
2.481371018941331
 30
0.0
  0
SPLINE
  5
4D4
330
1F
100
AcDbEntity
  8
외형선
  6
Continuous
 62
     1
370
    15
100
AcDbSpline
210
0.0
220
0.0
230
1.0
 70
     8
 71
     3
 72
     8
 73
     4
 74
     0
 42
0.000000001
 43
0.00000001
 40
0.0
 40
0.0
 40
0.0
 40
0.0
 40
1.0
 40
1.0
 40
1.0
 40
1.0
 10
33.16134735499477
 20
2.481367159791589
 30
0.0
 10
33.21653658713271
 20
2.462307053280256
 30
0.0
 10
33.27207042509835
 20
2.439894162135005
 30
0.0
 10
33.31766280895638
 20
2.418591641691961
 30
0.0
  0
SPLINE
  5
4D5
330
1F
100
AcDbEntity
  8
외형선
  6
Continuous
 62
     1
370
    15
100
AcDbSpline
210
0.0
220
0.0
230
1.0
 70
     8
 71
     3
 72
    12
 73
     8
 74
     0
 42
0.000000001
 43
0.00000001
 40
0.0
 40
0.0
 40
0.0
 40
0.0
 40
0.5
 40
0.5
 40
0.75
 40
0.75
 40
1.0
 40
1.0
 40
1.0
 40
1.0
 10
33.46182212759496
 20
-1.127394276933671
 30
0.0
 10
33.43701632798067
 20
-0.52896281277566
 30
0.0
 10
33.41235460235706
 20
0.0782276008929017
 30
0.0
 10
33.37697094314507
 20
0.96697032765546
 30
0.0
 10
33.365586442606
 20
1.258409786414589
 30
0.0
 10
33.34196212492367
 20
1.841741291374035
 30
0.0
 10
33.32988789783681
 20
2.132224789530142
 30
0.0
 10
33.31766280895579
 20
2.418591641688849
 30
0.0
  0
SPLINE
  5
4D6
330
1F
100
AcDbEntity
  8
외형선
  6
Continuous
 62
     1
370
    15
100
AcDbSpline
210
0.0
220
0.0
230
1.0
 70
     8
 71
     3
 72
    12
 73
     8
 74
     0
 42
0.000000001
 43
0.00000001
 40
0.0
 40
0.0
 40
0.0
 40
0.0
 40
0.2499999999999999
 40
0.2499999999999999
 40
0.4999999999999999
 40
0.4999999999999999
 40
1.0
 40
1.0
 40
1.0
 40
1.0
 10
30.18491163364283
 20
0.0619193736503547
 30
0.0
 10
30.17286731409914
 20
0.3623150747158661
 30
0.0
 10
30.16101276609271
 20
0.6609977490450092
 30
0.0
 10
30.13789245393357
 20
1.249421611888806
 30
0.0
 10
30.12637267181438
 20
1.541329235883182
 30
0.0
 10
30.09066235070796
 20
2.41478979170239
 30
0.0
 10
30.06594092520027
 20
2.988656493011433
 30
0.0
 10
30.04124257992939
 20
3.531225473772054
 30
0.0
  0
SPLINE
  5
4D7
330
1F
100
AcDbEntity
  8
외형선
  6
Continuous
 62
     1
370
    15
100
AcDbSpline
210
0.0
220
0.0
230
1.0
 70
     8
 71
     3
 72
     8
 73
     4
 74
     0
 42
0.000000001
 43
0.00000001
 40
0.0
 40
0.0
 40
0.0
 40
0.0
 40
1.0
 40
1.0
 40
1.0
 40
1.0
 10
31.13133870085895
 20
3.171773987129015
 30
0.0
 10
30.76856683127846
 20
3.292894490864114
 30
0.0
 10
30.40497467958468
 20
3.41278712031891
 30
0.0
 10
30.0412415152081
 20
3.531223923193593
 30
0.0
  0
SPLINE
  5
4D8
330
1F
100
AcDbEntity
  8
외형선
  6
Continuous
 62
     1
370
    15
100
AcDbSpline
210
0.0
220
0.0
230
1.0
 70
     8
 71
     3
 72
    12
 73
     8
 74
     0
 42
0.000000001
 43
0.00000001
 40
0.0
 40
0.0
 40
0.0
 40
0.0
 40
0.2500000000000001
 40
0.2500000000000001
 40
0.5000000000000002
 40
0.5000000000000002
 40
1.0
 40
1.0
 40
1.0
 40
1.0
 10
31.27481359868116
 20
-0.3346098795553161
 30
0.0
 10
31.2626172148687
 20
-0.0330830872507164
 30
0.0
 10
31.25056051049251
 20
0.2680147469081078
 30
0.0
 10
31.22694819379009
 20
0.8636211548652426
 30
0.0
 10
31.2155924777652
 20
1.156475885692046
 30
0.0
 10
31.18051176421397
 20
2.034334687063506
 30
0.0
 10
31.15602270474622
 20
2.616293444709413
 30
0.0
 10
31.13134046151836
 20
3.171776474742003
 30
0.0
  0
SPLINE
  5
4D9
330
1F
100
AcDbEntity
  8
외형선
  6
Continuous
 62
     1
370
    15
100
AcDbSpline
210
0.0
220
0.0
230
1.0
 70
     8
 71
     3
 72
    10
 73
     6
 74
     0
 42
0.000000001
 43
0.00000001
 40
0.0
 40
0.0
 40
0.0
 40
0.0
 40
0.5
 40
0.5
 40
1.0
 40
1.0
 40
1.0
 40
1.0
 10
32.2147569512708
 20
-0.6763770169099246
 30
0.0
 10
32.19018436880106
 20
-0.073450183562926
 30
0.0
 10
32.16603974971522
 20
0.531758122378136
 30
0.0
 10
32.12013470560726
 20
1.70326514623585
 30
0.0
 10
32.09592977780738
 20
2.290112307419321
 30
0.0
 10
32.07134648140698
 20
2.854828203775867
 30
0.0
  0
SPLINE
  5
4DA
330
1F
100
AcDbEntity
  8
외형선
  6
Continuous
 62
     1
370
    15
100
AcDbSpline
210
0.0
220
0.0
230
1.0
 70
     8
 71
     3
 72
     8
 73
     4
 74
     0
 42
0.000000001
 43
0.00000001
 40
0.0
 40
0.0
 40
0.0
 40
0.0
 40
1.0
 40
1.0
 40
1.0
 40
1.0
 10
33.16134507493632
 20
2.481367947230012
 30
0.0
 10
32.79762194435901
 20
2.606983055671293
 30
0.0
 10
32.43406208422542
 20
2.731545501119044
 30
0.0
 10
32.0713445630474
 20
2.854825375010392
 30
0.0
  0
SPLINE
  5
4DB
330
1F
100
AcDbEntity
  8
외형선
  6
Continuous
 62
     1
370
    15
100
AcDbSpline
210
0.0
220
0.0
230
1.0
 70
     8
 71
     3
 72
     8
 73
     4
 74
     0
 42
0.000000001
 43
0.00000001
 40
0.0
 40
0.0
 40
0.0
 40
0.0
 40
1.0
 40
1.0
 40
1.0
 40
1.0
 10
34.67500068545527
 20
1.952863206414321
 30
0.0
 10
34.48390774957045
 20
2.020311858275647
 30
0.0
 10
34.2925981449323
 20
2.087560808764437
 30
0.0
 10
34.10117092463821
 20
2.154574756517761
 30
0.0
  0
LINE
  5
4DC
330
1F
100
AcDbEntity
  8
외형선
  6
Continuous
 62
     1
370
    15
100
AcDbLine
 10
34.67500186562538
 20
-1.561955898068845
 30
0.0
 11
34.67500186562538
 21
1.952863181941211
 31
0.0
  0
SPLINE
  5
4E2
330
1F
100
AcDbEntity
  8
외형선
  6
Continuous
 62
     1
370
    15
100
AcDbSpline
210
0.0
220
0.0
230
1.0
 70
     8
 71
     3
 72
    12
 73
     8
 74
     0
 42
0.000000001
 43
0.00000001
 40
0.0
 40
0.0
 40
0.0
 40
0.0
 40
0.2500000000000002
 40
0.2500000000000002
 40
0.5000000000000001
 40
0.5000000000000001
 40
1.0
 40
1.0
 40
1.0
 40
1.0
 10
28.15560460431257
 20
0.7989209471183472
 30
0.0
 10
28.14397215072808
 20
1.093906928251613
 30
0.0
 10
28.13263086295692
 20
1.384820958650664
 30
0.0
 10
28.1090495940995
 20
1.967021634040961
 30
0.0
 10
28.09701440750658
 20
2.256569273278373
 30
0.0
 10
28.0605062109673
 20
3.111880477970104
 30
0.0
 10
28.03563101111968
 20
3.66400054885554
 30
0.0
 10
28.01117690411348
 20
4.176641081957484
 30
0.0
  0
SPLINE
  5
4E3
330
1F
100
AcDbEntity
  8
외형선
  6
Continuous
 62
     1
370
    15
100
AcDbSpline
210
0.0
220
0.0
230
1.0
 70
     8
 71
     3
 72
     8
 73
     4
 74
     0
 42
0.000000001
 43
0.00000001
 40
0.0
 40
0.0
 40
0.0
 40
0.0
 40
1.0
 40
1.0
 40
1.0
 40
1.0
 10
29.10124741732514
 20
3.833958502058323
 30
0.0
 10
28.73721577114492
 20
3.949904009436167
 30
0.0
 10
28.37364081412082
 20
4.064199460877134
 30
0.0
 10
28.01117641360247
 20
4.176640550619254
 30
0.0
  0
SPLINE
  5
4E4
330
1F
100
AcDbEntity
  8
외형선
  6
Continuous
 62
     1
370
    15
100
AcDbSpline
210
0.0
220
0.0
230
1.0
 70
     8
 71
     3
 72
    12
 73
     8
 74
     0
 42
0.000000001
 43
0.00000001
 40
0.0
 40
0.0
 40
0.0
 40
0.0
 40
0.2499999999999999
 40
0.2499999999999999
 40
0.5
 40
0.5
 40
1.0
 40
1.0
 40
1.0
 40
1.0
 10
29.2452046338787
 20
0.4034120419263587
 30
0.0
 10
29.23333052543569
 20
0.7018327747029502
 30
0.0
 10
29.22186456292673
 20
0.9959893562868274
 30
0.0
 10
29.19872018966092
 20
1.58069526288385
 30
0.0
 10
29.18685796649257
 20
1.872761016375691
 30
0.0
 10
29.15071590202078
 20
2.739444934025258
 30
0.0
 10
29.12587755305111
 20
3.304316902890051
 30
0.0
 10
29.10124801506836
 20
3.833959370169197
 30
0.0
  0
SPLINE
  5
4E7
330
1F
100
AcDbEntity
  8
외형선
  6
Continuous
 62
     1
370
    15
100
AcDbSpline
210
0.0
220
0.0
230
1.0
 70
     8
 71
     3
 72
    10
 73
     6
 74
     0
 42
0.000000001
 43
0.00000001
 40
0.0
 40
0.0
 40
0.0
 40
0.0
 40
0.5
 40
0.5
 40
1.0
 40
1.0
 40
1.0
 40
1.0
 10
32.05843108646528
 20
-0.6235169202458479
 30
0.0
 10
32.03376870854643
 20
-0.0218057599764165
 30
0.0
 10
32.00971011440441
 20
0.580329115757138
 30
0.0
 10
31.96344386707497
 20
1.749295255175852
 30
0.0
 10
31.93907135407784
 20
2.33415206189666
 30
0.0
 10
31.91435222663654
 20
2.895989190730887
 30
0.0
  0
SPLINE
  5
4E8
330
1F
100
AcDbEntity
  8
외형선
  6
Continuous
 62
     1
370
    15
100
AcDbSpline
210
0.0
220
0.0
230
1.0
 70
     8
 71
     3
 72
     8
 73
     4
 74
     0
 42
0.000000001
 43
0.00000001
 40
0.0
 40
0.0
 40
0.0
 40
0.0
 40
1.0
 40
1.0
 40
1.0
 40
1.0
 10
31.91435222663503
 20
2.895989190767708
 30
0.0
 10
31.95922391348424
 20
2.888576219966097
 30
0.0
 10
32.01441390412785
 20
2.87417488050302
 30
0.0
 10
32.07134663520586
 20
2.854824670729201
 30
0.0
  0
SPLINE
  5
4E9
330
1F
100
AcDbEntity
  8
외형선
  6
Continuous
 62
     1
370
    15
100
AcDbSpline
210
0.0
220
0.0
230
1.0
 70
     8
 71
     3
 72
    10
 73
     6
 74
     0
 42
0.000000001
 43
0.00000001
 40
0.0
 40
0.0
 40
0.0
 40
0.0
 40
0.4999999999999931
 40
0.4999999999999931
 40
1.0
 40
1.0
 40
1.0
 40
1.0
 10
33.31766280895565
 20
2.418591641691876
 30
0.0
 10
33.41052285245419
 20
2.37520384733719
 30
0.0
 10
33.5233235788337
 20
2.332742687869256
 30
0.0
 10
33.74839739706422
 20
2.256439629897216
 30
0.0
 10
33.85569476363921
 20
2.224092807284336
 30
0.0
 10
33.94421462324681
 20
2.202260881342752
 30
0.0
  0
SPLINE
  5
4EA
330
1F
100
AcDbEntity
  8
외형선
  6
Continuous
 62
     1
370
    15
100
AcDbSpline
210
0.0
220
0.0
230
1.0
 70
     8
 71
     3
 72
     8
 73
     4
 74
     0
 42
0.000000001
 43
0.00000001
 40
0.0
 40
0.0
 40
0.0
 40
0.0
 40
1.0
 40
1.0
 40
1.0
 40
1.0
 10
31.13134060023037
 20
3.171773352976629
 30
0.0
 10
31.18653506666294
 20
3.153345292734315
 30
0.0
 10
31.24207552541264
 20
3.129915352532322
 30
0.0
 10
31.2876781163751
 20
3.105843577163654
 30
0.0
  0
SPLINE
  5
4EB
330
1F
100
AcDbEntity
  8
외형선
  6
Continuous
 62
     1
370
    15
100
AcDbSpline
210
0.0
220
0.0
230
1.0
 70
     8
 71
     3
 72
    12
 73
     8
 74
     0
 42
0.000000001
 43
0.00000001
 40
0.0
 40
0.0
 40
0.0
 40
0.0
 40
0.2499999999999999
 40
0.2499999999999999
 40
0.4999999999999999
 40
0.4999999999999999
 40
1.0
 40
1.0
 40
1.0
 40
1.0
 10
31.43179563243339
 20
-0.397083802931391
 30
0.0
 10
31.41952434874415
 20
-0.096177443796563
 30
0.0
 10
31.40738550327333
 20
0.2045128219348271
 30
0.0
 10
31.38359917448693
 20
0.799663774680937
 30
0.0
 10
31.37216000537555
 20
1.092405203501016
 30
0.0
 10
31.33702405153824
 20
1.968603417743466
 30
0.0
 10
31.31246203982224
 20
2.550184431022387
 30
0.0
 10
31.28767811637513
 20
3.105843577145464
 30
0.0
  0
SPLINE
  5
4EF
330
1F
100
AcDbEntity
  8
외형선
  6
Continuous
 62
     1
370
    15
100
AcDbSpline
210
0.0
220
0.0
230
1.0
 70
     8
 71
     3
 72
    10
 73
     6
 74
     0
 42
0.000000001
 43
0.00000001
 40
0.0
 40
0.0
 40
0.0
 40
0.0
 40
0.5
 40
0.5
 40
1.0
 40
1.0
 40
1.0
 40
1.0
 10
30.02861118671831
 20
0.1099850666098803
 30
0.0
 10
30.00445913579421
 20
0.7089609968672619
 30
0.0
 10
29.98184266292279
 20
1.294348296101361
 30
0.0
 10
29.93390874636228
 20
2.455094068540888
 30
0.0
 10
29.90904709231026
 20
3.026258907363115
 30
0.0
 10
29.88424443554456
 20
3.565285662526932
 30
0.0
  0
SPLINE
  5
4F0
330
1F
100
AcDbEntity
  8
외형선
  6
Continuous
 62
     1
370
    15
100
AcDbSpline
210
0.0
220
0.0
230
1.0
 70
     8
 71
     3
 72
     8
 73
     4
 74
     0
 42
0.000000001
 43
0.00000001
 40
0.0
 40
0.0
 40
0.0
 40
0.0
 40
1.0
 40
1.0
 40
1.0
 40
1.0
 10
29.88424443554123
 20
3.565285662601838
 30
0.0
 10
29.92911700134258
 20
3.56166237175556
 30
0.0
 10
29.98430981078346
 20
3.549761713792662
 30
0.0
 10
30.04124266759405
 20
3.531223547961176
 30
0.0
  0
SPLINE
  5
4F3
330
1F
100
AcDbEntity
  8
외형선
  6
Continuous
 62
     1
370
    15
100
AcDbSpline
210
0.0
220
0.0
230
1.0
 70
     8
 71
     3
 72
     8
 73
     4
 74
     0
 42
0.000000001
 43
0.00000001
 40
0.0
 40
0.0
 40
0.0
 40
0.0
 40
1.0
 40
1.0
 40
1.0
 40
1.0
 10
29.10124806503066
 20
3.83395829576223
 30
0.0
 10
29.15644182203522
 20
3.816378867364463
 30
0.0
 10
29.21198224535883
 20
3.792206125493351
 30
0.0
 10
29.25758164832618
 20
3.765645063705406
 30
0.0
  0
SPLINE
  5
4F4
330
1F
100
AcDbEntity
  8
외형선
  6
Continuous
 62
     1
370
    15
100
AcDbSpline
210
0.0
220
0.0
230
1.0
 70
     8
 71
     3
 72
    12
 73
     8
 74
     0
 42
0.000000001
 43
0.00000001
 40
0.0
 40
0.0
 40
0.0
 40
0.0
 40
0.2500000000000001
 40
0.2500000000000001
 40
0.5000000000000001
 40
0.5000000000000001
 40
1.0
 40
1.0
 40
1.0
 40
1.0
 10
29.40213790378388
 20
0.3361245195153231
 30
0.0
 10
29.39017524088337
 20
0.6343147597895893
 30
0.0
 10
29.37857620711893
 20
0.9287657229293842
 30
0.0
 10
29.35540306039098
 20
1.512318465099611
 30
0.0
 10
29.34351707957447
 20
1.803999686607014
 30
0.0
 10
29.30727708947271
 20
2.670061290959183
 30
0.0
 10
29.28233738632602
 20
3.235235046459536
 30
0.0
 10
29.25758164832556
 20
3.765645063701356
 30
0.0
  0
SPLINE
  5
4F5
330
1F
100
AcDbEntity
  8
외형선
  6
Continuous
 62
     1
370
    15
100
AcDbSpline
210
0.0
220
0.0
230
1.0
 70
     8
 71
     3
 72
    10
 73
     6
 74
     0
 42
0.000000001
 43
0.00000001
 40
0.0
 40
0.0
 40
0.0
 40
0.0
 40
0.5
 40
0.5
 40
1.0
 40
1.0
 40
1.0
 40
1.0
 10
31.28767811637434
 20
3.105843577163384
 30
0.0
 10
31.38057288818297
 20
3.056808159817336
 30
0.0
 10
31.49340168178611
 20
3.012201716235623
 30
0.0
 10
31.71848927580217
 20
2.938409270938422
 30
0.0
 10
31.82580241637223
 20
2.910617951218967
 30
0.0
 10
31.91435222663492
 20
2.895989190767665
 30
0.0
  0
SPLINE
  5
4F9
330
1F
100
AcDbEntity
  8
외형선
  6
Continuous
 62
     1
370
    15
100
AcDbSpline
210
0.0
220
0.0
230
1.0
 70
     8
 71
     3
 72
    10
 73
     6
 74
     0
 42
0.000000001
 43
0.00000001
 40
0.0
 40
0.0
 40
0.0
 40
0.0
 40
0.5
 40
0.5
 40
1.0
 40
1.0
 40
1.0
 40
1.0
 10
26.12675853672101
 20
1.529165016387921
 30
0.0
 10
26.10342093305675
 20
2.110397461103418
 30
0.0
 10
26.07903261488445
 20
2.687334200847914
 30
0.0
 10
26.02995167414781
 20
3.78715410962775
 30
0.0
 10
26.00527504298427
 20
4.30966743855052
 30
0.0
 10
25.98139610285716
 20
4.785813828568848
 30
0.0
  0
SPLINE
  5
4FA
330
1F
100
AcDbEntity
  8
외형선
  6
Continuous
 62
     1
370
    15
100
AcDbSpline
210
0.0
220
0.0
230
1.0
 70
     8
 71
     3
 72
     8
 73
     4
 74
     0
 42
0.000000001
 43
0.00000001
 40
0.0
 40
0.0
 40
0.0
 40
0.0
 40
1.0
 40
1.0
 40
1.0
 40
1.0
 10
27.07125553432991
 20
4.463811550402568
 30
0.0
 10
26.70827917560547
 20
4.573014117706379
 30
0.0
 10
26.34476632076263
 20
4.680415755725221
 30
0.0
 10
25.98139597184789
 20
4.785813724767749
 30
0.0
  0
SPLINE
  5
4FB
330
1F
100
AcDbEntity
  8
외형선
  6
Continuous
 62
     1
370
    15
100
AcDbSpline
210
0.0
220
0.0
230
1.0
 70
     8
 71
     3
 72
    10
 73
     6
 74
     0
 42
0.000000001
 43
0.00000001
 40
0.0
 40
0.0
 40
0.0
 40
0.0
 40
0.5
 40
0.5
 40
1.0
 40
1.0
 40
1.0
 40
1.0
 10
27.21619163900516
 20
1.138645393168673
 30
0.0
 10
27.19332387547141
 20
1.721506017732111
 30
0.0
 10
27.16922544825997
 20
2.305176765066093
 30
0.0
 10
27.12029333389211
 20
3.428367288853039
 30
0.0
 10
27.09547525980418
 20
3.967499875778671
 30
0.0
 10
27.07125607753233
 20
4.463812098053182
 30
0.0
  0
SPLINE
  5
4FC
330
1F
100
AcDbEntity
  8
외형선
  6
Continuous
 62
     1
370
    15
100
AcDbSpline
210
0.0
220
0.0
230
1.0
 70
     8
 71
     3
 72
     8
 73
     4
 74
     0
 42
0.000000001
 43
0.00000001
 40
0.0
 40
0.0
 40
0.0
 40
0.0
 40
1.0
 40
1.0
 40
1.0
 40
1.0
 10
34.6750006854534
 20
1.952863206415444
 30
0.0
 10
34.85740870211495
 20
1.86912121441938
 30
0.0
 10
35.04064268423321
 20
1.798252095913455
 30
0.0
 10
35.22500068545341
 20
1.741443153575034
 30
0.0
  0
LINE
  5
4FD
330
1F
100
AcDbEntity
  8
외형선
  6
Continuous
 62
     1
370
    15
100
AcDbLine
 10
35.22499999999999
 20
1.741443178616464
 30
0.0
 11
35.22499999999999
 21
-1.190625014714897
 31
0.0
  0
SPLINE
  5
4FE
330
1F
100
AcDbEntity
  8
외형선
  6
Continuous
 62
     1
370
    15
100
AcDbSpline
210
0.0
220
0.0
230
1.0
 70
    24
 71
     3
 72
     8
 73
     4
 74
     0
 42
0.000000001
 43
0.00000001
 40
0.0000003031994374
 40
0.0000003031994374
 40
0.0000003031994374
 40
0.0000003031994374
 40
0.0008100105960816
 40
0.0008100105960816
 40
0.0008100105960816
 40
0.0008100105960816
 10
35.22500068545341
 20
-1.190625000000026
 30
0.0
 10
35.04696695730482
 20
-1.315285558505252
 30
0.0
 10
34.86817256092795
 20
-1.440478742637993
 30
0.0
 10
34.68874856120283
 20
-1.566112779781264
 30
0.0
  0
SPLINE
  5
4FF
330
1F
100
AcDbEntity
  8
외형선
  6
Continuous
 62
     1
370
    15
100
AcDbSpline
210
0.0
220
0.0
230
1.0
 70
     8
 71
     3
 72
    12
 73
     8
 74
     0
 42
0.000000001
 43
0.00000001
 40
0.0
 40
0.0
 40
0.0
 40
0.0
 40
0.2499999999999998
 40
0.2499999999999998
 40
0.4999999999999998
 40
0.4999999999999998
 40
1.0
 40
1.0
 40
1.0
 40
1.0
 10
27.99934033577557
 20
0.8419362156902253
 30
0.0
 10
27.98768878672067
 20
1.135750100662221
 30
0.0
 10
27.97626318051005
 20
1.425948933986547
 30
0.0
 10
27.95252370991878
 20
2.006322988642594
 30
0.0
 10
27.94041358627547
 20
2.29478273498853
 30
0.0
 10
27.90369952966194
 20
3.146254057610861
 30
0.0
 10
27.87871292818332
 20
3.695030500375921
 30
0.0
 10
27.85418591496003
 20
4.203566847623364
 30
0.0
  0
SPLINE
  5
500
330
1F
100
AcDbEntity
  8
외형선
  6
Continuous
 62
     1
370
    15
100
AcDbSpline
210
0.0
220
0.0
230
1.0
 70
     8
 71
     3
 72
     8
 73
     4
 74
     0
 42
0.000000001
 43
0.00000001
 40
0.0
 40
0.0
 40
0.0
 40
0.0
 40
1.0
 40
1.0
 40
1.0
 40
1.0
 10
27.85418591495997
 20
4.203566847626902
 30
0.0
 10
27.89905900895675
 20
4.203690251395599
 30
0.0
 10
27.95424904022832
 20
4.194300149735156
 30
0.0
 10
28.0111769372073
 20
4.176640388191871
 30
0.0
  0
SPLINE
  5
503
330
1F
100
AcDbEntity
  8
외형선
  6
Continuous
 62
     1
370
    15
100
AcDbSpline
210
0.0
220
0.0
230
1.0
 70
     8
 71
     3
 72
    10
 73
     6
 74
     0
 42
0.000000001
 43
0.00000001
 40
0.0
 40
0.0
 40
0.0
 40
0.0
 40
0.5
 40
0.5
 40
1.0
 40
1.0
 40
1.0
 40
1.0
 10
29.25758164832408
 20
3.765645063708178
 30
0.0
 10
29.35045755943898
 20
3.71154604808055
 30
0.0
 10
29.46327415098128
 20
3.665379937190664
 30
0.0
 10
29.68838276030459
 20
3.595223007238218
 30
0.0
 10
29.79569977731268
 20
3.572435310586371
 30
0.0
 10
29.88424443554064
 20
3.565285662601809
 30
0.0
  0
SPLINE
  5
504
330
1F
100
AcDbEntity
  8
외형선
  6
Continuous
 62
     1
370
    15
100
AcDbSpline
210
0.0
220
0.0
230
1.0
 70
     8
 71
     3
 72
     8
 73
     4
 74
     0
 42
0.000000001
 43
0.00000001
 40
0.0
 40
0.0
 40
0.0
 40
0.0
 40
1.0
 40
1.0
 40
1.0
 40
1.0
 10
27.0712561127485
 20
4.463811376384371
 30
0.0
 10
27.12644557572159
 20
4.447207454352252
 30
0.0
 10
27.18197912464521
 20
4.422461852961177
 30
0.0
 10
27.22757323690618
 20
4.393599535715822
 30
0.0
  0
SPLINE
  5
505
330
1F
100
AcDbEntity
  8
외형선
  6
Continuous
 62
     1
370
    15
100
AcDbSpline
210
0.0
220
0.0
230
1.0
 70
     8
 71
     3
 72
    10
 73
     6
 74
     0
 42
0.000000001
 43
0.00000001
 40
0.0
 40
0.0
 40
0.0
 40
0.0
 40
0.5
 40
0.5
 40
1.0
 40
1.0
 40
1.0
 40
1.0
 10
27.37306274989626
 20
1.066944395772765
 30
0.0
 10
27.35008819480115
 20
1.649341728523552
 30
0.0
 10
27.32601308699947
 20
2.231967242514116
 30
0.0
 10
27.27689004803932
 20
3.35581465049836
 30
0.0
 10
27.25194205340708
 20
3.895941992663296
 30
0.0
 10
27.2275732378213
 20
4.393599517010927
 30
0.0
  0
SPLINE
  5
50A
330
1F
100
AcDbEntity
  8
외형선
  6
Continuous
 62
     1
370
    15
100
AcDbSpline
210
0.0
220
0.0
230
1.0
 70
     8
 71
     3
 72
    10
 73
     6
 74
     0
 42
0.000000001
 43
0.00000001
 40
0.0
 40
0.0
 40
0.0
 40
0.0
 40
0.5
 40
0.5
 40
1.0
 40
1.0
 40
1.0
 40
1.0
 10
27.22757323690544
 20
4.393599535715154
 30
0.0
 10
27.32045416594067
 20
4.33480337307634
 30
0.0
 10
27.43327790399556
 20
4.28734227161064
 30
0.0
 10
27.65836172286143
 20
4.221082761409448
 30
0.0
 10
27.7656574147783
 20
4.203323388805742
 30
0.0
 10
27.85418591495986
 20
4.203566847626831
 30
0.0
  0
SPLINE
  5
50D
330
1F
100
AcDbEntity
  8
외형선
  6
Continuous
 62
     1
370
    15
100
AcDbSpline
210
0.0
220
0.0
230
1.0
 70
     8
 71
     3
 72
     8
 73
     4
 74
     0
 42
0.000000001
 43
0.00000001
 40
0.0
 40
0.0
 40
0.0
 40
0.0
 40
1.0
 40
1.0
 40
1.0
 40
1.0
 10
33.73759274570818
 20
7.842209121504446
 30
0.0
 10
33.68242386938036
 20
7.845307981480147
 30
0.0
 10
33.62691367739671
 20
7.830263400836422
 30
0.0
 10
33.58134305150463
 20
7.796855934531152
 30
0.0
  0
SPLINE
  5
50E
330
1F
100
AcDbEntity
  8
외형선
  6
Continuous
 62
     1
370
    15
100
AcDbSpline
210
0.0
220
0.0
230
1.0
 70
     8
 71
     3
 72
     8
 73
     4
 74
     0
 42
0.000000001
 43
0.00000001
 40
0.0
 40
0.0
 40
0.0
 40
0.0
 40
1.0
 40
1.0
 40
1.0
 40
1.0
 10
34.67500068545345
 20
7.782300437447795
 30
0.0
 10
34.36296527589693
 20
7.804660667226415
 30
0.0
 10
34.05035197446733
 20
7.824641298672731
 30
0.0
 10
33.7375927074747
 20
7.842209123652005
 30
0.0
  0
SPLINE
  5
50F
330
1F
100
AcDbEntity
  8
외형선
  6
Continuous
 62
     1
370
    15
100
AcDbSpline
210
0.0
220
0.0
230
1.0
 70
     8
 71
     3
 72
     8
 73
     4
 74
     0
 42
0.000000001
 43
0.00000001
 40
0.0
 40
0.0
 40
0.0
 40
0.0
 40
1.0
 40
1.0
 40
1.0
 40
1.0
 10
34.68874856120291
 20
7.767440922695847
 30
0.0
 10
34.68416709840028
 20
7.772394443338683
 30
0.0
 10
34.67958447122305
 20
7.777347613001922
 30
0.0
 10
34.6750006854534
 20
7.782300437447823
 30
0.0
  0
SPLINE
  5
510
330
1F
100
AcDbEntity
  8
외형선
  6
Continuous
 62
     1
370
    15
100
AcDbSpline
210
0.0
220
0.0
230
1.0
 70
     8
 71
     3
 72
    18
 73
    14
 74
     0
 42
0.000000001
 43
0.00000001
 40
0.0
 40
0.0
 40
0.0
 40
0.0
 40
0.2499999999999996
 40
0.2499999999999996
 40
0.3749999999999996
 40
0.3749999999999996
 40
0.4999999999999997
 40
0.4999999999999997
 40
0.6249999999999998
 40
0.6249999999999998
 40
0.7499999999999998
 40
0.7499999999999998
 40
1.0
 40
1.0
 40
1.0
 40
1.0
 10
34.68874856120297
 20
7.76744092269584
 30
0.0
 10
34.70844752112052
 20
7.37262543680999
 30
0.0
 10
34.68994405266702
 20
6.98200553990209
 30
0.0
 10
34.59432488629059
 20
6.403528867289303
 30
0.0
 10
34.55065663214546
 20
6.21153420723892
 30
0.0
 10
34.4418124869255
 20
5.843332764075086
 30
0.0
 10
34.37645540403946
 20
5.66548075115719
 30
0.0
 10
34.22340430355143
 20
5.322540956352071
 30
0.0
 10
34.13494891245264
 20
5.156279976540333
 30
0.0
 10
33.93808754292863
 20
4.842877954361199
 30
0.0
 10
33.8308066494254
 20
4.697089247569664
 30
0.0
 10
33.48425305483806
 20
4.290191675653361
 30
0.0
 10
33.21706458759471
 20
4.058096870020222
 30
0.0
 10
32.93393724612659
 20
3.872929417237017
 30
0.0
  0
SPLINE
  5
511
330
1F
100
AcDbEntity
  8
외형선
  6
Continuous
 62
     1
370
    15
100
AcDbSpline
210
0.0
220
0.0
230
1.0
 70
     8
 71
     3
 72
     8
 73
     4
 74
     0
 42
0.000000001
 43
0.00000001
 40
0.0
 40
0.0
 40
0.0
 40
0.0
 40
1.0
 40
1.0
 40
1.0
 40
1.0
 10
35.22500068545341
 20
2.817647168010581
 30
0.0
 10
34.46089427274276
 20
3.177257137744846
 30
0.0
 10
33.69721184726623
 20
3.528916863234414
 30
0.0
 10
32.93393724612662
 20
3.872929417237017
 30
0.0
  0
LINE
  5
512
330
1F
100
AcDbEntity
  8
외형선
  6
Continuous
 62
     1
370
    15
100
AcDbLine
 10
35.22499999999999
 20
1.761247171089053
 30
0.0
 11
35.22499999999999
 21
2.817647065967321
 31
0.0
  0
SPLINE
  5
513
330
1F
100
AcDbEntity
  8
외형선
  6
Continuous
 62
     1
370
    15
100
AcDbSpline
210
0.0
220
0.0
230
1.0
 70
     8
 71
     3
 72
     8
 73
     4
 74
     0
 42
0.000000001
 43
0.00000001
 40
0.0
 40
0.0
 40
0.0
 40
0.0
 40
1.0
 40
1.0
 40
1.0
 40
1.0
 10
25.82444986906623
 20
4.805068979801248
 30
0.0
 10
25.86930311619673
 20
4.809014253347499
 30
0.0
 10
25.9244787912867
 20
4.802322928894171
 30
0.0
 10
25.98139611007306
 20
4.785813684676455
 30
0.0
  0
SPLINE
  5
514
330
1F
100
AcDbEntity
  8
외형선
  6
Continuous
 62
     1
370
    15
100
AcDbSpline
210
0.0
220
0.0
230
1.0
 70
     8
 71
     3
 72
    10
 73
     6
 74
     0
 42
0.000000001
 43
0.00000001
 40
0.0
 40
0.0
 40
0.0
 40
0.0
 40
0.5
 40
0.5
 40
1.0
 40
1.0
 40
1.0
 40
1.0
 10
25.19799764523916
 20
4.982513879142601
 30
0.0
 10
25.29083846424501
 20
4.91958511154786
 30
0.0
 10
25.40361652103388
 20
4.871308608048807
 30
0.0
 10
25.62865779926895
 20
4.809722051267983
 30
0.0
 10
25.73594133894693
 20
4.797283805151849
 30
0.0
 10
25.82444986906611
 20
4.805068979801177
 30
0.0
  0
SPLINE
  5
515
330
1F
100
AcDbEntity
  8
외형선
  6
Continuous
 62
     1
370
    15
100
AcDbSpline
210
0.0
220
0.0
230
1.0
 70
     8
 71
     3
 72
     8
 73
     4
 74
     0
 42
0.000000001
 43
0.00000001
 40
0.0
 40
0.0
 40
0.0
 40
0.0
 40
1.0
 40
1.0
 40
1.0
 40
1.0
 10
25.04171469299493
 20
5.053998850334125
 30
0.0
 10
25.09689111599579
 20
5.038508778152504
 30
0.0
 10
25.15241347978701
 20
5.013411445370139
 30
0.0
 10
25.19799764523989
 20
4.982513879143468
 30
0.0
  0
SPLINE
  5
516
330
1F
100
AcDbEntity
  8
외형선
  6
Continuous
 62
     1
370
    15
100
AcDbSpline
210
0.0
220
0.0
230
1.0
 70
     8
 71
     3
 72
     8
 73
     4
 74
     0
 42
0.000000001
 43
0.00000001
 40
0.0
 40
0.0
 40
0.0
 40
0.0
 40
1.0
 40
1.0
 40
1.0
 40
1.0
 10
25.04171467130888
 20
5.053998856421202
 30
0.0
 10
24.67795976110156
 20
5.156118376041292
 30
0.0
 10
24.3156398495754
 20
5.255996160063177
 30
0.0
 10
23.95214383312521
 20
5.353747869278976
 30
0.0
  0
SPLINE
  5
517
330
1F
100
AcDbEntity
  8
외형선
  6
Continuous
 62
     1
370
    15
100
AcDbSpline
210
0.0
220
0.0
230
1.0
 70
     8
 71
     3
 72
     8
 73
     4
 74
     0
 42
0.000000001
 43
0.00000001
 40
0.0
 40
0.0
 40
0.0
 40
0.0
 40
1.0
 40
1.0
 40
1.0
 40
1.0
 10
23.79525467765578
 20
5.365372822608464
 30
0.0
 10
23.84008937266159
 20
5.373056561564567
 30
0.0
 10
23.89524648165497
 20
5.36904876157908
 30
0.0
 10
23.9521440034714
 20
5.353747823471437
 30
0.0
  0
SPLINE
  5
518
330
1F
100
AcDbEntity
  8
외형선
  6
Continuous
 62
     1
370
    15
100
AcDbSpline
210
0.0
220
0.0
230
1.0
 70
     8
 71
     3
 72
    10
 73
     6
 74
     0
 42
0.000000001
 43
0.00000001
 40
0.0
 40
0.0
 40
0.0
 40
0.0
 40
0.5
 40
0.5
 40
1.0
 40
1.0
 40
1.0
 40
1.0
 10
23.16901871784361
 20
5.528978991615645
 30
0.0
 10
23.26183186572067
 20
5.462465804936329
 30
0.0
 10
23.37458565502757
 20
5.413773800422376
 30
0.0
 10
23.5995555809231
 20
5.357301717618199
 30
0.0
 10
23.70679455591701
 20
5.350212588254607
 30
0.0
 10
23.79525467765563
 20
5.365372822608407
 30
0.0
  0
SPLINE
  5
519
330
1F
100
AcDbEntity
  8
외형선
  6
Continuous
 62
     1
370
    15
100
AcDbSpline
210
0.0
220
0.0
230
1.0
 70
     8
 71
     3
 72
     8
 73
     4
 74
     0
 42
0.000000001
 43
0.00000001
 40
0.0
 40
0.0
 40
0.0
 40
0.0
 40
1.0
 40
1.0
 40
1.0
 40
1.0
 10
23.01277460760733
 20
5.601064554781516
 30
0.0
 10
23.06794219313156
 20
5.586850745704126
 30
0.0
 10
23.12345019417702
 20
5.561635008470972
 30
0.0
 10
23.16901871784435
 20
5.528978991616682
 30
0.0
  0
SPLINE
  5
51A
330
1F
100
AcDbEntity
  8
외형선
  6
Continuous
 62
     1
370
    15
100
AcDbSpline
210
0.0
220
0.0
230
1.0
 70
     8
 71
     3
 72
     8
 73
     4
 74
     0
 42
0.000000001
 43
0.00000001
 40
0.0
 40
0.0
 40
0.0
 40
0.0
 40
1.0
 40
1.0
 40
1.0
 40
1.0
 10
23.01277460760605
 20
5.60106455478072
 30
0.0
 10
22.64964281468872
 20
5.694624675736023
 30
0.0
 10
22.28625673705258
 20
5.785880188582098
 30
0.0
 10
21.92329469629132
 20
5.874661855833921
 30
0.0
  0
SPLINE
  5
51B
330
1F
100
AcDbEntity
  8
외형선
  6
Continuous
 62
     1
370
    15
100
AcDbSpline
210
0.0
220
0.0
230
1.0
 70
     8
 71
     3
 72
     8
 73
     4
 74
     0
 42
0.000000001
 43
0.00000001
 40
0.0
 40
0.0
 40
0.0
 40
0.0
 40
1.0
 40
1.0
 40
1.0
 40
1.0
 10
21.76637521823616
 20
5.878476995459621
 30
0.0
 10
21.8112192999786
 20
5.889843060949431
 30
0.0
 10
21.86638535843929
 20
5.888582060511368
 30
0.0
 10
21.92329469629342
 20
5.874661855835811
 30
0.0
  0
SPLINE
  5
51C
330
1F
100
AcDbEntity
  8
외형선
  6
Continuous
 62
     1
370
    15
100
AcDbSpline
210
0.0
220
0.0
230
1.0
 70
     8
 71
     3
 72
    10
 73
     6
 74
     0
 42
0.000000001
 43
0.00000001
 40
0.0
 40
0.0
 40
0.0
 40
0.0
 40
0.5
 40
0.5
 40
1.0
 40
1.0
 40
1.0
 40
1.0
 10
21.13993636035164
 20
6.026992004156995
 30
0.0
 10
21.23277941695719
 20
5.957392232456968
 30
0.0
 10
21.34554990415464
 20
5.908660745149419
 30
0.0
 10
21.57058704851676
 20
5.857730450649655
 30
0.0
 10
21.67787068416081
 20
5.856044864141907
 30
0.0
 10
21.76637521823622
 20
5.878476995459224
 30
0.0
  0
SPLINE
  5
51D
330
1F
100
AcDbEntity
  8
외형선
  6
Continuous
 62
     1
370
    15
100
AcDbSpline
210
0.0
220
0.0
230
1.0
 70
     8
 71
     3
 72
     8
 73
     4
 74
     0
 42
0.000000001
 43
0.00000001
 40
0.0
 40
0.0
 40
0.0
 40
0.0
 40
1.0
 40
1.0
 40
1.0
 40
1.0
 10
20.98363965286399
 20
6.09920318794908
 30
0.0
 10
21.03881791066547
 20
6.086329721252277
 30
0.0
 10
21.09434539901565
 20
6.061169255711732
 30
0.0
 10
21.13993636035241
 20
6.026992004158217
 30
0.0
  0
SPLINE
  5
51E
330
1F
100
AcDbEntity
  8
외형선
  6
Continuous
 62
     1
370
    15
100
AcDbSpline
210
0.0
220
0.0
230
1.0
 70
     8
 71
     3
 72
     8
 73
     4
 74
     0
 42
0.000000001
 43
0.00000001
 40
0.0
 40
0.0
 40
0.0
 40
0.0
 40
1.0
 40
1.0
 40
1.0
 40
1.0
 10
20.98363965286163
 20
6.099203187948376
 30
0.0
 10
20.62067679311158
 20
6.183884917189957
 30
0.0
 10
20.25779319586971
 20
6.266019390080714
 30
0.0
 10
19.89378315090755
 20
6.345587097631316
 30
0.0
  0
SPLINE
  5
51F
330
1F
100
AcDbEntity
  8
외형선
  6
Continuous
 62
     1
370
    15
100
AcDbSpline
210
0.0
220
0.0
230
1.0
 70
     8
 71
     3
 72
     8
 73
     4
 74
     0
 42
0.000000001
 43
0.00000001
 40
0.0
 40
0.0
 40
0.0
 40
0.0
 40
1.0
 40
1.0
 40
1.0
 40
1.0
 10
19.73681407232749
 20
6.341597259623839
 30
0.0
 10
19.78167717866106
 20
6.356547801552352
 30
0.0
 10
19.83686026678819
 20
6.35802967568695
 30
0.0
 10
19.89378315090821
 20
6.345587097633846
 30
0.0
  0
SPLINE
  5
520
330
1F
100
AcDbEntity
  8
외형선
  6
Continuous
 62
     1
370
    15
100
AcDbSpline
210
0.0
220
0.0
230
1.0
 70
     8
 71
     3
 72
    10
 73
     6
 74
     0
 42
0.000000001
 43
0.00000001
 40
0.0
 40
0.0
 40
0.0
 40
0.0
 40
0.5
 40
0.5
 40
1.0
 40
1.0
 40
1.0
 40
1.0
 10
19.11022941501892
 20
6.473435934221214
 30
0.0
 10
19.20309616526114
 20
6.401435374628669
 30
0.0
 10
19.31590461221691
 20
6.353160864129279
 30
0.0
 10
19.54098771242923
 20
6.308332812890242
 30
0.0
 10
19.6482888177494
 20
6.312096392687252
 30
0.0
 10
19.73681407232735
 20
6.341597259623768
 30
0.0
  0
SPLINE
  5
521
330
1F
100
AcDbEntity
  8
외형선
  6
Continuous
 62
     1
370
    15
100
AcDbSpline
210
0.0
220
0.0
230
1.0
 70
     8
 71
     3
 72
     8
 73
     4
 74
     0
 42
0.000000001
 43
0.00000001
 40
0.0
 40
0.0
 40
0.0
 40
0.0
 40
1.0
 40
1.0
 40
1.0
 40
1.0
 10
18.95390809686782
 20
6.544967796783091
 30
0.0
 10
19.00909940080888
 20
6.533615525589468
 30
0.0
 10
19.0646352122404
 20
6.50878559495348
 30
0.0
 10
19.11022941501878
 20
6.473435934223289
 30
0.0
  0
SPLINE
  5
522
330
1F
100
AcDbEntity
  8
외형선
  6
Continuous
 62
     1
370
    15
100
AcDbSpline
210
0.0
220
0.0
230
1.0
 70
     8
 71
     3
 72
     8
 73
     4
 74
     0
 42
0.000000001
 43
0.00000001
 40
0.0
 40
0.0
 40
0.0
 40
0.0
 40
1.0
 40
1.0
 40
1.0
 40
1.0
 10
18.95390809686765
 20
6.544967796781719
 30
0.0
 10
18.59030918277
 20
6.619756272208079
 30
0.0
 10
18.22673836532599
 20
6.691818256617033
 30
0.0
 10
17.86387488263429
 20
6.761024619609415
 30
0.0
  0
SPLINE
  5
523
330
1F
100
AcDbEntity
  8
외형선
  6
Continuous
 62
     1
370
    15
100
AcDbSpline
210
0.0
220
0.0
230
1.0
 70
     8
 71
     3
 72
     8
 73
     4
 74
     0
 42
0.000000001
 43
0.00000001
 40
0.0
 40
0.0
 40
0.0
 40
0.0
 40
1.0
 40
1.0
 40
1.0
 40
1.0
 10
17.70687751148532
 20
6.749288806206224
 30
0.0
 10
17.75174997636685
 20
6.767679849083599
 30
0.0
 10
17.80694128413356
 20
6.771883158628256
 30
0.0
 10
17.86387488263335
 20
6.761024619612513
 30
0.0
  0
SPLINE
  5
524
330
1F
100
AcDbEntity
  8
외형선
  6
Continuous
 62
     1
370
    15
100
AcDbSpline
210
0.0
220
0.0
230
1.0
 70
     8
 71
     3
 72
    10
 73
     6
 74
     0
 42
0.000000001
 43
0.00000001
 40
0.0
 40
0.0
 40
0.0
 40
0.0
 40
0.5000000000000003
 40
0.5000000000000003
 40
1.0
 40
1.0
 40
1.0
 40
1.0
 10
17.08019392984878
 20
6.863762015419084
 30
0.0
 10
17.17308444530315
 20
6.789886224716334
 30
0.0
 10
17.28589518458827
 20
6.742383744390708
 30
0.0
 10
17.51100206391092
 20
6.703874124889673
 30
0.0
 10
17.61832307131004
 20
6.712994644284159
 30
0.0
 10
17.7068775114852
 20
6.749288806206152
 30
0.0
  0
SPLINE
  5
525
330
1F
100
AcDbEntity
  8
외형선
  6
Continuous
 62
     1
370
    15
100
AcDbSpline
210
0.0
220
0.0
230
1.0
 70
     8
 71
     3
 72
     8
 73
     4
 74
     0
 42
0.000000001
 43
0.00000001
 40
0.0
 40
0.0
 40
0.0
 40
0.0
 40
1.0
 40
1.0
 40
1.0
 40
1.0
 10
16.92385319691297
 20
6.93415935232008
 30
0.0
 10
16.97904780569164
 20
6.924369892482375
 30
0.0
 10
17.03458916097694
 20
6.900031470313643
 30
0.0
 10
17.08019392984954
 20
6.86376201542064
 30
0.0
  0
SPLINE
  5
526
330
1F
100
AcDbEntity
  8
외형선
  6
Continuous
 62
     1
370
    15
100
AcDbSpline
210
0.0
220
0.0
230
1.0
 70
     8
 71
     3
 72
     8
 73
     4
 74
     0
 42
0.000000001
 43
0.00000001
 40
0.0
 40
0.0
 40
0.0
 40
0.0
 40
1.0
 40
1.0
 40
1.0
 40
1.0
 10
16.92385319774471
 20
6.934159352171015
 30
0.0
 10
16.56121347083766
 20
6.998478080411374
 30
0.0
 10
16.19761817643652
 20
7.059967754567829
 30
0.0
 10
15.83374646455169
 20
7.118503370519157
 30
0.0
  0
SPLINE
  5
527
330
1F
100
AcDbEntity
  8
외형선
  6
Continuous
 62
     1
370
    15
100
AcDbSpline
210
0.0
220
0.0
230
1.0
 70
     8
 71
     3
 72
     8
 73
     4
 74
     0
 42
0.000000001
 43
0.00000001
 40
0.0
 40
0.0
 40
0.0
 40
0.0
 40
1.0
 40
1.0
 40
1.0
 40
1.0
 10
15.67674929781995
 20
7.099042320866822
 30
0.0
 10
15.7216216447913
 20
7.120744355142492
 30
0.0
 10
15.7768141436911
 20
7.127662006193034
 30
0.0
 10
15.83374637171744
 20
7.118503385456414
 30
0.0
  0
SPLINE
  5
528
330
1F
100
AcDbEntity
  8
외형선
  6
Continuous
 62
     1
370
    15
100
AcDbSpline
210
0.0
220
0.0
230
1.0
 70
     8
 71
     3
 72
    10
 73
     6
 74
     0
 42
0.000000001
 43
0.00000001
 40
0.0
 40
0.0
 40
0.0
 40
0.0
 40
0.5
 40
0.5
 40
1.0
 40
1.0
 40
1.0
 40
1.0
 10
15.0500961327246
 20
7.194551421896961
 30
0.0
 10
15.14297082973874
 20
7.119558542466493
 30
0.0
 10
15.25578780706385
 20
7.073363496947422
 30
0.0
 10
15.48089288551492
 20
7.041728116582675
 30
0.0
 10
15.58820730940803
 20
7.056219928078448
 30
0.0
 10
15.67674929781825
 20
7.099042320865863
 30
0.0
  0
SPLINE
  5
529
330
1F
100
AcDbEntity
  8
외형선
  6
Continuous
 62
     1
370
    15
100
AcDbSpline
210
0.0
220
0.0
230
1.0
 70
     8
 71
     3
 72
     8
 73
     4
 74
     0
 42
0.000000001
 43
0.00000001
 40
0.0
 40
0.0
 40
0.0
 40
0.0
 40
1.0
 40
1.0
 40
1.0
 40
1.0
 10
14.8937658643446
 20
7.26305378150979
 30
0.0
 10
14.9489591870184
 20
7.254957407731659
 30
0.0
 10
15.00449833958407
 20
7.231369951737811
 30
0.0
 10
15.05009613272537
 20
7.194551421898637
 30
0.0
  0
SPLINE
  5
52A
330
1F
100
AcDbEntity
  8
외형선
  6
Continuous
 62
     1
370
    15
100
AcDbSpline
210
0.0
220
0.0
230
1.0
 70
     8
 71
     3
 72
     8
 73
     4
 74
     0
 42
0.000000001
 43
0.00000001
 40
0.0
 40
0.0
 40
0.0
 40
0.0
 40
1.0
 40
1.0
 40
1.0
 40
1.0
 10
14.89376640008265
 20
7.263053702920118
 30
0.0
 10
14.52988422976043
 20
7.316432011776683
 30
0.0
 10
14.16631454243137
 20
7.366765274224164
 30
0.0
 10
13.80373630246211
 20
7.413970237819932
 30
0.0
  0
SPLINE
  5
52B
330
1F
100
AcDbEntity
  8
외형선
  6
Continuous
 62
     1
370
    15
100
AcDbSpline
210
0.0
220
0.0
230
1.0
 70
     8
 71
     3
 72
     8
 73
     4
 74
     0
 42
0.000000001
 43
0.00000001
 40
0.0
 40
0.0
 40
0.0
 40
0.0
 40
1.0
 40
1.0
 40
1.0
 40
1.0
 10
13.64675297602813
 20
7.387055761021699
 30
0.0
 10
13.69162078470723
 20
7.411847268155086
 30
0.0
 10
13.74680694162566
 20
7.421382013019674
 30
0.0
 10
13.80373630246024
 20
7.413970237823506
 30
0.0
  0
SPLINE
  5
52C
330
1F
100
AcDbEntity
  8
외형선
  6
Continuous
 62
     1
370
    15
100
AcDbSpline
210
0.0
220
0.0
230
1.0
 70
     8
 71
     3
 72
    10
 73
     6
 74
     0
 42
0.000000001
 43
0.00000001
 40
0.0
 40
0.0
 40
0.0
 40
0.0
 40
0.5
 40
0.5
 40
1.0
 40
1.0
 40
1.0
 40
1.0
 10
13.02016366391777
 20
7.463261862330157
 30
0.0
 10
13.11304418282262
 20
7.387718112981212
 30
0.0
 10
13.225866077543
 20
7.34314844581516
 30
0.0
 10
13.45093975851103
 20
7.318494642881078
 30
0.0
 10
13.55822628463847
 20
7.338140733395008
 30
0.0
 10
13.64675297602798
 20
7.387055761021607
 30
0.0
  0
SPLINE
  5
52D
330
1F
100
AcDbEntity
  8
외형선
  6
Continuous
 62
     1
370
    15
100
AcDbSpline
210
0.0
220
0.0
230
1.0
 70
     8
 71
     3
 72
     8
 73
     4
 74
     0
 42
0.000000001
 43
0.00000001
 40
0.8568292003342503
 40
0.8568292003342503
 40
0.8568292003342503
 40
0.8568292003342503
 40
1.0
 40
1.0
 40
1.0
 40
1.0
 10
13.0
 20
7.478297078669572
 30
0.0
 10
13.00690481910063
 20
7.473584596541452
 30
0.0
 10
13.01363609903742
 20
7.468571013605537
 30
0.0
 10
13.02016366391854
 20
7.463261862331954
 30
0.0
  0
SPLINE
  5
52E
330
1F
100
AcDbEntity
  8
외형선
  6
Continuous
 62
     1
370
    15
100
AcDbSpline
210
0.0
220
0.0
230
1.0
 70
     8
 71
     3
 72
     8
 73
     4
 74
     0
 42
0.000000001
 43
0.00000001
 40
0.0
 40
0.0
 40
0.0
 40
0.0
 40
0.0002488473518283
 40
0.0002488473518283
 40
0.0002488473518283
 40
0.0002488473518283
 10
12.86412344774104
 20
7.529334993455514
 30
0.0
 10
12.86403313853895
 20
7.529345399062917
 30
0.0
 10
12.86394282929528
 20
7.529355804478088
 30
0.0
 10
12.86385252001
 20
7.529366209701028
 30
0.0
  0
SPLINE
  5
53C
330
1F
100
AcDbEntity
  8
외형선
  6
Continuous
 62
     1
370
    15
100
AcDbSpline
210
0.0
220
0.0
230
1.0
 70
     8
 71
     3
 72
     9
 73
     5
 74
     0
 42
0.000000001
 43
0.00000001
 40
0.0
 40
0.0
 40
0.0
 40
0.0
 40
0.0314246444935676
 40
1.0
 40
1.0
 40
1.0
 40
1.0
 10
18.09534314125776
 20
6.716115400195115
 30
0.0
 10
18.10053277127483
 20
6.717144221642016
 30
0.0
 10
18.26567799728156
 20
6.749883540208138
 30
0.0
 10
18.43085302418976
 20
6.780674547438522
 30
0.0
 10
18.59083748459815
 20
6.810497958213084
 30
0.0
  0
SPLINE
  5
53D
330
1F
100
AcDbEntity
  8
외형선
  6
Continuous
 62
     1
370
    15
100
AcDbSpline
210
0.0
220
0.0
230
1.0
 70
     8
 71
     3
 72
     8
 73
     4
 74
     0
 42
0.000000001
 43
0.00000001
 40
0.0
 40
0.0
 40
0.0
 40
0.0
 40
1.0
 40
1.0
 40
1.0
 40
1.0
 10
18.7477643765304
 20
6.797708919733104
 30
0.0
 10
18.70291804141894
 20
6.816552489360411
 30
0.0
 10
18.6477487054714
 20
6.821126825744201
 30
0.0
 10
18.59083831012717
 20
6.810498044779663
 30
0.0
  0
SPLINE
  5
53E
330
1F
100
AcDbEntity
  8
외형선
  6
Continuous
 62
     1
370
    15
100
AcDbSpline
210
0.0
220
0.0
230
1.0
 70
     8
 71
     3
 72
    10
 73
     6
 74
     0
 42
0.000000001
 43
0.00000001
 40
0.0
 40
0.0
 40
0.0
 40
0.0
 40
0.5
 40
0.5
 40
1.0
 40
1.0
 40
1.0
 40
1.0
 10
19.37413526515292
 20
6.909481982928597
 30
0.0
 10
19.28130804108281
 20
6.835495012323584
 30
0.0
 10
19.16853823573953
 20
6.788190757504509
 30
0.0
 10
18.94352295325217
 20
6.750656515970263
 30
0.0
 10
18.83625466811711
 20
6.760526996913434
 30
0.0
 10
18.74776437653045
 20
6.797708919733054
 30
0.0
  0
SPLINE
  5
53F
330
1F
100
AcDbEntity
  8
외형선
  6
Continuous
 62
     1
370
    15
100
AcDbSpline
210
0.0
220
0.0
230
1.0
 70
     8
 71
     3
 72
     8
 73
     4
 74
     0
 42
0.000000001
 43
0.00000001
 40
0.0
 40
0.0
 40
0.0
 40
0.0
 40
1.0
 40
1.0
 40
1.0
 40
1.0
 10
19.5303982330326
 20
6.97959667644546
 30
0.0
 10
19.47522572563392
 20
6.970041428636883
 30
0.0
 10
19.41971068907571
 20
6.945807399139881
 30
0.0
 10
19.37413526515306
 20
6.909481982928696
 30
0.0
  0
SPLINE
  5
540
330
1F
100
AcDbEntity
  8
외형선
  6
Continuous
 62
     1
370
    15
100
AcDbSpline
210
0.0
220
0.0
230
1.0
 70
     8
 71
     3
 72
     8
 73
     4
 74
     0
 42
0.000000001
 43
0.00000001
 40
0.0
 40
0.0
 40
0.0
 40
0.0
 40
1.0
 40
1.0
 40
1.0
 40
1.0
 10
20.61979767942367
 20
7.159673398033263
 30
0.0
 10
20.25744930974147
 20
7.102643358326546
 30
0.0
 10
19.89409024056877
 20
7.042583976132484
 30
0.0
 10
19.53039823303124
 20
6.979596676445183
 30
0.0
  0
SPLINE
  5
541
330
1F
100
AcDbEntity
  8
외형선
  6
Continuous
 62
     1
370
    15
100
AcDbSpline
210
0.0
220
0.0
230
1.0
 70
     8
 71
     3
 72
     8
 73
     4
 74
     0
 42
0.000000001
 43
0.00000001
 40
0.0
 40
0.0
 40
0.0
 40
0.0
 40
1.0
 40
1.0
 40
1.0
 40
1.0
 10
20.77668051316545
 20
7.139296487953203
 30
0.0
 10
20.73184859547544
 20
7.161387822711816
 30
0.0
 10
20.67669596067947
 20
7.168628623216733
 30
0.0
 10
20.61979765912849
 20
7.159673394839032
 30
0.0
  0
SPLINE
  5
542
330
1F
100
AcDbEntity
  8
외형선
  6
Continuous
 62
     1
370
    15
100
AcDbSpline
210
0.0
220
0.0
230
1.0
 70
     8
 71
     3
 72
    10
 73
     6
 74
     0
 42
0.000000001
 43
0.00000001
 40
0.0
 40
0.0
 40
0.0
 40
0.0
 40
0.5
 40
0.5
 40
1.0
 40
1.0
 40
1.0
 40
1.0
 10
21.40299080295983
 20
7.232528893228462
 30
0.0
 10
21.31015460933611
 20
7.157425105828395
 30
0.0
 10
21.19738262223328
 20
7.111391087018603
 30
0.0
 10
20.97239328487754
 20
7.080577515261027
 30
0.0
 10
20.86514893255284
 20
7.095702870527106
 30
0.0
 10
20.7766805131655
 20
7.139296487953168
 30
0.0
  0
SPLINE
  5
543
330
1F
100
AcDbEntity
  8
외형선
  6
Continuous
 62
     1
370
    15
100
AcDbSpline
210
0.0
220
0.0
230
1.0
 70
     8
 71
     3
 72
     8
 73
     4
 74
     0
 42
0.000000001
 43
0.00000001
 40
0.0
 40
0.0
 40
0.0
 40
0.0
 40
1.0
 40
1.0
 40
1.0
 40
1.0
 10
21.55925725090103
 20
7.300770486435539
 30
0.0
 10
21.50408383051155
 20
7.292889861861596
 30
0.0
 10
21.44856839802466
 20
7.26940082729142
 30
0.0
 10
21.40299080295998
 20
7.232528893228576
 30
0.0
  0
SPLINE
  5
544
330
1F
100
AcDbEntity
  8
외형선
  6
Continuous
 62
     1
370
    15
100
AcDbSpline
210
0.0
220
0.0
230
1.0
 70
     8
 71
     3
 72
     8
 73
     4
 74
     0
 42
0.000000001
 43
0.00000001
 40
0.0
 40
0.0
 40
0.0
 40
0.0
 40
1.0
 40
1.0
 40
1.0
 40
1.0
 10
22.64888703442998
 20
7.447123330845784
 30
0.0
 10
22.28547843078283
 20
7.401404856136253
 30
0.0
 10
21.9220423092153
 20
7.352588424219768
 30
0.0
 10
21.55925718878544
 20
7.300770477563312
 30
0.0
  0
SPLINE
  5
545
330
1F
100
AcDbEntity
  8
외형선
  6
Continuous
 62
     1
370
    15
100
AcDbSpline
210
0.0
220
0.0
230
1.0
 70
     8
 71
     3
 72
     8
 73
     4
 74
     0
 42
0.000000001
 43
0.00000001
 40
0.0
 40
0.0
 40
0.0
 40
0.0
 40
1.0
 40
1.0
 40
1.0
 40
1.0
 10
22.8058264826561
 20
7.419202945383788
 30
0.0
 10
22.76097517464765
 20
7.444393024467757
 30
0.0
 10
22.70580202437418
 20
7.454283498497993
 30
0.0
 10
22.64888703443049
 20
7.447123330845884
 30
0.0
  0
SPLINE
  5
546
330
1F
100
AcDbEntity
  8
외형선
  6
Continuous
 62
     1
370
    15
100
AcDbSpline
210
0.0
220
0.0
230
1.0
 70
     8
 71
     3
 72
    10
 73
     6
 74
     0
 42
0.000000001
 43
0.00000001
 40
0.0
 40
0.0
 40
0.0
 40
0.0
 40
0.5
 40
0.5
 40
1.0
 40
1.0
 40
1.0
 40
1.0
 10
23.43232374722928
 20
7.492703861817262
 30
0.0
 10
23.33947401544052
 20
7.417172437820483
 30
0.0
 10
23.22668906739236
 20
7.372852196877062
 30
0.0
 10
23.00163101324705
 20
7.349151567637044
 30
0.0
 10
22.89433920396792
 20
7.369491074118734
 30
0.0
 10
22.80582648265616
 20
7.419202945383745
 30
0.0
  0
SPLINE
  5
547
330
1F
100
AcDbEntity
  8
외형선
  6
Continuous
 62
     1
370
    15
100
AcDbSpline
210
0.0
220
0.0
230
1.0
 70
     8
 71
     3
 72
     8
 73
     4
 74
     0
 42
0.000000001
 43
0.00000001
 40
0.0
 40
0.0
 40
0.0
 40
0.0
 40
1.0
 40
1.0
 40
1.0
 40
1.0
 10
23.5886301763976
 20
7.55845025459989
 30
0.0
 10
23.53344572797505
 20
7.552318242528173
 30
0.0
 10
23.47791484705706
 20
7.529791321578628
 30
0.0
 10
23.43232374722939
 20
7.492703861817368
 30
0.0
  0
SPLINE
  5
548
330
1F
100
AcDbEntity
  8
외형선
  6
Continuous
 62
     1
370
    15
100
AcDbSpline
210
0.0
220
0.0
230
1.0
 70
     8
 71
     3
 72
     8
 73
     4
 74
     0
 42
0.000000001
 43
0.00000001
 40
0.0
 40
0.0
 40
0.0
 40
0.0
 40
1.0
 40
1.0
 40
1.0
 40
1.0
 10
24.67858267799255
 20
7.670209571225328
 30
0.0
 10
24.31535186147445
 20
7.636145025682978
 30
0.0
 10
23.9526514114219
 20
7.598899741209493
 30
0.0
 10
23.58863017639499
 20
7.558450254599563
 30
0.0
  0
SPLINE
  5
549
330
1F
100
AcDbEntity
  8
외형선
  6
Continuous
 62
     1
370
    15
100
AcDbSpline
210
0.0
220
0.0
230
1.0
 70
     8
 71
     3
 72
     8
 73
     4
 74
     0
 42
0.000000001
 43
0.00000001
 40
0.0
 40
0.0
 40
0.0
 40
0.0
 40
1.0
 40
1.0
 40
1.0
 40
1.0
 10
24.83556798404487
 20
7.635083831580985
 30
0.0
 10
24.79069753228259
 20
7.663130625329877
 30
0.0
 10
24.73550937549012
 20
7.675548275958803
 30
0.0
 10
24.67858267800088
 20
7.670209571226138
 30
0.0
  0
SPLINE
  5
54A
330
1F
100
AcDbEntity
  8
외형선
  6
Continuous
 62
     1
370
    15
100
AcDbSpline
210
0.0
220
0.0
230
1.0
 70
     8
 71
     3
 72
    10
 73
     6
 74
     0
 42
0.000000001
 43
0.00000001
 40
0.0
 40
0.0
 40
0.0
 40
0.0
 40
0.5
 40
0.5
 40
1.0
 40
1.0
 40
1.0
 40
1.0
 10
25.46220020886349
 20
7.688422265819973
 30
0.0
 10
25.36931905083421
 20
7.613088601275564
 30
0.0
 10
25.25649605255913
 20
7.570851673154152
 30
0.0
 10
25.03140233424395
 20
7.554418583389619
 30
0.0
 10
24.92409956341766
 20
7.579746146101684
 30
0.0
 10
24.8355679840449
 20
7.635083831580957
 30
0.0
  0
SPLINE
  5
54B
330
1F
100
AcDbEntity
  8
외형선
  6
Continuous
 62
     1
370
    15
100
AcDbSpline
210
0.0
220
0.0
230
1.0
 70
     8
 71
     3
 72
     8
 73
     4
 74
     0
 42
0.000000001
 43
0.00000001
 40
0.0
 40
0.0
 40
0.0
 40
0.0
 40
1.0
 40
1.0
 40
1.0
 40
1.0
 10
25.61852959337173
 20
7.751101289130425
 30
0.0
 10
25.56333590796768
 20
7.746776650698571
 30
0.0
 10
25.5077976609077
 20
7.725405258164791
 30
0.0
 10
25.46220020886363
 20
7.68842226582008
 30
0.0
  0
SPLINE
  5
54C
330
1F
100
AcDbEntity
  8
외형선
  6
Continuous
 62
     1
370
    15
100
AcDbSpline
210
0.0
220
0.0
230
1.0
 70
     8
 71
     3
 72
     8
 73
     4
 74
     0
 42
0.000000001
 43
0.00000001
 40
0.0
 40
0.0
 40
0.0
 40
0.0
 40
1.0
 40
1.0
 40
1.0
 40
1.0
 10
26.70859729742088
 20
7.826793632495338
 30
0.0
 10
26.34532553696235
 20
7.804807155055258
 30
0.0
 10
25.98174316026066
 20
7.779560474974637
 30
0.0
 10
25.61852959335786
 20
7.751101289129309
 30
0.0
  0
SPLINE
  5
54D
330
1F
100
AcDbEntity
  8
외형선
  6
Continuous
 62
     1
370
    15
100
AcDbSpline
210
0.0
220
0.0
230
1.0
 70
     8
 71
     3
 72
     8
 73
     4
 74
     0
 42
0.000000001
 43
0.00000001
 40
0.0
 40
0.0
 40
0.0
 40
0.0
 40
1.0
 40
1.0
 40
1.0
 40
1.0
 10
26.86559573219679
 20
7.784706860753019
 30
0.0
 10
26.82072331869941
 20
7.815376868943716
 30
0.0
 10
26.76553090461456
 20
7.830239453520832
 30
0.0
 10
26.70859729742401
 20
7.826793632495566
 30
0.0
  0
SPLINE
  5
54E
330
1F
100
AcDbEntity
  8
외형선
  6
Continuous
 62
     1
370
    15
100
AcDbSpline
210
0.0
220
0.0
230
1.0
 70
     8
 71
     3
 72
    10
 73
     6
 74
     0
 42
0.000000001
 43
0.00000001
 40
0.0
 40
0.0
 40
0.0
 40
0.0
 40
0.5
 40
0.5
 40
1.0
 40
1.0
 40
1.0
 40
1.0
 10
27.49227128668974
 20
7.817357496665842
 30
0.0
 10
27.39939149722565
 20
7.742889320850864
 30
0.0
 10
27.28657888731519
 20
7.703095002637923
 30
0.0
 10
27.06146664913373
 20
7.694069813804035
 30
0.0
 10
26.95414608099873
 20
7.72418326259163
 30
0.0
 10
26.86559573219685
 20
7.784706860752991
 30
0.0
  0
SPLINE
  5
54F
330
1F
100
AcDbEntity
  8
외형선
  6
Continuous
 62
     1
370
    15
100
AcDbSpline
210
0.0
220
0.0
230
1.0
 70
     8
 71
     3
 72
     8
 73
     4
 74
     0
 42
0.000000001
 43
0.00000001
 40
0.0
 40
0.0
 40
0.0
 40
0.0
 40
1.0
 40
1.0
 40
1.0
 40
1.0
 10
27.64861054371474
 20
7.876445912327064
 30
0.0
 10
27.59341812772897
 20
7.873956546525072
 30
0.0
 10
27.53787552956356
 20
7.85392158445962
 30
0.0
 10
27.49227128668988
 20
7.817357496665949
 30
0.0
  0
SPLINE
  5
550
330
1F
100
AcDbEntity
  8
외형선
  6
Continuous
 62
     1
370
    15
100
AcDbSpline
210
0.0
220
0.0
230
1.0
 70
     8
 71
     3
 72
     8
 73
     4
 74
     0
 42
0.000000001
 43
0.00000001
 40
0.0
 40
0.0
 40
0.0
 40
0.0
 40
1.0
 40
1.0
 40
1.0
 40
1.0
 10
28.73872473594045
 20
7.915741530480254
 30
0.0
 10
28.37470365577863
 20
7.905937232807304
 30
0.0
 10
28.01211024722701
 20
7.892840986291922
 30
0.0
 10
27.64861050909857
 20
7.876445910765725
 30
0.0
  0
SPLINE
  5
551
330
1F
100
AcDbEntity
  8
외형선
  6
Continuous
 62
     1
370
    15
100
AcDbSpline
210
0.0
220
0.0
230
1.0
 70
     8
 71
     3
 72
     8
 73
     4
 74
     0
 42
0.000000001
 43
0.00000001
 40
0.0
 40
0.0
 40
0.0
 40
0.0
 40
1.0
 40
1.0
 40
1.0
 40
1.0
 10
28.89571947139729
 20
7.867077944498945
 30
0.0
 10
28.85084710711291
 20
7.900105787233038
 30
0.0
 10
28.79565556467472
 20
7.917274866504187
 30
0.0
 10
28.73872518650879
 20
7.915741542615585
 30
0.0
  0
SPLINE
  5
552
330
1F
100
AcDbEntity
  8
외형선
  6
Continuous
 62
     1
370
    15
100
AcDbSpline
210
0.0
220
0.0
230
1.0
 70
     8
 71
     3
 72
    10
 73
     6
 74
     0
 42
0.000000001
 43
0.00000001
 40
0.0
 40
0.0
 40
0.0
 40
0.0
 40
0.5
 40
0.5
 40
1.0
 40
1.0
 40
1.0
 40
1.0
 10
29.52235288270921
 20
7.878729993427157
 30
0.0
 10
29.42947761959451
 20
7.805777411247774
 30
0.0
 10
29.31665790690332
 20
7.76877900842301
 30
0.0
 10
29.09156178964059
 20
7.76726738555567
 30
0.0
 10
28.98425498928677
 20
7.801912286128342
 30
0.0
 10
28.89571947139737
 20
7.867077944498902
 30
0.0
  0
SPLINE
  5
553
330
1F
100
AcDbEntity
  8
외형선
  6
Continuous
 62
     1
370
    15
100
AcDbSpline
210
0.0
220
0.0
230
1.0
 70
     8
 71
     3
 72
     8
 73
     4
 74
     0
 42
0.000000001
 43
0.00000001
 40
0.0
 40
0.0
 40
0.0
 40
0.0
 40
1.0
 40
1.0
 40
1.0
 40
1.0
 10
29.67867658478477
 20
7.933689160587328
 30
0.0
 10
29.62348444497192
 20
7.933067450106165
 30
0.0
 10
29.56794797861374
 20
7.914544481261657
 30
0.0
 10
29.52235288270933
 20
7.878729993427257
 30
0.0
  0
SPLINE
  5
554
330
1F
100
AcDbEntity
  8
외형선
  6
Continuous
 62
     1
370
    15
100
AcDbSpline
210
0.0
220
0.0
230
1.0
 70
     8
 71
     3
 72
     8
 73
     4
 74
     0
 42
0.000000001
 43
0.00000001
 40
0.0
 40
0.0
 40
0.0
 40
0.0
 40
1.0
 40
1.0
 40
1.0
 40
1.0
 10
30.76862174228589
 20
7.936075250550061
 30
0.0
 10
30.40567355798623
 20
7.938577624511069
 30
0.0
 10
30.04213176003049
 20
7.937783298966707
 30
0.0
 10
29.67867548890572
 20
7.933689148242784
 30
0.0
  0
SPLINE
  5
555
330
1F
100
AcDbEntity
  8
외형선
  6
Continuous
 62
     1
370
    15
100
AcDbSpline
210
0.0
220
0.0
230
1.0
 70
     8
 71
     3
 72
     8
 73
     4
 74
     0
 42
0.000000001
 43
0.00000001
 40
0.0
 40
0.0
 40
0.0
 40
0.0
 40
1.0
 40
1.0
 40
1.0
 40
1.0
 10
30.92558893653953
 20
7.881260004297943
 30
0.0
 10
30.88072849288656
 20
7.916354293581449
 30
0.0
 10
30.82554724356851
 20
7.935682771621657
 30
0.0
 10
30.76862354657052
 20
7.936075238110291
 30
0.0
  0
SPLINE
  5
556
330
1F
100
AcDbEntity
  8
외형선
  6
Continuous
 62
     1
370
    15
100
AcDbSpline
210
0.0
220
0.0
230
1.0
 70
     8
 71
     3
 72
    10
 73
     6
 74
     0
 42
0.000000001
 43
0.00000001
 40
0.0
 40
0.0
 40
0.0
 40
0.0
 40
0.5
 40
0.5
 40
1.0
 40
1.0
 40
1.0
 40
1.0
 10
31.55212078838875
 20
7.871845622990485
 30
0.0
 10
31.45926199149679
 20
7.801044993550093
 30
0.0
 10
31.34647533362499
 20
7.767158402284139
 30
0.0
 10
31.12141294272595
 20
7.773142425860556
 30
0.0
 10
31.01411594321254
 20
7.81200539759768
 30
0.0
 10
30.92558893653958
 20
7.881260004297907
 30
0.0
  0
SPLINE
  5
557
330
1F
100
AcDbEntity
  8
외형선
  6
Continuous
 62
     1
370
    15
100
AcDbSpline
210
0.0
220
0.0
230
1.0
 70
     8
 71
     3
 72
     8
 73
     4
 74
     0
 42
0.000000001
 43
0.00000001
 40
0.0
 40
0.0
 40
0.0
 40
0.0
 40
1.0
 40
1.0
 40
1.0
 40
1.0
 10
31.70842345697295
 20
7.922206647661987
 30
0.0
 10
31.65324183085366
 20
7.923455245417287
 30
0.0
 10
31.59771476770183
 20
7.906608968436487
 30
0.0
 10
31.55212078838889
 20
7.871845622990584
 30
0.0
  0
SPLINE
  5
558
330
1F
100
AcDbEntity
  8
외형선
  6
Continuous
 62
     1
370
    15
100
AcDbSpline
210
0.0
220
0.0
230
1.0
 70
     8
 71
     3
 72
     8
 73
     4
 74
     0
 42
0.000000001
 43
0.00000001
 40
0.0
 40
0.0
 40
0.0
 40
0.0
 40
1.0
 40
1.0
 40
1.0
 40
1.0
 10
32.79811671948275
 20
7.887702832324905
 30
0.0
 10
32.43426820574601
 20
7.90250285122687
 30
0.0
 10
32.07081055721011
 20
7.91400690309986
 30
0.0
 10
31.70842201090701
 20
7.922206680382153
 30
0.0
  0
SPLINE
  5
559
330
1F
100
AcDbEntity
  8
외형선
  6
Continuous
 62
     1
370
    15
100
AcDbSpline
210
0.0
220
0.0
230
1.0
 70
     8
 71
     3
 72
     8
 73
     4
 74
     0
 42
0.000000001
 43
0.00000001
 40
0.0
 40
0.0
 40
0.0
 40
0.0
 40
1.0
 40
1.0
 40
1.0
 40
1.0
 10
32.95502860924108
 20
7.827211135357231
 30
0.0
 10
32.9101873154726
 20
7.864068737517485
 30
0.0
 10
32.85502274926179
 20
7.885388103980866
 30
0.0
 10
32.79811716224705
 20
7.88770281431492
 30
0.0
  0
SPLINE
  5
55A
330
1F
100
AcDbEntity
  8
외형선
  6
Continuous
 62
     1
370
    15
100
AcDbSpline
210
0.0
220
0.0
230
1.0
 70
     8
 71
     3
 72
    10
 73
     6
 74
     0
 42
0.000000001
 43
0.00000001
 40
0.0
 40
0.0
 40
0.0
 40
0.0
 40
0.5
 40
0.5
 40
1.0
 40
1.0
 40
1.0
 40
1.0
 10
33.58134305150452
 20
7.79685593453106
 30
0.0
 10
33.48852436503194
 20
7.728811287784708
 30
0.0
 10
33.37576209299689
 20
7.698306345743667
 30
0.0
 10
33.15076525496337
 20
7.711731884253972
 30
0.0
 10
33.04350735121849
 20
7.754485439968455
 30
0.0
 10
32.95502860924114
 20
7.827211135357189
 30
0.0
  0
SPLINE
  5
55B
330
1F
100
AcDbEntity
  8
외형선
  6
Continuous
 62
     1
370
    15
100
AcDbSpline
210
0.0
220
0.0
230
1.0
 70
     8
 71
     3
 72
    10
 73
     6
 74
     0
 42
0.000000001
 43
0.00000001
 40
0.0
 40
0.0
 40
0.0
 40
0.0
 40
0.5
 40
0.5
 40
1.0
 40
1.0
 40
1.0
 40
1.0
 10
25.97048978527232
 20
1.566425167035348
 30
0.0
 10
25.94699165941105
 20
2.146073793042262
 30
0.0
 10
25.92245611505308
 20
2.720780394803242
 30
0.0
 10
25.87314031820497
 20
3.814608533889825
 30
0.0
 10
25.84837644979424
 20
4.333357507718489
 30
0.0
 10
25.82444986906873
 20
4.805068979749393
 30
0.0
  0
SPLINE
  5
55E
330
1F
100
AcDbEntity
  8
외형선
  6
Continuous
 62
     1
370
    15
100
AcDbSpline
210
0.0
220
0.0
230
1.0
 70
     8
 71
     3
 72
    10
 73
     6
 74
     0
 42
0.000000001
 43
0.00000001
 40
0.0
 40
0.0
 40
0.0
 40
0.0
 40
0.4999999999999998
 40
0.4999999999999998
 40
1.0
 40
1.0
 40
1.0
 40
1.0
 10
24.09732863104065
 20
2.246539734729126
 30
0.0
 10
24.07326113409962
 20
2.820708213318426
 30
0.0
 10
24.04850064358376
 20
3.380910041916181
 30
0.0
 10
23.99948170104045
 20
4.429592185371149
 30
0.0
 10
23.9752390814977
 20
4.917754478589572
 30
0.0
 10
23.9521440001254
 20
5.353747886644896
 30
0.0
  0
SPLINE
  5
55F
330
1F
100
AcDbEntity
  8
외형선
  6
Continuous
 62
     1
370
    15
100
AcDbSpline
210
0.0
220
0.0
230
1.0
 70
     8
 71
     3
 72
    10
 73
     6
 74
     0
 42
0.000000001
 43
0.00000001
 40
0.0
 40
0.0
 40
0.0
 40
0.0
 40
0.5000000000000002
 40
0.5000000000000002
 40
1.0
 40
1.0
 40
1.0
 40
1.0
 10
25.18715439397451
 20
1.862977714871988
 30
0.0
 10
25.16345480878735
 20
2.441603835349895
 30
0.0
 10
25.1388665174357
 20
3.011479940883973
 30
0.0
 10
25.08975864525485
 20
4.088864761122437
 30
0.0
 10
25.06525512346147
 20
4.596024533689643
 30
0.0
 10
25.04171469689331
 20
5.053998774492385
 30
0.0
  0
SPLINE
  5
563
330
1F
100
AcDbEntity
  8
외형선
  6
Continuous
 62
     1
370
    15
100
AcDbSpline
210
0.0
220
0.0
230
1.0
 70
     8
 71
     3
 72
    10
 73
     6
 74
     0
 42
0.000000001
 43
0.00000001
 40
0.0
 40
0.0
 40
0.0
 40
0.0
 40
0.5
 40
0.5
 40
1.0
 40
1.0
 40
1.0
 40
1.0
 10
25.34408941309525
 20
1.787518117135122
 30
0.0
 10
25.32034785746319
 20
2.365459676116686
 30
0.0
 10
25.29567776937847
 20
2.935482539001612
 30
0.0
 10
25.24634391062258
 20
4.014385628526611
 30
0.0
 10
25.22169657019688
 20
4.522907447757717
 30
0.0
 10
25.19799770017354
 20
4.982512813769461
 30
0.0
  0
SPLINE
  5
566
330
1F
100
AcDbEntity
  8
외형선
  6
Continuous
 62
     1
370
    15
100
AcDbSpline
210
0.0
220
0.0
230
1.0
 70
     8
 71
     3
 72
     8
 73
     4
 74
     0
 42
0.000000001
 43
0.00000001
 40
0.0
 40
0.0
 40
0.0
 40
0.0
 40
0.4740154220630616
 40
0.4740154220630616
 40
0.4740154220630616
 40
0.4740154220630616
 10
13.51616951901235
 20
-5.686651008035795
 30
0.0
 10
13.34433155177266
 20
-5.642928880315618
 30
0.0
 10
13.17225093958716
 20
-5.598654121900262
 30
0.0
 10
13.00000000000001
 20
-5.553844621142691
 30
0.0
  0
SPLINE
  5
568
330
1F
100
AcDbEntity
  8
외형선
  6
Continuous
 62
     1
370
    15
100
AcDbSpline
210
0.0
220
0.0
230
1.0
 70
     8
 71
     3
 72
    12
 73
     8
 74
     0
 42
0.000000001
 43
0.00000001
 40
0.0
 40
0.0
 40
0.0
 40
0.0
 40
0.4999999999999998
 40
0.4999999999999998
 40
0.7499999999999999
 40
0.7499999999999999
 40
1.0
 40
1.0
 40
1.0
 40
1.0
 10
13.51616951452283
 20
-5.686650931231611
 30
0.0
 10
13.49146483929454
 20
-5.263891603832576
 30
0.0
 10
13.46678650079741
 20
-4.791038991476967
 30
0.0
 10
13.43120681709328
 20
-4.036387468789769
 30
0.0
 10
13.41978349232446
 20
-3.778891042390512
 30
0.0
 10
13.3965421406468
 20
-3.246363615236305
 30
0.0
 10
13.38463676558504
 20
-2.970553691167694
 30
0.0
 10
13.37255286638592
 20
-2.68754116443769
 30
0.0
  0
SPLINE
  5
56B
330
1F
100
AcDbEntity
  8
외형선
  6
Continuous
 62
     1
370
    15
100
AcDbSpline
210
0.0
220
0.0
230
1.0
 70
     8
 71
     3
 72
    10
 73
     6
 74
     0
 42
0.000000001
 43
0.00000001
 40
0.0
 40
0.0
 40
0.0
 40
0.0
 40
0.4999999999999998
 40
0.4999999999999998
 40
1.0
 40
1.0
 40
1.0
 40
1.0
 10
23.94101588576595
 20
2.278018586614621
 30
0.0
 10
23.91679648115905
 20
2.850290572866427
 30
0.0
 10
23.89190255385088
 20
3.407912781367742
 30
0.0
 10
23.84268397175069
 20
4.449944183256548
 30
0.0
 10
23.81837544858561
 20
4.934035395143468
 30
0.0
 10
23.79525467766578
 20
5.365372822419516
 30
0.0
  0
SPLINE
  5
56D
330
1F
100
AcDbEntity
  8
외형선
  6
Continuous
 62
     1
370
    15
100
AcDbSpline
210
0.0
220
0.0
230
1.0
 70
     8
 71
     3
 72
    12
 73
     8
 74
     0
 42
0.000000001
 43
0.00000001
 40
0.0
 40
0.0
 40
0.0
 40
0.0
 40
0.5000000000000002
 40
0.5000000000000002
 40
0.7500000000000001
 40
0.7500000000000001
 40
1.0
 40
1.0
 40
1.0
 40
1.0
 10
22.06745236160529
 20
2.944027600657648
 30
0.0
 10
22.04289297671639
 20
3.504985765626159
 30
0.0
 10
22.01802434324435
 20
4.042306583430801
 30
0.0
 10
21.98169216018189
 20
4.782450719009688
 30
0.0
 10
21.96974286703283
 20
5.018276133566701
 30
0.0
 10
21.94638240256378
 20
5.464441895262439
 30
0.0
 10
21.93506074990304
 20
5.674414084126369
 30
0.0
 10
21.92329471355279
 20
5.874661562102716
 30
0.0
  0
SPLINE
  5
56E
330
1F
100
AcDbEntity
  8
외형선
  6
Continuous
 62
     1
370
    15
100
AcDbSpline
210
0.0
220
0.0
230
1.0
 70
     8
 71
     3
 72
    12
 73
     8
 74
     0
 42
0.000000001
 43
0.00000001
 40
0.0
 40
0.0
 40
0.0
 40
0.0
 40
0.5
 40
0.5
 40
0.75
 40
0.75
 40
1.0
 40
1.0
 40
1.0
 40
1.0
 10
23.15746271191495
 20
2.572459353649862
 30
0.0
 10
23.13312759690908
 20
3.141491335191887
 30
0.0
 10
23.10827409453623
 20
3.692048489557408
 30
0.0
 10
23.07164886539221
 20
4.458288154297662
 30
0.0
 10
23.05955015266548
 20
4.703832063574083
 30
0.0
 10
23.03579686837023
 20
5.171032109933677
 30
0.0
 10
23.02427710944423
 20
5.39188545079395
 30
0.0
 10
23.01277461864132
 20
5.601064354122286
 30
0.0
  0
SPLINE
  5
56F
330
1F
100
AcDbEntity
  8
외형선
  6
Continuous
 62
     1
370
    15
100
AcDbSpline
210
0.0
220
0.0
230
1.0
 70
     8
 71
     3
 72
    10
 73
     6
 74
     0
 42
0.000000001
 43
0.00000001
 40
0.0
 40
0.0
 40
0.0
 40
0.0
 40
0.5
 40
0.5
 40
1.0
 40
1.0
 40
1.0
 40
1.0
 10
23.31444006840459
 20
2.49390636975923
 30
0.0
 10
23.29003975566988
 20
3.06280231516179
 30
0.0
 10
23.26508229717743
 20
3.614033743971461
 30
0.0
 10
23.2159866445152
 20
4.638104553548047
 30
0.0
 10
23.19205606272627
 20
5.109505362037481
 30
0.0
 10
23.16901871784373
 20
5.52897899161367
 30
0.0
  0
LINE
  5
570
330
1F
100
AcDbEntity
  8
외형선
  6
Continuous
 62
     1
370
    15
100
AcDbLine
 10
18.09525187164544
 20
-6.675638258457198
 30
0.0
 11
18.17846274971961
 21
-6.626091897487655
 31
0.0
  0
SPLINE
  5
571
330
1F
100
AcDbEntity
  8
외형선
  6
Continuous
 62
     1
370
    15
100
AcDbSpline
210
0.0
220
0.0
230
1.0
 70
     8
 71
     3
 72
     8
 73
     4
 74
     0
 42
0.000000001
 43
0.00000001
 40
0.0
 40
0.0
 40
0.0
 40
0.0
 40
1.0
 40
1.0
 40
1.0
 40
1.0
 10
17.93891932826804
 20
-6.746673169599376
 30
0.0
 10
17.99411145752609
 20
-6.736089763158219
 30
0.0
 10
18.04965158028722
 20
-6.711481836743417
 30
0.0
 10
18.09525169454309
 20
-6.675638139212154
 30
0.0
  0
SPLINE
  5
572
330
1F
100
AcDbEntity
  8
외형선
  6
Continuous
 62
     1
370
    15
100
AcDbSpline
210
0.0
220
0.0
230
1.0
 70
     8
 71
     3
 72
     8
 73
     4
 74
     0
 42
0.000000001
 43
0.00000001
 40
0.0
 40
0.0
 40
0.0
 40
0.0
 40
1.0
 40
1.0
 40
1.0
 40
1.0
 10
17.93891932826816
 20
-6.74667316959777
 30
0.0
 10
17.5748853556814
 20
-6.816478765830269
 30
0.0
 10
17.21226627713213
 20
-6.883377111284361
 30
0.0
 10
16.84880536003678
 20
-6.94742726257256
 30
0.0
  0
SPLINE
  5
573
330
1F
100
AcDbEntity
  8
외형선
  6
Continuous
 62
     1
370
    15
100
AcDbSpline
210
0.0
220
0.0
230
1.0
 70
     8
 71
     3
 72
     8
 73
     4
 74
     0
 42
0.000000001
 43
0.00000001
 40
0.0
 40
0.0
 40
0.0
 40
0.0
 40
1.0
 40
1.0
 40
1.0
 40
1.0
 10
16.69180248540366
 20
-6.931839621150274
 30
0.0
 10
16.73667897984831
 20
-6.951904227140574
 30
0.0
 10
16.7918730705197
 20
-6.957460037999496
 30
0.0
 10
16.8488053598233
 20
-6.947427262613203
 30
0.0
  0
SPLINE
  5
574
330
1F
100
AcDbEntity
  8
외형선
  6
Continuous
 62
     1
370
    15
100
AcDbSpline
210
0.0
220
0.0
230
1.0
 70
     8
 71
     3
 72
    10
 73
     6
 74
     0
 42
0.000000001
 43
0.00000001
 40
0.0
 40
0.0
 40
0.0
 40
0.0
 40
0.5
 40
0.5
 40
1.0
 40
1.0
 40
1.0
 40
1.0
 10
16.06512667486783
 20
-7.036894693376226
 30
0.0
 10
16.15801350901316
 20
-6.962394022859939
 30
0.0
 10
16.27084373125322
 20
-6.91551623481908
 30
0.0
 10
16.49595110696933
 20
-6.880432286624
 30
0.0
 10
16.60326140137479
 20
-6.892252260618193
 30
0.0
 10
16.69180248540349
 20
-6.931839621150175
 30
0.0
  0
SPLINE
  5
575
330
1F
100
AcDbEntity
  8
외형선
  6
Continuous
 62
     1
370
    15
100
AcDbSpline
210
0.0
220
0.0
230
1.0
 70
     8
 71
     3
 72
     8
 73
     4
 74
     0
 42
0.000000001
 43
0.00000001
 40
0.0
 40
0.0
 40
0.0
 40
0.0
 40
1.0
 40
1.0
 40
1.0
 40
1.0
 10
15.90879154382563
 20
-7.106388465692959
 30
0.0
 10
15.96398707893377
 20
-7.097446718365518
 30
0.0
 10
16.01952739659379
 20
-7.073467979977295
 30
0.0
 10
16.06512667486865
 20
-7.036894693377803
 30
0.0
  0
SPLINE
  5
576
330
1F
100
AcDbEntity
  8
외형선
  6
Continuous
 62
     1
370
    15
100
AcDbSpline
210
0.0
220
0.0
230
1.0
 70
     8
 71
     3
 72
     8
 73
     4
 74
     0
 42
0.000000001
 43
0.00000001
 40
0.0
 40
0.0
 40
0.0
 40
0.0
 40
1.0
 40
1.0
 40
1.0
 40
1.0
 10
15.90879161907569
 20
-7.106388453500657
 30
0.0
 10
15.54553102799585
 20
-7.165237134571967
 30
0.0
 10
15.18194865867227
 20
-7.221148804424047
 30
0.0
 10
14.81872393758616
 20
-7.274019275588458
 30
0.0
  0
SPLINE
  5
577
330
1F
100
AcDbEntity
  8
외형선
  6
Continuous
 62
     1
370
    15
100
AcDbSpline
210
0.0
220
0.0
230
1.0
 70
     8
 71
     3
 72
     8
 73
     4
 74
     0
 42
0.000000001
 43
0.00000001
 40
0.0
 40
0.0
 40
0.0
 40
0.0
 40
1.0
 40
1.0
 40
1.0
 40
1.0
 10
14.66173277852764
 20
-7.250787849251822
 30
0.0
 10
14.70660223820681
 20
-7.274064009947779
 30
0.0
 10
14.76179210083924
 20
-7.282306191857145
 30
0.0
 10
14.81872334878005
 20
-7.274019361297462
 30
0.0
  0
SPLINE
  5
578
330
1F
100
AcDbEntity
  8
외형선
  6
Continuous
 62
     1
370
    15
100
AcDbSpline
210
0.0
220
0.0
230
1.0
 70
     8
 71
     3
 72
    10
 73
     6
 74
     0
 42
0.000000001
 43
0.00000001
 40
0.0
 40
0.0
 40
0.0
 40
0.0
 40
0.5
 40
0.5
 40
1.0
 40
1.0
 40
1.0
 40
1.0
 10
14.03510226063509
 20
-7.336750236190156
 30
0.0
 10
14.12797459618821
 20
-7.261392217345531
 30
0.0
 10
14.24077955551877
 20
-7.215950104867503
 30
0.0
 10
14.46587677881078
 20
-7.187761947612216
 30
0.0
 10
14.57318969828
 20
-7.204855872822861
 30
0.0
 10
14.66173277852758
 20
-7.250787849251765
 30
0.0
  0
SPLINE
  5
579
330
1F
100
AcDbEntity
  8
외형선
  6
Continuous
 62
     1
370
    15
100
AcDbSpline
210
0.0
220
0.0
230
1.0
 70
     8
 71
     3
 72
     8
 73
     4
 74
     0
 42
0.000000001
 43
0.00000001
 40
0.0
 40
0.0
 40
0.0
 40
0.0
 40
1.0
 40
1.0
 40
1.0
 40
1.0
 10
13.87877615262832
 20
-7.404157828250291
 30
0.0
 10
13.93396409365855
 20
-7.396909848690356
 30
0.0
 10
13.98950195494083
 20
-7.373751014468894
 30
0.0
 10
14.03510226063591
 20
-7.336750236191875
 30
0.0
  0
SPLINE
  5
57A
330
1F
100
AcDbEntity
  8
외형선
  6
Continuous
 62
     1
370
    15
100
AcDbSpline
210
0.0
220
0.0
230
1.0
 70
     8
 71
     3
 72
     8
 73
     4
 74
     0
 42
0.000000001
 43
0.00000001
 40
0.0
 40
0.0
 40
0.0
 40
0.0
 40
0.8064950856393688
 40
0.8064950856393688
 40
0.8064950856393688
 40
0.8064950856393688
 10
13.87877615262906
 20
-7.404157828248429
 30
0.0
 10
13.58579644271104
 20
-7.442635635342635
 30
0.0
 10
13.29321362701036
 20
-7.479088491730299
 30
0.0
 10
13.00000000000002
 20
-7.51352578787373
 30
0.0
  0
SPLINE
  5
58F
330
1F
100
AcDbEntity
  8
외형선
  6
Continuous
 62
     1
370
    15
100
AcDbSpline
210
0.0
220
0.0
230
1.0
 70
     8
 71
     3
 72
     8
 73
     4
 74
     0
 42
0.000000001
 43
0.00000001
 40
0.0
 40
0.0
 40
0.0
 40
0.0
 40
1.0
 40
1.0
 40
1.0
 40
1.0
 10
13.67317561098216
 20
-5.693490317309823
 30
0.0
 10
13.62829730354451
 20
-5.703467576037838
 30
0.0
 10
13.5731048114894
 20
-5.701137516282159
 30
0.0
 10
13.51616951901158
 20
-5.686651008035625
 30
0.0
  0
SPLINE
  5
590
330
1F
100
AcDbEntity
  8
외형선
  6
Continuous
 62
     1
370
    15
100
AcDbSpline
210
0.0
220
0.0
230
1.0
 70
     8
 71
     3
 72
    10
 73
     6
 74
     0
 42
0.000000001
 43
0.00000001
 40
0.0
 40
0.0
 40
0.0
 40
0.0
 40
0.5
 40
0.5
 40
1.0
 40
1.0
 40
1.0
 40
1.0
 10
14.29985999781039
 20
-5.847989047814551
 30
0.0
 10
14.20696551900929
 20
-5.779439298775898
 30
0.0
 10
14.09412936850754
 20
-5.730660211469115
 30
0.0
 10
13.86902313294613
 20
-5.677557103024313
 30
0.0
 10
13.76171646485582
 20
-5.673806085494149
 30
0.0
 10
13.67317561098216
 20
-5.693490317309809
 30
0.0
  0
SPLINE
  5
591
330
1F
100
AcDbEntity
  8
외형선
  6
Continuous
 62
     1
370
    15
100
AcDbSpline
210
0.0
220
0.0
230
1.0
 70
     8
 71
     3
 72
     8
 73
     4
 74
     0
 42
0.000000001
 43
0.00000001
 40
0.0
 40
0.0
 40
0.0
 40
0.0
 40
1.0
 40
1.0
 40
1.0
 40
1.0
 10
14.45619607366851
 20
-5.920220936780595
 30
0.0
 10
14.40100093611645
 20
-5.90684214922689
 30
0.0
 10
14.34546064344158
 20
-5.881639194242609
 30
0.0
 10
14.29985999781044
 20
-5.847989047814565
 30
0.0
  0
SPLINE
  5
592
330
1F
100
AcDbEntity
  8
외형선
  6
Continuous
 62
     1
370
    15
100
AcDbSpline
210
0.0
220
0.0
230
1.0
 70
     8
 71
     3
 72
     8
 73
     4
 74
     0
 42
0.000000001
 43
0.00000001
 40
0.0
 40
0.0
 40
0.0
 40
0.0
 40
1.0
 40
1.0
 40
1.0
 40
1.0
 10
15.54625547951295
 20
-6.17677710289351
 30
0.0
 10
15.18277158161717
 20
-6.093780931649093
 30
0.0
 10
14.81919199411504
 20
-6.008207768915312
 30
0.0
 10
14.45619607367624
 20
-5.920220936782314
 30
0.0
  0
SPLINE
  5
593
330
1F
100
AcDbEntity
  8
외형선
  6
Continuous
 62
     1
370
    15
100
AcDbSpline
210
0.0
220
0.0
230
1.0
 70
     8
 71
     3
 72
     8
 73
     4
 74
     0
 42
0.000000001
 43
0.00000001
 40
0.0
 40
0.0
 40
0.0
 40
0.0
 40
1.0
 40
1.0
 40
1.0
 40
1.0
 10
15.70324231972788
 20
-6.175674698396719
 30
0.0
 10
15.65837421120582
 20
-6.189309447280095
 30
0.0
 10
15.6031852393896
 20
-6.189776171427113
 30
0.0
 10
15.54625547949612
 20
-6.176777102889687
 30
0.0
  0
SPLINE
  5
594
330
1F
100
AcDbEntity
  8
외형선
  6
Continuous
 62
     1
370
    15
100
AcDbSpline
210
0.0
220
0.0
230
1.0
 70
     8
 71
     3
 72
    10
 73
     6
 74
     0
 42
0.000000001
 43
0.00000001
 40
0.0
 40
0.0
 40
0.0
 40
0.0
 40
0.5
 40
0.5
 40
1.0
 40
1.0
 40
1.0
 40
1.0
 10
16.32985401122181
 20
-6.313835990540866
 30
0.0
 10
16.23698666723391
 20
-6.242651140881947
 30
0.0
 10
16.1241814852396
 20
-6.194159118283494
 30
0.0
 10
15.89908938995168
 20
-6.14702344080041
 30
0.0
 10
15.79177983527427
 20
-6.148769468134134
 30
0.0
 10
15.70324231972788
 20
-6.175674698396733
 30
0.0
  0
SPLINE
  5
595
330
1F
100
AcDbEntity
  8
외형선
  6
Continuous
 62
     1
370
    15
100
AcDbSpline
210
0.0
220
0.0
230
1.0
 70
     8
 71
     3
 72
     8
 73
     4
 74
     0
 42
0.000000001
 43
0.00000001
 40
0.0
 40
0.0
 40
0.0
 40
0.0
 40
1.0
 40
1.0
 40
1.0
 40
1.0
 10
16.4861746123299
 20
-6.385697769878306
 30
0.0
 10
16.43098625664911
 20
-6.373765626438029
 30
0.0
 10
16.3754504109198
 20
-6.348786627848966
 30
0.0
 10
16.3298540112219
 20
-6.313835990540923
 30
0.0
  0
SPLINE
  5
596
330
1F
100
AcDbEntity
  8
외형선
  6
Continuous
 62
     1
370
    15
100
AcDbSpline
210
0.0
220
0.0
230
1.0
 70
     8
 71
     3
 72
     8
 73
     4
 74
     0
 42
0.000000001
 43
0.00000001
 40
0.0
 40
0.0
 40
0.0
 40
0.0
 40
1.0
 40
1.0
 40
1.0
 40
1.0
 10
17.57610081128465
 20
-6.61353105465929
 30
0.0
 10
17.21263000846372
 20
-6.540304914815067
 30
0.0
 10
16.85012012185805
 20
-6.464385564984411
 30
0.0
 10
16.48617461235287
 20
-6.385697769883109
 30
0.0
  0
SPLINE
  5
597
330
1F
100
AcDbEntity
  8
외형선
  6
Continuous
 62
     1
370
    15
100
AcDbSpline
210
0.0
220
0.0
230
1.0
 70
     8
 71
     3
 72
     8
 73
     4
 74
     0
 42
0.000000001
 43
0.00000001
 40
0.0
 40
0.0
 40
0.0
 40
0.0
 40
1.0
 40
1.0
 40
1.0
 40
1.0
 10
17.73305705089442
 20
-6.604676449120106
 30
0.0
 10
17.68819778174571
 20
-6.621807438565327
 30
0.0
 10
17.63301881094364
 20
-6.624997960309784
 30
0.0
 10
17.57610081130321
 20
-6.613531054663071
 30
0.0
  0
SPLINE
  5
598
330
1F
100
AcDbEntity
  8
외형선
  6
Continuous
 62
     1
370
    15
100
AcDbSpline
210
0.0
220
0.0
230
1.0
 70
     8
 71
     3
 72
    10
 73
     6
 74
     0
 42
0.000000001
 43
0.00000001
 40
0.0
 40
0.0
 40
0.0
 40
0.0
 40
0.5000000000000034
 40
0.5000000000000034
 40
1.0
 40
1.0
 40
1.0
 40
1.0
 10
18.35953561626386
 20
-6.725603238039255
 30
0.0
 10
18.26668260090517
 20
-6.652383174662347
 30
0.0
 10
18.15388514772695
 20
-6.604573856473039
 30
0.0
 10
17.92884067308393
 20
-6.563724178829901
 30
0.0
 10
17.82156257450342
 20
-6.570877699841233
 30
0.0
 10
17.73305705089442
 20
-6.604676449120106
 30
0.0
  0
SPLINE
  5
599
330
1F
100
AcDbEntity
  8
외형선
  6
Continuous
 62
     1
370
    15
100
AcDbSpline
210
0.0
220
0.0
230
1.0
 70
     8
 71
     3
 72
     8
 73
     4
 74
     0
 42
0.000000001
 43
0.00000001
 40
0.0
 40
0.0
 40
0.0
 40
0.0
 40
1.0
 40
1.0
 40
1.0
 40
1.0
 10
18.51582162825454
 20
-6.796447004072931
 30
0.0
 10
18.46064119812033
 20
-6.786081487284903
 30
0.0
 10
18.40511848501856
 20
-6.761548010820476
 30
0.0
 10
18.35953561626391
 20
-6.725603238039284
 30
0.0
  0
SPLINE
  5
59A
330
1F
100
AcDbEntity
  8
외형선
  6
Continuous
 62
     1
370
    15
100
AcDbSpline
210
0.0
220
0.0
230
1.0
 70
     8
 71
     3
 72
     8
 73
     4
 74
     0
 42
0.000000001
 43
0.00000001
 40
0.0
 40
0.0
 40
0.0
 40
0.0
 40
1.0
 40
1.0
 40
1.0
 40
1.0
 10
19.60540208396401
 20
-6.992545817028912
 30
0.0
 10
19.24236040930529
 20
-6.930064869082202
 30
0.0
 10
18.87894075250867
 20
-6.864658095745938
 30
0.0
 10
18.51582162824033
 20
-6.796447004070131
 30
0.0
  0
SPLINE
  5
59B
330
1F
100
AcDbEntity
  8
외형선
  6
Continuous
 62
     1
370
    15
100
AcDbSpline
210
0.0
220
0.0
230
1.0
 70
     8
 71
     3
 72
     8
 73
     4
 74
     0
 42
0.000000001
 43
0.00000001
 40
0.0
 40
0.0
 40
0.0
 40
0.0
 40
1.0
 40
1.0
 40
1.0
 40
1.0
 10
19.76229735461322
 20
-6.975919901699712
 30
0.0
 10
19.7174626647693
 20
-6.99641606644883
 30
0.0
 10
19.66230398136511
 20
-7.002338864873636
 30
0.0
 10
19.60540208396552
 20
-6.99254581702921
 30
0.0
  0
SPLINE
  5
59C
330
1F
100
AcDbEntity
  8
외형선
  6
Continuous
 62
     1
370
    15
100
AcDbSpline
210
0.0
220
0.0
230
1.0
 70
     8
 71
     3
 72
    10
 73
     6
 74
     0
 42
0.000000001
 43
0.00000001
 40
0.0
 40
0.0
 40
0.0
 40
0.0
 40
0.5
 40
0.5
 40
1.0
 40
1.0
 40
1.0
 40
1.0
 10
20.38856057898658
 20
-7.078540301628337
 30
0.0
 10
20.29574939894601
 20
-7.003905826347719
 30
0.0
 10
20.18300598748712
 20
-6.957172116270826
 30
0.0
 10
19.95802546953234
 20
-6.922951573405882
 30
0.0
 10
19.85077262320294
 20
-6.935473459724733
 30
0.0
 10
19.76229735461322
 20
-6.975919901699697
 30
0.0
  0
SPLINE
  5
59D
330
1F
100
AcDbEntity
  8
외형선
  6
Continuous
 62
     1
370
    15
100
AcDbSpline
210
0.0
220
0.0
230
1.0
 70
     8
 71
     3
 72
     8
 73
     4
 74
     0
 42
0.000000001
 43
0.00000001
 40
0.0
 40
0.0
 40
0.0
 40
0.0
 40
1.0
 40
1.0
 40
1.0
 40
1.0
 10
20.54480271544426
 20
-7.147828986568157
 30
0.0
 10
20.48964083488531
 20
-7.139086823440536
 30
0.0
 10
20.43413295621954
 20
-7.115187507930273
 30
0.0
 10
20.38856057898661
 20
-7.078540301628394
 30
0.0
  0
SPLINE
  5
59E
330
1F
100
AcDbEntity
  8
외형선
  6
Continuous
 62
     1
370
    15
100
AcDbSpline
210
0.0
220
0.0
230
1.0
 70
     8
 71
     3
 72
     8
 73
     4
 74
     0
 42
0.000000001
 43
0.00000001
 40
0.0
 40
0.0
 40
0.0
 40
0.0
 40
1.0
 40
1.0
 40
1.0
 40
1.0
 10
21.6342652082748
 20
-7.311440091653537
 30
0.0
 10
21.27040232499269
 20
-7.259895639294626
 30
0.0
 10
20.90783365137145
 20
-7.20536284192805
 30
0.0
 10
20.54480273159189
 20
-7.147828989127149
 30
0.0
  0
SPLINE
  5
59F
330
1F
100
AcDbEntity
  8
외형선
  6
Continuous
 62
     1
370
    15
100
AcDbSpline
210
0.0
220
0.0
230
1.0
 70
     8
 71
     3
 72
     8
 73
     4
 74
     0
 42
0.000000001
 43
0.00000001
 40
0.0
 40
0.0
 40
0.0
 40
0.0
 40
1.0
 40
1.0
 40
1.0
 40
1.0
 10
21.79117774253476
 20
-7.287243828014411
 30
0.0
 10
21.74633491170525
 20
-7.310918921245531
 30
0.0
 10
21.69117056794894
 20
-7.319501247951337
 30
0.0
 10
21.6342652932689
 20
-7.311440103693741
 30
0.0
  0
SPLINE
  5
5A0
330
1F
100
AcDbEntity
  8
외형선
  6
Continuous
 62
     1
370
    15
100
AcDbSpline
210
0.0
220
0.0
230
1.0
 70
     8
 71
     3
 72
    10
 73
     6
 74
     0
 42
0.000000001
 43
0.00000001
 40
0.0
 40
0.0
 40
0.0
 40
0.0
 40
0.5
 40
0.5
 40
1.0
 40
1.0
 40
1.0
 40
1.0
 10
22.41758166512523
 20
-7.370597091108962
 30
0.0
 10
22.32474357779751
 20
-7.295214921441229
 30
0.0
 10
22.21196571750829
 20
-7.250003336970607
 30
0.0
 10
21.98693913550753
 20
-7.222751949626016
 30
0.0
 10
21.87966750334047
 20
-7.240525025960167
 30
0.0
 10
21.79117774253476
 20
-7.287243828014425
 30
0.0
  0
SPLINE
  5
5A1
330
1F
100
AcDbEntity
  8
외형선
  6
Continuous
 62
     1
370
    15
100
AcDbSpline
210
0.0
220
0.0
230
1.0
 70
     8
 71
     3
 72
     8
 73
     4
 74
     0
 42
0.000000001
 43
0.00000001
 40
0.0
 40
0.0
 40
0.0
 40
0.0
 40
1.0
 40
1.0
 40
1.0
 40
1.0
 10
22.57386775721309
 20
-7.437641631475444
 30
0.0
 10
22.51868724643154
 20
-7.430635045176231
 30
0.0
 10
22.46316402515308
 20
-7.407608810074521
 30
0.0
 10
22.41758166512531
 20
-7.370597091109019
 30
0.0
  0
SPLINE
  5
5A2
330
1F
100
AcDbEntity
  8
외형선
  6
Continuous
 62
     1
370
    15
100
AcDbSpline
210
0.0
220
0.0
230
1.0
 70
     8
 71
     3
 72
     8
 73
     4
 74
     0
 42
0.000000001
 43
0.00000001
 40
0.0
 40
0.0
 40
0.0
 40
0.0
 40
1.0
 40
1.0
 40
1.0
 40
1.0
 10
23.66366069402002
 20
-7.566743448314384
 30
0.0
 10
23.30083018969646
 20
-7.526852662988759
 30
0.0
 10
22.93733960453815
 20
-7.483793738976217
 30
0.0
 10
22.57386775721321
 20
-7.437641631475358
 30
0.0
  0
SPLINE
  5
5A3
330
1F
100
AcDbEntity
  8
외형선
  6
Continuous
 62
     1
370
    15
100
AcDbSpline
210
0.0
220
0.0
230
1.0
 70
     8
 71
     3
 72
     8
 73
     4
 74
     0
 42
0.000000001
 43
0.00000001
 40
0.0
 40
0.0
 40
0.0
 40
0.0
 40
1.0
 40
1.0
 40
1.0
 40
1.0
 10
23.82062647135814
 20
-7.535197612397212
 30
0.0
 10
23.77576542353927
 20
-7.56183917113384
 30
0.0
 10
23.72058450576938
 20
-7.573001840393673
 30
0.0
 10
23.66366069402346
 20
-7.56674344831481
 30
0.0
  0
SPLINE
  5
5A4
330
1F
100
AcDbEntity
  8
외형선
  6
Continuous
 62
     1
370
    15
100
AcDbSpline
210
0.0
220
0.0
230
1.0
 70
     8
 71
     3
 72
    10
 73
     6
 74
     0
 42
0.000000001
 43
0.00000001
 40
0.0
 40
0.0
 40
0.0
 40
0.0
 40
0.5
 40
0.5
 40
1.0
 40
1.0
 40
1.0
 40
1.0
 10
24.44721733717296
 20
-7.598808629893881
 30
0.0
 10
24.35434458028294
 20
-7.52326813472115
 30
0.0
 10
24.24154948455205
 20
-7.479918993058448
 30
0.0
 10
24.0164711518064
 20
-7.459781091046068
 30
0.0
 10
23.90916239994024
 20
-7.482618922056631
 30
0.0
 10
23.82062647135814
 20
-7.535197612397212
 30
0.0
  0
SPLINE
  5
5A5
330
1F
100
AcDbEntity
  8
외형선
  6
Continuous
 62
     1
370
    15
100
AcDbSpline
210
0.0
220
0.0
230
1.0
 70
     8
 71
     3
 72
     8
 73
     4
 74
     0
 42
0.000000001
 43
0.00000001
 40
0.0
 40
0.0
 40
0.0
 40
0.0
 40
1.0
 40
1.0
 40
1.0
 40
1.0
 10
24.60354284464358
 20
-7.663125786779545
 30
0.0
 10
24.54835325713154
 20
-7.657881743546199
 30
0.0
 10
24.49281738720393
 20
-7.635898627807023
 30
0.0
 10
24.44721733717302
 20
-7.598808629893938
 30
0.0
  0
SPLINE
  5
5A6
330
1F
100
AcDbEntity
  8
외형선
  6
Continuous
 62
     1
370
    15
100
AcDbSpline
210
0.0
220
0.0
230
1.0
 70
     8
 71
     3
 72
     8
 73
     4
 74
     0
 42
0.000000001
 43
0.00000001
 40
0.0
 40
0.0
 40
0.0
 40
0.0
 40
1.0
 40
1.0
 40
1.0
 40
1.0
 10
25.6935720808211
 20
-7.756935069393094
 30
0.0
 10
25.32967896380555
 20
-7.728869599535201
 30
0.0
 10
24.96610956872937
 20
-7.69757640802365
 30
0.0
 10
24.60354284463634
 20
-7.663125786778764
 30
0.0
  0
SPLINE
  5
5A7
330
1F
100
AcDbEntity
  8
외형선
  6
Continuous
 62
     1
370
    15
100
AcDbSpline
210
0.0
220
0.0
230
1.0
 70
     8
 71
     3
 72
     8
 73
     4
 74
     0
 42
0.000000001
 43
0.00000001
 40
0.0
 40
0.0
 40
0.0
 40
0.0
 40
1.0
 40
1.0
 40
1.0
 40
1.0
 10
25.85056431710515
 20
-7.718270322484614
 30
0.0
 10
25.80569351090904
 20
-7.747664553194227
 30
0.0
 10
25.75050269833861
 20
-7.76132587662515
 30
0.0
 10
25.69357208087172
 20
-7.756935069397045
 30
0.0
  0
SPLINE
  5
5A8
330
1F
100
AcDbEntity
  8
외형선
  6
Continuous
 62
     1
370
    15
100
AcDbSpline
210
0.0
220
0.0
230
1.0
 70
     8
 71
     3
 72
    10
 73
     6
 74
     0
 42
0.000000001
 43
0.00000001
 40
0.0
 40
0.0
 40
0.0
 40
0.0
 40
0.5
 40
0.5
 40
1.0
 40
1.0
 40
1.0
 40
1.0
 10
26.47721820885042
 20
-7.761263859900666
 30
0.0
 10
26.38434262801664
 20
-7.68629077957543
 30
0.0
 10
26.27152544056898
 20
-7.645235270903427
 30
0.0
 10
26.04641968359849
 20
-7.63250762115716
 30
0.0
 10
25.93910519302116
 20
-7.660268446553658
 30
0.0
 10
25.85056431710512
 20
-7.718270322484614
 30
0.0
  0
SPLINE
  5
5A9
330
1F
100
AcDbEntity
  8
외형선
  6
Continuous
 62
     1
370
    15
100
AcDbSpline
210
0.0
220
0.0
230
1.0
 70
     8
 71
     3
 72
     8
 73
     4
 74
     0
 42
0.000000001
 43
0.00000001
 40
0.0
 40
0.0
 40
0.0
 40
0.0
 40
1.0
 40
1.0
 40
1.0
 40
1.0
 10
26.63355216490183
 20
-7.822205560980365
 30
0.0
 10
26.57835753544094
 20
-7.818797212537262
 30
0.0
 10
26.52281705414208
 20
-7.798073168225798
 30
0.0
 10
26.47721820885047
 20
-7.761263859900708
 30
0.0
  0
SPLINE
  5
5AA
330
1F
100
AcDbEntity
  8
외형선
  6
Continuous
 62
     1
370
    15
100
AcDbSpline
210
0.0
220
0.0
230
1.0
 70
     8
 71
     3
 72
     8
 73
     4
 74
     0
 42
0.000000001
 43
0.00000001
 40
0.0
 40
0.0
 40
0.0
 40
0.0
 40
1.0
 40
1.0
 40
1.0
 40
1.0
 10
27.72365821308634
 20
-7.879784457303927
 30
0.0
 10
27.36100749120797
 20
-7.86387577919983
 30
0.0
 10
26.99741242133612
 20
-7.84467445968572
 30
0.0
 10
26.63355216489813
 20
-7.822205560980052
 30
0.0
  0
SPLINE
  5
5AB
330
1F
100
AcDbEntity
  8
외형선
  6
Continuous
 62
     1
370
    15
100
AcDbSpline
210
0.0
220
0.0
230
1.0
 70
     8
 71
     3
 72
     8
 73
     4
 74
     0
 42
0.000000001
 43
0.00000001
 40
0.0
 40
0.0
 40
0.0
 40
0.0
 40
1.0
 40
1.0
 40
1.0
 40
1.0
 10
27.88066226620634
 20
-7.834375834995214
 30
0.0
 10
27.83578699444359
 20
-7.866254822999196
 30
0.0
 10
27.78059403258837
 20
-7.882282104573989
 30
0.0
 10
27.72365832935461
 20
-7.879784462404402
 30
0.0
  0
SPLINE
  5
5AC
330
1F
100
AcDbEntity
  8
외형선
  6
Continuous
 62
     1
370
    15
100
AcDbSpline
210
0.0
220
0.0
230
1.0
 70
     8
 71
     3
 72
    10
 73
     6
 74
     0
 42
0.000000001
 43
0.00000001
 40
0.0
 40
0.0
 40
0.0
 40
0.0
 40
0.5
 40
0.5
 40
1.0
 40
1.0
 40
1.0
 40
1.0
 10
28.5073455976447
 20
-7.85658943490499
 30
0.0
 10
28.4144485894814
 20
-7.78278482295795
 30
0.0
 10
28.30161196589083
 20
-7.744351410650012
 30
0.0
 10
28.07651082405616
 20
-7.739075291107113
 30
0.0
 10
27.96920938533825
 20
-7.771472760814007
 30
0.0
 10
27.88066226620634
 20
-7.834375834995214
 30
0.0
  0
SPLINE
  5
5AD
330
1F
100
AcDbEntity
  8
외형선
  6
Continuous
 62
     1
370
    15
100
AcDbSpline
210
0.0
220
0.0
230
1.0
 70
     8
 71
     3
 72
     8
 73
     4
 74
     0
 42
0.000000001
 43
0.00000001
 40
0.0
 40
0.0
 40
0.0
 40
0.0
 40
1.0
 40
1.0
 40
1.0
 40
1.0
 10
28.6636806503023
 20
-7.913673290265962
 30
0.0
 10
28.60848640750595
 20
-7.912117504843081
 30
0.0
 10
28.55294670030668
 20
-7.892818499251291
 30
0.0
 10
28.50734559764473
 20
-7.856589434905047
 30
0.0
  0
SPLINE
  5
5AE
330
1F
100
AcDbEntity
  8
외형선
  6
Continuous
 62
     1
370
    15
100
AcDbSpline
210
0.0
220
0.0
230
1.0
 70
     8
 71
     3
 72
     8
 73
     4
 74
     0
 42
0.000000001
 43
0.00000001
 40
0.0
 40
0.0
 40
0.0
 40
0.0
 40
1.0
 40
1.0
 40
1.0
 40
1.0
 10
29.75371393655865
 20
-7.934487549804842
 30
0.0
 10
29.39010367509806
 20
-7.930845878102659
 30
0.0
 10
29.02653269815855
 20
-7.923901169776116
 30
0.0
 10
28.66368023705883
 20
-7.913673278617622
 30
0.0
  0
SPLINE
  5
5AF
330
1F
100
AcDbEntity
  8
외형선
  6
Continuous
 62
     1
370
    15
100
AcDbSpline
210
0.0
220
0.0
230
1.0
 70
     8
 71
     3
 72
     8
 73
     4
 74
     0
 42
0.000000001
 43
0.00000001
 40
0.0
 40
0.0
 40
0.0
 40
0.0
 40
1.0
 40
1.0
 40
1.0
 40
1.0
 10
29.91069528543508
 20
-7.882690483150512
 30
0.0
 10
29.86582950583394
 20
-7.916787985278233
 30
0.0
 10
29.81064258526899
 20
-7.935057707120393
 30
0.0
 10
29.75371509285884
 20
-7.934487561385581
 30
0.0
  0
SPLINE
  5
5B0
330
1F
100
AcDbEntity
  8
외형선
  6
Continuous
 62
     1
370
    15
100
AcDbSpline
210
0.0
220
0.0
230
1.0
 70
     8
 71
     3
 72
    10
 73
     6
 74
     0
 42
0.000000001
 43
0.00000001
 40
0.0
 40
0.0
 40
0.0
 40
0.0
 40
0.0702680012086789
 40
0.5610997742973388
 40
0.9999999999999999
 40
0.9999999999999999
 40
0.9999999999999999
 40
0.9999999999999999
 10
30.2443129479885
 20
-7.781387772411122
 30
0.0
 10
30.23592333500562
 20
-7.779940316089494
 30
0.0
 10
30.16893110710433
 20
-7.768382175806636
 30
0.0
 10
30.04814330579936
 20
-7.799015530252362
 30
0.0
 10
29.95477236169737
 20
-7.855856866994301
 30
0.0
 10
29.91069457530975
 20
-7.882690057158484
 30
0.0
  0
SPLINE
  5
5B2
330
1F
100
AcDbEntity
  8
외형선
  6
Continuous
 62
     1
370
    15
100
AcDbSpline
210
0.0
220
0.0
230
1.0
 70
     8
 71
     3
 72
    12
 73
     8
 74
     0
 42
0.000000001
 43
0.00000001
 40
0.0
 40
0.0
 40
0.0
 40
0.0
 40
0.4999999999999998
 40
0.4999999999999998
 40
0.7499999999999999
 40
0.7499999999999999
 40
1.0
 40
1.0
 40
1.0
 40
1.0
 10
13.67317554528796
 20
-5.693489210139319
 30
0.0
 10
13.64836258709389
 20
-5.275306476755318
 30
0.0
 10
13.62354036592109
 20
-4.806314564269414
 30
0.0
 10
13.58771615797028
 20
-4.056298907327729
 30
0.0
 10
13.57618774631831
 20
-3.799994957760106
 30
0.0
 10
13.55291203588476
 20
-3.270968280400922
 30
0.0
 10
13.54098114993738
 20
-2.996765576823535
 30
0.0
 10
13.52886397171551
 20
-2.715206540910344
 30
0.0
  0
SPLINE
  5
5B3
330
1F
100
AcDbEntity
  8
외형선
  6
Continuous
 62
     1
370
    15
100
AcDbSpline
210
0.0
220
0.0
230
1.0
 70
     8
 71
     3
 72
    10
 73
     6
 74
     0
 42
0.000000001
 43
0.00000001
 40
0.0
 40
0.0
 40
0.0
 40
0.0
 40
0.5
 40
0.5
 40
1.0
 40
1.0
 40
1.0
 40
1.0
 10
14.45619606677258
 20
-5.920220824016511
 30
0.0
 10
14.43154071612955
 20
-5.517084023160109
 30
0.0
 10
14.40672521140309
 20
-5.060862416654317
 30
0.0
 10
14.35867292611323
 20
-4.079681408470179
 30
0.0
 10
14.33616882053761
 20
-3.561111627482234
 30
0.0
 10
14.31232383891782
 20
-3.007196234345429
 30
0.0
  0
SPLINE
  5
5B4
330
1F
100
AcDbEntity
  8
외형선
  6
Continuous
 62
     1
370
    15
100
AcDbSpline
210
0.0
220
0.0
230
1.0
 70
     8
 71
     3
 72
    12
 73
     8
 74
     0
 42
0.000000001
 43
0.00000001
 40
0.0
 40
0.0
 40
0.0
 40
0.0
 40
0.5000000000000002
 40
0.5000000000000002
 40
0.75
 40
0.75
 40
1.0
 40
1.0
 40
1.0
 40
1.0
 10
15.54625546390389
 20
-6.176776861749318
 30
0.0
 10
15.52175326234504
 20
-5.797827255325842
 30
0.0
 10
15.49687790125304
 20
-5.362776985863164
 30
0.0
 10
15.46044123828293
 20
-4.651798165100558
 30
0.0
 10
15.44844165608961
 20
-4.405193798457688
 30
0.0
 10
15.42495286143904
 20
-3.898075873925421
 30
0.0
 10
15.41364402610705
 20
-3.639003606941642
 30
0.0
 10
15.40195292486632
 20
-3.370055310137673
 30
0.0
  0
SPLINE
  5
5B5
330
1F
100
AcDbEntity
  8
외형선
  6
Continuous
 62
     1
370
    15
100
AcDbSpline
210
0.0
220
0.0
230
1.0
 70
     8
 71
     3
 72
    10
 73
     6
 74
     0
 42
0.000000001
 43
0.00000001
 40
0.0
 40
0.0
 40
0.0
 40
0.0
 40
0.5
 40
0.5
 40
1.0
 40
1.0
 40
1.0
 40
1.0
 10
14.29985996194458
 20
-5.847988461441517
 30
0.0
 10
14.27508114523116
 20
-5.442877395729738
 30
0.0
 10
14.25016757818963
 20
-4.984962176826954
 30
0.0
 10
14.20199155603186
 20
-4.001585876830134
 30
0.0
 10
14.17940049113827
 20
-3.482081630773934
 30
0.0
 10
14.1553813484206
 20
-2.92699759334333
 30
0.0
  0
SPLINE
  5
5B6
330
1F
100
AcDbEntity
  8
외형선
  6
Continuous
 62
     1
370
    15
100
AcDbSpline
210
0.0
220
0.0
230
1.0
 70
     8
 71
     3
 72
    12
 73
     8
 74
     0
 42
0.000000001
 43
0.00000001
 40
0.0
 40
0.0
 40
0.0
 40
0.0
 40
0.4999999999999996
 40
0.4999999999999996
 40
0.7499999999999998
 40
0.7499999999999998
 40
1.0
 40
1.0
 40
1.0
 40
1.0
 10
21.91112159015725
 20
2.969244144304426
 30
0.0
 10
21.88642978986545
 20
3.527806388761434
 30
0.0
 10
21.86145240049368
 20
4.062042095780157
 30
0.0
 10
21.82501083511977
 20
4.796553554123392
 30
0.0
 10
21.81303391335078
 20
5.030337466098359
 30
0.0
 10
21.78963709999204
 20
5.472137471536783
 30
0.0
 10
21.77823316171467
 20
5.680244022993918
 30
0.0
 10
21.7663752182365
 20
5.878476995454946
 30
0.0
  0
SPLINE
  5
5B7
330
1F
100
AcDbEntity
  8
외형선
  6
Continuous
 62
     1
370
    15
100
AcDbSpline
210
0.0
220
0.0
230
1.0
 70
     8
 71
     3
 72
    10
 73
     6
 74
     0
 42
0.000000001
 43
0.00000001
 40
0.0
 40
0.0
 40
0.0
 40
0.0
 40
0.5
 40
0.5
 40
1.0
 40
1.0
 40
1.0
 40
1.0
 10
21.28445864954548
 20
3.177852908127079
 30
0.0
 10
21.25969116196106
 20
3.730504182800686
 30
0.0
 10
21.23476234387911
 20
4.255924574901528
 30
0.0
 10
21.18650656878074
 20
5.213297749807481
 30
0.0
 10
21.16390601748336
 20
5.641886142470497
 30
0.0
 10
21.13993636820399
 20
6.02699187799783
 30
0.0
  0
SPLINE
  5
5B8
330
1F
100
AcDbEntity
  8
외형선
  6
Continuous
 62
     1
370
    15
100
AcDbSpline
210
0.0
220
0.0
230
1.0
 70
     8
 71
     3
 72
    12
 73
     8
 74
     0
 42
0.000000001
 43
0.00000001
 40
0.0
 40
0.0
 40
0.0
 40
0.0
 40
0.5
 40
0.5
 40
0.75
 40
0.75
 40
1.0
 40
1.0
 40
1.0
 40
1.0
 10
20.03732978377039
 20
3.616926693674912
 30
0.0
 10
20.0126271214659
 20
4.156377918758665
 30
0.0
 10
19.9880164758855
 20
4.663007897174097
 30
0.0
 10
19.95262421064692
 20
5.347239879966423
 30
0.0
 10
19.94127547821029
 20
5.561739591324084
 30
0.0
 10
19.91788251555209
 20
5.970759367935088
 30
0.0
 10
19.90591452983139
 20
6.164639821134358
 30
0.0
 10
19.8937831467106
 20
6.345587160249394
 30
0.0
  0
SPLINE
  5
5B9
330
1F
100
AcDbEntity
  8
외형선
  6
Continuous
 62
     1
370
    15
100
AcDbSpline
210
0.0
220
0.0
230
1.0
 70
     8
 71
     3
 72
    10
 73
     6
 74
     0
 42
0.000000001
 43
0.00000001
 40
0.0
 40
0.0
 40
0.0
 40
0.0
 40
0.5
 40
0.5
 40
1.0
 40
1.0
 40
1.0
 40
1.0
 10
21.127457053466
 20
3.25892289283135
 30
0.0
 10
21.10278585926957
 20
3.810967256539953
 30
0.0
 10
21.07799010977723
 20
4.335031151048724
 30
0.0
 10
21.03004348490191
 20
5.288872591285951
 30
0.0
 10
21.00755253458286
 20
5.715747718809894
 30
0.0
 10
20.98363965984825
 20
6.099203075952587
 30
0.0
  0
SPLINE
  5
5BA
330
1F
100
AcDbEntity
  8
외형선
  6
Continuous
 62
     1
370
    15
100
AcDbSpline
210
0.0
220
0.0
230
1.0
 70
     8
 71
     3
 72
    12
 73
     8
 74
     0
 42
0.000000001
 43
0.00000001
 40
0.0
 40
0.0
 40
0.0
 40
0.0
 40
0.4999999999999998
 40
0.4999999999999998
 40
0.7499999999999999
 40
0.7499999999999999
 40
1.0
 40
1.0
 40
1.0
 40
1.0
 10
15.70324231971944
 20
-6.175674698268324
 30
0.0
 10
15.67866321121633
 20
-5.801653202877333
 30
0.0
 10
15.6536727518164
 20
-5.370944386931995
 30
0.0
 10
15.6170258299891
 20
-4.665381363415335
 30
0.0
 10
15.6049500317267
 20
-4.420403220648026
 30
0.0
 10
15.58130090707644
 20
-3.916186407883899
 30
0.0
 10
15.56992804891505
 20
-3.658516599488863
 30
0.0
 10
15.55821619956507
 20
-3.391228681100728
 30
0.0
  0
SPLINE
  5
5BB
330
1F
100
AcDbEntity
  8
외형선
  6
Continuous
 62
     1
370
    15
100
AcDbSpline
210
0.0
220
0.0
230
1.0
 70
     8
 71
     3
 72
    12
 73
     8
 74
     0
 42
0.000000001
 43
0.00000001
 40
0.0
 40
0.0
 40
0.0
 40
0.0
 40
0.5
 40
0.5
 40
0.75
 40
0.75
 40
1.0
 40
1.0
 40
1.0
 40
1.0
 10
16.32985394616483
 20
-6.313835033714682
 30
0.0
 10
16.30541850027819
 20
-5.954450580225469
 30
0.0
 10
16.28045124668964
 20
-5.536919611734106
 30
0.0
 10
16.24365455129339
 20
-4.847398742715299
 30
0.0
 10
16.23149858228388
 20
-4.607154999039423
 30
0.0
 10
16.20763378913844
 20
-4.111043165248446
 30
0.0
 10
16.19606036341949
 20
-3.856201115551727
 30
0.0
 10
16.18450608186336
 20
-3.594031746986573
 30
0.0
  0
SPLINE
  5
5BC
330
1F
100
AcDbEntity
  8
외형선
  6
Continuous
 62
     1
370
    15
100
AcDbSpline
210
0.0
220
0.0
230
1.0
 70
     8
 71
     3
 72
    10
 73
     6
 74
     0
 42
0.000000001
 43
0.00000001
 40
0.0
 40
0.0
 40
0.0
 40
0.0
 40
0.5
 40
0.5
 40
1.0
 40
1.0
 40
1.0
 40
1.0
 10
16.48617459924833
 20
-6.385697577616284
 30
0.0
 10
16.46188593187063
 20
-6.028738626928103
 30
0.0
 10
16.43704503742603
 20
-5.613490955320827
 30
0.0
 10
16.38816599182357
 20
-4.697699221399091
 30
0.0
 10
16.36429335775813
 20
-4.198625099416276
 30
0.0
 10
16.34138368499188
 20
-3.676161177309211
 30
0.0
  0
SPLINE
  5
5BD
330
1F
100
AcDbEntity
  8
외형선
  6
Continuous
 62
     1
370
    15
100
AcDbSpline
210
0.0
220
0.0
230
1.0
 70
     8
 71
     3
 72
    10
 73
     6
 74
     0
 42
0.000000001
 43
0.00000001
 40
0.0
 40
0.0
 40
0.0
 40
0.0
 40
0.5
 40
0.5
 40
1.0
 40
1.0
 40
1.0
 40
1.0
 10
17.57610080683548
 20
-6.613530993055193
 30
0.0
 10
17.55213872740671
 20
-6.2830640146436
 30
0.0
 10
17.52742344271147
 20
-5.892202036174879
 30
0.0
 10
17.47836354706635
 20
-5.017111723117807
 30
0.0
 10
17.45403487244559
 20
-4.533192967675006
 30
0.0
 10
17.43079870627898
 20
-4.023236475778887
 30
0.0
  0
SPLINE
  5
5BE
330
1F
100
AcDbEntity
  8
외형선
  6
Continuous
 62
     1
370
    15
100
AcDbSpline
210
0.0
220
0.0
230
1.0
 70
     8
 71
     3
 72
    12
 73
     8
 74
     0
 42
0.000000001
 43
0.00000001
 40
0.0
 40
0.0
 40
0.0
 40
0.0
 40
0.4999999999999998
 40
0.4999999999999998
 40
0.7499999999999999
 40
0.7499999999999999
 40
1.0
 40
1.0
 40
1.0
 40
1.0
 10
19.8809931870185
 20
3.635769283555106
 30
0.0
 10
19.85618277511296
 20
4.172300566447177
 30
0.0
 10
19.83149223693999
 20
4.675352302766271
 30
0.0
 10
19.7960344516292
 20
5.353382890961413
 30
0.0
 10
19.784649230757
 20
5.565856245472744
 30
0.0
 10
19.76107699768448
 20
5.971106730577901
 30
0.0
 10
19.74902380718433
 20
6.162910204242046
 30
0.0
 10
19.73681408857621
 20
6.341597021824938
 30
0.0
  0
SPLINE
  5
5BF
330
1F
100
AcDbEntity
  8
외형선
  6
Continuous
 62
     1
370
    15
100
AcDbSpline
210
0.0
220
0.0
230
1.0
 70
     8
 71
     3
 72
    12
 73
     8
 74
     0
 42
0.000000001
 43
0.00000001
 40
0.0
 40
0.0
 40
0.0
 40
0.0
 40
0.4999999999999998
 40
0.4999999999999998
 40
0.7499999999999999
 40
0.7499999999999999
 40
1.0
 40
1.0
 40
1.0
 40
1.0
 10
19.25433108999101
 20
3.835115725021069
 30
0.0
 10
19.22955740325907
 20
4.36324281145744
 30
0.0
 10
19.20502871296023
 20
4.855251196154981
 30
0.0
 10
19.16997119807118
 20
5.514243605334656
 30
0.0
 10
19.15849983034283
 20
5.721489195265207
 30
0.0
 10
19.13466880132486
 20
6.115718620224825
 30
0.0
 10
19.12251256917156
 20
6.30139604087929
 30
0.0
 10
19.11022941501903
 20
6.473435934219239
 30
0.0
  0
SPLINE
  5
5C0
330
1F
100
AcDbEntity
  8
외형선
  6
Continuous
 62
     1
370
    15
100
AcDbSpline
210
0.0
220
0.0
230
1.0
 70
     8
 71
     3
 72
    12
 73
     8
 74
     0
 42
0.000000001
 43
0.00000001
 40
0.0
 40
0.0
 40
0.0
 40
0.0
 40
0.2499999999999998
 40
0.2499999999999998
 40
0.4999999999999996
 40
0.4999999999999996
 40
1.0
 40
1.0
 40
1.0
 40
1.0
 10
18.00730608717694
 20
4.257533418132368
 30
0.0
 10
17.99506324627018
 20
4.512582968915083
 30
0.0
 10
17.98293948113846
 20
4.757514415787028
 30
0.0
 10
17.95915604935257
 20
5.223015056306295
 30
0.0
 10
17.94767796959712
 20
5.442522814239084
 30
0.0
 10
17.9128875832379
 20
6.067871339930747
 30
0.0
 10
17.88852090971577
 20
6.443693391210473
 30
0.0
 10
17.86387486798441
 20
6.761024808229664
 30
0.0
  0
SPLINE
  5
5C1
330
1F
100
AcDbEntity
  8
외형선
  6
Continuous
 62
     1
370
    15
100
AcDbSpline
210
0.0
220
0.0
230
1.0
 70
     8
 71
     3
 72
    12
 73
     8
 74
     0
 42
0.000000001
 43
0.00000001
 40
0.0
 40
0.0
 40
0.0
 40
0.0
 40
0.5000000000000002
 40
0.5000000000000002
 40
0.7500000000000001
 40
0.7500000000000001
 40
1.0
 40
1.0
 40
1.0
 40
1.0
 10
19.09733723577776
 20
3.917802950780327
 30
0.0
 10
19.07269088856495
 20
4.444588821319144
 30
0.0
 10
19.04832246862608
 20
4.934609195935877
 30
0.0
 10
19.01352763107062
 20
5.59022530699545
 30
0.0
 10
19.00205270727193
 20
5.796845182003864
 30
0.0
 10
18.97827246896915
 20
6.189314791404399
 30
0.0
 10
18.96614999125373
 20
6.373998478900205
 30
0.0
 10
18.95390808862757
 20
6.544967911865683
 30
0.0
  0
SPLINE
  5
5C2
330
1F
100
AcDbEntity
  8
외형선
  6
Continuous
 62
     1
370
    15
100
AcDbSpline
210
0.0
220
0.0
230
1.0
 70
     8
 71
     3
 72
    10
 73
     6
 74
     0
 42
0.000000001
 43
0.00000001
 40
0.0
 40
0.0
 40
0.0
 40
0.0
 40
0.5
 40
0.5
 40
1.0
 40
1.0
 40
1.0
 40
1.0
 10
17.73305705088518
 20
-6.604676448995065
 30
0.0
 10
17.70904495668051
 20
-6.279323436520386
 30
0.0
 10
17.68424013773719
 20
-5.893112826718152
 30
0.0
 10
17.63494161467659
 20
-5.025972705937889
 30
0.0
 10
17.61046424866504
 20
-4.545352150242763
 30
0.0
 10
17.58706663668644
 20
-4.038021302046658
 30
0.0
  0
SPLINE
  5
5C3
330
1F
100
AcDbEntity
  8
외형선
  6
Continuous
 62
     1
370
    15
100
AcDbSpline
210
0.0
220
0.0
230
1.0
 70
     8
 71
     3
 72
    10
 73
     6
 74
     0
 42
0.000000001
 43
0.00000001
 40
0.0
 40
0.0
 40
0.0
 40
0.0
 40
0.5
 40
0.5
 40
1.0
 40
1.0
 40
1.0
 40
1.0
 10
18.35953559785614
 20
-6.725602998288409
 30
0.0
 10
18.33574472591525
 20
-6.415739721251171
 30
0.0
 10
18.31104890823968
 20
-6.044006515554628
 30
0.0
 10
18.26171711965426
 20
-5.201455746491234
 30
0.0
 10
18.23709757389386
 20
-4.730923733687732
 30
0.0
 10
18.2134498253198
 20
-4.230856972980121
 30
0.0
  0
SPLINE
  5
5C4
330
1F
100
AcDbEntity
  8
외형선
  6
Continuous
 62
     1
370
    15
100
AcDbSpline
210
0.0
220
0.0
230
1.0
 70
     8
 71
     3
 72
    10
 73
     6
 74
     0
 42
0.000000001
 43
0.00000001
 40
0.0
 40
0.0
 40
0.0
 40
0.0
 40
0.5
 40
0.5
 40
1.0
 40
1.0
 40
1.0
 40
1.0
 10
18.51582163065248
 20
-6.796447035235531
 30
0.0
 10
18.4921883417866
 20
-6.489249448603999
 30
0.0
 10
18.46763490458088
 20
-6.12013339270635
 30
0.0
 10
18.41852533398284
 20
-5.282003709737651
 30
0.0
 10
18.39398526459485
 20
-4.813265113757268
 30
0.0
 10
18.37037707438287
 20
-4.314265249875618
 30
0.0
  0
SPLINE
  5
5C5
330
1F
100
AcDbEntity
  8
외형선
  6
Continuous
 62
     1
370
    15
100
AcDbSpline
210
0.0
220
0.0
230
1.0
 70
     8
 71
     3
 72
    10
 73
     6
 74
     0
 42
0.000000001
 43
0.00000001
 40
0.0
 40
0.0
 40
0.0
 40
0.0
 40
0.5
 40
0.5
 40
1.0
 40
1.0
 40
1.0
 40
1.0
 10
19.60540210458046
 20
-6.992546065656313
 30
0.0
 10
19.58220086211296
 20
-6.712734274236041
 30
0.0
 10
19.55789356718381
 20
-6.369562621328299
 30
0.0
 10
19.50884412286732
 20
-5.576250140243616
 30
0.0
 10
19.48411788466254
 20
-5.126339214457147
 30
0.0
 10
19.46013000857633
 20
-4.641344122922277
 30
0.0
  0
SPLINE
  5
5C6
330
1F
100
AcDbEntity
  8
외형선
  6
Continuous
 62
     1
370
    15
100
AcDbSpline
210
0.0
220
0.0
230
1.0
 70
     8
 71
     3
 72
    12
 73
     8
 74
     0
 42
0.000000001
 43
0.00000001
 40
0.0
 40
0.0
 40
0.0
 40
0.0
 40
0.25
 40
0.25
 40
0.5
 40
0.5
 40
1.0
 40
1.0
 40
1.0
 40
1.0
 10
17.8509818881777
 20
4.26982563106472
 30
0.0
 10
17.83869770739909
 20
4.523198009051697
 30
0.0
 10
17.82654010819962
 20
4.766305566371528
 30
0.0
 10
17.80270574894243
 20
5.227896387238502
 30
0.0
 10
17.79123186234258
 20
5.445221528401774
 30
0.0
 10
17.75617837442715
 20
6.065286541937098
 30
0.0
 10
17.73165114673822
 20
6.436849237507403
 30
0.0
 10
17.70687751148748
 20
6.749288806177319
 30
0.0
  0
SPLINE
  5
5C7
330
1F
100
AcDbEntity
  8
외형선
  6
Continuous
 62
     1
370
    15
100
AcDbSpline
210
0.0
220
0.0
230
1.0
 70
     8
 71
     3
 72
    12
 73
     8
 74
     0
 42
0.000000001
 43
0.00000001
 40
0.0
 40
0.0
 40
0.0
 40
0.0
 40
0.25
 40
0.25
 40
0.5
 40
0.5
 40
1.0
 40
1.0
 40
1.0
 40
1.0
 10
17.22437762228685
 20
4.458686446766862
 30
0.0
 10
17.21216667313413
 20
4.706729485070298
 30
0.0
 10
17.2001119857886
 20
4.943948020719546
 30
0.0
 10
17.17653631667278
 20
5.392914931036458
 30
0.0
 10
17.1651508937081
 20
5.604009700670119
 30
0.0
 10
17.12969526324039
 20
6.207945085505834
 30
0.0
 10
17.10500509609747
 20
6.566235808722865
 30
0.0
 10
17.08019392984946
 20
6.863762015410913
 30
0.0
  0
SPLINE
  5
5C8
330
1F
100
AcDbEntity
  8
외형선
  6
Continuous
 62
     1
370
    15
100
AcDbSpline
210
0.0
220
0.0
230
1.0
 70
     8
 71
     3
 72
    10
 73
     6
 74
     0
 42
0.000000001
 43
0.00000001
 40
0.0
 40
0.0
 40
0.0
 40
0.0
 40
0.5
 40
0.5
 40
1.0
 40
1.0
 40
1.0
 40
1.0
 10
15.9775569599573
 20
4.862106673007474
 30
0.0
 10
15.95364254659503
 20
5.335720829031047
 30
0.0
 10
15.93115248891917
 20
5.759387377857735
 30
0.0
 10
15.88321138785452
 20
6.519533672343599
 30
0.0
 10
15.85841726798265
 20
6.850670406744044
 30
0.0
 10
15.83374637668808
 20
7.118503331496683
 30
0.0
  0
SPLINE
  5
5C9
330
1F
100
AcDbEntity
  8
외형선
  6
Continuous
 62
     1
370
    15
100
AcDbSpline
210
0.0
220
0.0
230
1.0
 70
     8
 71
     3
 72
    12
 73
     8
 74
     0
 42
0.000000001
 43
0.00000001
 40
0.0
 40
0.0
 40
0.0
 40
0.0
 40
0.2499999999999999
 40
0.2499999999999999
 40
0.4999999999999998
 40
0.4999999999999998
 40
1.0
 40
1.0
 40
1.0
 40
1.0
 10
17.06740257157716
 20
4.542525247257046
 30
0.0
 10
17.05527011925469
 20
4.789543183873732
 30
0.0
 10
17.04330081744052
 20
5.025607642382496
 30
0.0
 10
17.01990480785295
 20
5.472111656003932
 30
0.0
 10
17.00855649668557
 20
5.682254073670236
 30
0.0
 10
16.97316649299549
 20
6.283343791125205
 30
0.0
 10
16.94855637419153
 20
6.639227090523008
 30
0.0
 10
16.92385318323332
 20
6.934159515642307
 30
0.0
  0
SPLINE
  5
5CA
330
1F
100
AcDbEntity
  8
외형선
  6
Continuous
 62
     1
370
    15
100
AcDbSpline
210
0.0
220
0.0
230
1.0
 70
     8
 71
     3
 72
    10
 73
     6
 74
     0
 42
0.000000001
 43
0.00000001
 40
0.0
 40
0.0
 40
0.0
 40
0.0
 40
0.5
 40
0.5
 40
1.0
 40
1.0
 40
1.0
 40
1.0
 10
19.76229734232155
 20
-6.97591975636702
 30
0.0
 10
19.73906744725954
 20
-6.701257237812044
 30
0.0
 10
19.71469133138001
 20
-6.362877566592758
 30
0.0
 10
19.66543734886142
 20
-5.577906834359823
 30
0.0
 10
19.6405757061336
 20
-5.131542316857619
 30
0.0
 10
19.61643465092638
 20
-4.649413863882501
 30
0.0
  0
SPLINE
  5
5CB
330
1F
100
AcDbEntity
  8
외형선
  6
Continuous
 62
     1
370
    15
100
AcDbSpline
210
0.0
220
0.0
230
1.0
 70
     8
 71
     3
 72
    10
 73
     6
 74
     0
 42
0.000000001
 43
0.00000001
 40
0.0
 40
0.0
 40
0.0
 40
0.0
 40
0.5
 40
0.5
 40
1.0
 40
1.0
 40
1.0
 40
1.0
 10
20.38856057898565
 20
-7.078540301618148
 30
0.0
 10
20.36561022940879
 20
-6.819822407644807
 30
0.0
 10
20.34141046418571
 20
-6.496748355460468
 30
0.0
 10
20.29225920808395
 20
-5.738607989501872
 30
0.0
 10
20.26732367491277
 20
-5.303739174452588
 30
0.0
 10
20.24299240464526
 20
-4.83037150637449
 30
0.0
  0
SPLINE
  5
5CC
330
1F
100
AcDbEntity
  8
외형선
  6
Continuous
 62
     1
370
    15
100
AcDbSpline
210
0.0
220
0.0
230
1.0
 70
     8
 71
     3
 72
    10
 73
     6
 74
     0
 42
0.000000001
 43
0.00000001
 40
0.0
 40
0.0
 40
0.0
 40
0.0
 40
0.5
 40
0.5
 40
1.0
 40
1.0
 40
1.0
 40
1.0
 10
20.54480274564693
 20
-7.147829324835257
 30
0.0
 10
20.52193041659856
 20
-6.891656570344509
 30
0.0
 10
20.4979705079661
 20
-6.57178925408644
 30
0.0
 10
20.44907469420954
 20
-5.818808947495526
 30
0.0
 10
20.42423916255825
 20
-5.38619351502156
 30
0.0
 10
20.39996897283257
 20
-4.91440626927178
 30
0.0
  0
SPLINE
  5
5CD
330
1F
100
AcDbEntity
  8
외형선
  6
Continuous
 62
     1
370
    15
100
AcDbSpline
210
0.0
220
0.0
230
1.0
 70
     8
 71
     3
 72
    12
 73
     8
 74
     0
 42
0.000000001
 43
0.00000001
 40
0.0
 40
0.0
 40
0.0
 40
0.0
 40
0.2499999999999997
 40
0.2499999999999997
 40
0.4999999999999997
 40
0.4999999999999997
 40
1.0
 40
1.0
 40
1.0
 40
1.0
 10
21.63426530132082
 20
-7.311440183256465
 30
0.0
 10
21.62255486840886
 20
-7.195734953429422
 30
0.0
 10
21.61124853908908
 20
-7.066189790306083
 30
0.0
 10
21.58779070888983
 20
-6.774909041946202
 30
0.0
 10
21.57580310136262
 20
-6.613588785433549
 30
0.0
 10
21.53939070096683
 20
-6.085720875420648
 30
0.0
 10
21.5145156975228
 20
-5.674759023929113
 30
0.0
 10
21.48999794915926
 20
-5.22007927786342
 30
0.0
  0
SPLINE
  5
5CE
330
1F
100
AcDbEntity
  8
외형선
  6
Continuous
 62
     1
370
    15
100
AcDbSpline
210
0.0
220
0.0
230
1.0
 70
     8
 71
     3
 72
    10
 73
     6
 74
     0
 42
0.000000001
 43
0.00000001
 40
0.0
 40
0.0
 40
0.0
 40
0.0
 40
0.5
 40
0.5
 40
1.0
 40
1.0
 40
1.0
 40
1.0
 10
15.82126525771528
 20
4.867675125569093
 30
0.0
 10
15.79729374329875
 20
5.337585021072968
 30
0.0
 10
15.77469452003149
 20
5.757644442761134
 30
0.0
 10
15.7264440959209
 20
6.509853475131607
 30
0.0
 10
15.70151673080861
 20
6.836343078083686
 30
0.0
 10
15.67674929782359
 20
7.099042320827394
 30
0.0
  0
SPLINE
  5
5CF
330
1F
100
AcDbEntity
  8
외형선
  6
Continuous
 62
     1
370
    15
100
AcDbSpline
210
0.0
220
0.0
230
1.0
 70
     8
 71
     3
 72
    12
 73
     8
 74
     0
 42
0.000000001
 43
0.00000001
 40
0.0
 40
0.0
 40
0.0
 40
0.0
 40
0.2499999999999999
 40
0.2499999999999999
 40
0.4999999999999998
 40
0.4999999999999998
 40
1.0
 40
1.0
 40
1.0
 40
1.0
 10
15.19483838331192
 20
5.043604298305482
 30
0.0
 10
15.18297891012764
 20
5.272256893103616
 30
0.0
 10
15.17157327367559
 20
5.48737369390571
 30
0.0
 10
15.14817981580589
 20
5.897169290435727
 30
0.0
 10
15.1362042610607
 20
6.091594243198649
 30
0.0
 10
15.09976573635802
 20
6.636471982775547
 30
0.0
 10
15.07478893491103
 20
6.947934254355324
 30
0.0
 10
15.05009620882564
 20
7.194550661844787
 30
0.0
  0
SPLINE
  5
5D0
330
1F
100
AcDbEntity
  8
외형선
  6
Continuous
 62
     1
370
    15
100
AcDbSpline
210
0.0
220
0.0
230
1.0
 70
     8
 71
     3
 72
    12
 73
     8
 74
     0
 42
0.000000001
 43
0.00000001
 40
0.0
 40
0.0
 40
0.0
 40
0.0
 40
0.2500000000000002
 40
0.2500000000000002
 40
0.5000000000000003
 40
0.5000000000000003
 40
1.0
 40
1.0
 40
1.0
 40
1.0
 10
13.94842542674419
 20
5.423686625719256
 30
0.0
 10
13.93692079137392
 20
5.639254165145445
 30
0.0
 10
13.92540400120239
 20
5.843714621257334
 30
0.0
 10
13.90165206148069
 20
6.231090101093613
 30
0.0
 10
13.8895537096837
 20
6.413144361484768
 30
0.0
 10
13.85292858913925
 20
6.918086801227659
 30
0.0
 10
13.82807383958917
 20
7.199126518424606
 30
0.0
 10
13.80373629962165
 20
7.413970262883396
 30
0.0
  0
SPLINE
  5
5D1
330
1F
100
AcDbEntity
  8
외형선
  6
Continuous
 62
     1
370
    15
100
AcDbSpline
210
0.0
220
0.0
230
1.0
 70
     8
 71
     3
 72
    12
 73
     8
 74
     0
 42
0.000000001
 43
0.00000001
 40
0.0
 40
0.0
 40
0.0
 40
0.0
 40
0.2500000000000001
 40
0.2500000000000001
 40
0.5000000000000001
 40
0.5000000000000001
 40
1.0
 40
1.0
 40
1.0
 40
1.0
 10
15.03791988018162
 20
5.127565011768922
 30
0.0
 10
15.02615218877722
 20
5.354880968645801
 30
0.0
 10
15.01482952691205
 20
5.568676333506701
 30
0.0
 10
14.99147221880884
 20
5.976442872312532
 30
0.0
 10
14.9795241862808
 20
6.169713912813357
 30
0.0
 10
14.94319471402454
 20
6.710830235801424
 30
0.0
 10
14.91832643460367
 20
7.019386415197815
 30
0.0
 10
14.89376590414682
 20
7.263053386628947
 30
0.0
  0
SPLINE
  5
5D2
330
1F
100
AcDbEntity
  8
외형선
  6
Continuous
 62
     1
370
    15
100
AcDbSpline
210
0.0
220
0.0
230
1.0
 70
     8
 71
     3
 72
    12
 73
     8
 74
     0
 42
0.000000001
 43
0.00000001
 40
0.0
 40
0.0
 40
0.0
 40
0.0
 40
0.2500000000000001
 40
0.2500000000000001
 40
0.5000000000000001
 40
0.5000000000000001
 40
1.0
 40
1.0
 40
1.0
 40
1.0
 10
21.79117773535884
 20
-7.287243759106644
 30
0.0
 10
21.7793739470151
 20
-7.17389598437191
 30
0.0
 10
21.76801009839457
 20
-7.046660215389139
 30
0.0
 10
21.74451247841932
 20
-6.760225948583042
 30
0.0
 10
21.73249549471214
 20
-6.601237373159918
 30
0.0
 10
21.69596857452672
 20
-6.07998676010962
 30
0.0
 10
21.67098154486018
 20
-5.672918686973645
 30
0.0
 10
21.64632868132932
 20
-5.221483959709104
 30
0.0
  0
SPLINE
  5
5D3
330
1F
100
AcDbEntity
  8
외형선
  6
Continuous
 62
     1
370
    15
100
AcDbSpline
210
0.0
220
0.0
230
1.0
 70
     8
 71
     3
 72
    12
 73
     8
 74
     0
 42
0.000000001
 43
0.00000001
 40
0.0
 40
0.0
 40
0.0
 40
0.0
 40
0.25
 40
0.25
 40
0.5
 40
0.5
 40
1.0
 40
1.0
 40
1.0
 40
1.0
 10
22.41758166512253
 20
-7.370597091084889
 30
0.0
 10
22.40564531077348
 20
-7.26472673627778
 30
0.0
 10
22.39411163089326
 20
-7.144354004982162
 30
0.0
 10
22.37087846818778
 20
-6.873677063501049
 30
0.0
 10
22.35896784609932
 20
-6.722389176116167
 30
0.0
 10
22.32267234568806
 20
-6.223222741221619
 30
0.0
 10
22.29772062878018
 20
-5.829486863651852
 30
0.0
 10
22.2729794273296
 20
-5.388938500677156
 30
0.0
  0
SPLINE
  5
5D4
330
1F
100
AcDbEntity
  8
외형선
  6
Continuous
 62
     1
370
    15
100
AcDbSpline
210
0.0
220
0.0
230
1.0
 70
     8
 71
     3
 72
    12
 73
     8
 74
     0
 42
0.000000001
 43
0.00000001
 40
0.0
 40
0.0
 40
0.0
 40
0.0
 40
0.2499999999999999
 40
0.2499999999999999
 40
0.4999999999999999
 40
0.4999999999999999
 40
1.0
 40
1.0
 40
1.0
 40
1.0
 10
22.57386775507661
 20
-7.437641612727731
 30
0.0
 10
22.56195841815548
 20
-7.333164010771796
 30
0.0
 10
22.55040650885303
 20
-7.213969054898143
 30
0.0
 10
22.52734238791703
 20
-6.946366857626316
 30
0.0
 10
22.51551314731452
 20
-6.796617736475682
 30
0.0
 10
22.479445531479
 20
-6.301938181363539
 30
0.0
 10
22.45462356710615
 20
-5.911019038639964
 30
0.0
 10
22.42997506374059
 20
-5.472726635250098
 30
0.0
  0
SPLINE
  5
5D5
330
1F
100
AcDbEntity
  8
외형선
  6
Continuous
 62
     1
370
    15
100
AcDbSpline
210
0.0
220
0.0
230
1.0
 70
     8
 71
     3
 72
    12
 73
     8
 74
     0
 42
0.000000001
 43
0.00000001
 40
0.0
 40
0.0
 40
0.0
 40
0.0
 40
0.2499999999999999
 40
0.2499999999999999
 40
0.4999999999999998
 40
0.4999999999999998
 40
1.0
 40
1.0
 40
1.0
 40
1.0
 10
23.66366069803379
 20
-7.566743478451173
 30
0.0
 10
23.65156506631828
 20
-7.475860975990912
 30
0.0
 10
23.63964428892152
 20
-7.369059498595732
 30
0.0
 10
23.61636574277296
 20
-7.126833369131489
 30
0.0
 10
23.60496652318258
 20
-6.991487354907889
 30
0.0
 10
23.56943207450317
 20
-6.536661937337556
 30
0.0
 10
23.54476987357114
 20
-6.170413880609942
 30
0.0
 10
23.52006531069458
 20
-5.752904076822233
 30
0.0
  0
SPLINE
  5
5D6
330
1F
100
AcDbEntity
  8
외형선
  6
Continuous
 62
     1
370
    15
100
AcDbSpline
210
0.0
220
0.0
230
1.0
 70
     8
 71
     3
 72
    10
 73
     6
 74
     0
 42
0.000000001
 43
0.00000001
 40
0.0
 40
0.0
 40
0.0
 40
0.0
 40
0.5000000000000002
 40
0.5000000000000002
 40
1.0
 40
1.0
 40
1.0
 40
1.0
 10
13.79217620370838
 20
5.422625304877513
 30
0.0
 10
13.76913456333679
 20
5.849802237753465
 30
0.0
 10
13.74521074284715
 20
6.236780736578126
 30
0.0
 10
13.6961147314079
 20
6.90136013790827
 30
0.0
 10
13.67115582970413
 20
7.177469655399392
 30
0.0
 10
13.64675297602844
 20
7.38705576101782
 30
0.0
  0
SPLINE
  5
5D7
330
1F
100
AcDbEntity
  8
외형선
  6
Continuous
 62
     1
370
    15
100
AcDbSpline
210
0.0
220
0.0
230
1.0
 70
     8
 71
     3
 72
    10
 73
     6
 74
     0
 42
0.000000001
 43
0.00000001
 40
0.0
 40
0.0
 40
0.0
 40
0.0
 40
0.5
 40
0.5
 40
1.0
 40
1.0
 40
1.0
 40
1.0
 10
13.16592287689167
 20
5.584983459525859
 30
0.0
 10
13.14280433624336
 20
6.000479163391347
 30
0.0
 10
13.1184971879953
 20
6.375713235829721
 30
0.0
 10
13.06927930329127
 20
7.010878610253869
 30
0.0
 10
13.0443846965467
 20
7.270554156773699
 30
0.0
 10
13.02016366616812
 20
7.463261844425922
 30
0.0
  0
SPLINE
  5
5D9
330
1F
100
AcDbEntity
  8
외형선
  6
Continuous
 62
     1
370
    15
100
AcDbSpline
210
0.0
220
0.0
230
1.0
 70
     8
 71
     3
 72
     8
 73
     4
 74
     0
 42
0.000000001
 43
0.00000001
 40
0.0
 40
0.0
 40
0.0
 40
0.0
 40
0.0647959308589451
 40
0.0647959308589451
 40
0.0647959308589451
 40
0.0647959308589451
 10
13.00903356270763
 20
5.668562893131522
 30
0.0
 10
13.00604102110494
 20
5.722130211667891
 30
0.0
 10
13.00302919482674
 20
5.77501093705126
 30
0.0
 10
12.99999999999999
 20
5.827167972516062
 30
0.0
  0
SPLINE
  5
5DA
330
1F
100
AcDbEntity
  8
외형선
  6
Continuous
 62
     1
370
    15
100
AcDbSpline
210
0.0
220
0.0
230
1.0
 70
     8
 71
     3
 72
    12
 73
     8
 74
     0
 42
0.000000001
 43
0.00000001
 40
0.0
 40
0.0
 40
0.0
 40
0.0
 40
0.2499999999999999
 40
0.2499999999999999
 40
0.4999999999999999
 40
0.4999999999999999
 40
1.0
 40
1.0
 40
1.0
 40
1.0
 10
23.82062647135771
 20
-7.535197612394199
 30
0.0
 10
23.80845064267751
 20
-7.446804069880159
 30
0.0
 10
23.79644298197886
 20
-7.342356079879821
 30
0.0
 10
23.77298224109896
 20
-7.104516806716404
 30
0.0
 10
23.76156942038378
 20
-6.971508844730977
 30
0.0
 10
23.72596394189864
 20
-6.523536225469954
 30
0.0
 10
23.70121810662604
 20
-6.161482397075417
 30
0.0
 10
23.67640248751957
 20
-5.74759216681457
 30
0.0
  0
SPLINE
  5
5DB
330
1F
100
AcDbEntity
  8
외형선
  6
Continuous
 62
     1
370
    15
100
AcDbSpline
210
0.0
220
0.0
230
1.0
 70
     8
 71
     3
 72
    12
 73
     8
 74
     0
 42
0.000000001
 43
0.00000001
 40
0.0
 40
0.0
 40
0.0
 40
0.0
 40
0.2500000000000001
 40
0.2500000000000001
 40
0.5000000000000001
 40
0.5000000000000001
 40
1.0
 40
1.0
 40
1.0
 40
1.0
 10
24.4472173371708
 20
-7.598808629879656
 30
0.0
 10
24.43496079188506
 20
-7.518517812895084
 30
0.0
 10
24.42284300048533
 20
-7.421848556816556
 30
0.0
 10
24.39911007852206
 20
-7.198651765116679
 30
0.0
 10
24.38769894042869
 20
-7.073023882032047
 30
0.0
 10
24.352475718438
 20
-6.648586169515667
 30
0.0
 10
24.32787760368271
 20
-6.301430810082053
 30
0.0
 10
24.30308412982805
 20
-5.900418628112234
 30
0.0
  0
SPLINE
  5
5DC
330
1F
100
AcDbEntity
  8
외형선
  6
Continuous
 62
     1
370
    15
100
AcDbSpline
210
0.0
220
0.0
230
1.0
 70
     8
 71
     3
 72
    12
 73
     8
 74
     0
 42
0.000000001
 43
0.00000001
 40
0.0
 40
0.0
 40
0.0
 40
0.0
 40
0.2500000000000001
 40
0.2500000000000001
 40
0.5000000000000002
 40
0.5000000000000002
 40
1.0
 40
1.0
 40
1.0
 40
1.0
 10
24.60354284253211
 20
-7.663125773171984
 30
0.0
 10
24.59132598253095
 20
-7.584414818868311
 30
0.0
 10
24.5792402960162
 20
-7.489298331998057
 30
0.0
 10
24.55555481826164
 20
-7.269071986835584
 30
0.0
 10
24.54416121300144
 20
-7.144842443167576
 30
0.0
 10
24.50919765035471
 20
-6.725396728412704
 30
0.0
 10
24.48475687523293
 20
-6.381551648171879
 30
0.0
 10
24.46008715438325
 20
-5.983429646402215
 30
0.0
  0
SPLINE
  5
5DD
330
1F
100
AcDbEntity
  8
외형선
  6
Continuous
 62
     1
370
    15
100
AcDbSpline
210
0.0
220
0.0
230
1.0
 70
     8
 71
     3
 72
    10
 73
     6
 74
     0
 42
0.000000001
 43
0.00000001
 40
0.0
 40
0.0
 40
0.0
 40
0.0
 40
0.4999999999999998
 40
0.4999999999999998
 40
1.0
 40
1.0
 40
1.0
 40
1.0
 10
25.69357208250898
 20
-7.756935077940383
 30
0.0
 10
25.66895400909056
 20
-7.628519323226499
 30
0.0
 10
25.64466385598686
 20
-7.43218237152152
 30
0.0
 10
25.59850815537229
 20
-6.926617655705016
 30
0.0
 10
25.5746859869879
 20
-6.610774728132483
 30
0.0
 10
25.55015507472183
 20
-6.236668029749552
 30
0.0
  0
SPLINE
  5
5E2
330
1F
100
AcDbEntity
  8
외형선
  6
Continuous
 62
     1
370
    15
100
AcDbSpline
210
0.0
220
0.0
230
1.0
 70
     8
 71
     3
 72
    12
 73
     8
 74
     0
 42
0.000000001
 43
0.00000001
 40
0.0
 40
0.0
 40
0.0
 40
0.0
 40
0.4999999999999998
 40
0.4999999999999998
 40
0.7499999999999999
 40
0.7499999999999999
 40
1.0
 40
1.0
 40
1.0
 40
1.0
 10
25.85056427212018
 20
-7.718270098350928
 30
0.0
 10
25.82581516296281
 20
-7.594959738296183
 30
0.0
 10
25.80136162689669
 20
-7.403328891960683
 30
0.0
 10
25.76647879267372
 20
-7.030283369037448
 30
0.0
 10
25.75490920545994
 20
-6.891118066732602
 30
0.0
 10
25.73098160305565
 20
-6.5805724510586
 30
0.0
 10
25.71878808345934
 20
-6.409755030842192
 30
0.0
 10
25.70647982690775
 20
-6.224651844752799
 30
0.0
  0
SPLINE
  5
5E3
330
1F
100
AcDbEntity
  8
외형선
  6
Continuous
 62
     1
370
    15
100
AcDbSpline
210
0.0
220
0.0
230
1.0
 70
     8
 71
     3
 72
    12
 73
     8
 74
     0
 42
0.000000001
 43
0.00000001
 40
0.0
 40
0.0
 40
0.0
 40
0.0
 40
0.5000000000000001
 40
0.5000000000000001
 40
0.7500000000000002
 40
0.7500000000000002
 40
1.0
 40
1.0
 40
1.0
 40
1.0
 10
26.47721817024845
 20
-7.761263694374534
 30
0.0
 10
26.45241868156037
 20
-7.654922877680988
 30
0.0
 10
26.42779000242371
 20
-7.479533147812944
 30
0.0
 10
26.39248983754962
 20
-7.128032223679881
 30
0.0
 10
26.38109638869176
 20
-6.996875527307594
 30
0.0
 10
26.35741548344751
 20
-6.701993733304207
 30
0.0
 10
26.34531854175842
 20
-6.538799664220718
 30
0.0
 10
26.33307703207274
 20
-6.360950138801982
 30
0.0
  0
SPLINE
  5
5E5
330
1F
100
AcDbEntity
  8
외형선
  6
Continuous
 62
     1
370
    15
100
AcDbSpline
210
0.0
220
0.0
230
1.0
 70
     8
 71
     3
 72
    12
 73
     8
 74
     0
 42
0.000000001
 43
0.00000001
 40
0.0
 40
0.0
 40
0.0
 40
0.0
 40
0.4999999999999999
 40
0.4999999999999999
 40
0.7499999999999999
 40
0.7499999999999999
 40
1.0
 40
1.0
 40
1.0
 40
1.0
 10
26.63355216415843
 20
-7.822205557879869
 30
0.0
 10
26.60885735317791
 20
-7.719291392058267
 30
0.0
 10
26.58430509527227
 20
-7.547358098634859
 30
0.0
 10
26.54906536041727
 20
-7.200576189133798
 30
0.0
 10
26.53773178464891
 20
-7.07107601409632
 30
0.0
 10
26.51422739464542
 20
-6.77977377090464
 30
0.0
 10
26.50221407089927
 20
-6.618356590446609
 30
0.0
 10
26.49004913294152
 20
-6.442218944395506
 30
0.0
  0
SPLINE
  5
5E6
330
1F
100
AcDbEntity
  8
외형선
  6
Continuous
 62
     1
370
    15
100
AcDbSpline
210
0.0
220
0.0
230
1.0
 70
     8
 71
     3
 72
    10
 73
     6
 74
     0
 42
0.000000001
 43
0.00000001
 40
0.0
 40
0.0
 40
0.0
 40
0.0
 40
0.5
 40
0.5
 40
1.0
 40
1.0
 40
1.0
 40
1.0
 10
27.72365830526792
 20
-7.879784391276388
 30
0.0
 10
27.69897033523068
 20
-7.806879188480181
 30
0.0
 10
27.67420852313145
 20
-7.664224847351733
 30
0.0
 10
27.62642261019963
 20
-7.25467228945665
 30
0.0
 10
27.60392097969216
 20
-6.99151912801959
 30
0.0
 10
27.57991712949374
 20
-6.665744514494079
 30
0.0
  0
SPLINE
  5
5EA
330
1F
100
AcDbEntity
  8
외형선
  6
Continuous
 62
     1
370
    15
100
AcDbSpline
210
0.0
220
0.0
230
1.0
 70
     8
 71
     3
 72
    10
 73
     6
 74
     0
 42
0.000000001
 43
0.00000001
 40
0.0
 40
0.0
 40
0.0
 40
0.0
 40
0.5
 40
0.5
 40
1.0
 40
1.0
 40
1.0
 40
1.0
 10
27.88066226620612
 20
-7.83437583499456
 30
0.0
 10
27.85587371937743
 20
-7.766584394981791
 30
0.0
 10
27.83097491450476
 20
-7.628813729409075
 30
0.0
 10
27.78287360916099
 20
-7.227983472686745
 30
0.0
 10
27.76028220101409
 20
-6.968915101160604
 30
0.0
 10
27.73621803821291
 20
-6.647220091380575
 30
0.0
  0
SPLINE
  5
5EB
330
1F
100
AcDbEntity
  8
외형선
  6
Continuous
 62
     1
370
    15
100
AcDbSpline
210
0.0
220
0.0
230
1.0
 70
     8
 71
     3
 72
    12
 73
     8
 74
     0
 42
0.000000001
 43
0.00000001
 40
0.0
 40
0.0
 40
0.0
 40
0.0
 40
0.5
 40
0.5
 40
0.75
 40
0.75
 40
1.0
 40
1.0
 40
1.0
 40
1.0
 10
28.50734556417103
 20
-7.856589366646858
 30
0.0
 10
28.48261853219464
 20
-7.806166941075347
 30
0.0
 10
28.45765630789123
 20
-7.68567519555414
 30
0.0
 10
28.42131006708877
 20
-7.408874882522369
 30
0.0
 10
28.40937680452856
 20
-7.300767723787942
 30
0.0
 10
28.38608832456291
 20
-7.056152610228793
 30
0.0
 10
28.37460587462382
 20
-6.919395824244475
 30
0.0
 10
28.36269423028861
 20
-6.766451354495246
 30
0.0
  0
SPLINE
  5
5ED
330
1F
100
AcDbEntity
  8
외형선
  6
Continuous
 62
     1
370
    15
100
AcDbSpline
210
0.0
220
0.0
230
1.0
 70
     8
 71
     3
 72
    12
 73
     8
 74
     0
 42
0.000000001
 43
0.00000001
 40
0.0
 40
0.0
 40
0.0
 40
0.0
 40
0.5
 40
0.5
 40
0.75
 40
0.75
 40
1.0
 40
1.0
 40
1.0
 40
1.0
 10
28.6636806038949
 20
-7.913673201962709
 30
0.0
 10
28.6390830852441
 20
-7.866869937581413
 30
0.0
 10
28.61422608040445
 20
-7.750175062338201
 30
0.0
 10
28.57798364548111
 20
-7.478817006954685
 30
0.0
 10
28.56607611118528
 20
-7.372480401277599
 30
0.0
 10
28.54282023009679
 20
-7.131229691527608
 30
0.0
 10
28.53144553502617
 20
-6.996450334746044
 30
0.0
 10
28.51962426571981
 20
-6.845448826609825
 30
0.0
  0
SPLINE
  5
5EE
330
1F
100
AcDbEntity
  8
외형선
  6
Continuous
 62
     1
370
    15
100
AcDbSpline
210
0.0
220
0.0
230
1.0
 70
     8
 71
     3
 72
    12
 73
     8
 74
     0
 42
0.000000001
 43
0.00000001
 40
0.0
 40
0.0
 40
0.0
 40
0.0
 40
0.5000000000000002
 40
0.5000000000000002
 40
0.7500000000000001
 40
0.7500000000000001
 40
1.0
 40
1.0
 40
1.0
 40
1.0
 10
29.75371500516897
 20
-7.934487501759023
 30
0.0
 10
29.72931850188417
 20
-7.917898400143244
 30
0.0
 10
29.70445185437026
 20
-7.831814241407102
 30
0.0
 10
29.66788152547616
 20
-7.60347959039548
 30
0.0
 10
29.65581334338816
 20
-7.511004403107933
 30
0.0
 10
29.63214362400527
 20
-7.296033499997606
 30
0.0
 10
29.62073198570582
 20
-7.174317846217917
 30
0.0
 10
29.60916392593145
 20
-7.037480147268766
 30
0.0
  0
LINE
  5
5F0
330
1F
100
AcDbEntity
  8
외형선
  6
Continuous
 62
     1
370
    15
100
AcDbLine
 10
35.22499999999999
 20
-1.190625014714897
 30
0.0
 11
35.22499999999999
 21
-4.00827219709754
 31
0.0
  0
SPLINE
  5
5F2
330
1F
100
AcDbEntity
  8
외형선
  6
Continuous
 62
     1
370
    15
100
AcDbSpline
210
0.0
220
0.0
230
1.0
 70
     8
 71
     3
 72
    12
 73
     8
 74
     0
 42
0.000000001
 43
0.00000001
 40
0.0
 40
0.0
 40
0.0
 40
0.0
 40
0.5000000000000002
 40
0.5000000000000002
 40
0.7500000000000001
 40
0.7500000000000001
 40
1.0
 40
1.0
 40
1.0
 40
1.0
 10
29.91069528542448
 20
-7.882690483145481
 30
0.0
 10
29.88622970926568
 20
-7.871072517817765
 30
0.0
 10
29.86125540312432
 20
-7.789905353552371
 30
0.0
 10
29.82448398048518
 20
-7.568353841290445
 30
0.0
 10
29.81234231156654
 20
-7.478043031302136
 30
0.0
 10
29.78851694491399
 20
-7.267154875093055
 30
0.0
 10
29.77700015263855
 20
-7.147243450015523
 30
0.0
 10
29.76541441047291
 20
-7.012476826575835
 30
0.0
  0
LINE
  5
5F4
330
1F
100
AcDbEntity
  8
외형선
  6
Continuous
 62
     1
370
    15
100
AcDbLine
 10
31.76242648661136
 20
-7.925071753561511
 30
0.0
 11
31.75719617903232
 21
-7.926218211650863
 31
0.0
  0
SPLINE
  5
5F7
330
1F
100
AcDbEntity
  8
외형선
  6
Continuous
 62
     1
370
    15
100
AcDbSpline
210
0.0
220
0.0
230
1.0
 70
     8
 71
     3
 72
     8
 73
     4
 74
     0
 42
0.000000001
 43
0.00000001
 40
0.0000003031994374
 40
0.0000003031994374
 40
0.0000003031994374
 40
0.0000003031994374
 40
0.0008100105960814
 40
0.0008100105960814
 40
0.0008100105960814
 40
0.0008100105960814
 10
35.22500068545341
 20
7.29092369726736
 30
0.0
 10
35.04696695730487
 20
7.450958315331533
 30
0.0
 10
34.86817256092806
 20
7.609737215643747
 30
0.0
 10
34.68874856120297
 20
7.76744092269589
 30
0.0
  0
LINE
  5
5F8
330
1F
100
AcDbEntity
  8
외형선
  6
Continuous
 62
     1
370
    15
100
AcDbLine
 10
35.22499999999999
 20
1.741443178616464
 30
0.0
 11
35.22499999999999
 21
1.761247171089053
 31
0.0
  0
LINE
  5
5F9
330
1F
100
AcDbEntity
  8
외형선
  6
Continuous
 62
     1
370
    15
100
AcDbLine
 10
35.22499999999999
 20
2.817647065967321
 30
0.0
 11
35.22499999999999
 21
7.290923502296202
 31
0.0
  0
LINE
  5
5FA
330
1F
100
AcDbEntity
  8
외형선
  6
Continuous
 62
     1
370
    15
100
AcDbLine
 10
31.92042163610458
 20
-7.874350063502803
 30
0.0
 11
31.91602579355239
 21
-7.876906543970122
 31
0.0
  0
LINE
  5
5FB
330
1F
100
AcDbEntity
  8
외형선
  6
Continuous
 62
     1
370
    15
100
AcDbLine
 10
32.52700320482253
 20
-7.877812720835223
 30
0.0
 11
32.52545720934867
 21
-7.875177077949061
 31
0.0
  0
LINE
  5
5FD
330
1F
100
AcDbEntity
  8
외형선
  6
Continuous
 62
     1
370
    15
100
AcDbLine
 10
33.92905718684196
 20
-7.872155867517009
 30
0.0
 11
33.92754844427108
 21
-7.875791750848308
 31
0.0
  0
SPLINE
  5
5FE
330
1F
100
AcDbEntity
  8
외형선
  6
Continuous
 62
     1
370
    15
100
AcDbSpline
210
0.0
220
0.0
230
1.0
 70
     8
 71
     3
 72
     8
 73
     4
 74
     0
 42
0.000000001
 43
0.00000001
 40
0.0
 40
0.0
 40
0.0
 40
0.0
 40
1.0
 40
1.0
 40
1.0
 40
1.0
 10
34.67528098296265
 20
-7.930653323610372
 30
0.0
 10
34.65275505386495
 20
-7.907598525982422
 30
0.0
 10
34.62987959112257
 20
-7.825586300973512
 30
0.0
 10
34.60740324801469
 20
-7.68742609812206
 30
0.0
  0
SPLINE
  5
5FF
330
1F
100
AcDbEntity
  8
외형선
  6
Continuous
 62
     1
370
    15
100
AcDbSpline
210
0.0
220
0.0
230
1.0
 70
     8
 71
     3
 72
     8
 73
     4
 74
     0
 42
0.000000001
 43
0.00000001
 40
0.0
 40
0.0
 40
0.0
 40
0.0
 40
1.0
 40
1.0
 40
1.0
 40
1.0
 10
34.6750006854534
 20
-7.930363453976824
 30
0.0
 10
34.6750006854534
 20
-7.935252017164515
 30
0.0
 10
34.67513145697535
 20
-7.937498283999176
 30
0.0
 10
34.67537242352827
 20
-7.937122866252309
 30
0.0
  0
LINE
  5
600
330
1F
100
AcDbEntity
  8
외형선
  6
Continuous
 62
     1
370
    15
100
AcDbLine
 10
34.67500186562538
 20
-7.930654101073756
 30
0.0
 11
34.67500186562538
 21
-7.693518884480014
 31
0.0
  0
LINE
  5
601
330
1F
100
AcDbEntity
  8
외형선
  6
Continuous
 62
     1
370
    15
100
AcDbLine
 10
35.22499999999999
 20
-7.17931287363173
 30
0.0
 11
35.22499999999999
 21
-7.387499790638699
 31
0.0
  0
LINE
  5
602
330
1F
100
AcDbEntity
  8
외형선
  6
Continuous
 62
     1
370
    15
100
AcDbLine
 10
34.67500186562538
 20
7.782300468534224
 30
0.0
 11
34.67500186562538
 21
7.937500253319733
 31
0.0
  0
LINE
  5
603
330
1F
100
AcDbEntity
  8
외형선
  6
Continuous
 62
     1
370
    15
100
AcDbLine
 10
35.22499999999999
 20
7.387499790638678
 30
0.0
 11
35.22499999999999
 21
7.290923502296202
 31
0.0
  0
LINE
  5
604
330
1F
100
AcDbEntity
  8
외형선
  6
Continuous
 62
     1
370
    15
100
AcDbLine
 10
33.68997178077697
 20
7.926388643681996
 30
0.0
 11
33.68794522285461
 21
7.92564079165458
 31
0.0
  0
LINE
  5
605
330
1F
100
AcDbEntity
  8
외형선
  6
Continuous
 62
     1
370
    15
100
AcDbLine
 10
32.92669146358966
 20
7.86938797682523
 30
0.0
 11
32.92323253154754
 21
7.87453539669513
 31
0.0
  0
LINE
  5
606
330
1F
100
AcDbEntity
  8
외형선
  6
Continuous
 62
     1
370
    15
100
AcDbLine
 10
31.68850927650928
 20
7.92487617582082
 30
0.0
 11
31.68132319152355
 21
7.925839163362973
 31
0.0
  0
LINE
  5
60A
330
1F
100
AcDbEntity
  8
외형선
  6
Continuous
 62
     1
370
    15
100
AcDbLine
 10
31.52179135978221
 20
7.878003641962998
 30
0.0
 11
31.51999018192291
 21
7.874245755374425
 31
0.0
  0
LINE
  5
60C
330
1F
100
AcDbEntity
  8
외형선
  6
Continuous
 62
     1
370
    15
100
AcDbLine
 10
30.92558844983577
 20
7.881259545683854
 30
0.0
 11
30.91234318017959
 21
7.86411948502063
 31
0.0
  0
SPLINE
  5
60E
330
1F
100
AcDbEntity
  8
외형선
  6
Continuous
 62
     1
370
    15
100
AcDbSpline
210
0.0
220
0.0
230
1.0
 70
     8
 71
     3
 72
    11
 73
     7
 74
     0
 42
0.000000001
 43
0.00000001
 40
0.0
 40
0.0
 40
0.0
 40
0.0
 40
0.2583901457764057
 40
0.6055922694996984
 40
0.9492556018948816
 40
1.0
 40
1.0
 40
1.0
 40
1.0
 10
30.52417351901531
 20
-7.863169535994544
 30
0.0
 10
30.51266684910058
 20
-7.852523203053053
 30
0.0
 10
30.48569852054027
 20
-7.827571257194151
 30
0.0
 10
30.44318217590774
 20
-7.59462192153795
 30
0.0
 10
30.41065476421221
 20
-7.319207507115323
 30
0.0
 10
30.39381315393442
 20
-7.136460005303491
 30
0.0
 10
30.39164631664752
 20
-7.112947758287206
 30
0.0
  0
SPLINE
  5
610
330
1F
100
AcDbEntity
  8
외형선
  6
Continuous
 62
     1
370
    15
100
AcDbSpline
210
0.0
220
0.0
230
1.0
 70
     8
 71
     3
 72
    11
 73
     7
 74
     0
 42
0.000000001
 43
0.00000001
 40
0.0
 40
0.0
 40
0.0
 40
0.0
 40
0.2232070842109168
 40
0.4821380771322512
 40
0.7410690288539895
 40
1.0
 40
1.0
 40
1.0
 40
1.0
 10
30.68858734369277
 20
-7.931441999971881
 30
0.0
 10
30.67816656489398
 20
-7.926632593349765
 30
0.0
 10
30.65565717962951
 20
-7.916244042873771
 30
0.0
 10
30.62105703987024
 20
-7.77507222173449
 30
0.0
 10
30.58478960498485
 20
-7.543981710676576
 30
0.0
 10
30.56061121290131
 20
-7.307256476263987
 30
0.0
 10
30.54852201640605
 20
-7.188893854618087
 30
0.0
  0
SPLINE
  5
611
330
1F
100
AcDbEntity
  8
외형선
  6
Continuous
 62
     1
370
    15
100
AcDbSpline
210
0.0
220
0.0
230
1.0
 70
     8
 71
     3
 72
    11
 73
     7
 74
     0
 42
0.000000001
 43
0.00000001
 40
0.0
 40
0.0
 40
0.0
 40
0.0
 40
0.0847750411088819
 40
0.389850055077101
 40
0.6949249732526788
 40
1.0
 40
1.0
 40
1.0
 40
1.0
 10
31.75719617903232
 20
-7.926218211650863
 30
0.0
 10
31.75382919814496
 20
-7.927872383473797
 30
0.0
 10
31.73834565880108
 20
-7.935479327308272
 30
0.0
 10
31.71073870473964
 20
-7.845455817654425
 30
0.0
 10
31.67438747045972
 20
-7.662202059080016
 30
0.0
 10
31.65015022023428
 20
-7.452781577528143
 30
0.0
 10
31.63803159296512
 20
-7.348071318119779
 30
0.0
  0
SPLINE
  5
615
330
1F
100
AcDbEntity
  8
외형선
  6
Continuous
 62
     1
370
    15
100
AcDbSpline
210
0.0
220
0.0
230
1.0
 70
     8
 71
     3
 72
    11
 73
     7
 74
     0
 42
0.000000001
 43
0.00000001
 40
0.0
 40
0.0
 40
0.0
 40
0.0
 40
0.0634360389625337
 40
0.3298569297759225
 40
0.6661588950911217
 40
0.9999999999999999
 40
0.9999999999999999
 40
0.9999999999999999
 40
0.9999999999999999
 10
31.91602579355239
 20
-7.876906543970122
 30
0.0
 10
31.91347055724211
 20
-7.878938215835817
 30
0.0
 10
31.90018375027941
 20
-7.889502574123185
 30
0.0
 10
31.87289244221927
 20
-7.821665280231457
 30
0.0
 10
31.83453845485195
 20
-7.656950073076487
 30
0.0
 10
31.80768869218574
 20
-7.430009148097355
 30
0.0
 10
31.79431310892105
 20
-7.316955365240588
 30
0.0
  0
SPLINE
  5
616
330
1F
100
AcDbEntity
  8
외형선
  6
Continuous
 62
     1
370
    15
100
AcDbSpline
210
0.0
220
0.0
230
1.0
 70
     8
 71
     3
 72
    10
 73
     6
 74
     0
 42
0.000000001
 43
0.00000001
 40
0.0
 40
0.0
 40
0.0
 40
0.0
 40
0.3078102933654981
 40
0.6548908800730674
 40
1.0
 40
1.0
 40
1.0
 40
1.0
 10
32.52545720934867
 20
-7.875177077949061
 30
0.0
 10
32.51469483246225
 20
-7.862490153170583
 30
0.0
 10
32.49179701967714
 20
-7.835497711680873
 30
0.0
 10
32.4565883591296
 20
-7.676404298484542
 30
0.0
 10
32.43267621799157
 20
-7.490844116630882
 30
0.0
 10
32.4207542002201
 20
-7.398328278213754
 30
0.0
  0
SPLINE
  5
618
330
1F
100
AcDbEntity
  8
외형선
  6
Continuous
 62
     1
370
    15
100
AcDbSpline
210
0.0
220
0.0
230
1.0
 70
     8
 71
     3
 72
    11
 73
     7
 74
     0
 42
0.000000001
 43
0.00000001
 40
0.0
 40
0.0
 40
0.0
 40
0.0
 40
0.0086099700897228
 40
0.3390732962887058
 40
0.6695366457569618
 40
1.0
 40
1.0
 40
1.0
 40
1.0
 10
32.68770105242729
 20
-7.936195470392718
 30
0.0
 10
32.68738501880964
 20
-7.936611544359337
 30
0.0
 10
32.67493914973483
 20
-7.952997149639103
 30
0.0
 10
32.65040776364631
 20
-7.890468446876426
 30
0.0
 10
32.61404679233351
 20
-7.748752484672224
 30
0.0
 10
32.58981232587544
 20
-7.563338499533259
 30
0.0
 10
32.57769509255886
 20
-7.470631506294026
 30
0.0
  0
SPLINE
  5
619
330
1F
100
AcDbEntity
  8
외형선
  6
Continuous
 62
     1
370
    15
100
AcDbSpline
210
0.0
220
0.0
230
1.0
 70
     8
 71
     3
 72
    10
 73
     6
 74
     0
 42
0.000000001
 43
0.00000001
 40
0.0
 40
0.0
 40
0.0
 40
0.0
 40
0.2310775159086819
 40
0.6155387576252901
 40
1.0
 40
1.0
 40
1.0
 40
1.0
 10
33.76185498237609
 20
-7.925281301140799
 30
0.0
 10
33.75458794836339
 20
-7.92634266914942
 30
0.0
 10
33.73523019704689
 20
-7.929169915854246
 30
0.0
 10
33.70378983476795
 20
-7.825771214280508
 30
0.0
 10
33.67961082412509
 20
-7.672039747849581
 30
0.0
 10
33.66752131879329
 20
-7.595174014568343
 30
0.0
  0
SPLINE
  5
61A
330
1F
100
AcDbEntity
  8
외형선
  6
Continuous
 62
     1
370
    15
100
AcDbSpline
210
0.0
220
0.0
230
1.0
 70
     8
 71
     3
 72
    10
 73
     6
 74
     0
 42
0.000000001
 43
0.00000001
 40
0.0
 40
0.0
 40
0.0
 40
0.0
 40
0.0235708578638687
 40
0.466435550335371
 40
1.0
 40
1.0
 40
1.0
 40
1.0
 10
33.92754844427108
 20
-7.875791750848308
 30
0.0
 10
33.92675425754655
 20
-7.877767111754423
 30
0.0
 10
33.91103837125689
 20
-7.916856845215904
 30
0.0
 10
33.87598001621566
 20
-7.849694122181702
 30
0.0
 10
33.84225919716135
 20
-7.661126986473931
 30
0.0
 10
33.8238326370716
 20
-7.558085490018144
 30
0.0
  0
SPLINE
  5
61B
330
1F
100
AcDbEntity
  8
외형선
  6
Continuous
 62
     1
370
    15
100
AcDbSpline
210
0.0
220
0.0
230
1.0
 70
     8
 71
     3
 72
     9
 73
     5
 74
     0
 42
0.000000001
 43
0.00000001
 40
0.0
 40
0.0
 40
0.0
 40
0.0
 40
0.3558232679368371
 40
1.0
 40
1.0
 40
1.0
 40
1.0
 10
34.52330804467201
 20
-7.859088480472579
 30
0.0
 10
34.51468984093313
 20
-7.855717610298569
 30
0.0
 10
34.49046937949768
 20
-7.846244170875821
 30
0.0
 10
34.46611046234219
 20
-7.708274257192414
 30
0.0
 10
34.4504190146923
 20
-7.619397249072804
 30
0.0
  0
SPLINE
  5
61C
330
1F
100
AcDbEntity
  8
외형선
  6
Continuous
 62
     1
370
    15
100
AcDbSpline
210
0.0
220
0.0
230
1.0
 70
     8
 71
     3
 72
     9
 73
     5
 74
     0
 42
0.000000001
 43
0.00000001
 40
0.0
 40
0.0
 40
0.0
 40
0.0
 40
0.7617532406650126
 40
1.0
 40
1.0
 40
1.0
 40
1.0
 10
33.73759216666221
 20
7.842209190130227
 30
0.0
 10
33.72550047870951
 20
7.884580174992863
 30
0.0
 10
33.7096269814833
 20
7.940203154457514
 30
0.0
 10
33.6937535696951
 20
7.929046645731468
 30
0.0
 10
33.68997178077697
 20
7.926388643681996
 30
0.0
  0
SPLINE
  5
61D
330
1F
100
AcDbEntity
  8
외형선
  6
Continuous
 62
     1
370
    15
100
AcDbSpline
210
0.0
220
0.0
230
1.0
 70
     8
 71
     3
 72
     9
 73
     5
 74
     0
 42
0.000000001
 43
0.00000001
 40
0.0
 40
0.0
 40
0.0
 40
0.0
 40
0.7610032084793336
 40
1.0
 40
1.0
 40
1.0
 40
1.0
 10
33.58134231567382
 20
7.796856109052889
 30
0.0
 10
33.56727474604358
 20
7.843952839747423
 30
0.0
 10
33.54878918714775
 20
7.90584052979888
 30
0.0
 10
33.52970992035893
 20
7.873167762033475
 30
0.0
 10
33.52515003681182
 20
7.865359075367444
 30
0.0
  0
LINE
  5
61E
330
1F
100
AcDbEntity
  8
외형선
  6
Continuous
 62
     1
370
    15
100
AcDbLine
 10
32.79811679422855
 20
7.887703366577618
 30
0.0
 11
32.7631027907133
 21
7.935665547847741
 31
0.0
  0
LINE
  5
61F
330
1F
100
AcDbEntity
  8
외형선
  6
Continuous
 62
     1
370
    15
100
AcDbLine
 10
31.70842281579971
 20
7.922207005321972
 30
0.0
 11
31.68850927650928
 21
7.92487617582082
 31
0.0
  0
SPLINE
  5
623
330
1F
100
AcDbEntity
  8
외형선
  6
Continuous
 62
     1
370
    15
100
AcDbSpline
210
0.0
220
0.0
230
1.0
 70
     8
 71
     3
 72
     9
 73
     5
 74
     0
 42
0.000000001
 43
0.00000001
 40
0.0
 40
0.0
 40
0.0
 40
0.0
 40
0.9941921146009943
 40
1.0
 40
1.0
 40
1.0
 40
1.0
 10
31.55212081074714
 20
7.87184573709964
 30
0.0
 10
31.54209283896429
 20
7.88564425907451
 30
0.0
 10
31.53200628563562
 20
7.899523389448035
 30
0.0
 10
31.52185034432549
 20
7.878127904487698
 30
0.0
 10
31.52179135978221
 20
7.878003641962998
 30
0.0
  0
LINE
  5
625
330
1F
100
AcDbEntity
  8
외형선
  6
Continuous
 62
     1
370
    15
100
AcDbLine
 10
30.76862334311008
 20
7.936075329780572
 30
0.0
 11
30.76265915334224
 21
7.930501364171498
 31
0.0
  0
LINE
  5
627
330
1F
100
AcDbEntity
  8
중심선
100
AcDbLine
 10
-54.325
 20
0.0
 30
0.0
 11
38.22500068545344
 21
0.0
 31
0.0
  0
CIRCLE
  5
628
330
1F
100
AcDbEntity
  8
해칭선
100
AcDbCircle
 10
0.0
 20
0.0
 30
0.0
 40
3.000000000000005
  0
POINT
  5
629
330
1F
100
AcDbEntity
  8
치수문자_일반주서
100
AcDbPoint
 10
-6.524999314546562
 20
-0.3168705809327435
 30
0.0
  0
DIMENSION
  5
62A
330
1F
100
AcDbEntity
  8
치수문자_일반주서
100
AcDbDimension
  2
*D12
 10
53.00719772871065
 20
-7.937500253319681
 30
0.0
 11
53.00719772871062
 21
-0.3388476992764282
 31
0.0
 70
   160
  1
%%c<>
 71
     2
 42
15.87485614947304
 52
-270.0
  3
SLDDIMSTYLE0
100
AcDbAlignedDimension
 13
30.22383914815522
 23
7.937355896153272
 33
0.0
 14
33.2250564828515
 24
-7.937500253319755
 34
0.0
 50
90.0000000000002
100
AcDbRotatedDimension
1001
ACAD
1000
DSTYLE
1002
{
1070
   171
1070
     6
1070
   273
1070
     7
1002
}
  0
DIMENSION
  5
62B
330
1F
100
AcDbEntity
  8
치수문자_일반주서
100
AcDbDimension
  2
*D13
 10
-57.13499945759774
 20
-7.93750000000006
 30
0.0
 11
-57.13499945759776
 21
-1.271680434525781
 31
0.0
 70
   160
  1
%%c<>
 71
     2
 42
15.87500000000001
 52
-270.0
  3
SLDDIMSTYLE1
100
AcDbAlignedDimension
 13
-46.32499945759774
 23
7.937499999999989
 33
0.0
 14
-46.32499945759774
 24
-7.937500000000018
 34
0.0
 50
90.0000000000002
100
AcDbRotatedDimension
1001
ACAD
1000
DSTYLE
1002
{
1070
   171
1070
     6
1070
   273
1070
     7
1002
}
  0
DIMENSION
  5
62C
330
1F
100
AcDbEntity
  8
치수문자_일반주서
100
AcDbDimension
  2
*D14
 10
13.0
 20
24.61863885989552
 30
0.0
 11
24.1125003427267
 21
24.61863885989552
 31
0.0
 70
   160
  1
<>
 71
     2
 42
22.22500068545341
  3
SLDDIMSTYLE0
100
AcDbAlignedDimension
 13
35.22500068545341
 23
7.290923697267367
 33
0.0
 14
13.0
 24
7.9375
 34
0.0
 50
0.0000000000000256
100
AcDbRotatedDimension
1001
ACAD
1000
DSTYLE
1002
{
1070
   171
1070
     6
1070
   273
1070
     7
1002
}
  0
DIMENSION
  5
62D
330
1F
100
AcDbEntity
  8
치수문자_일반주서
100
AcDbDimension
  2
*D15
 10
-47.325
 20
41.28830386089135
 30
0.0
 11
-6.049999657273297
 21
41.28830386089135
 31
0.0
 70
   160
  1
<>
 71
     2
 42
82.55000068545341
  3
SLDDIMSTYLE2
100
AcDbAlignedDimension
 13
35.22500068545341
 23
7.290923697267367
 33
0.0
 14
-47.325
 24
6.937500089406971
 34
0.0
100
AcDbRotatedDimension
1001
ACAD
1000
DSTYLE
1002
{
1070
   273
1070
     7
1002
}
  0
INSERT
  5
62E
330
1F
100
AcDbEntity
  8
해칭선
100
AcDbBlockReference
  2
SW_DOWELSYMBOL_0
 10
0.0
 20
0.0
 30
0.0
  0
LINE
  5
661
330
1F
100
AcDbEntity
  8
외형선
  6
Continuous
 62
     1
370
    15
100
AcDbLine
 10
13.0
 20
-0.0000000000000009
 30
0.0
 11
13.0
 21
-1.190625014714897
 31
0.0
  0
LINE
  5
662
330
1F
100
AcDbEntity
  8
외형선
  6
Continuous
370
    15
100
AcDbLine
 10
13.0
 20
7.9375
 30
0.0
 11
13.0
 21
-7.9375
 31
0.0
  0
ENDSEC
  0
SECTION
  2
OBJECTS
  0
DICTIONARY
  5
C
330
0
100
AcDbDictionary
281
     1
  3
ACAD_GROUP
350
D
  3
ACAD_IMAGE_VARS
350
159
  3
ACAD_LAYOUT
350
1A
  3
ACAD_MLINESTYLE
350
17
  3
ACAD_PLOTSETTINGS
350
19
  3
ACAD_PLOTSTYLENAME
350
E
  3
ACAD_SCALELIST
350
47
  3
APPDATA
350
157
  3
DWGPROPS
350
665
  0
DICTIONARY
  5
D
102
{ACAD_REACTORS
330
C
102
}
330
C
100
AcDbDictionary
281
     1
  0
RASTERVARIABLES
  5
159
102
{ACAD_REACTORS
330
C
102
}
330
C
100
AcDbRasterVariables
 90
        0
 70
     1
 71
     1
 72
     1
  0
DICTIONARY
  5
1A
102
{ACAD_REACTORS
330
C
102
}
330
C
100
AcDbDictionary
281
     1
  3
Layout1
350
1E
  3
Layout2
350
26
  3
Model
350
22
  0
DICTIONARY
  5
17
102
{ACAD_REACTORS
330
C
102
}
330
C
100
AcDbDictionary
281
     1
  3
Standard
350
18
  0
DICTIONARY
  5
19
102
{ACAD_REACTORS
330
C
102
}
330
C
100
AcDbDictionary
281
     1
  0
ACDBDICTIONARYWDFLT
  5
E
102
{ACAD_REACTORS
330
C
102
}
330
C
100
AcDbDictionary
281
     1
  3
Normal
350
F
100
AcDbDictionaryWithDefault
340
F
  0
DICTIONARY
  5
47
102
{ACAD_REACTORS
330
C
102
}
330
C
100
AcDbDictionary
281
     1
  3
A0
350
48
  3
A1
350
49
  3
A2
350
4A
  3
A3
350
4B
  3
A4
350
4C
  3
A5
350
4D
  3
A6
350
4E
  3
A7
350
4F
  3
A8
350
50
  3
A9
350
51
  3
B0
350
52
  3
B1
350
53
  3
B2
350
54
  3
B3
350
55
  3
B4
350
56
  3
B5
350
57
  3
B6
350
58
  3
B7
350
59
  3
B8
350
5A
  3
B9
350
5B
  3
C0
350
5C
  3
C1
350
5D
  3
C2
350
5E
  3
C3
350
5F
  3
C4
350
60
  3
C5
350
61
  3
C6
350
62
  3
C7
350
63
  3
C8
350
64
  3
C9
350
65
  3
D0
350
66
  3
D1
350
67
  3
D2
350
68
  0
DICTIONARY
  5
157
102
{ACAD_REACTORS
330
C
102
}
330
C
100
AcDbDictionary
281
     1
  0
XRECORD
  5
665
102
{ACAD_REACTORS
330
C
102
}
330
C
100
AcDbXrecord
280
     1
  1
DWGPROPS COOKIE
  2

  3

  4

  6

  7

  8
12016016
  9

300
=
301
=
302
=
303
=
304
=
305
=
306
=
307
=
308
=
309
=
 40
0.0
 41
2458299.002736516
 42
2458302.359571644
  1

 90
        0
  0
LAYOUT
  5
1E
102
{ACAD_REACTORS
330
1A
102
}
330
1A
100
AcDbPlotSettings
  1

  2
none_device
  4

  6

 40
0.0
 41
0.0
 42
0.0
 43
0.0
 44
0.0
 45
0.0
 46
0.0
 47
0.0
 48
0.0
 49
0.0
140
0.0
141
0.0
142
1.0
143
1.0
 70
   688
 72
     1
 73
     0
 74
     5
  7

 75
    16
147
1.0
148
0.0
149
0.0
100
AcDbLayout
  1
Layout1
 70
     1
 71
     1
 10
0.0
 20
0.0
 11
420.0
 21
297.0
 12
0.0
 22
0.0
 32
0.0
 14
1.000000000000000E+20
 24
1.000000000000000E+20
 34
1.000000000000000E+20
 15
-1.000000000000000E+20
 25
-1.000000000000000E+20
 35
-1.000000000000000E+20
146
0.0
 13
0.0
 23
0.0
 33
0.0
 16
1.0
 26
0.0
 36
0.0
 17
0.0
 27
1.0
 37
0.0
 76
     0
330
1B
  0
LAYOUT
  5
26
102
{ACAD_REACTORS
330
1A
102
}
330
1A
100
AcDbPlotSettings
  1

  2
none_device
  4

  6

 40
0.0
 41
0.0
 42
0.0
 43
0.0
 44
0.0
 45
0.0
 46
0.0
 47
0.0
 48
0.0
 49
0.0
140
0.0
141
0.0
142
1.0
143
1.0
 70
   688
 72
     1
 73
     0
 74
     5
  7

 75
    16
147
1.0
148
0.0
149
0.0
100
AcDbLayout
  1
Layout2
 70
     1
 71
     2
 10
0.0
 20
0.0
 11
0.0
 21
0.0
 12
0.0
 22
0.0
 32
0.0
 14
0.0
 24
0.0
 34
0.0
 15
0.0
 25
0.0
 35
0.0
146
0.0
 13
0.0
 23
0.0
 33
0.0
 16
1.0
 26
0.0
 36
0.0
 17
0.0
 27
1.0
 37
0.0
 76
     0
330
23
  0
LAYOUT
  5
22
102
{ACAD_REACTORS
330
1A
102
}
330
1A
100
AcDbPlotSettings
  1

  2
none_device
  4
ANSI_A_(11.00_x_8.50_Inches)
  6

 40
6.35
 41
19.05
 42
6.35000508
 43
19.05000254
 44
279.4
 45
215.9
 46
119.6884052038614
 47
87.1104497016561
 48
0.0
 49
0.0
140
0.0
141
0.0
142
0.0691849512270148
143
1.0
 70
  1696
 72
     0
 73
     0
 74
     0
  7

 75
     0
147
0.0235690232323232
148
0.0
149
0.0
100
AcDbLayout
  1
Model
 70
     1
 71
     0
 10
0.0
 20
0.0
 11
420.0
 21
297.0
 12
0.0
 22
0.0
 32
0.0
 14
1.000000000000000E+20
 24
1.000000000000000E+20
 34
1.000000000000000E+20
 15
-1.000000000000000E+20
 25
-1.000000000000000E+20
 35
-1.000000000000000E+20
146
0.0
 13
0.0
 23
0.0
 33
0.0
 16
1.0
 26
0.0
 36
0.0
 17
0.0
 27
1.0
 37
0.0
 76
     0
330
1F
331
29
  0
MLINESTYLE
  5
18
102
{ACAD_REACTORS
330
17
102
}
330
17
100
AcDbMlineStyle
  2
Standard
 70
     0
  3

 62
   256
 51
90.0
 52
90.0
 71
     2
 49
0.5
 62
   256
  6
BYLAYER
 49
-0.5
 62
   256
  6
BYLAYER
  0
ACDBPLACEHOLDER
  5
F
102
{ACAD_REACTORS
330
E
102
}
330
E
  0
SCALE
  5
48
102
{ACAD_REACTORS
330
47
102
}
330
47
100
AcDbScale
 70
     0
300
1:1
140
1.0
141
1.0
290
     1
  0
SCALE
  5
49
102
{ACAD_REACTORS
330
47
102
}
330
47
100
AcDbScale
 70
     0
300
1:2
140
1.0
141
2.0
290
     0
  0
SCALE
  5
4A
102
{ACAD_REACTORS
330
47
102
}
330
47
100
AcDbScale
 70
     0
300
1:4
140
1.0
141
4.0
290
     0
  0
SCALE
  5
4B
102
{ACAD_REACTORS
330
47
102
}
330
47
100
AcDbScale
 70
     0
300
1:5
140
1.0
141
5.0
290
     0
  0
SCALE
  5
4C
102
{ACAD_REACTORS
330
47
102
}
330
47
100
AcDbScale
 70
     0
300
1:8
140
1.0
141
8.0
290
     0
  0
SCALE
  5
4D
102
{ACAD_REACTORS
330
47
102
}
330
47
100
AcDbScale
 70
     0
300
1:10
140
1.0
141
10.0
290
     0
  0
SCALE
  5
4E
102
{ACAD_REACTORS
330
47
102
}
330
47
100
AcDbScale
 70
     0
300
1:16
140
1.0
141
16.0
290
     0
  0
SCALE
  5
4F
102
{ACAD_REACTORS
330
47
102
}
330
47
100
AcDbScale
 70
     0
300
1:20
140
1.0
141
20.0
290
     0
  0
SCALE
  5
50
102
{ACAD_REACTORS
330
47
102
}
330
47
100
AcDbScale
 70
     0
300
1:30
140
1.0
141
30.0
290
     0
  0
SCALE
  5
51
102
{ACAD_REACTORS
330
47
102
}
330
47
100
AcDbScale
 70
     0
300
1:40
140
1.0
141
40.0
290
     0
  0
SCALE
  5
52
102
{ACAD_REACTORS
330
47
102
}
330
47
100
AcDbScale
 70
     0
300
1:50
140
1.0
141
50.0
290
     0
  0
SCALE
  5
53
102
{ACAD_REACTORS
330
47
102
}
330
47
100
AcDbScale
 70
     0
300
1:100
140
1.0
141
100.0
290
     0
  0
SCALE
  5
54
102
{ACAD_REACTORS
330
47
102
}
330
47
100
AcDbScale
 70
     0
300
2:1
140
2.0
141
1.0
290
     0
  0
SCALE
  5
55
102
{ACAD_REACTORS
330
47
102
}
330
47
100
AcDbScale
 70
     0
300
4:1
140
4.0
141
1.0
290
     0
  0
SCALE
  5
56
102
{ACAD_REACTORS
330
47
102
}
330
47
100
AcDbScale
 70
     0
300
8:1
140
8.0
141
1.0
290
     0
  0
SCALE
  5
57
102
{ACAD_REACTORS
330
47
102
}
330
47
100
AcDbScale
 70
     0
300
10:1
140
10.0
141
1.0
290
     0
  0
SCALE
  5
58
102
{ACAD_REACTORS
330
47
102
}
330
47
100
AcDbScale
 70
     0
300
100:1
140
100.0
141
1.0
290
     0
  0
SCALE
  5
59
102
{ACAD_REACTORS
330
47
102
}
330
47
100
AcDbScale
 70
     0
300
1/128" = 1'-0"
140
0.0078125
141
12.0
290
     0
  0
SCALE
  5
5A
102
{ACAD_REACTORS
330
47
102
}
330
47
100
AcDbScale
 70
     0
300
1/64" = 1'-0"
140
0.015625
141
12.0
290
     0
  0
SCALE
  5
5B
102
{ACAD_REACTORS
330
47
102
}
330
47
100
AcDbScale
 70
     0
300
1/32" = 1'-0"
140
0.03125
141
12.0
290
     0
  0
SCALE
  5
5C
102
{ACAD_REACTORS
330
47
102
}
330
47
100
AcDbScale
 70
     0
300
1/16" = 1'-0"
140
0.0625
141
12.0
290
     0
  0
SCALE
  5
5D
102
{ACAD_REACTORS
330
47
102
}
330
47
100
AcDbScale
 70
     0
300
3/32" = 1'-0"
140
0.09375
141
12.0
290
     0
  0
SCALE
  5
5E
102
{ACAD_REACTORS
330
47
102
}
330
47
100
AcDbScale
 70
     0
300
1/8" = 1'-0"
140
0.125
141
12.0
290
     0
  0
SCALE
  5
5F
102
{ACAD_REACTORS
330
47
102
}
330
47
100
AcDbScale
 70
     0
300
3/16" = 1'-0"
140
0.1875
141
12.0
290
     0
  0
SCALE
  5
60
102
{ACAD_REACTORS
330
47
102
}
330
47
100
AcDbScale
 70
     0
300
1/4" = 1'-0"
140
0.25
141
12.0
290
     0
  0
SCALE
  5
61
102
{ACAD_REACTORS
330
47
102
}
330
47
100
AcDbScale
 70
     0
300
3/8" = 1'-0"
140
0.375
141
12.0
290
     0
  0
SCALE
  5
62
102
{ACAD_REACTORS
330
47
102
}
330
47
100
AcDbScale
 70
     0
300
1/2" = 1'-0"
140
0.5
141
12.0
290
     0
  0
SCALE
  5
63
102
{ACAD_REACTORS
330
47
102
}
330
47
100
AcDbScale
 70
     0
300
3/4" = 1'-0"
140
0.75
141
12.0
290
     0
  0
SCALE
  5
64
102
{ACAD_REACTORS
330
47
102
}
330
47
100
AcDbScale
 70
     0
300
1" = 1'-0"
140
1.0
141
12.0
290
     0
  0
SCALE
  5
65
102
{ACAD_REACTORS
330
47
102
}
330
47
100
AcDbScale
 70
     0
300
1-1/2" = 1'-0"
140
1.5
141
12.0
290
     0
  0
SCALE
  5
66
102
{ACAD_REACTORS
330
47
102
}
330
47
100
AcDbScale
 70
     0
300
3" = 1'-0"
140
3.0
141
12.0
290
     0
  0
SCALE
  5
67
102
{ACAD_REACTORS
330
47
102
}
330
47
100
AcDbScale
 70
     0
300
6" = 1'-0"
140
6.0
141
12.0
290
     0
  0
SCALE
  5
68
102
{ACAD_REACTORS
330
47
102
}
330
47
100
AcDbScale
 70
     0
300
1'-0" = 1'-0"
140
12.0
141
12.0
290
     0
  0
ENDSEC
  0
EOF
