  0
SECTION
  2
HEADER
  9
$ACADVER
  1
AC1015
  9
$ACADMAINTVER
 70
     6
  9
$DWGCODEPAGE
  3
ANSI_949
  9
$INSBASE
 10
0.0
 20
0.0
 30
0.0
  9
$EXTMIN
 10
1.000000000000000E+20
 20
1.000000000000000E+20
 30
1.000000000000000E+20
  9
$EXTMAX
 10
-1.000000000000000E+20
 20
-1.000000000000000E+20
 30
-1.000000000000000E+20
  9
$LIMMIN
 10
0.0
 20
0.0
  9
$LIMMAX
 10
420.0
 20
297.0
  9
$ORTHOMODE
 70
     1
  9
$REGENMODE
 70
     1
  9
$FILLMODE
 70
     1
  9
$QTEXTMODE
 70
     0
  9
$MIRRTEXT
 70
     1
  9
$LTSCALE
 40
1.0
  9
$ATTMODE
 70
     1
  9
$TEXTSIZE
 40
3.5
  9
$TRACEWID
 40
1.0
  9
$TEXTSTYLE
  7
Standard
  9
$CLAYER
  8
0
  9
$CELTYPE
  6
ByLayer
  9
$CECOLOR
 62
   256
  9
$CELTSCALE
 40
1.0
  9
$DISPSILH
 70
     0
  9
$DIMSCALE
 40
1.0
  9
$DIMASZ
 40
3.302
  9
$DIMEXO
 40
1.0
  9
$DIMDLI
 40
3.75
  9
$DIMRND
 40
0.0
  9
$DIMDLE
 40
0.0
  9
$DIMEXE
 40
1.0
  9
$DIMTP
 40
0.0
  9
$DIMTM
 40
0.0
  9
$DIMTXT
 40
3.5
  9
$DIMCEN
 40
2.5
  9
$DIMTSZ
 40
0.0
  9
$DIMTOL
 70
     0
  9
$DIMLIM
 70
     0
  9
$DIMTIH
 70
     1
  9
$DIMTOH
 70
     1
  9
$DIMSE1
 70
     0
  9
$DIMSE2
 70
     0
  9
$DIMTAD
 70
     1
  9
$DIMZIN
 70
     0
  9
$DIMBLK
  1

  9
$DIMASO
 70
     1
  9
$DIMSHO
 70
     1
  9
$DIMPOST
  1

  9
$DIMAPOST
  1

  9
$DIMALT
 70
     0
  9
$DIMALTD
 70
     3
  9
$DIMALTF
 40
0.0393700787401575
  9
$DIMLFAC
 40
1.0
  9
$DIMTOFL
 70
     1
  9
$DIMTVP
 40
0.0
  9
$DIMTIX
 70
     0
  9
$DIMSOXD
 70
     0
  9
$DIMSAH
 70
     0
  9
$DIMBLK1
  1

  9
$DIMBLK2
  1

  9
$DIMSTYLE
  2
ISO-25
  9
$DIMCLRD
 70
     0
  9
$DIMCLRE
 70
     0
  9
$DIMCLRT
 70
     0
  9
$DIMTFAC
 40
1.0
  9
$DIMGAP
 40
1.524
  9
$DIMJUST
 70
     0
  9
$DIMSD1
 70
     0
  9
$DIMSD2
 70
     0
  9
$DIMTOLJ
 70
     0
  9
$DIMTZIN
 70
     0
  9
$DIMALTZ
 70
     0
  9
$DIMALTTZ
 70
     0
  9
$DIMUPT
 70
     0
  9
$DIMDEC
 70
     2
  9
$DIMTDEC
 70
     2
  9
$DIMALTU
 70
     2
  9
$DIMALTTD
 70
     3
  9
$DIMTXSTY
  7
Standard
  9
$DIMAUNIT
 70
     0
  9
$DIMADEC
 70
     2
  9
$DIMALTRND
 40
0.0
  9
$DIMAZIN
 70
     0
  9
$DIMDSEP
 70
    44
  9
$DIMATFIT
 70
     3
  9
$DIMFRAC
 70
     0
  9
$DIMLDRBLK
  1

  9
$DIMLUNIT
 70
     2
  9
$DIMLWD
 70
    -2
  9
$DIMLWE
 70
    -2
  9
$DIMTMOVE
 70
     0
  9
$LUNITS
 70
     2
  9
$LUPREC
 70
     2
  9
$SKETCHINC
 40
1.0
  9
$FILLETRAD
 40
10.0
  9
$AUNITS
 70
     0
  9
$AUPREC
 70
     2
  9
$MENU
  1
.
  9
$ELEVATION
 40
0.0
  9
$PELEVATION
 40
0.0
  9
$THICKNESS
 40
0.0
  9
$LIMCHECK
 70
     0
  9
$CHAMFERA
 40
0.0
  9
$CHAMFERB
 40
0.0
  9
$CHAMFERC
 40
0.0
  9
$CHAMFERD
 40
0.0
  9
$SKPOLY
 70
     0
  9
$TDCREATE
 40
2458299.380538738
  9
$TDUCREATE
 40
2458299.005538738
  9
$TDUPDATE
 40
2458302.732254259
  9
$TDUUPDATE
 40
2458302.357254259
  9
$TDINDWG
 40
0.0024687731
  9
$TDUSRTIMER
 40
2458302.354785648
  9
$USRTIMER
 70
     1
  9
$ANGBASE
 50
0.0
  9
$ANGDIR
 70
     0
  9
$PDMODE
 70
     0
  9
$PDSIZE
 40
-1.0
  9
$PLINEWID
 40
0.0
  9
$SPLFRAME
 70
     0
  9
$SPLINETYPE
 70
     6
  9
$SPLINESEGS
 70
     8
  9
$HANDSEED
  5
799
  9
$SURFTAB1
 70
     6
  9
$SURFTAB2
 70
     6
  9
$SURFTYPE
 70
     6
  9
$SURFU
 70
     6
  9
$SURFV
 70
     6
  9
$UCSBASE
  2

  9
$UCSNAME
  2

  9
$UCSORG
 10
0.0
 20
0.0
 30
0.0
  9
$UCSXDIR
 10
1.0
 20
0.0
 30
0.0
  9
$UCSYDIR
 10
0.0
 20
1.0
 30
0.0
  9
$UCSORTHOREF
  2

  9
$UCSORTHOVIEW
 70
     0
  9
$UCSORGTOP
 10
0.0
 20
0.0
 30
0.0
  9
$UCSORGBOTTOM
 10
0.0
 20
0.0
 30
0.0
  9
$UCSORGLEFT
 10
0.0
 20
0.0
 30
0.0
  9
$UCSORGRIGHT
 10
0.0
 20
0.0
 30
0.0
  9
$UCSORGFRONT
 10
0.0
 20
0.0
 30
0.0
  9
$UCSORGBACK
 10
0.0
 20
0.0
 30
0.0
  9
$PUCSBASE
  2

  9
$PUCSNAME
  2

  9
$PUCSORG
 10
0.0
 20
0.0
 30
0.0
  9
$PUCSXDIR
 10
1.0
 20
0.0
 30
0.0
  9
$PUCSYDIR
 10
0.0
 20
1.0
 30
0.0
  9
$PUCSORTHOREF
  2

  9
$PUCSORTHOVIEW
 70
     0
  9
$PUCSORGTOP
 10
0.0
 20
0.0
 30
0.0
  9
$PUCSORGBOTTOM
 10
0.0
 20
0.0
 30
0.0
  9
$PUCSORGLEFT
 10
0.0
 20
0.0
 30
0.0
  9
$PUCSORGRIGHT
 10
0.0
 20
0.0
 30
0.0
  9
$PUCSORGFRONT
 10
0.0
 20
0.0
 30
0.0
  9
$PUCSORGBACK
 10
0.0
 20
0.0
 30
0.0
  9
$USERI1
 70
     0
  9
$USERI2
 70
     0
  9
$USERI3
 70
     0
  9
$USERI4
 70
     0
  9
$USERI5
 70
     0
  9
$USERR1
 40
0.0
  9
$USERR2
 40
0.0
  9
$USERR3
 40
0.0
  9
$USERR4
 40
0.0
  9
$USERR5
 40
0.0
  9
$WORLDVIEW
 70
     1
  9
$SHADEDGE
 70
     3
  9
$SHADEDIF
 70
    70
  9
$TILEMODE
 70
     1
  9
$MAXACTVP
 70
    64
  9
$PINSBASE
 10
0.0
 20
0.0
 30
0.0
  9
$PLIMCHECK
 70
     0
  9
$PEXTMIN
 10
1.000000000000000E+20
 20
1.000000000000000E+20
 30
1.000000000000000E+20
  9
$PEXTMAX
 10
-1.000000000000000E+20
 20
-1.000000000000000E+20
 30
-1.000000000000000E+20
  9
$PLIMMIN
 10
0.0
 20
0.0
  9
$PLIMMAX
 10
0.0
 20
0.0
  9
$UNITMODE
 70
     0
  9
$VISRETAIN
 70
     1
  9
$PLINEGEN
 70
     0
  9
$PSLTSCALE
 70
     1
  9
$TREEDEPTH
 70
  3020
  9
$CMLSTYLE
  2
Standard
  9
$CMLJUST
 70
     0
  9
$CMLSCALE
 40
20.0
  9
$PROXYGRAPHICS
 70
     1
  9
$MEASUREMENT
 70
     1
  9
$CELWEIGHT
370
    -1
  9
$ENDCAPS
280
     0
  9
$JOINSTYLE
280
     0
  9
$LWDISPLAY
290
     1
  9
$INSUNITS
 70
     4
  9
$HYPERLINKBASE
  1

  9
$STYLESHEET
  1

  9
$XEDIT
290
     1
  9
$CEPSNTYPE
380
     0
  9
$PSTYLEMODE
290
     1
  9
$FINGERPRINTGUID
  2
{7DE1DC4C-1312-4ECB-BE84-9EB72C9A3AB6}
  9
$VERSIONGUID
  2
{FAEB1C32-E019-11D5-929B-00C0DF256EC4}
  9
$EXTNAMES
290
     1
  9
$PSVPSCALE
 40
0.0
  9
$OLESTARTUP
290
     0
  0
ENDSEC
  0
SECTION
  2
CLASSES
  0
CLASS
  1
ACDBDICTIONARYWDFLT
  2
AcDbDictionaryWithDefault
  3
ObjectDBX Classes
 90
        0
280
     0
281
     0
  0
CLASS
  1
VISUALSTYLE
  2
AcDbVisualStyle
  3
ObjectDBX Classes
 90
     4095
280
     0
281
     0
  0
CLASS
  1
MATERIAL
  2
AcDbMaterial
  3
ObjectDBX Classes
 90
     1153
280
     0
281
     0
  0
CLASS
  1
SCALE
  2
AcDbScale
  3
ObjectDBX Classes
 90
     1153
280
     0
281
     0
  0
CLASS
  1
SUN
  2
AcDbSun
  3
SCENEOE
 90
     1153
280
     0
281
     0
  0
CLASS
  1
ACDBPLACEHOLDER
  2
AcDbPlaceHolder
  3
ObjectDBX Classes
 90
        0
280
     0
281
     0
  0
CLASS
  1
LAYOUT
  2
AcDbLayout
  3
ObjectDBX Classes
 90
        0
280
     0
281
     0
  0
CLASS
  1
TABLESTYLE
  2
AcDbTableStyle
  3
ObjectDBX Classes
 90
     4095
280
     0
281
     0
  0
CLASS
  1
MLEADERSTYLE
  2
AcDbMLeaderStyle
  3
ACDB_MLEADERSTYLE_CLASS
 90
     4095
280
     0
281
     0
  0
CLASS
  1
RASTERVARIABLES
  2
AcDbRasterVariables
  3
ISM
 90
        0
280
     0
281
     0
  0
ENDSEC
  0
SECTION
  2
TABLES
  0
TABLE
  2
VPORT
  5
8
330
0
100
AcDbSymbolTable
 70
     1
  0
VPORT
  5
29
330
8
100
AcDbSymbolTableRecord
100
AcDbViewportTableRecord
  2
*Active
 70
     0
 10
0.0
 20
0.0
 11
1.0
 21
1.0
 12
-26.80887613502624
 22
6.367087537669018
 13
0.0
 23
0.0
 14
10.0
 24
10.0
 15
10.0
 25
10.0
 16
0.0
 26
0.0
 36
1.0
 17
0.0
 27
0.0
 37
0.0
 40
135.6733900263324
 41
1.601547388781431
 42
50.0
 43
0.0
 44
0.0
 50
0.0
 51
0.0
 71
    16
 72
  2000
 73
     1
 74
     3
 75
     0
 76
     0
 77
     0
 78
     0
281
     0
 65
     1
110
0.0
120
0.0
130
0.0
111
1.0
121
0.0
131
0.0
112
0.0
122
1.0
132
0.0
 79
     0
146
0.0
  0
ENDTAB
  0
TABLE
  2
LTYPE
  5
5
330
0
100
AcDbSymbolTable
 70
     6
  0
LTYPE
  5
14
330
5
100
AcDbSymbolTableRecord
100
AcDbLinetypeTableRecord
  2
ByBlock
 70
     0
  3

 72
    65
 73
     0
 40
0.0
  0
LTYPE
  5
15
330
5
100
AcDbSymbolTableRecord
100
AcDbLinetypeTableRecord
  2
ByLayer
 70
     0
  3

 72
    65
 73
     0
 40
0.0
  0
LTYPE
  5
16
330
5
100
AcDbSymbolTableRecord
100
AcDbLinetypeTableRecord
  2
Continuous
 70
     0
  3
Solid line
 72
    65
 73
     0
 40
0.0
  0
LTYPE
  5
6A
330
5
100
AcDbSymbolTableRecord
100
AcDbLinetypeTableRecord
  2
HIDDEN
 70
     0
  3
Hidden __ __ __ __ __ __ __ __ __ __ __ __ __ __
 72
    65
 73
     2
 40
1.905
 49
1.27
 74
     0
 49
-0.635
 74
     0
  0
LTYPE
  5
6B
330
5
100
AcDbSymbolTableRecord
100
AcDbLinetypeTableRecord
  2
PHANTOM
 70
     0
  3
Phantom ______  __  __  ______  __  __  ______
 72
    65
 73
     6
 40
12.7
 49
6.35
 74
     0
 49
-1.27
 74
     0
 49
1.27
 74
     0
 49
-1.27
 74
     0
 49
1.27
 74
     0
 49
-1.27
 74
     0
  0
LTYPE
  5
6C
330
5
100
AcDbSymbolTableRecord
100
AcDbLinetypeTableRecord
  2
CENTER
 70
     0
  3
Center ____ _ ____ _ ____ _ ____ _ ____ _ ____
 72
    65
 73
     4
 40
10.16
 49
6.35
 74
     0
 49
-1.27
 74
     0
 49
1.27
 74
     0
 49
-1.27
 74
     0
  0
LTYPE
  5
6D
330
5
100
AcDbSymbolTableRecord
100
AcDbLinetypeTableRecord
  2
CENTERX2
 70
     0
  3
Center (2x) ________  __  ________  __  _____
 72
    65
 73
     4
 40
20.32
 49
12.7
 74
     0
 49
-2.54
 74
     0
 49
2.54
 74
     0
 49
-2.54
 74
     0
  0
LTYPE
  5
6E
330
5
100
AcDbSymbolTableRecord
100
AcDbLinetypeTableRecord
  2
DOT2
 70
     0
  3
Dot (.5x) ........................................
 72
    65
 73
     2
 40
0.635
 49
0.0
 74
     0
 49
-0.635
 74
     0
  0
ENDTAB
  0
TABLE
  2
LAYER
  5
2
330
0
100
AcDbSymbolTable
 70
    18
  0
LAYER
  5
10
330
2
100
AcDbSymbolTableRecord
100
AcDbLayerTableRecord
  2
0
 70
     0
 62
     7
  6
Continuous
370
    -3
390
F
  0
LAYER
  5
6F
330
2
100
AcDbSymbolTableRecord
100
AcDbLayerTableRecord
  2
FORMAT
 70
     0
 62
     2
  6
Continuous
370
    -3
390
F
  0
LAYER
  5
70
330
2
100
AcDbSymbolTableRecord
100
AcDbLayerTableRecord
  2
외형선
 70
     0
 62
     4
  6
Continuous
370
    30
390
F
  0
LAYER
  5
71
330
2
100
AcDbSymbolTableRecord
100
AcDbLayerTableRecord
  2
숨은선
 70
     0
 62
     2
  6
HIDDEN
370
    15
390
F
  0
LAYER
  5
72
330
2
100
AcDbSymbolTableRecord
100
AcDbLayerTableRecord
  2
중심선
 70
     0
 62
     1
  6
CENTERX2
370
    -3
390
F
  0
LAYER
  5
73
330
2
100
AcDbSymbolTableRecord
100
AcDbLayerTableRecord
  2
파단선
 70
     0
 62
     4
  6
Continuous
370
    -3
390
F
  0
LAYER
  5
74
330
2
100
AcDbSymbolTableRecord
100
AcDbLayerTableRecord
  2
해칭선
 70
     0
 62
   100
  6
Continuous
370
    -3
390
F
  0
LAYER
  5
75
330
2
100
AcDbSymbolTableRecord
100
AcDbLayerTableRecord
  2
가는실선
 70
     0
 62
     4
  6
Continuous
370
    -3
390
F
  0
LAYER
  5
76
330
2
100
AcDbSymbolTableRecord
100
AcDbLayerTableRecord
  2
치수_보조선
 70
     0
 62
     4
  6
Continuous
370
    -3
390
F
  0
LAYER
  5
77
330
2
100
AcDbSymbolTableRecord
100
AcDbLayerTableRecord
  2
치수문자_일반주서
 70
     0
 62
     7
  6
Continuous
370
    15
390
F
  0
LAYER
  5
78
330
2
100
AcDbSymbolTableRecord
100
AcDbLayerTableRecord
  2
개별주서
 70
     0
 62
   100
  6
Continuous
370
    30
390
F
  0
LAYER
  5
79
330
2
100
AcDbSymbolTableRecord
100
AcDbLayerTableRecord
  2
중간선
 70
     0
 62
     2
  6
Continuous
370
    15
390
F
  0
LAYER
  5
7A
330
2
100
AcDbSymbolTableRecord
100
AcDbLayerTableRecord
  2
윤곽선
 70
     0
 62
     3
  6
Continuous
370
    40
390
F
  0
LAYER
  5
7B
330
2
100
AcDbSymbolTableRecord
100
AcDbLayerTableRecord
  2
중심마크
 70
     0
 62
   100
  6
Continuous
370
    30
390
F
  0
LAYER
  5
7C
330
2
100
AcDbSymbolTableRecord
100
AcDbLayerTableRecord
  2
가상선
 70
     0
 62
     4
  6
PHANTOM
370
    -3
390
F
  0
LAYER
  5
7D
330
2
100
AcDbSymbolTableRecord
100
AcDbLayerTableRecord
  2
특수지정선
 70
     0
 62
     5
  6
CENTERX2
370
    60
390
F
  0
LAYER
  5
7E
330
2
100
AcDbSymbolTableRecord
100
AcDbLayerTableRecord
  2
참조1
 70
     0
 62
    -4
  6
Continuous
370
    -3
390
F
  0
LAYER
  5
159
330
2
100
AcDbSymbolTableRecord
100
AcDbLayerTableRecord
  2
Defpoints
 70
     0
 62
     7
  6
Continuous
290
     0
370
    -3
390
F
  0
ENDTAB
  0
TABLE
  2
STYLE
  5
3
330
0
100
AcDbSymbolTable
 70
     2
  0
STYLE
  5
11
330
3
100
AcDbSymbolTableRecord
100
AcDbTextStyleTableRecord
  2
Standard
 70
     0
 40
0.0
 41
1.0
 50
0.0
 71
     0
 42
3.5
  3
txt
  4

  0
STYLE
  5
94
330
3
100
AcDbSymbolTableRecord
100
AcDbTextStyleTableRecord
  2
SLDTEXTSTYLE0
 70
     0
 40
0.0
 41
0.75
 50
0.0
 71
     0
 42
3.5
  3
TXT
  4

  0
ENDTAB
  0
TABLE
  2
VIEW
  5
6
330
0
100
AcDbSymbolTable
 70
     0
  0
ENDTAB
  0
TABLE
  2
UCS
  5
7
330
0
100
AcDbSymbolTable
 70
     0
  0
ENDTAB
  0
TABLE
  2
APPID
  5
9
330
0
100
AcDbSymbolTable
 70
     3
  0
APPID
  5
12
330
9
100
AcDbSymbolTableRecord
100
AcDbRegAppTableRecord
  2
ACAD
 70
     0
  0
APPID
  5
797
330
9
100
AcDbSymbolTableRecord
100
AcDbRegAppTableRecord
  2
ACAD_DSTYLE_DIMFLIPARROW_SYMBOL
 70
     0
  0
APPID
  5
798
330
9
100
AcDbSymbolTableRecord
100
AcDbRegAppTableRecord
  2
ACAD_DSTYLE_DIMFLIPARROW_WHICH_SYMBOL
 70
     0
  0
ENDTAB
  0
TABLE
  2
DIMSTYLE
  5
A
330
0
100
AcDbSymbolTable
 70
     4
100
AcDbDimStyleTable
  0
DIMSTYLE
105
27
330
A
100
AcDbSymbolTableRecord
100
AcDbDimStyleTableRecord
  2
ISO-25
 70
     0
 41
2.5
 42
0.625
 43
3.75
 44
1.25
 73
     0
 74
     0
 77
     1
 78
     8
140
2.5
141
2.5
143
0.03937007874016
147
0.625
171
     3
172
     1
178
     0
271
     2
272
     2
274
     3
278
    44
283
     0
284
     8
340
11
  0
DIMSTYLE
105
D8
102
{ACAD_REACTORS
330
437
330
451
330
757
330
759
102
}
330
A
100
AcDbSymbolTableRecord
100
AcDbDimStyleTableRecord
  2
SLDDIMSTYLE0
 70
     0
 41
3.302
 44
0.0
 45
0.000000001
 73
     0
 74
     0
 77
     1
 78
    12
 79
     3
140
3.5
143
0.0393700787401575
147
0.875
148
0.000000001
170
     1
173
     1
178
     0
271
     2
272
     2
276
     2
284
    12
340
94
  0
DIMSTYLE
105
EB
102
{ACAD_REACTORS
330
444
330
758
102
}
330
A
100
AcDbSymbolTableRecord
100
AcDbDimStyleTableRecord
  2
SLDDIMSTYLE1
 70
     0
 41
3.302
 44
0.0
 45
0.000000001
 73
     0
 74
     0
 77
     1
 78
    12
 79
     3
140
3.5
143
0.0393700787401575
147
0.875
148
0.000000001
170
     1
172
     1
173
     1
178
     0
271
     2
272
     2
276
     2
284
    12
289
     0
340
94
  0
DIMSTYLE
105
100
102
{ACAD_REACTORS
330
45E
330
75A
102
}
330
A
100
AcDbSymbolTableRecord
100
AcDbDimStyleTableRecord
  2
SLDDIMSTYLE2
 70
     0
 41
3.302
 44
0.0
 45
0.000000001
 73
     0
 74
     0
 77
     1
 78
     4
 79
     1
140
3.5
143
0.0393700787401575
147
0.875
148
0.000000001
170
     1
173
     1
178
     0
271
     2
272
     2
276
     2
284
    12
340
94
  0
ENDTAB
  0
TABLE
  2
BLOCK_RECORD
  5
1
330
0
100
AcDbSymbolTable
 70
    16
  0
BLOCK_RECORD
  5
1F
330
1
100
AcDbSymbolTableRecord
100
AcDbBlockTableRecord
  2
*Model_Space
340
22
  0
BLOCK_RECORD
  5
1B
330
1
100
AcDbSymbolTableRecord
100
AcDbBlockTableRecord
  2
*Paper_Space
340
1E
  0
BLOCK_RECORD
  5
23
330
1
100
AcDbSymbolTableRecord
100
AcDbBlockTableRecord
  2
*Paper_Space0
340
26
  0
BLOCK_RECORD
  5
7F
330
1
100
AcDbSymbolTableRecord
100
AcDbBlockTableRecord
  2
블럭10
340
0
102
{BLKREFS
331
CF
102
}
  0
BLOCK_RECORD
  5
D9
330
1
100
AcDbSymbolTableRecord
100
AcDbBlockTableRecord
  2
_D
340
0
  0
BLOCK_RECORD
  5
EC
330
1
100
AcDbSymbolTableRecord
100
AcDbBlockTableRecord
  2
_D_1
340
0
  0
BLOCK_RECORD
  5
101
330
1
100
AcDbSymbolTableRecord
100
AcDbBlockTableRecord
  2
_D_2
340
0
  0
BLOCK_RECORD
  5
115
330
1
100
AcDbSymbolTableRecord
100
AcDbBlockTableRecord
  2
_D_3
340
0
  0
BLOCK_RECORD
  5
12E
330
1
100
AcDbSymbolTableRecord
100
AcDbBlockTableRecord
  2
SW_DOWELSYMBOL_0
340
0
102
{BLKREFS
331
0
331
46B
331
75B
102
}
  0
BLOCK_RECORD
  5
474
330
1
100
AcDbSymbolTableRecord
100
AcDbBlockTableRecord
  2
*D8
340
0
  0
BLOCK_RECORD
  5
480
330
1
100
AcDbSymbolTableRecord
100
AcDbBlockTableRecord
  2
*D9
340
0
  0
BLOCK_RECORD
  5
48C
330
1
100
AcDbSymbolTableRecord
100
AcDbBlockTableRecord
  2
*D10
340
0
  0
BLOCK_RECORD
  5
498
330
1
100
AcDbSymbolTableRecord
100
AcDbBlockTableRecord
  2
*D11
340
0
  0
BLOCK_RECORD
  5
75C
330
1
100
AcDbSymbolTableRecord
100
AcDbBlockTableRecord
  2
*D12
340
0
  0
BLOCK_RECORD
  5
768
330
1
100
AcDbSymbolTableRecord
100
AcDbBlockTableRecord
  2
*D13
340
0
  0
BLOCK_RECORD
  5
774
330
1
100
AcDbSymbolTableRecord
100
AcDbBlockTableRecord
  2
*D14
340
0
  0
BLOCK_RECORD
  5
780
330
1
100
AcDbSymbolTableRecord
100
AcDbBlockTableRecord
  2
*D15
340
0
  0
ENDTAB
  0
ENDSEC
  0
SECTION
  2
BLOCKS
  0
BLOCK
  5
20
330
1F
100
AcDbEntity
  8
0
100
AcDbBlockBegin
  2
*Model_Space
 70
     0
 10
0.0
 20
0.0
 30
0.0
  3
*Model_Space
  1
*Model_Space
  0
ENDBLK
  5
21
330
1F
100
AcDbEntity
  8
0
100
AcDbBlockEnd
  0
BLOCK
  5
1C
330
1B
100
AcDbEntity
 67
     1
  8
0
100
AcDbBlockBegin
  2
*Paper_Space
 70
     0
 10
0.0
 20
0.0
 30
0.0
  3
*Paper_Space
  1
*Paper_Space
  0
ENDBLK
  5
1D
330
1B
100
AcDbEntity
 67
     1
  8
0
100
AcDbBlockEnd
  0
BLOCK
  5
24
330
23
100
AcDbEntity
  8
0
100
AcDbBlockBegin
  2
*Paper_Space0
 70
     0
 10
0.0
 20
0.0
 30
0.0
  3
*Paper_Space0
  1
*Paper_Space0
  0
ENDBLK
  5
25
330
23
100
AcDbEntity
  8
0
100
AcDbBlockEnd
  0
BLOCK
  5
80
330
7F
100
AcDbEntity
  8
0
100
AcDbBlockBegin
  2
블럭10
 70
     2
 10
0.0
 20
0.0
 30
0.0
  3
블럭10
  1
블럭10
  0
ELLIPSE
  5
82
330
7F
100
AcDbEntity
  8
중심선
100
AcDbEllipse
 10
20.54032771741204
 20
12.0471743016438
 30
0.0
 11
6.600054785286829
 21
-1.261213355974178E-13
 31
0.0
210
0.0
220
0.0
230
1.0
 40
0.636358354079598
 41
0.9219305317359503
 42
6.513795318482858
  0
ELLIPSE
  5
83
330
7F
100
AcDbEntity
  8
중심선
100
AcDbEllipse
 10
20.54032771746488
 20
12.04717430159265
 30
0.0
 11
3.960054785062283
 21
1.540847449632565E-10
 31
0.0
210
0.0
220
0.0
230
1.0
 40
0.3939339440162632
 41
1.131841032648279
 42
5.62031148352944
  0
LINE
  5
84
330
7F
100
AcDbEntity
  8
중심선
100
AcDbLine
 10
2.268634060543552
 20
16.24717430164393
 30
0.0
 11
5.714909304380834
 21
16.24717430164393
 31
0.0
  0
LINE
  5
85
330
7F
100
AcDbEntity
  8
중심선
100
AcDbLine
 10
5.245725140726316
 20
7.84717430164391
 30
0.0
 11
8.692000384563599
 21
7.84717430164391
 31
0.0
  0
LINE
  5
86
330
7F
100
AcDbEntity
  8
중심선
100
AcDbLine
 10
15.74043728645272
 20
16.24717430164393
 30
0.0
 11
8.692000384563599
 21
7.84717430164391
 31
0.0
  0
LINE
  5
87
330
7F
100
AcDbEntity
  8
중심선
100
AcDbLine
 10
0.1404042013395286
 20
13.71084872107135
 30
0.0
 11
3.58671253028996
 21
13.71088815037384
 31
0.0
  0
LINE
  5
88
330
7F
100
AcDbEntity
  8
중심선
100
AcDbLine
 10
2.750260043222114
 20
10.84717430164391
 30
0.0
 11
6.196535287059397
 21
10.84717430164391
 31
0.0
  0
LINE
  5
89
330
7F
100
AcDbEntity
  8
중심선
100
AcDbLine
 10
12.29416204261559
 20
16.24717430164393
 30
0.0
 11
5.245725140726316
 21
7.84717430164391
 31
0.0
  0
LINE
  5
8A
330
7F
100
AcDbEntity
  8
중심선
100
AcDbLine
 10
10.72767329541681
 20
16.24717430164393
 30
0.0
 11
6.196535287059397
 21
10.84717430164391
 31
0.0
  0
LINE
  5
8B
330
7F
100
AcDbEntity
  8
중심선
100
AcDbLine
 10
7.28139805157953
 20
16.24717430164393
 30
0.0
 11
2.750260043222114
 21
10.84717430164391
 31
0.0
  0
LINE
  5
8C
330
7F
100
AcDbEntity
  8
중심선
100
AcDbLine
 10
5.714909304380834
 20
16.24717430164393
 30
0.0
 11
3.58671253028996
 21
13.71088815037384
 31
0.0
  0
LINE
  5
8D
330
7F
100
AcDbEntity
  8
중심선
100
AcDbLine
 10
2.268634060543552
 20
16.24717430164393
 30
0.0
 11
0.1404042013395286
 21
13.71084872107135
 31
0.0
  0
LINE
  5
8E
330
7F
100
AcDbEntity
  8
중심선
100
AcDbLine
 10
7.28139805157953
 20
16.24717430164393
 30
0.0
 11
10.72767329541681
 21
16.24717430164393
 31
0.0
  0
LINE
  5
8F
330
7F
100
AcDbEntity
  8
중심선
100
AcDbLine
 10
12.29416204261559
 20
16.24717430164393
 30
0.0
 11
15.74043728645272
 21
16.24717430164393
 31
0.0
  0
LINE
  5
90
330
7F
100
AcDbEntity
  8
중심선
100
AcDbLine
 10
19.22036997980202
 20
11.08717430171403
 30
0.0
 11
23.66174974927406
 21
11.08717430171406
 31
0.0
  0
LINE
  5
91
330
7F
100
AcDbEntity
  8
중심선
100
AcDbLine
 10
19.22039502424796
 20
13.00717430171391
 30
0.0
 11
19.22036997980202
 21
11.08717430171403
 31
0.0
  0
LINE
  5
92
330
7F
100
AcDbEntity
  8
중심선
100
AcDbLine
 10
19.22039502424796
 20
13.00717430171391
 30
0.0
 11
26.96566020931264
 21
13.00717430171391
 31
0.0
  0
LINE
  5
93
330
7F
100
AcDbEntity
  8
중심선
100
AcDbLine
 10
22.22332737316547
 20
13.45928029700563
 30
0.0
 11
24.52862924686651
 21
15.39360700705356
 31
0.0
  0
ATTDEF
  5
95
330
7F
100
AcDbEntity
  8
FORMAT
 62
     2
100
AcDbText
 10
-10.14163601213663
 20
2.075366912832191
 30
0.0
 40
4.233333333333333
  1
EM666048 [ 4 FLUTE ]
 41
0.75
  7
SLDTEXTSTYLE0
 11
-10.14163601213663
 21
-0.0412997538344756
 31
0.0
100
AcDbAttributeDefinition
  3

  2
AUTOATTR0
 70
     0
 74
     1
  0
ENDBLK
  5
81
330
7F
100
AcDbEntity
  8
0
100
AcDbBlockEnd
  0
BLOCK
  5
DA
330
D9
100
AcDbEntity
  8
0
100
AcDbBlockBegin
  2
_D
 70
     0
 10
0.0
 20
0.0
 30
0.0
  3
_D
  1
_D
  0
SOLID
  5
DC
330
D9
100
AcDbEntity
  8
치수문자_일반주서
100
AcDbTrace
 10
41.7700882229469
 20
9.841870580932763
 30
0.0
 11
41.26208822294689
 21
6.539870580932764
 31
0.0
 12
42.2780882229469
 22
6.539870580932764
 32
0.0
 13
42.2780882229469
 23
6.539870580932764
 33
0.0
  0
SOLID
  5
DD
330
D9
100
AcDbEntity
  8
치수문자_일반주서
100
AcDbTrace
 10
41.77008822294691
 20
-9.208129419067264
 30
0.0
 11
42.27808822294691
 21
-5.906129419067264
 31
0.0
 12
41.26208822294691
 22
-5.906129419067264
 32
0.0
 13
41.26208822294691
 23
-5.906129419067264
 33
0.0
  0
LINE
  5
DE
330
D9
100
AcDbEntity
  8
치수문자_일반주서
100
AcDbLine
 10
30.97720650690419
 20
12.94234009084041
 30
0.0
 11
30.97720650690419
 21
12.23140260527591
 31
0.0
  0
LINE
  5
DF
330
D9
100
AcDbEntity
  8
치수문자_일반주서
100
AcDbLine
 10
30.97720650690419
 20
12.23140260527591
 30
0.0
 11
36.5334564979635
 21
12.23140260527595
 31
0.0
  0
LINE
  5
E0
330
D9
100
AcDbEntity
  8
치수문자_일반주서
100
AcDbLine
 10
36.5334564979635
 20
12.23140260527595
 30
0.0
 11
36.53345649796349
 21
12.94234009084045
 31
0.0
  0
LINE
  5
E1
330
D9
100
AcDbEntity
  8
치수문자_일반주서
100
AcDbLine
 10
30.97720650690411
 20
23.77107295297766
 30
0.0
 11
30.9772065069041
 21
24.48201043854217
 31
0.0
  0
LINE
  5
E2
330
D9
100
AcDbEntity
  8
치수문자_일반주서
100
AcDbLine
 10
30.9772065069041
 20
24.48201043854217
 30
0.0
 11
36.53345649796341
 21
24.4820104385422
 31
0.0
  0
LINE
  5
E3
330
D9
100
AcDbEntity
  8
치수문자_일반주서
100
AcDbLine
 10
36.53345649796341
 20
24.4820104385422
 30
0.0
 11
36.53345649796341
 21
23.7710729529777
 31
0.0
  0
LINE
  5
E4
330
D9
100
AcDbEntity
  8
치수문자_일반주서
100
AcDbLine
 10
6.450078177200085
 20
9.84187058093275
 30
0.0
 11
42.7700882229469
 21
9.841870580932763
 31
0.0
  0
LINE
  5
E5
330
D9
100
AcDbEntity
  8
치수문자_일반주서
100
AcDbLine
 10
41.7700882229469
 20
9.841870580932763
 30
0.0
 11
41.77008822294688
 21
26.81467546473015
 31
0.0
  0
LINE
  5
E6
330
D9
100
AcDbEntity
  8
치수문자_일반주서
100
AcDbLine
 10
41.7700882229469
 20
9.841870580932763
 30
0.0
 11
41.77008822294691
 21
-9.208129419067264
 31
0.0
  0
MTEXT
  5
E7
330
D9
100
AcDbEntity
  8
치수문자_일반주서
100
AcDbMText
 10
32.02171958338459
 20
13.83101199145179
 30
0.0
 40
3.5
 41
0.0
 71
     1
 72
     1
  1
0.75
  7
SLDTEXTSTYLE0
 11
-7.044195017643634E-15
 21
1.0
 31
0.0
 73
     1
 44
1.0
  0
MTEXT
  5
E8
330
D9
100
AcDbEntity
  8
치수문자_일반주서
100
AcDbMText
 10
37.25835113374509
 20
9.898737579088053
 30
0.0
 40
3.5
 41
0.0
 71
     1
 72
     1
  1
%%c
  7
SLDTEXTSTYLE0
 11
-7.044195017643634E-15
 21
1.0
 31
0.0
 73
     1
 44
1.0
  0
MTEXT
  5
E9
330
D9
100
AcDbEntity
  8
치수문자_일반주서
100
AcDbMText
 10
37.25835113374506
 20
15.17717497746213
 30
0.0
 40
3.5
 41
0.0
 71
     1
 72
     1
  1
19.05
  7
SLDTEXTSTYLE0
 11
-7.044195017643634E-15
 21
1.0
 31
0.0
 73
     1
 44
1.0
  0
ENDBLK
  5
DB
330
D9
100
AcDbEntity
  8
0
100
AcDbBlockEnd
  0
BLOCK
  5
ED
330
EC
100
AcDbEntity
  8
0
100
AcDbBlockBegin
  2
_D_1
 70
     0
 10
0.0
 20
0.0
 30
0.0
  3
_D_1
  1
_D_1
  0
SOLID
  5
EF
330
EC
100
AcDbEntity
  8
치수문자_일반주서
100
AcDbTrace
 10
-69.66000000000001
 20
9.841870580932708
 30
0.0
 11
-69.15200000000002
 21
13.14387058093271
 31
0.0
 12
-70.168
 22
13.14387058093271
 32
0.0
 13
-70.168
 23
13.14387058093271
 33
0.0
  0
SOLID
  5
F0
330
EC
100
AcDbEntity
  8
치수문자_일반주서
100
AcDbTrace
 10
-69.66000000000001
 20
-9.208129419067275
 30
0.0
 11
-70.168
 21
-12.51012941906727
 31
0.0
 12
-69.15200000000002
 22
-12.51012941906727
 32
0.0
 13
-69.15200000000002
 23
-12.51012941906727
 33
0.0
  0
LINE
  5
F1
330
EC
100
AcDbEntity
  8
치수문자_일반주서
100
AcDbLine
 10
-80.4528817160427
 20
-6.623512371566909
 30
0.0
 11
-80.4528817160427
 21
-7.334449857131409
 31
0.0
  0
LINE
  5
F2
330
EC
100
AcDbEntity
  8
치수문자_일반주서
100
AcDbLine
 10
-80.4528817160427
 20
-7.334449857131409
 30
0.0
 11
-74.8966317249834
 21
-7.33444985713137
 31
0.0
  0
LINE
  5
F3
330
EC
100
AcDbEntity
  8
치수문자_일반주서
100
AcDbLine
 10
-74.8966317249834
 20
-7.33444985713137
 30
0.0
 11
-74.8966317249834
 21
-6.62351237156687
 31
0.0
  0
LINE
  5
F4
330
EC
100
AcDbEntity
  8
치수문자_일반주서
100
AcDbLine
 10
-80.45288171604278
 20
4.205220490570349
 30
0.0
 11
-80.45288171604278
 21
4.91615797613485
 31
0.0
  0
LINE
  5
F5
330
EC
100
AcDbEntity
  8
치수문자_일반주서
100
AcDbLine
 10
-80.45288171604278
 20
4.91615797613485
 30
0.0
 11
-74.89663172498348
 21
4.916157976134889
 31
0.0
  0
LINE
  5
F6
330
EC
100
AcDbEntity
  8
치수문자_일반주서
100
AcDbLine
 10
-74.89663172498348
 20
4.916157976134889
 30
0.0
 11
-74.89663172498348
 21
4.205220490570388
 31
0.0
  0
LINE
  5
F7
330
EC
100
AcDbEntity
  8
치수문자_일반주서
100
AcDbLine
 10
-59.84999999999997
 20
9.841870580932708
 30
0.0
 11
-70.66000000000001
 21
9.841870580932708
 31
0.0
  0
LINE
  5
F8
330
EC
100
AcDbEntity
  8
치수문자_일반주서
100
AcDbLine
 10
-59.84999999999997
 20
-9.208129419067275
 30
0.0
 11
-70.66000000000001
 21
-9.208129419067275
 31
0.0
  0
LINE
  5
F9
330
EC
100
AcDbEntity
  8
치수문자_일반주서
100
AcDbLine
 10
-69.66000000000001
 20
9.841870580932708
 30
0.0
 11
-69.66000000000001
 21
16.19187058093271
 31
0.0
  0
LINE
  5
FA
330
EC
100
AcDbEntity
  8
치수문자_일반주서
100
AcDbLine
 10
-69.66000000000001
 20
9.841870580932708
 30
0.0
 11
-69.66000000000001
 21
-9.208129419067275
 31
0.0
  0
LINE
  5
FB
330
EC
100
AcDbEntity
  8
치수문자_일반주서
100
AcDbLine
 10
-69.66000000000001
 20
-9.208129419067275
 30
0.0
 11
-69.66000000000001
 21
-15.55812941906727
 31
0.0
  0
MTEXT
  5
FC
330
EC
100
AcDbEntity
  8
치수문자_일반주서
100
AcDbMText
 10
-79.40836863956231
 20
-5.734840470955531
 30
0.0
 40
3.5
 41
0.0
 71
     1
 72
     1
  1
0.75
  7
SLDTEXTSTYLE0
 11
-7.044195017643634E-15
 21
1.0
 31
0.0
 73
     1
 44
1.0
  0
MTEXT
  5
FD
330
EC
100
AcDbEntity
  8
치수문자_일반주서
100
AcDbMText
 10
-74.17173708920181
 20
-9.667114883319263
 30
0.0
 40
3.5
 41
0.0
 71
     1
 72
     1
  1
%%c
  7
SLDTEXTSTYLE0
 11
-7.044195017643634E-15
 21
1.0
 31
0.0
 73
     1
 44
1.0
  0
MTEXT
  5
FE
330
EC
100
AcDbEntity
  8
치수문자_일반주서
100
AcDbMText
 10
-74.17173708920186
 20
-4.388677484945183
 30
0.0
 40
3.5
 41
0.0
 71
     1
 72
     1
  1
19.05
  7
SLDTEXTSTYLE0
 11
-7.044195017643634E-15
 21
1.0
 31
0.0
 73
     1
 44
1.0
  0
ENDBLK
  5
EE
330
EC
100
AcDbEntity
  8
0
100
AcDbBlockEnd
  0
BLOCK
  5
102
330
101
100
AcDbEntity
  8
0
100
AcDbBlockBegin
  2
_D_2
 70
     0
 10
0.0
 20
0.0
 30
0.0
  3
_D_2
  1
_D_2
  0
SOLID
  5
104
330
101
100
AcDbEntity
  8
치수문자_일반주서
100
AcDbTrace
 10
35.39999999999999
 20
26.85948120892021
 30
0.0
 11
32.09799999999999
 21
27.36748120892021
 31
0.0
 12
32.09799999999999
 22
26.35148120892021
 32
0.0
 13
32.09799999999999
 23
26.35148120892021
 33
0.0
  0
SOLID
  5
105
330
101
100
AcDbEntity
  8
치수문자_일반주서
100
AcDbTrace
 10
9.999999999999986
 20
26.8594812089202
 30
0.0
 11
13.30199999999999
 21
26.35148120892021
 31
0.0
 12
13.30199999999999
 22
27.3674812089202
 32
0.0
 13
13.30199999999999
 23
27.3674812089202
 33
0.0
  0
LINE
  5
106
330
101
100
AcDbEntity
  8
치수문자_일반주서
100
AcDbLine
 10
62.06759876325253
 20
37.65236292496301
 30
0.0
 11
61.35666127768803
 21
37.65236292496301
 31
0.0
  0
LINE
  5
107
330
101
100
AcDbEntity
  8
치수문자_일반주서
100
AcDbLine
 10
61.35666127768803
 20
37.65236292496301
 30
0.0
 11
61.35666127768808
 21
32.0961129339037
 31
0.0
  0
LINE
  5
108
330
101
100
AcDbEntity
  8
치수문자_일반주서
100
AcDbLine
 10
61.35666127768808
 20
32.0961129339037
 30
0.0
 11
62.06759876325258
 21
32.09611293390371
 31
0.0
  0
LINE
  5
109
330
101
100
AcDbEntity
  8
치수문자_일반주서
100
AcDbLine
 10
72.89633162538979
 20
37.65236292496309
 30
0.0
 11
73.60726911095429
 21
37.6523629249631
 31
0.0
  0
LINE
  5
10A
330
101
100
AcDbEntity
  8
치수문자_일반주서
100
AcDbLine
 10
73.60726911095429
 20
37.6523629249631
 30
0.0
 11
73.60726911095433
 21
32.0961129339038
 31
0.0
  0
LINE
  5
10B
330
101
100
AcDbEntity
  8
치수문자_일반주서
100
AcDbLine
 10
73.60726911095433
 20
32.0961129339038
 30
0.0
 11
72.89633162538983
 21
32.09611293390379
 31
0.0
  0
LINE
  5
10C
330
101
100
AcDbEntity
  8
치수문자_일반주서
100
AcDbLine
 10
35.4
 20
10.53176604629207
 30
0.0
 11
35.39999999999999
 21
27.85948120892021
 31
0.0
  0
LINE
  5
10D
330
101
100
AcDbEntity
  8
치수문자_일반주서
100
AcDbLine
 10
9.999999999999991
 20
10.17348570974655
 30
0.0
 11
9.999999999999986
 21
27.8594812089202
 31
0.0
  0
LINE
  5
10E
330
101
100
AcDbEntity
  8
치수문자_일반주서
100
AcDbLine
 10
35.39999999999999
 20
26.85948120892021
 30
0.0
 11
75.43352713794903
 21
26.85948120892022
 31
0.0
  0
LINE
  5
10F
330
101
100
AcDbEntity
  8
치수문자_일반주서
100
AcDbLine
 10
35.39999999999999
 20
26.85948120892021
 30
0.0
 11
9.999999999999986
 21
26.8594812089202
 31
0.0
  0
MTEXT
  5
110
330
101
100
AcDbEntity
  8
치수문자_일반주서
100
AcDbMText
 10
60.84290255220139
 20
31.42469047478197
 30
0.0
 40
3.5
 41
0.0
 71
     1
 72
     1
  1

  7
SLDTEXTSTYLE0
 73
     1
 44
1.0
  0
MTEXT
  5
111
330
101
100
AcDbEntity
  8
치수문자_일반주서
100
AcDbMText
 10
62.95627066386392
 20
36.60784984848261
 30
0.0
 40
3.5
 41
0.0
 71
     1
 72
     1
  1
1.00
  7
SLDTEXTSTYLE0
 73
     1
 44
1.0
  0
MTEXT
  5
112
330
101
100
AcDbEntity
  8
치수문자_일반주서
100
AcDbMText
 10
61.66321495068723
 20
31.37121829812213
 30
0.0
 40
3.5
 41
0.0
 71
     1
 72
     1
  1
25.40
  7
SLDTEXTSTYLE0
 73
     1
 44
1.0
  0
MTEXT
  5
113
330
101
100
AcDbEntity
  8
치수문자_일반주서
100
AcDbMText
 10
75.45297235609493
 20
31.42469047478207
 30
0.0
 40
3.5
 41
0.0
 71
     1
 72
     1
  1

  7
SLDTEXTSTYLE0
 73
     1
 44
1.0
  0
ENDBLK
  5
103
330
101
100
AcDbEntity
  8
0
100
AcDbBlockEnd
  0
BLOCK
  5
116
330
115
100
AcDbEntity
  8
0
100
AcDbBlockBegin
  2
_D_3
 70
     0
 10
0.0
 20
0.0
 30
0.0
  3
_D_3
  1
_D_3
  0
SOLID
  5
118
330
115
100
AcDbEntity
  8
치수문자_일반주서
100
AcDbTrace
 10
35.4
 20
43.52914620991607
 30
0.0
 11
32.098
 21
44.03714620991607
 31
0.0
 12
32.098
 22
43.02114620991607
 32
0.0
 13
32.098
 23
43.02114620991607
 33
0.0
  0
SOLID
  5
119
330
115
100
AcDbEntity
  8
치수문자_일반주서
100
AcDbTrace
 10
-59.85
 20
43.52914620991607
 30
0.0
 11
-56.548
 21
43.02114620991607
 31
0.0
 12
-56.548
 22
44.03714620991607
 32
0.0
 13
-56.548
 23
44.03714620991607
 33
0.0
  0
LINE
  5
11A
330
115
100
AcDbEntity
  8
치수문자_일반주서
100
AcDbLine
 10
-13.47493599327642
 20
54.32202792595881
 30
0.0
 11
-14.18587347884092
 21
54.32202792595881
 31
0.0
  0
LINE
  5
11B
330
115
100
AcDbEntity
  8
치수문자_일반주서
100
AcDbLine
 10
-14.18587347884092
 20
54.32202792595881
 30
0.0
 11
-14.18587347884096
 21
48.76577793489951
 31
0.0
  0
LINE
  5
11C
330
115
100
AcDbEntity
  8
치수문자_일반주서
100
AcDbLine
 10
-14.18587347884096
 20
48.76577793489951
 30
0.0
 11
-13.47493599327646
 21
48.7657779348995
 31
0.0
  0
LINE
  5
11D
330
115
100
AcDbEntity
  8
치수문자_일반주서
100
AcDbLine
 10
-2.646203131139159
 20
54.32202792595873
 30
0.0
 11
-1.935265645574658
 21
54.32202792595872
 31
0.0
  0
LINE
  5
11E
330
115
100
AcDbEntity
  8
치수문자_일반주서
100
AcDbLine
 10
-1.935265645574658
 20
54.32202792595872
 30
0.0
 11
-1.935265645574698
 21
48.76577793489942
 31
0.0
  0
LINE
  5
11F
330
115
100
AcDbEntity
  8
치수문자_일반주서
100
AcDbLine
 10
-1.935265645574698
 20
48.76577793489942
 30
0.0
 11
-2.646203131139198
 21
48.76577793489943
 31
0.0
  0
LINE
  5
120
330
115
100
AcDbEntity
  8
치수문자_일반주서
100
AcDbLine
 10
35.4
 20
10.53176604629207
 30
0.0
 11
35.4
 21
44.52914620991607
 31
0.0
  0
LINE
  5
121
330
115
100
AcDbEntity
  8
치수문자_일반주서
100
AcDbLine
 10
-59.85
 20
9.84187058093272
 30
0.0
 11
-59.85
 21
44.52914620991607
 31
0.0
  0
LINE
  5
122
330
115
100
AcDbEntity
  8
치수문자_일반주서
100
AcDbLine
 10
35.4
 20
43.52914620991607
 30
0.0
 11
-59.85
 21
43.52914620991607
 31
0.0
  0
MTEXT
  5
123
330
115
100
AcDbEntity
  8
치수문자_일반주서
100
AcDbMText
 10
-14.69963220432766
 20
48.09435547577779
 30
0.0
 40
3.5
 41
0.0
 71
     1
 72
     1
  1

  7
SLDTEXTSTYLE0
 73
     1
 44
1.0
  0
MTEXT
  5
124
330
115
100
AcDbEntity
  8
치수문자_일반주서
100
AcDbMText
 10
-12.58626409266505
 20
53.27751484947839
 30
0.0
 40
3.5
 41
0.0
 71
     1
 72
     1
  1
3.75
  7
SLDTEXTSTYLE0
 73
     1
 44
1.0
  0
MTEXT
  5
125
330
115
100
AcDbEntity
  8
치수문자_일반주서
100
AcDbMText
 10
-13.87931980584182
 20
48.04088329911793
 30
0.0
 40
3.5
 41
0.0
 71
     1
 72
     1
  1
95.25
  7
SLDTEXTSTYLE0
 73
     1
 44
1.0
  0
MTEXT
  5
126
330
115
100
AcDbEntity
  8
치수문자_일반주서
100
AcDbMText
 10
-0.0895624004340905
 20
48.09435547577769
 30
0.0
 40
3.5
 41
0.0
 71
     1
 72
     1
  1

  7
SLDTEXTSTYLE0
 73
     1
 44
1.0
  0
ENDBLK
  5
117
330
115
100
AcDbEntity
  8
0
100
AcDbBlockEnd
  0
BLOCK
  5
12F
330
12E
100
AcDbEntity
  8
0
100
AcDbBlockBegin
  2
SW_DOWELSYMBOL_0
 70
     0
 10
0.0
 20
0.0
 30
0.0
  3
SW_DOWELSYMBOL_0
  1
SW_DOWELSYMBOL_0
  0
CIRCLE
  5
131
330
12E
100
AcDbEntity
  8
해칭선
 62
     0
100
AcDbCircle
 10
0.0
 20
0.0
 30
0.0
 40
3.000000000000001
  0
HATCH
  5
132
330
12E
100
AcDbEntity
  8
0
  6
Continuous
 62
     0
370
     0
100
AcDbHatch
 10
0.0
 20
0.0
 30
0.0
210
0.0
220
0.0
230
1.0
  2
SOLID
 70
     1
 71
     0
 91
        1
 92
        0
 93
        3
 72
     2
 10
0.0000000000000087
 20
-0.0000000000000035
 40
3.000000000000001
 50
0.0
 51
90.0
 73
     1
 72
     1
 10
0.0000000000000087
 20
2.999999999999998
 11
0.0000000000000087
 21
-0.0000000000000036
 72
     1
 10
0.0000000000000087
 20
-0.0000000000000035
 11
3.00000000000001
 21
-0.0000000000000035
 97
        0
 75
     0
 76
     1
 98
        1
 10
0.0
 20
0.0
  0
HATCH
  5
133
330
12E
100
AcDbEntity
  8
0
  6
Continuous
 62
     0
370
     0
100
AcDbHatch
 10
0.0
 20
0.0
 30
0.0
210
0.0
220
0.0
230
1.0
  2
SOLID
 70
     1
 71
     0
 91
        1
 92
        0
 93
        3
 72
     2
 10
0.0000000000000087
 20
-0.0000000000000035
 40
3.000000000000001
 50
180.0
 51
270.0000000000008
 73
     1
 72
     1
 10
0.0000000000000087
 20
-3.000000000000005
 11
0.0000000000000087
 21
-0.0000000000000036
 72
     1
 10
0.0000000000000087
 20
-0.0000000000000035
 11
-2.999999999999993
 21
-0.0000000000000035
 97
        0
 75
     0
 76
     1
 98
        1
 10
0.0
 20
0.0
  0
ENDBLK
  5
130
330
12E
100
AcDbEntity
  8
0
100
AcDbBlockEnd
  0
BLOCK
  5
475
330
474
100
AcDbEntity
  8
0
100
AcDbBlockBegin
  2
*D8
 70
     1
 10
0.0
 20
0.0
 30
0.0
  3
*D8
  1
*D8
  0
LINE
  5
477
330
474
100
AcDbEntity
  8
치수문자_일반주서
 62
     0
370
    -2
100
AcDbLine
 10
74.57250000000008
 20
23.95726652143095
 30
0.0
 11
130.8148799701914
 21
23.95726652143116
 31
0.0
  0
LINE
  5
478
330
474
100
AcDbEntity
  8
치수문자_일반주서
 62
     0
370
    -2
100
AcDbLine
 10
112.986472688396
 20
4.907266521430939
 30
0.0
 11
130.8148799701914
 21
4.907266521431005
 31
0.0
  0
LINE
  5
479
330
474
100
AcDbEntity
  8
치수문자_일반주서
 62
     0
370
    -2
100
AcDbLine
 10
130.8148799701914
 20
20.65526652143116
 30
0.0
 11
130.8148799701914
 21
8.209266521431005
 31
0.0
  0
SOLID
  5
47A
330
474
100
AcDbEntity
  8
치수문자_일반주서
 62
     0
100
AcDbTrace
 10
131.3652133035247
 20
20.65526652143116
 30
0.0
 11
130.264546636858
 21
20.65526652143116
 31
0.0
 12
130.8148799701914
 22
23.95726652143116
 32
0.0
 13
130.8148799701914
 23
23.95726652143116
 33
0.0
  0
SOLID
  5
47B
330
474
100
AcDbEntity
  8
치수문자_일반주서
 62
     0
100
AcDbTrace
 10
130.2645466368581
 20
8.209266521431003
 30
0.0
 11
131.3652133035247
 21
8.209266521431006
 31
0.0
 12
130.8148799701914
 22
4.907266521431005
 32
0.0
 13
130.8148799701914
 23
4.907266521431005
 33
0.0
  0
MTEXT
  5
47C
330
474
100
AcDbEntity
  8
치수문자_일반주서
 62
     0
100
AcDbMText
 10
126.4398799701914
 20
15.61843330654922
 30
0.0
 40
3.5
 41
0.0
 71
     2
 72
     1
  1
\A1;%%c19.05 [3/4]
  7
SLDTEXTSTYLE0
 11
-2.983906501879661E-15
 21
1.0
 31
0.0
 73
     1
 44
1.0
  0
POINT
  5
47D
330
474
100
AcDbEntity
  8
Defpoints
 62
     0
100
AcDbPoint
 10
74.51000000000008
 20
23.95726652143095
 30
0.0
  0
POINT
  5
47E
330
474
100
AcDbEntity
  8
Defpoints
 62
     0
100
AcDbPoint
 10
112.923972688396
 20
4.907266521430939
 30
0.0
  0
POINT
  5
47F
330
474
100
AcDbEntity
  8
Defpoints
 62
     0
100
AcDbPoint
 10
130.8148799701914
 20
4.907266521431006
 30
0.0
  0
ENDBLK
  5
476
330
474
100
AcDbEntity
  8
0
100
AcDbBlockEnd
  0
BLOCK
  5
481
330
480
100
AcDbEntity
  8
0
100
AcDbBlockBegin
  2
*D9
 70
     1
 10
0.0
 20
0.0
 30
0.0
  3
*D9
  1
*D9
  0
LINE
  5
483
330
480
100
AcDbEntity
  8
치수문자_일반주서
 62
     0
370
    -2
100
AcDbLine
 10
15.12250000000007
 20
23.95726652143094
 30
0.0
 11
4.375000000000004
 21
23.9572665214309
 31
0.0
  0
LINE
  5
484
330
480
100
AcDbEntity
  8
치수문자_일반주서
 62
     0
370
    -2
100
AcDbLine
 10
15.12250000000007
 20
4.907266521430927
 30
0.0
 11
4.37500000000007
 21
4.907266521430888
 31
0.0
  0
LINE
  5
485
330
480
100
AcDbEntity
  8
치수문자_일반주서
 62
     0
370
    -2
100
AcDbLine
 10
4.375000000000015
 20
20.6552665214309
 30
0.0
 11
4.375000000000059
 21
8.209266521430887
 31
0.0
  0
SOLID
  5
486
330
480
100
AcDbEntity
  8
치수문자_일반주서
 62
     0
100
AcDbTrace
 10
4.925333333333349
 20
20.6552665214309
 30
0.0
 11
3.824666666666682
 21
20.6552665214309
 31
0.0
 12
4.375000000000004
 22
23.9572665214309
 32
0.0
 13
4.375000000000004
 23
23.9572665214309
 33
0.0
  0
SOLID
  5
487
330
480
100
AcDbEntity
  8
치수문자_일반주서
 62
     0
100
AcDbTrace
 10
3.824666666666726
 20
8.209266521430886
 30
0.0
 11
4.925333333333392
 21
8.209266521430889
 31
0.0
 12
4.37500000000007
 22
4.907266521430888
 32
0.0
 13
4.37500000000007
 23
4.907266521430888
 33
0.0
  0
MTEXT
  5
488
330
480
100
AcDbEntity
  8
치수문자_일반주서
 62
     0
100
AcDbMText
 10
0.0000000000000426
 20
12.90625
 30
0.0
 40
3.5
 41
0.0
 71
     2
 72
     1
  1
\A1;%%c19.05 [3/4]
  7
SLDTEXTSTYLE0
 11
-3.496765431890255E-15
 21
1.0
 31
0.0
 73
     1
 44
1.0
  0
POINT
  5
489
330
480
100
AcDbEntity
  8
Defpoints
 62
     0
100
AcDbPoint
 10
15.18500000000007
 20
23.95726652143094
 30
0.0
  0
POINT
  5
48A
330
480
100
AcDbEntity
  8
Defpoints
 62
     0
100
AcDbPoint
 10
15.18500000000007
 20
4.907266521430927
 30
0.0
  0
POINT
  5
48B
330
480
100
AcDbEntity
  8
Defpoints
 62
     0
100
AcDbPoint
 10
4.375000000000064
 20
4.907266521430887
 30
0.0
  0
ENDBLK
  5
482
330
480
100
AcDbEntity
  8
0
100
AcDbBlockEnd
  0
BLOCK
  5
48D
330
48C
100
AcDbEntity
  8
0
100
AcDbBlockBegin
  2
*D10
 70
     1
 10
0.0
 20
0.0
 30
0.0
  3
*D10
  1
*D10
  0
LINE
  5
48F
330
48C
100
AcDbEntity
  8
치수문자_일반주서
 62
     0
370
    -2
100
AcDbLine
 10
115.7850000000001
 20
23.35531382041309
 30
0.0
 11
115.7850000000001
 21
40.62052898304123
 31
0.0
  0
LINE
  5
490
330
48C
100
AcDbEntity
  8
치수문자_일반주서
 62
     0
370
    -2
100
AcDbLine
 10
74.51000000000005
 20
23.79657097707474
 30
0.0
 11
74.51000000000005
 21
40.62052898304123
 31
0.0
  0
LINE
  5
491
330
48C
100
AcDbEntity
  8
치수문자_일반주서
 62
     0
370
    -2
100
AcDbLine
 10
112.4830000000001
 20
40.62052898304123
 30
0.0
 11
77.81200000000004
 21
40.62052898304123
 31
0.0
  0
SOLID
  5
492
330
48C
100
AcDbEntity
  8
치수문자_일반주서
 62
     0
100
AcDbTrace
 10
112.4830000000001
 20
40.07019564970789
 30
0.0
 11
112.4830000000001
 21
41.17086231637456
 31
0.0
 12
115.7850000000001
 22
40.62052898304123
 32
0.0
 13
115.7850000000001
 23
40.62052898304123
 33
0.0
  0
SOLID
  5
493
330
48C
100
AcDbEntity
  8
치수문자_일반주서
 62
     0
100
AcDbTrace
 10
77.81200000000004
 20
41.17086231637456
 30
0.0
 11
77.81200000000004
 21
40.07019564970789
 31
0.0
 12
74.51000000000005
 22
40.62052898304123
 32
0.0
 13
74.51000000000005
 23
40.62052898304123
 33
0.0
  0
MTEXT
  5
494
330
48C
100
AcDbEntity
  8
치수문자_일반주서
 62
     0
100
AcDbMText
 10
95.14750000000004
 20
44.99552898304123
 30
0.0
 40
3.5
 41
0.0
 71
     2
 72
     1
  1
\A1;41.28 [1 5/8]
  7
SLDTEXTSTYLE0
 73
     1
 44
1.0
  0
POINT
  5
495
330
48C
100
AcDbEntity
  8
Defpoints
 62
     0
100
AcDbPoint
 10
115.7850000000001
 20
23.29281382041309
 30
0.0
  0
POINT
  5
496
330
48C
100
AcDbEntity
  8
Defpoints
 62
     0
100
AcDbPoint
 10
74.51000000000005
 20
23.73407097707474
 30
0.0
  0
POINT
  5
497
330
48C
100
AcDbEntity
  8
Defpoints
 62
     0
100
AcDbPoint
 10
74.51000000000005
 20
40.62052898304123
 30
0.0
  0
ENDBLK
  5
48E
330
48C
100
AcDbEntity
  8
0
100
AcDbBlockEnd
  0
BLOCK
  5
499
330
498
100
AcDbEntity
  8
0
100
AcDbBlockBegin
  2
*D11
 70
     1
 10
0.0
 20
0.0
 30
0.0
  3
*D11
  1
*D11
  0
LINE
  5
49B
330
498
100
AcDbEntity
  8
치수문자_일반주서
 62
     0
370
    -2
100
AcDbLine
 10
115.7850000000001
 20
23.35531382041309
 30
0.0
 11
115.7850000000001
 21
57.29019398403707
 31
0.0
  0
LINE
  5
49C
330
498
100
AcDbEntity
  8
치수문자_일반주서
 62
     0
370
    -2
100
AcDbLine
 10
14.18500000000006
 20
23.01976652143093
 30
0.0
 11
14.18500000000006
 21
57.29019398403707
 31
0.0
  0
LINE
  5
49D
330
498
100
AcDbEntity
  8
치수문자_일반주서
 62
     0
370
    -2
100
AcDbLine
 10
112.4830000000001
 20
57.29019398403707
 30
0.0
 11
17.48700000000006
 21
57.29019398403707
 31
0.0
  0
SOLID
  5
49E
330
498
100
AcDbEntity
  8
치수문자_일반주서
 62
     0
100
AcDbTrace
 10
112.4830000000001
 20
56.73986065070373
 30
0.0
 11
112.4830000000001
 21
57.8405273173704
 31
0.0
 12
115.7850000000001
 22
57.29019398403707
 32
0.0
 13
115.7850000000001
 23
57.29019398403707
 33
0.0
  0
SOLID
  5
49F
330
498
100
AcDbEntity
  8
치수문자_일반주서
 62
     0
100
AcDbTrace
 10
17.48700000000006
 20
57.8405273173704
 30
0.0
 11
17.48700000000006
 21
56.73986065070373
 31
0.0
 12
14.18500000000006
 22
57.29019398403707
 32
0.0
 13
14.18500000000006
 23
57.29019398403707
 33
0.0
  0
MTEXT
  5
4A0
330
498
100
AcDbEntity
  8
치수문자_일반주서
 62
     0
100
AcDbMText
 10
69.42705876111607
 20
61.66519398403707
 30
0.0
 40
3.5
 41
0.0
 71
     2
 72
     1
  1
\A1;101.60 [4]
  7
SLDTEXTSTYLE0
 73
     1
 44
1.0
  0
POINT
  5
4A1
330
498
100
AcDbEntity
  8
Defpoints
 62
     0
100
AcDbPoint
 10
115.7850000000001
 20
23.29281382041309
 30
0.0
  0
POINT
  5
4A2
330
498
100
AcDbEntity
  8
Defpoints
 62
     0
100
AcDbPoint
 10
14.18500000000006
 20
22.95726652143093
 30
0.0
  0
POINT
  5
4A3
330
498
100
AcDbEntity
  8
Defpoints
 62
     0
100
AcDbPoint
 10
14.18500000000006
 20
57.29019398403707
 30
0.0
  0
ENDBLK
  5
49A
330
498
100
AcDbEntity
  8
0
100
AcDbBlockEnd
  0
BLOCK
  5
75D
330
75C
100
AcDbEntity
  8
0
100
AcDbBlockBegin
  2
*D12
 70
     1
 10
0.0
 20
0.0
 30
0.0
  3
*D12
  1
*D12
  0
LINE
  5
75F
330
75C
100
AcDbEntity
  8
치수문자_일반주서
 62
     0
370
    -2
100
AcDbLine
 10
31.45115931889199
 20
9.515544075362161
 30
0.0
 11
53.42987960660297
 21
9.515544075362243
 31
0.0
  0
LINE
  5
760
330
75C
100
AcDbEntity
  8
치수문자_일반주서
 62
     0
370
    -2
100
AcDbLine
 10
35.60147232480764
 20
-9.524999999999995
 30
0.0
 11
53.42987960660304
 21
-9.52499999999993
 31
0.0
  0
LINE
  5
761
330
75C
100
AcDbEntity
  8
치수문자_일반주서
 62
     0
370
    -2
100
AcDbLine
 10
53.42987960660299
 20
6.213544075362243
 30
0.0
 11
53.42987960660302
 21
-6.22299999999993
 31
0.0
  0
SOLID
  5
762
330
75C
100
AcDbEntity
  8
치수문자_일반주서
 62
     0
100
AcDbTrace
 10
53.98021293993632
 20
6.213544075362245
 30
0.0
 11
52.87954627326965
 21
6.213544075362242
 31
0.0
 12
53.42987960660297
 22
9.515544075362243
 32
0.0
 13
53.42987960660297
 23
9.515544075362243
 33
0.0
  0
SOLID
  5
763
330
75C
100
AcDbEntity
  8
치수문자_일반주서
 62
     0
100
AcDbTrace
 10
52.87954627326969
 20
-6.222999999999931
 30
0.0
 11
53.98021293993636
 21
-6.222999999999928
 31
0.0
 12
53.42987960660304
 22
-9.52499999999993
 32
0.0
 13
53.42987960660304
 23
-9.52499999999993
 33
0.0
  0
MTEXT
  5
764
330
75C
100
AcDbEntity
  8
치수문자_일반주서
 62
     0
100
AcDbMText
 10
49.054879606603
 20
1.186166785118285
 30
0.0
 40
3.5
 41
0.0
 71
     2
 72
     1
  1
\A1;%%c19.04 [3/4]
  7
SLDTEXTSTYLE0
 11
-3.358561917416882E-15
 21
1.0
 31
0.0
 73
     1
 44
1.0
  0
POINT
  5
765
330
75C
100
AcDbEntity
  8
Defpoints
 62
     0
100
AcDbPoint
 10
31.38865931889199
 20
9.515544075362161
 30
0.0
  0
POINT
  5
766
330
75C
100
AcDbEntity
  8
Defpoints
 62
     0
100
AcDbPoint
 10
35.53897232480764
 20
-9.524999999999995
 30
0.0
  0
POINT
  5
767
330
75C
100
AcDbEntity
  8
Defpoints
 62
     0
100
AcDbPoint
 10
53.42987960660304
 20
-9.524999999999928
 30
0.0
  0
ENDBLK
  5
75E
330
75C
100
AcDbEntity
  8
0
100
AcDbBlockEnd
  0
BLOCK
  5
769
330
768
100
AcDbEntity
  8
0
100
AcDbBlockBegin
  2
*D13
 70
     1
 10
0.0
 20
0.0
 30
0.0
  3
*D13
  1
*D13
  0
LINE
  5
76B
330
768
100
AcDbEntity
  8
치수문자_일반주서
 62
     0
370
    -2
100
AcDbLine
 10
-55.85000169873237
 20
9.524999882280836
 30
0.0
 11
-66.59750169873244
 21
9.524999882280799
 31
0.0
  0
LINE
  5
76C
330
768
100
AcDbEntity
  8
치수문자_일반주서
 62
     0
370
    -2
100
AcDbLine
 10
-55.85000169873237
 20
-9.525000117719175
 30
0.0
 11
-66.59750169873237
 21
-9.525000117719213
 31
0.0
  0
LINE
  5
76D
330
768
100
AcDbEntity
  8
치수문자_일반주서
 62
     0
370
    -2
100
AcDbLine
 10
-66.59750169873243
 20
6.222999882280799
 30
0.0
 11
-66.59750169873239
 21
-6.223000117719213
 31
0.0
  0
SOLID
  5
76E
330
768
100
AcDbEntity
  8
치수문자_일반주서
 62
     0
100
AcDbTrace
 10
-66.0471683653991
 20
6.222999882280801
 30
0.0
 11
-67.14783503206576
 21
6.222999882280797
 31
0.0
 12
-66.59750169873244
 22
9.524999882280799
 32
0.0
 13
-66.59750169873244
 23
9.524999882280799
 33
0.0
  0
SOLID
  5
76F
330
768
100
AcDbEntity
  8
치수문자_일반주서
 62
     0
100
AcDbTrace
 10
-67.14783503206571
 20
-6.223000117719215
 30
0.0
 11
-66.04716836539906
 21
-6.223000117719211
 31
0.0
 12
-66.59750169873237
 22
-9.525000117719213
 32
0.0
 13
-66.59750169873237
 23
-9.525000117719213
 33
0.0
  0
MTEXT
  5
770
330
768
100
AcDbEntity
  8
치수문자_일반주서
 62
     0
100
AcDbMText
 10
-70.9725016987324
 20
-1.526016639150104
 30
0.0
 40
3.5
 41
0.0
 71
     2
 72
     1
  1
\A1;%%c19.05 [3/4]
  7
SLDTEXTSTYLE0
 11
-3.729883127349604E-15
 21
1.0
 31
0.0
 73
     1
 44
1.0
  0
POINT
  5
771
330
768
100
AcDbEntity
  8
Defpoints
 62
     0
100
AcDbPoint
 10
-55.78750169873237
 20
9.524999882280836
 30
0.0
  0
POINT
  5
772
330
768
100
AcDbEntity
  8
Defpoints
 62
     0
100
AcDbPoint
 10
-55.78750169873237
 20
-9.525000117719175
 30
0.0
  0
POINT
  5
773
330
768
100
AcDbEntity
  8
Defpoints
 62
     0
100
AcDbPoint
 10
-66.59750169873237
 20
-9.525000117719216
 30
0.0
  0
ENDBLK
  5
76A
330
768
100
AcDbEntity
  8
0
100
AcDbBlockEnd
  0
BLOCK
  5
775
330
774
100
AcDbEntity
  8
0
100
AcDbBlockBegin
  2
*D14
 70
     1
 10
0.0
 20
0.0
 30
0.0
  3
*D14
  1
*D14
  0
LINE
  5
777
330
774
100
AcDbEntity
  8
치수문자_일반주서
 62
     0
370
    -2
100
AcDbLine
 10
38.39999963641164
 20
8.923047298982153
 30
0.0
 11
38.39999963641164
 21
26.18826246161029
 31
0.0
  0
LINE
  5
778
330
774
100
AcDbEntity
  8
치수문자_일반주서
 62
     0
370
    -2
100
AcDbLine
 10
13.0
 20
9.587500000000002
 30
0.0
 11
13.0
 21
26.18826246161029
 31
0.0
  0
LINE
  5
779
330
774
100
AcDbEntity
  8
치수문자_일반주서
 62
     0
370
    -2
100
AcDbLine
 10
38.39999963641164
 20
26.18826246161029
 30
0.0
 11
13.0
 21
26.18826246161029
 31
0.0
  0
LINE
  5
77A
330
774
100
AcDbEntity
  8
치수문자_일반주서
 62
     0
370
    -2
100
AcDbLine
 10
41.70199963641164
 20
26.18826246161029
 30
0.0
 11
45.00399963641164
 21
26.18826246161029
 31
0.0
  0
LINE
  5
77B
330
774
100
AcDbEntity
  8
치수문자_일반주서
 62
     0
370
    -2
100
AcDbLine
 10
9.698
 20
26.18826246161029
 30
0.0
 11
6.396000000000001
 21
26.18826246161029
 31
0.0
  0
SOLID
  5
77C
330
774
100
AcDbEntity
  8
치수문자_일반주서
 62
     0
100
AcDbTrace
 10
41.70199963641164
 20
26.73859579494362
 30
0.0
 11
41.70199963641164
 21
25.63792912827696
 31
0.0
 12
38.39999963641164
 22
26.18826246161029
 32
0.0
 13
38.39999963641164
 23
26.18826246161029
 33
0.0
  0
SOLID
  5
77D
330
774
100
AcDbEntity
  8
치수문자_일반주서
 62
     0
100
AcDbTrace
 10
9.698
 20
25.63792912827696
 30
0.0
 11
9.698
 21
26.73859579494362
 31
0.0
 12
13.0
 22
26.18826246161029
 32
0.0
 13
13.0
 23
26.18826246161029
 33
0.0
  0
MTEXT
  5
77E
330
774
100
AcDbEntity
  8
치수문자_일반주서
 62
     0
100
AcDbMText
 10
25.69999981820582
 20
30.56326246161029
 30
0.0
 40
3.5
 41
0.0
 71
     2
 72
     1
  1
\A1;25.4 [1]
  7
SLDTEXTSTYLE0
 73
     1
 44
1.0
  0
POINT
  5
77F
330
774
100
AcDbEntity
  8
Defpoints
 62
     0
100
AcDbPoint
 10
38.39999963641164
 20
8.860547298982153
 30
0.0
  0
POINT
  5
794
330
774
100
AcDbEntity
  8
Defpoints
 62
     0
100
AcDbPoint
 10
13.0
 20
9.525000000000002
 30
0.0
  0
POINT
  5
795
330
774
100
AcDbEntity
  8
Defpoints
 62
     0
100
AcDbPoint
 10
13.0
 20
26.18826246161029
 30
0.0
  0
ENDBLK
  5
776
330
774
100
AcDbEntity
  8
0
100
AcDbBlockEnd
  0
BLOCK
  5
781
330
780
100
AcDbEntity
  8
0
100
AcDbBlockBegin
  2
*D15
 70
     1
 10
0.0
 20
0.0
 30
0.0
  3
*D15
  1
*D15
  0
LINE
  5
783
330
780
100
AcDbEntity
  8
치수문자_일반주서
 62
     0
370
    -2
100
AcDbLine
 10
38.39999963641164
 20
8.923047298982153
 30
0.0
 11
38.39999963641164
 21
42.85792746260613
 31
0.0
  0
LINE
  5
784
330
780
100
AcDbEntity
  8
치수문자_일반주서
 62
     0
370
    -2
100
AcDbLine
 10
-56.85
 20
8.587499953806399
 30
0.0
 11
-56.85
 21
42.85792746260613
 31
0.0
  0
LINE
  5
785
330
780
100
AcDbEntity
  8
치수문자_일반주서
 62
     0
370
    -2
100
AcDbLine
 10
35.09799963641164
 20
42.85792746260613
 30
0.0
 11
-53.548
 21
42.85792746260613
 31
0.0
  0
SOLID
  5
786
330
780
100
AcDbEntity
  8
치수문자_일반주서
 62
     0
100
AcDbTrace
 10
35.09799963641164
 20
42.30759412927279
 30
0.0
 11
35.09799963641164
 21
43.40826079593946
 31
0.0
 12
38.39999963641164
 22
42.85792746260613
 32
0.0
 13
38.39999963641164
 23
42.85792746260613
 33
0.0
  0
SOLID
  5
787
330
780
100
AcDbEntity
  8
치수문자_일반주서
 62
     0
100
AcDbTrace
 10
-53.548
 20
43.40826079593946
 30
0.0
 11
-53.548
 21
42.30759412927279
 31
0.0
 12
-56.85
 22
42.85792746260613
 32
0.0
 13
-56.85
 23
42.85792746260613
 33
0.0
  0
MTEXT
  5
788
330
780
100
AcDbEntity
  8
치수문자_일반주서
 62
     0
100
AcDbMText
 10
-7.957941602472324
 20
47.23292746260613
 30
0.0
 40
3.5
 41
0.0
 71
     2
 72
     1
  1
\A1;95.25 [3 3/4]
  7
SLDTEXTSTYLE0
 73
     1
 44
1.0
  0
POINT
  5
789
330
780
100
AcDbEntity
  8
Defpoints
 62
     0
100
AcDbPoint
 10
38.39999963641164
 20
8.860547298982153
 30
0.0
  0
POINT
  5
78A
330
780
100
AcDbEntity
  8
Defpoints
 62
     0
100
AcDbPoint
 10
-56.85
 20
8.524999953806399
 30
0.0
  0
POINT
  5
78B
330
780
100
AcDbEntity
  8
Defpoints
 62
     0
100
AcDbPoint
 10
-56.85
 20
42.85792746260613
 30
0.0
  0
ENDBLK
  5
782
330
780
100
AcDbEntity
  8
0
100
AcDbBlockEnd
  0
ENDSEC
  0
SECTION
  2
ENTITIES
  0
LINE
  5
CA
330
1F
100
AcDbEntity
  8
참조1
100
AcDbLine
 10
-25.10000036358831
 20
0.0000000000000001
 30
0.0
 11
-25.1000003635883
 21
-40.0
 31
0.0
  0
LINE
  5
CB
330
1F
100
AcDbEntity
  8
참조1
100
AcDbLine
 10
-32.60360801878479
 20
-9.20812941906726
 30
0.0
 11
35.53897232480768
 21
-9.20812941906726
 31
0.0
  0
LINE
  5
CC
330
1F
100
AcDbEntity
  8
참조1
100
AcDbLine
 10
35.53897232480768
 20
-9.20812941906726
 30
0.0
 11
35.53897232480768
 21
-6.610378025244109
 31
0.0
  0
LINE
  5
CD
330
1F
100
AcDbEntity
  8
참조1
100
AcDbLine
 10
-25.1000003635883
 20
-40.0
 30
0.0
 11
-37.07105017085401
 21
-40.0
 31
0.0
  0
INSERT
  5
CF
330
1F
100
AcDbEntity
  8
0
  6
Continuous
 62
     7
100
AcDbBlockReference
 66
     1
  2
블럭10
 10
-39.04027329571351
 20
-52.04717430164392
 30
0.0
  0
ATTRIB
  5
D0
330
CF
100
AcDbEntity
  8
FORMAT
 62
     2
100
AcDbText
 10
-49.18190930785014
 20
-49.97180738881173
 30
0.0
 40
4.233333333333333
  1
EM666048 [ 4 FLUTE ]
 41
0.75
  7
SLDTEXTSTYLE0
 11
-49.18190930785014
 21
-52.0884740554784
 31
0.0
100
AcDbAttribute
  2
AUTOATTR0
 70
     0
 74
     1
  0
SEQEND
  5
D1
330
CF
100
AcDbEntity
  8
0
  6
Continuous
 62
     7
  0
HATCH
  5
D2
330
1F
100
AcDbEntity
  8
중심선
100
AcDbHatch
 10
0.0
 20
0.0
 30
0.0
210
0.0
220
0.0
230
1.0
  2
SOLID
 70
     1
 71
     0
 91
        1
 92
        0
 93
        4
 72
     1
 10
-33.32536399133268
 20
-35.8
 11
-36.77163923516996
 21
-35.8
 72
     1
 10
-36.77163923516996
 20
-35.8
 11
-38.89986909437398
 21
-38.33632558057259
 72
     1
 10
-38.89986909437398
 20
-38.33632558057259
 11
-35.45356076542355
 21
-38.3362861512701
 72
     1
 10
-35.45356076542355
 20
-38.3362861512701
 11
-33.32536399133267
 21
-35.8
 97
        0
 75
     0
 76
     1
 98
        1
 10
-12.87500036358832
 20
0.0000000000000036
  0
HATCH
  5
D3
330
1F
100
AcDbEntity
  8
중심선
100
AcDbHatch
 10
0.0
 20
0.0
 30
0.0
210
0.0
220
0.0
230
1.0
  2
SOLID
 70
     1
 71
     0
 91
        1
 92
        0
 93
        4
 72
     1
 10
-28.3126000002967
 20
-35.80000000000003
 11
-31.75887524413395
 21
-35.79999999999997
 72
     1
 10
-31.75887524413395
 20
-35.79999999999997
 11
-36.29001325249139
 21
-41.20000000000002
 72
     1
 10
-36.29001325249139
 20
-41.20000000000002
 11
-32.84373800865411
 21
-41.20000000000002
 72
     1
 10
-32.84373800865411
 20
-41.20000000000002
 11
-28.3126000002967
 21
-35.80000000000003
 97
        0
 75
     0
 76
     1
 98
        1
 10
-12.87500036358832
 20
0.0000000000000036
  0
HATCH
  5
D4
330
1F
100
AcDbEntity
  8
중심선
100
AcDbHatch
 10
0.0
 20
0.0
 30
0.0
210
0.0
220
0.0
230
1.0
  2
SOLID
 70
     1
 71
     0
 91
        1
 92
        0
 93
        4
 72
     1
 10
-23.29983600926083
 20
-35.8
 11
-26.74611125309792
 21
-35.79999999999997
 72
     1
 10
-26.74611125309792
 20
-35.79999999999997
 11
-33.79454815498719
 21
-44.20000000000002
 72
     1
 10
-33.7945481549872
 20
-44.20000000000002
 11
-30.34827291114992
 21
-44.20000000000002
 72
     1
 10
-30.34827291114991
 20
-44.20000000000002
 11
-23.29983600926083
 21
-35.8
 97
        0
 75
     0
 76
     1
 98
        1
 10
-12.87500036358832
 20
0.0000000000000036
  0
HATCH
  5
D5
330
1F
100
AcDbEntity
  8
중심선
100
AcDbHatch
 10
0.0
 20
0.0
 30
0.0
210
0.0
220
0.0
230
1.0
  2
SOLID
 70
     1
 71
     0
 91
        1
 92
        0
 93
        6
 72
     3
 10
-18.49994557824863
 20
-40.00000000005127
 11
3.960054785062281
 21
1.540882976769353E-10
 40
0.393933944016263
 50
17.09539180608438
 51
320.0019657685083
 73
     0
 72
     1
 10
-16.81694592254806
 20
-38.58789400463833
 11
-14.511644048847
 21
-36.65356729459038
 72
     3
 10
-18.49994557830148
 20
-40.00000000000014
 11
6.600054785286831
 21
-1.278976924368180E-13
 40
0.6363583540795978
 50
39.99873849337403
 51
368.4976242363725
 73
     1
 72
     1
 10
-12.07461308640087
 20
-39.03999999993002
 11
-19.81987827146556
 21
-39.03999999993002
 72
     1
 10
-19.81987827146556
 20
-39.03999999993002
 11
-19.81990331591149
 21
-40.95999999992991
 72
     1
 10
-19.81990331591149
 20
-40.95999999992991
 11
-15.37852354643945
 21
-40.95999999992988
 97
        0
 75
     0
 76
     1
 98
        1
 10
-12.87500036358832
 20
0.0000000000000036
  0
LINE
  5
127
330
1F
100
AcDbEntity
  8
참조1
100
AcDbLine
 10
60.90129045880025
 20
7.440000000000006
 30
0.0
 11
60.90129045880025
 21
-7.439999999999999
 31
0.0
  0
LINE
  5
128
330
1F
100
AcDbEntity
  8
참조1
100
AcDbLine
 10
73.60129045880026
 20
5.440000000000006
 30
0.0
 11
60.90129045880025
 21
5.440000000000006
 31
0.0
  0
SOLID
  5
129
330
1F
100
AcDbEntity
  8
참조1
100
AcDbTrace
 10
60.90129045880025
 20
5.440000000000006
 30
0.0
 11
67.25129045880024
 21
4.424000000000006
 31
0.0
 12
67.25129045880024
 22
6.456000000000006
 32
0.0
 13
67.25129045880024
 23
6.456000000000006
 33
0.0
  0
LINE
  5
12A
330
1F
100
AcDbEntity
  8
참조1
100
AcDbLine
 10
73.60129045880026
 20
-5.439999999999999
 30
0.0
 11
60.90129045880025
 21
-5.439999999999999
 31
0.0
  0
SOLID
  5
12B
330
1F
100
AcDbEntity
  8
참조1
100
AcDbTrace
 10
60.90129045880025
 20
-5.439999999999999
 30
0.0
 11
67.25129045880024
 21
-6.455999999999999
 31
0.0
 12
67.25129045880024
 22
-4.423999999999999
 32
0.0
 13
67.25129045880024
 23
-4.423999999999999
 33
0.0
  0
MTEXT
  5
12C
330
1F
100
AcDbEntity
  8
참조1
100
AcDbMText
 10
70.5014052693628
 20
11.06571756601608
 30
0.0
 40
3.5
 41
0.0
 71
     1
 72
     1
  1
A
  7
SLDTEXTSTYLE0
 73
     1
 44
1.0
  0
MTEXT
  5
12D
330
1F
100
AcDbEntity
  8
참조1
100
AcDbMText
 10
70.5014052693628
 20
0.1857175660160771
 30
0.0
 40
3.5
 41
0.0
 71
     1
 72
     1
  1
A
  7
SLDTEXTSTYLE0
 73
     1
 44
1.0
  0
LINE
  5
4A5
330
1F
100
AcDbEntity
  8
외형선
  6
Continuous
370
    15
100
AcDbLine
 10
13.0
 20
9.587500000000002
 30
0.0
 11
-55.85000169873238
 21
9.525000117719172
 31
0.0
  0
LINE
  5
4A6
330
1F
100
AcDbEntity
  8
외형선
  6
Continuous
370
    15
100
AcDbLine
 10
-55.85000169873237
 20
-9.525000117719175
 30
0.0
 11
13.0
 21
-9.525000000000002
 31
0.0
  0
LINE
  5
4A7
330
1F
100
AcDbEntity
  8
외형선
  6
Continuous
370
    15
100
AcDbLine
 10
-55.85000169873237
 20
9.525000117719172
 30
0.0
 11
-56.85
 21
8.524999953806399
 31
0.0
  0
LINE
  5
4A8
330
1F
100
AcDbEntity
  8
외형선
  6
Continuous
370
    15
100
AcDbLine
 10
-56.85
 20
-8.524999953806402
 30
0.0
 11
-55.85000169873237
 21
-9.525000117719175
 31
0.0
  0
LINE
  5
4AA
330
1F
100
AcDbEntity
  8
외형선
  6
Continuous
 62
     1
370
    15
100
AcDbLine
 10
32.5558688879013
 20
-9.525000117719175
 30
0.0
 11
32.93964084386825
 21
-9.525000117719175
 31
0.0
  0
SPLINE
  5
4AC
330
1F
100
AcDbEntity
  8
외형선
  6
Continuous
 62
     1
370
    15
100
AcDbSpline
210
0.0
220
0.0
230
1.0
 70
     8
 71
     3
 72
     9
 73
     5
 74
     0
 42
0.000000001
 43
0.00000001
 40
0.0
 40
0.0
 40
0.0
 40
0.0
 40
0.5010162394038123
 40
1.0
 40
1.0
 40
1.0
 40
1.0
 10
32.93986063599586
 20
-9.525000117719175
 30
0.0
 10
32.96790701085992
 20
-9.522696078705064
 30
0.0
 10
33.02388598451036
 20
-9.518097347500554
 30
0.0
 10
33.0723714916925
 20
-9.4879162003789
 30
0.0
 10
33.09656497240066
 20
-9.47285629808903
 30
0.0
  0
SPLINE
  5
4AE
330
1F
100
AcDbEntity
  8
외형선
  6
Continuous
 62
     1
370
    15
100
AcDbSpline
210
0.0
220
0.0
230
1.0
 70
     8
 71
     3
 72
    11
 73
     7
 74
     0
 42
0.000000001
 43
0.00000001
 40
0.0
 40
0.0
 40
0.0
 40
0.0
 40
0.2438419732798286
 40
0.4999574188796519
 40
0.7560935124532813
 40
1.0
 40
1.0
 40
1.0
 40
1.0
 10
33.08787759542465
 20
-9.46974661201239
 30
0.0
 10
33.13267583606591
 20
-9.440052256891493
 30
0.0
 10
33.22452717921285
 20
-9.37916891945023
 30
0.0
 10
33.39272499601488
 20
-9.351266652832162
 30
0.0
 10
33.56092356983421
 20
-9.375602284062033
 30
0.0
 10
33.65274977790349
 20
-9.433871283804775
 30
0.0
 10
33.69753997921944
 20
-9.462293237447742
 30
0.0
  0
SPLINE
  5
4B1
330
1F
100
AcDbEntity
  8
외형선
  6
Continuous
 62
     1
370
    15
100
AcDbSpline
210
0.0
220
0.0
230
1.0
 70
     8
 71
     3
 72
     9
 73
     5
 74
     0
 42
0.000000001
 43
0.00000001
 40
0.0
 40
0.0
 40
0.0
 40
0.0
 40
0.499426935249401
 40
0.9999999999999999
 40
0.9999999999999999
 40
0.9999999999999999
 40
0.9999999999999999
 10
33.69895931482315
 20
-9.464080445468428
 30
0.0
 10
33.72316475268692
 20
-9.48024517387443
 30
0.0
 10
33.77163117721349
 20
-9.512611726947762
 30
0.0
 10
33.82886775609168
 20
-9.518601526620051
 30
0.0
 10
33.85751884579658
 20
-9.521599858999254
 30
0.0
  0
LINE
  5
4B2
330
1F
100
AcDbEntity
  8
외형선
  6
Continuous
 62
     1
370
    15
100
AcDbLine
 10
33.86515196561813
 20
-9.525000117719175
 30
0.0
 11
34.9384416282177
 21
-9.525000117719175
 31
0.0
  0
SPLINE
  5
4B4
330
1F
100
AcDbEntity
  8
외형선
  6
Continuous
 62
     1
370
    15
100
AcDbSpline
210
0.0
220
0.0
230
1.0
 70
     8
 71
     3
 72
     9
 73
     5
 74
     0
 42
0.000000001
 43
0.00000001
 40
0.0
 40
0.0
 40
0.0
 40
0.0
 40
0.5008534090894425
 40
0.9999999999999999
 40
0.9999999999999999
 40
0.9999999999999999
 40
0.9999999999999999
 10
34.93853476047516
 20
-9.52491443604231
 30
0.0
 10
34.96724469070502
 20
-9.522575022849747
 30
0.0
 10
35.02456671289521
 20
-9.517904168763284
 30
0.0
 10
35.07319693579372
 20
-9.486717056099037
 30
0.0
 10
35.09747054576874
 20
-9.471150115132335
 30
0.0
  0
SPLINE
  5
4B6
330
1F
100
AcDbEntity
  8
외형선
  6
Continuous
 62
     1
370
    15
100
AcDbSpline
210
0.0
220
0.0
230
1.0
 70
     8
 71
     3
 72
    11
 73
     7
 74
     0
 42
0.000000001
 43
0.00000001
 40
0.0
 40
0.0
 40
0.0
 40
0.0
 40
0.2447284105036772
 40
0.4998364401446816
 40
0.7550172298198826
 40
1.0
 40
1.0
 40
1.0
 40
1.0
 10
35.10016393065452
 20
-9.46994032710791
 30
0.0
 10
35.14451120054459
 20
-9.44117624157243
 30
0.0
 10
35.23508663257697
 20
-9.382428104858416
 30
0.0
 10
35.40295546922513
 20
-9.356094966708598
 30
0.0
 10
35.57082256998759
 20
-9.382472842109404
 30
0.0
 10
35.66131027747078
 20
-9.44120165214216
 30
0.0
 10
35.70563163757324
 20
-9.469967335462572
 30
0.0
  0
SPLINE
  5
4B9
330
1F
100
AcDbEntity
  8
외형선
  6
Continuous
 62
     1
370
    15
100
AcDbSpline
210
0.0
220
0.0
230
1.0
 70
     8
 71
     3
 72
     9
 73
     5
 74
     0
 42
0.000000001
 43
0.00000001
 40
0.0
 40
0.0
 40
0.0
 40
0.0
 40
0.5166181368086173
 40
1.0
 40
1.0
 40
1.0
 40
1.0
 10
35.70539694428444
 20
-9.469831362366678
 30
0.0
 10
35.73016062643534
 20
-9.485920361419522
 30
0.0
 10
35.77809483622493
 20
-9.517063284802415
 30
0.0
 10
35.83451056542807
 20
-9.521720023328898
 30
0.0
 10
35.86178090572357
 20
-9.523971006274225
 30
0.0
  0
LINE
  5
4BA
330
1F
100
AcDbEntity
  8
외형선
  6
Continuous
 62
     1
370
    15
100
AcDbLine
 10
35.86400490403175
 20
-9.525000117719175
 30
0.0
 11
36.93742495179176
 21
-9.525000117719175
 31
0.0
  0
SPLINE
  5
4BC
330
1F
100
AcDbEntity
  8
외형선
  6
Continuous
 62
     1
370
    15
100
AcDbSpline
210
0.0
220
0.0
230
1.0
 70
     8
 71
     3
 72
     9
 73
     5
 74
     0
 42
0.000000001
 43
0.00000001
 40
0.0
 40
0.0
 40
0.0
 40
0.0
 40
0.5014830733934419
 40
1.0
 40
1.0
 40
1.0
 40
1.0
 10
36.93993579745293
 20
-9.525000117719175
 30
0.0
 10
36.96954896828102
 20
-9.522396228061393
 30
0.0
 10
37.02860015544814
 20
-9.51720385010103
 30
0.0
 10
37.07913859217265
 20
-9.483472876382166
 30
0.0
 10
37.10433285832405
 20
-9.466657415032389
 30
0.0
  0
SPLINE
  5
4BE
330
1F
100
AcDbEntity
  8
외형선
  6
Continuous
 62
     1
370
    15
100
AcDbSpline
210
0.0
220
0.0
230
1.0
 70
     8
 71
     3
 72
    11
 73
     7
 74
     0
 42
0.000000001
 43
0.00000001
 40
0.0
 40
0.0
 40
0.0
 40
0.0
 40
0.2118579022914969
 40
0.4526681318340469
 40
0.7190211725035738
 40
1.0
 40
1.0
 40
1.0
 40
1.0
 10
37.10234727859497
 20
-9.468437172472479
 30
0.0
 10
37.13656670198016
 20
-9.44529533690889
 30
0.0
 10
37.20968194709805
 20
-9.395849121504718
 30
0.0
 10
37.36341926541643
 20
-9.3574992885231
 30
0.0
 10
37.54469929107844
 20
-9.370611804002388
 30
0.0
 10
37.64913524594592
 20
-9.434922466923904
 30
0.0
 10
37.70274859070778
 20
-9.46793705224991
 30
0.0
  0
SPLINE
  5
4C1
330
1F
100
AcDbEntity
  8
외형선
  6
Continuous
 62
     1
370
    15
100
AcDbSpline
210
0.0
220
0.0
230
1.0
 70
     8
 71
     3
 72
     9
 73
     5
 74
     0
 42
0.000000001
 43
0.00000001
 40
0.0
 40
0.0
 40
0.0
 40
0.0
 40
0.499523406934085
 40
0.9999999999999999
 40
0.9999999999999999
 40
0.9999999999999999
 40
0.9999999999999999
 10
37.70334091186523
 20
-9.468418546020986
 30
0.0
 10
37.72822494876467
 20
-9.48473512120574
 30
0.0
 10
37.77804050606195
 20
-9.517399406719202
 30
0.0
 10
37.8366305920571
 20
-9.522464937921153
 30
0.0
 10
37.86595355868339
 20
-9.525000117719175
 30
0.0
  0
LINE
  5
4C2
330
1F
100
AcDbEntity
  8
외형선
  6
Continuous
 62
     1
370
    15
100
AcDbLine
 10
37.85249035954475
 20
-9.522508829832079
 30
0.0
 11
38.4
 21
-8.975000120699407
 31
0.0
  0
LINE
  5
4C6
330
1F
100
AcDbEntity
  8
외형선
  6
Continuous
 62
     1
370
    15
100
AcDbLine
 10
37.84999814033508
 20
9.525000117719172
 30
0.0
 11
36.86352636814117
 21
9.525000117719172
 31
0.0
  0
LINE
  5
4C7
330
1F
100
AcDbEntity
  8
외형선
  6
Continuous
 62
     1
370
    15
100
AcDbLine
 10
38.4
 20
8.975000120699404
 30
0.0
 11
37.84999814033508
 21
9.525000117719172
 31
0.0
  0
SPLINE
  5
4C8
330
1F
100
AcDbEntity
  8
외형선
  6
Continuous
 62
     1
370
    15
100
AcDbSpline
210
0.0
220
0.0
230
1.0
 70
     8
 71
     3
 72
     9
 73
     5
 74
     0
 42
0.000000001
 43
0.00000001
 40
0.0
 40
0.0
 40
0.0
 40
0.0
 40
0.5004497624295988
 40
1.0
 40
1.0
 40
1.0
 40
1.0
 10
36.86635386347771
 20
9.524990804493426
 30
0.0
 10
36.83697377417464
 20
9.522499147017554
 30
0.0
 10
36.77826640430722
 20
9.517520310652896
 30
0.0
 10
36.72833452269381
 20
9.484801446571458
 30
0.0
 10
36.70339103937149
 20
9.468456730246542
 30
0.0
  0
SPLINE
  5
4CA
330
1F
100
AcDbEntity
  8
외형선
  6
Continuous
 62
     1
370
    15
100
AcDbSpline
210
0.0
220
0.0
230
1.0
 70
     8
 71
     3
 72
    11
 73
     7
 74
     0
 42
0.000000001
 43
0.00000001
 40
0.0
 40
0.0
 40
0.0
 40
0.0
 40
0.2167931813038279
 40
0.4585886881280366
 40
0.7228576571159571
 40
1.0
 40
1.0
 40
1.0
 40
1.0
 10
36.70213561654091
 20
9.467403404414652
 30
0.0
 10
36.66834801530094
 20
9.444612896243383
 30
0.0
 10
36.59687615611042
 20
9.396403496016054
 30
0.0
 10
36.44342195384078
 20
9.357581251494514
 30
0.0
 10
36.2621360721618
 20
9.37025575113181
 30
0.0
 10
36.15751344521967
 20
9.43425962994512
 30
0.0
 10
36.10395830273628
 20
9.467022493481634
 30
0.0
  0
SPLINE
  5
4CC
330
1F
100
AcDbEntity
  8
외형선
  6
Continuous
 62
     1
370
    15
100
AcDbSpline
210
0.0
220
0.0
230
1.0
 70
     8
 71
     3
 72
     9
 73
     5
 74
     0
 42
0.000000001
 43
0.00000001
 40
0.0
 40
0.0
 40
0.0
 40
0.0
 40
0.4989201952975992
 40
1.0
 40
1.0
 40
1.0
 40
1.0
 10
36.10236760377884
 20
9.468419477343557
 30
0.0
 10
36.0778334593024
 20
9.484521815839182
 30
0.0
 10
36.02865897266567
 20
9.51679619287862
 30
0.0
 10
35.97085678333379
 20
9.522127527787907
 30
0.0
 10
35.94189327359199
 20
9.524798952043055
 30
0.0
  0
LINE
  5
4CD
330
1F
100
AcDbEntity
  8
외형선
  6
Continuous
 62
     1
370
    15
100
AcDbLine
 10
35.93789976239204
 20
9.525000117719172
 30
0.0
 11
34.864554220438
 21
9.525000117719172
 31
0.0
  0
SPLINE
  5
4D0
330
1F
100
AcDbEntity
  8
외형선
  6
Continuous
 62
     1
370
    15
100
AcDbSpline
210
0.0
220
0.0
230
1.0
 70
     8
 71
     3
 72
     9
 73
     5
 74
     0
 42
0.000000001
 43
0.00000001
 40
0.0
 40
0.0
 40
0.0
 40
0.0
 40
0.5005815724856867
 40
1.0
 40
1.0
 40
1.0
 40
1.0
 10
34.86336957812309
 20
9.524682536721228
 30
0.0
 10
34.83455301259183
 20
9.522014096387258
 30
0.0
 10
34.77698683933433
 20
9.516683416073311
 30
0.0
 10
34.72817950228792
 20
9.484729140175451
 30
0.0
 10
34.70380421876907
 20
9.468770585954188
 30
0.0
  0
SPLINE
  5
4D2
330
1F
100
AcDbEntity
  8
외형선
  6
Continuous
 62
     1
370
    15
100
AcDbSpline
210
0.0
220
0.0
230
1.0
 70
     8
 71
     3
 72
    11
 73
     7
 74
     0
 42
0.000000001
 43
0.00000001
 40
0.0
 40
0.0
 40
0.0
 40
0.0
 40
0.244245524659806
 40
0.5000702924686851
 40
0.7558652020830724
 40
1.0
 40
1.0
 40
1.0
 40
1.0
 10
34.70279093980789
 20
9.467972442507742
 30
0.0
 10
34.65815669093538
 20
9.439307128911528
 30
0.0
 10
34.56677216334216
 20
9.380617530509545
 30
0.0
 10
34.39869534483338
 20
9.35528599547746
 30
0.0
 10
34.23061721999502
 20
9.382374160035829
 30
0.0
 10
34.13918855512988
 20
9.442365396073603
 30
0.0
 10
34.09454044103622
 20
9.471661411225794
 30
0.0
  0
SPLINE
  5
4D4
330
1F
100
AcDbEntity
  8
외형선
  6
Continuous
 62
     1
370
    15
100
AcDbSpline
210
0.0
220
0.0
230
1.0
 70
     8
 71
     3
 72
     9
 73
     5
 74
     0
 42
0.000000001
 43
0.00000001
 40
0.0
 40
0.0
 40
0.0
 40
0.0
 40
0.4992762468750294
 40
1.0
 40
1.0
 40
1.0
 40
1.0
 10
34.0912137567997
 20
9.471235796809195
 30
0.0
 10
34.06706790271735
 20
9.486389213817757
 30
0.0
 10
34.0187061906723
 20
9.516739980759722
 30
0.0
 10
33.96161411384085
 20
9.520745376775638
 30
0.0
 10
33.93302675485611
 20
9.522750973701475
 30
0.0
  0
LINE
  5
4D5
330
1F
100
AcDbEntity
  8
외형선
  6
Continuous
 62
     1
370
    15
100
AcDbLine
 10
33.93904309868812
 20
9.525000117719172
 30
0.0
 11
32.86575343608856
 21
9.525000117719172
 31
0.0
  0
SPLINE
  5
4D8
330
1F
100
AcDbEntity
  8
외형선
  6
Continuous
 62
     1
370
    15
100
AcDbSpline
210
0.0
220
0.0
230
1.0
 70
     8
 71
     3
 72
     9
 73
     5
 74
     0
 42
0.000000001
 43
0.00000001
 40
0.0
 40
0.0
 40
0.0
 40
0.0
 40
0.5004746184935012
 40
1.0
 40
1.0
 40
1.0
 40
1.0
 10
32.86592852473259
 20
9.525000117719172
 30
0.0
 10
32.83661078629367
 20
9.522462493452442
 30
0.0
 10
32.77803091559579
 20
9.517392057963887
 30
0.0
 10
32.72822251517098
 20
9.484733337261792
 30
0.0
 10
32.70334195494652
 20
9.468419477343557
 30
0.0
  0
LINE
  5
4DA
330
1F
100
AcDbEntity
  8
외형선
  6
Continuous
 62
     1
370
    15
100
AcDbLine
 10
32.70334195494652
 20
9.468419477343557
 30
0.0
 11
32.52183463573456
 21
9.384485892951487
 31
0.0
  0
LINE
  5
4E3
330
1F
100
AcDbEntity
  8
외형선
  6
Continuous
370
    15
100
AcDbLine
 10
-55.85000169873237
 20
9.525000117719172
 30
0.0
 11
-55.85000169873237
 21
-9.525000117719175
 31
0.0
  0
LINE
  5
4E7
330
1F
100
AcDbEntity
  8
외형선
  6
Continuous
370
    15
100
AcDbLine
 10
-56.85
 20
8.524999953806399
 30
0.0
 11
-56.85
 21
-8.524999953806402
 31
0.0
  0
SPLINE
  5
4F1
330
1F
100
AcDbEntity
  8
외형선
  6
Continuous
 62
     1
370
    15
100
AcDbSpline
210
0.0
220
0.0
230
1.0
 70
     8
 71
     3
 72
     8
 73
     4
 74
     0
 42
0.000000001
 43
0.00000001
 40
0.0
 40
0.0
 40
0.0
 40
0.0
 40
1.0
 40
1.0
 40
1.0
 40
1.0
 10
37.42239152905707
 20
-1.760901827226895
 30
0.0
 10
37.36726026907851
 20
-1.741185150604077
 30
0.0
 10
37.31186160573511
 20
-1.720534852207605
 30
0.0
 10
37.26633867906556
 20
-1.703311055293922
 30
0.0
  0
SPLINE
  5
4F2
330
1F
100
AcDbEntity
  8
외형선
  6
Continuous
 62
     1
370
    15
100
AcDbSpline
210
0.0
220
0.0
230
1.0
 70
     8
 71
     3
 72
    10
 73
     6
 74
     0
 42
0.000000001
 43
0.00000001
 40
0.0
 40
0.0
 40
0.0
 40
0.0
 40
0.5000000000000001
 40
0.5000000000000001
 40
1.0
 40
1.0
 40
1.0
 40
1.0
 10
37.26633867906175
 20
-1.703311055187495
 30
0.0
 10
37.24069798544033
 20
-0.9865943741102878
 30
0.0
 10
37.21503761824135
 20
-0.2545427611070714
 30
0.0
 10
37.16565283644666
 20
1.182803573860872
 30
0.0
 10
37.14194185619996
 20
1.887670395455332
 30
0.0
 10
37.11996532043752
 20
2.554707874109367
 30
0.0
  0
SPLINE
  5
4F3
330
1F
100
AcDbEntity
  8
외형선
  6
Continuous
 62
     1
370
    15
100
AcDbSpline
210
0.0
220
0.0
230
1.0
 70
     8
 71
     3
 72
     8
 73
     4
 74
     0
 42
0.000000001
 43
0.00000001
 40
0.0
 40
0.0
 40
0.0
 40
0.0
 40
1.0
 40
1.0
 40
1.0
 40
1.0
 10
37.11996532035223
 20
2.554707876708802
 30
0.0
 10
37.16463351211856
 20
2.543359260125735
 30
0.0
 10
37.21959539987429
 20
2.526504015939418
 30
0.0
 10
37.27635926465236
 20
2.506579759154688
 30
0.0
  0
SPLINE
  5
4F4
330
1F
100
AcDbEntity
  8
외형선
  6
Continuous
 62
     1
370
    15
100
AcDbSpline
210
0.0
220
0.0
230
1.0
 70
     8
 71
     3
 72
    10
 73
     6
 74
     0
 42
0.000000001
 43
0.00000001
 40
0.0
 40
0.0
 40
0.0
 40
0.0
 40
0.5
 40
0.5
 40
1.0
 40
1.0
 40
1.0
 40
1.0
 10
37.42238605461247
 20
-1.760748081193737
 30
0.0
 10
37.39686037432977
 20
-1.043875767784822
 30
0.0
 10
37.37129214426457
 20
-0.3110724663338242
 30
0.0
 10
37.32202576616387
 20
1.129347469542266
 30
0.0
 10
37.29834097036635
 20
1.836538319263541
 30
0.0
 10
37.2763568475714
 20
2.506653436016633
 30
0.0
  0
SPLINE
  5
4F5
330
1F
100
AcDbEntity
  8
외형선
  6
Continuous
 62
     1
370
    15
100
AcDbSpline
210
0.0
220
0.0
230
1.0
 70
     8
 71
     3
 72
     8
 73
     4
 74
     0
 42
0.000000001
 43
0.00000001
 40
0.0
 40
0.0
 40
0.0
 40
0.0
 40
1.0
 40
1.0
 40
1.0
 40
1.0
 10
36.6410017267776
 20
-1.480370212754419
 30
0.0
 10
36.59625292780284
 20
-1.464551663169795
 30
0.0
 10
36.54122048132447
 20
-1.444991932868165
 30
0.0
 10
36.48438616502559
 20
-1.424559326705912
 30
0.0
  0
SPLINE
  5
4F6
330
1F
100
AcDbEntity
  8
외형선
  6
Continuous
 62
     1
370
    15
100
AcDbSpline
210
0.0
220
0.0
230
1.0
 70
     8
 71
     3
 72
    10
 73
     6
 74
     0
 42
0.000000001
 43
0.00000001
 40
0.0
 40
0.0
 40
0.0
 40
0.0
 40
0.5
 40
0.5
 40
1.0
 40
1.0
 40
1.0
 40
1.0
 10
36.48436660414395
 20
-1.424006493895067
 30
0.0
 10
36.45875193556346
 20
-0.7000768176241987
 30
0.0
 10
36.43325669429245
 20
0.0353251035973869
 30
0.0
 10
36.38443938903784
 20
1.47189890990626
 30
0.0
 10
36.36112959349813
 20
2.172668307052893
 30
0.0
 10
36.33962638934337
 20
2.832859938669683
 30
0.0
  0
SPLINE
  5
4F7
330
1F
100
AcDbEntity
  8
외형선
  6
Continuous
 62
     1
370
    15
100
AcDbSpline
210
0.0
220
0.0
230
1.0
 70
     8
 71
     3
 72
     8
 73
     4
 74
     0
 42
0.000000001
 43
0.00000001
 40
0.0
 40
0.0
 40
0.0
 40
0.0
 40
1.0
 40
1.0
 40
1.0
 40
1.0
 10
36.33960322183272
 20
2.833571233641655
 30
0.0
 10
36.39467550276915
 20
2.814453740850615
 30
0.0
 10
36.45000897022302
 20
2.792306372548895
 30
0.0
 10
36.49546431373562
 20
2.771426727134715
 30
0.0
  0
SPLINE
  5
4F8
330
1F
100
AcDbEntity
  8
외형선
  6
Continuous
 62
     1
370
    15
100
AcDbSpline
210
0.0
220
0.0
230
1.0
 70
     8
 71
     3
 72
    10
 73
     6
 74
     0
 42
0.000000001
 43
0.00000001
 40
0.0
 40
0.0
 40
0.0
 40
0.0
 40
0.5
 40
0.5
 40
1.0
 40
1.0
 40
1.0
 40
1.0
 10
36.6410017267577
 20
-1.480370212184502
 30
0.0
 10
36.61529570637568
 20
-0.7587988236447583
 30
0.0
 10
36.58967874283686
 20
-0.0248619675330986
 30
0.0
 10
36.54058540181173
 20
1.410195298014951
 30
0.0
 10
36.51712173371052
 20
2.110903170320411
 30
0.0
 10
36.49546438603485
 20
2.771424522100892
 30
0.0
  0
SPLINE
  5
4FD
330
1F
100
AcDbEntity
  8
외형선
  6
Continuous
 62
     1
370
    15
100
AcDbSpline
210
0.0
220
0.0
230
1.0
 70
     8
 71
     3
 72
    10
 73
     6
 74
     0
 42
0.000000001
 43
0.00000001
 40
0.0
 40
0.0
 40
0.0
 40
0.0
 40
0.5
 40
0.5
 40
1.0
 40
1.0
 40
1.0
 40
1.0
 10
37.26633867906556
 20
-1.703311055293922
 30
0.0
 10
37.1736805173883
 20
-1.668253437608017
 30
0.0
 10
37.0611727975536
 20
-1.628903460233399
 30
0.0
 10
36.83651819953385
 20
-1.549736207711771
 30
0.0
 10
36.72933827302446
 20
-1.511596884060598
 30
0.0
 10
36.64100172677799
 20
-1.480370212754375
 30
0.0
  0
SPLINE
  5
4FE
330
1F
100
AcDbEntity
  8
외형선
  6
Continuous
 62
     1
370
    15
100
AcDbSpline
210
0.0
220
0.0
230
1.0
 70
     8
 71
     3
 72
    10
 73
     6
 74
     0
 42
0.000000001
 43
0.00000001
 40
0.0
 40
0.0
 40
0.0
 40
0.0
 40
0.5
 40
0.5
 40
1.0
 40
1.0
 40
1.0
 40
1.0
 10
36.49546431373562
 20
2.771426727134711
 30
0.0
 10
36.58798541863717
 20
2.728927700301101
 30
0.0
 10
36.70035963518529
 20
2.686513501140476
 30
0.0
 10
36.92474801782495
 20
2.609837956611498
 30
0.0
 10
37.03178811922896
 20
2.577110602392009
 30
0.0
 10
37.11996532035189
 20
2.55470787670872
 30
0.0
  0
SPLINE
  5
507
330
1F
100
AcDbEntity
  8
외형선
  6
Continuous
 62
     1
370
    15
100
AcDbSpline
210
0.0
220
0.0
230
1.0
 70
     8
 71
     3
 72
     8
 73
     4
 74
     0
 42
0.000000001
 43
0.00000001
 40
0.0
 40
0.0
 40
0.0
 40
0.0
 40
1.0
 40
1.0
 40
1.0
 40
1.0
 10
35.39662460676961
 20
-1.032311184682085
 30
0.0
 10
35.3414932885137
 20
-1.012370663529166
 30
0.0
 10
35.2860966579665
 20
-0.9928948204265993
 30
0.0
 10
35.2405756678743
 20
-0.9782579156435531
 30
0.0
  0
SPLINE
  5
508
330
1F
100
AcDbEntity
  8
외형선
  6
Continuous
 62
     1
370
    15
100
AcDbSpline
210
0.0
220
0.0
230
1.0
 70
     8
 71
     3
 72
    10
 73
     6
 74
     0
 42
0.000000001
 43
0.00000001
 40
0.0
 40
0.0
 40
0.0
 40
0.0
 40
0.5
 40
0.5
 40
1.0
 40
1.0
 40
1.0
 40
1.0
 10
35.24057566786527
 20
-0.978257915388328
 30
0.0
 10
35.21477543357209
 20
-0.2472203355044105
 30
0.0
 10
35.18931154819798
 20
0.48936511197949
 30
0.0
 10
35.14097506205254
 20
1.916239987733524
 30
0.0
 10
35.11815754321938
 20
2.605726757914679
 30
0.0
 10
35.09720919426498
 20
3.250838535819645
 30
0.0
  0
SPLINE
  5
509
330
1F
100
AcDbEntity
  8
외형선
  6
Continuous
 62
     1
370
    15
100
AcDbSpline
210
0.0
220
0.0
230
1.0
 70
     8
 71
     3
 72
     8
 73
     4
 74
     0
 42
0.000000001
 43
0.00000001
 40
0.0
 40
0.0
 40
0.0
 40
0.0
 40
1.0
 40
1.0
 40
1.0
 40
1.0
 10
35.09720919426197
 20
3.250838535922339
 30
0.0
 10
35.14184733262763
 20
3.242534273495631
 30
0.0
 10
35.19678206390724
 20
3.227594679172912
 30
0.0
 10
35.2535219378781
 20
3.208152816942045
 30
0.0
  0
SPLINE
  5
50A
330
1F
100
AcDbEntity
  8
외형선
  6
Continuous
 62
     1
370
    15
100
AcDbSpline
210
0.0
220
0.0
230
1.0
 70
     8
 71
     3
 72
    10
 73
     6
 74
     0
 42
0.000000001
 43
0.00000001
 40
0.0
 40
0.0
 40
0.0
 40
0.0
 40
0.5
 40
0.5
 40
1.0
 40
1.0
 40
1.0
 40
1.0
 10
35.39662163353349
 20
-1.032226540953836
 30
0.0
 10
35.37092364228541
 20
-0.3006413726825681
 30
0.0
 10
35.34553565511893
 20
0.4371447432941125
 30
0.0
 10
35.29728276358596
 20
1.867991440567385
 30
0.0
 10
35.27442873114082
 20
2.56068083866842
 30
0.0
 10
35.25350055032489
 20
3.208815172624968
 30
0.0
  0
SPLINE
  5
50F
330
1F
100
AcDbEntity
  8
외형선
  6
Continuous
 62
     1
370
    15
100
AcDbSpline
210
0.0
220
0.0
230
1.0
 70
     8
 71
     3
 72
    17
 73
    13
 74
     0
 42
0.000000001
 43
0.00000001
 40
0.0
 40
0.0
 40
0.0
 40
0.0
 40
0.0000451207917106
 40
0.0000451207917106
 40
0.0000451207917106
 40
0.0000902371274598
 40
0.0000902371274598
 40
0.0000902371274598
 40
0.0001347538561577
 40
0.0001347538561577
 40
0.0001347538561577
 40
0.0001803525096868
 40
0.0001803525096868
 40
0.0001803525096868
 40
0.0001803525096868
 10
34.61525674260846
 20
-0.752783503147036
 30
0.0
 10
34.60412791906847
 20
-0.7481326263736161
 30
0.0
 10
34.59227981733226
 20
-0.743295076309634
 30
0.0
 10
34.57993457964866
 20
-0.7383519752075056
 30
0.0
 10
34.5675901228071
 20
-0.7334091867588288
 30
0.0
 10
34.55467565098169
 20
-0.7283315843190792
 30
0.0
 10
34.54142037787286
 20
-0.72320450940909
 30
0.0
 10
34.52834035698836
 20
-0.7181452212036632
 30
0.0
 10
34.51485312582829
 20
-0.7130085858181499
 30
0.0
 10
34.50118755306212
 20
-0.7078819287337463
 30
0.0
 10
34.48719260502141
 20
-0.7026317060942535
 30
0.0
 10
34.47292604644243
 20
-0.6973602447715965
 30
0.0
 10
34.45864706787628
 20
-0.6921687178984293
 30
0.0
  0
SPLINE
  5
510
330
1F
100
AcDbEntity
  8
외형선
  6
Continuous
 62
     1
370
    15
100
AcDbSpline
210
0.0
220
0.0
230
1.0
 70
     8
 71
     3
 72
    12
 73
     8
 74
     0
 42
0.000000001
 43
0.00000001
 40
0.0
 40
0.0
 40
0.0
 40
0.0
 40
0.5000000000000001
 40
0.5000000000000001
 40
0.75
 40
0.75
 40
1.0
 40
1.0
 40
1.0
 40
1.0
 10
34.45864571870415
 20
-0.692130067185559
 30
0.0
 10
34.43293960067862
 20
0.0442923658103975
 30
0.0
 10
34.40770959699406
 20
0.7822447525786345
 30
0.0
 10
34.37197364157824
 20
1.849009519467826
 30
0.0
 10
34.36040951657494
 20
2.197973085406639
 30
0.0
 10
34.33815140300251
 20
2.876893100454454
 30
0.0
 10
34.32776891162714
 20
3.203848403690804
 30
0.0
 10
34.31704026382382
 20
3.527180004230749
 30
0.0
  0
SPLINE
  5
511
330
1F
100
AcDbEntity
  8
외형선
  6
Continuous
 62
     1
370
    15
100
AcDbSpline
210
0.0
220
0.0
230
1.0
 70
     8
 71
     3
 72
     8
 73
     4
 74
     0
 42
0.000000001
 43
0.00000001
 40
0.0
 40
0.0
 40
0.0
 40
0.0
 40
1.0
 40
1.0
 40
1.0
 40
1.0
 10
34.31703892515062
 20
3.527220348119338
 30
0.0
 10
34.37210194014445
 20
3.508567012798979
 30
0.0
 10
34.42743085738569
 20
3.485514155555483
 30
0.0
 10
34.47288733849918
 20
3.462291966181835
 30
0.0
  0
SPLINE
  5
512
330
1F
100
AcDbEntity
  8
외형선
  6
Continuous
 62
     1
370
    15
100
AcDbSpline
210
0.0
220
0.0
230
1.0
 70
     8
 71
     3
 72
    12
 73
     8
 74
     0
 42
0.000000001
 43
0.00000001
 40
0.0
 40
0.0
 40
0.0
 40
0.0
 40
0.4999999999999998
 40
0.4999999999999998
 40
0.7499999999999999
 40
0.7499999999999999
 40
1.0
 40
1.0
 40
1.0
 40
1.0
 10
34.61525674260047
 20
-0.7527835029091214
 30
0.0
 10
34.58944761912252
 20
-0.0184287066053699
 30
0.0
 10
34.56408655717254
 20
0.7183542297371055
 30
0.0
 10
34.52813462126394
 20
1.784371417488527
 30
0.0
 10
34.5164953318704
 20
2.133250702557158
 30
0.0
 10
34.4940844931261
 20
2.812254374897742
 30
0.0
 10
34.48360438651493
 20
3.139572903076251
 30
0.0
 10
34.47288733849935
 20
3.462291966181718
 30
0.0
  0
SPLINE
  5
515
330
1F
100
AcDbEntity
  8
외형선
  6
Continuous
 62
     1
370
    15
100
AcDbSpline
210
0.0
220
0.0
230
1.0
 70
     8
 71
     3
 72
    10
 73
     6
 74
     0
 42
0.000000001
 43
0.00000001
 40
0.0
 40
0.0
 40
0.0
 40
0.0
 40
0.5
 40
0.5
 40
1.0
 40
1.0
 40
1.0
 40
1.0
 10
35.24057566787425
 20
-0.978257915643546
 30
0.0
 10
35.14790981375412
 20
-0.9484619625975217
 30
0.0
 10
35.03539229961469
 20
-0.9114571915924436
 30
0.0
 10
34.81074959147531
 20
-0.8311929795075876
 30
0.0
 10
34.70358279707792
 20
-0.7896960836854223
 30
0.0
 10
34.61525674260886
 20
-0.75278350314702
 30
0.0
  0
SPLINE
  5
516
330
1F
100
AcDbEntity
  8
외형선
  6
Continuous
 62
     1
370
    15
100
AcDbSpline
210
0.0
220
0.0
230
1.0
 70
     8
 71
     3
 72
    10
 73
     6
 74
     0
 42
0.000000001
 43
0.00000001
 40
0.0
 40
0.0
 40
0.0
 40
0.0
 40
0.5
 40
0.5
 40
1.0
 40
1.0
 40
1.0
 40
1.0
 10
34.47288733849935
 20
3.462291966181732
 30
0.0
 10
34.56538429027474
 20
3.415038380378393
 30
0.0
 10
34.67771287406227
 20
3.370793117775792
 30
0.0
 10
34.90204794570163
 20
3.296175085886508
 30
0.0
 10
35.00906446789374
 20
3.267236552642585
 30
0.0
 10
35.09720919426163
 20
3.25083853592224
 30
0.0
  0
SPLINE
  5
517
330
1F
100
AcDbEntity
  8
외형선
  6
Continuous
 62
     1
370
    15
100
AcDbSpline
210
0.0
220
0.0
230
1.0
 70
     8
 71
     3
 72
     8
 73
     4
 74
     0
 42
0.000000001
 43
0.00000001
 40
0.0
 40
0.0
 40
0.0
 40
0.0
 40
1.0
 40
1.0
 40
1.0
 40
1.0
 10
37.75560692296866
 20
-1.879958635520223
 30
0.0
 10
37.64445703728372
 20
-1.84028235474325
 30
0.0
 10
37.53324984417676
 20
-1.800548343155114
 30
0.0
 10
37.42199886173224
 20
-1.760761396857616
 30
0.0
  0
SPLINE
  5
518
330
1F
100
AcDbEntity
  8
외형선
  6
Continuous
 62
     1
370
    15
100
AcDbSpline
210
0.0
220
0.0
230
1.0
 70
     8
 71
     3
 72
    14
 73
    10
 74
     0
 42
0.000000001
 43
0.00000001
 40
0.0
 40
0.0
 40
0.0
 40
0.0
 40
0.066347254519168
 40
0.2327671517063692
 40
0.3953701768700115
 40
0.5636367013417352
 40
0.71235608181704
 40
0.8651615573826198
 40
1.0
 40
1.0
 40
1.0
 40
1.0
 10
37.75188144445419
 20
-1.882568350993099
 30
0.0
 10
37.75282750302889
 20
-1.881904951540301
 30
0.0
 10
37.75614657570755
 20
-1.879577536454468
 30
0.0
 10
37.64855346045263
 20
-1.954920016489863
 30
0.0
 10
37.41721868580773
 20
-2.116899629880503
 30
0.0
 10
37.07224858141173
 20
-2.358454023657762
 30
0.0
 10
36.63829571975426
 20
-2.662305778709714
 30
0.0
 10
36.16649213272452
 20
-2.992670699701007
 30
0.0
 10
35.81533570019379
 20
-3.238552311891926
 30
0.0
 10
35.65072458386421
 20
-3.353813895955684
 30
0.0
  0
SPLINE
  5
519
330
1F
100
AcDbEntity
  8
외형선
  6
Continuous
 62
     1
370
    15
100
AcDbSpline
210
0.0
220
0.0
230
1.0
 70
     8
 71
     3
 72
     8
 73
     4
 74
     0
 42
0.000000001
 43
0.00000001
 40
0.0
 40
0.0
 40
0.0
 40
0.0
 40
1.0
 40
1.0
 40
1.0
 40
1.0
 10
38.39999963641164
 20
-4.809926601612739
 30
0.0
 10
37.48308542740366
 20
-4.333473843149473
 30
0.0
 10
36.56666556157133
 20
-3.848001361294768
 30
0.0
 10
35.65072333173449
 20
-3.35381399315632
 30
0.0
  0
LINE
  5
51A
330
1F
100
AcDbEntity
  8
외형선
  6
Continuous
 62
     1
370
    15
100
AcDbLine
 10
38.4
 20
-8.728666231036188
 30
0.0
 11
38.4
 21
-4.809926729649307
 31
0.0
  0
SPLINE
  5
51B
330
1F
100
AcDbEntity
  8
외형선
  6
Continuous
 62
     1
370
    15
100
AcDbSpline
210
0.0
220
0.0
230
1.0
 70
     8
 71
     3
 72
     8
 73
     4
 74
     0
 42
0.000000001
 43
0.00000001
 40
0.0
 40
0.0
 40
0.0
 40
0.0
 40
1.0
 40
1.0
 40
1.0
 40
1.0
 10
37.84999963641166
 20
-9.242006032211817
 30
0.0
 10
38.03249968099001
 20
-9.07463621264163
 30
0.0
 10
38.21575979977461
 20
-8.903557135100117
 30
0.0
 10
38.39999963641164
 20
-8.728665898620694
 30
0.0
  0
SPLINE
  5
51C
330
1F
100
AcDbEntity
  8
외형선
  6
Continuous
 62
     1
370
    15
100
AcDbSpline
210
0.0
220
0.0
230
1.0
 70
     8
 71
     3
 72
     8
 73
     4
 74
     0
 42
0.000000001
 43
0.00000001
 40
0.0
 40
0.0
 40
0.0
 40
0.0
 40
1.0
 40
1.0
 40
1.0
 40
1.0
 10
37.84999963641391
 20
-9.24200603220982
 30
0.0
 10
37.82855554019809
 20
-9.24011644750057
 30
0.0
 10
37.80710916748935
 20
-9.238217475902026
 30
0.0
 10
37.78566061523232
 20
-9.236309124090475
 30
0.0
  0
SPLINE
  5
51D
330
1F
100
AcDbEntity
  8
외형선
  6
Continuous
 62
     1
370
    15
100
AcDbSpline
210
0.0
220
0.0
230
1.0
 70
     8
 71
     3
 72
     8
 73
     4
 74
     0
 42
0.000000001
 43
0.00000001
 40
0.0
 40
0.0
 40
0.0
 40
0.0
 40
1.0
 40
1.0
 40
1.0
 40
1.0
 10
37.6293367712048
 20
-9.168615892485246
 30
0.0
 10
37.67408443229274
 20
-9.20743251905815
 30
0.0
 10
37.72911402285987
 20
-9.231278192423966
 30
0.0
 10
37.78594426388175
 20
-9.23633436075773
 30
0.0
  0
SPLINE
  5
51E
330
1F
100
AcDbEntity
  8
외형선
  6
Continuous
 62
     1
370
    15
100
AcDbSpline
210
0.0
220
0.0
230
1.0
 70
     8
 71
     3
 72
    10
 73
     6
 74
     0
 42
0.000000001
 43
0.00000001
 40
0.0
 40
0.0
 40
0.0
 40
0.0
 40
0.5
 40
0.5
 40
1.0
 40
1.0
 40
1.0
 40
1.0
 10
37.00402440757713
 20
-9.109232282141651
 30
0.0
 10
37.09668457700345
 20
-9.04604015134117
 30
0.0
 10
37.20919778838191
 20
-9.020766160939145
 30
0.0
 10
37.43384124941419
 20
-9.044402283042373
 30
0.0
 10
37.54101058780295
 20
-9.09199681577074
 30
0.0
 10
37.62933677120289
 20
-9.168615892483599
 30
0.0
  0
SPLINE
  5
51F
330
1F
100
AcDbEntity
  8
외형선
  6
Continuous
 62
     1
370
    15
100
AcDbSpline
210
0.0
220
0.0
230
1.0
 70
     8
 71
     3
 72
     8
 73
     4
 74
     0
 42
0.000000001
 43
0.00000001
 40
0.0
 40
0.0
 40
0.0
 40
0.0
 40
1.0
 40
1.0
 40
1.0
 40
1.0
 10
36.8479765740528
 20
-9.147037375560053
 30
0.0
 10
36.90310798819578
 20
-9.15262920473885
 30
0.0
 10
36.95850462357793
 20
-9.140275740860723
 30
0.0
 10
37.00402440757713
 20
-9.109232282141653
 30
0.0
  0
SPLINE
  5
520
330
1F
100
AcDbEntity
  8
외형선
  6
Continuous
 62
     1
370
    15
100
AcDbSpline
210
0.0
220
0.0
230
1.0
 70
     8
 71
     3
 72
     8
 73
     4
 74
     0
 42
0.000000001
 43
0.00000001
 40
0.0
 40
0.0
 40
0.0
 40
0.0
 40
1.0
 40
1.0
 40
1.0
 40
1.0
 10
36.84792914098718
 20
-9.1470325645363
 30
0.0
 10
36.48596126042687
 20
-9.110318920625335
 30
0.0
 10
36.12377708656285
 20
-9.070976365360066
 30
0.0
 10
35.76184337268952
 20
-9.029055846008703
 30
0.0
  0
SPLINE
  5
521
330
1F
100
AcDbEntity
  8
외형선
  6
Continuous
 62
     1
370
    15
100
AcDbSpline
210
0.0
220
0.0
230
1.0
 70
     8
 71
     3
 72
     8
 73
     4
 74
     0
 42
0.000000001
 43
0.00000001
 40
0.0
 40
0.0
 40
0.0
 40
0.0
 40
1.0
 40
1.0
 40
1.0
 40
1.0
 10
35.6036008712609
 20
-8.95753835379943
 30
0.0
 10
35.64834988751178
 20
-8.997172168961276
 30
0.0
 10
35.70338220906788
 20
-9.022283411517733
 30
0.0
 10
35.7602169846697
 20
-9.028867454114827
 30
0.0
  0
SPLINE
  5
522
330
1F
100
AcDbEntity
  8
외형선
  6
Continuous
 62
     1
370
    15
100
AcDbSpline
210
0.0
220
0.0
230
1.0
 70
     8
 71
     3
 72
    10
 73
     6
 74
     0
 42
0.000000001
 43
0.00000001
 40
0.0
 40
0.0
 40
0.0
 40
0.0
 40
0.5
 40
0.5
 40
1.0
 40
1.0
 40
1.0
 40
1.0
 10
34.97825959323509
 20
-8.881449291535796
 30
0.0
 10
35.07091979123387
 20
-8.821655803628744
 30
0.0
 10
35.18342578331461
 20
-8.799710433918026
 30
0.0
 10
35.40808105137429
 20
-8.829245397342195
 30
0.0
 10
35.515261920985
 20
-8.879297312539459
 30
0.0
 10
35.60360087126084
 20
-8.957538353799412
 30
0.0
  0
SPLINE
  5
523
330
1F
100
AcDbEntity
  8
외형선
  6
Continuous
 62
     1
370
    15
100
AcDbSpline
210
0.0
220
0.0
230
1.0
 70
     8
 71
     3
 72
     8
 73
     4
 74
     0
 42
0.000000001
 43
0.00000001
 40
0.0
 40
0.0
 40
0.0
 40
0.0
 40
1.0
 40
1.0
 40
1.0
 40
1.0
 10
34.82220513802371
 20
-8.914362325767996
 30
0.0
 10
34.87733547665797
 20
-8.921435988395706
 30
0.0
 10
34.93273449985747
 20
-8.910826566559171
 30
0.0
 10
34.97825959323475
 20
-8.88144929153601
 30
0.0
  0
SPLINE
  5
524
330
1F
100
AcDbEntity
  8
외형선
  6
Continuous
 62
     1
370
    15
100
AcDbSpline
210
0.0
220
0.0
230
1.0
 70
     8
 71
     3
 72
     8
 73
     4
 74
     0
 42
0.000000001
 43
0.00000001
 40
0.0
 40
0.0
 40
0.0
 40
0.0
 40
1.0
 40
1.0
 40
1.0
 40
1.0
 10
34.82069620539033
 20
-8.914168702499062
 30
0.0
 10
34.45803605345483
 20
-8.867629220626764
 30
0.0
 10
34.09645879217802
 20
-8.818567822543494
 30
0.0
 10
33.73376970068446
 20
-8.766927753183797
 30
0.0
  0
SPLINE
  5
525
330
1F
100
AcDbEntity
  8
외형선
  6
Continuous
 62
     1
370
    15
100
AcDbSpline
210
0.0
220
0.0
230
1.0
 70
     8
 71
     3
 72
     8
 73
     4
 74
     0
 42
0.000000001
 43
0.00000001
 40
0.0
 40
0.0
 40
0.0
 40
0.0
 40
1.0
 40
1.0
 40
1.0
 40
1.0
 10
33.57779082053118
 20
-8.692461506337386
 30
0.0
 10
33.62254135441926
 20
-8.73268830734542
 30
0.0
 10
33.67757354907237
 20
-8.758926933488407
 30
0.0
 10
33.73440619271943
 20
-8.76701837508484
 30
0.0
  0
SPLINE
  5
526
330
1F
100
AcDbEntity
  8
외형선
  6
Continuous
 62
     1
370
    15
100
AcDbSpline
210
0.0
220
0.0
230
1.0
 70
     8
 71
     3
 72
    10
 73
     6
 74
     0
 42
0.000000001
 43
0.00000001
 40
0.0
 40
0.0
 40
0.0
 40
0.0
 40
0.5
 40
0.5
 40
1.0
 40
1.0
 40
1.0
 40
1.0
 10
32.95247017527119
 20
-8.600115090546291
 30
0.0
 10
33.04513172284285
 20
-8.544053585407044
 30
0.0
 10
33.1576473746295
 20
-8.525558738710874
 30
0.0
 10
33.3822924383306
 20
-8.560833337920727
 30
0.0
 10
33.48946231607427
 20
-8.613061935797878
 30
0.0
 10
33.57779082053118
 20
-8.692461506337384
 30
0.0
  0
SPLINE
  5
527
330
1F
100
AcDbEntity
  8
외형선
  6
Continuous
 62
     1
370
    15
100
AcDbSpline
210
0.0
220
0.0
230
1.0
 70
     8
 71
     3
 72
     8
 73
     4
 74
     0
 42
0.000000001
 43
0.00000001
 40
0.0
 40
0.0
 40
0.0
 40
0.0
 40
1.0
 40
1.0
 40
1.0
 40
1.0
 10
32.79642448909683
 20
-8.627983624680319
 30
0.0
 10
32.85155517904061
 20
-8.636477816602591
 30
0.0
 10
32.90695100689546
 20
-8.627654810728998
 30
0.0
 10
32.95247017527085
 20
-8.600115090546483
 30
0.0
  0
SPLINE
  5
528
330
1F
100
AcDbEntity
  8
외형선
  6
Continuous
 62
     1
370
    15
100
AcDbSpline
210
0.0
220
0.0
230
1.0
 70
     8
 71
     3
 72
     8
 73
     4
 74
     0
 42
0.000000001
 43
0.00000001
 40
0.0
 40
0.0
 40
0.0
 40
0.0
 40
1.0
 40
1.0
 40
1.0
 40
1.0
 10
32.79534625883289
 20
-8.627817490464222
 30
0.0
 10
32.43378477979939
 20
-8.572105504657282
 30
0.0
 10
32.07198252439655
 20
-8.513913695346597
 30
0.0
 10
31.71040477228379
 20
-8.453316787700608
 30
0.0
  0
SPLINE
  5
529
330
1F
100
AcDbEntity
  8
외형선
  6
Continuous
 62
     1
370
    15
100
AcDbSpline
210
0.0
220
0.0
230
1.0
 70
     8
 71
     3
 72
     8
 73
     4
 74
     0
 42
0.000000001
 43
0.00000001
 40
0.0
 40
0.0
 40
0.0
 40
0.0
 40
1.0
 40
1.0
 40
1.0
 40
1.0
 10
31.5521376196543
 20
-8.375758973278716
 30
0.0
 10
31.59687917130363
 20
-8.416319588383994
 30
0.0
 10
31.65190526065069
 20
-8.443511639900406
 30
0.0
 10
31.70873373276159
 20
-8.453036720379782
 30
0.0
  0
SPLINE
  5
52A
330
1F
100
AcDbEntity
  8
외형선
  6
Continuous
 62
     1
370
    15
100
AcDbSpline
210
0.0
220
0.0
230
1.0
 70
     8
 71
     3
 72
    10
 73
     6
 74
     0
 42
0.000000001
 43
0.00000001
 40
0.0
 40
0.0
 40
0.0
 40
0.0
 40
0.5
 40
0.5
 40
1.0
 40
1.0
 40
1.0
 40
1.0
 10
30.92688586966189
 20
-8.267744981336701
 30
0.0
 10
31.01953054471434
 20
-8.215779531228662
 30
0.0
 10
31.1320222946214
 20
-8.200848360582542
 30
0.0
 10
31.35664887639776
 20
-8.241621514256396
 30
0.0
 10
31.46381491660107
 20
-8.295689708098017
 30
0.0
 10
31.5521376196543
 20
-8.375758973278709
 30
0.0
  0
SPLINE
  5
52B
330
1F
100
AcDbEntity
  8
외형선
  6
Continuous
 62
     1
370
    15
100
AcDbSpline
210
0.0
220
0.0
230
1.0
 70
     8
 71
     3
 72
     8
 73
     4
 74
     0
 42
0.000000001
 43
0.00000001
 40
0.0
 40
0.0
 40
0.0
 40
0.0
 40
1.0
 40
1.0
 40
1.0
 40
1.0
 10
30.7708546042792
 20
-8.290356168494144
 30
0.0
 10
30.82597780841953
 20
-8.3002402248526
 30
0.0
 10
30.88136896521515
 20
-8.293275929832289
 30
0.0
 10
30.92688586966189
 20
-8.267744981337408
 30
0.0
  0
SPLINE
  5
52C
330
1F
100
AcDbEntity
  8
외형선
  6
Continuous
 62
     1
370
    15
100
AcDbSpline
210
0.0
220
0.0
230
1.0
 70
     8
 71
     3
 72
     8
 73
     4
 74
     0
 42
0.000000001
 43
0.00000001
 40
0.0
 40
0.0
 40
0.0
 40
0.0
 40
1.0
 40
1.0
 40
1.0
 40
1.0
 10
30.77080341112391
 20
-8.29034698911036
 30
0.0
 10
30.40837553789824
 20
-8.225360376542037
 30
0.0
 10
30.04709228738334
 20
-8.158057327106851
 30
0.0
 10
29.68478277503495
 20
-8.08836229815224
 30
0.0
  0
SPLINE
  5
52D
330
1F
100
AcDbEntity
  8
외형선
  6
Continuous
 62
     1
370
    15
100
AcDbSpline
210
0.0
220
0.0
230
1.0
 70
     8
 71
     3
 72
     8
 73
     4
 74
     0
 42
0.000000001
 43
0.00000001
 40
0.0
 40
0.0
 40
0.0
 40
0.0
 40
1.0
 40
1.0
 40
1.0
 40
1.0
 10
29.52672413775255
 20
-8.008471892621731
 30
0.0
 10
29.57145742799892
 20
-8.049142253649695
 30
0.0
 10
29.62647460355387
 20
-8.077144972760133
 30
0.0
 10
29.68329239806175
 20
-8.08807559177364
 30
0.0
  0
SPLINE
  5
52E
330
1F
100
AcDbEntity
  8
외형선
  6
Continuous
 62
     1
370
    15
100
AcDbSpline
210
0.0
220
0.0
230
1.0
 70
     8
 71
     3
 72
    10
 73
     6
 74
     0
 42
0.000000001
 43
0.00000001
 40
0.0
 40
0.0
 40
0.0
 40
0.0
 40
0.5
 40
0.5
 40
1.0
 40
1.0
 40
1.0
 40
1.0
 10
28.90158752537234
 20
-7.88540666213513
 30
0.0
 10
28.99421880717878
 20
-7.837818926535103
 30
0.0
 10
29.10670426587952
 20
-7.826532459455543
 30
0.0
 10
29.33129046316528
 20
-7.872585969841214
 30
0.0
 10
29.43842977045838
 20
-7.92819691676339
 30
0.0
 10
29.52672413775255
 20
-8.008471892621717
 30
0.0
  0
SPLINE
  5
52F
330
1F
100
AcDbEntity
  8
외형선
  6
Continuous
 62
     1
370
    15
100
AcDbSpline
210
0.0
220
0.0
230
1.0
 70
     8
 71
     3
 72
     8
 73
     4
 74
     0
 42
0.000000001
 43
0.00000001
 40
0.0
 40
0.0
 40
0.0
 40
0.0
 40
1.0
 40
1.0
 40
1.0
 40
1.0
 10
28.74558517063971
 20
-7.902681351491477
 30
0.0
 10
28.80070209152378
 20
-7.913871858105835
 30
0.0
 10
28.85608314597001
 20
-7.908783758224032
 30
0.0
 10
28.90158752537197
 20
-7.885406662135271
 30
0.0
  0
SPLINE
  5
530
330
1F
100
AcDbEntity
  8
외형선
  6
Continuous
 62
     1
370
    15
100
AcDbSpline
210
0.0
220
0.0
230
1.0
 70
     8
 71
     3
 72
     8
 73
     4
 74
     0
 42
0.000000001
 43
0.00000001
 40
0.0
 40
0.0
 40
0.0
 40
0.0
 40
1.0
 40
1.0
 40
1.0
 40
1.0
 10
28.74579680451355
 20
-7.902724319714788
 30
0.0
 10
28.38342483427501
 20
-7.829152031187946
 30
0.0
 10
28.02078461108612
 20
-7.753291114099238
 30
0.0
 10
27.65834465143413
 20
-7.675239159022211
 30
0.0
  0
SPLINE
  5
531
330
1F
100
AcDbEntity
  8
외형선
  6
Continuous
 62
     1
370
    15
100
AcDbSpline
210
0.0
220
0.0
230
1.0
 70
     8
 71
     3
 72
     8
 73
     4
 74
     0
 42
0.000000001
 43
0.00000001
 40
0.0
 40
0.0
 40
0.0
 40
0.0
 40
1.0
 40
1.0
 40
1.0
 40
1.0
 10
27.50177457754119
 20
-7.593866120697756
 30
0.0
 10
27.54648873575862
 20
-7.63437696506563
 30
0.0
 10
27.60149113638553
 20
-7.662995643398389
 30
0.0
 10
27.658296215293
 20
-7.675228728219812
 30
0.0
  0
SPLINE
  5
532
330
1F
100
AcDbEntity
  8
외형선
  6
Continuous
 62
     1
370
    15
100
AcDbSpline
210
0.0
220
0.0
230
1.0
 70
     8
 71
     3
 72
    10
 73
     6
 74
     0
 42
0.000000001
 43
0.00000001
 40
0.0
 40
0.0
 40
0.0
 40
0.0
 40
0.5
 40
0.5
 40
1.0
 40
1.0
 40
1.0
 40
1.0
 10
26.87680278635175
 20
-7.456574562302563
 30
0.0
 10
26.96940060071662
 20
-7.41367567097355
 30
0.0
 10
27.08184580352323
 20
-7.406098053392581
 30
0.0
 10
27.30638382878825
 20
-7.457109286036273
 30
0.0
 10
27.41350423888414
 20
-7.51389355509008
 30
0.0
 10
27.50177457754116
 20
-7.593866120697724
 30
0.0
  0
SPLINE
  5
533
330
1F
100
AcDbEntity
  8
외형선
  6
Continuous
 62
     1
370
    15
100
AcDbSpline
210
0.0
220
0.0
230
1.0
 70
     8
 71
     3
 72
     8
 73
     4
 74
     0
 42
0.000000001
 43
0.00000001
 40
0.0
 40
0.0
 40
0.0
 40
0.0
 40
1.0
 40
1.0
 40
1.0
 40
1.0
 10
26.72083549036275
 20
-7.468359829236319
 30
0.0
 10
26.7759386490949
 20
-7.48081279310973
 30
0.0
 10
26.83130811135512
 20
-7.477651421752275
 30
0.0
 10
26.87680278635141
 20
-7.456574562302717
 30
0.0
  0
SPLINE
  5
534
330
1F
100
AcDbEntity
  8
외형선
  6
Continuous
 62
     1
370
    15
100
AcDbSpline
210
0.0
220
0.0
230
1.0
 70
     8
 71
     3
 72
     8
 73
     4
 74
     0
 42
0.000000001
 43
0.00000001
 40
0.0
 40
0.0
 40
0.0
 40
0.0
 40
1.0
 40
1.0
 40
1.0
 40
1.0
 10
26.72037318896292
 20
-7.468255350840155
 30
0.0
 10
26.35843339164736
 20
-7.38645735191843
 30
0.0
 10
25.99766458301874
 20
-7.302605415048984
 30
0.0
 10
25.63598975544951
 20
-7.216612787987477
 30
0.0
  0
SPLINE
  5
535
330
1F
100
AcDbEntity
  8
외형선
  6
Continuous
 62
     1
370
    15
100
AcDbSpline
210
0.0
220
0.0
230
1.0
 70
     8
 71
     3
 72
     8
 73
     4
 74
     0
 42
0.000000001
 43
0.00000001
 40
0.0
 40
0.0
 40
0.0
 40
0.0
 40
1.0
 40
1.0
 40
1.0
 40
1.0
 10
25.47737228147204
 20
-7.133370711210293
 30
0.0
 10
25.52206867880627
 20
-7.173505654099031
 30
0.0
 10
25.57705361106419
 20
-7.202598753667989
 30
0.0
 10
25.63383970058864
 20
-7.216101562976336
 30
0.0
  0
SPLINE
  5
536
330
1F
100
AcDbEntity
  8
외형선
  6
Continuous
 62
     1
370
    15
100
AcDbSpline
210
0.0
220
0.0
230
1.0
 70
     8
 71
     3
 72
    10
 73
     6
 74
     0
 42
0.000000001
 43
0.00000001
 40
0.0
 40
0.0
 40
0.0
 40
0.0
 40
0.5
 40
0.5
 40
1.0
 40
1.0
 40
1.0
 40
1.0
 10
24.8526070820495
 20
-6.982597143611658
 30
0.0
 10
24.94517729843795
 20
-6.944613765188957
 30
0.0
 10
25.05760075948535
 20
-6.94078762054628
 30
0.0
 10
25.28206918682931
 20
-6.996493605231582
 30
0.0
 10
25.38914760656862
 20
-7.054149733686129
 30
0.0
 10
25.47737228147201
 20
-7.133370711210283
 30
0.0
  0
SPLINE
  5
537
330
1F
100
AcDbEntity
  8
외형선
  6
Continuous
 62
     1
370
    15
100
AcDbSpline
210
0.0
220
0.0
230
1.0
 70
     8
 71
     3
 72
     8
 73
     4
 74
     0
 42
0.000000001
 43
0.00000001
 40
0.0
 40
0.0
 40
0.0
 40
0.0
 40
1.0
 40
1.0
 40
1.0
 40
1.0
 10
24.69668807997143
 20
-6.988882916522744
 30
0.0
 10
24.75177855500063
 20
-7.002496995433837
 30
0.0
 10
24.80713126141719
 20
-7.001256766236958
 30
0.0
 10
24.85260708204918
 20
-6.982597143611796
 30
0.0
  0
SPLINE
  5
538
330
1F
100
AcDbEntity
  8
외형선
  6
Continuous
 62
     1
370
    15
100
AcDbSpline
210
0.0
220
0.0
230
1.0
 70
     8
 71
     3
 72
     8
 73
     4
 74
     0
 42
0.000000001
 43
0.00000001
 40
0.0
 40
0.0
 40
0.0
 40
0.0
 40
1.0
 40
1.0
 40
1.0
 40
1.0
 10
24.69671977870868
 20
-6.988890749977441
 30
0.0
 10
24.33457443080899
 20
-6.899396712176268
 30
0.0
 10
23.97213459064371
 20
-6.807872767126122
 30
0.0
 10
23.60986799676348
 20
-6.714436374605416
 30
0.0
  0
SPLINE
  5
539
330
1F
100
AcDbEntity
  8
외형선
  6
Continuous
 62
     1
370
    15
100
AcDbSpline
210
0.0
220
0.0
230
1.0
 70
     8
 71
     3
 72
     8
 73
     4
 74
     0
 42
0.000000001
 43
0.00000001
 40
0.0
 40
0.0
 40
0.0
 40
0.0
 40
1.0
 40
1.0
 40
1.0
 40
1.0
 10
23.45372839804795
 20
-6.631021351802522
 30
0.0
 10
23.49839596890816
 20
-6.670506324773475
 30
0.0
 10
23.55335786299016
 20
-6.699861332038677
 30
0.0
 10
23.61012308973167
 20
-6.714502168279571
 30
0.0
  0
SPLINE
  5
53A
330
1F
100
AcDbEntity
  8
외형선
  6
Continuous
 62
     1
370
    15
100
AcDbSpline
210
0.0
220
0.0
230
1.0
 70
     8
 71
     3
 72
    10
 73
     6
 74
     0
 42
0.000000001
 43
0.00000001
 40
0.0
 40
0.0
 40
0.0
 40
0.0
 40
0.5
 40
0.5
 40
1.0
 40
1.0
 40
1.0
 40
1.0
 10
22.82921945677517
 20
-6.467825517683772
 30
0.0
 10
22.92174033534129
 20
-6.435004528558146
 30
0.0
 10
23.03410795178612
 20
-6.434940150873548
 30
0.0
 10
23.25849994901406
 20
-6.494937779977924
 30
0.0
 10
23.36554514921985
 20
-6.553069649271725
 30
0.0
 10
23.45372839804795
 20
-6.631021351802509
 30
0.0
  0
SPLINE
  5
53B
330
1F
100
AcDbEntity
  8
외형선
  6
Continuous
 62
     1
370
    15
100
AcDbSpline
210
0.0
220
0.0
230
1.0
 70
     8
 71
     3
 72
     8
 73
     4
 74
     0
 42
0.000000001
 43
0.00000001
 40
0.0
 40
0.0
 40
0.0
 40
0.0
 40
1.0
 40
1.0
 40
1.0
 40
1.0
 10
22.67335518525882
 20
-6.468527710640569
 30
0.0
 10
22.72842593888284
 20
-6.483244931844289
 30
0.0
 10
22.78376045947697
 20
-6.483951707567631
 30
0.0
 10
22.82921945677483
 20
-6.467825517683932
 30
0.0
  0
SPLINE
  5
53C
330
1F
100
AcDbEntity
  8
외형선
  6
Continuous
 62
     1
370
    15
100
AcDbSpline
210
0.0
220
0.0
230
1.0
 70
     8
 71
     3
 72
     8
 73
     4
 74
     0
 42
0.000000001
 43
0.00000001
 40
0.0
 40
0.0
 40
0.0
 40
0.0
 40
1.0
 40
1.0
 40
1.0
 40
1.0
 10
22.67315559392417
 20
-6.468474371242485
 30
0.0
 10
22.31039879615613
 20
-6.371529778134695
 30
0.0
 10
21.94881265565405
 20
-6.272826010379966
 30
0.0
 10
21.58647108140925
 20
-6.172275675054971
 30
0.0
  0
SPLINE
  5
53D
330
1F
100
AcDbEntity
  8
외형선
  6
Continuous
 62
     1
370
    15
100
AcDbSpline
210
0.0
220
0.0
230
1.0
 70
     8
 71
     3
 72
     8
 73
     4
 74
     0
 42
0.000000001
 43
0.00000001
 40
0.0
 40
0.0
 40
0.0
 40
0.0
 40
1.0
 40
1.0
 40
1.0
 40
1.0
 10
21.43092473440023
 20
-6.088628462506449
 30
0.0
 10
21.47556557990654
 20
-6.127262111220274
 30
0.0
 10
21.53050190190978
 20
-6.156744504857638
 30
0.0
 10
21.58724027775676
 20
-6.172489125738055
 30
0.0
  0
SPLINE
  5
53E
330
1F
100
AcDbEntity
  8
외형선
  6
Continuous
 62
     1
370
    15
100
AcDbSpline
210
0.0
220
0.0
230
1.0
 70
     8
 71
     3
 72
    10
 73
     6
 74
     0
 42
0.000000001
 43
0.00000001
 40
0.0
 40
0.0
 40
0.0
 40
0.0
 40
0.5
 40
0.5
 40
1.0
 40
1.0
 40
1.0
 40
1.0
 10
20.80661299603943
 20
-5.913811855287209
 30
0.0
 10
20.89911209858953
 20
-5.886328814354597
 30
0.0
 10
21.01145562439907
 20
-5.890040023208986
 30
0.0
 10
21.23578482968193
 20
-5.954041104258222
 30
0.0
 10
21.34279139517687
 20
-6.01235498630067
 30
0.0
 10
21.43092473440023
 20
-6.088628462506435
 30
0.0
  0
SPLINE
  5
53F
330
1F
100
AcDbEntity
  8
외형선
  6
Continuous
 62
     1
370
    15
100
AcDbSpline
210
0.0
220
0.0
230
1.0
 70
     8
 71
     3
 72
     8
 73
     4
 74
     0
 42
0.000000001
 43
0.00000001
 40
0.0
 40
0.0
 40
0.0
 40
0.0
 40
1.0
 40
1.0
 40
1.0
 40
1.0
 10
20.65076971582183
 20
-5.908970191426443
 30
0.0
 10
20.7058362075777
 20
-5.924680117821712
 30
0.0
 10
20.76116338092159
 20
-5.927315701251205
 30
0.0
 10
20.80661299603909
 20
-5.91381185528728
 30
0.0
  0
SPLINE
  5
540
330
1F
100
AcDbEntity
  8
외형선
  6
Continuous
 62
     1
370
    15
100
AcDbSpline
210
0.0
220
0.0
230
1.0
 70
     8
 71
     3
 72
     8
 73
     4
 74
     0
 42
0.000000001
 43
0.00000001
 40
0.0
 40
0.0
 40
0.0
 40
0.0
 40
1.0
 40
1.0
 40
1.0
 40
1.0
 10
20.64896622933988
 20
-5.908455661031079
 30
0.0
 10
20.28672234011335
 20
-5.805105629933012
 30
0.0
 10
19.92415662905884
 20
-5.700028260354378
 30
0.0
 10
19.56173731814558
 20
-5.593358459630792
 30
0.0
  0
SPLINE
  5
541
330
1F
100
AcDbEntity
  8
외형선
  6
Continuous
 62
     1
370
    15
100
AcDbSpline
210
0.0
220
0.0
230
1.0
 70
     8
 71
     3
 72
     8
 73
     4
 74
     0
 42
0.000000001
 43
0.00000001
 40
0.0
 40
0.0
 40
0.0
 40
0.0
 40
1.0
 40
1.0
 40
1.0
 40
1.0
 10
19.40815065117891
 20
-5.510551941756953
 30
0.0
 10
19.45281637379619
 20
-5.548080782905556
 30
0.0
 10
19.50777535689743
 20
-5.577477282358254
 30
0.0
 10
19.56453830663454
 20
-5.594182833715958
 30
0.0
  0
SPLINE
  5
542
330
1F
100
AcDbEntity
  8
외형선
  6
Continuous
 62
     1
370
    15
100
AcDbSpline
210
0.0
220
0.0
230
1.0
 70
     8
 71
     3
 72
    10
 73
     6
 74
     0
 42
0.000000001
 43
0.00000001
 40
0.0
 40
0.0
 40
0.0
 40
0.0
 40
0.5
 40
0.5
 40
1.0
 40
1.0
 40
1.0
 40
1.0
 10
18.78356022931049
 20
-5.325236832808942
 30
0.0
 10
18.87609724402923
 20
-5.303273081088593
 30
0.0
 10
18.98847557573267
 20
-5.310756778506805
 30
0.0
 10
19.21289703749144
 20
-5.378349025099107
 30
0.0
 10
19.31995740714759
 20
-5.436450593974207
 30
0.0
 10
19.40815065117891
 20
-5.510551941756995
 30
0.0
  0
SPLINE
  5
543
330
1F
100
AcDbEntity
  8
외형선
  6
Continuous
 62
     1
370
    15
100
AcDbSpline
210
0.0
220
0.0
230
1.0
 70
     8
 71
     3
 72
     8
 73
     4
 74
     0
 42
0.000000001
 43
0.00000001
 40
0.0
 40
0.0
 40
0.0
 40
0.0
 40
1.0
 40
1.0
 40
1.0
 40
1.0
 10
18.62765695940745
 20
-5.314810653399009
 30
0.0
 10
18.68274031533607
 20
-5.331450676018227
 30
0.0
 10
18.73808829025364
 20
-5.336029642396703
 30
0.0
 10
18.78356022931012
 20
-5.325236832809038
 30
0.0
  0
SPLINE
  5
544
330
1F
100
AcDbEntity
  8
외형선
  6
Continuous
 62
     1
370
    15
100
AcDbSpline
210
0.0
220
0.0
230
1.0
 70
     8
 71
     3
 72
     8
 73
     4
 74
     0
 42
0.000000001
 43
0.00000001
 40
0.0
 40
0.0
 40
0.0
 40
0.0
 40
1.0
 40
1.0
 40
1.0
 40
1.0
 10
18.62831827716706
 20
-5.315010427758169
 30
0.0
 10
18.26527484523589
 20
-5.205341350410198
 30
0.0
 10
17.90336084797874
 20
-5.094252591786057
 30
0.0
 10
17.54089034798553
 20
-4.981670566681322
 30
0.0
  0
SPLINE
  5
545
330
1F
100
AcDbEntity
  8
외형선
  6
Continuous
 62
     1
370
    15
100
AcDbSpline
210
0.0
220
0.0
230
1.0
 70
     8
 71
     3
 72
     8
 73
     4
 74
     0
 42
0.000000001
 43
0.00000001
 40
0.0
 40
0.0
 40
0.0
 40
0.0
 40
1.0
 40
1.0
 40
1.0
 40
1.0
 10
17.38448008441477
 20
-4.898613512955665
 30
0.0
 10
17.42917548797754
 20
-4.934859603180113
 30
0.0
 10
17.48415804452704
 20
-4.964049737766265
 30
0.0
 10
17.54094231036722
 20
-4.981686706001645
 30
0.0
  0
SPLINE
  5
546
330
1F
100
AcDbEntity
  8
외형선
  6
Continuous
 62
     1
370
    15
100
AcDbSpline
210
0.0
220
0.0
230
1.0
 70
     8
 71
     3
 72
    10
 73
     6
 74
     0
 42
0.000000001
 43
0.00000001
 40
0.0
 40
0.0
 40
0.0
 40
0.0
 40
0.5
 40
0.5
 40
1.0
 40
1.0
 40
1.0
 40
1.0
 10
16.75964417192173
 20
-4.703643623105203
 30
0.0
 10
16.85222981859157
 20
-4.687324408719919
 30
0.0
 10
16.96466331103462
 20
-4.698560713420106
 30
0.0
 10
17.18915626901096
 20
-4.769443859758494
 30
0.0
 10
17.29624676801077
 20
-4.827060008741485
 30
0.0
 10
17.38448008441477
 20
-4.898613512955686
 30
0.0
  0
SPLINE
  5
547
330
1F
100
AcDbEntity
  8
외형선
  6
Continuous
 62
     1
370
    15
100
AcDbSpline
210
0.0
220
0.0
230
1.0
 70
     8
 71
     3
 72
     8
 73
     4
 74
     0
 42
0.000000001
 43
0.00000001
 40
0.0
 40
0.0
 40
0.0
 40
0.0
 40
1.0
 40
1.0
 40
1.0
 40
1.0
 10
16.60369202913376
 20
-4.687733179982926
 30
0.0
 10
16.65879290029873
 20
-4.705181783883551
 30
0.0
 10
16.71415690256418
 20
-4.711661242759368
 30
0.0
 10
16.75964417192133
 20
-4.70364362310521
 30
0.0
  0
SPLINE
  5
548
330
1F
100
AcDbEntity
  8
외형선
  6
Continuous
 62
     1
370
    15
100
AcDbSpline
210
0.0
220
0.0
230
1.0
 70
     8
 71
     3
 72
     8
 73
     4
 74
     0
 42
0.000000001
 43
0.00000001
 40
0.0
 40
0.0
 40
0.0
 40
0.0
 40
1.0
 40
1.0
 40
1.0
 40
1.0
 10
16.60040643403051
 20
-4.686692706969533
 30
0.0
 10
16.23860792040136
 20
-4.572115530971201
 30
0.0
 10
15.87646161036728
 20
-4.456158884619226
 30
0.0
 10
15.51443409917841
 20
-4.338971366136883
 30
0.0
  0
SPLINE
  5
549
330
1F
100
AcDbEntity
  8
외형선
  6
Continuous
 62
     1
370
    15
100
AcDbSpline
210
0.0
220
0.0
230
1.0
 70
     8
 71
     3
 72
     8
 73
     4
 74
     0
 42
0.000000001
 43
0.00000001
 40
0.0
 40
0.0
 40
0.0
 40
0.0
 40
1.0
 40
1.0
 40
1.0
 40
1.0
 10
15.36010848297756
 20
-4.257852524598153
 30
0.0
 10
15.40482133177601
 20
-4.292546953953533
 30
0.0
 10
15.45982182983831
 20
-4.321294281022892
 30
0.0
 10
15.5166252354224
 20
-4.339680616685333
 30
0.0
  0
SPLINE
  5
54A
330
1F
100
AcDbEntity
  8
외형선
  6
Continuous
 62
     1
370
    15
100
AcDbSpline
210
0.0
220
0.0
230
1.0
 70
     8
 71
     3
 72
    10
 73
     6
 74
     0
 42
0.000000001
 43
0.00000001
 40
0.0
 40
0.0
 40
0.0
 40
0.0
 40
0.5
 40
0.5
 40
1.0
 40
1.0
 40
1.0
 40
1.0
 10
14.73508371332841
 20
-4.054709587817863
 30
0.0
 10
14.82769162418398
 20
-4.044140650442159
 30
0.0
 10
14.94014455014283
 20
-4.059026641046659
 30
0.0
 10
15.16470203534171
 20
-4.132652935930656
 30
0.0
 10
15.27183226310243
 20
-4.189355590125791
 30
0.0
 10
15.36010848297753
 20
-4.257852524598084
 30
0.0
  0
SPLINE
  5
54B
330
1F
100
AcDbEntity
  8
외형선
  6
Continuous
 62
     1
370
    15
100
AcDbSpline
210
0.0
220
0.0
230
1.0
 70
     8
 71
     3
 72
     8
 73
     4
 74
     0
 42
0.000000001
 43
0.00000001
 40
0.0
 40
0.0
 40
0.0
 40
0.0
 40
1.0
 40
1.0
 40
1.0
 40
1.0
 10
14.57909090198556
 20
-4.033377750840977
 30
0.0
 10
14.63420278479919
 20
-4.051550429994041
 30
0.0
 10
14.68958111255051
 20
-4.059902601390922
 30
0.0
 10
14.73508371332807
 20
-4.054709587817888
 30
0.0
  0
SPLINE
  5
54C
330
1F
100
AcDbEntity
  8
외형선
  6
Continuous
 62
     1
370
    15
100
AcDbSpline
210
0.0
220
0.0
230
1.0
 70
     8
 71
     3
 72
     8
 73
     4
 74
     0
 42
0.000000001
 43
0.00000001
 40
0.0
 40
0.0
 40
0.0
 40
0.0
 40
1.0
 40
1.0
 40
1.0
 40
1.0
 10
14.57813008758175
 20
-4.033060927395193
 30
0.0
 10
14.2154270278642
 20
-3.913460392542778
 30
0.0
 10
13.85377654480821
 20
-3.792814238567901
 30
0.0
 10
13.49179278525234
 20
-3.671075099236909
 30
0.0
  0
SPLINE
  5
54D
330
1F
100
AcDbEntity
  8
외형선
  6
Continuous
 62
     1
370
    15
100
AcDbSpline
210
0.0
220
0.0
230
1.0
 70
     8
 71
     3
 72
     8
 73
     4
 74
     0
 42
0.000000001
 43
0.00000001
 40
0.0
 40
0.0
 40
0.0
 40
0.0
 40
1.0
 40
1.0
 40
1.0
 40
1.0
 10
13.33513042235742
 20
-3.590746275041889
 30
0.0
 10
13.37986383072728
 20
-3.623734781495051
 30
0.0
 10
13.43487970164035
 20
-3.651934575601896
 30
0.0
 10
13.49169644648246
 20
-3.67104269942414
 30
0.0
  0
SPLINE
  5
54E
330
1F
100
AcDbEntity
  8
외형선
  6
Continuous
 62
     1
370
    15
100
AcDbSpline
210
0.0
220
0.0
230
1.0
 70
     8
 71
     3
 72
    10
 73
     6
 74
     0
 42
0.000000001
 43
0.00000001
 40
0.4593464760013465
 40
0.4593464760013465
 40
0.4593464760013465
 40
0.4593464760013465
 40
0.5
 40
0.5
 40
1.0
 40
1.0
 40
1.0
 40
1.0
 10
13.0
 20
-3.423171182517162
 30
0.0
 10
13.00912257248511
 20
-3.426002968455825
 30
0.0
 10
13.01825464320211
 20
-3.428965953905958
 30
0.0
 10
13.13968561121536
 20
-3.470089315285394
 30
0.0
 10
13.24683101748882
 20
-3.525630166221511
 30
0.0
 10
13.3351304223574
 20
-3.590746275041878
 30
0.0
  0
SPLINE
  5
586
330
1F
100
AcDbEntity
  8
외형선
  6
Continuous
 62
     1
370
    15
100
AcDbSpline
210
0.0
220
0.0
230
1.0
 70
     8
 71
     3
 72
     8
 73
     4
 74
     0
 42
0.000000001
 43
0.00000001
 40
0.0
 40
0.0
 40
0.0
 40
0.0
 40
0.8063806178558954
 40
0.8063806178558954
 40
0.8063806178558954
 40
0.8063806178558954
 10
13.12856261175403
 20
6.439279398017804
 30
0.0
 10
13.08411002928179
 20
6.451207435517695
 30
0.0
 10
13.03948310648291
 20
6.454065699338246
 30
0.0
 10
13.0
 20
6.446345507600697
 30
0.0
  0
SPLINE
  5
587
330
1F
100
AcDbEntity
  8
외형선
  6
Continuous
 62
     1
370
    15
100
AcDbSpline
210
0.0
220
0.0
230
1.0
 70
     8
 71
     3
 72
     8
 73
     4
 74
     0
 42
0.000000001
 43
0.00000001
 40
0.0
 40
0.0
 40
0.0
 40
0.0
 40
1.0
 40
1.0
 40
1.0
 40
1.0
 10
14.21403274393712
 20
6.142310183744035
 30
0.0
 10
13.8527552836377
 20
6.242890215459449
 30
0.0
 10
13.49247514646549
 20
6.341621135185624
 30
0.0
 10
13.13104637843403
 20
6.438612893871964
 30
0.0
  0
SPLINE
  5
588
330
1F
100
AcDbEntity
  8
외형선
  6
Continuous
 62
     1
370
    15
100
AcDbSpline
210
0.0
220
0.0
230
1.0
 70
     8
 71
     3
 72
     8
 73
     4
 74
     0
 42
0.000000001
 43
0.00000001
 40
0.0
 40
0.0
 40
0.0
 40
0.0
 40
1.0
 40
1.0
 40
1.0
 40
1.0
 10
14.37279240644146
 20
6.057776361562942
 30
0.0
 10
14.32805330211048
 20
6.096385109701847
 30
0.0
 10
14.27303113028882
 20
6.125883918926421
 30
0.0
 10
14.21620842411247
 20
6.141704452313098
 30
0.0
  0
SPLINE
  5
589
330
1F
100
AcDbEntity
  8
외형선
  6
Continuous
 62
     1
370
    15
100
AcDbSpline
210
0.0
220
0.0
230
1.0
 70
     8
 71
     3
 72
    10
 73
     6
 74
     0
 42
0.000000001
 43
0.00000001
 40
0.0
 40
0.0
 40
0.0
 40
0.0
 40
0.5
 40
0.5
 40
1.0
 40
1.0
 40
1.0
 40
1.0
 10
14.99798831634784
 20
5.882136226536614
 30
0.0
 10
14.90534700810633
 20
5.854955251056813
 30
0.0
 10
14.79285152284445
 20
5.858936799052431
 30
0.0
 10
14.56824662047526
 20
5.923233910859073
 30
0.0
 10
14.4610977565548
 20
5.981571013404112
 30
0.0
 10
14.37279240644177
 20
6.057776361562807
 30
0.0
  0
SPLINE
  5
58A
330
1F
100
AcDbEntity
  8
외형선
  6
Continuous
 62
     1
370
    15
100
AcDbSpline
210
0.0
220
0.0
230
1.0
 70
     8
 71
     3
 72
     8
 73
     4
 74
     0
 42
0.000000001
 43
0.00000001
 40
0.0
 40
0.0
 40
0.0
 40
0.0
 40
1.0
 40
1.0
 40
1.0
 40
1.0
 10
15.15400424201211
 20
5.876943131170867
 30
0.0
 10
15.09888303493302
 20
5.892719970414722
 30
0.0
 10
15.04349738254779
 20
5.895488594243504
 30
0.0
 10
14.99798831634786
 20
5.882136226536607
 30
0.0
  0
SPLINE
  5
58B
330
1F
100
AcDbEntity
  8
외형선
  6
Continuous
 62
     1
370
    15
100
AcDbSpline
210
0.0
220
0.0
230
1.0
 70
     8
 71
     3
 72
     8
 73
     4
 74
     0
 42
0.000000001
 43
0.00000001
 40
0.0
 40
0.0
 40
0.0
 40
0.0
 40
1.0
 40
1.0
 40
1.0
 40
1.0
 10
16.23965044260439
 20
5.561318348739926
 30
0.0
 10
15.87775668748269
 20
5.668159882120905
 30
0.0
 10
15.51567022200675
 20
5.773427224652005
 30
0.0
 10
15.15385742087582
 20
5.876985154353127
 30
0.0
  0
SPLINE
  5
58C
330
1F
100
AcDbEntity
  8
외형선
  6
Continuous
 62
     1
370
    15
100
AcDbSpline
210
0.0
220
0.0
230
1.0
 70
     8
 71
     3
 72
     8
 73
     4
 74
     0
 42
0.000000001
 43
0.00000001
 40
0.0
 40
0.0
 40
0.0
 40
0.0
 40
1.0
 40
1.0
 40
1.0
 40
1.0
 10
16.39795758382994
 20
5.47714166237291
 30
0.0
 10
16.3532354445021
 20
5.514623929877475
 30
0.0
 10
16.29822609747803
 20
5.544024271895934
 30
0.0
 10
16.24141421051655
 20
5.560797620384589
 30
0.0
  0
SPLINE
  5
58D
330
1F
100
AcDbEntity
  8
외형선
  6
Continuous
 62
     1
370
    15
100
AcDbSpline
210
0.0
220
0.0
230
1.0
 70
     8
 71
     3
 72
    10
 73
     6
 74
     0
 42
0.000000001
 43
0.00000001
 40
0.0
 40
0.0
 40
0.0
 40
0.0
 40
0.5
 40
0.5
 40
1.0
 40
1.0
 40
1.0
 40
1.0
 10
17.02300967341821
 20
5.291103277037946
 30
0.0
 10
16.93039856818714
 20
5.269463055534073
 30
0.0
 10
16.81793980498954
 20
5.277198860374211
 30
0.0
 10
16.59337635626083
 20
5.345046227825
 30
0.0
 10
16.48624288349561
 20
5.403148484306444
 30
0.0
 10
16.39795758383033
 20
5.477141662372714
 30
0.0
  0
SPLINE
  5
58E
330
1F
100
AcDbEntity
  8
외형선
  6
Continuous
 62
     1
370
    15
100
AcDbSpline
210
0.0
220
0.0
230
1.0
 70
     8
 71
     3
 72
     8
 73
     4
 74
     0
 42
0.000000001
 43
0.00000001
 40
0.0
 40
0.0
 40
0.0
 40
0.0
 40
1.0
 40
1.0
 40
1.0
 40
1.0
 10
17.17899503754867
 20
5.280331668952167
 30
0.0
 10
17.12388610873554
 20
5.297031715639159
 30
0.0
 10
17.0685105053412
 20
5.301735350577838
 30
0.0
 10
17.02300967341821
 20
5.291103277037996
 30
0.0
  0
SPLINE
  5
58F
330
1F
100
AcDbEntity
  8
외형선
  6
Continuous
 62
     1
370
    15
100
AcDbSpline
210
0.0
220
0.0
230
1.0
 70
     8
 71
     3
 72
     8
 73
     4
 74
     0
 42
0.000000001
 43
0.00000001
 40
0.0
 40
0.0
 40
0.0
 40
0.0
 40
1.0
 40
1.0
 40
1.0
 40
1.0
 10
18.26548236285506
 20
4.946320851171413
 30
0.0
 10
17.90245751305243
 20
5.059343020188928
 30
0.0
 10
17.54031238977975
 20
5.170845190466165
 30
0.0
 10
17.17698645861369
 20
5.280940325963654
 30
0.0
  0
SPLINE
  5
590
330
1F
100
AcDbEntity
  8
외형선
  6
Continuous
 62
     1
370
    15
100
AcDbSpline
210
0.0
220
0.0
230
1.0
 70
     8
 71
     3
 72
     8
 73
     4
 74
     0
 42
0.000000001
 43
0.00000001
 40
0.0
 40
0.0
 40
0.0
 40
0.0
 40
1.0
 40
1.0
 40
1.0
 40
1.0
 10
18.42264405813153
 20
4.86309572444465
 30
0.0
 10
18.37793741432179
 20
4.899261734032214
 30
0.0
 10
18.32294360279021
 20
4.928430936242924
 30
0.0
 10
18.26614880145583
 20
4.946113364385143
 30
0.0
  0
SPLINE
  5
591
330
1F
100
AcDbEntity
  8
외형선
  6
Continuous
 62
     1
370
    15
100
AcDbSpline
210
0.0
220
0.0
230
1.0
 70
     8
 71
     3
 72
    10
 73
     6
 74
     0
 42
0.000000001
 43
0.00000001
 40
0.0
 40
0.0
 40
0.0
 40
0.0
 40
0.5
 40
0.5
 40
1.0
 40
1.0
 40
1.0
 40
1.0
 10
19.04751076409976
 20
4.667656556347636
 30
0.0
 10
18.95492357547385
 20
4.651653303357106
 30
0.0
 10
18.84248292127884
 20
4.663094640855208
 30
0.0
 10
18.61798252871292
 20
4.734139107386047
 30
0.0
 10
18.51088772891406
 20
4.791709881724023
 30
0.0
 10
18.42264405813187
 20
4.863095724444511
 30
0.0
  0
SPLINE
  5
592
330
1F
100
AcDbEntity
  8
외형선
  6
Continuous
 62
     1
370
    15
100
AcDbSpline
210
0.0
220
0.0
230
1.0
 70
     8
 71
     3
 72
     8
 73
     4
 74
     0
 42
0.000000001
 43
0.00000001
 40
0.0
 40
0.0
 40
0.0
 40
0.0
 40
1.0
 40
1.0
 40
1.0
 40
1.0
 10
19.20345234381696
 20
4.651448707168685
 30
0.0
 10
19.14835473330978
 20
4.668937019150993
 30
0.0
 10
19.09299437456624
 20
4.67551818100676
 30
0.0
 10
19.04751076409976
 20
4.667656556347675
 30
0.0
  0
SPLINE
  5
593
330
1F
100
AcDbEntity
  8
외형선
  6
Continuous
 62
     1
370
    15
100
AcDbSpline
210
0.0
220
0.0
230
1.0
 70
     8
 71
     3
 72
     8
 73
     4
 74
     0
 42
0.000000001
 43
0.00000001
 40
0.0
 40
0.0
 40
0.0
 40
0.0
 40
1.0
 40
1.0
 40
1.0
 40
1.0
 10
20.28786328713849
 20
4.303454683386105
 30
0.0
 10
19.92606238152896
 20
4.420824787201733
 30
0.0
 10
19.56409573309426
 20
4.536980719497405
 30
0.0
 10
19.20242925141974
 20
4.651773439450134
 30
0.0
  0
SPLINE
  5
594
330
1F
100
AcDbEntity
  8
외형선
  6
Continuous
 62
     1
370
    15
100
AcDbSpline
210
0.0
220
0.0
230
1.0
 70
     8
 71
     3
 72
     8
 73
     4
 74
     0
 42
0.000000001
 43
0.00000001
 40
0.0
 40
0.0
 40
0.0
 40
0.0
 40
1.0
 40
1.0
 40
1.0
 40
1.0
 10
20.44663893246686
 20
4.220970689763297
 30
0.0
 10
20.40195907309427
 20
4.255562239598193
 30
0.0
 10
20.34698646109322
 20
4.284273938830529
 30
0.0
 10
20.29021073502386
 20
4.302693141244538
 30
0.0
  0
SPLINE
  5
595
330
1F
100
AcDbEntity
  8
외형선
  6
Continuous
 62
     1
370
    15
100
AcDbSpline
210
0.0
220
0.0
230
1.0
 70
     8
 71
     3
 72
    10
 73
     6
 74
     0
 42
0.000000001
 43
0.00000001
 40
0.0
 40
0.0
 40
0.0
 40
0.0
 40
0.5
 40
0.5
 40
1.0
 40
1.0
 40
1.0
 40
1.0
 10
21.07126916093633
 20
4.017499713520982
 30
0.0
 10
20.97872824149467
 20
4.007248511747134
 30
0.0
 10
20.86634010679571
 20
4.022314044061369
 30
0.0
 10
20.64190981462425
 20
4.096050084787562
 30
0.0
 10
20.53484492873874
 20
4.15268081243096
 30
0.0
 10
20.4466389324672
 20
4.220970689763183
 30
0.0
  0
SPLINE
  5
596
330
1F
100
AcDbEntity
  8
외형선
  6
Continuous
 62
     1
370
    15
100
AcDbSpline
210
0.0
220
0.0
230
1.0
 70
     8
 71
     3
 72
     8
 73
     4
 74
     0
 42
0.000000001
 43
0.00000001
 40
0.0
 40
0.0
 40
0.0
 40
0.0
 40
1.0
 40
1.0
 40
1.0
 40
1.0
 10
21.22716024677853
 20
3.99589196050818
 30
0.0
 10
21.17208095943288
 20
4.014094392795625
 30
0.0
 10
21.11673733182143
 20
4.022536441023158
 30
0.0
 10
21.07126916093639
 20
4.017499713520968
 30
0.0
  0
SPLINE
  5
597
330
1F
100
AcDbEntity
  8
외형선
  6
Continuous
 62
     1
370
    15
100
AcDbSpline
210
0.0
220
0.0
230
1.0
 70
     8
 71
     3
 72
     8
 73
     4
 74
     0
 42
0.000000001
 43
0.00000001
 40
0.0
 40
0.0
 40
0.0
 40
0.0
 40
1.0
 40
1.0
 40
1.0
 40
1.0
 10
22.31434779859196
 20
3.632893397983894
 30
0.0
 10
21.95183968912561
 20
3.754993164369031
 30
0.0
 10
21.59004954085534
 20
3.875965587900426
 30
0.0
 10
21.22709331834877
 20
3.995914078793851
 30
0.0
  0
SPLINE
  5
598
330
1F
100
AcDbEntity
  8
외형선
  6
Continuous
 62
     1
370
    15
100
AcDbSpline
210
0.0
220
0.0
230
1.0
 70
     8
 71
     3
 72
     8
 73
     4
 74
     0
 42
0.000000001
 43
0.00000001
 40
0.0
 40
0.0
 40
0.0
 40
0.0
 40
1.0
 40
1.0
 40
1.0
 40
1.0
 10
22.46985802172926
 20
3.553073069674737
 30
0.0
 10
22.42520276970938
 20
3.585926437598678
 30
0.0
 10
22.37025392190824
 20
3.61406334376983
 30
0.0
 10
22.31350326755526
 20
3.633177850829357
 30
0.0
  0
SPLINE
  5
599
330
1F
100
AcDbEntity
  8
외형선
  6
Continuous
 62
     1
370
    15
100
AcDbSpline
210
0.0
220
0.0
230
1.0
 70
     8
 71
     3
 72
    10
 73
     6
 74
     0
 42
0.000000001
 43
0.00000001
 40
0.0
 40
0.0
 40
0.0
 40
0.0
 40
0.5
 40
0.5
 40
1.0
 40
1.0
 40
1.0
 40
1.0
 10
23.0942153609167
 20
3.342587751394356
 30
0.0
 10
23.00171187412487
 20
3.338124955714184
 30
0.0
 10
22.88935663699603
 20
3.356735245786519
 30
0.0
 10
22.66501737646271
 20
3.432802847284931
 30
0.0
 10
22.55800579838196
 20
3.488221765358629
 30
0.0
 10
22.4698580217296
 20
3.553073069674616
 30
0.0
  0
SPLINE
  5
59A
330
1F
100
AcDbEntity
  8
외형선
  6
Continuous
 62
     1
370
    15
100
AcDbSpline
210
0.0
220
0.0
230
1.0
 70
     8
 71
     3
 72
     8
 73
     4
 74
     0
 42
0.000000001
 43
0.00000001
 40
0.0
 40
0.0
 40
0.0
 40
0.0
 40
1.0
 40
1.0
 40
1.0
 40
1.0
 10
23.2500441984695
 20
3.315775818029261
 30
0.0
 10
23.19498234689865
 20
3.334551832515986
 30
0.0
 10
23.13966030968356
 20
3.344780225733173
 30
0.0
 10
23.0942153609167
 20
3.342587751394353
 30
0.0
  0
SPLINE
  5
59B
330
1F
100
AcDbEntity
  8
외형선
  6
Continuous
 62
     1
370
    15
100
AcDbSpline
210
0.0
220
0.0
230
1.0
 70
     8
 71
     3
 72
     8
 73
     4
 74
     0
 42
0.000000001
 43
0.00000001
 40
0.0
 40
0.0
 40
0.0
 40
0.0
 40
1.0
 40
1.0
 40
1.0
 40
1.0
 10
24.33724937374793
 20
2.942408548553056
 30
0.0
 10
23.97481231166821
 20
3.067753496138378
 30
0.0
 10
23.61223537592095
 20
3.192269224957885
 30
0.0
 10
23.24998683083592
 20
3.31579538030484
 30
0.0
  0
SPLINE
  5
59C
330
1F
100
AcDbEntity
  8
외형선
  6
Continuous
 62
     1
370
    15
100
AcDbSpline
210
0.0
220
0.0
230
1.0
 70
     8
 71
     3
 72
     8
 73
     4
 74
     0
 42
0.000000001
 43
0.00000001
 40
0.0
 40
0.0
 40
0.0
 40
0.0
 40
1.0
 40
1.0
 40
1.0
 40
1.0
 10
24.49240022829198
 20
2.86497619707839
 30
0.0
 10
24.44774788194044
 20
2.89585712073948
 30
0.0
 10
24.39280064813138
 20
2.923197039674202
 30
0.0
 10
24.33604919421096
 20
2.942823614490846
 30
0.0
  0
SPLINE
  5
59D
330
1F
100
AcDbEntity
  8
외형선
  6
Continuous
 62
     1
370
    15
100
AcDbSpline
210
0.0
220
0.0
230
1.0
 70
     8
 71
     3
 72
    10
 73
     6
 74
     0
 42
0.000000001
 43
0.00000001
 40
0.0
 40
0.0
 40
0.0
 40
0.0
 40
0.5
 40
0.5
 40
1.0
 40
1.0
 40
1.0
 40
1.0
 10
25.11686613315478
 20
2.648872722035632
 30
0.0
 10
25.02434955745817
 20
2.650250925930104
 30
0.0
 10
24.91199239667466
 20
2.672300040447572
 30
0.0
 10
24.68760992585572
 20
2.750184599273071
 30
0.0
 10
24.5805696292198
 20
2.803999501299279
 30
0.0
 10
24.49240022829232
 20
2.864976197078322
 30
0.0
  0
SPLINE
  5
59E
330
1F
100
AcDbEntity
  8
외형선
  6
Continuous
 62
     1
370
    15
100
AcDbSpline
210
0.0
220
0.0
230
1.0
 70
     8
 71
     3
 72
     8
 73
     4
 74
     0
 42
0.000000001
 43
0.00000001
 40
0.0
 40
0.0
 40
0.0
 40
0.0
 40
1.0
 40
1.0
 40
1.0
 40
1.0
 10
25.2727434451506
 20
2.61692847477436
 30
0.0
 10
25.21766826036204
 20
2.636205307591288
 30
0.0
 10
25.16232907589025
 20
2.648195468210998
 30
0.0
 10
25.11686613315484
 20
2.648872722035632
 30
0.0
  0
SPLINE
  5
59F
330
1F
100
AcDbEntity
  8
외형선
  6
Continuous
 62
     1
370
    15
100
AcDbSpline
210
0.0
220
0.0
230
1.0
 70
     8
 71
     3
 72
     8
 73
     4
 74
     0
 42
0.000000001
 43
0.00000001
 40
0.0
 40
0.0
 40
0.0
 40
0.0
 40
1.0
 40
1.0
 40
1.0
 40
1.0
 10
26.36134799880815
 20
2.233345760469367
 30
0.0
 10
25.9980813263175
 20
2.362037421450362
 30
0.0
 10
25.63533033068298
 20
2.490021738678022
 30
0.0
 10
25.27145824488354
 20
2.617378303270156
 30
0.0
  0
SPLINE
  5
5A0
330
1F
100
AcDbEntity
  8
외형선
  6
Continuous
 62
     1
370
    15
100
AcDbSpline
210
0.0
220
0.0
230
1.0
 70
     8
 71
     3
 72
     8
 73
     4
 74
     0
 42
0.000000001
 43
0.00000001
 40
0.0
 40
0.0
 40
0.0
 40
0.0
 40
1.0
 40
1.0
 40
1.0
 40
1.0
 10
26.51568935929944
 20
2.158731931367294
 30
0.0
 10
26.47100521064524
 20
2.187519052162505
 30
0.0
 10
26.41603260309298
 20
2.213973345037429
 30
0.0
 10
26.35925805621829
 20
2.234086143044633
 30
0.0
  0
SPLINE
  5
5A1
330
1F
100
AcDbEntity
  8
외형선
  6
Continuous
 62
     1
370
    15
100
AcDbSpline
210
0.0
220
0.0
230
1.0
 70
     8
 71
     3
 72
    10
 73
     6
 74
     0
 42
0.000000001
 43
0.00000001
 40
0.0
 40
0.0
 40
0.0
 40
0.0
 40
0.5
 40
0.5
 40
1.0
 40
1.0
 40
1.0
 40
1.0
 10
27.14042103092324
 20
1.937929669186834
 30
0.0
 10
27.04785228862482
 20
1.945141319661291
 30
0.0
 10
26.93543651455499
 20
1.970540485473377
 30
0.0
 10
26.71097627767667
 20
2.049917302389614
 30
0.0
 10
26.60390267644032
 20
2.101901769156202
 30
0.0
 10
26.51568935929978
 20
2.158731931367262
 30
0.0
  0
SPLINE
  5
5A2
330
1F
100
AcDbEntity
  8
외형선
  6
Continuous
 62
     1
370
    15
100
AcDbSpline
210
0.0
220
0.0
230
1.0
 70
     8
 71
     3
 72
     8
 73
     4
 74
     0
 42
0.000000001
 43
0.00000001
 40
0.0
 40
0.0
 40
0.0
 40
0.0
 40
1.0
 40
1.0
 40
1.0
 40
1.0
 10
27.29635163933337
 20
1.901081799938
 30
0.0
 10
27.24125759974074
 20
1.920720517264526
 30
0.0
 10
27.18590090472807
 20
1.934386519033106
 30
0.0
 10
27.1404210309233
 20
1.93792966918681
 30
0.0
  0
SPLINE
  5
5A3
330
1F
100
AcDbEntity
  8
외형선
  6
Continuous
 62
     1
370
    15
100
AcDbSpline
210
0.0
220
0.0
230
1.0
 70
     8
 71
     3
 72
     8
 73
     4
 74
     0
 42
0.000000001
 43
0.00000001
 40
0.0
 40
0.0
 40
0.0
 40
0.0
 40
1.0
 40
1.0
 40
1.0
 40
1.0
 10
28.3839135186341
 20
1.512027091578597
 30
0.0
 10
28.02122425899099
 20
1.642233812000983
 30
0.0
 10
27.65842259103643
 20
1.772018989587709
 30
0.0
 10
27.29597764414691
 20
1.901215113392118
 30
0.0
  0
SPLINE
  5
5A4
330
1F
100
AcDbEntity
  8
외형선
  6
Continuous
 62
     1
370
    15
100
AcDbSpline
210
0.0
220
0.0
230
1.0
 70
     8
 71
     3
 72
     8
 73
     4
 74
     0
 42
0.000000001
 43
0.00000001
 40
0.0
 40
0.0
 40
0.0
 40
0.0
 40
1.0
 40
1.0
 40
1.0
 40
1.0
 10
28.53974621897833
 20
1.440075094797711
 30
0.0
 10
28.49504251502591
 20
1.466537208582411
 30
0.0
 10
28.44005006693796
 20
1.491873960275555
 30
0.0
 10
28.38325453549364
 20
1.512263668336768
 30
0.0
  0
SPLINE
  5
5A5
330
1F
100
AcDbEntity
  8
외형선
  6
Continuous
 62
     1
370
    15
100
AcDbSpline
210
0.0
220
0.0
230
1.0
 70
     8
 71
     3
 72
    10
 73
     6
 74
     0
 42
0.000000001
 43
0.00000001
 40
0.0
 40
0.0
 40
0.0
 40
0.0
 40
0.5
 40
0.5
 40
1.0
 40
1.0
 40
1.0
 40
1.0
 10
29.16468723303708
 20
1.216267395595176
 30
0.0
 10
29.07209303827667
 20
1.229270246656585
 30
0.0
 10
28.95965437391143
 20
1.257827440296987
 30
0.0
 10
28.73512305905157
 20
1.338083357197604
 30
0.0
 10
28.62800630938508
 20
1.387830015564981
 30
0.0
 10
28.5397462189787
 20
1.440075094797672
 30
0.0
  0
SPLINE
  5
5A6
330
1F
100
AcDbEntity
  8
외형선
  6
Continuous
 62
     1
370
    15
100
AcDbSpline
210
0.0
220
0.0
230
1.0
 70
     8
 71
     3
 72
     8
 73
     4
 74
     0
 42
0.000000001
 43
0.00000001
 40
0.0
 40
0.0
 40
0.0
 40
0.0
 40
1.0
 40
1.0
 40
1.0
 40
1.0
 10
29.32066289177666
 20
1.174703443823603
 30
0.0
 10
29.26555639314389
 20
1.194607800820142
 30
0.0
 10
29.21018386848376
 20
1.209878377622298
 30
0.0
 10
29.16468723303711
 20
1.216267395595171
 30
0.0
  0
SPLINE
  5
5A7
330
1F
100
AcDbEntity
  8
외형선
  6
Continuous
 62
     1
370
    15
100
AcDbSpline
210
0.0
220
0.0
230
1.0
 70
     8
 71
     3
 72
     8
 73
     4
 74
     0
 42
0.000000001
 43
0.00000001
 40
0.0
 40
0.0
 40
0.0
 40
0.0
 40
1.0
 40
1.0
 40
1.0
 40
1.0
 10
30.40887371872531
 20
0.7803091279202654
 30
0.0
 10
30.04621626238829
 20
0.91204684389613
 30
0.0
 10
29.68383773951003
 20
1.043525618542327
 30
0.0
 10
29.32042511374933
 20
1.174789328704756
 30
0.0
  0
SPLINE
  5
5A8
330
1F
100
AcDbEntity
  8
외형선
  6
Continuous
 62
     1
370
    15
100
AcDbSpline
210
0.0
220
0.0
230
1.0
 70
     8
 71
     3
 72
     8
 73
     4
 74
     0
 42
0.000000001
 43
0.00000001
 40
0.0
 40
0.0
 40
0.0
 40
0.0
 40
1.0
 40
1.0
 40
1.0
 40
1.0
 10
30.56447645933604
 20
0.7118345124584042
 30
0.0
 10
30.51974992767529
 20
0.735871068801746
 30
0.0
 10
30.46474017852662
 20
0.7600152766017896
 30
0.0
 10
30.40792940531255
 20
0.7806521559270063
 30
0.0
  0
SPLINE
  5
5A9
330
1F
100
AcDbEntity
  8
외형선
  6
Continuous
 62
     1
370
    15
100
AcDbSpline
210
0.0
220
0.0
230
1.0
 70
     8
 71
     3
 72
    10
 73
     6
 74
     0
 42
0.000000001
 43
0.00000001
 40
0.0
 40
0.0
 40
0.0
 40
0.0
 40
0.5
 40
0.5
 40
1.0
 40
1.0
 40
1.0
 40
1.0
 10
31.1895951635939
 20
0.4859655391072089
 30
0.0
 10
31.09696247290653
 20
0.5046925261948267
 30
0.0
 10
30.98447998621273
 20
0.5362784919799299
 30
0.0
 10
30.75989913699961
 20
0.6170764258014039
 30
0.0
 10
30.65276382845703
 20
0.6643878573415414
 30
0.0
 10
30.56447645933641
 20
0.7118345124583705
 30
0.0
  0
SPLINE
  5
5AA
330
1F
100
AcDbEntity
  8
외형선
  6
Continuous
 62
     1
370
    15
100
AcDbSpline
210
0.0
220
0.0
230
1.0
 70
     8
 71
     3
 72
     8
 73
     4
 74
     0
 42
0.000000001
 43
0.00000001
 40
0.0
 40
0.0
 40
0.0
 40
0.0
 40
1.0
 40
1.0
 40
1.0
 40
1.0
 10
31.34560504165037
 20
0.4399600613298382
 30
0.0
 10
31.29048599618638
 20
0.4599912634322205
 30
0.0
 10
31.23510251464895
 20
0.4767655950132195
 30
0.0
 10
31.1895951635939
 20
0.4859655391072124
 30
0.0
  0
SPLINE
  5
5AB
330
1F
100
AcDbEntity
  8
외형선
  6
Continuous
 62
     1
370
    15
100
AcDbSpline
210
0.0
220
0.0
230
1.0
 70
     8
 71
     3
 72
     8
 73
     4
 74
     0
 42
0.000000001
 43
0.00000001
 40
0.0
 40
0.0
 40
0.0
 40
0.0
 40
1.0
 40
1.0
 40
1.0
 40
1.0
 10
32.43318610074092
 20
0.044613572408581
 30
0.0
 10
32.07057071349001
 20
0.1764615027127299
 30
0.0
 10
31.70786948313013
 20
0.3083069821304907
 30
0.0
 10
31.34555114326184
 20
0.4399796489241119
 30
0.0
  0
SPLINE
  5
5AC
330
1F
100
AcDbEntity
  8
외형선
  6
Continuous
 62
     1
370
    15
100
AcDbSpline
210
0.0
220
0.0
230
1.0
 70
     8
 71
     3
 72
     8
 73
     4
 74
     0
 42
0.000000001
 43
0.00000001
 40
0.0
 40
0.0
 40
0.0
 40
0.0
 40
1.0
 40
1.0
 40
1.0
 40
1.0
 10
32.58968177655444
 20
-0.0201407114792413
 30
0.0
 10
32.54494563232395
 20
0.0012602496258065
 30
0.0
 10
32.4899245248782
 20
0.0239833295790195
 30
0.0
 10
32.43310112180884
 20
0.044644470976289
 30
0.0
  0
SPLINE
  5
5AD
330
1F
100
AcDbEntity
  8
외형선
  6
Continuous
 62
     1
370
    15
100
AcDbSpline
210
0.0
220
0.0
230
1.0
 70
     8
 71
     3
 72
    10
 73
     6
 74
     0
 42
0.000000001
 43
0.00000001
 40
0.0
 40
0.0
 40
0.0
 40
0.0
 40
0.5
 40
0.5
 40
1.0
 40
1.0
 40
1.0
 40
1.0
 10
33.21491575723083
 20
-0.2462517445330388
 30
0.0
 10
33.12227393639008
 20
-0.2219290818480157
 30
0.0
 10
33.00978463800347
 20
-0.1875582294296709
 30
0.0
 10
32.7851617958297
 20
-0.1068700850102253
 30
0.0
 10
32.67799808453102
 20
-0.0623896335635088
 30
0.0
 10
32.58968177655478
 20
-0.0201407114792502
 30
0.0
  0
SPLINE
  5
5AE
330
1F
100
AcDbEntity
  8
외형선
  6
Continuous
 62
     1
370
    15
100
AcDbSpline
210
0.0
220
0.0
230
1.0
 70
     8
 71
     3
 72
     8
 73
     4
 74
     0
 42
0.000000001
 43
0.00000001
 40
0.0
 40
0.0
 40
0.0
 40
0.0
 40
1.0
 40
1.0
 40
1.0
 40
1.0
 10
33.37095045552959
 20
-0.2964351292547018
 30
0.0
 10
33.31582509934562
 20
-0.2763825728478757
 30
0.0
 10
33.26043257156183
 20
-0.2582019643303628
 30
0.0
 10
33.21491575723083
 20
-0.2462517445330583
 30
0.0
  0
SPLINE
  5
5AF
330
1F
100
AcDbEntity
  8
외형선
  6
Continuous
 62
     1
370
    15
100
AcDbSpline
210
0.0
220
0.0
230
1.0
 70
     8
 71
     3
 72
     8
 73
     4
 74
     0
 42
0.000000001
 43
0.00000001
 40
0.0
 40
0.0
 40
0.0
 40
0.0
 40
1.0
 40
1.0
 40
1.0
 40
1.0
 10
34.45854991126841
 20
-0.692133393853771
 30
0.0
 10
34.09626299383043
 20
-0.560413658206496
 30
0.0
 10
33.73399251885612
 20
-0.4284963340852475
 30
0.0
 10
33.37080486911437
 20
-0.296382170327897
 30
0.0
  0
SPLINE
  5
5B0
330
1F
100
AcDbEntity
  8
외형선
  6
Continuous
 62
     1
370
    15
100
AcDbSpline
210
0.0
220
0.0
230
1.0
 70
     8
 71
     3
 72
     8
 73
     4
 74
     0
 42
0.000000001
 43
0.00000001
 40
0.0
 40
0.0
 40
0.0
 40
0.0
 40
1.0
 40
1.0
 40
1.0
 40
1.0
 10
36.48298169350121
 20
-1.424054400674413
 30
0.0
 10
36.12069506221561
 20
-1.293807070347134
 30
0.0
 10
35.75834898667463
 20
-1.163143920673397
 30
0.0
 10
35.39641081825501
 20
-1.032233859178884
 30
0.0
  0
SPLINE
  5
5B5
330
1F
100
AcDbEntity
  8
외형선
  6
Continuous
 62
     1
370
    15
100
AcDbSpline
210
0.0
220
0.0
230
1.0
 70
     8
 71
     3
 72
    12
 73
     8
 74
     0
 42
0.000000001
 43
0.00000001
 40
0.0
 40
0.0
 40
0.0
 40
0.0
 40
0.4999999999999999
 40
0.4999999999999999
 40
0.7499999999999998
 40
0.7499999999999998
 40
1.0
 40
1.0
 40
1.0
 40
1.0
 10
31.34560289456987
 20
0.4400228725982842
 30
0.0
 10
31.32036596162637
 20
1.178311312851909
 30
0.0
 10
31.29614175983104
 20
1.90245297588668
 30
0.0
 10
31.26252776653217
 20
2.928853359557293
 30
0.0
 10
31.25209848859907
 20
3.258020655469826
 30
0.0
 10
31.23030283753851
 20
3.91090759307547
 30
0.0
 10
31.21893262983107
 20
4.234507762621485
 30
0.0
 10
31.20717077187393
 20
4.55172366442884
 30
0.0
  0
SPLINE
  5
5B6
330
1F
100
AcDbEntity
  8
외형선
  6
Continuous
 62
     1
370
    15
100
AcDbSpline
210
0.0
220
0.0
230
1.0
 70
     8
 71
     3
 72
     8
 73
     4
 74
     0
 42
0.000000001
 43
0.00000001
 40
0.0
 40
0.0
 40
0.0
 40
0.0
 40
1.0
 40
1.0
 40
1.0
 40
1.0
 10
32.29442539551388
 20
4.199883582384887
 30
0.0
 10
31.93124693172009
 20
4.318404344443943
 30
0.0
 10
31.56804241251128
 20
4.435716569853922
 30
0.0
 10
31.20528250407133
 20
4.551669638835252
 30
0.0
  0
SPLINE
  5
5B7
330
1F
100
AcDbEntity
  8
외형선
  6
Continuous
 62
     1
370
    15
100
AcDbSpline
210
0.0
220
0.0
230
1.0
 70
     8
 71
     3
 72
    12
 73
     8
 74
     0
 42
0.000000001
 43
0.00000001
 40
0.0
 40
0.0
 40
0.0
 40
0.0
 40
0.5000000000000003
 40
0.5000000000000003
 40
0.7500000000000001
 40
0.7500000000000001
 40
1.0
 40
1.0
 40
1.0
 40
1.0
 10
32.43310228520496
 20
0.0446106862353339
 30
0.0
 10
32.40761698309321
 20
0.784697023876328
 30
0.0
 10
32.38296175790062
 20
1.51607708038523
 30
0.0
 10
32.34850746450606
 20
2.559724867414603
 30
0.0
 10
32.33743920519773
 20
2.898812703321477
 30
0.0
 10
32.3162805906501
 20
3.554359484906202
 30
0.0
 10
32.30533006654181
 20
3.879341652618093
 30
0.0
 10
32.29389841163069
 20
4.199874532255498
 30
0.0
  0
SPLINE
  5
5BD
330
1F
100
AcDbEntity
  8
외형선
  6
Continuous
 62
     1
370
    15
100
AcDbSpline
210
0.0
220
0.0
230
1.0
 70
     8
 71
     3
 72
     8
 73
     4
 74
     0
 42
0.000000001
 43
0.00000001
 40
0.0
 40
0.0
 40
0.0
 40
0.0
 40
1.0
 40
1.0
 40
1.0
 40
1.0
 10
37.84999963641391
 20
2.304549739223317
 30
0.0
 10
37.65887967020276
 20
2.372087217429302
 30
0.0
 10
37.46757884689466
 20
2.439461366227922
 30
0.0
 10
37.27616596554656
 20
2.506647607540886
 30
0.0
  0
LINE
  5
5BE
330
1F
100
AcDbEntity
  8
외형선
  6
Continuous
 62
     1
370
    15
100
AcDbLine
 10
37.84999814033508
 20
-1.813864102587106
 30
0.0
 11
37.84999814033508
 21
2.304549794644116
 31
0.0
  0
LINE
  5
5BF
330
1F
100
AcDbEntity
  8
외형선
  6
Continuous
 62
     1
370
    15
100
AcDbLine
 10
37.84999814033508
 20
-1.813864102587106
 30
0.0
 11
37.75560673475265
 21
-1.879958668723706
 31
0.0
  0
SPLINE
  5
5C0
330
1F
100
AcDbEntity
  8
외형선
  6
Continuous
 62
     1
370
    15
100
AcDbSpline
210
0.0
220
0.0
230
1.0
 70
     8
 71
     3
 72
     8
 73
     4
 74
     0
 42
0.000000001
 43
0.00000001
 40
0.0
 40
0.0
 40
0.0
 40
0.0
 40
1.0
 40
1.0
 40
1.0
 40
1.0
 10
36.34149262974883
 20
2.832915347462505
 30
0.0
 10
35.97808186042763
 20
2.959070623454439
 30
0.0
 10
35.61467258864055
 20
3.084407574931161
 30
0.0
 10
35.25173626502393
 20
3.208764669399732
 30
0.0
  0
SPLINE
  5
5C1
330
1F
100
AcDbEntity
  8
외형선
  6
Continuous
 62
     1
370
    15
100
AcDbSpline
210
0.0
220
0.0
230
1.0
 70
     8
 71
     3
 72
    12
 73
     8
 74
     0
 42
0.000000001
 43
0.00000001
 40
0.0
 40
0.0
 40
0.0
 40
0.0
 40
0.5
 40
0.5
 40
0.75
 40
0.75
 40
1.0
 40
1.0
 40
1.0
 40
1.0
 10
33.37094844808288
 20
-0.2963771996736124
 30
0.0
 10
33.34531922633041
 20
0.4432144566624032
 30
0.0
 10
33.32035797743
 20
1.178838426039951
 30
0.0
 10
33.28525995467211
 20
2.234776015285492
 30
0.0
 10
33.27394689181866
 20
2.578930092469831
 30
0.0
 10
33.25225251893374
 20
3.246192840120267
 30
0.0
 10
33.241898418401
 20
3.569221308640648
 30
0.0
 10
33.23077727083884
 20
3.891621543839685
 30
0.0
  0
SPLINE
  5
5C2
330
1F
100
AcDbEntity
  8
외형선
  6
Continuous
 62
     1
370
    15
100
AcDbSpline
210
0.0
220
0.0
230
1.0
 70
     8
 71
     3
 72
     8
 73
     4
 74
     0
 42
0.000000001
 43
0.00000001
 40
0.0
 40
0.0
 40
0.0
 40
0.0
 40
1.0
 40
1.0
 40
1.0
 40
1.0
 10
34.31714884010665
 20
3.527183112926162
 30
0.0
 10
33.95565391378269
 20
3.649644536220181
 30
0.0
 10
33.59343975866536
 20
3.771173319657494
 30
0.0
 10
33.23070704329594
 20
3.89163844201776
 30
0.0
  0
SPLINE
  5
5C4
330
1F
100
AcDbEntity
  8
외형선
  6
Continuous
 62
     1
370
    15
100
AcDbSpline
210
0.0
220
0.0
230
1.0
 70
     8
 71
     3
 72
    12
 73
     8
 74
     0
 42
0.000000001
 43
0.00000001
 40
0.0
 40
0.0
 40
0.0
 40
0.0
 40
0.4999999999999999
 40
0.4999999999999999
 40
0.7499999999999999
 40
0.7499999999999999
 40
1.0
 40
1.0
 40
1.0
 40
1.0
 10
33.21491575721435
 20
-0.2462517440596166
 30
0.0
 10
33.18920521421042
 20
0.4921956887223491
 30
0.0
 10
33.16419151269999
 20
1.225983286912973
 30
0.0
 10
33.12906485555774
 20
2.278055194276336
 30
0.0
 10
33.11775043107186
 20
2.62073923624026
 30
0.0
 10
33.0960690448696
 20
3.284728600407851
 30
0.0
 10
33.08561059713318
 20
3.607118905540302
 30
0.0
 10
33.07438752874517
 20
3.928603712105319
 30
0.0
  0
SPLINE
  5
5C5
330
1F
100
AcDbEntity
  8
외형선
  6
Continuous
 62
     1
370
    15
100
AcDbSpline
210
0.0
220
0.0
230
1.0
 70
     8
 71
     3
 72
     8
 73
     4
 74
     0
 42
0.000000001
 43
0.00000001
 40
0.0
 40
0.0
 40
0.0
 40
0.0
 40
1.0
 40
1.0
 40
1.0
 40
1.0
 10
33.07438752874517
 20
3.928603712115398
 30
0.0
 10
33.11905509027437
 20
3.923398720585981
 30
0.0
 10
33.17401497665852
 20
3.910466150101856
 30
0.0
 10
33.23077749502558
 20
3.891615044675342
 30
0.0
  0
SPLINE
  5
5C6
330
1F
100
AcDbEntity
  8
외형선
  6
Continuous
 62
     1
370
    15
100
AcDbSpline
210
0.0
220
0.0
230
1.0
 70
     8
 71
     3
 72
    10
 73
     6
 74
     0
 42
0.000000001
 43
0.00000001
 40
0.0
 40
0.0
 40
0.0
 40
0.0
 40
0.5
 40
0.5
 40
1.0
 40
1.0
 40
1.0
 40
1.0
 10
29.32065973415697
 20
1.174797117168698
 30
0.0
 10
29.29614381125943
 20
1.90208247068197
 30
0.0
 10
29.27297260021108
 20
2.605355796683289
 30
0.0
 10
29.23057224695952
 20
3.919378233555703
 30
0.0
 10
29.20736718095551
 20
4.569605387975693
 30
0.0
 10
29.18283942001033
 20
5.184507464173693
 30
0.0
  0
SPLINE
  5
5C7
330
1F
100
AcDbEntity
  8
외형선
  6
Continuous
 62
     1
370
    15
100
AcDbSpline
210
0.0
220
0.0
230
1.0
 70
     8
 71
     3
 72
     8
 73
     4
 74
     0
 42
0.000000001
 43
0.00000001
 40
0.0
 40
0.0
 40
0.0
 40
0.0
 40
1.0
 40
1.0
 40
1.0
 40
1.0
 10
30.26954058949419
 20
4.848068618440115
 30
0.0
 10
29.9077939474873
 20
4.961605896418147
 30
0.0
 10
29.54567888626243
 20
5.073787305530756
 30
0.0
 10
29.18284541465274
 20
5.184547675778814
 30
0.0
  0
SPLINE
  5
5C8
330
1F
100
AcDbEntity
  8
외형선
  6
Continuous
 62
     1
370
    15
100
AcDbSpline
210
0.0
220
0.0
230
1.0
 70
     8
 71
     3
 72
    12
 73
     8
 74
     0
 42
0.000000001
 43
0.00000001
 40
0.0
 40
0.0
 40
0.0
 40
0.0
 40
0.5
 40
0.5
 40
0.75
 40
0.75
 40
1.0
 40
1.0
 40
1.0
 40
1.0
 10
30.40794212353872
 20
0.7802776990195
 30
0.0
 10
30.38299816236226
 20
1.514688677255192
 30
0.0
 10
30.35921705292989
 20
2.230378931411286
 30
0.0
 10
30.32641308310692
 20
3.23912207645054
 30
0.0
 10
30.31599125336074
 20
3.564506425192432
 30
0.0
 10
30.29359248135736
 20
4.214007893409926
 30
0.0
 10
30.28194205979516
 20
4.534814088334111
 30
0.0
 10
30.26992941171292
 20
4.848079665767044
 30
0.0
  0
SPLINE
  5
5CC
330
1F
100
AcDbEntity
  8
외형선
  6
Continuous
 62
     1
370
    15
100
AcDbSpline
210
0.0
220
0.0
230
1.0
 70
     8
 71
     3
 72
     8
 73
     4
 74
     0
 42
0.000000001
 43
0.00000001
 40
0.0
 40
0.0
 40
0.0
 40
0.0
 40
1.0
 40
1.0
 40
1.0
 40
1.0
 10
32.2938918793043
 20
4.20005769081043
 30
0.0
 10
32.34897730604737
 20
4.182081126176795
 30
0.0
 10
32.40432495085735
 20
4.158354048788189
 30
0.0
 10
32.44979425830459
 20
4.133000294157769
 30
0.0
  0
SPLINE
  5
5CD
330
1F
100
AcDbEntity
  8
외형선
  6
Continuous
 62
     1
370
    15
100
AcDbSpline
210
0.0
220
0.0
230
1.0
 70
     8
 71
     3
 72
    12
 73
     8
 74
     0
 42
0.000000001
 43
0.00000001
 40
0.0
 40
0.0
 40
0.0
 40
0.0
 40
0.5000000000000001
 40
0.5000000000000001
 40
0.75
 40
0.75
 40
1.0
 40
1.0
 40
1.0
 40
1.0
 10
32.58968177655199
 20
-0.0201407113987724
 30
0.0
 10
32.5640666898038
 20
0.7186616550889067
 30
0.0
 10
32.53925745014427
 20
1.449636652593751
 30
0.0
 10
32.50456163351637
 20
2.493530141122809
 30
0.0
 10
32.49341113725577
 20
2.832840044578321
 30
0.0
 10
32.47208858728734
 20
3.489023860153969
 30
0.0
 10
32.46122501828207
 20
3.812768831520502
 30
0.0
 10
32.44979425873802
 20
4.133000282021415
 30
0.0
  0
SPLINE
  5
5D1
330
1F
100
AcDbEntity
  8
외형선
  6
Continuous
 62
     1
370
    15
100
AcDbSpline
210
0.0
220
0.0
230
1.0
 70
     8
 71
     3
 72
    12
 73
     8
 74
     0
 42
0.000000001
 43
0.00000001
 40
0.0
 40
0.0
 40
0.0
 40
0.0
 40
0.5000000000000003
 40
0.5000000000000003
 40
0.7500000000000003
 40
0.7500000000000003
 40
1.0
 40
1.0
 40
1.0
 40
1.0
 10
31.18959516356889
 20
0.485965539835135
 30
0.0
 10
31.16430627032494
 20
1.222302980583532
 30
0.0
 10
31.1400596054357
 20
1.943804743335674
 30
0.0
 10
31.10645706310853
 20
2.965293066732711
 30
0.0
 10
31.09603281322276
 20
3.292769526135837
 30
0.0
 10
31.07405021236345
 20
3.943814406207176
 30
0.0
 10
31.06258676018555
 20
4.266295922777234
 30
0.0
 10
31.05073426118005
 20
4.582165986143158
 30
0.0
  0
SPLINE
  5
5D2
330
1F
100
AcDbEntity
  8
외형선
  6
Continuous
 62
     1
370
    15
100
AcDbSpline
210
0.0
220
0.0
230
1.0
 70
     8
 71
     3
 72
     8
 73
     4
 74
     0
 42
0.000000001
 43
0.00000001
 40
0.0
 40
0.0
 40
0.0
 40
0.0
 40
1.0
 40
1.0
 40
1.0
 40
1.0
 10
31.05073427121194
 20
4.58216571880247
 30
0.0
 10
31.09542711229101
 20
4.580073191909298
 30
0.0
 10
31.15040906233977
 20
4.569210118345771
 30
0.0
 10
31.20719544634411
 20
4.551058172098175
 30
0.0
  0
SPLINE
  5
5D3
330
1F
100
AcDbEntity
  8
외형선
  6
Continuous
 62
     1
370
    15
100
AcDbSpline
210
0.0
220
0.0
230
1.0
 70
     8
 71
     3
 72
    10
 73
     6
 74
     0
 42
0.000000001
 43
0.00000001
 40
0.0
 40
0.0
 40
0.0
 40
0.0
 40
0.5
 40
0.5
 40
1.0
 40
1.0
 40
1.0
 40
1.0
 10
32.44979425830481
 20
4.133000294157648
 30
0.0
 10
32.54233383599108
 20
4.081400085621715
 30
0.0
 10
32.65472068211826
 20
4.035714268101406
 30
0.0
 10
32.87914156737659
 20
3.963798926435286
 30
0.0
 10
32.98619826178579
 20
3.938880171626087
 30
0.0
 10
33.07438752874483
 20
3.928603712115274
 30
0.0
  0
SPLINE
  5
5D6
330
1F
100
AcDbEntity
  8
외형선
  6
Continuous
 62
     1
370
    15
100
AcDbSpline
210
0.0
220
0.0
230
1.0
 70
     8
 71
     3
 72
     8
 73
     4
 74
     0
 42
0.000000001
 43
0.00000001
 40
0.0
 40
0.0
 40
0.0
 40
0.0
 40
1.0
 40
1.0
 40
1.0
 40
1.0
 10
37.84999963641166
 20
2.304549739224663
 30
0.0
 10
38.03249968099001
 20
2.221461906806882
 30
0.0
 10
38.21575979977461
 20
2.149112596230582
 30
0.0
 10
38.39999963641164
 20
2.088304726388921
 30
0.0
  0
LINE
  5
5D7
330
1F
100
AcDbEntity
  8
외형선
  6
Continuous
 62
     1
370
    15
100
AcDbLine
 10
38.4
 20
2.088304841890929
 30
0.0
 11
38.4
 21
-1.428749994374815
 31
0.0
  0
SPLINE
  5
5D8
330
1F
100
AcDbEntity
  8
외형선
  6
Continuous
 62
     1
370
    15
100
AcDbSpline
210
0.0
220
0.0
230
1.0
 70
    24
 71
     3
 72
     8
 73
     4
 74
     0
 42
0.000000001
 43
0.00000001
 40
0.0000003033323757
 40
0.0000003033323757
 40
0.0000003033323757
 40
0.0000003033323757
 40
0.0008316029042958
 40
0.0008316029042958
 40
0.0008316029042958
 40
0.0008316029042958
 10
38.39999963641164
 20
-1.428750000000033
 30
0.0
 10
38.21729763595871
 20
-1.556679317963198
 30
0.0
 10
38.03393145824449
 20
-1.685073697851379
 30
0.0
 10
37.84999963641166
 20
-1.813864146015375
 30
0.0
  0
SPLINE
  5
5D9
330
1F
100
AcDbEntity
  8
외형선
  6
Continuous
 62
     1
370
    15
100
AcDbSpline
210
0.0
220
0.0
230
1.0
 70
     8
 71
     3
 72
     8
 73
     4
 74
     0
 42
0.000000001
 43
0.00000001
 40
0.0
 40
0.0
 40
0.0
 40
0.0
 40
1.0
 40
1.0
 40
1.0
 40
1.0
 10
30.26993457711418
 20
4.84794496157591
 30
0.0
 10
30.32503217340368
 20
4.830651975066869
 30
0.0
 10
30.38039784635927
 20
4.806300897915014
 30
0.0
 10
30.42589132725421
 20
4.778888867936084
 30
0.0
  0
SPLINE
  5
5DA
330
1F
100
AcDbEntity
  8
외형선
  6
Continuous
 62
     1
370
    15
100
AcDbSpline
210
0.0
220
0.0
230
1.0
 70
     8
 71
     3
 72
    12
 73
     8
 74
     0
 42
0.000000001
 43
0.00000001
 40
0.0
 40
0.0
 40
0.0
 40
0.0
 40
0.5000000000000001
 40
0.5000000000000001
 40
0.7500000000000002
 40
0.7500000000000002
 40
1.0
 40
1.0
 40
1.0
 40
1.0
 10
30.56447645933567
 20
0.7118345124799621
 30
0.0
 10
30.53938262936801
 20
1.445624726178529
 30
0.0
 10
30.51543211243867
 20
2.161518230885635
 30
0.0
 10
30.4823716796483
 20
3.171261079152162
 30
0.0
 10
30.47195012882602
 20
3.496245607335807
 30
0.0
 10
30.44956314075986
 20
4.14503760970671
 30
0.0
 10
30.43791185169911
 20
4.465655862478554
 30
0.0
 10
30.4258913272749
 20
4.778888867403071
 30
0.0
  0
SPLINE
  5
5E0
330
1F
100
AcDbEntity
  8
외형선
  6
Continuous
 62
     1
370
    15
100
AcDbSpline
210
0.0
220
0.0
230
1.0
 70
     8
 71
     3
 72
    12
 73
     8
 74
     0
 42
0.000000001
 43
0.00000001
 40
0.0
 40
0.0
 40
0.0
 40
0.0
 40
0.2500000000000001
 40
0.2500000000000001
 40
0.5000000000000001
 40
0.5000000000000001
 40
1.0
 40
1.0
 40
1.0
 40
1.0
 10
27.29634681849725
 20
1.901226890959526
 30
0.0
 10
27.28459465539819
 20
2.254928165238892
 30
0.0
 10
27.27323480510855
 20
2.600661689936365
 30
0.0
 10
27.25146063748868
 20
3.270731588028733
 30
0.0
 10
27.24102501087204
 20
3.595469868027747
 30
0.0
 10
27.20739567652949
 20
4.567467868043982
 30
0.0
 10
27.18316475592464
 20
5.199283502004773
 30
0.0
 10
27.15792553922298
 20
5.786285182119775
 30
0.0
  0
SPLINE
  5
5E1
330
1F
100
AcDbEntity
  8
외형선
  6
Continuous
 62
     1
370
    15
100
AcDbSpline
210
0.0
220
0.0
230
1.0
 70
     8
 71
     3
 72
     8
 73
     4
 74
     0
 42
0.000000001
 43
0.00000001
 40
0.0
 40
0.0
 40
0.0
 40
0.0
 40
1.0
 40
1.0
 40
1.0
 40
1.0
 10
28.24524641443056
 20
5.467234224202459
 30
0.0
 10
27.88267921853198
 20
5.57518460797567
 30
0.0
 10
27.52005950619192
 20
5.68156858392649
 30
0.0
 10
27.15785568519978
 20
5.786250316854099
 30
0.0
  0
SPLINE
  5
5E2
330
1F
100
AcDbEntity
  8
외형선
  6
Continuous
 62
     1
370
    15
100
AcDbSpline
210
0.0
220
0.0
230
1.0
 70
     8
 71
     3
 72
    12
 73
     8
 74
     0
 42
0.000000001
 43
0.00000001
 40
0.0
 40
0.0
 40
0.0
 40
0.0
 40
0.2500000000000002
 40
0.2500000000000002
 40
0.5000000000000003
 40
0.5000000000000003
 40
1.0
 40
1.0
 40
1.0
 40
1.0
 10
28.38326316864654
 20
1.51200586205425
 30
0.0
 10
28.37122055686043
 20
1.871625673731961
 30
0.0
 10
28.35953600503731
 20
2.224403386179544
 30
0.0
 10
28.33706266378649
 20
2.910335131755732
 30
0.0
 10
28.32660108321598
 20
3.240351381168908
 30
0.0
 10
28.29391272387104
 20
4.221307526697304
 30
0.0
 10
28.27019711907362
 20
4.864187142255615
 30
0.0
 10
28.24529941388695
 20
5.46724107512461
 30
0.0
  0
SPLINE
  5
5E3
330
1F
100
AcDbEntity
  8
외형선
  6
Continuous
 62
     1
370
    15
100
AcDbSpline
210
0.0
220
0.0
230
1.0
 70
     8
 71
     3
 72
    10
 73
     6
 74
     0
 42
0.000000001
 43
0.00000001
 40
0.0
 40
0.0
 40
0.0
 40
0.0
 40
0.5
 40
0.5
 40
1.0
 40
1.0
 40
1.0
 40
1.0
 10
30.42589132725441
 20
4.778888867935974
 30
0.0
 10
30.51847317262047
 20
4.723103813225739
 30
0.0
 10
30.63089098498795
 20
4.676116493370047
 30
0.0
 10
30.85538958365839
 20
4.607118193189551
 30
0.0
 10
30.96249018616108
 20
4.586297322805718
 30
0.0
 10
31.0507342712116
 20
4.582165718802363
 30
0.0
  0
SPLINE
  5
5E5
330
1F
100
AcDbEntity
  8
외형선
  6
Continuous
 62
     1
370
    15
100
AcDbSpline
210
0.0
220
0.0
230
1.0
 70
     8
 71
     3
 72
    12
 73
     8
 74
     0
 42
0.000000001
 43
0.00000001
 40
0.0
 40
0.0
 40
0.0
 40
0.0
 40
0.2500000000000001
 40
0.2500000000000001
 40
0.5
 40
0.5
 40
1.0
 40
1.0
 40
1.0
 40
1.0
 10
29.16468723300519
 20
1.21626739653818
 30
0.0
 10
29.1524131336113
 20
1.578689448680597
 30
0.0
 10
29.14047182759204
 20
1.935144050639993
 30
0.0
 10
29.11744934420451
 20
2.629830556074774
 30
0.0
 10
29.10647036760812
 20
2.967061249767559
 30
0.0
 10
29.07440005673927
 20
3.950099953669463
 30
0.0
 10
29.0510126712746
 20
4.597952027616829
 30
0.0
 10
29.02631883723173
 20
5.209549702166528
 30
0.0
  0
SPLINE
  5
5E6
330
1F
100
AcDbEntity
  8
외형선
  6
Continuous
 62
     1
370
    15
100
AcDbSpline
210
0.0
220
0.0
230
1.0
 70
     8
 71
     3
 72
     8
 73
     4
 74
     0
 42
0.000000001
 43
0.00000001
 40
0.0
 40
0.0
 40
0.0
 40
0.0
 40
1.0
 40
1.0
 40
1.0
 40
1.0
 10
29.0263188372319
 20
5.209549702171008
 30
0.0
 10
29.07103355282313
 20
5.210603650778873
 30
0.0
 10
29.12603483273735
 20
5.201889956204971
 30
0.0
 10
29.18283772234198
 20
5.184550023972983
 30
0.0
  0
SPLINE
  5
5E9
330
1F
100
AcDbEntity
  8
외형선
  6
Continuous
 62
     1
370
    15
100
AcDbSpline
210
0.0
220
0.0
230
1.0
 70
     8
 71
     3
 72
     8
 73
     4
 74
     0
 42
0.000000001
 43
0.00000001
 40
0.0
 40
0.0
 40
0.0
 40
0.0
 40
1.0
 40
1.0
 40
1.0
 40
1.0
 10
28.24530035985841
 20
5.467218162536513
 30
0.0
 10
28.30041406869204
 20
5.450808639743792
 30
0.0
 10
28.35579193886323
 20
5.426066096421481
 30
0.0
 10
28.40129205135303
 20
5.396833197508689
 30
0.0
  0
SPLINE
  5
5EA
330
1F
100
AcDbEntity
  8
외형선
  6
Continuous
 62
     1
370
    15
100
AcDbSpline
210
0.0
220
0.0
230
1.0
 70
     8
 71
     3
 72
    12
 73
     8
 74
     0
 42
0.000000001
 43
0.00000001
 40
0.0
 40
0.0
 40
0.0
 40
0.0
 40
0.2499999999999999
 40
0.2499999999999999
 40
0.4999999999999999
 40
0.4999999999999999
 40
1.0
 40
1.0
 40
1.0
 40
1.0
 10
28.53974621897859
 20
1.44007509480017
 30
0.0
 10
28.52761682284787
 20
1.799804639606021
 30
0.0
 10
28.5158420719189
 20
2.152873579889183
 30
0.0
 10
28.493186313746
 20
2.839649029846234
 30
0.0
 10
28.4826210646257
 20
3.170326203709676
 30
0.0
 10
28.44995836117069
 20
4.150267241111878
 30
0.0
 10
28.42623108130768
 20
4.79317729982831
 30
0.0
 10
28.40129205135323
 20
5.396833197508938
 30
0.0
  0
SPLINE
  5
5ED
330
1F
100
AcDbEntity
  8
외형선
  6
Continuous
 62
     1
370
    15
100
AcDbSpline
210
0.0
220
0.0
230
1.0
 70
     8
 71
     3
 72
    10
 73
     6
 74
     0
 42
0.000000001
 43
0.00000001
 40
0.0
 40
0.0
 40
0.0
 40
0.0
 40
0.5
 40
0.5
 40
1.0
 40
1.0
 40
1.0
 40
1.0
 10
28.40129205135323
 20
5.396833197508551
 30
0.0
 10
28.49390292428094
 20
5.337332591062163
 30
0.0
 10
28.60636431824653
 20
5.289453440054002
 30
0.0
 10
28.83092062168409
 20
5.223995862525959
 30
0.0
 10
28.93804672530495
 20
5.207469083558896
 30
0.0
 10
29.02631883723156
 20
5.209549702170859
 30
0.0
  0
SPLINE
  5
5EF
330
1F
100
AcDbEntity
  8
외형선
  6
Continuous
 62
     1
370
    15
100
AcDbSpline
210
0.0
220
0.0
230
1.0
 70
     8
 71
     3
 72
     8
 73
     4
 74
     0
 42
0.000000001
 43
0.00000001
 40
0.0
 40
0.0
 40
0.0
 40
0.0
 40
1.0
 40
1.0
 40
1.0
 40
1.0
 10
36.91629660266491
 20
9.393100276114614
 30
0.0
 10
36.86123495862071
 20
9.39642126643538
 30
0.0
 10
36.80591210542357
 20
9.381586299659494
 30
0.0
 10
36.76046714374049
 20
9.348415595749215
 30
0.0
  0
SPLINE
  5
5F0
330
1F
100
AcDbEntity
  8
외형선
  6
Continuous
 62
     1
370
    15
100
AcDbSpline
210
0.0
220
0.0
230
1.0
 70
     8
 71
     3
 72
     8
 73
     4
 74
     0
 42
0.000000001
 43
0.00000001
 40
0.0
 40
0.0
 40
0.0
 40
0.0
 40
1.0
 40
1.0
 40
1.0
 40
1.0
 10
37.75560692296866
 20
9.337632490558429
 30
0.0
 10
37.47541366714773
 20
9.35776932173057
 30
0.0
 10
37.1948561408987
 20
9.376307469286152
 30
0.0
 10
36.91415132141105
 20
9.393229635072016
 30
0.0
  0
SPLINE
  5
5F1
330
1F
100
AcDbEntity
  8
외형선
  6
Continuous
 62
     1
370
    15
100
AcDbSpline
210
0.0
220
0.0
230
1.0
 70
     8
 71
     3
 72
    18
 73
    14
 74
     0
 42
0.000000001
 43
0.00000001
 40
0.0
 40
0.0
 40
0.0
 40
0.0
 40
0.2500000000000004
 40
0.2500000000000004
 40
0.3750000000000004
 40
0.3750000000000004
 40
0.5000000000000003
 40
0.5000000000000003
 40
0.6250000000000002
 40
0.6250000000000002
 40
0.7500000000000001
 40
0.7500000000000001
 40
1.0
 40
1.0
 40
1.0
 40
1.0
 10
37.75560692296866
 20
9.33763249055846
 30
0.0
 10
37.78041353707021
 20
8.862344441692054
 30
0.0
 10
37.75915930996717
 20
8.392114858464188
 30
0.0
 10
37.64553882098988
 20
7.69574719056707
 30
0.0
 10
37.59342710707593
 20
7.4644615205719
 30
0.0
 10
37.46320704719809
 20
7.020880799343457
 30
0.0
 10
37.38489907751508
 20
6.806632108457999
 30
0.0
 10
37.20133442592779
 20
6.393533970139407
 30
0.0
 10
37.09519007283196
 20
6.193308671287079
 30
0.0
 10
36.85864470473495
 20
5.815655841363087
 30
0.0
 10
36.72968126265524
 20
5.640010709714469
 30
0.0
 10
36.31295503698524
 20
5.149861802888621
 30
0.0
 10
35.99147073940141
 20
4.87036972133504
 30
0.0
 10
35.65072333173449
 20
4.647515600714025
 30
0.0
  0
SPLINE
  5
5F2
330
1F
100
AcDbEntity
  8
외형선
  6
Continuous
 62
     1
370
    15
100
AcDbSpline
210
0.0
220
0.0
230
1.0
 70
     8
 71
     3
 72
     8
 73
     4
 74
     0
 42
0.000000001
 43
0.00000001
 40
0.0
 40
0.0
 40
0.0
 40
0.0
 40
1.0
 40
1.0
 40
1.0
 40
1.0
 10
38.39999963641164
 20
3.38117660161271
 30
0.0
 10
37.48308542740363
 20
3.812691717480481
 30
0.0
 10
36.56666556157128
 20
4.234697590088958
 30
0.0
 10
35.65072333173443
 20
4.647515600714021
 30
0.0
  0
LINE
  5
5F3
330
1F
100
AcDbEntity
  8
외형선
  6
Continuous
 62
     1
370
    15
100
AcDbLine
 10
38.4
 20
2.113519236445425
 30
0.0
 11
38.4
 21
3.38117661885917
 31
0.0
  0
SPLINE
  5
5F4
330
1F
100
AcDbEntity
  8
외형선
  6
Continuous
 62
     1
370
    15
100
AcDbSpline
210
0.0
220
0.0
230
1.0
 70
     8
 71
     3
 72
     8
 73
     4
 74
     0
 42
0.000000001
 43
0.00000001
 40
0.0
 40
0.0
 40
0.0
 40
0.0
 40
1.0
 40
1.0
 40
1.0
 40
1.0
 10
27.00136401147423
 20
5.804987689787721
 30
0.0
 10
27.04609428268198
 20
5.809169561792396
 30
0.0
 10
27.10110934343069
 20
5.802650799098897
 30
0.0
 10
27.15792793614835
 20
5.786229435346888
 30
0.0
  0
SPLINE
  5
5F5
330
1F
100
AcDbEntity
  8
외형선
  6
Continuous
 62
     1
370
    15
100
AcDbSpline
210
0.0
220
0.0
230
1.0
 70
     8
 71
     3
 72
    10
 73
     6
 74
     0
 42
0.000000001
 43
0.00000001
 40
0.0
 40
0.0
 40
0.0
 40
0.0
 40
0.5
 40
0.5
 40
1.0
 40
1.0
 40
1.0
 40
1.0
 10
26.37617950910393
 20
5.982198253514644
 30
0.0
 10
26.46881669236782
 20
5.919217472871599
 30
0.0
 10
26.58129332409097
 20
5.870622816618242
 30
0.0
 10
26.80589893262796
 20
5.808920862450281
 30
0.0
 10
26.91305453329985
 20
5.796731559776207
 30
0.0
 10
27.00136401147389
 20
5.804987689787561
 30
0.0
  0
SPLINE
  5
5F6
330
1F
100
AcDbEntity
  8
외형선
  6
Continuous
 62
     1
370
    15
100
AcDbSpline
210
0.0
220
0.0
230
1.0
 70
     8
 71
     3
 72
     8
 73
     4
 74
     0
 42
0.000000001
 43
0.00000001
 40
0.0
 40
0.0
 40
0.0
 40
0.0
 40
1.0
 40
1.0
 40
1.0
 40
1.0
 10
26.22015322351771
 20
6.053720091477347
 30
0.0
 10
26.27527309992987
 20
6.038206148782207
 30
0.0
 10
26.33066236207659
 20
6.013143769682324
 30
0.0
 10
26.37617950910367
 20
5.982198253514801
 30
0.0
  0
SPLINE
  5
5F7
330
1F
100
AcDbEntity
  8
외형선
  6
Continuous
 62
     1
370
    15
100
AcDbSpline
210
0.0
220
0.0
230
1.0
 70
     8
 71
     3
 72
     8
 73
     4
 74
     0
 42
0.000000001
 43
0.00000001
 40
0.0
 40
0.0
 40
0.0
 40
0.0
 40
1.0
 40
1.0
 40
1.0
 40
1.0
 10
26.2201228106833
 20
6.053728651414035
 30
0.0
 10
25.85691453718257
 20
6.155956518860419
 30
0.0
 10
25.49364128530774
 20
6.256436331890947
 30
0.0
 10
25.1294864403284
 20
6.355151109445481
 30
0.0
  0
SPLINE
  5
5F8
330
1F
100
AcDbEntity
  8
외형선
  6
Continuous
 62
     1
370
    15
100
AcDbSpline
210
0.0
220
0.0
230
1.0
 70
     8
 71
     3
 72
     8
 73
     4
 74
     0
 42
0.000000001
 43
0.00000001
 40
0.0
 40
0.0
 40
0.0
 40
0.0
 40
1.0
 40
1.0
 40
1.0
 40
1.0
 10
24.97594264320306
 20
6.366707428963361
 30
0.0
 10
25.0206853333241
 20
6.374007153063387
 30
0.0
 10
25.07571122559747
 20
6.369730087959541
 30
0.0
 10
25.13253805788221
 20
6.354323834367998
 30
0.0
  0
SPLINE
  5
5F9
330
1F
100
AcDbEntity
  8
외형선
  6
Continuous
 62
     1
370
    15
100
AcDbSpline
210
0.0
220
0.0
230
1.0
 70
     8
 71
     3
 72
    10
 73
     6
 74
     0
 42
0.000000001
 43
0.00000001
 40
0.0
 40
0.0
 40
0.0
 40
0.0
 40
0.5
 40
0.5
 40
1.0
 40
1.0
 40
1.0
 40
1.0
 10
24.35066673379006
 20
6.532314679669307
 30
0.0
 10
24.44331852438105
 20
6.466343355491682
 30
0.0
 10
24.55582319714895
 20
6.417427568579813
 30
0.0
 10
24.78045691856502
 20
6.360020984248886
 30
0.0
 10
24.88762259245092
 20
6.352298103076537
 30
0.0
 10
24.97594264320249
 20
6.366707428963144
 30
0.0
  0
SPLINE
  5
5FA
330
1F
100
AcDbEntity
  8
외형선
  6
Continuous
 62
     1
370
    15
100
AcDbSpline
210
0.0
220
0.0
230
1.0
 70
     8
 71
     3
 72
     8
 73
     4
 74
     0
 42
0.000000001
 43
0.00000001
 40
0.0
 40
0.0
 40
0.0
 40
0.0
 40
1.0
 40
1.0
 40
1.0
 40
1.0
 10
24.19462545939836
 20
6.604330307674998
 30
0.0
 10
24.24975486650683
 20
6.589885973913203
 30
0.0
 10
24.30514948389335
 20
6.564724557873808
 30
0.0
 10
24.3506667337896
 20
6.53231467966855
 30
0.0
  0
SPLINE
  5
5FB
330
1F
100
AcDbEntity
  8
외형선
  6
Continuous
 62
     1
370
    15
100
AcDbSpline
210
0.0
220
0.0
230
1.0
 70
     8
 71
     3
 72
     8
 73
     4
 74
     0
 42
0.000000001
 43
0.00000001
 40
0.0
 40
0.0
 40
0.0
 40
0.0
 40
1.0
 40
1.0
 40
1.0
 40
1.0
 10
24.19435137736226
 20
6.604402118934646
 30
0.0
 10
23.83180188976362
 20
6.699391943343647
 30
0.0
 10
23.46917408395031
 20
6.792490239783918
 30
0.0
 10
23.10693640705491
 20
6.883578385935914
 30
0.0
  0
SPLINE
  5
5FC
330
1F
100
AcDbEntity
  8
외형선
  6
Continuous
 62
     1
370
    15
100
AcDbSpline
210
0.0
220
0.0
230
1.0
 70
     8
 71
     3
 72
     8
 73
     4
 74
     0
 42
0.000000001
 43
0.00000001
 40
0.0
 40
0.0
 40
0.0
 40
0.0
 40
1.0
 40
1.0
 40
1.0
 40
1.0
 10
22.95028840442799
 20
6.889523282500972
 30
0.0
 10
22.99503648564828
 20
6.899889138338301
 30
0.0
 10
23.05006747973581
 20
6.897878605118754
 30
0.0
 10
23.10690146347965
 20
6.883587172829314
 30
0.0
  0
SPLINE
  5
5FD
330
1F
100
AcDbEntity
  8
외형선
  6
Continuous
 62
     1
370
    15
100
AcDbSpline
210
0.0
220
0.0
230
1.0
 70
     8
 71
     3
 72
    10
 73
     6
 74
     0
 42
0.000000001
 43
0.00000001
 40
0.0
 40
0.0
 40
0.0
 40
0.0
 40
0.5
 40
0.5
 40
1.0
 40
1.0
 40
1.0
 40
1.0
 10
22.32495100055822
 20
7.042913208159261
 30
0.0
 10
22.41761245654683
 20
6.974251514807181
 30
0.0
 10
22.53011593833732
 20
6.925219936767197
 30
0.0
 10
22.75476918698185
 20
6.872311675662887
 30
0.0
 10
22.86194924691821
 20
6.869059590056915
 30
0.0
 10
22.95028840442759
 20
6.889523282500816
 30
0.0
  0
SPLINE
  5
5FE
330
1F
100
AcDbEntity
  8
외형선
  6
Continuous
 62
     1
370
    15
100
AcDbSpline
210
0.0
220
0.0
230
1.0
 70
     8
 71
     3
 72
     8
 73
     4
 74
     0
 42
0.000000001
 43
0.00000001
 40
0.0
 40
0.0
 40
0.0
 40
0.0
 40
1.0
 40
1.0
 40
1.0
 40
1.0
 10
22.16889583679028
 20
7.115178875266766
 30
0.0
 10
22.22402510937658
 20
7.101819503446157
 30
0.0
 10
22.2794241714636
 20
7.076648369615873
 30
0.0
 10
22.32495100055799
 20
7.042913208159414
 30
0.0
  0
SPLINE
  5
5FF
330
1F
100
AcDbEntity
  8
외형선
  6
Continuous
 62
     1
370
    15
100
AcDbSpline
210
0.0
220
0.0
230
1.0
 70
     8
 71
     3
 72
     8
 73
     4
 74
     0
 42
0.000000001
 43
0.00000001
 40
0.0
 40
0.0
 40
0.0
 40
0.0
 40
1.0
 40
1.0
 40
1.0
 40
1.0
 10
22.16885746927189
 20
7.115188172785002
 30
0.0
 10
21.80666028731709
 20
7.20295859161086
 30
0.0
 10
21.4446663226233
 20
7.288663499486455
 30
0.0
 10
21.08167146630117
 20
7.37231900173086
 30
0.0
  0
SPLINE
  5
600
330
1F
100
AcDbEntity
  8
외형선
  6
Continuous
 62
     1
370
    15
100
AcDbSpline
210
0.0
220
0.0
230
1.0
 70
     8
 71
     3
 72
     8
 73
     4
 74
     0
 42
0.000000001
 43
0.00000001
 40
0.0
 40
0.0
 40
0.0
 40
0.0
 40
1.0
 40
1.0
 40
1.0
 40
1.0
 10
20.92447594652841
 20
7.371900996783216
 30
0.0
 10
20.96922668424613
 20
7.385280071455439
 30
0.0
 10
21.02425974451941
 20
7.385549692359531
 30
0.0
 10
21.08109344005555
 20
7.372452211330833
 30
0.0
  0
SPLINE
  5
601
330
1F
100
AcDbEntity
  8
외형선
  6
Continuous
 62
     1
370
    15
100
AcDbSpline
210
0.0
220
0.0
230
1.0
 70
     8
 71
     3
 72
    10
 73
     6
 74
     0
 42
0.000000001
 43
0.00000001
 40
0.0
 40
0.0
 40
0.0
 40
0.0
 40
0.5
 40
0.5
 40
1.0
 40
1.0
 40
1.0
 40
1.0
 10
20.29914201458575
 20
7.511802118437705
 30
0.0
 10
20.39180325217963
 20
7.440950050653539
 30
0.0
 10
20.50431878792843
 20
7.392175187499769
 30
0.0
 10
20.72896982540086
 20
7.344213174865329
 30
0.0
 10
20.83614415359195
 20
7.34549254601979
 30
0.0
 10
20.92447594652804
 20
7.371900996783024
 30
0.0
  0
SPLINE
  5
602
330
1F
100
AcDbEntity
  8
외형선
  6
Continuous
 62
     1
370
    15
100
AcDbSpline
210
0.0
220
0.0
230
1.0
 70
     8
 71
     3
 72
     8
 73
     4
 74
     0
 42
0.000000001
 43
0.00000001
 40
0.0
 40
0.0
 40
0.0
 40
0.0
 40
1.0
 40
1.0
 40
1.0
 40
1.0
 10
20.14309222139999
 20
7.583713288728644
 30
0.0
 10
20.1982243201867
 20
7.571584127242586
 30
0.0
 10
20.25362175839145
 20
7.546608520350459
 30
0.0
 10
20.29914201458555
 20
7.511802118437872
 30
0.0
  0
SPLINE
  5
603
330
1F
100
AcDbEntity
  8
외형선
  6
Continuous
 62
     1
370
    15
100
AcDbSpline
210
0.0
220
0.0
230
1.0
 70
     8
 71
     3
 72
     8
 73
     4
 74
     0
 42
0.000000001
 43
0.00000001
 40
0.0
 40
0.0
 40
0.0
 40
0.0
 40
1.0
 40
1.0
 40
1.0
 40
1.0
 10
20.14213567379741
 20
7.583923725838206
 30
0.0
 10
19.77979898529795
 20
7.663634595655223
 30
0.0
 10
19.41735886050466
 20
7.74117561697796
 30
0.0
 10
19.05528302681389
 20
7.816448300687485
 30
0.0
  0
SPLINE
  5
604
330
1F
100
AcDbEntity
  8
외형선
  6
Continuous
 62
     1
370
    15
100
AcDbSpline
210
0.0
220
0.0
230
1.0
 70
     8
 71
     3
 72
     8
 73
     4
 74
     0
 42
0.000000001
 43
0.00000001
 40
0.0
 40
0.0
 40
0.0
 40
0.0
 40
1.0
 40
1.0
 40
1.0
 40
1.0
 10
18.89874325946149
 20
7.809390658091102
 30
0.0
 10
18.94348905137857
 20
7.825697751595809
 30
0.0
 10
18.99851837822356
 20
7.828249262010045
 30
0.0
 10
19.05535051942481
 20
7.816434269487194
 30
0.0
  0
SPLINE
  5
605
330
1F
100
AcDbEntity
  8
외형선
  6
Continuous
 62
     1
370
    15
100
AcDbSpline
210
0.0
220
0.0
230
1.0
 70
     8
 71
     3
 72
    10
 73
     6
 74
     0
 42
0.000000001
 43
0.00000001
 40
0.0
 40
0.0
 40
0.0
 40
0.0
 40
0.5
 40
0.5
 40
1.0
 40
1.0
 40
1.0
 40
1.0
 10
18.2734457037728
 20
7.935244434645947
 30
0.0
 10
18.3660996946659
 20
7.862556151000119
 30
0.0
 10
18.47859735006818
 20
7.814263296031589
 30
0.0
 10
18.70323760383419
 20
7.771426169430052
 30
0.0
 10
18.81041093701932
 20
7.77719895067329
 30
0.0
 10
18.89874325946112
 20
7.809390658090871
 30
0.0
  0
SPLINE
  5
606
330
1F
100
AcDbEntity
  8
외형선
  6
Continuous
 62
     1
370
    15
100
AcDbSpline
210
0.0
220
0.0
230
1.0
 70
     8
 71
     3
 72
     8
 73
     4
 74
     0
 42
0.000000001
 43
0.00000001
 40
0.0
 40
0.0
 40
0.0
 40
0.0
 40
1.0
 40
1.0
 40
1.0
 40
1.0
 10
18.11740308906095
 20
8.006517102401814
 30
0.0
 10
18.17252863540721
 20
7.995634527686237
 30
0.0
 10
18.22792345073909
 20
7.970957245382001
 30
0.0
 10
18.27344570377257
 20
7.935244434646124
 30
0.0
  0
SPLINE
  5
607
330
1F
100
AcDbEntity
  8
외형선
  6
Continuous
 62
     1
370
    15
100
AcDbSpline
210
0.0
220
0.0
230
1.0
 70
     8
 71
     3
 72
     8
 73
     4
 74
     0
 42
0.000000001
 43
0.00000001
 40
0.0
 40
0.0
 40
0.0
 40
0.0
 40
1.0
 40
1.0
 40
1.0
 40
1.0
 10
18.11734859706703
 20
8.00652785988523
 30
0.0
 10
17.75543893949909
 20
8.077973804052514
 30
0.0
 10
17.39396531068351
 20
8.14709009319231
 30
0.0
 10
17.03140224709087
 20
8.213909866688615
 30
0.0
  0
SPLINE
  5
608
330
1F
100
AcDbEntity
  8
외형선
  6
Continuous
 62
     1
370
    15
100
AcDbSpline
210
0.0
220
0.0
230
1.0
 70
     8
 71
     3
 72
     8
 73
     4
 74
     0
 42
0.000000001
 43
0.00000001
 40
0.0
 40
0.0
 40
0.0
 40
0.0
 40
1.0
 40
1.0
 40
1.0
 40
1.0
 10
16.87316509810247
 20
8.200728931158315
 30
0.0
 10
16.91790374313759
 20
8.219870829548155
 30
0.0
 10
16.97292633107397
 20
8.224685706688936
 30
0.0
 10
17.02974961992236
 20
8.214214426309288
 30
0.0
  0
SPLINE
  5
609
330
1F
100
AcDbEntity
  8
외형선
  6
Continuous
 62
     1
370
    15
100
AcDbSpline
210
0.0
220
0.0
230
1.0
 70
     8
 71
     3
 72
    10
 73
     6
 74
     0
 42
0.000000001
 43
0.00000001
 40
0.0
 40
0.0
 40
0.0
 40
0.0
 40
0.5
 40
0.5
 40
1.0
 40
1.0
 40
1.0
 40
1.0
 10
16.24796582058494
 20
8.31153747052016
 30
0.0
 10
16.34060479495856
 20
8.237513210711692
 30
0.0
 10
16.45309850154602
 20
8.190047284143008
 30
0.0
 10
16.6777062692215
 20
8.152686234431206
 30
0.0
 10
16.78485808371382
 20
8.162945849099541
 30
0.0
 10
16.87316509810213
 20
8.200728931158066
 30
0.0
  0
SPLINE
  5
60A
330
1F
100
AcDbEntity
  8
외형선
  6
Continuous
 62
     1
370
    15
100
AcDbSpline
210
0.0
220
0.0
230
1.0
 70
     8
 71
     3
 72
     8
 73
     4
 74
     0
 42
0.000000001
 43
0.00000001
 40
0.0
 40
0.0
 40
0.0
 40
0.0
 40
1.0
 40
1.0
 40
1.0
 40
1.0
 10
16.09194880361508
 20
8.381616114156158
 30
0.0
 10
16.14707051451997
 20
8.372094546699335
 30
0.0
 10
16.20245676996669
 20
8.34790201157186
 30
0.0
 10
16.24796582058473
 20
8.311537470520326
 30
0.0
  0
SPLINE
  5
60B
330
1F
100
AcDbEntity
  8
외형선
  6
Continuous
 62
     1
370
    15
100
AcDbSpline
210
0.0
220
0.0
230
1.0
 70
     8
 71
     3
 72
     8
 73
     4
 74
     0
 42
0.000000001
 43
0.00000001
 40
0.0
 40
0.0
 40
0.0
 40
0.0
 40
1.0
 40
1.0
 40
1.0
 40
1.0
 10
16.09328837391843
 20
8.381384709564683
 30
0.0
 10
15.73010506306544
 20
8.444125940582195
 30
0.0
 10
15.3667910436054
 20
8.504456928209
 30
0.0
 10
15.00381743734987
 20
8.562300842670096
 30
0.0
  0
SPLINE
  5
60C
330
1F
100
AcDbEntity
  8
외형선
  6
Continuous
 62
     1
370
    15
100
AcDbSpline
210
0.0
220
0.0
230
1.0
 70
     8
 71
     3
 72
     8
 73
     4
 74
     0
 42
0.000000001
 43
0.00000001
 40
0.0
 40
0.0
 40
0.0
 40
0.0
 40
1.0
 40
1.0
 40
1.0
 40
1.0
 10
14.84797704122519
 20
8.542328947474614
 30
0.0
 10
14.89270050549083
 20
8.564187542867478
 30
0.0
 10
14.94771061401304
 20
8.571242584828296
 30
0.0
 10
15.00452372911683
 20
8.562188284089567
 30
0.0
  0
SPLINE
  5
60D
330
1F
100
AcDbEntity
  8
외형선
  6
Continuous
 62
     1
370
    15
100
AcDbSpline
210
0.0
220
0.0
230
1.0
 70
     8
 71
     3
 72
    10
 73
     6
 74
     0
 42
0.000000001
 43
0.00000001
 40
0.0
 40
0.0
 40
0.0
 40
0.0
 40
0.5000000000000003
 40
0.5000000000000003
 40
1.0
 40
1.0
 40
1.0
 40
1.0
 10
14.22291098565784
 20
8.637624498844472
 30
0.0
 10
14.31552596389817
 20
8.56265993421759
 30
0.0
 10
14.42798528892384
 20
8.51625658088558
 30
0.0
 10
14.65255228393314
 20
8.48451405370747
 30
0.0
 10
14.75968789149312
 20
8.499177621134342
 30
0.0
 10
14.84797704122484
 20
8.54232894747438
 30
0.0
  0
SPLINE
  5
60E
330
1F
100
AcDbEntity
  8
외형선
  6
Continuous
 62
     1
370
    15
100
AcDbSpline
210
0.0
220
0.0
230
1.0
 70
     8
 71
     3
 72
     8
 73
     4
 74
     0
 42
0.000000001
 43
0.00000001
 40
0.0
 40
0.0
 40
0.0
 40
0.0
 40
1.0
 40
1.0
 40
1.0
 40
1.0
 10
14.06692200132959
 20
8.706197586105729
 30
0.0
 10
14.12203081429426
 20
8.698052136220388
 30
0.0
 10
14.17740745382037
 20
8.674456040761187
 30
0.0
 10
14.22291098565763
 20
8.63762449884465
 30
0.0
  0
SPLINE
  5
60F
330
1F
100
AcDbEntity
  8
외형선
  6
Continuous
 62
     1
370
    15
100
AcDbSpline
210
0.0
220
0.0
230
1.0
 70
     8
 71
     3
 72
     8
 73
     4
 74
     0
 42
0.000000001
 43
0.00000001
 40
0.0
 40
0.0
 40
0.0
 40
0.0
 40
0.9809819935018473
 40
0.9809819935018473
 40
0.9809819935018473
 40
0.9809819935018473
 10
14.06797687060656
 20
8.706041662511415
 30
0.0
 10
13.71193085144722
 20
8.75867228277792
 30
0.0
 10
13.35650409336364
 20
8.808851955716342
 30
0.0
 10
13.00000000000001
 20
8.856615026908873
 30
0.0
  0
SPLINE
  5
625
330
1F
100
AcDbEntity
  8
외형선
  6
Continuous
 62
     1
370
    15
100
AcDbSpline
210
0.0
220
0.0
230
1.0
 70
     8
 71
     3
 72
    10
 73
     6
 74
     0
 42
0.000000001
 43
0.00000001
 40
0.0
 40
0.0
 40
0.0
 40
0.0
 40
0.3923487760328349
 40
0.7838600051319279
 40
1.0
 40
1.0
 40
1.0
 40
1.0
 10
18.53600520789623
 20
8.148899301886557
 30
0.0
 10
18.48689378816598
 20
8.116240246677679
 30
0.0
 10
18.38877578685335
 20
8.050991853545204
 30
0.0
 10
18.24206768317764
 20
8.00433537874415
 30
0.0
 10
18.15896569976439
 20
8.003632836175454
 30
0.0
 10
18.12940653562546
 20
8.003382943570612
 30
0.0
  0
SPLINE
  5
626
330
1F
100
AcDbEntity
  8
외형선
  6
Continuous
 62
     1
370
    15
100
AcDbSpline
210
0.0
220
0.0
230
1.0
 70
     8
 71
     3
 72
     8
 73
     4
 74
     0
 42
0.000000001
 43
0.00000001
 40
0.0
 40
0.0
 40
0.0
 40
0.0
 40
1.0
 40
1.0
 40
1.0
 40
1.0
 10
18.69202995889847
 20
8.219568781274054
 30
0.0
 10
18.63690669353408
 20
8.209430543320869
 30
0.0
 10
18.58151846273969
 20
8.185000998557518
 30
0.0
 10
18.53600504393065
 20
8.148899510252077
 30
0.0
  0
SPLINE
  5
627
330
1F
100
AcDbEntity
  8
외형선
  6
Continuous
 62
     1
370
    15
100
AcDbSpline
210
0.0
220
0.0
230
1.0
 70
     8
 71
     3
 72
     8
 73
     4
 74
     0
 42
0.000000001
 43
0.00000001
 40
0.0
 40
0.0
 40
0.0
 40
0.0
 40
1.0
 40
1.0
 40
1.0
 40
1.0
 10
19.78083235326735
 20
8.412524324653463
 30
0.0
 10
19.41766409717919
 20
8.350595431433424
 30
0.0
 10
19.05454828671153
 20
8.286243269115213
 30
0.0
 10
18.69195520773169
 20
8.219555033049575
 30
0.0
  0
SPLINE
  5
628
330
1F
100
AcDbEntity
  8
외형선
  6
Continuous
 62
     1
370
    15
100
AcDbSpline
210
0.0
220
0.0
230
1.0
 70
     8
 71
     3
 72
     8
 73
     4
 74
     0
 42
0.000000001
 43
0.00000001
 40
0.0
 40
0.0
 40
0.0
 40
0.0
 40
1.0
 40
1.0
 40
1.0
 40
1.0
 10
19.93622470281445
 20
8.395291618158124
 30
0.0
 10
19.89148329130469
 20
8.415950463166245
 30
0.0
 10
19.83645746932162
 20
8.422010571207165
 30
0.0
 10
19.77962985181218
 20
8.412319260445242
 30
0.0
  0
SPLINE
  5
629
330
1F
100
AcDbEntity
  8
외형선
  6
Continuous
 62
     1
370
    15
100
AcDbSpline
210
0.0
220
0.0
230
1.0
 70
     8
 71
     3
 72
    10
 73
     6
 74
     0
 42
0.000000001
 43
0.00000001
 40
0.0
 40
0.0
 40
0.0
 40
0.0
 40
0.5
 40
0.5
 40
1.0
 40
1.0
 40
1.0
 40
1.0
 10
20.56150200328025
 20
8.497574352574366
 30
0.0
 10
20.46885345468794
 20
8.422979951214538
 30
0.0
 10
20.35635479801493
 20
8.376077064503965
 30
0.0
 10
20.13171840865098
 20
8.341805903492803
 30
0.0
 10
20.02454834330947
 20
8.354509167672516
 30
0.0
 10
19.93622470281465
 20
8.395291618157964
 30
0.0
  0
SPLINE
  5
62A
330
1F
100
AcDbEntity
  8
외형선
  6
Continuous
 62
     1
370
    15
100
AcDbSpline
210
0.0
220
0.0
230
1.0
 70
     8
 71
     3
 72
     8
 73
     4
 74
     0
 42
0.000000001
 43
0.00000001
 40
0.0
 40
0.0
 40
0.0
 40
0.0
 40
1.0
 40
1.0
 40
1.0
 40
1.0
 10
20.71754456966712
 20
8.566864128365735
 30
0.0
 10
20.66241591099034
 20
8.558098205587575
 30
0.0
 10
20.6070206568774
 20
8.53422292146581
 30
0.0
 10
20.56150200328059
 20
8.49757435257464
 30
0.0
  0
SPLINE
  5
62B
330
1F
100
AcDbEntity
  8
외형선
  6
Continuous
 62
     1
370
    15
100
AcDbSpline
210
0.0
220
0.0
230
1.0
 70
     8
 71
     3
 72
     8
 73
     4
 74
     0
 42
0.000000001
 43
0.00000001
 40
0.0
 40
0.0
 40
0.0
 40
0.0
 40
1.0
 40
1.0
 40
1.0
 40
1.0
 10
21.80542170563668
 20
8.73255111804171
 30
0.0
 10
21.44352657571934
 20
8.679865302532603
 30
0.0
 10
21.0808095699796
 20
8.624625464618054
 30
0.0
 10
20.7177391841684
 20
8.566895073483428
 30
0.0
  0
SPLINE
  5
62C
330
1F
100
AcDbEntity
  8
외형선
  6
Continuous
 62
     1
370
    15
100
AcDbSpline
210
0.0
220
0.0
230
1.0
 70
     8
 71
     3
 72
    17
 73
    13
 74
     0
 42
0.000000001
 43
0.00000001
 40
0.0
 40
0.0
 40
0.0
 40
0.0
 40
0.0000451207238803
 40
0.0000451207238803
 40
0.0000451207238803
 40
0.000090237000634
 40
0.000090237000634
 40
0.000090237000634
 40
0.0001347627553607
 40
0.0001347627553607
 40
0.0001347627553607
 40
0.0001803708057399
 40
0.0001803708057399
 40
0.0001803708057399
 40
0.0001803708057399
 10
21.96190780346961
 20
8.709273914153647
 30
0.0
 10
21.95077969121692
 20
8.715064291377578
 30
0.0
 10
21.93893255392998
 20
8.719959008284063
 30
0.0
 10
21.92658828492633
 20
8.723880181823423
 30
0.0
 10
21.91424479570306
 20
8.727801107664488
 30
0.0
 10
21.90133135737718
 20
8.730771974455932
 30
0.0
 10
21.88807700442722
 20
8.732742195254568
 30
0.0
 10
21.87499524129847
 20
8.734686761081084
 30
0.0
 10
21.86150601779612
 20
8.735667919513089
 30
0.0
 10
21.84783820427648
 20
8.735661277287084
 30
0.0
 10
21.83384092062888
 20
8.735654474946584
 30
0.0
 10
21.81957173543079
 20
8.73461114647293
 30
0.0
 10
21.80528992392598
 20
8.732531932744005
 30
0.0
  0
SPLINE
  5
62D
330
1F
100
AcDbEntity
  8
외형선
  6
Continuous
 62
     1
370
    15
100
AcDbSpline
210
0.0
220
0.0
230
1.0
 70
     8
 71
     3
 72
    10
 73
     6
 74
     0
 42
0.000000001
 43
0.00000001
 40
0.0
 40
0.0
 40
0.0
 40
0.0
 40
0.5
 40
0.5
 40
1.0
 40
1.0
 40
1.0
 40
1.0
 10
22.58725305924403
 20
8.795844771173423
 30
0.0
 10
22.49457885209366
 20
8.720536565122002
 30
0.0
 10
22.3820542940638
 20
8.674853024064403
 30
0.0
 10
22.15740600234997
 20
8.646286126000488
 30
0.0
 10
22.05023811931127
 20
8.663312313711378
 30
0.0
 10
21.96190780346981
 20
8.709273914153462
 30
0.0
  0
SPLINE
  5
62E
330
1F
100
AcDbEntity
  8
외형선
  6
Continuous
 62
     1
370
    15
100
AcDbSpline
210
0.0
220
0.0
230
1.0
 70
     8
 71
     3
 72
     8
 73
     4
 74
     0
 42
0.000000001
 43
0.00000001
 40
0.0
 40
0.0
 40
0.0
 40
0.0
 40
1.0
 40
1.0
 40
1.0
 40
1.0
 10
22.74330647728473
 20
8.86337860138124
 30
0.0
 10
22.68817432061288
 20
8.856029300451196
 30
0.0
 10
22.63277653325175
 20
8.832837708757188
 30
0.0
 10
22.58725305924437
 20
8.795844771173693
 30
0.0
  0
SPLINE
  5
62F
330
1F
100
AcDbEntity
  8
외형선
  6
Continuous
 62
     1
370
    15
100
AcDbSpline
210
0.0
220
0.0
230
1.0
 70
     8
 71
     3
 72
     8
 73
     4
 74
     0
 42
0.000000001
 43
0.00000001
 40
0.0
 40
0.0
 40
0.0
 40
0.0
 40
1.0
 40
1.0
 40
1.0
 40
1.0
 10
23.8294608689338
 20
9.00039687692085
 30
0.0
 10
23.4676999441319
 20
8.957345628765472
 30
0.0
 10
23.10601772537481
 20
8.911721715983946
 30
0.0
 10
22.74487894054217
 20
8.863588199683411
 30
0.0
  0
SPLINE
  5
630
330
1F
100
AcDbEntity
  8
외형선
  6
Continuous
 62
     1
370
    15
100
AcDbSpline
210
0.0
220
0.0
230
1.0
 70
     8
 71
     3
 72
     8
 73
     4
 74
     0
 42
0.000000001
 43
0.00000001
 40
0.0
 40
0.0
 40
0.0
 40
0.0
 40
1.0
 40
1.0
 40
1.0
 40
1.0
 10
23.98770145502348
 20
8.9711065691285
 30
0.0
 10
23.94295255118501
 20
8.996918183471932
 30
0.0
 10
23.88791994253173
 20
9.00735254949724
 30
0.0
 10
23.83108586097247
 20
9.000590241242657
 30
0.0
  0
SPLINE
  5
631
330
1F
100
AcDbEntity
  8
외형선
  6
Continuous
 62
     1
370
    15
100
AcDbSpline
210
0.0
220
0.0
230
1.0
 70
     8
 71
     3
 72
    10
 73
     6
 74
     0
 42
0.000000001
 43
0.00000001
 40
0.0
 40
0.0
 40
0.0
 40
0.0
 40
0.5
 40
0.5
 40
1.0
 40
1.0
 40
1.0
 40
1.0
 10
24.61303205937454
 20
9.041077492319934
 30
0.0
 10
24.52037522893786
 20
8.965566329128164
 30
0.0
 10
24.40786655966595
 20
8.921412732215986
 30
0.0
 10
24.1832141069947
 20
8.898828996905783
 30
0.0
 10
24.07603592918482
 20
8.920154362823551
 30
0.0
 10
23.9877014550237
 20
8.97110656912833
 30
0.0
  0
SPLINE
  5
632
330
1F
100
AcDbEntity
  8
외형선
  6
Continuous
 62
     1
370
    15
100
AcDbSpline
210
0.0
220
0.0
230
1.0
 70
     8
 71
     3
 72
     8
 73
     4
 74
     0
 42
0.000000001
 43
0.00000001
 40
0.0
 40
0.0
 40
0.0
 40
0.0
 40
1.0
 40
1.0
 40
1.0
 40
1.0
 10
24.76908211415809
 20
9.106411947387508
 30
0.0
 10
24.71395096727147
 20
9.100532332879391
 30
0.0
 10
24.65855320484732
 20
9.07817518526131
 30
0.0
 10
24.61303205937488
 20
9.041077492320218
 30
0.0
  0
SPLINE
  5
633
330
1F
100
AcDbEntity
  8
외형선
  6
Continuous
 62
     1
370
    15
100
AcDbSpline
210
0.0
220
0.0
230
1.0
 70
     8
 71
     3
 72
     8
 73
     4
 74
     0
 42
0.000000001
 43
0.00000001
 40
0.0
 40
0.0
 40
0.0
 40
0.0
 40
1.0
 40
1.0
 40
1.0
 40
1.0
 10
25.85628707005511
 20
9.21456783720558
 30
0.0
 10
25.49433009784391
 20
9.18115965762559
 30
0.0
 10
25.13157706692257
 20
9.145074025749794
 30
0.0
 10
24.76849664036367
 20
9.106349505650067
 30
0.0
  0
SPLINE
  5
634
330
1F
100
AcDbEntity
  8
외형선
  6
Continuous
 62
     1
370
    15
100
AcDbSpline
210
0.0
220
0.0
230
1.0
 70
     8
 71
     3
 72
    17
 73
    13
 74
     0
 42
0.000000001
 43
0.00000001
 40
0.0
 40
0.0
 40
0.0
 40
0.0
 40
0.0000451207540598
 40
0.0000451207540598
 40
0.0000451207540598
 40
0.0000902370659314
 40
0.0000902370659314
 40
0.0000902370659314
 40
0.000134757531757
 40
0.000134757531757
 40
0.000134757531757
 40
0.0001803601689432
 40
0.0001803601689432
 40
0.0001803601689432
 40
0.0001803601689432
 10
26.01344766678456
 20
9.179190356076523
 30
0.0
 10
26.00231963554963
 20
9.186191481066873
 30
0.0
 10
25.99047239631025
 20
9.192267664919553
 30
0.0
 10
25.97812796604475
 20
9.197321274166738
 30
0.0
 10
25.96578431445143
 20
9.202374564638186
 30
0.0
 10
25.95287061287674
 20
9.206435546315978
 30
0.0
 10
25.93961595888131
 20
9.20943523505978
 30
0.0
 10
25.92653545340263
 20
9.212395511884912
 30
0.0
 10
25.91304753202038
 20
9.21433941774753
 30
0.0
 10
25.8993810490372
 20
9.215225656152763
 30
0.0
 10
25.88538512599856
 20
9.216133257949712
 30
0.0
 10
25.87111733981188
 20
9.215936546703817
 30
0.0
 10
25.85683694068782
 20
9.214618587580658
 30
0.0
  0
SPLINE
  5
635
330
1F
100
AcDbEntity
  8
외형선
  6
Continuous
 62
     1
370
    15
100
AcDbSpline
210
0.0
220
0.0
230
1.0
 70
     8
 71
     3
 72
    10
 73
     6
 74
     0
 42
0.000000001
 43
0.00000001
 40
0.0
 40
0.0
 40
0.0
 40
0.0
 40
0.5
 40
0.5
 40
1.0
 40
1.0
 40
1.0
 40
1.0
 10
26.6387509764489
 20
9.232439317984115
 30
0.0
 10
26.54608350949368
 20
9.157128044166887
 30
0.0
 10
26.43356523478857
 20
9.114740025043046
 30
0.0
 10
26.20893162151989
 20
9.098190373161279
 30
0.0
 10
26.10177339016391
 20
9.123620829338892
 30
0.0
 10
26.01344766678479
 20
9.179190356076338
 30
0.0
  0
SPLINE
  5
636
330
1F
100
AcDbEntity
  8
외형선
  6
Continuous
 62
     1
370
    15
100
AcDbSpline
210
0.0
220
0.0
230
1.0
 70
     8
 71
     3
 72
     8
 73
     4
 74
     0
 42
0.000000001
 43
0.00000001
 40
0.0
 40
0.0
 40
0.0
 40
0.0
 40
1.0
 40
1.0
 40
1.0
 40
1.0
 10
26.79479151433375
 20
9.295214094370001
 30
0.0
 10
26.73966357382536
 20
9.290832228146185
 30
0.0
 10
26.68427026127059
 20
9.269433048748544
 30
0.0
 10
26.63875097644924
 20
9.232439317984406
 30
0.0
  0
SPLINE
  5
637
330
1F
100
AcDbEntity
  8
외형선
  6
Continuous
 62
     1
370
    15
100
AcDbSpline
210
0.0
220
0.0
230
1.0
 70
     8
 71
     3
 72
     8
 73
     4
 74
     0
 42
0.000000001
 43
0.00000001
 40
0.0
 40
0.0
 40
0.0
 40
0.0
 40
1.0
 40
1.0
 40
1.0
 40
1.0
 10
27.88222255633553
 20
9.373542416523657
 30
0.0
 10
27.51988929320347
 20
9.350141086364685
 30
0.0
 10
27.15765996030574
 20
9.324050817381389
 30
0.0
 10
26.79600138083728
 20
9.295310251037323
 30
0.0
  0
SPLINE
  5
638
330
1F
100
AcDbEntity
  8
외형선
  6
Continuous
 62
     1
370
    15
100
AcDbSpline
210
0.0
220
0.0
230
1.0
 70
     8
 71
     3
 72
     8
 73
     4
 74
     0
 42
0.000000001
 43
0.00000001
 40
0.0
 40
0.0
 40
0.0
 40
0.0
 40
1.0
 40
1.0
 40
1.0
 40
1.0
 10
28.03899638180663
 20
9.332315120631916
 30
0.0
 10
27.9942601100966
 20
9.362662664910898
 30
0.0
 10
27.9392383392541
 20
9.377224636669196
 30
0.0
 10
27.88241504929893
 20
9.37355484844756
 30
0.0
  0
SPLINE
  5
639
330
1F
100
AcDbEntity
  8
외형선
  6
Continuous
 62
     1
370
    15
100
AcDbSpline
210
0.0
220
0.0
230
1.0
 70
     8
 71
     3
 72
    10
 73
     6
 74
     0
 42
0.000000001
 43
0.00000001
 40
0.0
 40
0.0
 40
0.0
 40
0.0
 40
0.5
 40
0.5
 40
1.0
 40
1.0
 40
1.0
 40
1.0
 10
28.66418769894491
 20
9.368288086375982
 30
0.0
 10
28.57155428498842
 20
9.29367730978248
 30
0.0
 10
28.45906827425934
 20
9.253324214516054
 30
0.0
 10
28.23446031995606
 20
9.242967271148805
 30
0.0
 10
28.12730518405382
 20
9.272409473961025
 30
0.0
 10
28.03899638180686
 20
9.332315120631739
 30
0.0
  0
SPLINE
  5
63A
330
1F
100
AcDbEntity
  8
외형선
  6
Continuous
 62
     1
370
    15
100
AcDbSpline
210
0.0
220
0.0
230
1.0
 70
     8
 71
     3
 72
     8
 73
     4
 74
     0
 42
0.000000001
 43
0.00000001
 40
0.0
 40
0.0
 40
0.0
 40
0.0
 40
1.0
 40
1.0
 40
1.0
 40
1.0
 10
28.82020394320673
 20
9.428103041480709
 30
0.0
 10
28.76508338788178
 20
9.425250598926153
 30
0.0
 10
28.70969712196008
 20
9.404943254834619
 30
0.0
 10
28.66418769894525
 20
9.368288086376252
 30
0.0
  0
SPLINE
  5
63B
330
1F
100
AcDbEntity
  8
외형선
  6
Continuous
 62
     1
370
    15
100
AcDbSpline
210
0.0
220
0.0
230
1.0
 70
     8
 71
     3
 72
     8
 73
     4
 74
     0
 42
0.000000001
 43
0.00000001
 40
0.0
 40
0.0
 40
0.0
 40
0.0
 40
1.0
 40
1.0
 40
1.0
 40
1.0
 10
29.90730862212026
 20
9.476254734736854
 30
0.0
 10
29.54584715664591
 20
9.462944576632841
 30
0.0
 10
29.1836177473487
 20
9.44690501132517
 30
0.0
 10
28.82108705829918
 20
9.428148736606238
 30
0.0
  0
SPLINE
  5
63C
330
1F
100
AcDbEntity
  8
외형선
  6
Continuous
 62
     1
370
    15
100
AcDbSpline
210
0.0
220
0.0
230
1.0
 70
     8
 71
     3
 72
     8
 73
     4
 74
     0
 42
0.000000001
 43
0.00000001
 40
0.0
 40
0.0
 40
0.0
 40
0.0
 40
1.0
 40
1.0
 40
1.0
 40
1.0
 10
30.06418234522575
 20
9.429519450463468
 30
0.0
 10
30.01945706704242
 20
9.461864007708774
 30
0.0
 10
29.96444772560888
 20
9.4783585227252
 30
0.0
 10
29.90763362305434
 20
9.476266701574955
 30
0.0
  0
SPLINE
  5
63D
330
1F
100
AcDbEntity
  8
외형선
  6
Continuous
 62
     1
370
    15
100
AcDbSpline
210
0.0
220
0.0
230
1.0
 70
     8
 71
     3
 72
    10
 73
     6
 74
     0
 42
0.000000001
 43
0.00000001
 40
0.0
 40
0.0
 40
0.0
 40
0.0
 40
0.5
 40
0.5
 40
1.0
 40
1.0
 40
1.0
 40
1.0
 10
30.68925161942266
 20
9.448169481848316
 30
0.0
 10
30.59662284820424
 20
9.37466728826176
 30
0.0
 10
30.48414404527491
 20
9.336581977321257
 30
0.0
 10
30.25958625834797
 20
9.332440936167044
 30
0.0
 10
30.15246696126669
 20
9.365673524101085
 30
0.0
 10
30.06418234522598
 20
9.42951945046328
 30
0.0
  0
SPLINE
  5
63E
330
1F
100
AcDbEntity
  8
외형선
  6
Continuous
 62
     1
370
    15
100
AcDbSpline
210
0.0
220
0.0
230
1.0
 70
     8
 71
     3
 72
     8
 73
     4
 74
     0
 42
0.000000001
 43
0.00000001
 40
0.0
 40
0.0
 40
0.0
 40
0.0
 40
1.0
 40
1.0
 40
1.0
 40
1.0
 10
30.84523823515885
 20
9.50468379370138
 30
0.0
 10
30.79012751261845
 20
9.503373892505648
 30
0.0
 10
30.73475259159115
 20
9.484275123979804
 30
0.0
 10
30.689251619423
 20
9.448169481848586
 30
0.0
  0
SPLINE
  5
63F
330
1F
100
AcDbEntity
  8
외형선
  6
Continuous
 62
     1
370
    15
100
AcDbSpline
210
0.0
220
0.0
230
1.0
 70
     8
 71
     3
 72
     8
 73
     4
 74
     0
 42
0.000000001
 43
0.00000001
 40
0.0
 40
0.0
 40
0.0
 40
0.0
 40
1.0
 40
1.0
 40
1.0
 40
1.0
 10
31.93291004025914
 20
9.522306731695272
 30
0.0
 10
31.56997202119575
 20
9.51916859373783
 30
0.0
 10
31.20716423771113
 20
9.51328767049287
 30
0.0
 10
30.84495573415611
 20
9.50467707850992
 30
0.0
  0
SPLINE
  5
640
330
1F
100
AcDbEntity
  8
외형선
  6
Continuous
 62
     1
370
    15
100
AcDbSpline
210
0.0
220
0.0
230
1.0
 70
     8
 71
     3
 72
     8
 73
     4
 74
     0
 42
0.000000001
 43
0.00000001
 40
0.0
 40
0.0
 40
0.0
 40
0.0
 40
1.0
 40
1.0
 40
1.0
 40
1.0
 10
32.08886774800342
 20
9.470299409850734
 30
0.0
 10
32.04416389185948
 20
9.504453121447453
 30
0.0
 10
31.98917029140889
 20
9.522793605106108
 30
0.0
 10
31.93237475911666
 20
9.522302101406547
 30
0.0
  0
SPLINE
  5
641
330
1F
100
AcDbEntity
  8
외형선
  6
Continuous
 62
     1
370
    15
100
AcDbSpline
210
0.0
220
0.0
230
1.0
 70
     8
 71
     3
 72
    10
 73
     6
 74
     0
 42
0.000000001
 43
0.00000001
 40
0.0
 40
0.0
 40
0.0
 40
0.0
 40
0.5
 40
0.5
 40
1.0
 40
1.0
 40
1.0
 40
1.0
 10
32.71373094333406
 20
9.47144364954766
 30
0.0
 10
32.62115200477964
 20
9.39952335608731
 30
0.0
 10
32.50872069786035
 20
9.363923163797038
 30
0.0
 10
32.28421660120821
 20
9.366025547847132
 30
0.0
 10
32.17711505207412
 20
9.402878537639333
 30
0.0
 10
32.08886774800364
 20
9.47029940985056
 30
0.0
  0
SPLINE
  5
642
330
1F
100
AcDbEntity
  8
외형선
  6
Continuous
 62
     1
370
    15
100
AcDbSpline
210
0.0
220
0.0
230
1.0
 70
     8
 71
     3
 72
     8
 73
     4
 74
     0
 42
0.000000001
 43
0.00000001
 40
0.0
 40
0.0
 40
0.0
 40
0.0
 40
1.0
 40
1.0
 40
1.0
 40
1.0
 10
32.86967299160047
 20
9.524316447702892
 30
0.0
 10
32.81457581524906
 20
9.524556517292089
 30
0.0
 10
32.75921474266678
 20
9.50677790857859
 30
0.0
 10
32.71373094333435
 20
9.471443649547934
 30
0.0
  0
SPLINE
  5
643
330
1F
100
AcDbEntity
  8
외형선
  6
Continuous
 62
     1
370
    15
100
AcDbSpline
210
0.0
220
0.0
230
1.0
 70
     8
 71
     3
 72
     8
 73
     4
 74
     0
 42
0.000000001
 43
0.00000001
 40
0.0
 40
0.0
 40
0.0
 40
0.0
 40
1.0
 40
1.0
 40
1.0
 40
1.0
 10
33.95638075367122
 20
9.511367617366878
 30
0.0
 10
33.59432857455456
 20
9.518423384184183
 30
0.0
 10
33.23153278531307
 20
9.522745846941303
 30
0.0
 10
32.8684622670394
 20
9.524321712894851
 30
0.0
  0
SPLINE
  5
644
330
1F
100
AcDbEntity
  8
외형선
  6
Continuous
 62
     1
370
    15
100
AcDbSpline
210
0.0
220
0.0
230
1.0
 70
     8
 71
     3
 72
     8
 73
     4
 74
     0
 42
0.000000001
 43
0.00000001
 40
0.0
 40
0.0
 40
0.0
 40
0.0
 40
1.0
 40
1.0
 40
1.0
 40
1.0
 10
34.11288524549681
 20
9.45443334109788
 30
0.0
 10
34.06820233697285
 20
9.490189240185353
 30
0.0
 10
34.0132296643174
 20
9.510259674739457
 30
0.0
 10
33.95645169944665
 20
9.51136623472208
 30
0.0
  0
SPLINE
  5
645
330
1F
100
AcDbEntity
  8
외형선
  6
Continuous
 62
     1
370
    15
100
AcDbSpline
210
0.0
220
0.0
230
1.0
 70
     8
 71
     3
 72
    10
 73
     6
 74
     0
 42
0.000000001
 43
0.00000001
 40
0.0
 40
0.0
 40
0.0
 40
0.0
 40
0.5
 40
0.5
 40
1.0
 40
1.0
 40
1.0
 40
1.0
 10
34.73753466828946
 20
9.43808046289635
 30
0.0
 10
34.64497551419876
 20
9.368149017313835
 30
0.0
 10
34.53256837251873
 20
9.335262750717922
 30
0.0
 10
34.30814565525687
 20
9.343610809365805
 30
0.0
 10
34.20109317278055
 20
9.383848102784759
 30
0.0
 10
34.11288524549703
 20
9.454433341097696
 30
0.0
  0
SPLINE
  5
646
330
1F
100
AcDbEntity
  8
외형선
  6
Continuous
 62
     1
370
    15
100
AcDbSpline
210
0.0
220
0.0
230
1.0
 70
     8
 71
     3
 72
     8
 73
     4
 74
     0
 42
0.000000001
 43
0.00000001
 40
0.0
 40
0.0
 40
0.0
 40
0.0
 40
1.0
 40
1.0
 40
1.0
 40
1.0
 10
34.89342776245032
 20
9.486992752723333
 30
0.0
 10
34.83834680487745
 20
9.488782823549341
 30
0.0
 10
34.78300370716831
 20
9.4724337977909
 30
0.0
 10
34.73753466828978
 20
9.438080462896595
 30
0.0
  0
SPLINE
  5
647
330
1F
100
AcDbEntity
  8
외형선
  6
Continuous
 62
     1
370
    15
100
AcDbSpline
210
0.0
220
0.0
230
1.0
 70
     8
 71
     3
 72
     8
 73
     4
 74
     0
 42
0.000000001
 43
0.00000001
 40
0.0
 40
0.0
 40
0.0
 40
0.0
 40
1.0
 40
1.0
 40
1.0
 40
1.0
 10
35.97900553898275
 20
9.443597683481796
 30
0.0
 10
35.616367042162
 20
9.460800775246435
 30
0.0
 10
35.25388646600995
 20
9.475285196900662
 30
0.0
 10
34.89203156861603
 20
9.487038114046213
 30
0.0
  0
SPLINE
  5
648
330
1F
100
AcDbEntity
  8
외형선
  6
Continuous
 62
     1
370
    15
100
AcDbSpline
210
0.0
220
0.0
230
1.0
 70
     8
 71
     3
 72
     8
 73
     4
 74
     0
 42
0.000000001
 43
0.00000001
 40
0.0
 40
0.0
 40
0.0
 40
0.0
 40
1.0
 40
1.0
 40
1.0
 40
1.0
 10
36.13611209960035
 20
9.38205694761074
 30
0.0
 10
36.09145957277405
 20
9.419192885559445
 30
0.0
 10
36.03651072051084
 20
9.440869122070678
 30
0.0
 10
35.97975916639736
 20
9.443561928490391
 30
0.0
  0
SPLINE
  5
649
330
1F
100
AcDbEntity
  8
외형선
  6
Continuous
 62
     1
370
    15
100
AcDbSpline
210
0.0
220
0.0
230
1.0
 70
     8
 71
     3
 72
    10
 73
     6
 74
     0
 42
0.000000001
 43
0.00000001
 40
0.0
 40
0.0
 40
0.0
 40
0.0
 40
0.5
 40
0.5
 40
1.0
 40
1.0
 40
1.0
 40
1.0
 10
36.76046714374012
 20
9.348415595748966
 30
0.0
 10
36.66797226199039
 20
9.280902713745844
 30
0.0
 10
36.55562622155755
 20
9.250886505579045
 30
0.0
 10
36.33128254948743
 20
9.26536962648411
 30
0.0
 10
36.22426371105418
 20
9.30874434907008
 30
0.0
 10
36.13611209960057
 20
9.382056947610574
 30
0.0
  0
SPLINE
  5
64A
330
1F
100
AcDbEntity
  8
외형선
  6
Continuous
 62
     1
370
    15
100
AcDbSpline
210
0.0
220
0.0
230
1.0
 70
     8
 71
     3
 72
     9
 73
     5
 74
     0
 42
0.000000001
 43
0.00000001
 40
0.0
 40
0.0
 40
0.0
 40
0.0
 40
0.5017549367372514
 40
1.0
 40
1.0
 40
1.0
 40
1.0
 10
17.26065579950809
 20
-8.12964700162411
 30
0.0
 10
17.30997858713095
 20
-8.096037203966661
 30
0.0
 10
17.40827913987405
 20
-8.029052715730236
 30
0.0
 10
17.52091135716548
 20
-8.001982448100522
 30
0.0
 10
17.57702980339527
 20
-7.988494820892813
 30
0.0
  0
SPLINE
  5
64B
330
1F
100
AcDbEntity
  8
외형선
  6
Continuous
 62
     1
370
    15
100
AcDbSpline
210
0.0
220
0.0
230
1.0
 70
     8
 71
     3
 72
     8
 73
     4
 74
     0
 42
0.000000001
 43
0.00000001
 40
0.0
 40
0.0
 40
0.0
 40
0.0
 40
1.0
 40
1.0
 40
1.0
 40
1.0
 10
17.10462342626695
 20
-8.20038226783396
 30
0.0
 10
17.15974858836582
 20
-8.190173014395658
 30
0.0
 10
17.21513890228029
 20
-8.165717292391255
 30
0.0
 10
17.26065508938586
 20
-8.129647228402636
 30
0.0
  0
SPLINE
  5
64C
330
1F
100
AcDbEntity
  8
외형선
  6
Continuous
 62
     1
370
    15
100
AcDbSpline
210
0.0
220
0.0
230
1.0
 70
     8
 71
     3
 72
     8
 73
     4
 74
     0
 42
0.000000001
 43
0.00000001
 40
0.0
 40
0.0
 40
0.0
 40
0.0
 40
1.0
 40
1.0
 40
1.0
 40
1.0
 10
17.10532737894959
 20
-8.20025189180145
 30
0.0
 10
16.7435690875595
 20
-8.267253150371957
 30
0.0
 10
16.38124527433927
 20
-8.331936724648797
 30
0.0
 10
16.01882313103176
 20
-8.394214774083208
 30
0.0
  0
SPLINE
  5
64D
330
1F
100
AcDbEntity
  8
외형선
  6
Continuous
 62
     1
370
    15
100
AcDbSpline
210
0.0
220
0.0
230
1.0
 70
     8
 71
     3
 72
     8
 73
     4
 74
     0
 42
0.000000001
 43
0.00000001
 40
0.0
 40
0.0
 40
0.0
 40
0.0
 40
1.0
 40
1.0
 40
1.0
 40
1.0
 10
15.86051714808919
 20
-8.377807820035528
 30
0.0
 10
15.90524769779119
 20
-8.398329041124606
 30
0.0
 10
15.96026451870154
 20
-8.40427615991361
 30
0.0
 10
16.01708295052739
 20
-8.394513785349977
 30
0.0
  0
SPLINE
  5
64E
330
1F
100
AcDbEntity
  8
외형선
  6
Continuous
 62
     1
370
    15
100
AcDbSpline
210
0.0
220
0.0
230
1.0
 70
     8
 71
     3
 72
    10
 73
     6
 74
     0
 42
0.000000001
 43
0.00000001
 40
0.0
 40
0.0
 40
0.0
 40
0.0
 40
0.5
 40
0.5
 40
1.0
 40
1.0
 40
1.0
 40
1.0
 10
15.2353844563171
 20
-8.480862803304431
 30
0.0
 10
15.32800808306236
 20
-8.406325610982424
 30
0.0
 10
15.44048420016531
 20
-8.359366982427067
 30
0.0
 10
15.66507358319428
 20
-8.3248145644482
 30
0.0
 10
15.77221919767907
 20
-8.337299000578803
 30
0.0
 10
15.86051714808918
 20
-8.37780782003552
 30
0.0
  0
SPLINE
  5
64F
330
1F
100
AcDbEntity
  8
외형선
  6
Continuous
 62
     1
370
    15
100
AcDbSpline
210
0.0
220
0.0
230
1.0
 70
     8
 71
     3
 72
     8
 73
     4
 74
     0
 42
0.000000001
 43
0.00000001
 40
0.0
 40
0.0
 40
0.0
 40
0.0
 40
1.0
 40
1.0
 40
1.0
 40
1.0
 10
15.07938164075905
 20
-8.550223712013876
 30
0.0
 10
15.13449791466255
 20
-8.541389074084465
 30
0.0
 10
15.18987961851096
 20
-8.517482000439356
 30
0.0
 10
15.23538445631706
 20
-8.480862803304461
 30
0.0
  0
SPLINE
  5
650
330
1F
100
AcDbEntity
  8
외형선
  6
Continuous
 62
     1
370
    15
100
AcDbSpline
210
0.0
220
0.0
230
1.0
 70
     8
 71
     3
 72
     8
 73
     4
 74
     0
 42
0.000000001
 43
0.00000001
 40
0.0
 40
0.0
 40
0.0
 40
0.0
 40
1.0
 40
1.0
 40
1.0
 40
1.0
 10
15.08077604569019
 20
-8.550000189611042
 30
0.0
 10
14.71747499889901
 20
-8.60824027853438
 30
0.0
 10
14.35448184950331
 20
-8.663994410664495
 30
0.0
 10
13.99226621141701
 20
-8.717197734767517
 30
0.0
  0
SPLINE
  5
651
330
1F
100
AcDbEntity
  8
외형선
  6
Continuous
 62
     1
370
    15
100
AcDbSpline
210
0.0
220
0.0
230
1.0
 70
     8
 71
     3
 72
     8
 73
     4
 74
     0
 42
0.000000001
 43
0.00000001
 40
0.0
 40
0.0
 40
0.0
 40
0.0
 40
1.0
 40
1.0
 40
1.0
 40
1.0
 10
13.83554495206126
 20
-8.694271987797027
 30
0.0
 10
13.88026231423662
 20
-8.717428541203134
 30
0.0
 10
13.93526473068437
 20
-8.725570147245614
 30
0.0
 10
13.9920720550134
 20
-8.717226252813655
 30
0.0
  0
SPLINE
  5
652
330
1F
100
AcDbEntity
  8
외형선
  6
Continuous
 62
     1
370
    15
100
AcDbSpline
210
0.0
220
0.0
230
1.0
 70
     8
 71
     3
 72
    10
 73
     6
 74
     0
 42
0.000000001
 43
0.00000001
 40
0.0
 40
0.0
 40
0.0
 40
0.0
 40
0.5
 40
0.5
 40
1.0
 40
1.0
 40
1.0
 40
1.0
 10
13.21055609656845
 20
-8.781652889870683
 30
0.0
 10
13.30317144558183
 20
-8.706387739471335
 30
0.0
 10
13.4156368829028
 20
-8.660625874673382
 30
0.0
 10
13.64016969083239
 20
-8.631757230595358
 30
0.0
 10
13.74727589056713
 20
-8.648562510825188
 30
0.0
 10
13.83554495206125
 20
-8.694271987797013
 30
0.0
  0
SPLINE
  5
653
330
1F
100
AcDbEntity
  8
외형선
  6
Continuous
 62
     1
370
    15
100
AcDbSpline
210
0.0
220
0.0
230
1.0
 70
     8
 71
     3
 72
     8
 73
     4
 74
     0
 42
0.000000001
 43
0.00000001
 40
0.0
 40
0.0
 40
0.0
 40
0.0
 40
1.0
 40
1.0
 40
1.0
 40
1.0
 10
13.05458758980831
 20
-8.84928225424536
 30
0.0
 10
13.10969261190449
 20
-8.841860068617326
 30
0.0
 10
13.16506140359139
 20
-8.818624784332737
 30
0.0
 10
13.21055609656842
 20
-8.781652889870694
 30
0.0
  0
SPLINE
  5
67C
330
1F
100
AcDbEntity
  8
외형선
  6
Continuous
 62
     1
370
    15
100
AcDbSpline
210
0.0
220
0.0
230
1.0
 70
     8
 71
     3
 72
    10
 73
     6
 74
     0
 42
0.000000001
 43
0.00000001
 40
0.0
 40
0.0
 40
0.0
 40
0.0
 40
0.5
 40
0.5
 40
0.740688505451666
 40
0.740688505451666
 40
0.740688505451666
 40
0.740688505451666
 10
13.47416793245413
 20
-7.068640439992309
 30
0.0
 10
13.38160327139231
 20
-6.999888829731848
 30
0.0
 10
13.26920321447219
 20
-6.950864758986917
 30
0.0
 10
13.10294384138195
 20
-6.91187710520291
 30
0.0
 10
13.05011064336168
 20
-6.904613425658177
 30
0.0
 10
13.0
 20
-6.902807787766674
 30
0.0
  0
SPLINE
  5
67D
330
1F
100
AcDbEntity
  8
외형선
  6
Continuous
 62
     1
370
    15
100
AcDbSpline
210
0.0
220
0.0
230
1.0
 70
     8
 71
     3
 72
     8
 73
     4
 74
     0
 42
0.000000001
 43
0.00000001
 40
0.0
 40
0.0
 40
0.0
 40
0.0
 40
1.0
 40
1.0
 40
1.0
 40
1.0
 10
13.63010306518499
 20
-7.140884003022215
 30
0.0
 10
13.57501224447702
 20
-7.127591163663745
 30
0.0
 10
13.51965388174057
 20
-7.102424739764988
 30
0.0
 10
13.4741679324541
 20
-7.068640439992299
 30
0.0
  0
SPLINE
  5
67E
330
1F
100
AcDbEntity
  8
외형선
  6
Continuous
 62
     1
370
    15
100
AcDbSpline
210
0.0
220
0.0
230
1.0
 70
     8
 71
     3
 72
     8
 73
     4
 74
     0
 42
0.000000001
 43
0.00000001
 40
0.0
 40
0.0
 40
0.0
 40
0.0
 40
1.0
 40
1.0
 40
1.0
 40
1.0
 10
14.72002949749639
 20
-7.39737403123288
 30
0.0
 10
14.35599763092821
 20
-7.313922327562596
 30
0.0
 10
13.99272861680647
 20
-7.228382995591616
 30
0.0
 10
13.62975443003273
 20
-7.140799880409091
 30
0.0
  0
SPLINE
  5
67F
330
1F
100
AcDbEntity
  8
외형선
  6
Continuous
 62
     1
370
    15
100
AcDbSpline
210
0.0
220
0.0
230
1.0
 70
     8
 71
     3
 72
     8
 73
     4
 74
     0
 42
0.000000001
 43
0.00000001
 40
0.0
 40
0.0
 40
0.0
 40
0.0
 40
1.0
 40
1.0
 40
1.0
 40
1.0
 10
14.87353059223864
 20
-7.39576503368625
 30
0.0
 10
14.82882494499162
 20
-7.409307604969587
 30
0.0
 10
14.77383168305062
 20
-7.409709644026106
 30
0.0
 10
14.71703662686888
 20
-7.396687887069599
 30
0.0
  0
SPLINE
  5
680
330
1F
100
AcDbEntity
  8
외형선
  6
Continuous
 62
     1
370
    15
100
AcDbSpline
210
0.0
220
0.0
230
1.0
 70
     8
 71
     3
 72
    10
 73
     6
 74
     0
 42
0.000000001
 43
0.00000001
 40
0.0
 40
0.0
 40
0.0
 40
0.0
 40
0.5
 40
0.5
 40
1.0
 40
1.0
 40
1.0
 40
1.0
 10
15.49847423714539
 20
-7.534850746707656
 30
0.0
 10
15.40587685215446
 20
-7.46392520974933
 30
0.0
 10
15.29342960563915
 20
-7.415175219575351
 30
0.0
 10
15.06889935006084
 20
-7.367496437054659
 30
0.0
 10
14.9617866951287
 20
-7.369029830459785
 30
0.0
 10
14.87353059223937
 20
-7.395765033687371
 30
0.0
  0
SPLINE
  5
681
330
1F
100
AcDbEntity
  8
외형선
  6
Continuous
 62
     1
370
    15
100
AcDbSpline
210
0.0
220
0.0
230
1.0
 70
     8
 71
     3
 72
     8
 73
     4
 74
     0
 42
0.000000001
 43
0.00000001
 40
0.0
 40
0.0
 40
0.0
 40
0.0
 40
1.0
 40
1.0
 40
1.0
 40
1.0
 10
15.65444893196108
 20
-7.606718372671703
 30
0.0
 10
15.59934059810193
 20
-7.594658738682247
 30
0.0
 10
15.54396849034055
 20
-7.569697349953514
 30
0.0
 10
15.49847423714539
 20
-7.534850746707659
 30
0.0
  0
SPLINE
  5
682
330
1F
100
AcDbEntity
  8
외형선
  6
Continuous
 62
     1
370
    15
100
AcDbSpline
210
0.0
220
0.0
230
1.0
 70
     8
 71
     3
 72
     8
 73
     4
 74
     0
 42
0.000000001
 43
0.00000001
 40
0.0
 40
0.0
 40
0.0
 40
0.0
 40
1.0
 40
1.0
 40
1.0
 40
1.0
 10
16.7412476819505
 20
-7.837974740588448
 30
0.0
 10
16.37963563554852
 20
-7.763217034643112
 30
0.0
 10
16.01761553789209
 20
-7.686187088483896
 30
0.0
 10
15.6556534808015
 20
-7.606981962082325
 30
0.0
  0
SPLINE
  5
683
330
1F
100
AcDbEntity
  8
외형선
  6
Continuous
 62
     1
370
    15
100
AcDbSpline
210
0.0
220
0.0
230
1.0
 70
     8
 71
     3
 72
     8
 73
     4
 74
     0
 42
0.000000001
 43
0.00000001
 40
0.0
 40
0.0
 40
0.0
 40
0.0
 40
1.0
 40
1.0
 40
1.0
 40
1.0
 10
16.89823942649186
 20
-7.830682418009411
 30
0.0
 10
16.85351607305358
 20
-7.84713942961491
 30
0.0
 10
16.79850709615405
 20
-7.849811956056216
 30
0.0
 10
16.74169445741577
 20
-7.838067103403256
 30
0.0
  0
SPLINE
  5
684
330
1F
100
AcDbEntity
  8
외형선
  6
Continuous
 62
     1
370
    15
100
AcDbSpline
210
0.0
220
0.0
230
1.0
 70
     8
 71
     3
 72
    10
 73
     6
 74
     0
 42
0.000000001
 43
0.00000001
 40
0.0
 40
0.0
 40
0.0
 40
0.0
 40
0.5000000000000003
 40
0.5000000000000003
 40
1.0
 40
1.0
 40
1.0
 40
1.0
 10
17.52336165490154
 20
-7.955776677831097
 30
0.0
 10
17.43073471547088
 20
-7.883015610828243
 30
0.0
 10
17.31826870710452
 20
-7.834753171234722
 30
0.0
 10
17.09368247493679
 20
-7.792185030361622
 30
0.0
 10
16.98653683983539
 20
-7.798191304431932
 30
0.0
 10
16.89823942649192
 20
-7.830682418009416
 30
0.0
  0
SPLINE
  5
685
330
1F
100
AcDbEntity
  8
외형선
  6
Continuous
 62
     1
370
    15
100
AcDbSpline
210
0.0
220
0.0
230
1.0
 70
     8
 71
     3
 72
     8
 73
     4
 74
     0
 42
0.000000001
 43
0.00000001
 40
0.0
 40
0.0
 40
0.0
 40
0.0
 40
1.0
 40
1.0
 40
1.0
 40
1.0
 10
17.67937540776122
 20
-8.027003883523813
 30
0.0
 10
17.62425943104292
 20
-8.016187506735406
 30
0.0
 10
17.56887439804532
 20
-7.991528218081954
 30
0.0
 10
17.52336165490154
 20
-7.955776677831104
 30
0.0
  0
SPLINE
  5
686
330
1F
100
AcDbEntity
  8
외형선
  6
Continuous
 62
     1
370
    15
100
AcDbSpline
210
0.0
220
0.0
230
1.0
 70
     8
 71
     3
 72
     8
 73
     4
 74
     0
 42
0.000000001
 43
0.00000001
 40
0.0
 40
0.0
 40
0.0
 40
0.0
 40
1.0
 40
1.0
 40
1.0
 40
1.0
 10
18.76681490451264
 20
-8.233288714927438
 30
0.0
 10
18.40409773730288
 20
-8.166912325678274
 30
0.0
 10
18.04228890252349
 20
-8.09822029519557
 30
0.0
 10
17.68047822002944
 20
-8.02722030093757
 30
0.0
  0
SPLINE
  5
687
330
1F
100
AcDbEntity
  8
외형선
  6
Continuous
 62
     1
370
    15
100
AcDbSpline
210
0.0
220
0.0
230
1.0
 70
     8
 71
     3
 72
     8
 73
     4
 74
     0
 42
0.000000001
 43
0.00000001
 40
0.0
 40
0.0
 40
0.0
 40
0.0
 40
1.0
 40
1.0
 40
1.0
 40
1.0
 10
18.9234841053776
 20
-8.219485132998669
 30
0.0
 10
18.87874600225515
 20
-8.238770196991588
 30
0.0
 10
18.82372420915279
 20
-8.243702923351496
 30
0.0
 10
18.76690137290245
 20
-8.233304538393547
 30
0.0
  0
SPLINE
  5
688
330
1F
100
AcDbEntity
  8
외형선
  6
Continuous
 62
     1
370
    15
100
AcDbSpline
210
0.0
220
0.0
230
1.0
 70
     8
 71
     3
 72
    10
 73
     6
 74
     0
 42
0.000000001
 43
0.00000001
 40
0.0
 40
0.0
 40
0.0
 40
0.0
 40
0.5
 40
0.5
 40
1.0
 40
1.0
 40
1.0
 40
1.0
 10
19.54871989514836
 20
-8.329504485888458
 30
0.0
 10
19.45607449435195
 20
-8.255421891209481
 30
0.0
 10
19.3435766710065
 20
-8.208006297248414
 30
0.0
 10
19.11895547266177
 20
-8.170929536811443
 30
0.0
 10
19.01179629312625
 20
-8.181416773519326
 30
0.0
 10
18.92348410537763
 20
-8.219485132998654
 30
0.0
  0
SPLINE
  5
689
330
1F
100
AcDbEntity
  8
외형선
  6
Continuous
 62
     1
370
    15
100
AcDbSpline
210
0.0
220
0.0
230
1.0
 70
     8
 71
     3
 72
     8
 73
     4
 74
     0
 42
0.000000001
 43
0.00000001
 40
0.0
 40
0.0
 40
0.0
 40
0.0
 40
1.0
 40
1.0
 40
1.0
 40
1.0
 10
19.70475343214604
 20
-8.39951548075218
 30
0.0
 10
19.64962647079104
 20
-8.390063472198728
 30
0.0
 10
19.59423447624751
 20
-8.365899581970536
 30
0.0
 10
19.54871989514836
 20
-8.329504485888439
 30
0.0
  0
SPLINE
  5
68A
330
1F
100
AcDbEntity
  8
외형선
  6
Continuous
 62
     1
370
    15
100
AcDbSpline
210
0.0
220
0.0
230
1.0
 70
     8
 71
     3
 72
     8
 73
     4
 74
     0
 42
0.000000001
 43
0.00000001
 40
0.0
 40
0.0
 40
0.0
 40
0.0
 40
1.0
 40
1.0
 40
1.0
 40
1.0
 10
20.79162216277697
 20
-8.578609323690499
 30
0.0
 10
20.43057279035732
 20
-8.521528604600071
 30
0.0
 10
20.06914253754282
 20
-8.46197967391687
 30
0.0
 10
19.7077952310087
 20
-8.400036967407265
 30
0.0
  0
SPLINE
  5
68B
330
1F
100
AcDbEntity
  8
외형선
  6
Continuous
 62
     1
370
    15
100
AcDbSpline
210
0.0
220
0.0
230
1.0
 70
     8
 71
     3
 72
     8
 73
     4
 74
     0
 42
0.000000001
 43
0.00000001
 40
0.0
 40
0.0
 40
0.0
 40
0.0
 40
1.0
 40
1.0
 40
1.0
 40
1.0
 10
20.94903254412738
 20
-8.55856542437631
 30
0.0
 10
20.90428682367965
 20
-8.580556904779622
 30
0.0
 10
20.84925792661428
 20
-8.58772078219572
 30
0.0
 10
20.79242599245858
 20
-8.578736402544296
 30
0.0
  0
SPLINE
  5
68C
330
1F
100
AcDbEntity
  8
외형선
  6
Continuous
 62
     1
370
    15
100
AcDbSpline
210
0.0
220
0.0
230
1.0
 70
     8
 71
     3
 72
    10
 73
     6
 74
     0
 42
0.000000001
 43
0.00000001
 40
0.0
 40
0.0
 40
0.0
 40
0.0
 40
0.5000000000000003
 40
0.5000000000000003
 40
1.0
 40
1.0
 40
1.0
 40
1.0
 10
21.5743514275318
 20
-8.653098075728714
 30
0.0
 10
21.48169299960343
 20
-8.578078156131536
 30
0.0
 10
21.36919272410133
 20
-8.531737369472369
 30
0.0
 10
21.14454509155185
 20
-8.500275761085973
 30
0.0
 10
21.03736792242247
 20
-8.515150641437117
 30
0.0
 10
20.94903254412744
 20
-8.558565424376285
 30
0.0
  0
SPLINE
  5
68D
330
1F
100
AcDbEntity
  8
외형선
  6
Continuous
 62
     1
370
    15
100
AcDbSpline
210
0.0
220
0.0
230
1.0
 70
     8
 71
     3
 72
     8
 73
     4
 74
     0
 42
0.000000001
 43
0.00000001
 40
0.0
 40
0.0
 40
0.0
 40
0.0
 40
1.0
 40
1.0
 40
1.0
 40
1.0
 10
21.73040347801918
 20
-8.721594885523052
 30
0.0
 10
21.67527512428764
 20
-8.713517919377237
 30
0.0
 10
21.61987709809946
 20
-8.689957455085288
 30
0.0
 10
21.5743514275318
 20
-8.653098075728725
 30
0.0
  0
SPLINE
  5
68E
330
1F
100
AcDbEntity
  8
외형선
  6
Continuous
 62
     1
370
    15
100
AcDbSpline
210
0.0
220
0.0
230
1.0
 70
     8
 71
     3
 72
     8
 73
     4
 74
     0
 42
0.000000001
 43
0.00000001
 40
0.0
 40
0.0
 40
0.0
 40
0.0
 40
1.0
 40
1.0
 40
1.0
 40
1.0
 10
22.8183429112085
 20
-8.873344073087544
 30
0.0
 10
22.45510234253762
 20
-8.825282405569311
 30
0.0
 10
22.09288922180692
 20
-8.774703364677137
 30
0.0
 10
21.73041178949969
 20
-8.721596103254328
 30
0.0
  0
SPLINE
  5
68F
330
1F
100
AcDbEntity
  8
외형선
  6
Continuous
 62
     1
370
    15
100
AcDbSpline
210
0.0
220
0.0
230
1.0
 70
     8
 71
     3
 72
     8
 73
     4
 74
     0
 42
0.000000001
 43
0.00000001
 40
0.0
 40
0.0
 40
0.0
 40
0.0
 40
1.0
 40
1.0
 40
1.0
 40
1.0
 10
22.97481056674584
 20
-8.846917375885909
 30
0.0
 10
22.93005981070086
 20
-8.871490996736759
 30
0.0
 10
22.87502682018376
 20
-8.880844237258126
 30
0.0
 10
22.81819317486764
 20
-8.873324260785346
 30
0.0
  0
SPLINE
  5
690
330
1F
100
AcDbEntity
  8
외형선
  6
Continuous
 62
     1
370
    15
100
AcDbSpline
210
0.0
220
0.0
230
1.0
 70
     8
 71
     3
 72
    10
 73
     6
 74
     0
 42
0.000000001
 43
0.00000001
 40
0.0
 40
0.0
 40
0.0
 40
0.0
 40
0.5
 40
0.5
 40
1.0
 40
1.0
 40
1.0
 40
1.0
 10
23.60014848489609
 20
-8.925174769457136
 30
0.0
 10
23.50748636403912
 20
-8.849720317815612
 30
0.0
 10
23.39497019385529
 20
-8.804778212643896
 30
0.0
 10
23.17031781557588
 20
-8.779208228423244
 30
0.0
 10
23.06314285322551
 20
-8.798412181590175
 30
0.0
 10
22.97481056674589
 20
-8.84691737588588
 30
0.0
  0
SPLINE
  5
691
330
1F
100
AcDbEntity
  8
외형선
  6
Continuous
 62
     1
370
    15
100
AcDbSpline
210
0.0
220
0.0
230
1.0
 70
     8
 71
     3
 72
     8
 73
     4
 74
     0
 42
0.000000001
 43
0.00000001
 40
0.0
 40
0.0
 40
0.0
 40
0.0
 40
1.0
 40
1.0
 40
1.0
 40
1.0
 10
23.75620000887769
 20
-8.991643207786971
 30
0.0
 10
23.70106736039312
 20
-8.985029058726544
 30
0.0
 10
23.64566933529758
 20
-8.962242243992964
 30
0.0
 10
23.60014848489609
 20
-8.925174769457138
 30
0.0
  0
SPLINE
  5
692
330
1F
100
AcDbEntity
  8
외형선
  6
Continuous
 62
     1
370
    15
100
AcDbSpline
210
0.0
220
0.0
230
1.0
 70
     8
 71
     3
 72
     8
 73
     4
 74
     0
 42
0.000000001
 43
0.00000001
 40
0.0
 40
0.0
 40
0.0
 40
0.0
 40
1.0
 40
1.0
 40
1.0
 40
1.0
 10
24.84224770186483
 20
-9.114179660146057
 30
0.0
 10
24.4802477653566
 20
-9.075921846345528
 30
0.0
 10
24.11789085877532
 20
-9.03503715041772
 30
0.0
 10
23.75564438932258
 20
-8.991576549236084
 30
0.0
  0
SPLINE
  5
693
330
1F
100
AcDbEntity
  8
외형선
  6
Continuous
 62
     1
370
    15
100
AcDbSpline
210
0.0
220
0.0
230
1.0
 70
     8
 71
     3
 72
     8
 73
     4
 74
     0
 42
0.000000001
 43
0.00000001
 40
0.0
 40
0.0
 40
0.0
 40
0.0
 40
1.0
 40
1.0
 40
1.0
 40
1.0
 10
25.00058049668095
 20
-9.081873645435152
 30
0.0
 10
24.95583244549046
 20
-9.108877504712728
 30
0.0
 10
24.90080117268243
 20
-9.120366553433133
 30
0.0
 10
24.84396712161085
 20
-9.11436135684945
 30
0.0
  0
SPLINE
  5
694
330
1F
100
AcDbEntity
  8
외형선
  6
Continuous
 62
     1
370
    15
100
AcDbSpline
210
0.0
220
0.0
230
1.0
 70
     8
 71
     3
 72
    10
 73
     6
 74
     0
 42
0.000000001
 43
0.00000001
 40
0.0
 40
0.0
 40
0.0
 40
0.0
 40
0.5
 40
0.5
 40
1.0
 40
1.0
 40
1.0
 40
1.0
 10
25.62590377814532
 20
-9.143547802613309
 30
0.0
 10
25.53324551922795
 20
-9.068075075513267
 30
0.0
 10
25.42074356695806
 20
-9.024763874034468
 30
0.0
 10
25.19609501892565
 20
-9.00516888702408
 30
0.0
 10
25.08891742493338
 20
-9.02856544728838
 30
0.0
 10
25.00058049668095
 20
-9.08187364543514
 30
0.0
  0
SPLINE
  5
695
330
1F
100
AcDbEntity
  8
외형선
  6
Continuous
 62
     1
370
    15
100
AcDbSpline
210
0.0
220
0.0
230
1.0
 70
     8
 71
     3
 72
     8
 73
     4
 74
     0
 42
0.000000001
 43
0.00000001
 40
0.0
 40
0.0
 40
0.0
 40
0.0
 40
1.0
 40
1.0
 40
1.0
 40
1.0
 10
25.78195278082733
 20
-9.207670289219102
 30
0.0
 10
25.72682514782283
 20
-9.20252781779709
 30
0.0
 10
25.67142814802988
 20
-9.180628667123871
 30
0.0
 10
25.62590377814532
 20
-9.14354780261331
 30
0.0
  0
SPLINE
  5
696
330
1F
100
AcDbEntity
  8
외형선
  6
Continuous
 62
     1
370
    15
100
AcDbSpline
210
0.0
220
0.0
230
1.0
 70
     8
 71
     3
 72
     8
 73
     4
 74
     0
 42
0.000000001
 43
0.00000001
 40
0.0
 40
0.0
 40
0.0
 40
0.0
 40
1.0
 40
1.0
 40
1.0
 40
1.0
 10
26.86820704964699
 20
-9.301012550947535
 30
0.0
 10
26.50526160114398
 20
-9.272529560535883
 30
0.0
 10
26.14342580146106
 20
-9.241393675338356
 30
0.0
 10
25.78109785000165
 20
-9.207590533862659
 30
0.0
  0
SPLINE
  5
697
330
1F
100
AcDbEntity
  8
외형선
  6
Continuous
 62
     1
370
    15
100
AcDbSpline
210
0.0
220
0.0
230
1.0
 70
     8
 71
     3
 72
     8
 73
     4
 74
     0
 42
0.000000001
 43
0.00000001
 40
0.0
 40
0.0
 40
0.0
 40
0.0
 40
1.0
 40
1.0
 40
1.0
 40
1.0
 10
27.02626740544198
 20
-9.262754842590578
 30
0.0
 10
26.98152413652118
 20
-9.29203147599237
 30
0.0
 10
26.92649758667962
 20
-9.305585880468069
 30
0.0
 10
26.86967040057871
 20
-9.301127376125653
 30
0.0
  0
SPLINE
  5
698
330
1F
100
AcDbEntity
  8
외형선
  6
Continuous
 62
     1
370
    15
100
AcDbSpline
210
0.0
220
0.0
230
1.0
 70
     8
 71
     3
 72
    10
 73
     6
 74
     0
 42
0.000000001
 43
0.00000001
 40
0.0
 40
0.0
 40
0.0
 40
0.0
 40
0.5
 40
0.5
 40
1.0
 40
1.0
 40
1.0
 40
1.0
 10
27.65151467103899
 20
-9.307350015797356
 30
0.0
 10
27.55886756280849
 20
-9.232341168623519
 30
0.0
 10
27.44636575360391
 20
-9.190945604406288
 30
0.0
 10
27.22174281688617
 20
-9.177498808437955
 30
0.0
 10
27.11458325667316
 20
-9.20496758514546
 30
0.0
 10
27.02626740544203
 20
-9.262754842590573
 30
0.0
  0
SPLINE
  5
699
330
1F
100
AcDbEntity
  8
외형선
  6
Continuous
 62
     1
370
    15
100
AcDbSpline
210
0.0
220
0.0
230
1.0
 70
     8
 71
     3
 72
     8
 73
     4
 74
     0
 42
0.000000001
 43
0.00000001
 40
0.0
 40
0.0
 40
0.0
 40
0.0
 40
1.0
 40
1.0
 40
1.0
 40
1.0
 10
27.80754284069697
 20
-9.368681064100109
 30
0.0
 10
27.75241759938589
 20
-9.365064464629727
 30
0.0
 10
27.69702756295239
 20
-9.344198111967561
 30
0.0
 10
27.65151467103899
 20
-9.30735001579735
 30
0.0
  0
SPLINE
  5
69A
330
1F
100
AcDbEntity
  8
외형선
  6
Continuous
 62
     1
370
    15
100
AcDbSpline
210
0.0
220
0.0
230
1.0
 70
     8
 71
     3
 72
     8
 73
     4
 74
     0
 42
0.000000001
 43
0.00000001
 40
0.0
 40
0.0
 40
0.0
 40
0.0
 40
1.0
 40
1.0
 40
1.0
 40
1.0
 10
28.89516158487285
 20
-9.43194355871385
 30
0.0
 10
28.53276683345356
 20
-9.413562004248833
 30
0.0
 10
28.17003930949621
 20
-9.392463826423315
 30
0.0
 10
27.80744785985163
 20
-9.368674832633879
 30
0.0
  0
SPLINE
  5
69B
330
1F
100
AcDbEntity
  8
외형선
  6
Continuous
 62
     1
370
    15
100
AcDbSpline
210
0.0
220
0.0
230
1.0
 70
     8
 71
     3
 72
     8
 73
     4
 74
     0
 42
0.000000001
 43
0.00000001
 40
0.0
 40
0.0
 40
0.0
 40
0.0
 40
1.0
 40
1.0
 40
1.0
 40
1.0
 10
29.05163474355057
 20
-9.387910794876229
 30
0.0
 10
29.00690446119366
 20
-9.419280056460785
 30
0.0
 10
28.95188841641535
 20
-9.434820954970872
 30
0.0
 10
28.89506948417633
 20
-9.431938887081602
 30
0.0
  0
SPLINE
  5
69C
330
1F
100
AcDbEntity
  8
외형선
  6
Continuous
 62
     1
370
    15
100
AcDbSpline
210
0.0
220
0.0
230
1.0
 70
     8
 71
     3
 72
    10
 73
     6
 74
     0
 42
0.000000001
 43
0.00000001
 40
0.0
 40
0.0
 40
0.0
 40
0.0
 40
0.5
 40
0.5
 40
1.0
 40
1.0
 40
1.0
 40
1.0
 10
29.67677007059094
 20
-9.415255136207287
 30
0.0
 10
29.58414364609762
 20
-9.34114381357985
 30
0.0
 10
29.47167263715627
 20
-9.3018901629337
 30
0.0
 10
29.24708366374346
 20
-9.294623953363581
 30
0.0
 10
29.13993675880803
 20
-9.325984760228092
 30
0.0
 10
29.05163474355063
 20
-9.387910794876216
 30
0.0
  0
SPLINE
  5
69D
330
1F
100
AcDbEntity
  8
외형선
  6
Continuous
 62
     1
370
    15
100
AcDbSpline
210
0.0
220
0.0
230
1.0
 70
     8
 71
     3
 72
     8
 73
     4
 74
     0
 42
0.000000001
 43
0.00000001
 40
0.0
 40
0.0
 40
0.0
 40
0.0
 40
1.0
 40
1.0
 40
1.0
 40
1.0
 10
29.83277476967938
 20
-9.473471902531314
 30
0.0
 10
29.77766092117002
 20
-9.471385859738618
 30
0.0
 10
29.72227893585804
 20
-9.451667231510228
 30
0.0
 10
29.67677007059091
 20
-9.41525513620729
 30
0.0
  0
SPLINE
  5
69E
330
1F
100
AcDbEntity
  8
외형선
  6
Continuous
 62
     1
370
    15
100
AcDbSpline
210
0.0
220
0.0
230
1.0
 70
     8
 71
     3
 72
     8
 73
     4
 74
     0
 42
0.000000001
 43
0.00000001
 40
0.0
 40
0.0
 40
0.0
 40
0.0
 40
1.0
 40
1.0
 40
1.0
 40
1.0
 10
30.91974848636462
 20
-9.506416111091513
 30
0.0
 10
30.55671374449263
 20
-9.498164219983146
 30
0.0
 10
30.19483961636077
 20
-9.487178418735189
 30
0.0
 10
29.83227977519575
 20
-9.473453165450316
 30
0.0
  0
SPLINE
  5
69F
330
1F
100
AcDbEntity
  8
외형선
  6
Continuous
 62
     1
370
    15
100
AcDbSpline
210
0.0
220
0.0
230
1.0
 70
     8
 71
     3
 72
     8
 73
     4
 74
     0
 42
0.000000001
 43
0.00000001
 40
0.0
 40
0.0
 40
0.0
 40
0.0
 40
1.0
 40
1.0
 40
1.0
 40
1.0
 10
31.07660853907955
 20
-9.457005701490983
 30
0.0
 10
31.03189269264768
 20
-9.490282670864133
 30
0.0
 10
30.97689005170857
 20
-9.50771468819501
 30
0.0
 10
30.92008642309039
 20
-9.506423791701595
 30
0.0
  0
SPLINE
  5
6A0
330
1F
100
AcDbEntity
  8
외형선
  6
Continuous
 62
     1
370
    15
100
AcDbSpline
210
0.0
220
0.0
230
1.0
 70
     8
 71
     3
 72
    10
 73
     6
 74
     0
 42
0.000000001
 43
0.00000001
 40
0.0
 40
0.0
 40
0.0
 40
0.0
 40
0.5
 40
0.5
 40
1.0
 40
1.0
 40
1.0
 40
1.0
 10
31.70157480112427
 20
-9.46688494509901
 30
0.0
 10
31.60897401187213
 20
-9.394123968821066
 30
0.0
 10
31.49651886818241
 20
-9.357255375940678
 30
0.0
 10
31.27198521630154
 20
-9.356243896630437
 30
0.0
 10
31.16487185164478
 20
-9.391321256638085
 30
0.0
 10
31.07660853907955
 20
-9.457005701490973
 30
0.0
  0
SPLINE
  5
6A1
330
1F
100
AcDbEntity
  8
외형선
  6
Continuous
 62
     1
370
    15
100
AcDbSpline
210
0.0
220
0.0
230
1.0
 70
     8
 71
     3
 72
     8
 73
     4
 74
     0
 42
0.000000001
 43
0.00000001
 40
0.0
 40
0.0
 40
0.0
 40
0.0
 40
1.0
 40
1.0
 40
1.0
 40
1.0
 10
31.85753890283956
 20
-9.521615606740326
 30
0.0
 10
31.80243396386643
 20
-9.521081486578927
 30
0.0
 10
31.74706572386653
 20
-9.502629391525893
 30
0.0
 10
31.70157480112427
 20
-9.466884945099014
 30
0.0
  0
SPLINE
  5
6A2
330
1F
100
AcDbEntity
  8
외형선
  6
Continuous
 62
     1
370
    15
100
AcDbSpline
210
0.0
220
0.0
230
1.0
 70
     8
 71
     3
 72
     9
 73
     5
 74
     0
 42
0.000000001
 43
0.00000001
 40
0.0
 40
0.0
 40
0.0
 40
0.0
 40
0.8692840791450208
 40
1.0
 40
1.0
 40
1.0
 40
1.0
 10
31.85500767230987
 20
-9.521591477096083
 30
0.0
 10
32.05809216089389
 20
-9.523373838268139
 30
0.0
 10
32.29171485508123
 20
-9.52542421652171
 30
0.0
 10
32.52533147615113
 20
-9.52483169991354
 30
0.0
 10
32.5558688879013
 20
-9.524754248559477
 30
0.0
  0
SPLINE
  5
6A4
330
1F
100
AcDbEntity
  8
외형선
  6
Continuous
 62
     1
370
    15
100
AcDbSpline
210
0.0
220
0.0
230
1.0
 70
     8
 71
     3
 72
    12
 73
     8
 74
     0
 42
0.000000001
 43
0.00000001
 40
0.0
 40
0.0
 40
0.0
 40
0.0
 40
0.2499999999999998
 40
0.2499999999999998
 40
0.4999999999999996
 40
0.4999999999999996
 40
1.0
 40
1.0
 40
1.0
 40
1.0
 10
25.27272746656129
 20
2.617416704975083
 30
0.0
 10
25.26161441621607
 20
2.956980838748313
 30
0.0
 10
25.25126801533818
 20
3.283681728087954
 30
0.0
 10
25.22955374484231
 20
3.932503038557099
 30
0.0
 10
25.2182313486447
 20
4.254020664815458
 30
0.0
 10
25.18310795364814
 20
5.199444987378476
 30
0.0
 10
25.15813335771971
 20
5.803984774210763
 30
0.0
 10
25.13249597383619
 20
6.355228767384814
 30
0.0
  0
SPLINE
  5
6A5
330
1F
100
AcDbEntity
  8
외형선
  6
Continuous
 62
     1
370
    15
100
AcDbSpline
210
0.0
220
0.0
230
1.0
 70
     8
 71
     3
 72
    12
 73
     8
 74
     0
 42
0.000000001
 43
0.00000001
 40
0.0
 40
0.0
 40
0.0
 40
0.0
 40
0.2500000000000002
 40
0.2500000000000002
 40
0.5000000000000003
 40
0.5000000000000003
 40
1.0
 40
1.0
 40
1.0
 40
1.0
 10
26.3592846107783
 20
2.233281414998521
 30
0.0
 10
26.34780979300103
 20
2.581019403639113
 30
0.0
 10
26.3367537467935
 20
2.919893157663493
 30
0.0
 10
26.3156233004756
 20
3.574891020089781
 30
0.0
 10
26.30460736273189
 20
3.900315862157781
 30
0.0
 10
26.27023628532699
 20
4.861845858286992
 30
0.0
 10
26.24561997367677
 20
5.482251022600968
 30
0.0
 10
26.22015197432474
 20
6.053748123120256
 30
0.0
  0
SPLINE
  5
6A6
330
1F
100
AcDbEntity
  8
외형선
  6
Continuous
 62
     1
370
    15
100
AcDbSpline
210
0.0
220
0.0
230
1.0
 70
     8
 71
     3
 72
    12
 73
     8
 74
     0
 42
0.000000001
 43
0.00000001
 40
0.0
 40
0.0
 40
0.0
 40
0.0
 40
0.2500000000000001
 40
0.2500000000000001
 40
0.5000000000000001
 40
0.5000000000000001
 40
1.0
 40
1.0
 40
1.0
 40
1.0
 10
27.14042103088769
 20
1.937929670252744
 30
0.0
 10
27.12866434449247
 20
2.290128612399075
 30
0.0
 10
27.11730683268342
 20
2.634213662066932
 30
0.0
 10
27.09555034095768
 20
3.300729550794044
 30
0.0
 10
27.08502213966138
 20
3.624616076517478
 30
0.0
 10
27.05114069537219
 20
4.593169846096329
 30
0.0
 10
27.02674560512011
 20
5.221924249738914
 30
0.0
 10
27.00136401915395
 20
5.804987513361647
 30
0.0
  0
SPLINE
  5
6AA
330
1F
100
AcDbEntity
  8
외형선
  6
Continuous
 62
     1
370
    15
100
AcDbSpline
210
0.0
220
0.0
230
1.0
 70
     8
 71
     3
 72
    12
 73
     8
 74
     0
 42
0.000000001
 43
0.00000001
 40
0.0
 40
0.0
 40
0.0
 40
0.0
 40
0.25
 40
0.25
 40
0.5
 40
0.5
 40
1.0
 40
1.0
 40
1.0
 40
1.0
 10
26.51568936738172
 20
2.158731688137381
 30
0.0
 10
26.50412005120656
 20
2.506914202382886
 30
0.0
 10
26.49296765719355
 20
2.846383764989055
 30
0.0
 10
26.47164548260502
 20
3.502768465670707
 30
0.0
 10
26.4607333968631
 20
3.827040127112154
 30
0.0
 10
26.42635950643577
 20
4.788490432557568
 30
0.0
 10
26.4017099856386
 20
5.40954984232526
 30
0.0
 10
26.37617950910393
 20
5.982198253514602
 30
0.0
  0
SPLINE
  5
6AC
330
1F
100
AcDbEntity
  8
외형선
  6
Continuous
 62
     1
370
    15
100
AcDbSpline
210
0.0
220
0.0
230
1.0
 70
     8
 71
     3
 72
    12
 73
     8
 74
     0
 42
0.000000001
 43
0.00000001
 40
0.0
 40
0.0
 40
0.0
 40
0.0
 40
0.2500000000000003
 40
0.2500000000000003
 40
0.5000000000000002
 40
0.5000000000000002
 40
1.0
 40
1.0
 40
1.0
 40
1.0
 10
25.11686613313034
 20
2.648872722780043
 30
0.0
 10
25.10576092531729
 20
2.986641470763386
 30
0.0
 10
25.09541642683055
 20
3.311581995894203
 30
0.0
 10
25.07354813587735
 20
3.958097480581459
 30
0.0
 10
25.06214929439269
 20
4.278295997395309
 30
0.0
 10
25.02680408197133
 20
5.219207855834322
 30
0.0
 10
25.00169180320469
 20
5.819983602684415
 30
0.0
 10
24.97594264320278
 20
6.366707428961385
 30
0.0
  0
SPLINE
  5
6AE
330
1F
100
AcDbEntity
  8
외형선
  6
Continuous
 62
     1
370
    15
100
AcDbSpline
210
0.0
220
0.0
230
1.0
 70
     8
 71
     3
 72
    10
 73
     6
 74
     0
 42
0.000000001
 43
0.00000001
 40
0.0
 40
0.0
 40
0.0
 40
0.0
 40
0.5
 40
0.5
 40
1.0
 40
1.0
 40
1.0
 40
1.0
 10
23.25004213204297
 20
3.315839499198068
 30
0.0
 10
23.22910243967512
 20
3.961136860238534
 30
0.0
 10
23.20624024047358
 20
4.599158076506439
 30
0.0
 10
23.15797986445309
 20
5.806386879069995
 30
0.0
 10
23.13259258711616
 20
6.375107453821363
 30
0.0
 10
23.10689978239761
 20
6.883620444981807
 30
0.0
  0
SPLINE
  5
6AF
330
1F
100
AcDbEntity
  8
외형선
  6
Continuous
 62
     1
370
    15
100
AcDbSpline
210
0.0
220
0.0
230
1.0
 70
     8
 71
     3
 72
    12
 73
     8
 74
     0
 42
0.000000001
 43
0.00000001
 40
0.0
 40
0.0
 40
0.0
 40
0.0
 40
0.2499999999999999
 40
0.2499999999999999
 40
0.5000000000000001
 40
0.5000000000000001
 40
1.0
 40
1.0
 40
1.0
 40
1.0
 10
24.33606381188542
 20
2.942373704917776
 30
0.0
 10
24.32528717612589
 20
3.274060287338243
 30
0.0
 10
24.31494669030993
 20
3.59569979127574
 30
0.0
 10
24.29274698590537
 20
4.237540465517339
 30
0.0
 10
24.2812082211503
 20
4.55450584479239
 30
0.0
 10
24.24553443165805
 20
5.483097968149869
 30
0.0
 10
24.22032697297472
 20
6.072108823546339
 30
0.0
 10
24.19462139716702
 20
6.604414427999336
 30
0.0
  0
SPLINE
  5
6B2
330
1F
100
AcDbEntity
  8
외형선
  6
Continuous
 62
     1
370
    15
100
AcDbSpline
210
0.0
220
0.0
230
1.0
 70
     8
 71
     3
 72
    12
 73
     8
 74
     0
 42
0.000000001
 43
0.00000001
 40
0.0
 40
0.0
 40
0.0
 40
0.0
 40
0.25
 40
0.25
 40
0.5
 40
0.5
 40
1.0
 40
1.0
 40
1.0
 40
1.0
 10
24.49240023736203
 20
2.864975919876725
 30
0.0
 10
24.48152014184918
 20
3.197508329656751
 30
0.0
 10
24.47118667911356
 20
3.519019591497388
 30
0.0
 10
24.44899159273009
 20
4.1609126327831
 30
0.0
 10
24.43744704486405
 20
4.478088600083046
 30
0.0
 10
24.40173111451374
 20
5.407804298561304
 30
0.0
 10
24.37646188877624
 20
5.998228271600132
 30
0.0
 10
24.35066673379097
 20
6.532314679667875
 30
0.0
  0
SPLINE
  5
6B4
330
1F
100
AcDbEntity
  8
외형선
  6
Continuous
 62
     1
370
    15
100
AcDbSpline
210
0.0
220
0.0
230
1.0
 70
     8
 71
     3
 72
    10
 73
     6
 74
     0
 42
0.000000001
 43
0.00000001
 40
0.0
 40
0.0
 40
0.0
 40
0.0
 40
0.4999999999999998
 40
0.4999999999999998
 40
1.0
 40
1.0
 40
1.0
 40
1.0
 10
23.09421536090306
 20
3.342587751810415
 30
0.0
 10
23.07312530458142
 20
3.985785029068294
 30
0.0
 10
23.05011254335633
 20
4.621087638508561
 30
0.0
 10
23.00158055894067
 20
5.821389643208631
 30
0.0
 10
22.97607265990731
 20
6.385896466341995
 30
0.0
 10
22.95028840442793
 20
6.889523282493832
 30
0.0
  0
SPLINE
  5
6B6
330
1F
100
AcDbEntity
  8
외형선
  6
Continuous
 62
     1
370
    15
100
AcDbSpline
210
0.0
220
0.0
230
1.0
 70
     8
 71
     3
 72
    10
 73
     6
 74
     0
 42
0.000000001
 43
0.00000001
 40
0.0
 40
0.0
 40
0.0
 40
0.0
 40
0.5
 40
0.5
 40
1.0
 40
1.0
 40
1.0
 40
1.0
 10
21.22715965531213
 20
3.995908915740058
 30
0.0
 10
21.20516255441324
 20
4.626486698668041
 30
0.0
 10
21.18146815839238
 20
5.240604699519379
 30
0.0
 10
21.13219167765862
 20
6.382843796852987
 30
0.0
 10
21.10662297196634
 20
6.910499399467481
 30
0.0
 10
21.08110149984437
 20
7.372306372885317
 30
0.0
  0
SPLINE
  5
6B7
330
1F
100
AcDbEntity
  8
외형선
  6
Continuous
 62
     1
370
    15
100
AcDbSpline
210
0.0
220
0.0
230
1.0
 70
     8
 71
     3
 72
    10
 73
     6
 74
     0
 42
0.000000001
 43
0.00000001
 40
0.0
 40
0.0
 40
0.0
 40
0.0
 40
0.5
 40
0.5
 40
1.0
 40
1.0
 40
1.0
 40
1.0
 10
22.31351361527597
 20
3.632869478518986
 30
0.0
 10
22.2920681447029
 20
4.271976134361717
 30
0.0
 10
22.26880043344507
 20
4.899561034300556
 30
0.0
 10
22.22002541042311
 20
6.077807830436788
 30
0.0
 10
22.19453023927959
 20
6.627989526225781
 30
0.0
 10
22.1688941980922
 20
7.115210019239937
 30
0.0
  0
SPLINE
  5
6B8
330
1F
100
AcDbEntity
  8
외형선
  6
Continuous
 62
     1
370
    15
100
AcDbSpline
210
0.0
220
0.0
230
1.0
 70
     8
 71
     3
 72
    10
 73
     6
 74
     0
 42
0.000000001
 43
0.00000001
 40
0.0
 40
0.0
 40
0.0
 40
0.0
 40
0.5
 40
0.5
 40
1.0
 40
1.0
 40
1.0
 40
1.0
 10
22.46985802172539
 20
3.55307306980025
 30
0.0
 10
22.44842986965758
 20
4.192128187412168
 30
0.0
 10
22.42514653468347
 20
4.820450933901208
 30
0.0
 10
22.37627292978961
 20
6.001381190330816
 30
0.0
 10
22.35069482384917
 20
6.553500883539249
 30
0.0
 10
22.32495100055817
 20
7.042913208160483
 30
0.0
  0
SPLINE
  5
6B9
330
1F
100
AcDbEntity
  8
외형선
  6
Continuous
 62
     1
370
    15
100
AcDbSpline
210
0.0
220
0.0
230
1.0
 70
     8
 71
     3
 72
    12
 73
     8
 74
     0
 42
0.000000001
 43
0.00000001
 40
0.0
 40
0.0
 40
0.0
 40
0.0
 40
0.25
 40
0.25
 40
0.5
 40
0.5
 40
1.0
 40
1.0
 40
1.0
 40
1.0
 10
13.47416793239118
 20
-7.068640438710841
 30
0.0
 10
13.46240093947075
 20
-6.829062072451077
 30
0.0
 10
13.45103210026799
 20
-6.576782142472636
 30
0.0
 10
13.42925154954218
 20
-6.05348378327478
 30
0.0
 10
13.4187372986493
 20
-5.78195506156573
 30
0.0
 10
13.38488375859071
 20
-4.914089146869212
 30
0.0
 10
13.36050325209694
 20
-4.273516960996936
 30
0.0
 10
13.33513042235753
 20
-3.590746275045241
 30
0.0
  0
SPLINE
  5
6BA
330
1F
100
AcDbEntity
  8
외형선
  6
Continuous
 62
     1
370
    15
100
AcDbSpline
210
0.0
220
0.0
230
1.0
 70
     8
 71
     3
 72
    12
 73
     8
 74
     0
 42
0.000000001
 43
0.00000001
 40
0.0
 40
0.0
 40
0.0
 40
0.0
 40
0.2500000000000001
 40
0.2500000000000001
 40
0.5000000000000001
 40
0.5000000000000001
 40
1.0
 40
1.0
 40
1.0
 40
1.0
 10
13.63009855925238
 20
-7.140792461768285
 30
0.0
 10
13.61833636705573
 20
-6.901832442768733
 30
0.0
 10
13.60696543559683
 20
-6.65003966507668
 30
0.0
 10
13.58516762704317
 20
-6.127412095433089
 30
0.0
 10
13.57474291135485
 20
-5.856908613177541
 30
0.0
 10
13.54114270398865
 20
-4.991877482829503
 30
0.0
 10
13.51692729767618
 20
-4.3529189995949
 30
0.0
 10
13.49169780040794
 20
-3.67107928994761
 30
0.0
  0
SPLINE
  5
6BB
330
1F
100
AcDbEntity
  8
외형선
  6
Continuous
 62
     1
370
    15
100
AcDbSpline
210
0.0
220
0.0
230
1.0
 70
     8
 71
     3
 72
    12
 73
     8
 74
     0
 42
0.000000001
 43
0.00000001
 40
0.0
 40
0.0
 40
0.0
 40
0.0
 40
0.2500000000000001
 40
0.2500000000000001
 40
0.5000000000000002
 40
0.5000000000000002
 40
1.0
 40
1.0
 40
1.0
 40
1.0
 10
14.71707588569729
 20
-7.397435581202463
 30
0.0
 10
14.7050198135104
 20
-7.167847268180024
 30
0.0
 10
14.69332068797426
 20
-6.924204994880488
 30
0.0
 10
14.67081678808396
 20
-6.41535446528175
 30
0.0
 10
14.66033761467509
 20
-6.152905783001362
 30
0.0
 10
14.62767408586068
 20
-5.320206871301508
 30
0.0
 10
14.60397026550918
 20
-4.70031211009387
 30
0.0
 10
14.57907800051297
 20
-4.033031905955324
 30
0.0
  0
SPLINE
  5
6BC
330
1F
100
AcDbEntity
  8
외형선
  6
Continuous
 62
     1
370
    15
100
AcDbSpline
210
0.0
220
0.0
230
1.0
 70
     8
 71
     3
 72
    10
 73
     6
 74
     0
 42
0.000000001
 43
0.00000001
 40
0.0
 40
0.0
 40
0.0
 40
0.0
 40
0.5000000000000002
 40
0.5000000000000002
 40
1.0
 40
1.0
 40
1.0
 40
1.0
 10
21.07126916093616
 20
4.017499713525295
 30
0.0
 10
21.04912353304771
 20
4.645773619205015
 30
0.0
 10
21.02528364321304
 20
5.256947253743752
 30
0.0
 10
20.9757524918921
 20
6.391843983950354
 30
0.0
 10
20.95007503045442
 20
6.91509796640449
 30
0.0
 10
20.92447594652921
 20
7.371900996762415
 30
0.0
  0
SPLINE
  5
6BD
330
1F
100
AcDbEntity
  8
외형선
  6
Continuous
 62
     1
370
    15
100
AcDbSpline
210
0.0
220
0.0
230
1.0
 70
     8
 71
     3
 72
    12
 73
     8
 74
     0
 42
0.000000001
 43
0.00000001
 40
0.0
 40
0.0
 40
0.0
 40
0.0
 40
0.2499999999999999
 40
0.2499999999999999
 40
0.4999999999999998
 40
0.4999999999999998
 40
1.0
 40
1.0
 40
1.0
 40
1.0
 10
14.87353059381197
 20
-7.395765063153727
 30
0.0
 10
14.86139206417693
 20
-7.168321849121051
 30
0.0
 10
14.84960690876515
 20
-6.926623371239871
 30
0.0
 10
14.82692842205747
 20
-6.421264000084047
 30
0.0
 10
14.81634522075849
 20
-6.160189797764504
 30
0.0
 10
14.78371691754874
 20
-5.334229743148805
 30
0.0
 10
14.7600090832449
 20
-4.718453979705057
 30
0.0
 10
14.73508371333285
 20
-4.054709587936062
 30
0.0
  0
SPLINE
  5
6BE
330
1F
100
AcDbEntity
  8
외형선
  6
Continuous
 62
     1
370
    15
100
AcDbSpline
210
0.0
220
0.0
230
1.0
 70
     8
 71
     3
 72
    10
 73
     6
 74
     0
 42
0.000000001
 43
0.00000001
 40
0.0
 40
0.0
 40
0.0
 40
0.0
 40
0.5
 40
0.5
 40
1.0
 40
1.0
 40
1.0
 40
1.0
 10
19.2034390859807
 20
4.651802274591079
 30
0.0
 10
19.18050301853653
 20
5.263461986954288
 30
0.0
 10
19.15612053024514
 20
5.849512970523838
 30
0.0
 10
19.10613546439966
 20
6.91964523301195
 30
0.0
 10
19.08054802556824
 20
7.403304153052664
 30
0.0
 10
19.05534787173996
 20
7.816477680314646
 30
0.0
  0
SPLINE
  5
6BF
330
1F
100
AcDbEntity
  8
외형선
  6
Continuous
 62
     1
370
    15
100
AcDbSpline
210
0.0
220
0.0
230
1.0
 70
     8
 71
     3
 72
    10
 73
     6
 74
     0
 42
0.000000001
 43
0.00000001
 40
0.0
 40
0.0
 40
0.0
 40
0.0
 40
0.5
 40
0.5
 40
1.0
 40
1.0
 40
1.0
 40
1.0
 10
20.29018086631466
 20
4.303521216964976
 30
0.0
 10
20.26773434872185
 20
4.925796883465329
 30
0.0
 10
20.24370409591338
 20
5.527360132897
 30
0.0
 10
20.19406380256176
 20
6.636933561493334
 30
0.0
 10
20.16846804503555
 20
7.144495843253376
 30
0.0
 10
20.14307891123033
 20
7.583943673591213
 30
0.0
  0
SPLINE
  5
6C0
330
1F
100
AcDbEntity
  8
외형선
  6
Continuous
 62
     1
370
    15
100
AcDbSpline
210
0.0
220
0.0
230
1.0
 70
     8
 71
     3
 72
    10
 73
     6
 74
     0
 42
0.000000001
 43
0.00000001
 40
0.0
 40
0.0
 40
0.0
 40
0.0
 40
0.5
 40
0.5
 40
1.0
 40
1.0
 40
1.0
 40
1.0
 10
20.44663893244316
 20
4.220970690431306
 30
0.0
 10
20.4241916870595
 20
4.843784574272986
 30
0.0
 10
20.40012599246764
 20
5.446662368976353
 30
0.0
 10
20.35034950205695
 20
6.559920466881449
 30
0.0
 10
20.32465312263266
 20
7.069843414420381
 30
0.0
 10
20.29914201458549
 20
7.511802118442558
 30
0.0
  0
SPLINE
  5
6C1
330
1F
100
AcDbEntity
  8
외형선
  6
Continuous
 62
     1
370
    15
100
AcDbSpline
210
0.0
220
0.0
230
1.0
 70
     8
 71
     3
 72
    10
 73
     6
 74
     0
 42
0.000000001
 43
0.00000001
 40
0.0
 40
0.0
 40
0.0
 40
0.0
 40
0.5
 40
0.5
 40
1.0
 40
1.0
 40
1.0
 40
1.0
 10
15.49847423708939
 20
-7.534850745697725
 30
0.0
 10
15.47390981243358
 20
-7.091880835038729
 30
0.0
 10
15.45086431471382
 20
-6.59046149027677
 30
0.0
 10
15.40815263041282
 20
-5.515556098475416
 30
0.0
 10
15.38478654133559
 20
-4.911864808716546
 30
0.0
 10
15.36010848396993
 20
-4.25785255089904
 30
0.0
  0
SPLINE
  5
6C2
330
1F
100
AcDbEntity
  8
외형선
  6
Continuous
 62
     1
370
    15
100
AcDbSpline
210
0.0
220
0.0
230
1.0
 70
     8
 71
     3
 72
    10
 73
     6
 74
     0
 42
0.000000001
 43
0.00000001
 40
0.0
 40
0.0
 40
0.0
 40
0.0
 40
0.5
 40
0.5
 40
1.0
 40
1.0
 40
1.0
 40
1.0
 10
15.65446492059181
 20
-7.607005900583286
 30
0.0
 10
15.62992436304922
 20
-7.165704425896582
 30
0.0
 10
15.60670578088799
 20
-6.664111958951309
 30
0.0
 10
15.56427961541613
 20
-5.593002926397618
 30
0.0
 10
15.54111710017055
 20
-4.991521221612244
 30
0.0
 10
15.51659616725832
 20
-4.338906987021927
 30
0.0
  0
SPLINE
  5
6C3
330
1F
100
AcDbEntity
  8
외형선
  6
Continuous
 62
     1
370
    15
100
AcDbSpline
210
0.0
220
0.0
230
1.0
 70
     8
 71
     3
 72
    12
 73
     8
 74
     0
 42
0.000000001
 43
0.00000001
 40
0.0
 40
0.0
 40
0.0
 40
0.0
 40
0.4999999999999996
 40
0.4999999999999996
 40
0.7499999999999998
 40
0.7499999999999998
 40
1.0
 40
1.0
 40
1.0
 40
1.0
 10
16.7416884476822
 20
-7.83796626000289
 30
0.0
 10
16.71673007090052
 20
-7.419157704328585
 30
0.0
 10
16.69292957137316
 20
-6.935791995139748
 30
0.0
 10
16.66009239479757
 20
-6.152448991308194
 30
0.0
 10
16.64967849561548
 20
-5.88247683792684
 30
0.0
 10
16.62729739520356
 20
-5.306742413262073
 30
0.0
 10
16.61565491316163
 20
-5.003390381484868
 30
0.0
 10
16.60364906649739
 20
-4.686599568014993
 30
0.0
  0
SPLINE
  5
6C4
330
1F
100
AcDbEntity
  8
외형선
  6
Continuous
 62
     1
370
    15
100
AcDbSpline
210
0.0
220
0.0
230
1.0
 70
     8
 71
     3
 72
    10
 73
     6
 74
     0
 42
0.000000001
 43
0.00000001
 40
0.0
 40
0.0
 40
0.0
 40
0.0
 40
0.5
 40
0.5
 40
1.0
 40
1.0
 40
1.0
 40
1.0
 10
19.04751076349302
 20
4.667656572361034
 30
0.0
 10
19.02442997025931
 20
5.276817570287877
 30
0.0
 10
18.99990905419892
 20
5.859718216307654
 30
0.0
 10
18.94968956882783
 20
6.92216093273902
 30
0.0
 10
18.92400653538362
 20
7.401279135027268
 30
0.0
 10
18.89874325946388
 20
7.809390658045777
 30
0.0
  0
SPLINE
  5
6C5
330
1F
100
AcDbEntity
  8
외형선
  6
Continuous
 62
     1
370
    15
100
AcDbSpline
210
0.0
220
0.0
230
1.0
 70
     8
 71
     3
 72
    12
 73
     8
 74
     0
 42
0.000000001
 43
0.00000001
 40
0.0
 40
0.0
 40
0.0
 40
0.0
 40
0.5000000000000001
 40
0.5000000000000001
 40
0.7499999999999999
 40
0.7499999999999999
 40
1.0
 40
1.0
 40
1.0
 40
1.0
 10
16.89823942649175
 20
-7.830682418007071
 30
0.0
 10
16.87313434592919
 20
-7.416656091861721
 30
0.0
 10
16.84916700360994
 20
-6.937324007491919
 30
0.0
 10
16.81607600989434
 20
-6.158894485061433
 30
0.0
 10
16.80566097031501
 20
-5.891034649949164
 30
0.0
 10
16.78329637651108
 20
-5.319699200956132
 30
0.0
 10
16.77165545735587
 20
-5.018452163866113
 30
0.0
 10
16.75964417192511
 20
-4.703643623195191
 30
0.0
  0
SPLINE
  5
6C6
330
1F
100
AcDbEntity
  8
외형선
  6
Continuous
 62
     1
370
    15
100
AcDbSpline
210
0.0
220
0.0
230
1.0
 70
     8
 71
     3
 72
    10
 73
     6
 74
     0
 42
0.000000001
 43
0.00000001
 40
0.0
 40
0.0
 40
0.0
 40
0.0
 40
0.5
 40
0.5
 40
1.0
 40
1.0
 40
1.0
 40
1.0
 10
18.42264405809234
 20
4.86309572546484
 30
0.0
 10
18.39929922762018
 20
5.465519848607054
 30
0.0
 10
18.37459769284802
 20
6.038873864844147
 30
0.0
 10
18.32422798619196
 20
7.077574465850416
 30
0.0
 10
18.29857573143928
 20
7.54251520113719
 30
0.0
 10
18.27344570377189
 20
7.935244434660023
 30
0.0
  0
SPLINE
  5
6C7
330
1F
100
AcDbEntity
  8
외형선
  6
Continuous
 62
     1
370
    15
100
AcDbSpline
210
0.0
220
0.0
230
1.0
 70
     8
 71
     3
 72
    12
 73
     8
 74
     0
 42
0.000000001
 43
0.00000001
 40
0.0
 40
0.0
 40
0.0
 40
0.0
 40
0.5000000000000002
 40
0.5000000000000002
 40
0.7500000000000001
 40
0.7500000000000001
 40
1.0
 40
1.0
 40
1.0
 40
1.0
 10
17.5233616548599
 20
-7.955776677172709
 30
0.0
 10
17.49806241804381
 20
-7.555630646056187
 30
0.0
 10
17.47379970546253
 20
-7.087943284263496
 30
0.0
 10
17.44016746554151
 20
-6.322816432939609
 30
0.0
 10
17.42973567366968
 20
-6.060034644768658
 30
0.0
 10
17.40777585738791
 20
-5.502206214571791
 30
0.0
 10
17.39632303049196
 20
-5.207420239773564
 30
0.0
 10
17.38448008441488
 20
-4.898613512958253
 30
0.0
  0
SPLINE
  5
6C8
330
1F
100
AcDbEntity
  8
외형선
  6
Continuous
 62
     1
370
    15
100
AcDbSpline
210
0.0
220
0.0
230
1.0
 70
     8
 71
     3
 72
    10
 73
     6
 74
     0
 42
0.000000001
 43
0.00000001
 40
0.0
 40
0.0
 40
0.0
 40
0.0
 40
0.5
 40
0.5
 40
1.0
 40
1.0
 40
1.0
 40
1.0
 10
17.17896824139475
 20
5.280995715992534
 30
0.0
 10
17.15522315956527
 20
5.869409184361368
 30
0.0
 10
17.13030738516388
 20
6.423188899027741
 30
0.0
 10
17.07993718324027
 20
7.414203885440179
 30
0.0
 10
17.05449887253953
 20
7.851079872941652
 30
0.0
 10
17.029772319089
 20
8.213881389379948
 30
0.0
  0
SPLINE
  5
6C9
330
1F
100
AcDbEntity
  8
외형선
  6
Continuous
 62
     1
370
    15
100
AcDbSpline
210
0.0
220
0.0
230
1.0
 70
     8
 71
     3
 72
    10
 73
     6
 74
     0
 42
0.000000001
 43
0.00000001
 40
0.0
 40
0.0
 40
0.0
 40
0.0
 40
0.5
 40
0.5
 40
1.0
 40
1.0
 40
1.0
 40
1.0
 10
18.26614003170774
 20
4.946339480058709
 30
0.0
 10
18.24280994190675
 20
5.54786530737921
 30
0.0
 10
18.2181576312362
 20
6.119578455060529
 30
0.0
 10
18.16794682056129
 20
7.154074134640434
 30
0.0
 10
18.14240402227684
 20
7.616460911114777
 30
0.0
 10
18.11740110917881
 20
8.006547991946851
 30
0.0
  0
SPLINE
  5
6CA
330
1F
100
AcDbEntity
  8
외형선
  6
Continuous
 62
     1
370
    15
100
AcDbSpline
210
0.0
220
0.0
230
1.0
 70
     8
 71
     3
 72
    12
 73
     8
 74
     0
 42
0.000000001
 43
0.00000001
 40
0.0
 40
0.0
 40
0.0
 40
0.0
 40
0.5000000000000004
 40
0.5000000000000004
 40
0.7500000000000002
 40
0.7500000000000002
 40
1.0
 40
1.0
 40
1.0
 40
1.0
 10
17.67939040888819
 20
-8.027240302291759
 30
0.0
 10
17.65414428768016
 20
-7.629376142158096
 30
0.0
 10
17.629904827898
 20
-7.16361771931813
 30
0.0
 10
17.59626166452775
 20
-6.400451635556712
 30
0.0
 10
17.58582112058647
 20
-6.138165006506766
 30
0.0
 10
17.56405086332338
 20
-5.582897177827297
 30
0.0
 10
17.55269261352131
 20
-5.289344773775992
 30
0.0
 10
17.54094163960976
 20
-4.98166914356983
 30
0.0
  0
SPLINE
  5
6CB
330
1F
100
AcDbEntity
  8
외형선
  6
Continuous
 62
     1
370
    15
100
AcDbSpline
210
0.0
220
0.0
230
1.0
 70
     8
 71
     3
 72
    12
 73
     8
 74
     0
 42
0.000000001
 43
0.00000001
 40
0.0
 40
0.0
 40
0.0
 40
0.0
 40
0.5000000000000002
 40
0.5000000000000002
 40
0.7500000000000001
 40
0.7500000000000001
 40
1.0
 40
1.0
 40
1.0
 40
1.0
 10
18.7668985657462
 20
-8.233263558389432
 30
0.0
 10
18.74140700116126
 20
-7.861124292417562
 30
0.0
 10
18.71673915002648
 20
-7.417695220421068
 30
0.0
 10
18.68225878056065
 20
-6.681066037046067
 30
0.0
 10
18.67118066098512
 20
-6.423720772909226
 30
0.0
 10
18.65000056152819
 20
-5.89204382910132
 30
0.0
 10
18.63908480747656
 20
-5.611252343309014
 30
0.0
 10
18.62766532890682
 20
-5.315027761338461
 30
0.0
  0
SPLINE
  5
6CC
330
1F
100
AcDbEntity
  8
외형선
  6
Continuous
 62
     1
370
    15
100
AcDbSpline
210
0.0
220
0.0
230
1.0
 70
     8
 71
     3
 72
    10
 73
     6
 74
     0
 42
0.000000001
 43
0.00000001
 40
0.0
 40
0.0
 40
0.0
 40
0.0
 40
0.5
 40
0.5
 40
1.0
 40
1.0
 40
1.0
 40
1.0
 10
17.02300966307373
 20
5.291103530711359
 30
0.0
 10
16.99911879764127
 20
5.876971675406113
 30
0.0
 10
16.97406637179156
 20
6.427530282424131
 30
0.0
 10
16.92347133767068
 20
7.410725488755523
 30
0.0
 10
16.89794522213511
 20
7.843003119307701
 30
0.0
 10
16.87316509810776
 20
8.200728931076865
 30
0.0
  0
SPLINE
  5
6CD
330
1F
100
AcDbEntity
  8
외형선
  6
Continuous
 62
     1
370
    15
100
AcDbSpline
210
0.0
220
0.0
230
1.0
 70
     8
 71
     3
 72
    12
 73
     8
 74
     0
 42
0.000000001
 43
0.00000001
 40
0.0
 40
0.0
 40
0.0
 40
0.0
 40
0.5
 40
0.5
 40
0.75
 40
0.75
 40
1.0
 40
1.0
 40
1.0
 40
1.0
 10
18.92348410537661
 20
-8.219485132983937
 30
0.0
 10
18.8978622059179
 20
-7.852352896870944
 30
0.0
 10
18.8730396968248
 20
-7.413266697609384
 30
0.0
 10
18.83831681699066
 20
-6.682034771535624
 30
0.0
 10
18.82715612802121
 20
-6.426306612944982
 30
0.0
 10
18.80581144100776
 20
-5.897522589540312
 30
0.0
 10
18.79497902030109
 20
-5.619440802746844
 30
0.0
 10
18.7835602293114
 20
-5.325236832832873
 30
0.0
  0
SPLINE
  5
6CE
330
1F
100
AcDbEntity
  8
외형선
  6
Continuous
 62
     1
370
    15
100
AcDbSpline
210
0.0
220
0.0
230
1.0
 70
     8
 71
     3
 72
    10
 73
     6
 74
     0
 42
0.000000001
 43
0.00000001
 40
0.0
 40
0.0
 40
0.0
 40
0.0
 40
0.5
 40
0.5
 40
1.0
 40
1.0
 40
1.0
 40
1.0
 10
16.39795758379621
 20
5.477141663189608
 30
0.0
 10
16.37384391225684
 20
6.054995798087154
 30
0.0
 10
16.34865910705401
 20
6.594791171273256
 30
0.0
 10
16.29801274277421
 20
7.552272600293486
 30
0.0
 10
16.27256780826642
 20
7.96962326343658
 30
0.0
 10
16.24796582058494
 20
8.311537470520067
 30
0.0
  0
SPLINE
  5
6CF
330
1F
100
AcDbEntity
  8
외형선
  6
Continuous
 62
     1
370
    15
100
AcDbSpline
210
0.0
220
0.0
230
1.0
 70
     8
 71
     3
 72
    12
 73
     8
 74
     0
 42
0.000000001
 43
0.00000001
 40
0.0
 40
0.0
 40
0.0
 40
0.0
 40
0.5
 40
0.5
 40
0.75
 40
0.75
 40
1.0
 40
1.0
 40
1.0
 40
1.0
 10
19.5487198951217
 20
-8.329504485523705
 30
0.0
 10
19.5230048028041
 20
-7.977852815245531
 30
0.0
 10
19.49797997408765
 20
-7.552566769705354
 30
0.0
 10
19.46282892803682
 20
-6.83821114033437
 30
0.0
 10
19.45150511441354
 20
-6.587482189236502
 30
0.0
 10
19.42980299179433
 20
-6.067366610055171
 30
0.0
 10
19.41936084367412
 20
-5.797777773327299
 30
0.0
 10
19.40815065118002
 20
-5.510551941786149
 30
0.0
  0
SPLINE
  5
6D0
330
1F
100
AcDbEntity
  8
외형선
  6
Continuous
 62
     1
370
    15
100
AcDbSpline
210
0.0
220
0.0
230
1.0
 70
     8
 71
     3
 72
    10
 73
     6
 74
     0
 42
0.000000001
 43
0.00000001
 40
0.0
 40
0.0
 40
0.0
 40
0.0
 40
0.5
 40
0.5
 40
1.0
 40
1.0
 40
1.0
 40
1.0
 10
15.1540020841995
 20
5.876992720974753
 30
0.0
 10
15.12956782682532
 20
6.43852713764568
 30
0.0
 10
15.10425808319437
 20
6.956596911045368
 30
0.0
 10
15.05378623147003
 20
7.862982552612992
 30
0.0
 10
15.02864047862355
 20
8.251017940285463
 30
0.0
 10
15.00451420243704
 20
8.562311206925306
 30
0.0
  0
SPLINE
  5
6D1
330
1F
100
AcDbEntity
  8
외형선
  6
Continuous
 62
     1
370
    15
100
AcDbSpline
210
0.0
220
0.0
230
1.0
 70
     8
 71
     3
 72
    10
 73
     6
 74
     0
 42
0.000000001
 43
0.00000001
 40
0.0
 40
0.0
 40
0.0
 40
0.0
 40
0.5
 40
0.5
 40
1.0
 40
1.0
 40
1.0
 40
1.0
 10
16.24139045668316
 20
5.561366257604936
 30
0.0
 10
16.2173124628921
 20
6.137742857480861
 30
0.0
 10
16.19219828776976
 20
6.675372640298184
 30
0.0
 10
16.14174871194187
 20
7.627811735112909
 30
0.0
 10
16.11642962613586
 20
8.042296519562454
 30
0.0
 10
16.09196678387887
 20
8.38136690764158
 30
0.0
  0
SPLINE
  5
6D2
330
1F
100
AcDbEntity
  8
외형선
  6
Continuous
 62
     1
370
    15
100
AcDbSpline
210
0.0
220
0.0
230
1.0
 70
     8
 71
     3
 72
    12
 73
     8
 74
     0
 42
0.000000001
 43
0.00000001
 40
0.0
 40
0.0
 40
0.0
 40
0.0
 40
0.5
 40
0.5
 40
0.75
 40
0.75
 40
1.0
 40
1.0
 40
1.0
 40
1.0
 10
19.70479534932391
 20
-8.400085963788953
 30
0.0
 10
19.67914745815661
 20
-8.05106876702179
 30
0.0
 10
19.65416116630333
 20
-7.628141803991681
 30
0.0
 10
19.61902038280788
 20
-6.916451244071679
 30
0.0
 10
19.60769221542105
 20
-6.666466597649986
 30
0.0
 10
19.58596672577132
 20
-6.147502067605121
 30
0.0
 10
19.57561860771991
 20
-5.879225655161651
 30
0.0
 10
19.56450352219897
 20
-5.59328801002256
 30
0.0
  0
SPLINE
  5
6D3
330
1F
100
AcDbEntity
  8
외형선
  6
Continuous
 62
     1
370
    15
100
AcDbSpline
210
0.0
220
0.0
230
1.0
 70
     8
 71
     3
 72
    12
 73
     8
 74
     0
 42
0.000000001
 43
0.00000001
 40
0.0
 40
0.0
 40
0.0
 40
0.0
 40
0.4999999999999998
 40
0.4999999999999998
 40
0.7499999999999999
 40
0.7499999999999999
 40
1.0
 40
1.0
 40
1.0
 40
1.0
 10
20.79241484896428
 20
-8.578597329437162
 30
0.0
 10
20.76670572585655
 20
-8.257730442581364
 30
0.0
 10
20.74146670948547
 20
-7.860648512376642
 30
0.0
 10
20.70570995695495
 20
-7.181603413864027
 30
0.0
 10
20.69413770879836
 20
-6.941496906094545
 30
0.0
 10
20.67186145383416
 20
-6.440063466953943
 30
0.0
 10
20.66146476797572
 20
-6.181319645707253
 30
0.0
 10
20.6507478199671
 20
-5.908412618848766
 30
0.0
  0
SPLINE
  5
6D4
330
1F
100
AcDbEntity
  8
외형선
  6
Continuous
 62
     1
370
    15
100
AcDbSpline
210
0.0
220
0.0
230
1.0
 70
     8
 71
     3
 72
    10
 73
     6
 74
     0
 42
0.000000001
 43
0.00000001
 40
0.0
 40
0.0
 40
0.0
 40
0.0
 40
0.5
 40
0.5
 40
1.0
 40
1.0
 40
1.0
 40
1.0
 10
14.99798831602009
 20
5.882136233988509
 30
0.0
 10
14.97342240939974
 20
6.440681281425944
 30
0.0
 10
14.94799488021021
 20
6.955102279253905
 30
0.0
 10
14.89734171372933
 20
7.852999420232008
 30
0.0
 10
14.87213271821596
 20
8.236198289651776
 30
0.0
 10
14.84797704123331
 20
8.542328947366771
 30
0.0
  0
SPLINE
  5
6D5
330
1F
100
AcDbEntity
  8
외형선
  6
Continuous
 62
     1
370
    15
100
AcDbSpline
210
0.0
220
0.0
230
1.0
 70
     8
 71
     3
 72
    12
 73
     8
 74
     0
 42
0.000000001
 43
0.00000001
 40
0.0
 40
0.0
 40
0.0
 40
0.0
 40
0.5
 40
0.5
 40
0.75
 40
0.75
 40
1.0
 40
1.0
 40
1.0
 40
1.0
 10
20.94903254412335
 20
-8.558565424326586
 30
0.0
 10
20.92322357650249
 20
-8.243022631501601
 30
0.0
 10
20.89785642052615
 20
-7.850777687578012
 30
0.0
 10
20.86188723613898
 20
-7.177985346772115
 30
0.0
 10
20.85024087090985
 20
-6.939799759843267
 30
0.0
 10
20.82781367453398
 20
-6.441878932941067
 30
0.0
 10
20.81731644419173
 20
-6.184494114337497
 30
0.0
 10
20.80661297105936
 20
-5.913811223560302
 30
0.0
  0
SPLINE
  5
6D6
330
1F
100
AcDbEntity
  8
외형선
  6
Continuous
 62
     1
370
    15
100
AcDbSpline
210
0.0
220
0.0
230
1.0
 70
     8
 71
     3
 72
    10
 73
     6
 74
     0
 42
0.000000001
 43
0.00000001
 40
0.0
 40
0.0
 40
0.0
 40
0.0
 40
0.4999999999999998
 40
0.4999999999999998
 40
1.0
 40
1.0
 40
1.0
 40
1.0
 10
14.37279240642298
 20
6.057776361980229
 30
0.0
 10
14.34804556918338
 20
6.607087512116498
 30
0.0
 10
14.3225337543856
 20
7.109609756833107
 30
0.0
 10
14.27192587161611
 20
7.980009571985748
 30
0.0
 10
14.24684632884721
 20
8.347638025638139
 30
0.0
 10
14.22291098565784
 20
8.637624498844497
 30
0.0
  0
SPLINE
  5
6D7
330
1F
100
AcDbEntity
  8
외형선
  6
Continuous
 62
     1
370
    15
100
AcDbSpline
210
0.0
220
0.0
230
1.0
 70
     8
 71
     3
 72
    10
 73
     6
 74
     0
 42
0.000000001
 43
0.00000001
 40
0.0
 40
0.0
 40
0.0
 40
0.0
 40
0.5
 40
0.5
 40
1.0
 40
1.0
 40
1.0
 40
1.0
 10
21.57435142751731
 20
-8.653098075560976
 30
0.0
 10
21.5485523307835
 20
-8.354253106616948
 30
0.0
 10
21.52308337981176
 20
-7.977661544888162
 30
0.0
 10
21.47472577434808
 20
-7.10754353965056
 30
0.0
 10
21.45184801632322
 20
-6.614484983873785
 30
0.0
 10
21.4309247344133
 20
-6.08862846283566
 30
0.0
  0
SPLINE
  5
6D8
330
1F
100
AcDbEntity
  8
외형선
  6
Continuous
 62
     1
370
    15
100
AcDbSpline
210
0.0
220
0.0
230
1.0
 70
     8
 71
     3
 72
    10
 73
     6
 74
     0
 42
0.000000001
 43
0.00000001
 40
0.0
 40
0.0
 40
0.0
 40
0.0
 40
0.4999999999999998
 40
0.4999999999999998
 40
0.8577507210058835
 40
0.8577507210058835
 40
0.8577507210058835
 40
0.8577507210058835
 10
13.12859694493567
 20
6.438550260797198
 30
0.0
 10
13.1036145638372
 20
6.969132485417711
 30
0.0
 10
13.0780720887706
 20
7.4477212351664
 30
0.0
 10
13.03496950010317
 20
8.147530943377836
 30
0.0
 10
13.01721389145091
 20
8.403140070472741
 30
0.0
 10
13.0
 20
8.619724096672792
 30
0.0
  0
SPLINE
  5
6D9
330
1F
100
AcDbEntity
  8
외형선
  6
Continuous
 62
     1
370
    15
100
AcDbSpline
210
0.0
220
0.0
230
1.0
 70
     8
 71
     3
 72
    10
 73
     6
 74
     0
 42
0.000000001
 43
0.00000001
 40
0.0
 40
0.0
 40
0.0
 40
0.0
 40
0.5
 40
0.5
 40
1.0
 40
1.0
 40
1.0
 40
1.0
 10
14.21617854745691
 20
6.142366732449782
 30
0.0
 10
14.19148314147464
 20
6.689768043892384
 30
0.0
 10
14.16605709736982
 20
7.189743337177772
 30
0.0
 10
14.11567069549616
 20
8.054497744035244
 30
0.0
 10
14.09072649301641
 20
8.419038492435648
 30
0.0
 10
14.06693610445556
 20
8.706027464152738
 30
0.0
  0
SPLINE
  5
6DA
330
1F
100
AcDbEntity
  8
외형선
  6
Continuous
 62
     1
370
    15
100
AcDbSpline
210
0.0
220
0.0
230
1.0
 70
     8
 71
     3
 72
    10
 73
     6
 74
     0
 42
0.000000001
 43
0.00000001
 40
0.0
 40
0.0
 40
0.0
 40
0.0
 40
0.5000000000000002
 40
0.5000000000000002
 40
1.0
 40
1.0
 40
1.0
 40
1.0
 10
21.73040378192044
 20
-8.72159838350878
 30
0.0
 10
21.70470882958855
 20
-8.425842869358398
 30
0.0
 10
21.67931760587421
 20
-8.052303742682701
 30
0.0
 10
21.6310466905015
 20
-7.187455852249371
 30
0.0
 10
21.60817791756605
 20
-6.696605430668522
 30
0.0
 10
21.58723104698387
 20
-6.172258063915796
 30
0.0
  0
SPLINE
  5
6DB
330
1F
100
AcDbEntity
  8
외형선
  6
Continuous
 62
     1
370
    15
100
AcDbSpline
210
0.0
220
0.0
230
1.0
 70
     8
 71
     3
 72
    10
 73
     6
 74
     0
 42
0.000000001
 43
0.00000001
 40
0.0
 40
0.0
 40
0.0
 40
0.0
 40
0.5
 40
0.5
 40
1.0
 40
1.0
 40
1.0
 40
1.0
 10
22.8181948841512
 20
-8.873342021160871
 30
0.0
 10
22.79257435956699
 20
-8.607132820170376
 30
0.0
 10
22.76706659735529
 20
-8.26171350268387
 30
0.0
 10
22.71821392358083
 20
-7.44608189196865
 30
0.0
 10
22.69488134643702
 20
-6.976298970343238
 30
0.0
 10
22.6733527331016
 20
-6.468469868132598
 30
0.0
  0
SPLINE
  5
6DD
330
1F
100
AcDbEntity
  8
외형선
  6
Continuous
 62
     1
370
    15
100
AcDbSpline
210
0.0
220
0.0
230
1.0
 70
     8
 71
     3
 72
    10
 73
     6
 74
     0
 42
0.000000001
 43
0.00000001
 40
0.0
 40
0.0
 40
0.0
 40
0.0
 40
0.5000000000000001
 40
0.5000000000000001
 40
1.0
 40
1.0
 40
1.0
 40
1.0
 10
22.97481056673396
 20
-8.846917375765303
 30
0.0
 10
22.94910775404693
 20
-8.586027382499035
 30
0.0
 10
22.92348747242081
 20
-8.24555199743528
 30
0.0
 10
22.87437539235585
 20
-7.438595496110652
 30
0.0
 10
22.8508963491437
 20
-6.972544659857865
 30
0.0
 10
22.82921945677528
 20
-6.467825517686502
 30
0.0
  0
SPLINE
  5
6DF
330
1F
100
AcDbEntity
  8
외형선
  6
Continuous
 62
     1
370
    15
100
AcDbSpline
210
0.0
220
0.0
230
1.0
 70
     8
 71
     3
 72
    10
 73
     6
 74
     0
 42
0.000000001
 43
0.00000001
 40
0.0
 40
0.0
 40
0.0
 40
0.0
 40
0.5
 40
0.5
 40
1.0
 40
1.0
 40
1.0
 40
1.0
 10
23.60014848488972
 20
-8.925174769396882
 30
0.0
 10
23.57451228776201
 20
-8.681308737459398
 30
0.0
 10
23.54884994424193
 20
-8.357205288294255
 30
0.0
 10
23.49944887038165
 20
-7.579213462033515
 30
0.0
 10
23.47572361531959
 20
-7.125735621297316
 30
0.0
 10
23.45372839837304
 20
-6.631021359115072
 30
0.0
  0
SPLINE
  5
6E2
330
1F
100
AcDbEntity
  8
외형선
  6
Continuous
 62
     1
370
    15
100
AcDbSpline
210
0.0
220
0.0
230
1.0
 70
     8
 71
     3
 72
    10
 73
     6
 74
     0
 42
0.000000001
 43
0.00000001
 40
0.0
 40
0.0
 40
0.0
 40
0.0
 40
0.5
 40
0.5
 40
1.0
 40
1.0
 40
1.0
 40
1.0
 10
23.75619226839139
 20
-8.991570223436526
 30
0.0
 10
23.73067154784908
 20
-8.750929682943623
 30
0.0
 10
23.70510191993466
 20
-8.43010576066088
 30
0.0
 10
23.65582049238062
 20
-7.658025863975022
 30
0.0
 10
23.63212208303025
 20
-7.207169929600885
 30
0.0
 10
23.61011989915917
 20
-6.714430715916964
 30
0.0
  0
SPLINE
  5
6E3
330
1F
100
AcDbEntity
  8
외형선
  6
Continuous
 62
     1
370
    15
100
AcDbSpline
210
0.0
220
0.0
230
1.0
 70
     8
 71
     3
 72
    10
 73
     6
 74
     0
 42
0.000000001
 43
0.00000001
 40
0.0
 40
0.0
 40
0.0
 40
0.0
 40
0.5
 40
0.5
 40
1.0
 40
1.0
 40
1.0
 40
1.0
 10
24.84394319420459
 20
-9.114162447494483
 30
0.0
 10
24.81857970718075
 20
-8.903290347289081
 30
0.0
 10
24.79298338280486
 20
-8.611402204074027
 30
0.0
 10
24.74329001957238
 20
-7.891145386916812
 30
0.0
 10
24.71920739726979
 20
-7.463138035378962
 30
0.0
 10
24.69668900637753
 20
-6.988902426625011
 30
0.0
  0
SPLINE
  5
6E5
330
1F
100
AcDbEntity
  8
외형선
  6
Continuous
 62
     1
370
    15
100
AcDbSpline
210
0.0
220
0.0
230
1.0
 70
     8
 71
     3
 72
    10
 73
     6
 74
     0
 42
0.000000001
 43
0.00000001
 40
0.0
 40
0.0
 40
0.0
 40
0.0
 40
0.5
 40
0.5
 40
1.0
 40
1.0
 40
1.0
 40
1.0
 10
25.00058049665372
 20
-9.081873645214843
 30
0.0
 10
24.97514490834478
 20
-8.876281223514647
 30
0.0
 10
24.94944424585761
 20
-8.589357587320634
 30
0.0
 10
24.89950165697305
 20
-7.877868910072247
 30
0.0
 10
24.8752745653858
 20
-7.453664209895067
 30
0.0
 10
24.85260716499075
 20
-6.982598867265636
 30
0.0
  0
SPLINE
  5
6E7
330
1F
100
AcDbEntity
  8
외형선
  6
Continuous
 62
     1
370
    15
100
AcDbSpline
210
0.0
220
0.0
230
1.0
 70
     8
 71
     3
 72
    10
 73
     6
 74
     0
 42
0.000000001
 43
0.00000001
 40
0.0
 40
0.0
 40
0.0
 40
0.0
 40
0.5
 40
0.5
 40
1.0
 40
1.0
 40
1.0
 40
1.0
 10
25.62590377814328
 20
-9.143547802598404
 30
0.0
 10
25.60058059459086
 20
-8.955112000545954
 30
0.0
 10
25.57488768545124
 20
-8.68501811199461
 30
0.0
 10
25.52475049310154
 20
-8.003953690901874
 30
0.0
 10
25.50032153626702
 20
-7.593318598366274
 30
0.0
 10
25.47737228180349
 20
-7.133370717854244
 30
0.0
  0
SPLINE
  5
6EA
330
1F
100
AcDbEntity
  8
외형선
  6
Continuous
 62
     1
370
    15
100
AcDbSpline
210
0.0
220
0.0
230
1.0
 70
     8
 71
     3
 72
    10
 73
     6
 74
     0
 42
0.000000001
 43
0.00000001
 40
0.0
 40
0.0
 40
0.0
 40
0.0
 40
0.4999999999999999
 40
0.4999999999999999
 40
1.0
 40
1.0
 40
1.0
 40
1.0
 10
25.78194089779762
 20
-9.20758301168482
 30
0.0
 10
25.75674721324369
 20
-9.02253022905145
 30
0.0
 10
25.73116483775092
 20
-8.755982721230051
 30
0.0
 10
25.68118595603888
 20
-8.081590613545385
 30
0.0
 10
25.65680458213242
 20
-7.674070260267864
 30
0.0
 10
25.63386760711111
 20
-7.216658116834826
 30
0.0
  0
SPLINE
  5
6EB
330
1F
100
AcDbEntity
  8
외형선
  6
Continuous
 62
     1
370
    15
100
AcDbSpline
210
0.0
220
0.0
230
1.0
 70
     8
 71
     3
 72
    10
 73
     6
 74
     0
 42
0.000000001
 43
0.00000001
 40
0.0
 40
0.0
 40
0.0
 40
0.0
 40
0.5
 40
0.5
 40
1.0
 40
1.0
 40
1.0
 40
1.0
 10
26.86965018394519
 20
-9.301001757259545
 30
0.0
 10
26.8446855485906
 20
-9.145859651159995
 30
0.0
 10
26.81915548605959
 20
-8.908903065842956
 30
0.0
 10
26.76891612192045
 20
-8.288537990104844
 30
0.0
 10
26.74422259642144
 20
-7.90540749247462
 30
0.0
 10
26.72082939621381
 20
-7.468245946288729
 30
0.0
  0
SPLINE
  5
6ED
330
1F
100
AcDbEntity
  8
외형선
  6
Continuous
 62
     1
370
    15
100
AcDbSpline
210
0.0
220
0.0
230
1.0
 70
     8
 71
     3
 72
    10
 73
     6
 74
     0
 42
0.000000001
 43
0.00000001
 40
0.0
 40
0.0
 40
0.0
 40
0.0
 40
0.5
 40
0.5
 40
1.0
 40
1.0
 40
1.0
 40
1.0
 10
27.02626740538781
 20
-9.262754842265718
 30
0.0
 10
27.00124817764381
 20
-9.112825986447492
 30
0.0
 10
26.97563010839152
 20
-8.880877503639402
 30
0.0
 10
26.92516755905614
 20
-8.269510650047645
 30
0.0
 10
26.90033923324207
 20
-7.890366908015497
 30
0.0
 10
26.87680279241228
 20
-7.456574674002302
 30
0.0
  0
SPLINE
  5
6EF
330
1F
100
AcDbEntity
  8
외형선
  6
Continuous
 62
     1
370
    15
100
AcDbSpline
210
0.0
220
0.0
230
1.0
 70
     8
 71
     3
 72
    10
 73
     6
 74
     0
 42
0.000000001
 43
0.00000001
 40
0.0
 40
0.0
 40
0.0
 40
0.0
 40
0.5
 40
0.5
 40
1.0
 40
1.0
 40
1.0
 40
1.0
 10
27.6515146710387
 20
-9.307350015795558
 30
0.0
 10
27.62665347366262
 20
-9.174585295170296
 30
0.0
 10
27.60109390249917
 20
-8.959801133238171
 30
0.0
 10
27.55053529359258
 20
-8.380119722534575
 30
0.0
 10
27.52555265591004
 20
-8.015468031550995
 30
0.0
 10
27.50177457779571
 20
-7.593866125210507
 30
0.0
  0
SPLINE
  5
6F2
330
1F
100
AcDbEntity
  8
외형선
  6
Continuous
 62
     1
370
    15
100
AcDbSpline
210
0.0
220
0.0
230
1.0
 70
     8
 71
     3
 72
    10
 73
     6
 74
     0
 42
0.000000001
 43
0.00000001
 40
0.0
 40
0.0
 40
0.0
 40
0.0
 40
0.4999999999999999
 40
0.4999999999999999
 40
1.0
 40
1.0
 40
1.0
 40
1.0
 10
27.80754153746224
 20
-9.368674249423554
 30
0.0
 10
27.78281011432025
 20
-9.239351105093993
 30
0.0
 10
27.75736467809988
 20
-9.028191507122965
 30
0.0
 10
27.70697727839816
 20
-8.455433962740253
 30
0.0
 10
27.68205146005609
 20
-8.094071051472616
 30
0.0
 10
27.65829598764329
 20
-7.675224714399031
 30
0.0
  0
SPLINE
  5
6F3
330
1F
100
AcDbEntity
  8
외형선
  6
Continuous
 62
     1
370
    15
100
AcDbSpline
210
0.0
220
0.0
230
1.0
 70
     8
 71
     3
 72
    10
 73
     6
 74
     0
 42
0.000000001
 43
0.00000001
 40
0.0
 40
0.0
 40
0.0
 40
0.0
 40
0.5
 40
0.5
 40
1.0
 40
1.0
 40
1.0
 40
1.0
 10
28.89507073750516
 20
-9.431943992370758
 30
0.0
 10
28.87064941545028
 20
-9.332467932483109
 30
0.0
 10
28.84534702307686
 20
-9.15141780698384
 30
0.0
 10
28.79487695428269
 20
-8.63480919598906
 30
0.0
 10
28.76972563149925
 20
-8.299433053337927
 30
0.0
 10
28.74558802589524
 20
-7.902728278369607
 30
0.0
  0
SPLINE
  5
6F5
330
1F
100
AcDbEntity
  8
외형선
  6
Continuous
 62
     1
370
    15
100
AcDbSpline
210
0.0
220
0.0
230
1.0
 70
     8
 71
     3
 72
    10
 73
     6
 74
     0
 42
0.000000001
 43
0.00000001
 40
0.0
 40
0.0
 40
0.0
 40
0.0
 40
0.4999999999999998
 40
0.4999999999999998
 40
1.0
 40
1.0
 40
1.0
 40
1.0
 10
29.05163474345792
 20
-9.387910794518417
 30
0.0
 10
29.02717571484688
 20
-9.293495052063454
 30
0.0
 10
29.00180177667149
 20
-9.11740854371574
 30
0.0
 10
28.95113608298512
 20
-8.609871441586748
 30
0.0
 10
28.92586100135295
 20
-8.278597708828062
 30
0.0
 10
28.90158754308461
 20
-7.885406949045295
 30
0.0
  0
SPLINE
  5
6F7
330
1F
100
AcDbEntity
  8
외형선
  6
Continuous
 62
     1
370
    15
100
AcDbSpline
210
0.0
220
0.0
230
1.0
 70
     8
 71
     3
 72
    10
 73
     6
 74
     0
 42
0.000000001
 43
0.00000001
 40
0.0
 40
0.0
 40
0.0
 40
0.0
 40
0.5
 40
0.5
 40
1.0
 40
1.0
 40
1.0
 40
1.0
 10
29.67677004029419
 20
-9.41525503962466
 30
0.0
 10
29.65251202856623
 20
-9.337923149661803
 30
0.0
 10
29.62724530030308
 20
-9.179229791267144
 30
0.0
 10
29.57658006349484
 20
-8.704434482133282
 30
0.0
 10
29.55119822701348
 20
-8.388477319280323
 30
0.0
 10
29.52672413793058
 20
-8.008471895386421
 30
0.0
  0
SPLINE
  5
6FA
330
1F
100
AcDbEntity
  8
외형선
  6
Continuous
 62
     1
370
    15
100
AcDbSpline
210
0.0
220
0.0
230
1.0
 70
     8
 71
     3
 72
    10
 73
     6
 74
     0
 42
0.000000001
 43
0.00000001
 40
0.0
 40
0.0
 40
0.0
 40
0.0
 40
0.5
 40
0.5
 40
1.0
 40
1.0
 40
1.0
 40
1.0
 10
29.83276808343418
 20
-9.473451443024773
 30
0.0
 10
29.80865005785753
 20
-9.399644627645989
 30
0.0
 10
29.78351165794728
 20
-9.244747404194108
 30
0.0
 10
29.73305107217472
 20
-8.777438469690326
 30
0.0
 10
29.70774522313987
 20
-8.465161489836593
 30
0.0
 10
29.68331271303119
 20
-8.088388885711888
 30
0.0
  0
SPLINE
  5
6FB
330
1F
100
AcDbEntity
  8
외형선
  6
Continuous
 62
     1
370
    15
100
AcDbSpline
210
0.0
220
0.0
230
1.0
 70
     8
 71
     3
 72
    10
 73
     6
 74
     0
 42
0.000000001
 43
0.00000001
 40
0.0
 40
0.0
 40
0.0
 40
0.0
 40
0.5
 40
0.5
 40
1.0
 40
1.0
 40
1.0
 40
1.0
 10
30.92008191757795
 20
-9.50641541225291
 30
0.0
 10
30.89634471799862
 20
-9.462263573651022
 30
0.0
 10
30.87143012006251
 20
-9.337792862828307
 30
0.0
 10
30.82104831077938
 20
-8.928283575164873
 30
0.0
 10
30.79559723013559
 20
-8.64332291824424
 30
0.0
 10
30.77085239898732
 20
-8.29032470904484
 30
0.0
  0
SPLINE
  5
6FD
330
1F
100
AcDbEntity
  8
외형선
  6
Continuous
 62
     1
370
    15
100
AcDbSpline
210
0.0
220
0.0
230
1.0
 70
     8
 71
     3
 72
    10
 73
     6
 74
     0
 42
0.000000001
 43
0.00000001
 40
0.0
 40
0.0
 40
0.0
 40
0.0
 40
0.5000000000000001
 40
0.5000000000000001
 40
1.0
 40
1.0
 40
1.0
 40
1.0
 10
31.07660853893585
 20
-9.457005701253669
 30
0.0
 10
31.05284921635793
 20
-9.417780231457588
 30
0.0
 10
31.02787819232318
 20
-9.298234302873913
 30
0.0
 10
30.97732566265253
 20
-8.897861602928739
 30
0.0
 10
30.95176054098854
 20
-8.617105346950968
 30
0.0
 10
30.92688586966235
 20
-8.26774498133955
 30
0.0
  0
SPLINE
  5
6FF
330
1F
100
AcDbEntity
  8
외형선
  6
Continuous
 62
     1
370
    15
100
AcDbSpline
210
0.0
220
0.0
230
1.0
 70
     8
 71
     3
 72
    10
 73
     6
 74
     0
 42
0.000000001
 43
0.00000001
 40
0.0
 40
0.0
 40
0.0
 40
0.0
 40
0.5
 40
0.5
 40
1.0
 40
1.0
 40
1.0
 40
1.0
 10
31.70157479748629
 20
-9.466884941642101
 30
0.0
 10
31.67805858167051
 20
-9.444539249482986
 30
0.0
 10
31.65324357414678
 20
-9.342488040474885
 30
0.0
 10
31.60279058793966
 20
-8.975696879952846
 30
0.0
 10
31.57716873958773
 20
-8.710993556738618
 30
0.0
 10
31.55213761976741
 20
-8.375758974793658
 30
0.0
  0
LINE
  5
700
330
1F
100
AcDbEntity
  8
외형선
  6
Continuous
 62
     1
370
    15
100
AcDbLine
 10
38.4
 20
-1.428749994374815
 30
0.0
 11
38.4
 21
-4.809926729649307
 31
0.0
  0
SPLINE
  5
702
330
1F
100
AcDbEntity
  8
외형선
  6
Continuous
 62
     1
370
    15
100
AcDbSpline
210
0.0
220
0.0
230
1.0
 70
     8
 71
     3
 72
    10
 73
     6
 74
     0
 42
0.000000001
 43
0.00000001
 40
0.0
 40
0.0
 40
0.0
 40
0.0
 40
0.5
 40
0.5
 40
1.0
 40
1.0
 40
1.0
 40
1.0
 10
31.85750558604243
 20
-9.52158879905996
 30
0.0
 10
31.83413834340453
 20
-9.502750076958378
 30
0.0
 10
31.80946521778653
 20
-9.404562625950536
 30
0.0
 10
31.75925084982523
 20
-9.045635366288101
 30
0.0
 10
31.73372533584787
 20
-8.784923277907783
 30
0.0
 10
31.70875680506517
 20
-8.453343140759836
 30
0.0
  0
LINE
  5
704
330
1F
100
AcDbEntity
  8
외형선
  6
Continuous
 62
     1
370
    15
100
AcDbLine
 10
33.10096081495285
 20
-9.469446726143362
 30
0.0
 11
33.08768015503883
 21
-9.4576058909297
 31
0.0
  0
LINE
  5
706
330
1F
100
AcDbEntity
  8
외형선
  6
Continuous
 62
     1
370
    15
100
AcDbLine
 10
33.69928341507912
 20
-9.452473372220995
 30
0.0
 11
33.69747664928436
 21
-9.451831690967085
 31
0.0
  0
LINE
  5
709
330
1F
100
AcDbEntity
  8
외형선
  6
Continuous
 62
     1
370
    15
100
AcDbLine
 10
33.86515196561813
 20
-9.509947150945665
 30
0.0
 11
33.85635655522346
 21
-9.50843282043934
 31
0.0
  0
ELLIPSE
  5
70A
330
1F
100
AcDbEntity
  8
외형선
  6
Continuous
 62
     1
370
    15
100
AcDbEllipse
 10
40.44046610104444
 20
-0.0000000000000018
 30
0.0
 11
13.60310976421859
 21
0.0
 31
0.0
210
0.0
220
0.0
230
1.0
 40
0.7002075382097122
 41
1.762398437415196
 42
1.769471751949607
  0
SPLINE
  5
70B
330
1F
100
AcDbEntity
  8
외형선
  6
Continuous
 62
     1
370
    15
100
AcDbSpline
210
0.0
220
0.0
230
1.0
 70
     8
 71
     3
 72
     8
 73
     4
 74
     0
 42
0.000000001
 43
0.00000001
 40
0.0000003033323757
 40
0.0000003033323757
 40
0.0000003033323757
 40
0.0000003033323757
 40
0.0008316029042958
 40
0.0008316029042958
 40
0.0008316029042958
 40
0.0008316029042958
 10
38.39999963641164
 20
8.860547298982157
 30
0.0
 10
38.21729763595871
 20
9.02498087084435
 30
0.0
 10
38.03393145824449
 20
9.188318880117885
 30
0.0
 10
37.84999963641166
 20
9.350696330209855
 30
0.0
  0
LINE
  5
70C
330
1F
100
AcDbEntity
  8
외형선
  6
Continuous
 62
     1
370
    15
100
AcDbLine
 10
38.4
 20
2.088304841890929
 30
0.0
 11
38.4
 21
2.113519236445425
 31
0.0
  0
LINE
  5
70D
330
1F
100
AcDbEntity
  8
외형선
  6
Continuous
 62
     1
370
    15
100
AcDbLine
 10
38.4
 20
3.38117661885917
 30
0.0
 11
38.4
 21
8.860547095537184
 31
0.0
  0
LINE
  5
70F
330
1F
100
AcDbEntity
  8
외형선
  6
Continuous
 62
     1
370
    15
100
AcDbLine
 10
35.09995531439781
 20
-9.460374712944033
 30
0.0
 11
35.09679626822471
 21
-9.464874863624575
 31
0.0
  0
LINE
  5
710
330
1F
100
AcDbEntity
  8
외형선
  6
Continuous
 62
     1
370
    15
100
AcDbLine
 10
35.86543169021606
 20
-9.519785642623903
 30
0.0
 11
35.86400490403175
 21
-9.518020786345007
 31
0.0
  0
SPLINE
  5
712
330
1F
100
AcDbEntity
  8
외형선
  6
Continuous
 62
     1
370
    15
100
AcDbSpline
210
0.0
220
0.0
230
1.0
 70
     8
 71
     3
 72
     8
 73
     4
 74
     0
 42
0.000000001
 43
0.00000001
 40
0.0
 40
0.0
 40
0.0
 40
0.0
 40
1.0
 40
1.0
 40
1.0
 40
1.0
 10
37.84999958932283
 20
-9.512898707164936
 30
0.0
 10
37.8293796354375
 20
-9.48183172492629
 30
0.0
 10
37.80783124521101
 20
-9.389948438354047
 30
0.0
 10
37.78594032906991
 20
-9.236306744855982
 30
0.0
  0
SPLINE
  5
713
330
1F
100
AcDbEntity
  8
외형선
  6
Continuous
 62
     1
370
    15
100
AcDbSpline
210
0.0
220
0.0
230
1.0
 70
     8
 71
     3
 72
     8
 73
     4
 74
     0
 42
0.000000001
 43
0.00000001
 40
0.0
 40
0.0
 40
0.0
 40
0.0
 40
1.0
 40
1.0
 40
1.0
 40
1.0
 10
37.85318610519504
 20
-9.517229723839618
 30
0.0
 10
37.85212642629411
 20
-9.515946209295375
 30
0.0
 10
37.85106423086662
 20
-9.514502745666471
 30
0.0
 10
37.84999958932283
 20
-9.512898707164936
 30
0.0
  0
SPLINE
  5
714
330
1F
100
AcDbEntity
  8
외형선
  6
Continuous
 62
     1
370
    15
100
AcDbSpline
210
0.0
220
0.0
230
1.0
 70
     8
 71
     3
 72
     9
 73
     5
 74
     0
 42
0.000000001
 43
0.00000001
 40
0.0
 40
0.0
 40
0.0
 40
0.0
 40
0.7292585622156625
 40
1.0
 40
1.0
 40
1.0
 40
1.0
 10
37.85002049207687
 20
-9.517214260995392
 30
0.0
 10
37.85004912969546
 20
-9.521183184719389
 30
0.0
 10
37.85008839919478
 20
-9.526625594215329
 30
0.0
 10
37.85044245094772
 20
-9.52237893833372
 30
0.0
 10
37.85053830742836
 20
-9.521229192614557
 30
0.0
  0
LINE
  5
715
330
1F
100
AcDbEntity
  8
외형선
  6
Continuous
 62
     1
370
    15
100
AcDbLine
 10
37.84999814033508
 20
-9.512898512184622
 30
0.0
 11
37.84999814033508
 21
-9.242005646228792
 31
0.0
  0
LINE
  5
716
330
1F
100
AcDbEntity
  8
외형선
  6
Continuous
 62
     1
370
    15
100
AcDbLine
 10
38.4
 20
-8.728666231036188
 30
0.0
 11
38.4
 21
-8.975000120699407
 31
0.0
  0
LINE
  5
719
330
1F
100
AcDbEntity
  8
외형선
  6
Continuous
 62
     1
370
    15
100
AcDbLine
 10
37.84999814033508
 20
9.350696578621863
 30
0.0
 11
37.84999814033508
 21
9.525000117719172
 31
0.0
  0
LINE
  5
71A
330
1F
100
AcDbEntity
  8
외형선
  6
Continuous
 62
     1
370
    15
100
AcDbLine
 10
38.4
 20
8.975000120699404
 30
0.0
 11
38.4
 21
8.860547095537184
 31
0.0
  0
LINE
  5
71B
330
1F
100
AcDbEntity
  8
외형선
  6
Continuous
 62
     1
370
    15
100
AcDbLine
 10
36.70451980233192
 20
9.465797804296015
 30
0.0
 11
36.70220267176628
 21
9.460426867008207
 31
0.0
  0
LINE
  5
71C
330
1F
100
AcDbEntity
  8
외형선
  6
Continuous
 62
     1
370
    15
100
AcDbLine
 10
36.10354479551315
 20
9.450421668589113
 30
0.0
 11
36.10150706171989
 21
9.453256614506243
 31
0.0
  0
LINE
  5
71E
330
1F
100
AcDbEntity
  8
외형선
  6
Continuous
 62
     1
370
    15
100
AcDbLine
 10
35.94079058766365
 20
9.520256891846655
 30
0.0
 11
35.93789976239204
 21
9.516929276287554
 31
0.0
  0
LINE
  5
71F
330
1F
100
AcDbEntity
  8
외형선
  6
Continuous
 62
     1
370
    15
100
AcDbLine
 10
34.864554220438
 20
9.514923207461832
 30
0.0
 11
34.86182358264923
 21
9.517564438283442
 31
0.0
  0
LINE
  5
722
330
1F
100
AcDbEntity
  8
외형선
  6
Continuous
 62
     1
370
    15
100
AcDbLine
 10
34.70410969257355
 20
9.450914338231085
 30
0.0
 11
34.70270898342132
 21
9.449873119592665
 31
0.0
  0
LINE
  5
724
330
1F
100
AcDbEntity
  8
외형선
  6
Continuous
 62
     1
370
    15
100
AcDbLine
 10
33.93904309868812
 20
9.509825147688387
 30
0.0
 11
33.93199484944343
 21
9.50920209288597
 31
0.0
  0
SPLINE
  5
728
330
1F
100
AcDbEntity
  8
외형선
  6
Continuous
 62
     1
370
    15
100
AcDbSpline
210
0.0
220
0.0
230
1.0
 70
     8
 71
     3
 72
    11
 73
     7
 74
     0
 42
0.000000001
 43
0.00000001
 40
0.0
 40
0.0
 40
0.0
 40
0.0
 40
0.2245805883994006
 40
0.4830537056007475
 40
0.7415268680732274
 40
1.0
 40
1.0
 40
1.0
 40
1.0
 10
32.93964084386825
 20
-9.518066421151163
 30
0.0
 10
32.92891911693484
 20
-9.512104372220264
 30
0.0
 10
32.9058575960681
 20
-9.499280513089918
 30
0.0
 10
32.87046355408875
 20
-9.32969767825173
 30
0.0
 10
32.83344365757588
 20
-9.052895122234597
 30
0.0
 10
32.80876507446199
 20
-8.769620862806914
 30
0.0
 10
32.79642578363418
 20
-8.627983741462232
 30
0.0
  0
SPLINE
  5
72A
330
1F
100
AcDbEntity
  8
외형선
  6
Continuous
 62
     1
370
    15
100
AcDbSpline
210
0.0
220
0.0
230
1.0
 70
     8
 71
     3
 72
    11
 73
     7
 74
     0
 42
0.000000001
 43
0.00000001
 40
0.0
 40
0.0
 40
0.0
 40
0.0
 40
0.1478544154220281
 40
0.4011196480578398
 40
0.7001878690603428
 40
1.0
 40
1.0
 40
1.0
 40
1.0
 10
33.08768015503883
 20
-9.4576058909297
 30
0.0
 10
33.08128790471439
 20
-9.455065474482486
 30
0.0
 10
33.06394613515598
 20
-9.448173485844078
 30
0.0
 10
33.03246470062864
 20
-9.313299251429283
 30
0.0
 10
32.99360374060458
 20
-9.05302684433723
 30
0.0
 10
32.96619309218132
 20
-8.75121048013646
 30
0.0
 10
32.95247074365616
 20
-8.600114844739439
 30
0.0
  0
SPLINE
  5
72C
330
1F
100
AcDbEntity
  8
외형선
  6
Continuous
 62
     1
370
    15
100
AcDbSpline
210
0.0
220
0.0
230
1.0
 70
     8
 71
     3
 72
    11
 73
     7
 74
     0
 42
0.000000001
 43
0.00000001
 40
0.0
 40
0.0
 40
0.0
 40
0.0
 40
0.0680237545697598
 40
0.3879237053227246
 40
0.6935163617063885
 40
1.0
 40
1.0
 40
1.0
 40
1.0
 10
33.69747664928436
 20
-9.451831690967085
 30
0.0
 10
33.69488745294077
 20
-9.45162071465258
 30
0.0
 10
33.68012186633393
 20
-9.45041756563242
 30
0.0
 10
33.6524457776457
 20
-9.3244087367503
 30
0.0
 10
33.61498077486882
 20
-9.082230915360352
 30
0.0
 10
33.59019929790164
 20
-8.822510371667981
 30
0.0
 10
33.57779052257538
 20
-8.692461065948011
 30
0.0
  0
SPLINE
  5
72F
330
1F
100
AcDbEntity
  8
외형선
  6
Continuous
 62
     1
370
    15
100
AcDbSpline
210
0.0
220
0.0
230
1.0
 70
     8
 71
     3
 72
    11
 73
     7
 74
     0
 42
0.000000001
 43
0.00000001
 40
0.0
 40
0.0
 40
0.0
 40
0.0
 40
0.0945135738119185
 40
0.3963423238857788
 40
0.6981711343198707
 40
1.0
 40
1.0
 40
1.0
 40
1.0
 10
33.85635655522346
 20
-9.50843282043934
 30
0.0
 10
33.85251449045665
 20
-9.509118267995873
 30
0.0
 10
33.83640280599931
 20
-9.511992689801144
 30
0.0
 10
33.80802602571125
 20
-9.391876975774501
 30
0.0
 10
33.77121469420333
 20
-9.157029615054899
 30
0.0
 10
33.74667520015841
 20
-8.897021942722734
 30
0.0
 10
33.73440545201301
 20
-8.767018094658853
 30
0.0
  0
SPLINE
  5
730
330
1F
100
AcDbEntity
  8
외형선
  6
Continuous
 62
     1
370
    15
100
AcDbSpline
210
0.0
220
0.0
230
1.0
 70
     8
 71
     3
 72
    11
 73
     7
 74
     0
 42
0.000000001
 43
0.00000001
 40
0.0
 40
0.0
 40
0.0
 40
0.0
 40
0.0578479088787665
 40
0.371898612107059
 40
0.6859492900432856
 40
1.0
 40
1.0
 40
1.0
 40
1.0
 10
34.9384416282177
 20
-9.515857324004175
 30
0.0
 10
34.93620024179895
 20
-9.51873943302279
 30
0.0
 10
34.92179058526207
 20
-9.537268233194483
 30
0.0
 10
34.89521344230317
 20
-9.451676873838588
 30
0.0
 10
34.85870921735633
 20
-9.262520161096475
 30
0.0
 10
34.83437315308239
 20
-9.03041515043556
 30
0.0
 10
34.82220512032509
 20
-8.91436263918877
 30
0.0
  0
SPLINE
  5
732
330
1F
100
AcDbEntity
  8
외형선
  6
Continuous
 62
     1
370
    15
100
AcDbSpline
210
0.0
220
0.0
230
1.0
 70
     8
 71
     3
 72
    11
 73
     7
 74
     0
 42
0.000000001
 43
0.00000001
 40
0.0
 40
0.0
 40
0.0
 40
0.0
 40
0.0414239487642516
 40
0.3372216218292777
 40
0.6674615394846313
 40
1.0
 40
1.0
 40
1.0
 40
1.0
 10
35.09679626822471
 20
-9.464874863624575
 30
0.0
 10
35.09525617976751
 20
-9.467352066827583
 30
0.0
 10
35.08271871912481
 20
-9.487518335535405
 30
0.0
 10
35.05655617817049
 20
-9.417287752160227
 30
0.0
 10
35.01848378963225
 20
-9.242866406445957
 30
0.0
 10
34.99169973009858
 20
-9.002200148599156
 30
0.0
 10
34.97826125621796
 20
-8.881449699401859
 30
0.0
  0
SPLINE
  5
734
330
1F
100
AcDbEntity
  8
외형선
  6
Continuous
 62
     1
370
    15
100
AcDbSpline
210
0.0
220
0.0
230
1.0
 70
     8
 71
     3
 72
    10
 73
     6
 74
     0
 42
0.000000001
 43
0.00000001
 40
0.0
 40
0.0
 40
0.0
 40
0.0
 40
0.305287616249785
 40
0.6514455241924468
 40
1.0
 40
1.0
 40
1.0
 40
1.0
 10
35.70561301112175
 20
-9.459047578275207
 30
0.0
 10
35.69554243398172
 20
-9.449314517106284
 30
0.0
 10
35.67405308408754
 20
-9.428545384007876
 30
0.0
 10
35.63976136230277
 20
-9.259233842507127
 30
0.0
 10
35.6156812517602
 20
-9.058334798933108
 30
0.0
 10
35.60359966158867
 20
-8.957538753747942
 30
0.0
  0
SPLINE
  5
737
330
1F
100
AcDbEntity
  8
외형선
  6
Continuous
 62
     1
370
    15
100
AcDbSpline
210
0.0
220
0.0
230
1.0
 70
     8
 71
     3
 72
    10
 73
     6
 74
     0
 42
0.000000001
 43
0.00000001
 40
0.0
 40
0.0
 40
0.0
 40
0.0
 40
0.3025923659939078
 40
0.6512962071554844
 40
1.0
 40
1.0
 40
1.0
 40
1.0
 10
35.86400490403175
 20
-9.518020786345007
 30
0.0
 10
35.85353693701557
 20
-9.51165973125775
 30
0.0
 10
35.83100580939816
 20
-9.497968271996282
 30
0.0
 10
35.79640941616392
 20
-9.33666548495624
 30
0.0
 10
35.77228201570849
 20
-9.131467035856742
 30
0.0
 10
35.7602183163166
 20
-9.028867818415167
 30
0.0
  0
SPLINE
  5
738
330
1F
100
AcDbEntity
  8
외형선
  6
Continuous
 62
     1
370
    15
100
AcDbSpline
210
0.0
220
0.0
230
1.0
 70
     8
 71
     3
 72
    10
 73
     6
 74
     0
 42
0.000000001
 43
0.00000001
 40
0.0
 40
0.0
 40
0.0
 40
0.0
 40
0.200221217735083
 40
0.6001106499056326
 40
1.0
 40
1.0
 40
1.0
 40
1.0
 10
36.93742495179176
 20
-9.509792551398279
 30
0.0
 10
36.93145593936983
 20
-9.512554904820663
 30
0.0
 10
36.91356538828668
 20
-9.520834335573948
 30
0.0
 10
36.88374681616076
 20
-9.40994922617485
 30
0.0
 10
36.85990027552813
 20
-9.234674904044306
 30
0.0
 10
36.84797700643539
 20
-9.147037751972677
 30
0.0
  0
SPLINE
  5
73A
330
1F
100
AcDbEntity
  8
외형선
  6
Continuous
 62
     1
370
    15
100
AcDbSpline
210
0.0
220
0.0
230
1.0
 70
     8
 71
     3
 72
    10
 73
     6
 74
     0
 42
0.000000001
 43
0.00000001
 40
0.0
 40
0.0
 40
0.0
 40
0.0
 40
0.2349606175982319
 40
0.6153492919581106
 40
0.9999999999999999
 40
0.9999999999999999
 40
0.9999999999999999
 40
0.9999999999999999
 10
37.10307743549347
 20
-9.454422630369665
 30
0.0
 10
37.09564325938455
 20
-9.461237342059878
 30
0.0
 10
37.07617354972981
 20
-9.479084707530461
 30
0.0
 10
37.0429468242448
 20
-9.374770339163426
 30
0.0
 10
37.01704749762145
 20
-9.198073289221863
 30
0.0
 10
37.00402569174766
 20
-9.109232574701311
 30
0.0
  0
SPLINE
  5
73C
330
1F
100
AcDbEntity
  8
외형선
  6
Continuous
 62
     1
370
    15
100
AcDbSpline
210
0.0
220
0.0
230
1.0
 70
     8
 71
     3
 72
     9
 73
     5
 74
     0
 42
0.000000001
 43
0.00000001
 40
0.0
 40
0.0
 40
0.0
 40
0.0
 40
0.3564187897317767
 40
1.0
 40
1.0
 40
1.0
 40
1.0
 10
37.70274114012718
 20
-9.444293566048147
 30
0.0
 10
37.69427389062289
 20
-9.441547182294459
 30
0.0
 10
37.67051742842678
 20
-9.433841685747112
 30
0.0
 10
37.64546274412933
 20
-9.27247082108513
 30
0.0
 10
37.62933802008629
 20
-9.168615564703943
 30
0.0
  0
SPLINE
  5
741
330
1F
100
AcDbEntity
  8
외형선
  6
Continuous
 62
     1
370
    15
100
AcDbSpline
210
0.0
220
0.0
230
1.0
 70
     8
 71
     3
 72
     9
 73
     5
 74
     0
 42
0.000000001
 43
0.00000001
 40
0.0
 40
0.0
 40
0.0
 40
0.0
 40
0.6784143089072878
 40
1.0
 40
1.0
 40
1.0
 40
1.0
 10
36.91629510521889
 20
9.39310062676668
 30
0.0
 10
36.90436141635828
 20
9.446235566209984
 30
0.0
 10
36.88677085450845
 20
9.524557822603564
 30
0.0
 10
36.86918252366925
 20
9.513416439103997
 30
0.0
 10
36.86352636814117
 20
9.509833529591559
 30
0.0
  0
SPLINE
  5
742
330
1F
100
AcDbEntity
  8
외형선
  6
Continuous
 62
     1
370
    15
100
AcDbSpline
210
0.0
220
0.0
230
1.0
 70
     8
 71
     3
 72
    10
 73
     6
 74
     0
 42
0.000000001
 43
0.00000001
 40
0.0
 40
0.0
 40
0.0
 40
0.0
 40
0.2994383983049814
 40
0.9660851796660653
 40
1.0
 40
1.0
 40
1.0
 40
1.0
 10
36.76046621203422
 20
9.34841576963663
 30
0.0
 10
36.75507246010735
 20
9.372574190047471
 30
0.0
 10
36.73767047082057
 20
9.450517072640919
 30
0.0
 10
36.71900022108937
 20
9.500442905636218
 30
0.0
 10
36.7051884429932
 20
9.467397559376183
 30
0.0
 10
36.70451980233192
 20
9.465797804296015
 30
0.0
  0
SPLINE
  5
744
330
1F
100
AcDbEntity
  8
외형선
  6
Continuous
 62
     1
370
    15
100
AcDbSpline
210
0.0
220
0.0
230
1.0
 70
     8
 71
     3
 72
     9
 73
     5
 74
     0
 42
0.000000001
 43
0.00000001
 40
0.0
 40
0.0
 40
0.0
 40
0.0
 40
0.2918162501445596
 40
1.0
 40
1.0
 40
1.0
 40
1.0
 10
36.13611128330231
 20
9.38205700367689
 30
0.0
 10
36.13303940630495
 20
9.395151150787635
 30
0.0
 10
36.12251265532449
 20
9.44002235691224
 30
0.0
 10
36.11140854558632
 20
9.446110291935478
 30
0.0
 10
36.10354479551315
 20
9.450421668589113
 30
0.0
  0
SPLINE
  5
746
330
1F
100
AcDbEntity
  8
외형선
  6
Continuous
 62
     1
370
    15
100
AcDbSpline
210
0.0
220
0.0
230
1.0
 70
     8
 71
     3
 72
     9
 73
     5
 74
     0
 42
0.000000001
 43
0.00000001
 40
0.0
 40
0.0
 40
0.0
 40
0.0
 40
0.927998574184682
 40
1.0
 40
1.0
 40
1.0
 40
1.0
 10
35.97976084947586
 20
9.443561546504496
 30
0.0
 10
35.96770415426951
 20
9.48900808590338
 30
0.0
 10
35.95471200585276
 20
9.537980725154268
 30
0.0
 10
35.94172562556084
 20
9.521447320551628
 30
0.0
 10
35.94079058766365
 20
9.520256891846655
 30
0.0
  0
LINE
  5
747
330
1F
100
AcDbEntity
  8
외형선
  6
Continuous
 62
     1
370
    15
100
AcDbLine
 10
34.89342894554138
 20
9.486992843449114
 30
0.0
 11
34.864554220438
 21
9.514923207461832
 31
0.0
  0
SPLINE
  5
74A
330
1F
100
AcDbEntity
  8
외형선
  6
Continuous
 62
     1
370
    15
100
AcDbSpline
210
0.0
220
0.0
230
1.0
 70
     8
 71
     3
 72
     9
 73
     5
 74
     0
 42
0.000000001
 43
0.00000001
 40
0.0
 40
0.0
 40
0.0
 40
0.0
 40
0.4371932538495377
 40
1.0
 40
1.0
 40
1.0
 40
1.0
 10
34.73753299713135
 20
9.438080713152884
 30
0.0
 10
34.73278717410366
 20
9.44984561362723
 30
0.0
 10
34.72193196765689
 20
9.4767556822771
 30
0.0
 10
34.71052795041211
 20
9.460220468240129
 30
0.0
 10
34.70410969257355
 20
9.450914338231085
 30
0.0
  0
SPLINE
  5
74C
330
1F
100
AcDbEntity
  8
외형선
  6
Continuous
 62
     1
370
    15
100
AcDbSpline
210
0.0
220
0.0
230
1.0
 70
     8
 71
     3
 72
     9
 73
     5
 74
     0
 42
0.000000001
 43
0.00000001
 40
0.0
 40
0.0
 40
0.0
 40
0.0
 40
0.3865375723565062
 40
1.0
 40
1.0
 40
1.0
 40
1.0
 10
34.11288377046585
 20
9.454433806240557
 30
0.0
 10
34.1105397177007
 20
9.459012464545586
 30
0.0
 10
34.1044754876419
 20
9.470857776961443
 30
0.0
 10
34.09815396317244
 20
9.461965644654127
 30
0.0
 10
34.09427594542503
 20
9.45651065558195
 30
0.0
  0
LINE
  5
74E
330
1F
100
AcDbEntity
  8
외형선
  6
Continuous
 62
     1
370
    15
100
AcDbLine
 10
33.95645138025284
 20
9.511366486549376
 30
0.0
 11
33.93904309868812
 21
9.509825147688387
 31
0.0
  0
LINE
  5
74F
330
1F
100
AcDbEntity
  8
외형선
  6
Continuous
 62
     1
370
    15
100
AcDbLine
 10
32.86967244148254
 20
9.524316526949404
 30
0.0
 11
32.86575343608856
 21
9.519239887595175
 31
0.0
  0
LINE
  5
752
330
1F
100
AcDbEntity
  8
외형선
  6
Continuous
 62
     1
370
    15
100
AcDbLine
 10
32.71373178958893
 20
9.471443481743334
 30
0.0
 11
32.70441483855247
 21
9.467811323702334
 31
0.0
  0
LINE
  5
754
330
1F
100
AcDbEntity
  8
중심선
100
AcDbLine
 10
-63.84999999999999
 20
-0.0000000000000032
 30
0.0
 11
45.39999963641166
 21
0.0000000000000112
 31
0.0
  0
CIRCLE
  5
755
330
1F
100
AcDbEntity
  8
해칭선
100
AcDbCircle
 10
0.0
 20
0.0
 30
0.0
 40
3.000000000000005
  0
POINT
  5
756
330
1F
100
AcDbEntity
  8
치수문자_일반주서
100
AcDbPoint
 10
-12.87500036358832
 20
-0.3168705809327363
 30
0.0
  0
DIMENSION
  5
757
330
1F
100
AcDbEntity
  8
치수문자_일반주서
100
AcDbDimension
  2
*D12
 10
53.42987960660304
 20
-9.52499999999993
 30
0.0
 11
53.429879606603
 21
1.186166785118299
 31
0.0
 70
   160
  1
%%c<>
 71
     2
 42
19.04054407536217
 52
-270.0
  3
SLDDIMSTYLE0
100
AcDbAlignedDimension
 13
31.38865931889199
 23
9.515544075362161
 33
0.0
 14
35.53897232480764
 24
-9.524999999999995
 34
0.0
 50
90.0000000000002
100
AcDbRotatedDimension
1001
ACAD
1000
DSTYLE
1002
{
1070
   273
1070
     7
1002
}
  0
DIMENSION
  5
758
330
1F
100
AcDbEntity
  8
치수문자_일반주서
100
AcDbDimension
  2
*D13
 10
-66.59750169873237
 20
-9.525000117719213
 30
0.0
 11
-66.5975016987324
 21
-1.526016639150088
 31
0.0
 70
   160
  1
%%c<>
 71
     2
 42
19.05000000000001
 52
-270.0
  3
SLDDIMSTYLE1
100
AcDbAlignedDimension
 13
-55.78750169873237
 23
9.524999882280836
 33
0.0
 14
-55.78750169873237
 24
-9.525000117719175
 34
0.0
 50
90.0000000000002
100
AcDbRotatedDimension
1001
ACAD
1000
DSTYLE
1002
{
1070
   273
1070
     7
1002
}
  0
DIMENSION
  5
759
330
1F
100
AcDbEntity
  8
치수문자_일반주서
100
AcDbDimension
  2
*D14
 10
13.0
 20
26.18826246161029
 30
0.0
 11
25.69999981820582
 21
26.18826246161029
 31
0.0
 70
   160
  1
<>
 71
     2
 42
25.39999963641164
  3
SLDDIMSTYLE0
100
AcDbAlignedDimension
 13
38.39999963641164
 23
8.860547298982153
 33
0.0
 14
13.0
 24
9.525000000000002
 34
0.0
 50
0.0000000000000345
100
AcDbRotatedDimension
1001
ACAD
1000
DSTYLE
1002
{
1070
   171
1070
     5
1070
   273
1070
     7
1002
}
1001
ACAD_DSTYLE_DIMFLIPARROW_SYMBOL
1070
   385
1070
     0
1001
ACAD_DSTYLE_DIMFLIPARROW_WHICH_SYMBOL
1070
   386
1070
     3
  0
DIMENSION
  5
75A
330
1F
100
AcDbEntity
  8
치수문자_일반주서
100
AcDbDimension
  2
*D15
 10
-56.85
 20
42.85792746260613
 30
0.0
 11
-7.957941602472324
 21
42.85792746260613
 31
0.0
 70
   160
  1
<>
 71
     2
 42
95.24999963641164
  3
SLDDIMSTYLE2
100
AcDbAlignedDimension
 13
38.39999963641164
 23
8.860547298982153
 33
0.0
 14
-56.85
 24
8.524999953806399
 34
0.0
100
AcDbRotatedDimension
1001
ACAD
1000
DSTYLE
1002
{
1070
   273
1070
     7
1002
}
  0
INSERT
  5
75B
330
1F
100
AcDbEntity
  8
해칭선
100
AcDbBlockReference
  2
SW_DOWELSYMBOL_0
 10
0.0
 20
0.0
 30
0.0
  0
LINE
  5
78E
330
1F
100
AcDbEntity
  8
외형선
  6
Continuous
370
    15
100
AcDbLine
 10
13.0
 20
9.525000000000002
 30
0.0
 11
13.0
 21
-9.525000000000002
 31
0.0
  0
SPLINE
  5
790
330
1F
100
AcDbEntity
  8
외형선
  6
Continuous
 62
     1
370
    15
100
AcDbSpline
210
0.0
220
0.0
230
1.0
 70
     8
 71
     3
 72
     8
 73
     4
 74
     0
 42
0.000000001
 43
0.00000001
 40
0.9995550403791907
 40
0.9995550403791907
 40
0.9995550403791907
 40
0.9995550403791907
 40
1.0
 40
1.0
 40
1.0
 40
1.0
 10
12.97974962877812
 20
8.859325339803961
 30
0.0
 10
12.97958790476094
 20
8.859346962959611
 30
0.0
 10
12.9794261805155
 20
8.859368585618203
 30
0.0
 10
12.97926445604164
 20
8.859390207779738
 30
0.0
  0
SPLINE
  5
791
330
1F
100
AcDbEntity
  8
외형선
  6
Continuous
 62
     1
370
    15
100
AcDbSpline
210
0.0
220
0.0
230
1.0
 70
    24
 71
     3
 72
     8
 73
     4
 74
     0
 42
0.000000001
 43
0.00000001
 40
0.9999544530420612
 40
0.9999544530420612
 40
0.9999544530420612
 40
0.9999544530420612
 40
1.0
 40
1.0
 40
1.0
 40
1.0
 10
12.97974962878417
 20
8.859325339804506
 30
0.0
 10
12.97974749846941
 20
8.859348908808492
 30
0.0
 10
12.9797453681655
 20
8.85937247716215
 30
0.0
 10
12.97974323787243
 20
8.859396044865475
 30
0.0
  0
ENDSEC
  0
SECTION
  2
OBJECTS
  0
DICTIONARY
  5
C
330
0
100
AcDbDictionary
281
     1
  3
ACAD_GROUP
350
D
  3
ACAD_IMAGE_VARS
350
158
  3
ACAD_LAYOUT
350
1A
  3
ACAD_MLINESTYLE
350
17
  3
ACAD_PLOTSETTINGS
350
19
  3
ACAD_PLOTSTYLENAME
350
E
  3
ACAD_SCALELIST
350
47
  3
APPDATA
350
156
  3
DWGPROPS
350
796
  0
DICTIONARY
  5
D
102
{ACAD_REACTORS
330
C
102
}
330
C
100
AcDbDictionary
281
     1
  0
RASTERVARIABLES
  5
158
102
{ACAD_REACTORS
330
C
102
}
330
C
100
AcDbRasterVariables
 90
        0
 70
     1
 71
     1
 72
     1
  0
DICTIONARY
  5
1A
102
{ACAD_REACTORS
330
C
102
}
330
C
100
AcDbDictionary
281
     1
  3
Layout1
350
1E
  3
Layout2
350
26
  3
Model
350
22
  0
DICTIONARY
  5
17
102
{ACAD_REACTORS
330
C
102
}
330
C
100
AcDbDictionary
281
     1
  3
Standard
350
18
  0
DICTIONARY
  5
19
102
{ACAD_REACTORS
330
C
102
}
330
C
100
AcDbDictionary
281
     1
  0
ACDBDICTIONARYWDFLT
  5
E
102
{ACAD_REACTORS
330
C
102
}
330
C
100
AcDbDictionary
281
     1
  3
Normal
350
F
100
AcDbDictionaryWithDefault
340
F
  0
DICTIONARY
  5
47
102
{ACAD_REACTORS
330
C
102
}
330
C
100
AcDbDictionary
281
     1
  3
A0
350
48
  3
A1
350
49
  3
A2
350
4A
  3
A3
350
4B
  3
A4
350
4C
  3
A5
350
4D
  3
A6
350
4E
  3
A7
350
4F
  3
A8
350
50
  3
A9
350
51
  3
B0
350
52
  3
B1
350
53
  3
B2
350
54
  3
B3
350
55
  3
B4
350
56
  3
B5
350
57
  3
B6
350
58
  3
B7
350
59
  3
B8
350
5A
  3
B9
350
5B
  3
C0
350
5C
  3
C1
350
5D
  3
C2
350
5E
  3
C3
350
5F
  3
C4
350
60
  3
C5
350
61
  3
C6
350
62
  3
C7
350
63
  3
C8
350
64
  3
C9
350
65
  3
D0
350
66
  3
D1
350
67
  3
D2
350
68
  0
DICTIONARY
  5
156
102
{ACAD_REACTORS
330
C
102
}
330
C
100
AcDbDictionary
281
     1
  0
XRECORD
  5
796
102
{ACAD_REACTORS
330
C
102
}
330
C
100
AcDbXrecord
280
     1
  1
DWGPROPS COOKIE
  2

  3

  4

  6

  7

  8
12016016
  9

300
=
301
=
302
=
303
=
304
=
305
=
306
=
307
=
308
=
309
=
 40
0.0
 41
2458299.005538738
 42
2458302.357254259
  1

 90
        0
  0
LAYOUT
  5
1E
102
{ACAD_REACTORS
330
1A
102
}
330
1A
100
AcDbPlotSettings
  1

  2
none_device
  4

  6

 40
0.0
 41
0.0
 42
0.0
 43
0.0
 44
0.0
 45
0.0
 46
0.0
 47
0.0
 48
0.0
 49
0.0
140
0.0
141
0.0
142
1.0
143
1.0
 70
   688
 72
     1
 73
     0
 74
     5
  7

 75
    16
147
1.0
148
0.0
149
0.0
100
AcDbLayout
  1
Layout1
 70
     1
 71
     1
 10
0.0
 20
0.0
 11
420.0
 21
297.0
 12
0.0
 22
0.0
 32
0.0
 14
1.000000000000000E+20
 24
1.000000000000000E+20
 34
1.000000000000000E+20
 15
-1.000000000000000E+20
 25
-1.000000000000000E+20
 35
-1.000000000000000E+20
146
0.0
 13
0.0
 23
0.0
 33
0.0
 16
1.0
 26
0.0
 36
0.0
 17
0.0
 27
1.0
 37
0.0
 76
     0
330
1B
  0
LAYOUT
  5
26
102
{ACAD_REACTORS
330
1A
102
}
330
1A
100
AcDbPlotSettings
  1

  2
none_device
  4

  6

 40
0.0
 41
0.0
 42
0.0
 43
0.0
 44
0.0
 45
0.0
 46
0.0
 47
0.0
 48
0.0
 49
0.0
140
0.0
141
0.0
142
1.0
143
1.0
 70
   688
 72
     1
 73
     0
 74
     5
  7

 75
    16
147
1.0
148
0.0
149
0.0
100
AcDbLayout
  1
Layout2
 70
     1
 71
     2
 10
0.0
 20
0.0
 11
0.0
 21
0.0
 12
0.0
 22
0.0
 32
0.0
 14
0.0
 24
0.0
 34
0.0
 15
0.0
 25
0.0
 35
0.0
146
0.0
 13
0.0
 23
0.0
 33
0.0
 16
1.0
 26
0.0
 36
0.0
 17
0.0
 27
1.0
 37
0.0
 76
     0
330
23
  0
LAYOUT
  5
22
102
{ACAD_REACTORS
330
1A
102
}
330
1A
100
AcDbPlotSettings
  1

  2
none_device
  4
ANSI_A_(11.00_x_8.50_Inches)
  6

 40
6.35
 41
19.05
 42
6.35000508
 43
19.05000254
 44
279.4
 45
215.9
 46
128.3595243331824
 47
85.91216952124365
 48
0.0
 49
0.0
140
0.0
141
0.0
142
0.0652372490344241
143
1.0
 70
  1696
 72
     0
 73
     0
 74
     0
  7

 75
     0
147
0.0235690232323232
148
0.0
149
0.0
100
AcDbLayout
  1
Model
 70
     1
 71
     0
 10
0.0
 20
0.0
 11
420.0
 21
297.0
 12
0.0
 22
0.0
 32
0.0
 14
1.000000000000000E+20
 24
1.000000000000000E+20
 34
1.000000000000000E+20
 15
-1.000000000000000E+20
 25
-1.000000000000000E+20
 35
-1.000000000000000E+20
146
0.0
 13
0.0
 23
0.0
 33
0.0
 16
1.0
 26
0.0
 36
0.0
 17
0.0
 27
1.0
 37
0.0
 76
     0
330
1F
331
29
  0
MLINESTYLE
  5
18
102
{ACAD_REACTORS
330
17
102
}
330
17
100
AcDbMlineStyle
  2
Standard
 70
     0
  3

 62
   256
 51
90.0
 52
90.0
 71
     2
 49
0.5
 62
   256
  6
BYLAYER
 49
-0.5
 62
   256
  6
BYLAYER
  0
ACDBPLACEHOLDER
  5
F
102
{ACAD_REACTORS
330
E
102
}
330
E
  0
SCALE
  5
48
102
{ACAD_REACTORS
330
47
102
}
330
47
100
AcDbScale
 70
     0
300
1:1
140
1.0
141
1.0
290
     1
  0
SCALE
  5
49
102
{ACAD_REACTORS
330
47
102
}
330
47
100
AcDbScale
 70
     0
300
1:2
140
1.0
141
2.0
290
     0
  0
SCALE
  5
4A
102
{ACAD_REACTORS
330
47
102
}
330
47
100
AcDbScale
 70
     0
300
1:4
140
1.0
141
4.0
290
     0
  0
SCALE
  5
4B
102
{ACAD_REACTORS
330
47
102
}
330
47
100
AcDbScale
 70
     0
300
1:5
140
1.0
141
5.0
290
     0
  0
SCALE
  5
4C
102
{ACAD_REACTORS
330
47
102
}
330
47
100
AcDbScale
 70
     0
300
1:8
140
1.0
141
8.0
290
     0
  0
SCALE
  5
4D
102
{ACAD_REACTORS
330
47
102
}
330
47
100
AcDbScale
 70
     0
300
1:10
140
1.0
141
10.0
290
     0
  0
SCALE
  5
4E
102
{ACAD_REACTORS
330
47
102
}
330
47
100
AcDbScale
 70
     0
300
1:16
140
1.0
141
16.0
290
     0
  0
SCALE
  5
4F
102
{ACAD_REACTORS
330
47
102
}
330
47
100
AcDbScale
 70
     0
300
1:20
140
1.0
141
20.0
290
     0
  0
SCALE
  5
50
102
{ACAD_REACTORS
330
47
102
}
330
47
100
AcDbScale
 70
     0
300
1:30
140
1.0
141
30.0
290
     0
  0
SCALE
  5
51
102
{ACAD_REACTORS
330
47
102
}
330
47
100
AcDbScale
 70
     0
300
1:40
140
1.0
141
40.0
290
     0
  0
SCALE
  5
52
102
{ACAD_REACTORS
330
47
102
}
330
47
100
AcDbScale
 70
     0
300
1:50
140
1.0
141
50.0
290
     0
  0
SCALE
  5
53
102
{ACAD_REACTORS
330
47
102
}
330
47
100
AcDbScale
 70
     0
300
1:100
140
1.0
141
100.0
290
     0
  0
SCALE
  5
54
102
{ACAD_REACTORS
330
47
102
}
330
47
100
AcDbScale
 70
     0
300
2:1
140
2.0
141
1.0
290
     0
  0
SCALE
  5
55
102
{ACAD_REACTORS
330
47
102
}
330
47
100
AcDbScale
 70
     0
300
4:1
140
4.0
141
1.0
290
     0
  0
SCALE
  5
56
102
{ACAD_REACTORS
330
47
102
}
330
47
100
AcDbScale
 70
     0
300
8:1
140
8.0
141
1.0
290
     0
  0
SCALE
  5
57
102
{ACAD_REACTORS
330
47
102
}
330
47
100
AcDbScale
 70
     0
300
10:1
140
10.0
141
1.0
290
     0
  0
SCALE
  5
58
102
{ACAD_REACTORS
330
47
102
}
330
47
100
AcDbScale
 70
     0
300
100:1
140
100.0
141
1.0
290
     0
  0
SCALE
  5
59
102
{ACAD_REACTORS
330
47
102
}
330
47
100
AcDbScale
 70
     0
300
1/128" = 1'-0"
140
0.0078125
141
12.0
290
     0
  0
SCALE
  5
5A
102
{ACAD_REACTORS
330
47
102
}
330
47
100
AcDbScale
 70
     0
300
1/64" = 1'-0"
140
0.015625
141
12.0
290
     0
  0
SCALE
  5
5B
102
{ACAD_REACTORS
330
47
102
}
330
47
100
AcDbScale
 70
     0
300
1/32" = 1'-0"
140
0.03125
141
12.0
290
     0
  0
SCALE
  5
5C
102
{ACAD_REACTORS
330
47
102
}
330
47
100
AcDbScale
 70
     0
300
1/16" = 1'-0"
140
0.0625
141
12.0
290
     0
  0
SCALE
  5
5D
102
{ACAD_REACTORS
330
47
102
}
330
47
100
AcDbScale
 70
     0
300
3/32" = 1'-0"
140
0.09375
141
12.0
290
     0
  0
SCALE
  5
5E
102
{ACAD_REACTORS
330
47
102
}
330
47
100
AcDbScale
 70
     0
300
1/8" = 1'-0"
140
0.125
141
12.0
290
     0
  0
SCALE
  5
5F
102
{ACAD_REACTORS
330
47
102
}
330
47
100
AcDbScale
 70
     0
300
3/16" = 1'-0"
140
0.1875
141
12.0
290
     0
  0
SCALE
  5
60
102
{ACAD_REACTORS
330
47
102
}
330
47
100
AcDbScale
 70
     0
300
1/4" = 1'-0"
140
0.25
141
12.0
290
     0
  0
SCALE
  5
61
102
{ACAD_REACTORS
330
47
102
}
330
47
100
AcDbScale
 70
     0
300
3/8" = 1'-0"
140
0.375
141
12.0
290
     0
  0
SCALE
  5
62
102
{ACAD_REACTORS
330
47
102
}
330
47
100
AcDbScale
 70
     0
300
1/2" = 1'-0"
140
0.5
141
12.0
290
     0
  0
SCALE
  5
63
102
{ACAD_REACTORS
330
47
102
}
330
47
100
AcDbScale
 70
     0
300
3/4" = 1'-0"
140
0.75
141
12.0
290
     0
  0
SCALE
  5
64
102
{ACAD_REACTORS
330
47
102
}
330
47
100
AcDbScale
 70
     0
300
1" = 1'-0"
140
1.0
141
12.0
290
     0
  0
SCALE
  5
65
102
{ACAD_REACTORS
330
47
102
}
330
47
100
AcDbScale
 70
     0
300
1-1/2" = 1'-0"
140
1.5
141
12.0
290
     0
  0
SCALE
  5
66
102
{ACAD_REACTORS
330
47
102
}
330
47
100
AcDbScale
 70
     0
300
3" = 1'-0"
140
3.0
141
12.0
290
     0
  0
SCALE
  5
67
102
{ACAD_REACTORS
330
47
102
}
330
47
100
AcDbScale
 70
     0
300
6" = 1'-0"
140
6.0
141
12.0
290
     0
  0
SCALE
  5
68
102
{ACAD_REACTORS
330
47
102
}
330
47
100
AcDbScale
 70
     0
300
1'-0" = 1'-0"
140
12.0
141
12.0
290
     0
  0
ENDSEC
  0
EOF
