  0
SECTION
  2
HEADER
  9
$ACADVER
  1
AC1015
  9
$ACADMAINTVER
 70
     6
  9
$DWGCODEPAGE
  3
ANSI_949
  9
$INSBASE
 10
0.0
 20
0.0
 30
0.0
  9
$EXTMIN
 10
-62.6448491022991
 20
-49.97180738881175
 30
0.0
  9
$EXTMAX
 10
111.6561347130466
 20
55.93167432272148
 30
0.0
  9
$LIMMIN
 10
0.0
 20
0.0
  9
$LIMMAX
 10
420.0
 20
297.0
  9
$ORTHOMODE
 70
     1
  9
$REGENMODE
 70
     1
  9
$FILLMODE
 70
     1
  9
$QTEXTMODE
 70
     0
  9
$MIRRTEXT
 70
     1
  9
$LTSCALE
 40
1.0
  9
$ATTMODE
 70
     1
  9
$TEXTSIZE
 40
3.5
  9
$TRACEWID
 40
1.0
  9
$TEXTSTYLE
  7
Standard
  9
$CLAYER
  8
0
  9
$CELTYPE
  6
ByLayer
  9
$CECOLOR
 62
   256
  9
$CELTSCALE
 40
1.0
  9
$DISPSILH
 70
     0
  9
$DIMSCALE
 40
1.0
  9
$DIMASZ
 40
3.302
  9
$DIMEXO
 40
1.0
  9
$DIMDLI
 40
3.75
  9
$DIMRND
 40
0.0
  9
$DIMDLE
 40
0.0
  9
$DIMEXE
 40
1.0
  9
$DIMTP
 40
0.0
  9
$DIMTM
 40
0.0
  9
$DIMTXT
 40
3.5
  9
$DIMCEN
 40
2.5
  9
$DIMTSZ
 40
0.0
  9
$DIMTOL
 70
     0
  9
$DIMLIM
 70
     0
  9
$DIMTIH
 70
     1
  9
$DIMTOH
 70
     1
  9
$DIMSE1
 70
     0
  9
$DIMSE2
 70
     0
  9
$DIMTAD
 70
     1
  9
$DIMZIN
 70
     0
  9
$DIMBLK
  1

  9
$DIMASO
 70
     1
  9
$DIMSHO
 70
     1
  9
$DIMPOST
  1

  9
$DIMAPOST
  1

  9
$DIMALT
 70
     0
  9
$DIMALTD
 70
     3
  9
$DIMALTF
 40
0.0393700787401575
  9
$DIMLFAC
 40
1.0
  9
$DIMTOFL
 70
     1
  9
$DIMTVP
 40
0.0
  9
$DIMTIX
 70
     0
  9
$DIMSOXD
 70
     0
  9
$DIMSAH
 70
     0
  9
$DIMBLK1
  1

  9
$DIMBLK2
  1

  9
$DIMSTYLE
  2
ISO-25
  9
$DIMCLRD
 70
     0
  9
$DIMCLRE
 70
     0
  9
$DIMCLRT
 70
     0
  9
$DIMTFAC
 40
1.0
  9
$DIMGAP
 40
1.524
  9
$DIMJUST
 70
     0
  9
$DIMSD1
 70
     0
  9
$DIMSD2
 70
     0
  9
$DIMTOLJ
 70
     0
  9
$DIMTZIN
 70
     0
  9
$DIMALTZ
 70
     0
  9
$DIMALTTZ
 70
     0
  9
$DIMUPT
 70
     0
  9
$DIMDEC
 70
     2
  9
$DIMTDEC
 70
     2
  9
$DIMALTU
 70
     2
  9
$DIMALTTD
 70
     3
  9
$DIMTXSTY
  7
Standard
  9
$DIMAUNIT
 70
     0
  9
$DIMADEC
 70
     2
  9
$DIMALTRND
 40
0.0
  9
$DIMAZIN
 70
     0
  9
$DIMDSEP
 70
    44
  9
$DIMATFIT
 70
     3
  9
$DIMFRAC
 70
     0
  9
$DIMLDRBLK
  1

  9
$DIMLUNIT
 70
     2
  9
$DIMLWD
 70
    -2
  9
$DIMLWE
 70
    -2
  9
$DIMTMOVE
 70
     0
  9
$LUNITS
 70
     2
  9
$LUPREC
 70
     2
  9
$SKETCHINC
 40
1.0
  9
$FILLETRAD
 40
10.0
  9
$AUNITS
 70
     0
  9
$AUPREC
 70
     2
  9
$MENU
  1
.
  9
$ELEVATION
 40
0.0
  9
$PELEVATION
 40
0.0
  9
$THICKNESS
 40
0.0
  9
$LIMCHECK
 70
     0
  9
$CHAMFERA
 40
0.0
  9
$CHAMFERB
 40
0.0
  9
$CHAMFERC
 40
0.0
  9
$CHAMFERD
 40
0.0
  9
$SKPOLY
 70
     0
  9
$TDCREATE
 40
2458298.891410012
  9
$TDUCREATE
 40
2458298.516410012
  9
$TDUPDATE
 40
2459697.456237037
  9
$TDUUPDATE
 40
2459697.081237037
  9
$TDINDWG
 40
0.0064134259
  9
$TDUSRTIMER
 40
0.0053272454
  9
$USRTIMER
 70
     1
  9
$ANGBASE
 50
0.0
  9
$ANGDIR
 70
     0
  9
$PDMODE
 70
     0
  9
$PDSIZE
 40
-1.0
  9
$PLINEWID
 40
0.0
  9
$SPLFRAME
 70
     0
  9
$SPLINETYPE
 70
     6
  9
$SPLINESEGS
 70
     8
  9
$HANDSEED
  5
184
  9
$SURFTAB1
 70
     6
  9
$SURFTAB2
 70
     6
  9
$SURFTYPE
 70
     6
  9
$SURFU
 70
     6
  9
$SURFV
 70
     6
  9
$UCSBASE
  2

  9
$UCSNAME
  2

  9
$UCSORG
 10
0.0
 20
0.0
 30
0.0
  9
$UCSXDIR
 10
1.0
 20
0.0
 30
0.0
  9
$UCSYDIR
 10
0.0
 20
1.0
 30
0.0
  9
$UCSORTHOREF
  2

  9
$UCSORTHOVIEW
 70
     0
  9
$UCSORGTOP
 10
0.0
 20
0.0
 30
0.0
  9
$UCSORGBOTTOM
 10
0.0
 20
0.0
 30
0.0
  9
$UCSORGLEFT
 10
0.0
 20
0.0
 30
0.0
  9
$UCSORGRIGHT
 10
0.0
 20
0.0
 30
0.0
  9
$UCSORGFRONT
 10
0.0
 20
0.0
 30
0.0
  9
$UCSORGBACK
 10
0.0
 20
0.0
 30
0.0
  9
$PUCSBASE
  2

  9
$PUCSNAME
  2

  9
$PUCSORG
 10
0.0
 20
0.0
 30
0.0
  9
$PUCSXDIR
 10
1.0
 20
0.0
 30
0.0
  9
$PUCSYDIR
 10
0.0
 20
1.0
 30
0.0
  9
$PUCSORTHOREF
  2

  9
$PUCSORTHOVIEW
 70
     0
  9
$PUCSORGTOP
 10
0.0
 20
0.0
 30
0.0
  9
$PUCSORGBOTTOM
 10
0.0
 20
0.0
 30
0.0
  9
$PUCSORGLEFT
 10
0.0
 20
0.0
 30
0.0
  9
$PUCSORGRIGHT
 10
0.0
 20
0.0
 30
0.0
  9
$PUCSORGFRONT
 10
0.0
 20
0.0
 30
0.0
  9
$PUCSORGBACK
 10
0.0
 20
0.0
 30
0.0
  9
$USERI1
 70
     0
  9
$USERI2
 70
     0
  9
$USERI3
 70
     0
  9
$USERI4
 70
     0
  9
$USERI5
 70
     0
  9
$USERR1
 40
0.0
  9
$USERR2
 40
0.0
  9
$USERR3
 40
0.0
  9
$USERR4
 40
0.0
  9
$USERR5
 40
0.0
  9
$WORLDVIEW
 70
     1
  9
$SHADEDGE
 70
     3
  9
$SHADEDIF
 70
    70
  9
$TILEMODE
 70
     1
  9
$MAXACTVP
 70
    64
  9
$PINSBASE
 10
0.0
 20
0.0
 30
0.0
  9
$PLIMCHECK
 70
     0
  9
$PEXTMIN
 10
1.000000000000000E+20
 20
1.000000000000000E+20
 30
1.000000000000000E+20
  9
$PEXTMAX
 10
-1.000000000000000E+20
 20
-1.000000000000000E+20
 30
-1.000000000000000E+20
  9
$PLIMMIN
 10
0.0
 20
0.0
  9
$PLIMMAX
 10
0.0
 20
0.0
  9
$UNITMODE
 70
     0
  9
$VISRETAIN
 70
     1
  9
$PLINEGEN
 70
     0
  9
$PSLTSCALE
 70
     1
  9
$TREEDEPTH
 70
  3020
  9
$CMLSTYLE
  2
Standard
  9
$CMLJUST
 70
     0
  9
$CMLSCALE
 40
20.0
  9
$PROXYGRAPHICS
 70
     1
  9
$MEASUREMENT
 70
     1
  9
$CELWEIGHT
370
    -1
  9
$ENDCAPS
280
     0
  9
$JOINSTYLE
280
     0
  9
$LWDISPLAY
290
     1
  9
$INSUNITS
 70
     4
  9
$HYPERLINKBASE
  1

  9
$STYLESHEET
  1

  9
$XEDIT
290
     1
  9
$CEPSNTYPE
380
     0
  9
$PSTYLEMODE
290
     1
  9
$FINGERPRINTGUID
  2
{AF6D6976-6BB9-41F6-9420-0EB837A3BE02}
  9
$VERSIONGUID
  2
{FAEB1C32-E019-11D5-929B-00C0DF256EC4}
  9
$EXTNAMES
290
     1
  9
$PSVPSCALE
 40
0.0
  9
$OLESTARTUP
290
     0
  0
ENDSEC
  0
SECTION
  2
CLASSES
  0
CLASS
  1
ACDBDICTIONARYWDFLT
  2
AcDbDictionaryWithDefault
  3
ObjectDBX Classes
 90
        0
280
     0
281
     0
  0
CLASS
  1
VISUALSTYLE
  2
AcDbVisualStyle
  3
ObjectDBX Classes
 90
     4095
280
     0
281
     0
  0
CLASS
  1
MATERIAL
  2
AcDbMaterial
  3
ObjectDBX Classes
 90
     1153
280
     0
281
     0
  0
CLASS
  1
SCALE
  2
AcDbScale
  3
ObjectDBX Classes
 90
     1153
280
     0
281
     0
  0
CLASS
  1
SUN
  2
AcDbSun
  3
SCENEOE
 90
     1153
280
     0
281
     0
  0
CLASS
  1
ACDBPLACEHOLDER
  2
AcDbPlaceHolder
  3
ObjectDBX Classes
 90
        0
280
     0
281
     0
  0
CLASS
  1
LAYOUT
  2
AcDbLayout
  3
ObjectDBX Classes
 90
        0
280
     0
281
     0
  0
CLASS
  1
TABLESTYLE
  2
AcDbTableStyle
  3
ObjectDBX Classes
 90
     4095
280
     0
281
     0
  0
CLASS
  1
MLEADERSTYLE
  2
AcDbMLeaderStyle
  3
ACDB_MLEADERSTYLE_CLASS
 90
     4095
280
     0
281
     0
  0
CLASS
  1
RASTERVARIABLES
  2
AcDbRasterVariables
  3
ISM
 90
        0
280
     0
281
     0
  0
ENDSEC
  0
SECTION
  2
TABLES
  0
TABLE
  2
VPORT
  5
8
330
0
100
AcDbSymbolTable
 70
     1
  0
VPORT
  5
29
330
8
100
AcDbSymbolTableRecord
100
AcDbViewportTableRecord
  2
*Active
 70
     0
 10
0.0
 20
0.0
 11
1.0
 21
1.0
 12
24.50564280537376
 22
2.979933466954868
 13
0.0
 23
0.0
 14
10.0
 24
10.0
 15
10.0
 25
10.0
 16
0.0
 26
0.0
 36
1.0
 17
0.0
 27
0.0
 37
0.0
 40
108.0215513457639
 41
2.008253094910592
 42
50.0
 43
0.0
 44
0.0
 50
0.0
 51
0.0
 71
    16
 72
  2000
 73
     1
 74
     3
 75
     0
 76
     0
 77
     0
 78
     0
281
     0
 65
     1
110
0.0
120
0.0
130
0.0
111
1.0
121
0.0
131
0.0
112
0.0
122
1.0
132
0.0
 79
     0
146
0.0
  0
ENDTAB
  0
TABLE
  2
LTYPE
  5
5
330
0
100
AcDbSymbolTable
 70
     6
  0
LTYPE
  5
14
330
5
100
AcDbSymbolTableRecord
100
AcDbLinetypeTableRecord
  2
ByBlock
 70
     0
  3

 72
    65
 73
     0
 40
0.0
  0
LTYPE
  5
15
330
5
100
AcDbSymbolTableRecord
100
AcDbLinetypeTableRecord
  2
ByLayer
 70
     0
  3

 72
    65
 73
     0
 40
0.0
  0
LTYPE
  5
16
330
5
100
AcDbSymbolTableRecord
100
AcDbLinetypeTableRecord
  2
Continuous
 70
     0
  3
Solid line
 72
    65
 73
     0
 40
0.0
  0
LTYPE
  5
6A
330
5
100
AcDbSymbolTableRecord
100
AcDbLinetypeTableRecord
  2
HIDDEN
 70
     0
  3
Hidden __ __ __ __ __ __ __ __ __ __ __ __ __ __
 72
    65
 73
     2
 40
1.905
 49
1.27
 74
     0
 49
-0.635
 74
     0
  0
LTYPE
  5
6B
330
5
100
AcDbSymbolTableRecord
100
AcDbLinetypeTableRecord
  2
PHANTOM
 70
     0
  3
Phantom ______  __  __  ______  __  __  ______
 72
    65
 73
     6
 40
12.7
 49
6.35
 74
     0
 49
-1.27
 74
     0
 49
1.27
 74
     0
 49
-1.27
 74
     0
 49
1.27
 74
     0
 49
-1.27
 74
     0
  0
LTYPE
  5
6C
330
5
100
AcDbSymbolTableRecord
100
AcDbLinetypeTableRecord
  2
CENTER
 70
     0
  3
Center ____ _ ____ _ ____ _ ____ _ ____ _ ____
 72
    65
 73
     4
 40
10.16
 49
6.35
 74
     0
 49
-1.27
 74
     0
 49
1.27
 74
     0
 49
-1.27
 74
     0
  0
LTYPE
  5
6D
330
5
100
AcDbSymbolTableRecord
100
AcDbLinetypeTableRecord
  2
CENTERX2
 70
     0
  3
Center (2x) ________  __  ________  __  _____
 72
    65
 73
     4
 40
20.32
 49
12.7
 74
     0
 49
-2.54
 74
     0
 49
2.54
 74
     0
 49
-2.54
 74
     0
  0
LTYPE
  5
6E
330
5
100
AcDbSymbolTableRecord
100
AcDbLinetypeTableRecord
  2
DOT2
 70
     0
  3
Dot (.5x) ........................................
 72
    65
 73
     2
 40
0.635
 49
0.0
 74
     0
 49
-0.635
 74
     0
  0
ENDTAB
  0
TABLE
  2
LAYER
  5
2
330
0
100
AcDbSymbolTable
 70
    18
  0
LAYER
  5
10
330
2
100
AcDbSymbolTableRecord
100
AcDbLayerTableRecord
  2
0
 70
     0
 62
     7
  6
Continuous
370
    -3
390
F
  0
LAYER
  5
6F
330
2
100
AcDbSymbolTableRecord
100
AcDbLayerTableRecord
  2
FORMAT
 70
     0
 62
     2
  6
Continuous
370
    -3
390
F
  0
LAYER
  5
70
330
2
100
AcDbSymbolTableRecord
100
AcDbLayerTableRecord
  2
외형선
 70
     0
 62
     4
  6
Continuous
370
    30
390
F
  0
LAYER
  5
71
330
2
100
AcDbSymbolTableRecord
100
AcDbLayerTableRecord
  2
숨은선
 70
     0
 62
     2
  6
HIDDEN
370
    15
390
F
  0
LAYER
  5
72
330
2
100
AcDbSymbolTableRecord
100
AcDbLayerTableRecord
  2
중심선
 70
     0
 62
     1
  6
CENTERX2
370
    -3
390
F
  0
LAYER
  5
73
330
2
100
AcDbSymbolTableRecord
100
AcDbLayerTableRecord
  2
파단선
 70
     0
 62
     4
  6
Continuous
370
    -3
390
F
  0
LAYER
  5
74
330
2
100
AcDbSymbolTableRecord
100
AcDbLayerTableRecord
  2
해칭선
 70
     0
 62
   100
  6
Continuous
370
    -3
390
F
  0
LAYER
  5
75
330
2
100
AcDbSymbolTableRecord
100
AcDbLayerTableRecord
  2
가는실선
 70
     0
 62
     4
  6
Continuous
370
    -3
390
F
  0
LAYER
  5
76
330
2
100
AcDbSymbolTableRecord
100
AcDbLayerTableRecord
  2
치수_보조선
 70
     0
 62
     4
  6
Continuous
370
    -3
390
F
  0
LAYER
  5
77
330
2
100
AcDbSymbolTableRecord
100
AcDbLayerTableRecord
  2
치수문자_일반주서
 70
     0
 62
     7
  6
Continuous
370
    15
390
F
  0
LAYER
  5
78
330
2
100
AcDbSymbolTableRecord
100
AcDbLayerTableRecord
  2
개별주서
 70
     0
 62
   100
  6
Continuous
370
    30
390
F
  0
LAYER
  5
79
330
2
100
AcDbSymbolTableRecord
100
AcDbLayerTableRecord
  2
중간선
 70
     0
 62
     2
  6
Continuous
370
    15
390
F
  0
LAYER
  5
7A
330
2
100
AcDbSymbolTableRecord
100
AcDbLayerTableRecord
  2
윤곽선
 70
     0
 62
     3
  6
Continuous
370
    40
390
F
  0
LAYER
  5
7B
330
2
100
AcDbSymbolTableRecord
100
AcDbLayerTableRecord
  2
중심마크
 70
     0
 62
   100
  6
Continuous
370
    30
390
F
  0
LAYER
  5
7C
330
2
100
AcDbSymbolTableRecord
100
AcDbLayerTableRecord
  2
가상선
 70
     0
 62
     4
  6
PHANTOM
370
    -3
390
F
  0
LAYER
  5
7D
330
2
100
AcDbSymbolTableRecord
100
AcDbLayerTableRecord
  2
특수지정선
 70
     0
 62
     5
  6
CENTERX2
370
    60
390
F
  0
LAYER
  5
7E
330
2
100
AcDbSymbolTableRecord
100
AcDbLayerTableRecord
  2
참조1
 70
     0
 62
    -4
  6
Continuous
370
    -3
390
F
  0
LAYER
  5
157
330
2
100
AcDbSymbolTableRecord
100
AcDbLayerTableRecord
  2
Defpoints
 70
     0
 62
     7
  6
Continuous
290
     0
370
    -3
390
F
  0
ENDTAB
  0
TABLE
  2
STYLE
  5
3
330
0
100
AcDbSymbolTable
 70
     2
  0
STYLE
  5
11
330
3
100
AcDbSymbolTableRecord
100
AcDbTextStyleTableRecord
  2
Standard
 70
     0
 40
0.0
 41
1.0
 50
0.0
 71
     0
 42
3.5
  3
txt
  4

  0
STYLE
  5
94
330
3
100
AcDbSymbolTableRecord
100
AcDbTextStyleTableRecord
  2
SLDTEXTSTYLE0
 70
     0
 40
0.0
 41
0.75
 50
0.0
 71
     0
 42
3.5
  3
TXT
  4

  0
ENDTAB
  0
TABLE
  2
VIEW
  5
6
330
0
100
AcDbSymbolTable
 70
     0
  0
ENDTAB
  0
TABLE
  2
UCS
  5
7
330
0
100
AcDbSymbolTable
 70
     0
  0
ENDTAB
  0
TABLE
  2
APPID
  5
9
330
0
100
AcDbSymbolTable
 70
     1
  0
APPID
  5
12
330
9
100
AcDbSymbolTableRecord
100
AcDbRegAppTableRecord
  2
ACAD
 70
     0
  0
ENDTAB
  0
TABLE
  2
DIMSTYLE
  5
A
330
0
100
AcDbSymbolTable
 70
     4
100
AcDbDimStyleTable
  0
DIMSTYLE
105
27
330
A
100
AcDbSymbolTableRecord
100
AcDbDimStyleTableRecord
  2
ISO-25
 70
     0
 41
2.5
 42
0.625
 43
3.75
 44
1.25
 73
     0
 74
     0
 77
     1
 78
     8
140
2.5
141
2.5
143
0.03937007874016
147
0.625
171
     3
172
     1
178
     0
271
     2
272
     2
274
     3
278
    44
283
     0
284
     8
340
11
  0
DIMSTYLE
105
C8
102
{ACAD_REACTORS
330
C7
330
DC
330
EF
330
102
102
}
330
A
100
AcDbSymbolTableRecord
100
AcDbDimStyleTableRecord
  2
SLDDIMSTYLE0
 70
     0
 41
3.302
 44
0.0
 45
0.000000001
 73
     0
 74
     0
 77
     1
 78
    12
 79
     3
140
3.5
143
0.0393700787401575
147
0.875
148
0.000000001
170
     1
173
     1
178
     0
271
     2
272
     2
276
     2
284
    12
340
94
  0
DIMSTYLE
105
103
330
A
100
AcDbSymbolTableRecord
100
AcDbDimStyleTableRecord
  2
SLDDIMSTYLE1
 70
     0
 41
3.302
 44
0.0
 45
0.000000001
 73
     0
 74
     0
 77
     1
 78
    12
 79
     3
140
3.5
147
0.875
172
     1
173
     1
178
     0
271
     2
272
     2
276
     2
284
    12
289
     0
340
94
  0
DIMSTYLE
105
111
102
{ACAD_REACTORS
330
110
102
}
330
A
100
AcDbSymbolTableRecord
100
AcDbDimStyleTableRecord
  2
SLDDIMSTYLE2
 70
     0
 41
3.302
 44
0.0
 45
0.000000001
 73
     0
 74
     0
 77
     1
 78
    12
 79
     3
140
3.5
143
0.0393700787401575
147
0.875
148
0.000000001
170
     1
172
     1
173
     1
178
     0
271
     2
272
     2
276
     2
284
    12
289
     0
340
94
  0
ENDTAB
  0
TABLE
  2
BLOCK_RECORD
  5
1
330
0
100
AcDbSymbolTable
 70
     8
  0
BLOCK_RECORD
  5
1F
102
{ACAD_XDICTIONARY
360
181
102
}
330
1
100
AcDbSymbolTableRecord
100
AcDbBlockTableRecord
  2
*Model_Space
340
22
  0
BLOCK_RECORD
  5
1B
330
1
100
AcDbSymbolTableRecord
100
AcDbBlockTableRecord
  2
*Paper_Space
340
1E
  0
BLOCK_RECORD
  5
23
330
1
100
AcDbSymbolTableRecord
100
AcDbBlockTableRecord
  2
*Paper_Space0
340
26
  0
BLOCK_RECORD
  5
7F
330
1
100
AcDbSymbolTableRecord
100
AcDbBlockTableRecord
  2
블럭10
340
0
102
{BLKREFS
331
C0
102
}
  0
BLOCK_RECORD
  5
C9
330
1
100
AcDbSymbolTableRecord
100
AcDbBlockTableRecord
  2
_D
340
0
  0
BLOCK_RECORD
  5
DD
330
1
100
AcDbSymbolTableRecord
100
AcDbBlockTableRecord
  2
_D_1
340
0
  0
BLOCK_RECORD
  5
F0
330
1
100
AcDbSymbolTableRecord
100
AcDbBlockTableRecord
  2
_D_2
340
0
  0
BLOCK_RECORD
  5
104
330
1
100
AcDbSymbolTableRecord
100
AcDbBlockTableRecord
  2
_D_3
340
0
  0
BLOCK_RECORD
  5
112
330
1
100
AcDbSymbolTableRecord
100
AcDbBlockTableRecord
  2
_D_4
340
0
  0
BLOCK_RECORD
  5
12C
330
1
100
AcDbSymbolTableRecord
100
AcDbBlockTableRecord
  2
SW_DOWELSYMBOL_0
340
0
102
{BLKREFS
331
132
102
}
  0
ENDTAB
  0
ENDSEC
  0
SECTION
  2
BLOCKS
  0
BLOCK
  5
20
330
1F
100
AcDbEntity
  8
0
100
AcDbBlockBegin
  2
*Model_Space
 70
     0
 10
0.0
 20
0.0
 30
0.0
  3
*Model_Space
  1
*Model_Space
  0
ENDBLK
  5
21
330
1F
100
AcDbEntity
  8
0
100
AcDbBlockEnd
  0
BLOCK
  5
1C
330
1B
100
AcDbEntity
 67
     1
  8
0
100
AcDbBlockBegin
  2
*Paper_Space
 70
     0
 10
0.0
 20
0.0
 30
0.0
  3
*Paper_Space
  1
*Paper_Space
  0
ENDBLK
  5
1D
330
1B
100
AcDbEntity
 67
     1
  8
0
100
AcDbBlockEnd
  0
BLOCK
  5
24
330
23
100
AcDbEntity
  8
0
100
AcDbBlockBegin
  2
*Paper_Space0
 70
     0
 10
0.0
 20
0.0
 30
0.0
  3
*Paper_Space0
  1
*Paper_Space0
  0
ENDBLK
  5
25
330
23
100
AcDbEntity
  8
0
100
AcDbBlockEnd
  0
BLOCK
  5
80
330
7F
100
AcDbEntity
  8
0
100
AcDbBlockBegin
  2
블럭10
 70
     2
 10
0.0
 20
0.0
 30
0.0
  3
블럭10
  1
블럭10
  0
ELLIPSE
  5
82
330
7F
100
AcDbEntity
  8
중심선
100
AcDbEllipse
 10
20.54032771741204
 20
12.0471743016438
 30
0.0
 11
6.600054785286829
 21
-1.261213355974178E-13
 31
0.0
210
0.0
220
0.0
230
1.0
 40
0.636358354079598
 41
0.9219305317359503
 42
6.513795318482858
  0
ELLIPSE
  5
83
330
7F
100
AcDbEntity
  8
중심선
100
AcDbEllipse
 10
20.54032771746488
 20
12.04717430159265
 30
0.0
 11
3.960054785062283
 21
1.540847449632565E-10
 31
0.0
210
0.0
220
0.0
230
1.0
 40
0.3939339440162632
 41
1.131841032648279
 42
5.62031148352944
  0
LINE
  5
84
330
7F
100
AcDbEntity
  8
중심선
100
AcDbLine
 10
2.268634060543552
 20
16.24717430164393
 30
0.0
 11
5.714909304380834
 21
16.24717430164393
 31
0.0
  0
LINE
  5
85
330
7F
100
AcDbEntity
  8
중심선
100
AcDbLine
 10
5.245725140726316
 20
7.84717430164391
 30
0.0
 11
8.692000384563599
 21
7.84717430164391
 31
0.0
  0
LINE
  5
86
330
7F
100
AcDbEntity
  8
중심선
100
AcDbLine
 10
15.74043728645272
 20
16.24717430164393
 30
0.0
 11
8.692000384563599
 21
7.84717430164391
 31
0.0
  0
LINE
  5
87
330
7F
100
AcDbEntity
  8
중심선
100
AcDbLine
 10
0.1404042013395286
 20
13.71084872107135
 30
0.0
 11
3.58671253028996
 21
13.71088815037384
 31
0.0
  0
LINE
  5
88
330
7F
100
AcDbEntity
  8
중심선
100
AcDbLine
 10
2.750260043222114
 20
10.84717430164391
 30
0.0
 11
6.196535287059397
 21
10.84717430164391
 31
0.0
  0
LINE
  5
89
330
7F
100
AcDbEntity
  8
중심선
100
AcDbLine
 10
12.29416204261559
 20
16.24717430164393
 30
0.0
 11
5.245725140726316
 21
7.84717430164391
 31
0.0
  0
LINE
  5
8A
330
7F
100
AcDbEntity
  8
중심선
100
AcDbLine
 10
10.72767329541681
 20
16.24717430164393
 30
0.0
 11
6.196535287059397
 21
10.84717430164391
 31
0.0
  0
LINE
  5
8B
330
7F
100
AcDbEntity
  8
중심선
100
AcDbLine
 10
7.28139805157953
 20
16.24717430164393
 30
0.0
 11
2.750260043222114
 21
10.84717430164391
 31
0.0
  0
LINE
  5
8C
330
7F
100
AcDbEntity
  8
중심선
100
AcDbLine
 10
5.714909304380834
 20
16.24717430164393
 30
0.0
 11
3.58671253028996
 21
13.71088815037384
 31
0.0
  0
LINE
  5
8D
330
7F
100
AcDbEntity
  8
중심선
100
AcDbLine
 10
2.268634060543552
 20
16.24717430164393
 30
0.0
 11
0.1404042013395286
 21
13.71084872107135
 31
0.0
  0
LINE
  5
8E
330
7F
100
AcDbEntity
  8
중심선
100
AcDbLine
 10
7.28139805157953
 20
16.24717430164393
 30
0.0
 11
10.72767329541681
 21
16.24717430164393
 31
0.0
  0
LINE
  5
8F
330
7F
100
AcDbEntity
  8
중심선
100
AcDbLine
 10
12.29416204261559
 20
16.24717430164393
 30
0.0
 11
15.74043728645272
 21
16.24717430164393
 31
0.0
  0
LINE
  5
90
330
7F
100
AcDbEntity
  8
중심선
100
AcDbLine
 10
19.22036997980202
 20
11.08717430171403
 30
0.0
 11
23.66174974927406
 21
11.08717430171406
 31
0.0
  0
LINE
  5
91
330
7F
100
AcDbEntity
  8
중심선
100
AcDbLine
 10
19.22039502424796
 20
13.00717430171391
 30
0.0
 11
19.22036997980202
 21
11.08717430171403
 31
0.0
  0
LINE
  5
92
330
7F
100
AcDbEntity
  8
중심선
100
AcDbLine
 10
19.22039502424796
 20
13.00717430171391
 30
0.0
 11
26.96566020931264
 21
13.00717430171391
 31
0.0
  0
LINE
  5
93
330
7F
100
AcDbEntity
  8
중심선
100
AcDbLine
 10
22.22332737316547
 20
13.45928029700563
 30
0.0
 11
24.52862924686651
 21
15.39360700705356
 31
0.0
  0
ATTDEF
  5
95
330
7F
100
AcDbEntity
  8
FORMAT
 62
     2
100
AcDbText
 10
3.448148490846466
 20
2.075366912832191
 30
0.0
 40
4.233333333333333
  1
EM963012
 41
0.75
  7
SLDTEXTSTYLE0
 11
3.448148490846466
 21
-0.0412997538344756
 31
0.0
100
AcDbAttributeDefinition
  3

  2
AUTOATTR0
 70
     0
 74
     1
  0
ENDBLK
  5
81
330
7F
100
AcDbEntity
  8
0
100
AcDbBlockEnd
  0
BLOCK
  5
CA
330
C9
100
AcDbEntity
  8
0
100
AcDbBlockBegin
  2
_D
 70
     0
 10
0.0
 20
0.0
 30
0.0
  3
_D
  1
_D
  0
LINE
  5
CC
330
C9
100
AcDbEntity
  8
치수문자_일반주서
 62
     0
370
    -2
100
AcDbLine
 10
65.35515089770097
 20
2.18615730111266
 30
0.0
 11
65.35515089770097
 21
18.10309154778
 31
0.0
  0
LINE
  5
CD
330
C9
100
AcDbEntity
  8
치수문자_일반주서
 62
     0
370
    -2
100
AcDbLine
 10
55.83015089770096
 20
1.552521382478415
 30
0.0
 11
55.83015089770096
 21
18.10309154778
 31
0.0
  0
LINE
  5
CE
330
C9
100
AcDbEntity
  8
치수문자_일반주서
 62
     0
370
    -2
100
AcDbLine
 10
55.83015089770096
 20
18.10309154778
 30
0.0
 11
28.90315089770096
 21
18.10309154778
 31
0.0
  0
LINE
  5
CF
330
C9
100
AcDbEntity
  8
치수문자_일반주서
 62
     0
370
    -2
100
AcDbLine
 10
62.05315089770097
 20
18.10309154778
 30
0.0
 11
59.13215089770096
 21
18.10309154778
 31
0.0
  0
SOLID
  5
D0
330
C9
100
AcDbEntity
  8
치수문자_일반주서
 62
     0
100
AcDbTrace
 10
62.05315089770097
 20
17.55275821444667
 30
0.0
 11
62.05315089770097
 21
18.65342488111333
 31
0.0
 12
65.35515089770097
 22
18.10309154778
 32
0.0
 13
65.35515089770097
 23
18.10309154778
 33
0.0
  0
SOLID
  5
D1
330
C9
100
AcDbEntity
  8
치수문자_일반주서
 62
     0
100
AcDbTrace
 10
59.13215089770096
 20
18.65342488111333
 30
0.0
 11
59.13215089770096
 21
17.55275821444667
 31
0.0
 12
55.83015089770096
 22
18.10309154778
 32
0.0
 13
55.83015089770096
 23
18.10309154778
 33
0.0
  0
MTEXT
  5
D2
330
C9
100
AcDbEntity
  8
치수문자_일반주서
 62
     0
100
AcDbMText
 10
40.71565089770096
 20
22.47809154778
 30
0.0
 40
3.5
 41
0.0
 71
     2
 72
     1
  1
\A1;9.53 [3/8]
  7
SLDTEXTSTYLE0
 73
     1
 44
1.0
  0
POINT
  5
D3
330
C9
100
AcDbEntity
  8
Defpoints
 62
     0
100
AcDbPoint
 10
65.35515089770097
 20
2.12365730111266
 30
0.0
  0
POINT
  5
D4
330
C9
100
AcDbEntity
  8
Defpoints
 62
     0
100
AcDbPoint
 10
55.83015089770096
 20
1.490021382478415
 30
0.0
  0
POINT
  5
D5
330
C9
100
AcDbEntity
  8
Defpoints
 62
     0
100
AcDbPoint
 10
55.83015089770096
 20
18.10309154778
 30
0.0
  0
ENDBLK
  5
CB
330
C9
100
AcDbEntity
  8
0
100
AcDbBlockEnd
  0
BLOCK
  5
DE
330
DD
100
AcDbEntity
  8
0
100
AcDbBlockBegin
  2
_D_1
 70
     0
 10
0.0
 20
0.0
 30
0.0
  3
_D_1
  1
_D_1
  0
LINE
  5
E0
330
DD
100
AcDbEntity
  8
치수문자_일반주서
 62
     0
370
    -2
100
AcDbLine
 10
5.030150897700992
 20
3.722115267901826
 30
0.0
 11
5.030150897700992
 21
33.96761197311962
 31
0.0
  0
LINE
  5
E1
330
DD
100
AcDbEntity
  8
치수문자_일반주서
 62
     0
370
    -2
100
AcDbLine
 10
65.35515089770097
 20
2.18615730111266
 30
0.0
 11
65.35515089770097
 21
33.96761197311962
 31
0.0
  0
LINE
  5
E2
330
DD
100
AcDbEntity
  8
치수문자_일반주서
 62
     0
370
    -2
100
AcDbLine
 10
8.332150897700991
 20
33.96761197311962
 30
0.0
 11
62.05315089770097
 21
33.96761197311962
 31
0.0
  0
SOLID
  5
E3
330
DD
100
AcDbEntity
  8
치수문자_일반주서
 62
     0
100
AcDbTrace
 10
8.332150897700991
 20
34.51794530645296
 30
0.0
 11
8.332150897700991
 21
33.41727863978629
 31
0.0
 12
5.030150897700992
 22
33.96761197311962
 32
0.0
 13
5.030150897700992
 23
33.96761197311962
 33
0.0
  0
SOLID
  5
E4
330
DD
100
AcDbEntity
  8
치수문자_일반주서
 62
     0
100
AcDbTrace
 10
62.05315089770097
 20
33.41727863978629
 30
0.0
 11
62.05315089770097
 21
34.51794530645296
 31
0.0
 12
65.35515089770097
 22
33.96761197311962
 32
0.0
 13
65.35515089770097
 23
33.96761197311962
 33
0.0
  0
MTEXT
  5
E5
330
DD
100
AcDbEntity
  8
치수문자_일반주서
 62
     0
100
AcDbMText
 10
35.19265089770099
 20
38.34261197311962
 30
0.0
 40
3.5
 41
0.0
 71
     2
 72
     1
  1
\A1;60.33 [2 3/8]
  7
SLDTEXTSTYLE0
 73
     1
 44
1.0
  0
POINT
  5
E6
330
DD
100
AcDbEntity
  8
Defpoints
 62
     0
100
AcDbPoint
 10
5.030150897700992
 20
3.659615267901826
 30
0.0
  0
POINT
  5
E7
330
DD
100
AcDbEntity
  8
Defpoints
 62
     0
100
AcDbPoint
 10
65.35515089770097
 20
2.12365730111266
 30
0.0
  0
POINT
  5
E8
330
DD
100
AcDbEntity
  8
Defpoints
 62
     0
100
AcDbPoint
 10
65.35515089770097
 20
33.96761197311962
 30
0.0
  0
ENDBLK
  5
DF
330
DD
100
AcDbEntity
  8
0
100
AcDbBlockEnd
  0
BLOCK
  5
F1
330
F0
100
AcDbEntity
  8
0
100
AcDbBlockBegin
  2
_D_2
 70
     0
 10
0.0
 20
0.0
 30
0.0
  3
_D_2
  1
_D_2
  0
LINE
  5
F3
330
F0
100
AcDbEntity
  8
치수문자_일반주서
 62
     0
370
    -2
100
AcDbLine
 10
65.35515089770097
 20
2.18615730111266
 30
0.0
 11
65.35515089770097
 21
51.55667432272148
 31
0.0
  0
LINE
  5
F4
330
F0
100
AcDbEntity
  8
치수문자_일반주서
 62
     0
370
    -2
100
AcDbLine
 10
-45.76984910229903
 20
3.824999999999971
 30
0.0
 11
-45.76984910229903
 21
51.55667432272148
 31
0.0
  0
LINE
  5
F5
330
F0
100
AcDbEntity
  8
치수문자_일반주서
 62
     0
370
    -2
100
AcDbLine
 10
62.05315089770097
 20
51.55667432272148
 30
0.0
 11
-42.46784910229903
 21
51.55667432272148
 31
0.0
  0
SOLID
  5
F6
330
F0
100
AcDbEntity
  8
치수문자_일반주서
 62
     0
100
AcDbTrace
 10
62.05315089770097
 20
51.00634098938814
 30
0.0
 11
62.05315089770097
 21
52.10700765605481
 31
0.0
 12
65.35515089770097
 22
51.55667432272148
 32
0.0
 13
65.35515089770097
 23
51.55667432272148
 33
0.0
  0
SOLID
  5
F7
330
F0
100
AcDbEntity
  8
치수문자_일반주서
 62
     0
100
AcDbTrace
 10
-42.46784910229903
 20
52.10700765605481
 30
0.0
 11
-42.46784910229903
 21
51.00634098938814
 31
0.0
 12
-45.76984910229903
 22
51.55667432272148
 32
0.0
 13
-45.76984910229903
 23
51.55667432272148
 33
0.0
  0
MTEXT
  5
F8
330
F0
100
AcDbEntity
  8
치수문자_일반주서
 62
     0
100
AcDbMText
 10
9.792650897700948
 20
55.93167432272148
 30
0.0
 40
3.5
 41
0.0
 71
     2
 72
     1
  1
\A1;111.13 [4 3/8]
  7
SLDTEXTSTYLE0
 73
     1
 44
1.0
  0
POINT
  5
F9
330
F0
100
AcDbEntity
  8
Defpoints
 62
     0
100
AcDbPoint
 10
65.35515089770097
 20
2.12365730111266
 30
0.0
  0
POINT
  5
FA
330
F0
100
AcDbEntity
  8
Defpoints
 62
     0
100
AcDbPoint
 10
-45.76984910229903
 20
3.762499999999971
 30
0.0
  0
POINT
  5
FB
330
F0
100
AcDbEntity
  8
Defpoints
 62
     0
100
AcDbPoint
 10
-45.76984910229903
 20
51.55667432272148
 30
0.0
  0
ENDBLK
  5
F2
330
F0
100
AcDbEntity
  8
0
100
AcDbBlockEnd
  0
BLOCK
  5
105
330
104
100
AcDbEntity
  8
0
100
AcDbBlockBegin
  2
_D_3
 70
     0
 10
0.0
 20
0.0
 30
0.0
  3
_D_3
  1
_D_3
  0
LINE
  5
107
330
104
100
AcDbEntity
  8
치수문자_일반주서
 62
     0
370
    -2
100
AcDbLine
 10
-44.83234910229903
 20
4.762499999999982
 30
0.0
 11
-58.26984910229906
 21
4.762499999999931
 31
0.0
  0
LINE
  5
108
330
104
100
AcDbEntity
  8
치수문자_일반주서
 62
     0
370
    -2
100
AcDbLine
 10
-44.83234910229903
 20
-4.762499999999996
 30
0.0
 11
-58.26984910229903
 21
-4.762500000000046
 31
0.0
  0
LINE
  5
109
330
104
100
AcDbEntity
  8
치수문자_일반주서
 62
     0
370
    -2
100
AcDbLine
 10
-58.26984910229905
 20
1.460499999999931
 30
0.0
 11
-58.26984910229904
 21
-1.460500000000047
 31
0.0
  0
SOLID
  5
10A
330
104
100
AcDbEntity
  8
치수문자_일반주서
 62
     0
100
AcDbTrace
 10
-57.71951576896571
 20
1.460499999999933
 30
0.0
 11
-58.82018243563238
 21
1.460499999999929
 31
0.0
 12
-58.26984910229906
 22
4.762499999999931
 32
0.0
 13
-58.26984910229906
 23
4.762499999999931
 33
0.0
  0
SOLID
  5
10B
330
104
100
AcDbEntity
  8
치수문자_일반주서
 62
     0
100
AcDbTrace
 10
-58.82018243563238
 20
-1.460500000000049
 30
0.0
 11
-57.71951576896571
 21
-1.460500000000045
 31
0.0
 12
-58.26984910229903
 22
-4.762500000000046
 32
0.0
 13
-58.26984910229903
 23
-4.762500000000046
 33
0.0
  0
MTEXT
  5
10C
330
104
100
AcDbEntity
  8
치수문자_일반주서
 62
     0
100
AcDbMText
 10
-62.64484910229905
 20
-0.0000000000000345
 30
0.0
 40
3.5
 41
0.0
 71
     2
 72
     1
  1
\A1;%%c9.53 [3/8]
  7
SLDTEXTSTYLE0
 11
-3.729883127349616E-15
 21
1.0
 31
0.0
 73
     1
 44
1.0
  0
POINT
  5
10D
330
104
100
AcDbEntity
  8
Defpoints
 62
     0
100
AcDbPoint
 10
-44.76984910229903
 20
4.762499999999982
 30
0.0
  0
POINT
  5
10E
330
104
100
AcDbEntity
  8
Defpoints
 62
     0
100
AcDbPoint
 10
-44.76984910229903
 20
-4.762499999999996
 30
0.0
  0
POINT
  5
10F
330
104
100
AcDbEntity
  8
Defpoints
 62
     0
100
AcDbPoint
 10
-58.26984910229902
 20
-4.762500000000046
 30
0.0
  0
ENDBLK
  5
106
330
104
100
AcDbEntity
  8
0
100
AcDbBlockEnd
  0
BLOCK
  5
113
330
112
100
AcDbEntity
  8
0
100
AcDbBlockBegin
  2
_D_4
 70
     0
 10
0.0
 20
0.0
 30
0.0
  3
_D_4
  1
_D_4
  0
LINE
  5
115
330
112
100
AcDbEntity
  8
치수문자_일반주서
 62
     0
370
    -2
100
AcDbLine
 10
55.89265089770097
 20
2.381250000000008
 30
0.0
 11
81.13591547548023
 21
2.381250000000104
 31
0.0
  0
LINE
  5
116
330
112
100
AcDbEntity
  8
치수문자_일반주서
 62
     0
370
    -2
100
AcDbLine
 10
55.89265089770097
 20
-2.381249999999993
 30
0.0
 11
81.13591547548025
 21
-2.381249999999898
 31
0.0
  0
LINE
  5
117
330
112
100
AcDbEntity
  8
치수문자_일반주서
 62
     0
370
    -2
100
AcDbLine
 10
81.13591547548023
 20
2.381250000000104
 30
0.0
 11
81.13591547548013
 21
36.98525000000011
 31
0.0
  0
LINE
  5
118
330
112
100
AcDbEntity
  8
치수문자_일반주서
 62
     0
370
    -2
100
AcDbLine
 10
81.13591547548023
 20
2.381250000000104
 30
0.0
 11
81.13591547548025
 21
-2.381249999999898
 31
0.0
  0
LINE
  5
119
330
112
100
AcDbEntity
  8
치수문자_일반주서
 62
     0
370
    -2
100
AcDbLine
 10
81.13591547548022
 20
5.683250000000104
 30
0.0
 11
81.1359154754802
 21
8.985250000000104
 31
0.0
  0
LINE
  5
11A
330
112
100
AcDbEntity
  8
치수문자_일반주서
 62
     0
370
    -2
100
AcDbLine
 10
81.13591547548026
 20
-5.683249999999898
 30
0.0
 11
81.13591547548027
 21
-8.985249999999898
 31
0.0
  0
SOLID
  5
11B
330
112
100
AcDbEntity
  8
치수문자_일반주서
 62
     0
100
AcDbTrace
 10
80.58558214214689
 20
5.683250000000102
 30
0.0
 11
81.68624880881354
 21
5.683250000000106
 31
0.0
 12
81.13591547548023
 22
2.381250000000104
 32
0.0
 13
81.13591547548023
 23
2.381250000000104
 33
0.0
  0
SOLID
  5
11C
330
112
100
AcDbEntity
  8
치수문자_일반주서
 62
     0
100
AcDbTrace
 10
81.68624880881359
 20
-5.683249999999896
 30
0.0
 11
80.58558214214693
 21
-5.6832499999999
 31
0.0
 12
81.13591547548025
 22
-2.381249999999898
 32
0.0
 13
81.13591547548025
 23
-2.381249999999898
 33
0.0
  0
MTEXT
  5
11D
330
112
100
AcDbEntity
  8
치수문자_일반주서
 62
     0
100
AcDbMText
 10
76.76091547548018
 20
22.98525000000009
 30
0.0
 40
3.5
 41
0.0
 71
     2
 72
     1
  1
\A1;%%c4.76 [3/16]
  7
SLDTEXTSTYLE0
 11
-2.983906501879685E-15
 21
1.0
 31
0.0
 73
     1
 44
1.0
  0
POINT
  5
11E
330
112
100
AcDbEntity
  8
Defpoints
 62
     0
100
AcDbPoint
 10
55.83015089770097
 20
2.381250000000007
 30
0.0
  0
POINT
  5
11F
330
112
100
AcDbEntity
  8
Defpoints
 62
     0
100
AcDbPoint
 10
55.83015089770097
 20
-2.381249999999994
 30
0.0
  0
POINT
  5
120
330
112
100
AcDbEntity
  8
Defpoints
 62
     0
100
AcDbPoint
 10
81.13591547548025
 20
-2.381249999999899
 30
0.0
  0
ENDBLK
  5
114
330
112
100
AcDbEntity
  8
0
100
AcDbBlockEnd
  0
BLOCK
  5
12D
330
12C
100
AcDbEntity
  8
0
100
AcDbBlockBegin
  2
SW_DOWELSYMBOL_0
 70
     0
 10
0.0
 20
0.0
 30
0.0
  3
SW_DOWELSYMBOL_0
  1
SW_DOWELSYMBOL_0
  0
CIRCLE
  5
12F
330
12C
100
AcDbEntity
  8
해칭선
 62
     0
100
AcDbCircle
 10
0.0
 20
0.0
 30
0.0
 40
3.000000000000001
  0
HATCH
  5
130
330
12C
100
AcDbEntity
  8
0
  6
Continuous
 62
     0
370
     0
100
AcDbHatch
 10
0.0
 20
0.0
 30
0.0
210
0.0
220
0.0
230
1.0
  2
SOLID
 70
     1
 71
     0
 91
        1
 92
        0
 93
        3
 72
     2
 10
0.0
 20
0.0
 40
3.000000000000001
 50
0.0
 51
90.0
 73
     1
 72
     1
 10
0.0
 20
3.000000000000001
 11
0.0
 21
0.0
 72
     1
 10
0.0
 20
0.0
 11
3.000000000000003
 21
0.0
 97
        0
 75
     0
 76
     1
 98
        1
 10
0.0
 20
0.0
  0
HATCH
  5
131
330
12C
100
AcDbEntity
  8
0
  6
Continuous
 62
     0
370
     0
100
AcDbHatch
 10
0.0
 20
0.0
 30
0.0
210
0.0
220
0.0
230
1.0
  2
SOLID
 70
     1
 71
     0
 91
        1
 92
        0
 93
        3
 72
     2
 10
0.0
 20
0.0
 40
3.000000000000001
 50
180.0
 51
270.0000000000007
 73
     1
 72
     1
 10
0.0
 20
-3.000000000000001
 11
0.0
 21
0.0
 72
     1
 10
0.0
 20
0.0
 11
-3.000000000000003
 21
0.0
 97
        0
 75
     0
 76
     1
 98
        1
 10
0.0
 20
0.0
  0
ENDBLK
  5
12E
330
12C
100
AcDbEntity
  8
0
100
AcDbBlockEnd
  0
ENDSEC
  0
SECTION
  2
ENTITIES
  0
LINE
  5
96
330
1F
100
AcDbEntity
  8
외형선
  6
Continuous
370
    15
100
AcDbLine
 10
5.030150897700956
 20
-3.659615267901825
 30
0.0
 11
53.84895089770096
 21
-2.381249999999994
 31
0.0
  0
LINE
  5
97
330
1F
100
AcDbEntity
  8
외형선
  6
Continuous
370
    15
100
AcDbLine
 10
53.84895089770097
 20
2.381250000000007
 30
0.0
 11
5.030150897701002
 21
3.659615267901826
 31
0.0
  0
LINE
  5
98
330
1F
100
AcDbEntity
  8
외형선
  6
Continuous
370
    15
100
AcDbLine
 10
2.0
 20
4.7625
 30
0.0
 11
-44.76984910229903
 21
4.762499999999995
 31
0.0
  0
LINE
  5
99
330
1F
100
AcDbEntity
  8
외형선
  6
Continuous
370
    15
100
AcDbLine
 10
-44.76984910229903
 20
-4.762500000000006
 30
0.0
 11
1.999999999999989
 21
-4.7625
 31
0.0
  0
LINE
  5
9A
330
1F
100
AcDbEntity
  8
외형선
  6
Continuous
370
    15
100
AcDbLine
 10
-44.76984910229903
 20
4.762499999999994
 30
0.0
 11
-45.76984910229903
 21
3.762499999999993
 31
0.0
  0
LINE
  5
9B
330
1F
100
AcDbEntity
  8
외형선
  6
Continuous
370
    15
100
AcDbLine
 10
-45.76984910229903
 20
-3.762500000000006
 30
0.0
 11
-44.76984910229903
 21
-4.762500000000006
 31
0.0
  0
LINE
  5
9C
330
1F
100
AcDbEntity
  8
외형선
  6
Continuous
370
    15
100
AcDbLine
 10
55.83015089770097
 20
2.381250000000007
 30
0.0
 11
53.84895089770097
 21
2.381250000000007
 31
0.0
  0
LINE
  5
9D
330
1F
100
AcDbEntity
  8
외형선
  6
Continuous
370
    15
100
AcDbLine
 10
53.84895089770097
 20
-2.381249999999994
 30
0.0
 11
55.83015089770097
 21
-2.381249999999994
 31
0.0
  0
ARC
  5
9E
330
1F
100
AcDbEntity
  8
외형선
  6
Continuous
 62
     1
370
    15
100
AcDbCircle
 10
62.97390089770096
 20
0.0000000000000069
 30
0.0
 40
2.381250000000009
100
AcDbArc
 50
320.87239836283
 51
0.0
  0
ARC
  5
9F
330
1F
100
AcDbEntity
  8
외형선
  6
Continuous
 62
     1
370
    15
100
AcDbCircle
 10
62.97390089770096
 20
0.0000000000000069
 30
0.0
 40
2.381250000000016
100
AcDbArc
 50
0.0
 51
38.864505992365
  0
LINE
  5
A0
330
1F
100
AcDbEntity
  8
외형선
  6
Continuous
370
    15
100
AcDbLine
 10
53.84895089770097
 20
2.381250000000007
 30
0.0
 11
53.84895089770097
 21
-2.381249999999994
 31
0.0
  0
LINE
  5
A1
330
1F
100
AcDbEntity
  8
외형선
  6
Continuous
370
    15
100
AcDbLine
 10
2.0
 20
4.7625
 30
0.0
 11
2.0
 21
-4.762499999999999
 31
0.0
  0
LINE
  5
A2
330
1F
100
AcDbEntity
  8
외형선
  6
Continuous
370
    15
100
AcDbLine
 10
-44.76984910229903
 20
4.762499999999995
 30
0.0
 11
-44.76984910229903
 21
-4.762500000000006
 31
0.0
  0
LINE
  5
A3
330
1F
100
AcDbEntity
  8
외형선
  6
Continuous
370
    15
100
AcDbLine
 10
-45.76984910229903
 20
3.762499999999994
 30
0.0
 11
-45.76984910229903
 21
-3.762500000000007
 31
0.0
  0
LINE
  5
A4
330
1F
100
AcDbEntity
  8
외형선
  6
Continuous
370
    15
100
AcDbLine
 10
55.83015089770097
 20
2.380945294906177
 30
0.0
 11
55.83015089770097
 21
1.490021382478427
 31
0.0
  0
SPLINE
  5
A5
330
1F
100
AcDbEntity
  8
외형선
  6
Continuous
370
    15
100
AcDbSpline
210
0.0
220
0.0
230
1.0
 70
     8
 71
     3
 72
     8
 73
     4
 74
     0
 42
0.000000001
 43
0.00000001
 40
0.0
 40
0.0
 40
0.0
 40
0.0
 40
1.0
 40
1.0
 40
1.0
 40
1.0
 10
54.94010390031983
 20
1.852740140685451
 30
0.0
 10
55.23555936999844
 20
1.745436285653488
 30
0.0
 10
55.53568220482944
 20
1.623113358697895
 30
0.0
 10
55.83015089770097
 20
1.490021382478427
 30
0.0
  0
SPLINE
  5
A6
330
1F
100
AcDbEntity
  8
외형선
  6
Continuous
370
    15
100
AcDbSpline
210
0.0
220
0.0
230
1.0
 70
     8
 71
     3
 72
     8
 73
     4
 74
     0
 42
0.000000001
 43
0.00000001
 40
0.0
 40
0.0
 40
0.0
 40
0.0
 40
1.0
 40
1.0
 40
1.0
 40
1.0
 10
55.83015089770097
 20
-2.380945294906164
 30
0.0
 10
55.53557412088382
 20
-2.378214850496726
 30
0.0
 10
55.23533905833244
 20
-2.356904535699112
 30
0.0
 10
54.93977856378432
 20
-2.31768787419816
 30
0.0
  0
LINE
  5
A7
330
1F
100
AcDbEntity
  8
외형선
  6
Continuous
370
    15
100
AcDbLine
 10
54.93977856378432
 20
-2.317707572582008
 30
0.0
 11
54.93977856378432
 21
1.852810135234618
 31
0.0
  0
SPLINE
  5
A8
330
1F
100
AcDbEntity
  8
외형선
  6
Continuous
370
    15
100
AcDbSpline
210
0.0
220
0.0
230
1.0
 70
     8
 71
     3
 72
     8
 73
     4
 74
     0
 42
0.000000001
 43
0.00000001
 40
0.0
 40
0.0
 40
0.0
 40
0.0
 40
1.0
 40
1.0
 40
1.0
 40
1.0
 10
55.83015089770097
 20
-0.4594368997513362
 30
0.0
 10
55.53557412088382
 20
-0.389370000708284
 30
0.0
 10
55.23533905833244
 20
-0.3152793080644788
 30
0.0
 10
54.93977856378432
 20
-0.239706061795498
 30
0.0
  0
SPLINE
  5
A9
330
1F
100
AcDbEntity
  8
외형선
  6
Continuous
370
    15
100
AcDbSpline
210
0.0
220
0.0
230
1.0
 70
    24
 71
     3
 72
    14
 73
    10
 74
     0
 42
0.000000001
 43
0.00000001
 40
0.0
 40
0.0
 40
0.0
 40
0.0
 40
0.25
 40
0.25
 40
0.5
 40
0.5
 40
0.75
 40
0.75
 40
1.0
 40
1.0
 40
1.0
 40
1.0
 10
55.83015089770097
 20
1.490021382467236
 30
0.0
 10
55.83015089770097
 20
1.381046378421412
 30
0.0
 10
55.83015089770097
 20
1.241391129832199
 30
0.0
 10
55.83015089770097
 20
0.9241008144776176
 30
0.0
 10
55.83015089770097
 20
0.7470056624608196
 30
0.0
 10
55.83015089770097
 20
0.3865842682956638
 30
0.0
 10
55.83015089770097
 20
0.203620208017
 30
0.0
 10
55.83015089770097
 20
-0.1442406473331021
 30
0.0
 10
55.83015089770097
 20
-0.3091296192078658
 30
0.0
 10
55.83015089770097
 20
-0.4594368997513363
 30
0.0
  0
SPLINE
  5
AA
330
1F
100
AcDbEntity
  8
외형선
  6
Continuous
370
    15
100
AcDbSpline
210
0.0
220
0.0
230
1.0
 70
    24
 71
     3
 72
    14
 73
    10
 74
     0
 42
0.000000001
 43
0.00000001
 40
0.0
 40
0.0
 40
0.0
 40
0.0
 40
0.25
 40
0.25
 40
0.4999999999999999
 40
0.4999999999999999
 40
0.7499999999999998
 40
0.7499999999999998
 40
1.0
 40
1.0
 40
1.0
 40
1.0
 10
55.83015089770097
 20
-0.4594368997513362
 30
0.0
 10
55.83015089770097
 20
-0.5352431196480837
 30
0.0
 10
55.83015089770097
 20
-0.6327970969865573
 30
0.0
 10
55.83015089770097
 20
-0.8777766870071697
 30
0.0
 10
55.83015089770097
 20
-1.025463515567925
 30
0.0
 10
55.83015089770097
 20
-1.365114383808379
 30
0.0
 10
55.83015089770097
 20
-1.557074552488825
 30
0.0
 10
55.83015089770097
 20
-1.962134260857143
 30
0.0
 10
55.83015089770097
 20
-2.174782849614122
 30
0.0
 10
55.83015089770097
 20
-2.380945294895009
 30
0.0
  0
SPLINE
  5
AB
330
1F
100
AcDbEntity
  8
외형선
  6
Continuous
 62
     1
370
    15
100
AcDbSpline
210
0.0
220
0.0
230
1.0
 70
     8
 71
     3
 72
    24
 73
    20
 74
     0
 42
0.000000001
 43
0.00000001
 40
0.0
 40
0.0
 40
0.0
 40
0.0
 40
0.1250000000000001
 40
0.1250000000000001
 40
0.2500000000000001
 40
0.2500000000000001
 40
0.3750000000000002
 40
0.3750000000000002
 40
0.5000000000000001
 40
0.5000000000000001
 40
0.625
 40
0.625
 40
0.6875000000000001
 40
0.6875000000000001
 40
0.7500000000000001
 40
0.7500000000000001
 40
0.875
 40
0.875
 40
1.0
 40
1.0
 40
1.0
 40
1.0
 10
62.97390089770096
 20
-0.344884395992698
 30
0.0
 10
63.10710747828807
 20
-0.421435174128384
 30
0.0
 10
63.2376535388794
 20
-0.495455573799866
 30
0.0
 10
63.49701412132444
 20
-0.6327410732874629
 30
0.0
 10
63.62711667519594
 20
-0.6967378461650472
 30
0.0
 10
63.88223858523742
 20
-0.8031887060940591
 30
0.0
 10
64.00649219182255
 20
-0.8456180550417944
 30
0.0
 10
64.25284263816313
 20
-0.8986795319377774
 30
0.0
 10
64.37321487958951
 20
-0.9082665076798342
 30
0.0
 10
64.60360446997258
 20
-0.877720489815871
 30
0.0
 10
64.71316553252659
 20
-0.8376778485697749
 30
0.0
 10
64.86042386620576
 20
-0.728941033495133
 30
0.0
 10
64.90541897317445
 20
-0.6854921867347069
 30
0.0
 10
64.98654057490077
 20
-0.5835653755098368
 30
0.0
 10
65.02278220938051
 20
-0.5244326321578128
 30
0.0
 10
65.11160081953504
 20
-0.3332262503501058
 30
0.0
 10
65.1462268702249
 20
-0.1830375916973848
 30
0.0
 10
65.1625330842229
 20
0.1249431609318088
 30
0.0
 10
65.14550605532054
 20
0.2776523593176795
 30
0.0
 10
65.10873349589133
 20
0.4270047689884411
 30
0.0
  0
SPLINE
  5
AC
330
1F
100
AcDbEntity
  8
외형선
  6
Continuous
 62
     1
370
    15
100
AcDbSpline
210
0.0
220
0.0
230
1.0
 70
     8
 71
     3
 72
    28
 73
    24
 74
     0
 42
0.000000001
 43
0.00000001
 40
0.0
 40
0.0
 40
0.0
 40
0.0
 40
0.1250000000000003
 40
0.1250000000000003
 40
0.1875000000000008
 40
0.1875000000000008
 40
0.2500000000000009
 40
0.2500000000000009
 40
0.3750000000000008
 40
0.3750000000000008
 40
0.5000000000000006
 40
0.5000000000000006
 40
0.6250000000000004
 40
0.6250000000000004
 40
0.6875000000000002
 40
0.6875000000000002
 40
0.7500000000000002
 40
0.7500000000000002
 40
0.8750000000000001
 40
0.8750000000000001
 40
0.9375
 40
0.9375
 40
1.0
 40
1.0
 40
1.0
 40
1.0
 10
62.97390089770096
 20
-0.3448843959926961
 30
0.0
 10
62.67886757563754
 20
-0.1753354872197925
 30
0.0
 10
62.3772308026705
 20
-0.0018267077079066
 30
0.0
 10
61.93058069839213
 20
0.2553415741982021
 30
0.0
 10
61.78373509195231
 20
0.340343419654243
 30
0.0
 10
61.48666133421443
 20
0.5093367686475658
 30
0.0
 10
61.33694342111362
 20
0.5932257287440226
 30
0.0
 10
60.88818085713234
 20
0.8408381998561723
 30
0.0
 10
60.59400977767119
 20
0.9997078169354455
 30
0.0
 10
59.99713083490771
 20
1.300927274095534
 30
0.0
 10
59.6976372631014
 20
1.442628438464993
 30
0.0
 10
59.10648220374451
 20
1.700275326855442
 30
0.0
 10
58.80474350462097
 20
1.817616852297693
 30
0.0
 10
58.35862118439697
 20
1.970162449894408
 30
0.0
 10
58.21183411728134
 20
2.017063349350081
 30
0.0
 10
57.91437495429908
 20
2.103233599004729
 30
0.0
 10
57.76457572608071
 20
2.142387578425023
 30
0.0
 10
57.31591046769725
 20
2.246956040729276
 30
0.0
 10
57.021974318755
 20
2.29925796162818
 30
0.0
 10
56.57397961969632
 20
2.350666154847844
 30
0.0
 10
56.42405258145317
 20
2.3632430460564
 30
0.0
 10
56.12564257273193
 20
2.379065225491541
 30
0.0
 10
55.97819310015691
 20
2.382317504244689
 30
0.0
 10
55.83015089770097
 20
2.380945294906178
 30
0.0
  0
SPLINE
  5
AD
330
1F
100
AcDbEntity
  8
외형선
  6
Continuous
 62
     1
370
    15
100
AcDbSpline
210
0.0
220
0.0
230
1.0
 70
     8
 71
     3
 72
    10
 73
     6
 74
     0
 42
0.000000001
 43
0.00000001
 40
0.0
 40
0.0
 40
0.0
 40
0.0
 40
0.3568791334568395
 40
0.7130812514956184
 40
0.9999999999999999
 40
0.9999999999999999
 40
0.9999999999999999
 40
0.9999999999999999
 10
64.72634825116269
 20
0.5600578342646336
 30
0.0
 10
64.21730111740865
 20
0.6656508104535145
 30
0.0
 10
63.20017253471029
 20
0.8766364483095883
 30
0.0
 10
61.77402817668104
 20
1.05696685646314
 30
0.0
 10
60.85670538547588
 20
1.064897872175005
 30
0.0
 10
60.44745555248281
 20
1.068436176125005
 30
0.0
  0
SPLINE
  5
AE
330
1F
100
AcDbEntity
  8
외형선
  6
Continuous
 62
     1
370
    15
100
AcDbSpline
210
0.0
220
0.0
230
1.0
 70
     8
 71
     3
 72
     8
 73
     4
 74
     0
 42
0.000000001
 43
0.00000001
 40
0.0
 40
0.0
 40
0.0
 40
0.0
 40
1.0
 40
1.0
 40
1.0
 40
1.0
 10
64.72634825083982
 20
0.5600578343366869
 30
0.0
 10
64.85385260918468
 20
0.5165741193617662
 30
0.0
 10
64.9813147478227
 20
0.4722310417025517
 30
0.0
 10
65.10873349589113
 20
0.4270047689878813
 30
0.0
  0
SPLINE
  5
AF
330
1F
100
AcDbEntity
  8
외형선
  6
Continuous
 62
     1
370
    15
100
AcDbSpline
210
0.0
220
0.0
230
1.0
 70
     8
 71
     3
 72
    11
 73
     7
 74
     0
 42
0.000000001
 43
0.00000001
 40
0.0
 40
0.0
 40
0.0
 40
0.0
 40
0.0834680363390672
 40
0.3892555537401647
 40
0.6948359078360338
 40
1.0
 40
1.0
 40
1.0
 40
1.0
 10
60.54176976539743
 20
-1.06596874307759
 30
0.0
 10
60.41067276487817
 20
-1.07057943676876
 30
0.0
 10
59.7992981864287
 20
-1.092081537508163
 30
0.0
 10
58.70799589584527
 20
-0.9929222030914845
 30
0.0
 10
57.26852096786422
 20
-0.7860126390028765
 30
0.0
 10
56.30938968437346
 20
-0.5682460054759944
 30
0.0
 10
55.83015089770097
 20
-0.4594368997513361
 30
0.0
  0
SPLINE
  5
B0
330
1F
100
AcDbEntity
  8
외형선
  6
Continuous
370
    15
100
AcDbSpline
210
0.0
220
0.0
230
1.0
 70
    24
 71
     3
 72
    14
 73
    10
 74
     0
 42
0.000000001
 43
0.00000001
 40
0.0
 40
0.0
 40
0.0
 40
0.0
 40
0.25
 40
0.25
 40
0.5
 40
0.5
 40
0.75
 40
0.75
 40
1.0
 40
1.0
 40
1.0
 40
1.0
 10
55.83015089770097
 20
1.490021382467236
 30
0.0
 10
55.83015089770097
 20
1.381046378421413
 30
0.0
 10
55.83015089770097
 20
1.2413911298322
 30
0.0
 10
55.83015089770097
 20
0.9241008144776183
 30
0.0
 10
55.83015089770097
 20
0.7470056624608199
 30
0.0
 10
55.83015089770097
 20
0.3865842682956641
 30
0.0
 10
55.83015089770097
 20
0.2036202080170004
 30
0.0
 10
55.83015089770097
 20
-0.1442406473331017
 30
0.0
 10
55.83015089770097
 20
-0.3091296192078654
 30
0.0
 10
55.83015089770097
 20
-0.4594368997513359
 30
0.0
  0
SPLINE
  5
B1
330
1F
100
AcDbEntity
  8
외형선
  6
Continuous
 62
     1
370
    15
100
AcDbSpline
210
0.0
220
0.0
230
1.0
 70
     8
 71
     3
 72
    28
 73
    24
 74
     0
 42
0.000000001
 43
0.00000001
 40
0.0
 40
0.0
 40
0.0
 40
0.0
 40
0.0624999999999998
 40
0.0624999999999998
 40
0.1249999999999997
 40
0.1249999999999997
 40
0.2499999999999996
 40
0.2499999999999996
 40
0.3124999999999996
 40
0.3124999999999996
 40
0.3749999999999996
 40
0.3749999999999996
 40
0.4999999999999992
 40
0.4999999999999992
 40
0.6249999999999989
 40
0.6249999999999989
 40
0.7499999999999987
 40
0.7499999999999987
 40
0.8124999999999987
 40
0.8124999999999987
 40
0.8749999999999989
 40
0.8749999999999989
 40
1.0
 40
1.0
 40
1.0
 40
1.0
 10
55.83015089770097
 20
1.490021382478375
 30
0.0
 10
55.97819310015691
 20
1.423110265046481
 30
0.0
 10
56.12564257273195
 20
1.353394558130961
 30
0.0
 10
56.42405258145321
 20
1.208393153702619
 30
0.0
 10
56.57397961969636
 20
1.133262357410278
 30
0.0
 10
57.02197431875508
 20
0.9019546025077502
 30
0.0
 10
57.31591046769735
 20
0.7403200555174366
 30
0.0
 10
57.76457572608081
 20
0.4897034438099704
 30
0.0
 10
57.91437495429921
 20
0.404993240643649
 30
0.0
 10
58.21183411728146
 20
0.2347274079048593
 30
0.0
 10
58.35862118439711
 20
0.1493431123429277
 30
0.0
 10
58.80474350462116
 20
-0.108287056111735
 30
0.0
 10
59.1064822037447
 20
-0.281354633610137
 30
0.0
 10
59.69763726310161
 20
-0.6181045603258727
 30
0.0
 10
59.99713083490795
 20
-0.7836914266905596
 30
0.0
 10
60.59400977767147
 20
-1.099671021091344
 30
0.0
 10
60.88818085713262
 20
-1.249560536548967
 30
0.0
 10
61.33694342111392
 20
-1.4592783119171
 30
0.0
 10
61.48666133421474
 20
-1.526472753408001
 30
0.0
 10
61.78373509195264
 20
-1.654300281222292
 30
0.0
 10
61.93058069839249
 20
-1.714883900042851
 30
0.0
 10
62.37723080267088
 20
-1.887079813781906
 30
0.0
 10
62.67886757563795
 20
-1.988348322432661
 30
0.0
 10
62.97390089770138
 20
-2.072706067298511
 30
0.0
  0
SPLINE
  5
B2
330
1F
100
AcDbEntity
  8
외형선
  6
Continuous
 62
     1
370
    15
100
AcDbSpline
210
0.0
220
0.0
230
1.0
 70
     8
 71
     3
 72
    11
 73
     7
 74
     0
 42
0.000000001
 43
0.00000001
 40
0.0
 40
0.0
 40
0.0
 40
0.0
 40
0.2689104094256589
 40
0.6077647749395679
 40
0.9296721435572447
 40
1.0
 40
1.0
 40
1.0
 40
1.0
 10
64.80448990273635
 20
-1.488643172171549
 30
0.0
 10
64.68120852597517
 20
-1.627838607025677
 30
0.0
 10
64.40258012195939
 20
-1.942434394958987
 30
0.0
 10
63.78812452872178
 20
-2.16412279851879
 30
0.0
 10
63.28784742824571
 20
-2.155327473214217
 30
0.0
 10
63.0216331690682
 20
-2.085267783975486
 30
0.0
 10
62.97390089770077
 20
-2.072706067300381
 30
0.0
  0
ARC
  5
B3
330
1F
100
AcDbEntity
  8
외형선
  6
Continuous
 62
     1
370
    15
100
AcDbCircle
 10
64.53290819312748
 20
-0.216686021361064
 30
0.0
 40
0.8636623257285911
100
AcDbArc
 50
20.37101055844906
 51
48.18519740363903
  0
ARC
  5
B4
330
1F
100
AcDbEntity
  8
외형선
  6
Continuous
 62
     1
370
    15
100
AcDbCircle
 10
63.09067973858892
 20
0.0042704895504666
 30
0.0
 40
2.253285149360015
100
AcDbArc
 50
2.026560458840832
 51
27.79078718080257
  0
SPLINE
  5
B5
330
1F
100
AcDbEntity
  8
외형선
  6
Continuous
 62
     1
370
    15
100
AcDbSpline
210
0.0
220
0.0
230
1.0
 70
     8
 71
     3
 72
    18
 73
    14
 74
     0
 42
0.000000001
 43
0.00000001
 40
0.0
 40
0.0
 40
0.0
 40
0.0
 40
0.2499999999999989
 40
0.2499999999999989
 40
0.3749999999999988
 40
0.3749999999999988
 40
0.4999999999999988
 40
0.4999999999999988
 40
0.6249999999999988
 40
0.6249999999999988
 40
0.7499999999999987
 40
0.7499999999999987
 40
1.0
 40
1.0
 40
1.0
 40
1.0
 10
65.08406186647056
 20
1.054852069719532
 30
0.0
 10
65.01262594045573
 20
1.242607027668373
 30
0.0
 10
64.89364795199633
 20
1.429383600385115
 30
0.0
 10
64.67395582161289
 20
1.667119233086904
 30
0.0
 10
64.59370556202788
 20
1.739898913731968
 30
0.0
 10
64.4204811836616
 20
1.870439446476386
 30
0.0
 10
64.32722563375175
 20
1.928095105693042
 30
0.0
 10
64.13572245132096
 20
2.022819147822052
 30
0.0
 10
64.03663709947965
 20
2.060630903755232
 30
0.0
 10
63.83181742895988
 20
2.11700211877323
 30
0.0
 10
63.72526142083831
 20
2.135447446670841
 30
0.0
 10
63.40639508284944
 20
2.159386935608114
 30
0.0
 10
63.19045573323436
 20
2.134624759865906
 30
0.0
 10
62.97390089770077
 20
2.072706067300397
 30
0.0
  0
SPLINE
  5
B6
330
1F
100
AcDbEntity
  8
외형선
  6
Continuous
 62
     1
370
    15
100
AcDbSpline
210
0.0
220
0.0
230
1.0
 70
     8
 71
     3
 72
    12
 73
     8
 74
     0
 42
0.000000001
 43
0.00000001
 40
0.0
 40
0.0
 40
0.0
 40
0.0
 40
0.0303013290532862
 40
0.3191526372971334
 40
0.5460287559558328
 40
0.7729662392434543
 40
1.0
 40
1.0
 40
1.0
 40
1.0
 10
60.44745555248139
 20
-1.068436176125766
 30
0.0
 10
60.40080642962322
 20
-1.093876558786919
 30
0.0
 10
59.90946855590811
 20
-1.361830654327645
 30
0.0
 10
59.06850528291088
 20
-1.73130669397306
 30
0.0
 10
57.9259702597201
 20
-2.120669510758356
 30
0.0
 10
56.87820723525971
 20
-2.345750712140154
 30
0.0
 10
56.17955240007366
 20
-2.369212108766125
 30
0.0
 10
55.83015089770097
 20
-2.380945294906164
 30
0.0
  0
SPLINE
  5
B7
330
1F
100
AcDbEntity
  8
외형선
  6
Continuous
370
    15
100
AcDbSpline
210
0.0
220
0.0
230
1.0
 70
    24
 71
     3
 72
    14
 73
    10
 74
     0
 42
0.000000001
 43
0.00000001
 40
0.0
 40
0.0
 40
0.0
 40
0.0
 40
0.25
 40
0.25
 40
0.4999999999999999
 40
0.4999999999999999
 40
0.7499999999999998
 40
0.7499999999999998
 40
1.0
 40
1.0
 40
1.0
 40
1.0
 10
55.83015089770096
 20
-0.4594368997513358
 30
0.0
 10
55.83015089770096
 20
-0.5352431196480834
 30
0.0
 10
55.83015089770096
 20
-0.6327970969865571
 30
0.0
 10
55.83015089770096
 20
-0.8777766870071694
 30
0.0
 10
55.83015089770096
 20
-1.025463515567924
 30
0.0
 10
55.83015089770096
 20
-1.365114383808379
 30
0.0
 10
55.83015089770096
 20
-1.557074552488825
 30
0.0
 10
55.83015089770096
 20
-1.962134260857141
 30
0.0
 10
55.83015089770097
 20
-2.174782849614122
 30
0.0
 10
55.83015089770097
 20
-2.380945294895009
 30
0.0
  0
SPLINE
  5
B8
330
1F
100
AcDbEntity
  8
외형선
  6
Continuous
 62
     1
370
    15
100
AcDbSpline
210
0.0
220
0.0
230
1.0
 70
     8
 71
     3
 72
     8
 73
     4
 74
     0
 42
0.000000001
 43
0.00000001
 40
0.0
 40
0.0
 40
0.0
 40
0.0
 40
1.0
 40
1.0
 40
1.0
 40
1.0
 10
64.06028909478972
 20
0.7382517459788629
 30
0.0
 10
64.27816586092001
 20
0.6848923255339974
 30
0.0
 10
64.50048936049126
 20
0.6250515799153892
 30
0.0
 10
64.72634825083982
 20
0.5600578343366873
 30
0.0
  0
SPLINE
  5
B9
330
1F
100
AcDbEntity
  8
외형선
  6
Continuous
 62
     1
370
    15
100
AcDbSpline
210
0.0
220
0.0
230
1.0
 70
     8
 71
     3
 72
    10
 73
     6
 74
     0
 42
0.000000001
 43
0.00000001
 40
0.0
 40
0.0
 40
0.0
 40
0.0
 40
0.0649105357819057
 40
0.5280485076534747
 40
1.0
 40
1.0
 40
1.0
 40
1.0
 10
60.54176976539574
 20
1.065968743076677
 30
0.0
 10
60.59440031006989
 20
1.094714452207653
 30
0.0
 10
61.02255084429991
 20
1.328561371281823
 30
0.0
 10
61.83318371120795
 20
1.697825140607132
 30
0.0
 10
62.59128006779652
 20
1.946963023374306
 30
0.0
 10
62.97390089770138
 20
2.072706067298282
 30
0.0
  0
SPLINE
  5
BA
330
1F
100
AcDbEntity
  8
외형선
  6
Continuous
 62
     1
370
    15
100
AcDbSpline
210
0.0
220
0.0
230
1.0
 70
     8
 71
     3
 72
    10
 73
     6
 74
     0
 42
0.000000001
 43
0.00000001
 40
0.0
 40
0.0
 40
0.0
 40
0.0
 40
0.5
 40
0.5
 40
1.0
 40
1.0
 40
1.0
 40
1.0
 10
65.08406186646032
 20
1.054852069728422
 30
0.0
 10
64.94062498083098
 20
0.9394823204791972
 30
0.0
 10
64.77035533113461
 20
0.8612505335494418
 30
0.0
 10
64.42294743530677
 20
0.7626357935338216
 30
0.0
 10
64.24091498196104
 20
0.7402964392011909
 30
0.0
 10
64.06028909478972
 20
0.7382517459788644
 30
0.0
  0
LINE
  5
BB
330
1F
100
AcDbEntity
  8
중심선
 62
     1
100
AcDbLine
 10
-48.76984910229903
 20
-0.0000000000000075
 30
0.0
 11
68.35515089770097
 21
0.0000000000000069
 31
0.0
  0
LINE
  5
BC
330
1F
100
AcDbEntity
  8
치수문자_일반주서
 62
     1
100
AcDbLine
 10
65.35515089770097
 20
-0.0000000000000036
 30
0.0
 11
65.35515089770098
 21
2.123657301112655
 31
0.0
  0
LINE
  5
BD
330
1F
100
AcDbEntity
  8
참조1
100
AcDbLine
 10
9.792650897700966
 20
-0.0000000000000075
 30
0.0
 11
9.792650897700973
 21
-40.00000000000001
 31
0.0
  0
LINE
  5
BE
330
1F
100
AcDbEntity
  8
참조1
100
AcDbLine
 10
9.792650897700973
 20
-40.00000000000001
 30
0.0
 11
0.9837940833922989
 21
-40.00000000000001
 31
0.0
  0
CIRCLE
  5
BF
330
1F
100
AcDbEntity
  8
해칭선
100
AcDbCircle
 10
0.0
 20
0.0
 30
0.0
 40
3.000000000000001
  0
INSERT
  5
C0
330
1F
100
AcDbEntity
  8
0
  6
Continuous
 62
     7
100
AcDbBlockReference
 66
     1
  2
블럭10
 10
-4.14762203442424
 20
-52.04717430164394
 30
0.0
  0
ATTRIB
  5
C1
330
C0
100
AcDbEntity
  8
FORMAT
 62
     2
100
AcDbText
 10
-14.28925804656087
 20
-49.97180738881174
 30
0.0
 40
4.233333333333333
  1
EM963012 [ 4 FLUTE ]
 41
0.75
  7
SLDTEXTSTYLE0
 11
-14.28925804656087
 21
-52.08847405547841
 31
0.0
100
AcDbAttribute
  2
AUTOATTR0
 70
     0
 74
     1
  0
SEQEND
  5
C2
330
C0
100
AcDbEntity
  8
0
  6
Continuous
 62
     7
  0
HATCH
  5
C3
330
1F
100
AcDbEntity
  8
중심선
100
AcDbHatch
 10
0.0
 20
0.0
 30
0.0
210
0.0
220
0.0
230
1.0
  2
SOLID
 70
     1
 71
     0
 91
        1
 92
        0
 93
        4
 72
     1
 10
1.56728726995661
 20
-35.8
 11
-1.878987973880672
 21
-35.8
 72
     1
 10
-1.878987973880672
 20
-35.8
 11
-4.007217833084694
 21
-38.33632558057258
 72
     1
 10
-4.007217833084694
 20
-38.33632558057258
 11
-0.5609095041342629
 21
-38.33628615127009
 72
     1
 10
-0.5609095041342629
 20
-38.33628615127009
 11
1.56728726995661
 21
-35.8
 97
        0
 75
     0
 76
     1
 98
        1
 10
-6.775228236310607
 20
-0.0000000000000036
  0
HATCH
  5
C4
330
1F
100
AcDbEntity
  8
중심선
100
AcDbHatch
 10
0.0
 20
0.0
 30
0.0
210
0.0
220
0.0
230
1.0
  2
SOLID
 70
     1
 71
     0
 91
        1
 92
        0
 93
        4
 72
     1
 10
6.580051260992562
 20
-35.80000000000003
 11
3.133776017155308
 21
-35.79999999999998
 72
     1
 10
3.133776017155308
 20
-35.79999999999998
 11
-1.397361991202108
 21
-41.20000000000002
 72
     1
 10
-1.397361991202109
 20
-41.20000000000002
 11
2.048913252635174
 21
-41.20000000000002
 72
     1
 10
2.048913252635174
 20
-41.20000000000002
 11
6.580051260992562
 21
-35.80000000000003
 97
        0
 75
     0
 76
     1
 98
        1
 10
-6.775228236310607
 20
-0.0000000000000036
  0
HATCH
  5
C5
330
1F
100
AcDbEntity
  8
중심선
100
AcDbHatch
 10
0.0
 20
0.0
 30
0.0
210
0.0
220
0.0
230
1.0
  2
SOLID
 70
     1
 71
     0
 91
        1
 92
        0
 93
        4
 72
     1
 10
11.59281525202846
 20
-35.8
 11
8.14654000819134
 21
-35.8
 72
     1
 10
8.14654000819134
 20
-35.8
 11
1.098103106302093
 21
-44.20000000000002
 72
     1
 10
1.098103106302093
 20
-44.20000000000002
 11
4.544378350139375
 21
-44.20000000000002
 72
     1
 10
4.544378350139375
 20
-44.20000000000002
 11
11.59281525202846
 21
-35.8
 97
        0
 75
     0
 76
     1
 98
        1
 10
-6.775228236310607
 20
-0.0000000000000036
  0
HATCH
  5
C6
330
1F
100
AcDbEntity
  8
중심선
100
AcDbHatch
 10
0.0
 20
0.0
 30
0.0
210
0.0
220
0.0
230
1.0
  2
SOLID
 70
     1
 71
     0
 91
        1
 92
        0
 93
        6
 72
     3
 10
16.39270568304066
 20
-40.00000000005128
 11
3.960054785062283
 21
1.540882976769353E-10
 40
0.3939339440162628
 50
17.09539180608436
 51
320.0019657685082
 73
     0
 72
     1
 10
18.07570533874122
 20
-38.58789400463834
 11
20.38100721244226
 21
-36.65356729459039
 72
     3
 10
16.39270568298781
 20
-40.00000000000016
 11
6.600054785286829
 21
-1.278976924368180E-13
 40
0.636358354079598
 50
39.99873849337427
 51
368.4976242363724
 73
     1
 72
     1
 10
22.81803817488842
 20
-39.03999999993002
 11
15.07277298982376
 21
-39.03999999993002
 72
     1
 10
15.07277298982376
 20
-39.03999999993002
 11
15.0727479453778
 21
-40.95999999992992
 72
     1
 10
15.0727479453778
 20
-40.95999999992992
 11
19.51412771484983
 21
-40.95999999992989
 97
        0
 75
     0
 76
     1
 98
        1
 10
-6.775228236310607
 20
-0.0000000000000036
  0
DIMENSION
  5
C7
330
1F
100
AcDbEntity
  8
치수문자_일반주서
100
AcDbDimension
  2
_D
 10
55.83015089770096
 20
18.10309154778
 30
0.0
 11
40.71565089770096
 21
18.10309154778
 31
0.0
 70
   160
  1
<>
 71
     2
 42
9.525000000000006
  3
SLDDIMSTYLE0
100
AcDbAlignedDimension
 13
65.35515089770097
 23
2.12365730111266
 33
0.0
 14
55.83015089770096
 24
1.490021382478415
 34
0.0
100
AcDbRotatedDimension
1001
ACAD
1000
DSTYLE
1002
{
1070
   171
1070
     6
1070
   273
1070
     7
1002
}
  0
DIMENSION
  5
DC
330
1F
100
AcDbEntity
  8
치수문자_일반주서
100
AcDbDimension
  2
_D_1
 10
65.35515089770097
 20
33.96761197311962
 30
0.0
 11
35.19265089770099
 21
33.96761197311962
 31
0.0
 70
   160
  1
<>
 71
     2
 42
60.32499999999997
  3
SLDDIMSTYLE0
100
AcDbAlignedDimension
 13
5.030150897700992
 23
3.659615267901826
 33
0.0
 14
65.35515089770097
 24
2.12365730111266
 34
0.0
100
AcDbRotatedDimension
1001
ACAD
1000
DSTYLE
1002
{
1070
   171
1070
     6
1070
   273
1070
     7
1002
}
  0
DIMENSION
  5
EF
330
1F
100
AcDbEntity
  8
치수문자_일반주서
100
AcDbDimension
  2
_D_2
 10
-45.76984910229903
 20
51.55667432272148
 30
0.0
 11
9.792650897700948
 21
51.55667432272148
 31
0.0
 70
   160
  1
<>
 71
     2
 42
111.125
  3
SLDDIMSTYLE0
100
AcDbAlignedDimension
 13
65.35515089770097
 23
2.12365730111266
 33
0.0
 14
-45.76984910229903
 24
3.762499999999971
 34
0.0
100
AcDbRotatedDimension
1001
ACAD
1000
DSTYLE
1002
{
1070
   171
1070
     6
1070
   273
1070
     7
1002
}
  0
DIMENSION
  5
102
330
1F
100
AcDbEntity
  8
치수문자_일반주서
100
AcDbDimension
  2
_D_3
 10
-58.26984910229903
 20
-4.762500000000046
 30
0.0
 11
-58.26984910229905
 21
-0.0000000000000183
 31
0.0
 70
   160
  1
%%c<>
 71
     2
 42
9.524999999999977
 52
-270.0
  3
SLDDIMSTYLE0
100
AcDbAlignedDimension
 13
-44.76984910229903
 23
4.762499999999982
 33
0.0
 14
-44.76984910229903
 24
-4.762499999999996
 34
0.0
 50
90.0000000000002
100
AcDbRotatedDimension
1001
ACAD
1000
DSTYLE
1002
{
1070
   171
1070
     6
1070
   273
1070
     7
1002
}
  0
DIMENSION
  5
110
330
1F
100
AcDbEntity
  8
치수문자_일반주서
100
AcDbDimension
  2
_D_4
 10
81.13591547548025
 20
-2.381249999999898
 30
0.0
 11
81.13591547548018
 21
22.9852500000001
 31
0.0
 70
   160
  1
%%c<>
 71
     2
 42
4.762500000000001
 52
-270.0
  3
SLDDIMSTYLE2
100
AcDbAlignedDimension
 13
55.83015089770097
 23
2.381250000000007
 33
0.0
 14
55.83015089770097
 24
-2.381249999999994
 34
0.0
 50
90.0000000000002
100
AcDbRotatedDimension
1001
ACAD
1000
DSTYLE
1002
{
1070
   171
1070
     6
1070
   273
1070
     7
1002
}
  0
LINE
  5
125
330
1F
100
AcDbEntity
  8
참조1
100
AcDbLine
 10
98.95613471304657
 20
7.439999999999999
 30
0.0
 11
98.95613471304657
 21
-7.440000000000006
 31
0.0
  0
LINE
  5
126
330
1F
100
AcDbEntity
  8
참조1
100
AcDbLine
 10
111.6561347130466
 20
5.439999999999999
 30
0.0
 11
98.95613471304657
 21
5.439999999999999
 31
0.0
  0
SOLID
  5
127
330
1F
100
AcDbEntity
  8
참조1
100
AcDbTrace
 10
98.95613471304657
 20
5.439999999999999
 30
0.0
 11
105.3061347130466
 21
4.423999999999999
 31
0.0
 12
105.3061347130466
 22
6.455999999999999
 32
0.0
 13
105.3061347130466
 23
6.455999999999999
 33
0.0
  0
LINE
  5
128
330
1F
100
AcDbEntity
  8
참조1
100
AcDbLine
 10
111.6561347130466
 20
-5.440000000000006
 30
0.0
 11
98.95613471304657
 21
-5.440000000000006
 31
0.0
  0
SOLID
  5
129
330
1F
100
AcDbEntity
  8
참조1
100
AcDbTrace
 10
98.95613471304657
 20
-5.440000000000006
 30
0.0
 11
105.3061347130466
 21
-6.456000000000006
 31
0.0
 12
105.3061347130466
 22
-4.424000000000006
 32
0.0
 13
105.3061347130466
 23
-4.424000000000006
 33
0.0
  0
MTEXT
  5
12A
330
1F
100
AcDbEntity
  8
참조1
100
AcDbMText
 10
108.3536248055168
 20
10.98821664464993
 30
0.0
 40
3.5
 41
0.0
 71
     1
 72
     1
  1
A
  7
SLDTEXTSTYLE0
 73
     1
 44
1.0
  0
MTEXT
  5
12B
330
1F
100
AcDbEntity
  8
참조1
100
AcDbMText
 10
108.3536248055168
 20
0.1082166446499292
 30
0.0
 40
3.5
 41
0.0
 71
     1
 72
     1
  1
A
  7
SLDTEXTSTYLE0
 73
     1
 44
1.0
  0
INSERT
  5
132
330
1F
100
AcDbEntity
  8
해칭선
100
AcDbBlockReference
  2
SW_DOWELSYMBOL_0
 10
0.0
 20
0.0
 30
0.0
  0
LINE
  5
158
330
1F
100
AcDbEntity
  8
외형선
  6
Continuous
370
    15
100
AcDbLine
 10
5.030150897700942
 20
-3.659615267901826
 30
0.0
 11
5.030150897700992
 21
3.659615267901826
 31
0.0
  0
LINE
  5
15A
330
1F
100
AcDbEntity
  8
외형선
  6
Continuous
370
    15
100
AcDbLine
 10
5.030150897700992
 20
3.659615267901826
 30
0.0
 11
1.999999999999996
 21
4.7625
 31
0.0
  0
LINE
  5
15B
330
1F
100
AcDbEntity
  8
외형선
  6
Continuous
370
    15
100
AcDbLine
 10
5.030150897700992
 20
-3.659615267901824
 30
0.0
 11
1.999999999999996
 21
-4.762499999999998
 31
0.0
  0
ENDSEC
  0
SECTION
  2
OBJECTS
  0
DICTIONARY
  5
C
330
0
100
AcDbDictionary
281
     1
  3
ACAD_GROUP
350
D
  3
ACAD_IMAGE_VARS
350
156
  3
ACAD_LAYOUT
350
1A
  3
ACAD_MLINESTYLE
350
17
  3
ACAD_PLOTSETTINGS
350
19
  3
ACAD_PLOTSTYLENAME
350
E
  3
ACAD_SCALELIST
350
47
  3
APPDATA
350
154
  3
DWGPROPS
350
183
  0
DICTIONARY
  5
181
330
1F
100
AcDbDictionary
280
     1
281
     1
  3
DIM_BOUNDING_BOXES_V1
360
182
  0
DICTIONARY
  5
D
102
{ACAD_REACTORS
330
C
102
}
330
C
100
AcDbDictionary
281
     1
  0
RASTERVARIABLES
  5
156
102
{ACAD_REACTORS
330
C
102
}
330
C
100
AcDbRasterVariables
 90
        0
 70
     1
 71
     1
 72
     1
  0
DICTIONARY
  5
1A
102
{ACAD_REACTORS
330
C
102
}
330
C
100
AcDbDictionary
281
     1
  3
Layout1
350
1E
  3
Layout2
350
26
  3
Model
350
22
  0
DICTIONARY
  5
17
102
{ACAD_REACTORS
330
C
102
}
330
C
100
AcDbDictionary
281
     1
  3
Standard
350
18
  0
DICTIONARY
  5
19
102
{ACAD_REACTORS
330
C
102
}
330
C
100
AcDbDictionary
281
     1
  0
ACDBDICTIONARYWDFLT
  5
E
102
{ACAD_REACTORS
330
C
102
}
330
C
100
AcDbDictionary
281
     1
  3
Normal
350
F
100
AcDbDictionaryWithDefault
340
F
  0
DICTIONARY
  5
47
102
{ACAD_REACTORS
330
C
102
}
330
C
100
AcDbDictionary
281
     1
  3
A0
350
48
  3
A1
350
49
  3
A2
350
4A
  3
A3
350
4B
  3
A4
350
4C
  3
A5
350
4D
  3
A6
350
4E
  3
A7
350
4F
  3
A8
350
50
  3
A9
350
51
  3
B0
350
52
  3
B1
350
53
  3
B2
350
54
  3
B3
350
55
  3
B4
350
56
  3
B5
350
57
  3
B6
350
58
  3
B7
350
59
  3
B8
350
5A
  3
B9
350
5B
  3
C0
350
5C
  3
C1
350
5D
  3
C2
350
5E
  3
C3
350
5F
  3
C4
350
60
  3
C5
350
61
  3
C6
350
62
  3
C7
350
63
  3
C8
350
64
  3
C9
350
65
  3
D0
350
66
  3
D1
350
67
  3
D2
350
68
  0
DICTIONARY
  5
154
102
{ACAD_REACTORS
330
C
102
}
330
C
100
AcDbDictionary
281
     1
  0
XRECORD
  5
183
102
{ACAD_REACTORS
330
C
102
}
330
C
100
AcDbXrecord
280
     1
  1
DWGPROPS COOKIE
  2

  3

  4

  6

  7

  8
12017165
  9

300
=
301
=
302
=
303
=
304
=
305
=
306
=
307
=
308
=
309
=
 40
0.0
 41
2458298.516410012
 42
2459697.081237037
  1

 90
        0
  0
DICTIONARY
  5
182
102
{ACAD_REACTORS
330
181
102
}
330
181
100
AcDbDictionary
281
     1
  0
LAYOUT
  5
1E
102
{ACAD_REACTORS
330
1A
102
}
330
1A
100
AcDbPlotSettings
  1

  2
none_device
  4

  6

 40
0.0
 41
0.0
 42
0.0
 43
0.0
 44
0.0
 45
0.0
 46
0.0
 47
0.0
 48
0.0
 49
0.0
140
0.0
141
0.0
142
1.0
143
1.0
 70
   688
 72
     1
 73
     0
 74
     5
  7

 75
    16
147
1.0
148
0.0
149
0.0
100
AcDbLayout
  1
Layout1
 70
     1
 71
     1
 10
0.0
 20
0.0
 11
420.0
 21
297.0
 12
0.0
 22
0.0
 32
0.0
 14
1.000000000000000E+20
 24
1.000000000000000E+20
 34
1.000000000000000E+20
 15
-1.000000000000000E+20
 25
-1.000000000000000E+20
 35
-1.000000000000000E+20
146
0.0
 13
0.0
 23
0.0
 33
0.0
 16
1.0
 26
0.0
 36
0.0
 17
0.0
 27
1.0
 37
0.0
 76
     0
330
1B
  0
LAYOUT
  5
26
102
{ACAD_REACTORS
330
1A
102
}
330
1A
100
AcDbPlotSettings
  1

  2
none_device
  4

  6

 40
0.0
 41
0.0
 42
0.0
 43
0.0
 44
0.0
 45
0.0
 46
0.0
 47
0.0
 48
0.0
 49
0.0
140
0.0
141
0.0
142
1.0
143
1.0
 70
   688
 72
     1
 73
     0
 74
     5
  7

 75
    16
147
1.0
148
0.0
149
0.0
100
AcDbLayout
  1
Layout2
 70
     1
 71
     2
 10
0.0
 20
0.0
 11
0.0
 21
0.0
 12
0.0
 22
0.0
 32
0.0
 14
0.0
 24
0.0
 34
0.0
 15
0.0
 25
0.0
 35
0.0
146
0.0
 13
0.0
 23
0.0
 33
0.0
 16
1.0
 26
0.0
 36
0.0
 17
0.0
 27
1.0
 37
0.0
 76
     0
330
23
  0
LAYOUT
  5
22
102
{ACAD_REACTORS
330
1A
102
}
330
1A
100
AcDbPlotSettings
  1

  2
none_device
  4
ANSI_A_(11.00_x_8.50_Inches)
  6

 40
6.35
 41
19.05
 42
6.35000508
 43
19.05000254
 44
279.4
 45
215.9
 46
83.91386288531639
 47
79.67897702869061
 48
0.0
 49
0.0
140
0.0
141
0.0
142
0.0624100265904643
143
1.0
 70
  1696
 72
     0
 73
     0
 74
     0
  7

 75
     0
147
0.0235690232323232
148
0.0
149
0.0
100
AcDbLayout
  1
Model
 70
     1
 71
     0
 10
0.0
 20
0.0
 11
420.0
 21
297.0
 12
0.0
 22
0.0
 32
0.0
 14
-62.6448491022991
 24
-49.97180738881175
 34
0.0
 15
111.6561347130466
 25
55.93167432272148
 35
0.0
146
0.0
 13
0.0
 23
0.0
 33
0.0
 16
1.0
 26
0.0
 36
0.0
 17
0.0
 27
1.0
 37
0.0
 76
     0
330
1F
331
29
  0
MLINESTYLE
  5
18
102
{ACAD_REACTORS
330
17
102
}
330
17
100
AcDbMlineStyle
  2
Standard
 70
     0
  3

 62
   256
 51
90.0
 52
90.0
 71
     2
 49
0.5
 62
   256
  6
BYLAYER
 49
-0.5
 62
   256
  6
BYLAYER
  0
ACDBPLACEHOLDER
  5
F
102
{ACAD_REACTORS
330
E
102
}
330
E
  0
SCALE
  5
48
102
{ACAD_REACTORS
330
47
102
}
330
47
100
AcDbScale
 70
     0
300
1:1
140
1.0
141
1.0
290
     1
  0
SCALE
  5
49
102
{ACAD_REACTORS
330
47
102
}
330
47
100
AcDbScale
 70
     0
300
1:2
140
1.0
141
2.0
290
     0
  0
SCALE
  5
4A
102
{ACAD_REACTORS
330
47
102
}
330
47
100
AcDbScale
 70
     0
300
1:4
140
1.0
141
4.0
290
     0
  0
SCALE
  5
4B
102
{ACAD_REACTORS
330
47
102
}
330
47
100
AcDbScale
 70
     0
300
1:5
140
1.0
141
5.0
290
     0
  0
SCALE
  5
4C
102
{ACAD_REACTORS
330
47
102
}
330
47
100
AcDbScale
 70
     0
300
1:8
140
1.0
141
8.0
290
     0
  0
SCALE
  5
4D
102
{ACAD_REACTORS
330
47
102
}
330
47
100
AcDbScale
 70
     0
300
1:10
140
1.0
141
10.0
290
     0
  0
SCALE
  5
4E
102
{ACAD_REACTORS
330
47
102
}
330
47
100
AcDbScale
 70
     0
300
1:16
140
1.0
141
16.0
290
     0
  0
SCALE
  5
4F
102
{ACAD_REACTORS
330
47
102
}
330
47
100
AcDbScale
 70
     0
300
1:20
140
1.0
141
20.0
290
     0
  0
SCALE
  5
50
102
{ACAD_REACTORS
330
47
102
}
330
47
100
AcDbScale
 70
     0
300
1:30
140
1.0
141
30.0
290
     0
  0
SCALE
  5
51
102
{ACAD_REACTORS
330
47
102
}
330
47
100
AcDbScale
 70
     0
300
1:40
140
1.0
141
40.0
290
     0
  0
SCALE
  5
52
102
{ACAD_REACTORS
330
47
102
}
330
47
100
AcDbScale
 70
     0
300
1:50
140
1.0
141
50.0
290
     0
  0
SCALE
  5
53
102
{ACAD_REACTORS
330
47
102
}
330
47
100
AcDbScale
 70
     0
300
1:100
140
1.0
141
100.0
290
     0
  0
SCALE
  5
54
102
{ACAD_REACTORS
330
47
102
}
330
47
100
AcDbScale
 70
     0
300
2:1
140
2.0
141
1.0
290
     0
  0
SCALE
  5
55
102
{ACAD_REACTORS
330
47
102
}
330
47
100
AcDbScale
 70
     0
300
4:1
140
4.0
141
1.0
290
     0
  0
SCALE
  5
56
102
{ACAD_REACTORS
330
47
102
}
330
47
100
AcDbScale
 70
     0
300
8:1
140
8.0
141
1.0
290
     0
  0
SCALE
  5
57
102
{ACAD_REACTORS
330
47
102
}
330
47
100
AcDbScale
 70
     0
300
10:1
140
10.0
141
1.0
290
     0
  0
SCALE
  5
58
102
{ACAD_REACTORS
330
47
102
}
330
47
100
AcDbScale
 70
     0
300
100:1
140
100.0
141
1.0
290
     0
  0
SCALE
  5
59
102
{ACAD_REACTORS
330
47
102
}
330
47
100
AcDbScale
 70
     0
300
1/128" = 1'-0"
140
0.0078125
141
12.0
290
     0
  0
SCALE
  5
5A
102
{ACAD_REACTORS
330
47
102
}
330
47
100
AcDbScale
 70
     0
300
1/64" = 1'-0"
140
0.015625
141
12.0
290
     0
  0
SCALE
  5
5B
102
{ACAD_REACTORS
330
47
102
}
330
47
100
AcDbScale
 70
     0
300
1/32" = 1'-0"
140
0.03125
141
12.0
290
     0
  0
SCALE
  5
5C
102
{ACAD_REACTORS
330
47
102
}
330
47
100
AcDbScale
 70
     0
300
1/16" = 1'-0"
140
0.0625
141
12.0
290
     0
  0
SCALE
  5
5D
102
{ACAD_REACTORS
330
47
102
}
330
47
100
AcDbScale
 70
     0
300
3/32" = 1'-0"
140
0.09375
141
12.0
290
     0
  0
SCALE
  5
5E
102
{ACAD_REACTORS
330
47
102
}
330
47
100
AcDbScale
 70
     0
300
1/8" = 1'-0"
140
0.125
141
12.0
290
     0
  0
SCALE
  5
5F
102
{ACAD_REACTORS
330
47
102
}
330
47
100
AcDbScale
 70
     0
300
3/16" = 1'-0"
140
0.1875
141
12.0
290
     0
  0
SCALE
  5
60
102
{ACAD_REACTORS
330
47
102
}
330
47
100
AcDbScale
 70
     0
300
1/4" = 1'-0"
140
0.25
141
12.0
290
     0
  0
SCALE
  5
61
102
{ACAD_REACTORS
330
47
102
}
330
47
100
AcDbScale
 70
     0
300
3/8" = 1'-0"
140
0.375
141
12.0
290
     0
  0
SCALE
  5
62
102
{ACAD_REACTORS
330
47
102
}
330
47
100
AcDbScale
 70
     0
300
1/2" = 1'-0"
140
0.5
141
12.0
290
     0
  0
SCALE
  5
63
102
{ACAD_REACTORS
330
47
102
}
330
47
100
AcDbScale
 70
     0
300
3/4" = 1'-0"
140
0.75
141
12.0
290
     0
  0
SCALE
  5
64
102
{ACAD_REACTORS
330
47
102
}
330
47
100
AcDbScale
 70
     0
300
1" = 1'-0"
140
1.0
141
12.0
290
     0
  0
SCALE
  5
65
102
{ACAD_REACTORS
330
47
102
}
330
47
100
AcDbScale
 70
     0
300
1-1/2" = 1'-0"
140
1.5
141
12.0
290
     0
  0
SCALE
  5
66
102
{ACAD_REACTORS
330
47
102
}
330
47
100
AcDbScale
 70
     0
300
3" = 1'-0"
140
3.0
141
12.0
290
     0
  0
SCALE
  5
67
102
{ACAD_REACTORS
330
47
102
}
330
47
100
AcDbScale
 70
     0
300
6" = 1'-0"
140
6.0
141
12.0
290
     0
  0
SCALE
  5
68
102
{ACAD_REACTORS
330
47
102
}
330
47
100
AcDbScale
 70
     0
300
1'-0" = 1'-0"
140
12.0
141
12.0
290
     0
  0
ENDSEC
  0
EOF
