  0
SECTION
  2
HEADER
  9
$ACADVER
  1
AC1015
  9
$ACADMAINTVER
 70
     6
  9
$DWGCODEPAGE
  3
ANSI_949
  9
$INSBASE
 10
0.0
 20
0.0
 30
0.0
  9
$EXTMIN
 10
-71.87777974196034
 20
-49.97180738881175
 30
0.0
  9
$EXTMAX
 10
98.0544040733853
 20
55.93167432272148
 30
0.0
  9
$LIMMIN
 10
0.0
 20
0.0
  9
$LIMMAX
 10
420.0
 20
297.0
  9
$ORTHOMODE
 70
     1
  9
$REGENMODE
 70
     1
  9
$FILLMODE
 70
     1
  9
$QTEXTMODE
 70
     0
  9
$MIRRTEXT
 70
     1
  9
$LTSCALE
 40
1.0
  9
$ATTMODE
 70
     1
  9
$TEXTSIZE
 40
3.5
  9
$TRACEWID
 40
1.0
  9
$TEXTSTYLE
  7
Standard
  9
$CLAYER
  8
0
  9
$CELTYPE
  6
ByLayer
  9
$CECOLOR
 62
   256
  9
$CELTSCALE
 40
1.0
  9
$DISPSILH
 70
     0
  9
$DIMSCALE
 40
1.0
  9
$DIMASZ
 40
3.302
  9
$DIMEXO
 40
1.0
  9
$DIMDLI
 40
3.75
  9
$DIMRND
 40
0.0
  9
$DIMDLE
 40
0.0
  9
$DIMEXE
 40
1.0
  9
$DIMTP
 40
0.0
  9
$DIMTM
 40
0.0
  9
$DIMTXT
 40
3.5
  9
$DIMCEN
 40
2.5
  9
$DIMTSZ
 40
0.0
  9
$DIMTOL
 70
     0
  9
$DIMLIM
 70
     0
  9
$DIMTIH
 70
     1
  9
$DIMTOH
 70
     1
  9
$DIMSE1
 70
     0
  9
$DIMSE2
 70
     0
  9
$DIMTAD
 70
     1
  9
$DIMZIN
 70
     0
  9
$DIMBLK
  1

  9
$DIMASO
 70
     1
  9
$DIMSHO
 70
     1
  9
$DIMPOST
  1

  9
$DIMAPOST
  1

  9
$DIMALT
 70
     0
  9
$DIMALTD
 70
     3
  9
$DIMALTF
 40
0.0393700787401575
  9
$DIMLFAC
 40
1.0
  9
$DIMTOFL
 70
     1
  9
$DIMTVP
 40
0.0
  9
$DIMTIX
 70
     0
  9
$DIMSOXD
 70
     0
  9
$DIMSAH
 70
     0
  9
$DIMBLK1
  1

  9
$DIMBLK2
  1

  9
$DIMSTYLE
  2
ISO-25
  9
$DIMCLRD
 70
     0
  9
$DIMCLRE
 70
     0
  9
$DIMCLRT
 70
     0
  9
$DIMTFAC
 40
1.0
  9
$DIMGAP
 40
1.524
  9
$DIMJUST
 70
     0
  9
$DIMSD1
 70
     0
  9
$DIMSD2
 70
     0
  9
$DIMTOLJ
 70
     0
  9
$DIMTZIN
 70
     0
  9
$DIMALTZ
 70
     0
  9
$DIMALTTZ
 70
     0
  9
$DIMUPT
 70
     0
  9
$DIMDEC
 70
     2
  9
$DIMTDEC
 70
     2
  9
$DIMALTU
 70
     2
  9
$DIMALTTD
 70
     3
  9
$DIMTXSTY
  7
Standard
  9
$DIMAUNIT
 70
     0
  9
$DIMADEC
 70
     2
  9
$DIMALTRND
 40
0.0
  9
$DIMAZIN
 70
     0
  9
$DIMDSEP
 70
    44
  9
$DIMATFIT
 70
     3
  9
$DIMFRAC
 70
     0
  9
$DIMLDRBLK
  1

  9
$DIMLUNIT
 70
     2
  9
$DIMLWD
 70
    -2
  9
$DIMLWE
 70
    -2
  9
$DIMTMOVE
 70
     0
  9
$LUNITS
 70
     2
  9
$LUPREC
 70
     2
  9
$SKETCHINC
 40
1.0
  9
$FILLETRAD
 40
10.0
  9
$AUNITS
 70
     0
  9
$AUPREC
 70
     2
  9
$MENU
  1
.
  9
$ELEVATION
 40
0.0
  9
$PELEVATION
 40
0.0
  9
$THICKNESS
 40
0.0
  9
$LIMCHECK
 70
     0
  9
$CHAMFERA
 40
0.0
  9
$CHAMFERB
 40
0.0
  9
$CHAMFERC
 40
0.0
  9
$CHAMFERD
 40
0.0
  9
$SKPOLY
 70
     0
  9
$TDCREATE
 40
2458298.891667477
  9
$TDUCREATE
 40
2458298.516667477
  9
$TDUPDATE
 40
2459697.473878102
  9
$TDUUPDATE
 40
2459697.098878102
  9
$TDINDWG
 40
0.0193342361
  9
$TDUSRTIMER
 40
0.0176381944
  9
$USRTIMER
 70
     1
  9
$ANGBASE
 50
0.0
  9
$ANGDIR
 70
     0
  9
$PDMODE
 70
     0
  9
$PDSIZE
 40
-1.0
  9
$PLINEWID
 40
0.0
  9
$SPLFRAME
 70
     0
  9
$SPLINETYPE
 70
     6
  9
$SPLINESEGS
 70
     8
  9
$HANDSEED
  5
18A
  9
$SURFTAB1
 70
     6
  9
$SURFTAB2
 70
     6
  9
$SURFTYPE
 70
     6
  9
$SURFU
 70
     6
  9
$SURFV
 70
     6
  9
$UCSBASE
  2

  9
$UCSNAME
  2

  9
$UCSORG
 10
0.0
 20
0.0
 30
0.0
  9
$UCSXDIR
 10
1.0
 20
0.0
 30
0.0
  9
$UCSYDIR
 10
0.0
 20
1.0
 30
0.0
  9
$UCSORTHOREF
  2

  9
$UCSORTHOVIEW
 70
     0
  9
$UCSORGTOP
 10
0.0
 20
0.0
 30
0.0
  9
$UCSORGBOTTOM
 10
0.0
 20
0.0
 30
0.0
  9
$UCSORGLEFT
 10
0.0
 20
0.0
 30
0.0
  9
$UCSORGRIGHT
 10
0.0
 20
0.0
 30
0.0
  9
$UCSORGFRONT
 10
0.0
 20
0.0
 30
0.0
  9
$UCSORGBACK
 10
0.0
 20
0.0
 30
0.0
  9
$PUCSBASE
  2

  9
$PUCSNAME
  2

  9
$PUCSORG
 10
0.0
 20
0.0
 30
0.0
  9
$PUCSXDIR
 10
1.0
 20
0.0
 30
0.0
  9
$PUCSYDIR
 10
0.0
 20
1.0
 30
0.0
  9
$PUCSORTHOREF
  2

  9
$PUCSORTHOVIEW
 70
     0
  9
$PUCSORGTOP
 10
0.0
 20
0.0
 30
0.0
  9
$PUCSORGBOTTOM
 10
0.0
 20
0.0
 30
0.0
  9
$PUCSORGLEFT
 10
0.0
 20
0.0
 30
0.0
  9
$PUCSORGRIGHT
 10
0.0
 20
0.0
 30
0.0
  9
$PUCSORGFRONT
 10
0.0
 20
0.0
 30
0.0
  9
$PUCSORGBACK
 10
0.0
 20
0.0
 30
0.0
  9
$USERI1
 70
     0
  9
$USERI2
 70
     0
  9
$USERI3
 70
     0
  9
$USERI4
 70
     0
  9
$USERI5
 70
     0
  9
$USERR1
 40
0.0
  9
$USERR2
 40
0.0
  9
$USERR3
 40
0.0
  9
$USERR4
 40
0.0
  9
$USERR5
 40
0.0
  9
$WORLDVIEW
 70
     1
  9
$SHADEDGE
 70
     3
  9
$SHADEDIF
 70
    70
  9
$TILEMODE
 70
     1
  9
$MAXACTVP
 70
    64
  9
$PINSBASE
 10
0.0
 20
0.0
 30
0.0
  9
$PLIMCHECK
 70
     0
  9
$PEXTMIN
 10
1.000000000000000E+20
 20
1.000000000000000E+20
 30
1.000000000000000E+20
  9
$PEXTMAX
 10
-1.000000000000000E+20
 20
-1.000000000000000E+20
 30
-1.000000000000000E+20
  9
$PLIMMIN
 10
0.0
 20
0.0
  9
$PLIMMAX
 10
0.0
 20
0.0
  9
$UNITMODE
 70
     0
  9
$VISRETAIN
 70
     1
  9
$PLINEGEN
 70
     0
  9
$PSLTSCALE
 70
     1
  9
$TREEDEPTH
 70
  3020
  9
$CMLSTYLE
  2
Standard
  9
$CMLJUST
 70
     0
  9
$CMLSCALE
 40
20.0
  9
$PROXYGRAPHICS
 70
     1
  9
$MEASUREMENT
 70
     1
  9
$CELWEIGHT
370
    -1
  9
$ENDCAPS
280
     0
  9
$JOINSTYLE
280
     0
  9
$LWDISPLAY
290
     1
  9
$INSUNITS
 70
     4
  9
$HYPERLINKBASE
  1

  9
$STYLESHEET
  1

  9
$XEDIT
290
     1
  9
$CEPSNTYPE
380
     0
  9
$PSTYLEMODE
290
     1
  9
$FINGERPRINTGUID
  2
{2D6A24E7-A66E-487F-BBC4-0ED31C7621E6}
  9
$VERSIONGUID
  2
{FAEB1C32-E019-11D5-929B-00C0DF256EC4}
  9
$EXTNAMES
290
     1
  9
$PSVPSCALE
 40
0.0
  9
$OLESTARTUP
290
     0
  0
ENDSEC
  0
SECTION
  2
CLASSES
  0
CLASS
  1
ACDBDICTIONARYWDFLT
  2
AcDbDictionaryWithDefault
  3
ObjectDBX Classes
 90
        0
280
     0
281
     0
  0
CLASS
  1
VISUALSTYLE
  2
AcDbVisualStyle
  3
ObjectDBX Classes
 90
     4095
280
     0
281
     0
  0
CLASS
  1
MATERIAL
  2
AcDbMaterial
  3
ObjectDBX Classes
 90
     1153
280
     0
281
     0
  0
CLASS
  1
SCALE
  2
AcDbScale
  3
ObjectDBX Classes
 90
     1153
280
     0
281
     0
  0
CLASS
  1
SUN
  2
AcDbSun
  3
SCENEOE
 90
     1153
280
     0
281
     0
  0
CLASS
  1
ACDBPLACEHOLDER
  2
AcDbPlaceHolder
  3
ObjectDBX Classes
 90
        0
280
     0
281
     0
  0
CLASS
  1
LAYOUT
  2
AcDbLayout
  3
ObjectDBX Classes
 90
        0
280
     0
281
     0
  0
CLASS
  1
TABLESTYLE
  2
AcDbTableStyle
  3
ObjectDBX Classes
 90
     4095
280
     0
281
     0
  0
CLASS
  1
MLEADERSTYLE
  2
AcDbMLeaderStyle
  3
ACDB_MLEADERSTYLE_CLASS
 90
     4095
280
     0
281
     0
  0
CLASS
  1
RASTERVARIABLES
  2
AcDbRasterVariables
  3
ISM
 90
        0
280
     0
281
     0
  0
ENDSEC
  0
SECTION
  2
TABLES
  0
TABLE
  2
VPORT
  5
8
330
0
100
AcDbSymbolTable
 70
     1
  0
VPORT
  5
29
330
8
100
AcDbSymbolTableRecord
100
AcDbViewportTableRecord
  2
*Active
 70
     0
 10
0.0
 20
0.0
 11
1.0
 21
1.0
 12
13.08831216571248
 22
2.979933466954868
 13
0.0
 23
0.0
 14
10.0
 24
10.0
 15
10.0
 25
10.0
 16
0.0
 26
0.0
 36
1.0
 17
0.0
 27
0.0
 37
0.0
 40
108.0215513457639
 41
2.008253094910592
 42
50.0
 43
0.0
 44
0.0
 50
0.0
 51
0.0
 71
    16
 72
  2000
 73
     1
 74
     3
 75
     0
 76
     0
 77
     0
 78
     0
281
     0
 65
     1
110
0.0
120
0.0
130
0.0
111
1.0
121
0.0
131
0.0
112
0.0
122
1.0
132
0.0
 79
     0
146
0.0
  0
ENDTAB
  0
TABLE
  2
LTYPE
  5
5
330
0
100
AcDbSymbolTable
 70
     6
  0
LTYPE
  5
14
330
5
100
AcDbSymbolTableRecord
100
AcDbLinetypeTableRecord
  2
ByBlock
 70
     0
  3

 72
    65
 73
     0
 40
0.0
  0
LTYPE
  5
15
330
5
100
AcDbSymbolTableRecord
100
AcDbLinetypeTableRecord
  2
ByLayer
 70
     0
  3

 72
    65
 73
     0
 40
0.0
  0
LTYPE
  5
16
330
5
100
AcDbSymbolTableRecord
100
AcDbLinetypeTableRecord
  2
Continuous
 70
     0
  3
Solid line
 72
    65
 73
     0
 40
0.0
  0
LTYPE
  5
6A
330
5
100
AcDbSymbolTableRecord
100
AcDbLinetypeTableRecord
  2
HIDDEN
 70
     0
  3
Hidden __ __ __ __ __ __ __ __ __ __ __ __ __ __
 72
    65
 73
     2
 40
1.905
 49
1.27
 74
     0
 49
-0.635
 74
     0
  0
LTYPE
  5
6B
330
5
100
AcDbSymbolTableRecord
100
AcDbLinetypeTableRecord
  2
PHANTOM
 70
     0
  3
Phantom ______  __  __  ______  __  __  ______
 72
    65
 73
     6
 40
12.7
 49
6.35
 74
     0
 49
-1.27
 74
     0
 49
1.27
 74
     0
 49
-1.27
 74
     0
 49
1.27
 74
     0
 49
-1.27
 74
     0
  0
LTYPE
  5
6C
330
5
100
AcDbSymbolTableRecord
100
AcDbLinetypeTableRecord
  2
CENTER
 70
     0
  3
Center ____ _ ____ _ ____ _ ____ _ ____ _ ____
 72
    65
 73
     4
 40
10.16
 49
6.35
 74
     0
 49
-1.27
 74
     0
 49
1.27
 74
     0
 49
-1.27
 74
     0
  0
LTYPE
  5
6D
330
5
100
AcDbSymbolTableRecord
100
AcDbLinetypeTableRecord
  2
CENTERX2
 70
     0
  3
Center (2x) ________  __  ________  __  _____
 72
    65
 73
     4
 40
20.32
 49
12.7
 74
     0
 49
-2.54
 74
     0
 49
2.54
 74
     0
 49
-2.54
 74
     0
  0
LTYPE
  5
6E
330
5
100
AcDbSymbolTableRecord
100
AcDbLinetypeTableRecord
  2
DOT2
 70
     0
  3
Dot (.5x) ........................................
 72
    65
 73
     2
 40
0.635
 49
0.0
 74
     0
 49
-0.635
 74
     0
  0
ENDTAB
  0
TABLE
  2
LAYER
  5
2
330
0
100
AcDbSymbolTable
 70
    18
  0
LAYER
  5
10
330
2
100
AcDbSymbolTableRecord
100
AcDbLayerTableRecord
  2
0
 70
     0
 62
     7
  6
Continuous
370
    -3
390
F
  0
LAYER
  5
6F
330
2
100
AcDbSymbolTableRecord
100
AcDbLayerTableRecord
  2
FORMAT
 70
     0
 62
     2
  6
Continuous
370
    -3
390
F
  0
LAYER
  5
70
330
2
100
AcDbSymbolTableRecord
100
AcDbLayerTableRecord
  2
외형선
 70
     0
 62
     4
  6
Continuous
370
    30
390
F
  0
LAYER
  5
71
330
2
100
AcDbSymbolTableRecord
100
AcDbLayerTableRecord
  2
숨은선
 70
     0
 62
     2
  6
HIDDEN
370
    15
390
F
  0
LAYER
  5
72
330
2
100
AcDbSymbolTableRecord
100
AcDbLayerTableRecord
  2
중심선
 70
     0
 62
     1
  6
CENTERX2
370
    -3
390
F
  0
LAYER
  5
73
330
2
100
AcDbSymbolTableRecord
100
AcDbLayerTableRecord
  2
파단선
 70
     0
 62
     4
  6
Continuous
370
    -3
390
F
  0
LAYER
  5
74
330
2
100
AcDbSymbolTableRecord
100
AcDbLayerTableRecord
  2
해칭선
 70
     0
 62
   100
  6
Continuous
370
    -3
390
F
  0
LAYER
  5
75
330
2
100
AcDbSymbolTableRecord
100
AcDbLayerTableRecord
  2
가는실선
 70
     0
 62
     4
  6
Continuous
370
    -3
390
F
  0
LAYER
  5
76
330
2
100
AcDbSymbolTableRecord
100
AcDbLayerTableRecord
  2
치수_보조선
 70
     0
 62
     4
  6
Continuous
370
    -3
390
F
  0
LAYER
  5
77
330
2
100
AcDbSymbolTableRecord
100
AcDbLayerTableRecord
  2
치수문자_일반주서
 70
     0
 62
     7
  6
Continuous
370
    15
390
F
  0
LAYER
  5
78
330
2
100
AcDbSymbolTableRecord
100
AcDbLayerTableRecord
  2
개별주서
 70
     0
 62
   100
  6
Continuous
370
    30
390
F
  0
LAYER
  5
79
330
2
100
AcDbSymbolTableRecord
100
AcDbLayerTableRecord
  2
중간선
 70
     0
 62
     2
  6
Continuous
370
    15
390
F
  0
LAYER
  5
7A
330
2
100
AcDbSymbolTableRecord
100
AcDbLayerTableRecord
  2
윤곽선
 70
     0
 62
     3
  6
Continuous
370
    40
390
F
  0
LAYER
  5
7B
330
2
100
AcDbSymbolTableRecord
100
AcDbLayerTableRecord
  2
중심마크
 70
     0
 62
   100
  6
Continuous
370
    30
390
F
  0
LAYER
  5
7C
330
2
100
AcDbSymbolTableRecord
100
AcDbLayerTableRecord
  2
가상선
 70
     0
 62
     4
  6
PHANTOM
370
    -3
390
F
  0
LAYER
  5
7D
330
2
100
AcDbSymbolTableRecord
100
AcDbLayerTableRecord
  2
특수지정선
 70
     0
 62
     5
  6
CENTERX2
370
    60
390
F
  0
LAYER
  5
7E
330
2
100
AcDbSymbolTableRecord
100
AcDbLayerTableRecord
  2
참조1
 70
     0
 62
    -4
  6
Continuous
370
    -3
390
F
  0
LAYER
  5
15B
330
2
100
AcDbSymbolTableRecord
100
AcDbLayerTableRecord
  2
Defpoints
 70
     0
 62
     7
  6
Continuous
290
     0
370
    -3
390
F
  0
ENDTAB
  0
TABLE
  2
STYLE
  5
3
330
0
100
AcDbSymbolTable
 70
     2
  0
STYLE
  5
11
330
3
100
AcDbSymbolTableRecord
100
AcDbTextStyleTableRecord
  2
Standard
 70
     0
 40
0.0
 41
1.0
 50
0.0
 71
     0
 42
3.5
  3
txt
  4

  0
STYLE
  5
94
330
3
100
AcDbSymbolTableRecord
100
AcDbTextStyleTableRecord
  2
SLDTEXTSTYLE0
 70
     0
 40
0.0
 41
0.75
 50
0.0
 71
     0
 42
3.5
  3
TXT
  4

  0
ENDTAB
  0
TABLE
  2
VIEW
  5
6
330
0
100
AcDbSymbolTable
 70
     0
  0
ENDTAB
  0
TABLE
  2
UCS
  5
7
330
0
100
AcDbSymbolTable
 70
     0
  0
ENDTAB
  0
TABLE
  2
APPID
  5
9
330
0
100
AcDbSymbolTable
 70
     1
  0
APPID
  5
12
330
9
100
AcDbSymbolTableRecord
100
AcDbRegAppTableRecord
  2
ACAD
 70
     0
  0
ENDTAB
  0
TABLE
  2
DIMSTYLE
  5
A
330
0
100
AcDbSymbolTable
 70
     5
100
AcDbDimStyleTable
  0
DIMSTYLE
105
27
330
A
100
AcDbSymbolTableRecord
100
AcDbDimStyleTableRecord
  2
ISO-25
 70
     0
 41
2.5
 42
0.625
 43
3.75
 44
1.25
 73
     0
 74
     0
 77
     1
 78
     8
140
2.5
141
2.5
143
0.03937007874016
147
0.625
171
     3
172
     1
178
     0
271
     2
272
     2
274
     3
278
    44
283
     0
284
     8
340
11
  0
DIMSTYLE
105
CB
102
{ACAD_REACTORS
330
CA
330
DF
330
106
102
}
330
A
100
AcDbSymbolTableRecord
100
AcDbDimStyleTableRecord
  2
SLDDIMSTYLE0
 70
     0
 41
3.302
 44
0.0
 45
0.000000001
 73
     0
 74
     0
 77
     1
 78
     4
 79
     1
140
3.5
143
0.0393700787401575
147
0.875
148
0.000000001
170
     1
173
     1
178
     0
271
     2
272
     2
276
     2
284
    12
340
94
  0
DIMSTYLE
105
F3
102
{ACAD_REACTORS
330
F2
102
}
330
A
100
AcDbSymbolTableRecord
100
AcDbDimStyleTableRecord
  2
SLDDIMSTYLE1
 70
     0
 41
3.302
 44
0.0
 45
0.000000001
 73
     0
 74
     0
 77
     1
 78
    12
 79
     3
140
3.5
143
0.0393700787401575
147
0.875
148
0.000000001
170
     1
173
     1
178
     0
271
     2
272
     2
276
     2
284
    12
340
94
  0
DIMSTYLE
105
107
330
A
100
AcDbSymbolTableRecord
100
AcDbDimStyleTableRecord
  2
SLDDIMSTYLE2
 70
     0
 41
3.302
 44
0.0
 45
0.000000001
 73
     0
 74
     0
 77
     1
 78
    12
 79
     3
140
3.5
147
0.875
172
     1
173
     1
178
     0
271
     2
272
     2
276
     2
284
    12
289
     0
340
94
  0
DIMSTYLE
105
115
102
{ACAD_REACTORS
330
114
102
}
330
A
100
AcDbSymbolTableRecord
100
AcDbDimStyleTableRecord
  2
SLDDIMSTYLE3
 70
     0
 41
3.302
 44
0.0
 45
0.000000001
 73
     0
 74
     0
 77
     1
 78
    12
 79
     3
140
3.5
143
0.0393700787401575
147
0.875
148
0.000000001
170
     1
172
     1
173
     1
178
     0
271
     2
272
     2
276
     2
284
    12
289
     0
340
94
  0
ENDTAB
  0
TABLE
  2
BLOCK_RECORD
  5
1
330
0
100
AcDbSymbolTable
 70
     8
  0
BLOCK_RECORD
  5
1F
102
{ACAD_XDICTIONARY
360
187
102
}
330
1
100
AcDbSymbolTableRecord
100
AcDbBlockTableRecord
  2
*Model_Space
340
22
  0
BLOCK_RECORD
  5
1B
330
1
100
AcDbSymbolTableRecord
100
AcDbBlockTableRecord
  2
*Paper_Space
340
1E
  0
BLOCK_RECORD
  5
23
330
1
100
AcDbSymbolTableRecord
100
AcDbBlockTableRecord
  2
*Paper_Space0
340
26
  0
BLOCK_RECORD
  5
7F
330
1
100
AcDbSymbolTableRecord
100
AcDbBlockTableRecord
  2
블럭10
340
0
102
{BLKREFS
331
C3
102
}
  0
BLOCK_RECORD
  5
CC
330
1
100
AcDbSymbolTableRecord
100
AcDbBlockTableRecord
  2
_D
340
0
  0
BLOCK_RECORD
  5
E0
330
1
100
AcDbSymbolTableRecord
100
AcDbBlockTableRecord
  2
_D_1
340
0
  0
BLOCK_RECORD
  5
F4
330
1
100
AcDbSymbolTableRecord
100
AcDbBlockTableRecord
  2
_D_2
340
0
  0
BLOCK_RECORD
  5
108
330
1
100
AcDbSymbolTableRecord
100
AcDbBlockTableRecord
  2
_D_3
340
0
  0
BLOCK_RECORD
  5
116
330
1
100
AcDbSymbolTableRecord
100
AcDbBlockTableRecord
  2
_D_4
340
0
  0
BLOCK_RECORD
  5
130
330
1
100
AcDbSymbolTableRecord
100
AcDbBlockTableRecord
  2
SW_DOWELSYMBOL_0
340
0
102
{BLKREFS
331
136
102
}
  0
ENDTAB
  0
ENDSEC
  0
SECTION
  2
BLOCKS
  0
BLOCK
  5
20
330
1F
100
AcDbEntity
  8
0
100
AcDbBlockBegin
  2
*Model_Space
 70
     0
 10
0.0
 20
0.0
 30
0.0
  3
*Model_Space
  1
*Model_Space
  0
ENDBLK
  5
21
330
1F
100
AcDbEntity
  8
0
100
AcDbBlockEnd
  0
BLOCK
  5
1C
330
1B
100
AcDbEntity
 67
     1
  8
0
100
AcDbBlockBegin
  2
*Paper_Space
 70
     0
 10
0.0
 20
0.0
 30
0.0
  3
*Paper_Space
  1
*Paper_Space
  0
ENDBLK
  5
1D
330
1B
100
AcDbEntity
 67
     1
  8
0
100
AcDbBlockEnd
  0
BLOCK
  5
24
330
23
100
AcDbEntity
  8
0
100
AcDbBlockBegin
  2
*Paper_Space0
 70
     0
 10
0.0
 20
0.0
 30
0.0
  3
*Paper_Space0
  1
*Paper_Space0
  0
ENDBLK
  5
25
330
23
100
AcDbEntity
  8
0
100
AcDbBlockEnd
  0
BLOCK
  5
80
330
7F
100
AcDbEntity
  8
0
100
AcDbBlockBegin
  2
블럭10
 70
     2
 10
0.0
 20
0.0
 30
0.0
  3
블럭10
  1
블럭10
  0
ELLIPSE
  5
82
330
7F
100
AcDbEntity
  8
중심선
100
AcDbEllipse
 10
20.54032771741204
 20
12.0471743016438
 30
0.0
 11
6.600054785286829
 21
-1.261213355974178E-13
 31
0.0
210
0.0
220
0.0
230
1.0
 40
0.636358354079598
 41
0.9219305317359503
 42
6.513795318482858
  0
ELLIPSE
  5
83
330
7F
100
AcDbEntity
  8
중심선
100
AcDbEllipse
 10
20.54032771746488
 20
12.04717430159265
 30
0.0
 11
3.960054785062283
 21
1.540847449632565E-10
 31
0.0
210
0.0
220
0.0
230
1.0
 40
0.3939339440162632
 41
1.131841032648279
 42
5.62031148352944
  0
LINE
  5
84
330
7F
100
AcDbEntity
  8
중심선
100
AcDbLine
 10
2.268634060543552
 20
16.24717430164393
 30
0.0
 11
5.714909304380834
 21
16.24717430164393
 31
0.0
  0
LINE
  5
85
330
7F
100
AcDbEntity
  8
중심선
100
AcDbLine
 10
5.245725140726316
 20
7.84717430164391
 30
0.0
 11
8.692000384563599
 21
7.84717430164391
 31
0.0
  0
LINE
  5
86
330
7F
100
AcDbEntity
  8
중심선
100
AcDbLine
 10
15.74043728645272
 20
16.24717430164393
 30
0.0
 11
8.692000384563599
 21
7.84717430164391
 31
0.0
  0
LINE
  5
87
330
7F
100
AcDbEntity
  8
중심선
100
AcDbLine
 10
0.1404042013395286
 20
13.71084872107135
 30
0.0
 11
3.58671253028996
 21
13.71088815037384
 31
0.0
  0
LINE
  5
88
330
7F
100
AcDbEntity
  8
중심선
100
AcDbLine
 10
2.750260043222114
 20
10.84717430164391
 30
0.0
 11
6.196535287059397
 21
10.84717430164391
 31
0.0
  0
LINE
  5
89
330
7F
100
AcDbEntity
  8
중심선
100
AcDbLine
 10
12.29416204261559
 20
16.24717430164393
 30
0.0
 11
5.245725140726316
 21
7.84717430164391
 31
0.0
  0
LINE
  5
8A
330
7F
100
AcDbEntity
  8
중심선
100
AcDbLine
 10
10.72767329541681
 20
16.24717430164393
 30
0.0
 11
6.196535287059397
 21
10.84717430164391
 31
0.0
  0
LINE
  5
8B
330
7F
100
AcDbEntity
  8
중심선
100
AcDbLine
 10
7.28139805157953
 20
16.24717430164393
 30
0.0
 11
2.750260043222114
 21
10.84717430164391
 31
0.0
  0
LINE
  5
8C
330
7F
100
AcDbEntity
  8
중심선
100
AcDbLine
 10
5.714909304380834
 20
16.24717430164393
 30
0.0
 11
3.58671253028996
 21
13.71088815037384
 31
0.0
  0
LINE
  5
8D
330
7F
100
AcDbEntity
  8
중심선
100
AcDbLine
 10
2.268634060543552
 20
16.24717430164393
 30
0.0
 11
0.1404042013395286
 21
13.71084872107135
 31
0.0
  0
LINE
  5
8E
330
7F
100
AcDbEntity
  8
중심선
100
AcDbLine
 10
7.28139805157953
 20
16.24717430164393
 30
0.0
 11
10.72767329541681
 21
16.24717430164393
 31
0.0
  0
LINE
  5
8F
330
7F
100
AcDbEntity
  8
중심선
100
AcDbLine
 10
12.29416204261559
 20
16.24717430164393
 30
0.0
 11
15.74043728645272
 21
16.24717430164393
 31
0.0
  0
LINE
  5
90
330
7F
100
AcDbEntity
  8
중심선
100
AcDbLine
 10
19.22036997980202
 20
11.08717430171403
 30
0.0
 11
23.66174974927406
 21
11.08717430171406
 31
0.0
  0
LINE
  5
91
330
7F
100
AcDbEntity
  8
중심선
100
AcDbLine
 10
19.22039502424796
 20
13.00717430171391
 30
0.0
 11
19.22036997980202
 21
11.08717430171403
 31
0.0
  0
LINE
  5
92
330
7F
100
AcDbEntity
  8
중심선
100
AcDbLine
 10
19.22039502424796
 20
13.00717430171391
 30
0.0
 11
26.96566020931264
 21
13.00717430171391
 31
0.0
  0
LINE
  5
93
330
7F
100
AcDbEntity
  8
중심선
100
AcDbLine
 10
22.22332737316547
 20
13.45928029700563
 30
0.0
 11
24.52862924686651
 21
15.39360700705356
 31
0.0
  0
ATTDEF
  5
95
330
7F
100
AcDbEntity
  8
FORMAT
 62
     2
100
AcDbText
 10
3.448148490846466
 20
2.075366912832191
 30
0.0
 40
4.233333333333333
  1
EM963016
 41
0.75
  7
SLDTEXTSTYLE0
 11
3.448148490846466
 21
-0.0412997538344756
 31
0.0
100
AcDbAttributeDefinition
  3

  2
AUTOATTR0
 70
     0
 74
     1
  0
ENDBLK
  5
81
330
7F
100
AcDbEntity
  8
0
100
AcDbBlockEnd
  0
BLOCK
  5
CD
330
CC
100
AcDbEntity
  8
0
100
AcDbBlockBegin
  2
_D
 70
     0
 10
0.0
 20
0.0
 30
0.0
  3
_D
  1
_D
  0
LINE
  5
CF
330
CC
100
AcDbEntity
  8
치수문자_일반주서
 62
     0
370
    -2
100
AcDbLine
 10
56.1222202580397
 20
2.186157301112658
 30
0.0
 11
56.1222202580397
 21
21.0006481257146
 31
0.0
  0
LINE
  5
D0
330
CC
100
AcDbEntity
  8
치수문자_일반주서
 62
     0
370
    -2
100
AcDbLine
 10
43.42222025803972
 20
2.048530042797482
 30
0.0
 11
43.42222025803972
 21
21.0006481257146
 31
0.0
  0
LINE
  5
D1
330
CC
100
AcDbEntity
  8
치수문자_일반주서
 62
     0
370
    -2
100
AcDbLine
 10
43.42222025803972
 20
21.0006481257146
 30
0.0
 11
16.05772025803972
 21
21.0006481257146
 31
0.0
  0
LINE
  5
D2
330
CC
100
AcDbEntity
  8
치수문자_일반주서
 62
     0
370
    -2
100
AcDbLine
 10
52.8202202580397
 20
21.0006481257146
 30
0.0
 11
46.72422025803971
 21
21.0006481257146
 31
0.0
  0
SOLID
  5
D3
330
CC
100
AcDbEntity
  8
치수문자_일반주서
 62
     0
100
AcDbTrace
 10
52.8202202580397
 20
20.45031479238126
 30
0.0
 11
52.8202202580397
 21
21.55098145904793
 31
0.0
 12
56.1222202580397
 22
21.0006481257146
 32
0.0
 13
56.1222202580397
 23
21.0006481257146
 33
0.0
  0
SOLID
  5
D4
330
CC
100
AcDbEntity
  8
치수문자_일반주서
 62
     0
100
AcDbTrace
 10
46.72422025803971
 20
21.55098145904793
 30
0.0
 11
46.72422025803971
 21
20.45031479238126
 31
0.0
 12
43.42222025803972
 22
21.0006481257146
 32
0.0
 13
43.42222025803972
 23
21.0006481257146
 33
0.0
  0
MTEXT
  5
D5
330
CC
100
AcDbEntity
  8
치수문자_일반주서
 62
     0
100
AcDbMText
 10
28.08897025803971
 20
25.3756481257146
 30
0.0
 40
3.5
 41
0.0
 71
     2
 72
     1
  1
\A1;12.70 [1/2]
  7
SLDTEXTSTYLE0
 73
     1
 44
1.0
  0
POINT
  5
D6
330
CC
100
AcDbEntity
  8
Defpoints
 62
     0
100
AcDbPoint
 10
56.1222202580397
 20
2.123657301112658
 30
0.0
  0
POINT
  5
D7
330
CC
100
AcDbEntity
  8
Defpoints
 62
     0
100
AcDbPoint
 10
43.42222025803972
 20
1.986030042797482
 30
0.0
  0
POINT
  5
D8
330
CC
100
AcDbEntity
  8
Defpoints
 62
     0
100
AcDbPoint
 10
43.42222025803972
 20
21.0006481257146
 30
0.0
  0
ENDBLK
  5
CE
330
CC
100
AcDbEntity
  8
0
100
AcDbBlockEnd
  0
BLOCK
  5
E1
330
E0
100
AcDbEntity
  8
0
100
AcDbBlockBegin
  2
_D_1
 70
     0
 10
0.0
 20
0.0
 30
0.0
  3
_D_1
  1
_D_1
  0
LINE
  5
E3
330
E0
100
AcDbEntity
  8
치수문자_일반주서
 62
     0
370
    -2
100
AcDbLine
 10
3.734720258039712
 20
4.193613461294957
 30
0.0
 11
3.734720258039715
 21
42.05275634755776
 31
0.0
  0
LINE
  5
E4
330
E0
100
AcDbEntity
  8
치수문자_일반주서
 62
     0
370
    -2
100
AcDbLine
 10
56.1222202580397
 20
2.186157301112658
 30
0.0
 11
56.1222202580397
 21
42.05275634755776
 31
0.0
  0
LINE
  5
E5
330
E0
100
AcDbEntity
  8
치수문자_일반주서
 62
     0
370
    -2
100
AcDbLine
 10
7.036720258039715
 20
42.05275634755776
 30
0.0
 11
52.8202202580397
 21
42.05275634755776
 31
0.0
  0
SOLID
  5
E6
330
E0
100
AcDbEntity
  8
치수문자_일반주서
 62
     0
100
AcDbTrace
 10
7.036720258039715
 20
42.6030896808911
 30
0.0
 11
7.036720258039715
 21
41.50242301422443
 31
0.0
 12
3.734720258039715
 22
42.05275634755776
 32
0.0
 13
3.734720258039715
 23
42.05275634755776
 33
0.0
  0
SOLID
  5
E7
330
E0
100
AcDbEntity
  8
치수문자_일반주서
 62
     0
100
AcDbTrace
 10
52.8202202580397
 20
41.50242301422443
 30
0.0
 11
52.8202202580397
 21
42.6030896808911
 31
0.0
 12
56.1222202580397
 22
42.05275634755776
 32
0.0
 13
56.1222202580397
 23
42.05275634755776
 33
0.0
  0
MTEXT
  5
E8
330
E0
100
AcDbEntity
  8
치수문자_일반주서
 62
     0
100
AcDbMText
 10
33.18513069102569
 20
46.42775634755776
 30
0.0
 40
3.5
 41
0.0
 71
     2
 72
     1
  1
\A1;52.39 [2 1/16]
  7
SLDTEXTSTYLE0
 73
     1
 44
1.0
  0
POINT
  5
E9
330
E0
100
AcDbEntity
  8
Defpoints
 62
     0
100
AcDbPoint
 10
3.734720258039712
 20
4.131113461294957
 30
0.0
  0
POINT
  5
EA
330
E0
100
AcDbEntity
  8
Defpoints
 62
     0
100
AcDbPoint
 10
56.1222202580397
 20
2.123657301112658
 30
0.0
  0
POINT
  5
EB
330
E0
100
AcDbEntity
  8
Defpoints
 62
     0
100
AcDbPoint
 10
56.1222202580397
 20
42.05275634755776
 30
0.0
  0
ENDBLK
  5
E2
330
E0
100
AcDbEntity
  8
0
100
AcDbBlockEnd
  0
BLOCK
  5
F5
330
F4
100
AcDbEntity
  8
0
100
AcDbBlockBegin
  2
_D_2
 70
     0
 10
0.0
 20
0.0
 30
0.0
  3
_D_2
  1
_D_2
  0
LINE
  5
F7
330
F4
100
AcDbEntity
  8
치수문자_일반주서
 62
     0
370
    -2
100
AcDbLine
 10
56.1222202580397
 20
2.186157301112658
 30
0.0
 11
56.1222202580397
 21
51.55667432272148
 31
0.0
  0
LINE
  5
F8
330
F4
100
AcDbEntity
  8
치수문자_일반주서
 62
     0
370
    -2
100
AcDbLine
 10
-55.0027797419603
 20
3.824999999999969
 30
0.0
 11
-55.0027797419603
 21
51.55667432272148
 31
0.0
  0
LINE
  5
F9
330
F4
100
AcDbEntity
  8
치수문자_일반주서
 62
     0
370
    -2
100
AcDbLine
 10
52.8202202580397
 20
51.55667432272148
 30
0.0
 11
-51.7007797419603
 21
51.55667432272148
 31
0.0
  0
SOLID
  5
FA
330
F4
100
AcDbEntity
  8
치수문자_일반주서
 62
     0
100
AcDbTrace
 10
52.8202202580397
 20
51.00634098938814
 30
0.0
 11
52.8202202580397
 21
52.10700765605481
 31
0.0
 12
56.1222202580397
 22
51.55667432272148
 32
0.0
 13
56.1222202580397
 23
51.55667432272148
 33
0.0
  0
SOLID
  5
FB
330
F4
100
AcDbEntity
  8
치수문자_일반주서
 62
     0
100
AcDbTrace
 10
-51.7007797419603
 20
52.10700765605481
 30
0.0
 11
-51.7007797419603
 21
51.00634098938814
 31
0.0
 12
-55.0027797419603
 22
51.55667432272148
 32
0.0
 13
-55.0027797419603
 23
51.55667432272148
 33
0.0
  0
MTEXT
  5
FC
330
F4
100
AcDbEntity
  8
치수문자_일반주서
 62
     0
100
AcDbMText
 10
0.5597202580396861
 20
55.93167432272148
 30
0.0
 40
3.5
 41
0.0
 71
     2
 72
     1
  1
\A1;111.13 [4 3/8]
  7
SLDTEXTSTYLE0
 73
     1
 44
1.0
  0
POINT
  5
FD
330
F4
100
AcDbEntity
  8
Defpoints
 62
     0
100
AcDbPoint
 10
56.1222202580397
 20
2.123657301112658
 30
0.0
  0
POINT
  5
FE
330
F4
100
AcDbEntity
  8
Defpoints
 62
     0
100
AcDbPoint
 10
-55.0027797419603
 20
3.762499999999969
 30
0.0
  0
POINT
  5
FF
330
F4
100
AcDbEntity
  8
Defpoints
 62
     0
100
AcDbPoint
 10
-55.0027797419603
 20
51.55667432272148
 30
0.0
  0
ENDBLK
  5
F6
330
F4
100
AcDbEntity
  8
0
100
AcDbBlockEnd
  0
BLOCK
  5
109
330
108
100
AcDbEntity
  8
0
100
AcDbBlockBegin
  2
_D_3
 70
     0
 10
0.0
 20
0.0
 30
0.0
  3
_D_3
  1
_D_3
  0
LINE
  5
10B
330
108
100
AcDbEntity
  8
치수문자_일반주서
 62
     0
370
    -2
100
AcDbLine
 10
-54.0652797419603
 20
4.76249999999998
 30
0.0
 11
-67.50277974196032
 21
4.762499999999929
 31
0.0
  0
LINE
  5
10C
330
108
100
AcDbEntity
  8
치수문자_일반주서
 62
     0
370
    -2
100
AcDbLine
 10
-54.0652797419603
 20
-4.762499999999998
 30
0.0
 11
-67.5027797419603
 21
-4.762500000000048
 31
0.0
  0
LINE
  5
10D
330
108
100
AcDbEntity
  8
치수문자_일반주서
 62
     0
370
    -2
100
AcDbLine
 10
-67.50277974196031
 20
1.46049999999993
 30
0.0
 11
-67.50277974196031
 21
-1.460500000000049
 31
0.0
  0
SOLID
  5
10E
330
108
100
AcDbEntity
  8
치수문자_일반주서
 62
     0
100
AcDbTrace
 10
-66.95244640862698
 20
1.460499999999931
 30
0.0
 11
-68.05311307529364
 21
1.460499999999928
 31
0.0
 12
-67.50277974196032
 22
4.762499999999929
 32
0.0
 13
-67.50277974196032
 23
4.762499999999929
 33
0.0
  0
SOLID
  5
10F
330
108
100
AcDbEntity
  8
치수문자_일반주서
 62
     0
100
AcDbTrace
 10
-68.05311307529364
 20
-1.46050000000005
 30
0.0
 11
-66.95244640862698
 21
-1.460500000000047
 31
0.0
 12
-67.5027797419603
 22
-4.762500000000048
 32
0.0
 13
-67.5027797419603
 23
-4.762500000000048
 33
0.0
  0
MTEXT
  5
110
330
108
100
AcDbEntity
  8
치수문자_일반주서
 62
     0
100
AcDbMText
 10
-71.87777974196031
 20
-0.0000000000000341
 30
0.0
 40
3.5
 41
0.0
 71
     2
 72
     1
  1
\A1;%%c9.53 [3/8]
  7
SLDTEXTSTYLE0
 11
-2.983906501879693E-15
 21
1.0
 31
0.0
 73
     1
 44
1.0
  0
POINT
  5
111
330
108
100
AcDbEntity
  8
Defpoints
 62
     0
100
AcDbPoint
 10
-54.0027797419603
 20
4.76249999999998
 30
0.0
  0
POINT
  5
112
330
108
100
AcDbEntity
  8
Defpoints
 62
     0
100
AcDbPoint
 10
-54.0027797419603
 20
-4.762499999999998
 30
0.0
  0
POINT
  5
113
330
108
100
AcDbEntity
  8
Defpoints
 62
     0
100
AcDbPoint
 10
-67.50277974196028
 20
-4.762500000000048
 30
0.0
  0
ENDBLK
  5
10A
330
108
100
AcDbEntity
  8
0
100
AcDbBlockEnd
  0
BLOCK
  5
117
330
116
100
AcDbEntity
  8
0
100
AcDbBlockBegin
  2
_D_4
 70
     0
 10
0.0
 20
0.0
 30
0.0
  3
_D_4
  1
_D_4
  0
LINE
  5
119
330
116
100
AcDbEntity
  8
치수문자_일반주서
 62
     0
370
    -2
100
AcDbLine
 10
43.4847202580397
 20
3.175000000000006
 30
0.0
 11
68.72798483581902
 21
3.175000000000097
 31
0.0
  0
LINE
  5
11A
330
116
100
AcDbEntity
  8
치수문자_일반주서
 62
     0
370
    -2
100
AcDbLine
 10
43.4847202580397
 20
-3.174999999999994
 30
0.0
 11
68.72798483581904
 21
-3.174999999999901
 31
0.0
  0
LINE
  5
11B
330
116
100
AcDbEntity
  8
치수문자_일반주서
 62
     0
370
    -2
100
AcDbLine
 10
68.72798483581902
 20
3.175000000000097
 30
0.0
 11
68.72798483581887
 21
35.9379299881054
 31
0.0
  0
LINE
  5
11C
330
116
100
AcDbEntity
  8
치수문자_일반주서
 62
     0
370
    -2
100
AcDbLine
 10
68.72798483581902
 20
3.175000000000097
 30
0.0
 11
68.72798483581904
 21
-3.174999999999901
 31
0.0
  0
LINE
  5
11D
330
116
100
AcDbEntity
  8
치수문자_일반주서
 62
     0
370
    -2
100
AcDbLine
 10
68.727984835819
 20
6.477000000000096
 30
0.0
 11
68.72798483581899
 21
9.779000000000096
 31
0.0
  0
LINE
  5
11E
330
116
100
AcDbEntity
  8
치수문자_일반주서
 62
     0
370
    -2
100
AcDbLine
 10
68.72798483581906
 20
-6.476999999999901
 30
0.0
 11
68.72798483581907
 21
-9.7789999999999
 31
0.0
  0
SOLID
  5
11F
330
116
100
AcDbEntity
  8
치수문자_일반주서
 62
     0
100
AcDbTrace
 10
68.17765150248567
 20
6.477000000000094
 30
0.0
 11
69.27831816915233
 21
6.477000000000099
 31
0.0
 12
68.72798483581902
 22
3.175000000000097
 32
0.0
 13
68.72798483581902
 23
3.175000000000097
 33
0.0
  0
SOLID
  5
120
330
116
100
AcDbEntity
  8
치수문자_일반주서
 62
     0
100
AcDbTrace
 10
69.27831816915239
 20
-6.476999999999898
 30
0.0
 11
68.17765150248573
 21
-6.476999999999904
 31
0.0
 12
68.72798483581904
 22
-3.174999999999901
 32
0.0
 13
68.72798483581904
 23
-3.174999999999901
 33
0.0
  0
MTEXT
  5
121
330
116
100
AcDbEntity
  8
치수문자_일반주서
 62
     0
100
AcDbMText
 10
64.35298483581893
 20
23.25042998810538
 30
0.0
 40
3.5
 41
0.0
 71
     2
 72
     1
  1
\A1;%%c6.35 [1/4]
  7
SLDTEXTSTYLE0
 11
-4.475859752819529E-15
 21
1.0
 31
0.0
 73
     1
 44
1.0
  0
POINT
  5
122
330
116
100
AcDbEntity
  8
Defpoints
 62
     0
100
AcDbPoint
 10
43.4222202580397
 20
3.175000000000005
 30
0.0
  0
POINT
  5
123
330
116
100
AcDbEntity
  8
Defpoints
 62
     0
100
AcDbPoint
 10
43.4222202580397
 20
-3.174999999999995
 30
0.0
  0
POINT
  5
124
330
116
100
AcDbEntity
  8
Defpoints
 62
     0
100
AcDbPoint
 10
68.72798483581904
 20
-3.1749999999999
 30
0.0
  0
ENDBLK
  5
118
330
116
100
AcDbEntity
  8
0
100
AcDbBlockEnd
  0
BLOCK
  5
131
330
130
100
AcDbEntity
  8
0
100
AcDbBlockBegin
  2
SW_DOWELSYMBOL_0
 70
     0
 10
0.0
 20
0.0
 30
0.0
  3
SW_DOWELSYMBOL_0
  1
SW_DOWELSYMBOL_0
  0
CIRCLE
  5
133
330
130
100
AcDbEntity
  8
해칭선
 62
     0
100
AcDbCircle
 10
0.0
 20
0.0
 30
0.0
 40
3.000000000000001
  0
HATCH
  5
134
330
130
100
AcDbEntity
  8
0
  6
Continuous
 62
     0
370
     0
100
AcDbHatch
 10
0.0
 20
0.0
 30
0.0
210
0.0
220
0.0
230
1.0
  2
SOLID
 70
     1
 71
     0
 91
        1
 92
        0
 93
        3
 72
     2
 10
0.0
 20
0.0
 40
3.000000000000001
 50
0.0
 51
90.0
 73
     1
 72
     1
 10
0.0
 20
3.000000000000001
 11
0.0
 21
0.0
 72
     1
 10
0.0
 20
0.0
 11
3.000000000000001
 21
0.0
 97
        0
 75
     0
 76
     1
 98
        1
 10
0.0
 20
0.0
  0
HATCH
  5
135
330
130
100
AcDbEntity
  8
0
  6
Continuous
 62
     0
370
     0
100
AcDbHatch
 10
0.0
 20
0.0
 30
0.0
210
0.0
220
0.0
230
1.0
  2
SOLID
 70
     1
 71
     0
 91
        1
 92
        0
 93
        3
 72
     2
 10
0.0
 20
0.0
 40
3.000000000000001
 50
180.0
 51
270.0000000000007
 73
     1
 72
     1
 10
0.0
 20
-3.000000000000001
 11
0.0
 21
0.0
 72
     1
 10
0.0
 20
0.0
 11
-3.000000000000001
 21
0.0
 97
        0
 75
     0
 76
     1
 98
        1
 10
0.0
 20
0.0
  0
ENDBLK
  5
132
330
130
100
AcDbEntity
  8
0
100
AcDbBlockEnd
  0
ENDSEC
  0
SECTION
  2
ENTITIES
  0
LINE
  5
98
330
1F
100
AcDbEntity
  8
외형선
  6
Continuous
370
    15
100
AcDbLine
 10
2.0
 20
4.762499999999999
 30
0.0
 11
-54.0027797419603
 21
4.762499999999992
 31
0.0
  0
LINE
  5
99
330
1F
100
AcDbEntity
  8
외형선
  6
Continuous
370
    15
100
AcDbLine
 10
-54.0027797419603
 20
-4.762500000000006
 30
0.0
 11
1.999999999999996
 21
-4.762499999999999
 31
0.0
  0
LINE
  5
9A
330
1F
100
AcDbEntity
  8
외형선
  6
Continuous
370
    15
100
AcDbLine
 10
-54.0027797419603
 20
4.762499999999991
 30
0.0
 11
-55.0027797419603
 21
3.762499999999993
 31
0.0
  0
LINE
  5
9B
330
1F
100
AcDbEntity
  8
외형선
  6
Continuous
370
    15
100
AcDbLine
 10
-55.0027797419603
 20
-3.762500000000007
 30
0.0
 11
-54.0027797419603
 21
-4.762500000000007
 31
0.0
  0
LINE
  5
9C
330
1F
100
AcDbEntity
  8
외형선
  6
Continuous
370
    15
100
AcDbLine
 10
43.4222202580397
 20
3.175000000000005
 30
0.0
 11
40.2472202580397
 21
3.175000000000005
 31
0.0
  0
LINE
  5
9D
330
1F
100
AcDbEntity
  8
외형선
  6
Continuous
370
    15
100
AcDbLine
 10
40.2472202580397
 20
-3.174999999999995
 30
0.0
 11
43.4222202580397
 21
-3.174999999999995
 31
0.0
  0
ARC
  5
9E
330
1F
100
AcDbEntity
  8
외형선
  6
Continuous
 62
     1
370
    15
100
AcDbCircle
 10
52.94722025803971
 20
0.0000000000000051
 30
0.0
 40
3.174999999999997
100
AcDbArc
 50
321.0142671109469
 51
0.0
  0
ARC
  5
9F
330
1F
100
AcDbEntity
  8
외형선
  6
Continuous
 62
     1
370
    15
100
AcDbCircle
 10
52.94722025803971
 20
0.0000000000000051
 30
0.0
 40
3.174999999999998
100
AcDbArc
 50
0.0
 51
38.9952768927531
  0
LINE
  5
A0
330
1F
100
AcDbEntity
  8
외형선
  6
Continuous
370
    15
100
AcDbLine
 10
43.50833899213957
 20
3.175000000000005
 30
0.0
 11
43.4222202580397
 21
3.175000000000005
 31
0.0
  0
LINE
  5
A1
330
1F
100
AcDbEntity
  8
외형선
  6
Continuous
370
    15
100
AcDbLine
 10
43.4222202580397
 20
-3.174999999999995
 30
0.0
 11
43.50833899213957
 21
-3.174999999999995
 31
0.0
  0
LINE
  5
A2
330
1F
100
AcDbEntity
  8
외형선
  6
Continuous
370
    15
100
AcDbLine
 10
40.2472202580397
 20
3.175000000000005
 30
0.0
 11
40.2472202580397
 21
-3.174999999999994
 31
0.0
  0
LINE
  5
A3
330
1F
100
AcDbEntity
  8
외형선
  6
Continuous
370
    15
100
AcDbLine
 10
2.0
 20
4.762499999999999
 30
0.0
 11
2.0
 21
-4.7625
 31
0.0
  0
LINE
  5
A4
330
1F
100
AcDbEntity
  8
외형선
  6
Continuous
370
    15
100
AcDbLine
 10
-54.0027797419603
 20
4.762499999999992
 30
0.0
 11
-54.0027797419603
 21
-4.762500000000006
 31
0.0
  0
LINE
  5
A5
330
1F
100
AcDbEntity
  8
외형선
  6
Continuous
370
    15
100
AcDbLine
 10
-55.0027797419603
 20
3.762499999999993
 30
0.0
 11
-55.0027797419603
 21
-3.762500000000008
 31
0.0
  0
LINE
  5
A6
330
1F
100
AcDbEntity
  8
외형선
  6
Continuous
370
    15
100
AcDbLine
 10
43.4222202580397
 20
3.175000000000005
 30
0.0
 11
43.4222202580397
 21
1.986030042797498
 31
0.0
  0
SPLINE
  5
A7
330
1F
100
AcDbEntity
  8
외형선
  6
Continuous
370
    15
100
AcDbSpline
210
0.0
220
0.0
230
1.0
 70
     8
 71
     3
 72
    10
 73
     6
 74
     0
 42
0.000000001
 43
0.00000001
 40
0.0
 40
0.0
 40
0.0
 40
0.0
 40
0.5
 40
0.5
 40
1.0
 40
1.0
 40
1.0
 40
1.0
 10
41.9021771139078
 20
2.586701522585302
 30
0.0
 10
42.1547820489361
 20
2.501962197934446
 30
0.0
 10
42.40998153229405
 20
2.40867480417322
 30
0.0
 10
42.91829013932605
 20
2.207572168444293
 30
0.0
 10
43.16910780115718
 20
2.100121873289293
 30
0.0
 10
43.4222202580397
 20
1.986030042797499
 30
0.0
  0
SPLINE
  5
A8
330
1F
100
AcDbEntity
  8
외형선
  6
Continuous
370
    15
100
AcDbSpline
210
0.0
220
0.0
230
1.0
 70
     8
 71
     3
 72
    10
 73
     6
 74
     0
 42
0.000000001
 43
0.00000001
 40
0.0
 40
0.0
 40
0.0
 40
0.0
 40
0.5
 40
0.5
 40
1.0
 40
1.0
 40
1.0
 40
1.0
 10
43.4222202580397
 20
-3.174607251136681
 30
0.0
 10
43.16905795756024
 20
-3.172306777143245
 30
0.0
 10
42.91819045455398
 20
-3.159941557992781
 30
0.0
 10
42.40978092426083
 20
-3.115051938176931
 30
0.0
 10
42.15453129435375
 20
-3.082514478657394
 30
0.0
 10
41.90187865318498
 20
-3.040409072820348
 30
0.0
  0
LINE
  5
A9
330
1F
100
AcDbEntity
  8
외형선
  6
Continuous
370
    15
100
AcDbLine
 10
43.4222202580397
 20
-3.174607251136679
 30
0.0
 11
43.4222202580397
 21
-3.174999999999995
 31
0.0
  0
LINE
  5
AA
330
1F
100
AcDbEntity
  8
외형선
  6
Continuous
370
    15
100
AcDbLine
 10
41.90187865318498
 20
-3.040443281607846
 30
0.0
 11
41.90187865318498
 21
2.586785222486767
 31
0.0
  0
SPLINE
  5
AB
330
1F
100
AcDbEntity
  8
외형선
  6
Continuous
370
    15
100
AcDbSpline
210
0.0
220
0.0
230
1.0
 70
     8
 71
     3
 72
    10
 73
     6
 74
     0
 42
0.000000001
 43
0.00000001
 40
0.0
 40
0.0
 40
0.0
 40
0.0
 40
0.5
 40
0.5
 40
1.0
 40
1.0
 40
1.0
 40
1.0
 10
43.42222025803972
 20
-0.6129325075880075
 30
0.0
 10
43.16905795756024
 20
-0.5528990512212282
 30
0.0
 10
42.91819045455398
 20
-0.4911015763669861
 30
0.0
 10
42.40978092426083
 20
-0.3642293525444958
 30
0.0
 10
42.15453129435375
 20
-0.2993361441196086
 30
0.0
 10
41.90187865318498
 20
-0.2339189566811541
 30
0.0
  0
SPLINE
  5
AC
330
1F
100
AcDbEntity
  8
외형선
  6
Continuous
370
    15
100
AcDbSpline
210
0.0
220
0.0
230
1.0
 70
    24
 71
     3
 72
    14
 73
    10
 74
     0
 42
0.000000001
 43
0.00000001
 40
0.0
 40
0.0
 40
0.0
 40
0.0
 40
0.25
 40
0.25
 40
0.5
 40
0.5
 40
0.75
 40
0.75
 40
1.0
 40
1.0
 40
1.0
 40
1.0
 10
43.42222025803972
 20
1.986030042786187
 30
0.0
 10
43.42222025803972
 20
1.840793577430138
 30
0.0
 10
43.42222025803972
 20
1.654644032614118
 30
0.0
 10
43.42222025803972
 20
1.231684505303772
 30
0.0
 10
43.4222202580397
 20
0.9955943596274137
 30
0.0
 10
43.4222202580397
 20
0.5150835122330147
 30
0.0
 10
43.4222202580397
 20
0.2711458253363666
 30
0.0
 10
43.42222025803972
 20
-0.1926579360641592
 30
0.0
 10
43.4222202580397
 20
-0.4125134558422059
 30
0.0
 10
43.42222025803972
 20
-0.6129325075880083
 30
0.0
  0
SPLINE
  5
AD
330
1F
100
AcDbEntity
  8
외형선
  6
Continuous
370
    15
100
AcDbSpline
210
0.0
220
0.0
230
1.0
 70
    24
 71
     3
 72
    14
 73
    10
 74
     0
 42
0.000000001
 43
0.00000001
 40
0.0
 40
0.0
 40
0.0
 40
0.0
 40
0.25
 40
0.25
 40
0.5
 40
0.5
 40
0.75
 40
0.75
 40
1.0
 40
1.0
 40
1.0
 40
1.0
 10
43.4222202580397
 20
-0.6129325075880067
 30
0.0
 10
43.4222202580397
 20
-0.7139600608602047
 30
0.0
 10
43.4222202580397
 20
-0.8439842957063726
 30
0.0
 10
43.4222202580397
 20
-1.170534667192321
 30
0.0
 10
43.4222202580397
 20
-1.367409172812979
 30
0.0
 10
43.4222202580397
 20
-1.820210163758617
 30
0.0
 10
43.4222202580397
 20
-2.076131655031622
 30
0.0
 10
43.4222202580397
 20
-2.61618389774724
 30
0.0
 10
43.4222202580397
 20
-2.899713498563364
 30
0.0
 10
43.4222202580397
 20
-3.174607251121805
 30
0.0
  0
SPLINE
  5
AE
330
1F
100
AcDbEntity
  8
외형선
  6
Continuous
 62
     1
370
    15
100
AcDbSpline
210
0.0
220
0.0
230
1.0
 70
     8
 71
     3
 72
    11
 73
     7
 74
     0
 42
0.000000001
 43
0.00000001
 40
0.0
 40
0.0
 40
0.0
 40
0.0
 40
0.1083068926326404
 40
0.4052347083880418
 40
0.7026432727351286
 40
0.9999999999999999
 40
0.9999999999999999
 40
0.9999999999999999
 40
0.9999999999999999
 10
49.69092435179269
 20
-1.417358495852191
 30
0.0
 10
49.46458652657071
 20
-1.424331193436796
 30
0.0
 10
48.61773421300543
 20
-1.4504198291985
 30
0.0
 10
47.14973981151665
 20
-1.310704071590707
 30
0.0
 10
45.28636633110017
 20
-1.03597358653479
 30
0.0
 10
44.04356617675921
 20
-0.7539380069171112
 30
0.0
 10
43.42222025803972
 20
-0.6129325075880075
 30
0.0
  0
SPLINE
  5
AF
330
1F
100
AcDbEntity
  8
외형선
  6
Continuous
370
    15
100
AcDbSpline
210
0.0
220
0.0
230
1.0
 70
    24
 71
     3
 72
    14
 73
    10
 74
     0
 42
0.000000001
 43
0.00000001
 40
0.0
 40
0.0
 40
0.0
 40
0.0
 40
0.25
 40
0.25
 40
0.5
 40
0.5
 40
0.75
 40
0.75
 40
1.0
 40
1.0
 40
1.0
 40
1.0
 10
43.4222202580397
 20
1.986030042786186
 30
0.0
 10
43.4222202580397
 20
1.840793577430137
 30
0.0
 10
43.42222025803972
 20
1.654644032614117
 30
0.0
 10
43.4222202580397
 20
1.231684505303772
 30
0.0
 10
43.4222202580397
 20
0.9955943596274135
 30
0.0
 10
43.4222202580397
 20
0.5150835122330145
 30
0.0
 10
43.4222202580397
 20
0.2711458253363664
 30
0.0
 10
43.42222025803972
 20
-0.1926579360641594
 30
0.0
 10
43.4222202580397
 20
-0.4125134558422059
 30
0.0
 10
43.42222025803972
 20
-0.6129325075880083
 30
0.0
  0
SPLINE
  5
B0
330
1F
100
AcDbEntity
  8
외형선
  6
Continuous
 62
     1
370
    15
100
AcDbSpline
210
0.0
220
0.0
230
1.0
 70
     8
 71
     3
 72
    28
 73
    24
 74
     0
 42
0.000000001
 43
0.00000001
 40
0.0
 40
0.0
 40
0.0
 40
0.0
 40
0.1249999999999999
 40
0.1249999999999999
 40
0.2499999999999998
 40
0.2499999999999998
 40
0.3124999999999996
 40
0.3124999999999996
 40
0.3749999999999993
 40
0.3749999999999993
 40
0.4999999999999991
 40
0.4999999999999991
 40
0.5624999999999991
 40
0.5624999999999991
 40
0.6249999999999991
 40
0.6249999999999991
 40
0.6874999999999991
 40
0.6874999999999991
 40
0.7499999999999991
 40
0.7499999999999991
 40
0.8749999999999996
 40
0.8749999999999996
 40
1.0
 40
1.0
 40
1.0
 40
1.0
 10
43.4222202580397
 20
1.986030042797499
 30
0.0
 10
43.81859842519981
 20
1.807360406323348
 30
0.0
 10
44.22013028860495
 20
1.61226462101347
 30
0.0
 10
45.00715023400691
 20
1.202712003273096
 30
0.0
 10
45.40898215654532
 20
0.9854526594777085
 30
0.0
 10
46.00329574597085
 20
0.6520674301589003
 30
0.0
 10
46.19946747440102
 20
0.5398167635627382
 30
0.0
 10
46.59663147465574
 20
0.3127375868279293
 30
0.0
 10
46.79628763200432
 20
0.1981587877253725
 30
0.0
 10
47.39322241984256
 20
-0.1456813579716191
 30
0.0
 10
47.78614917824019
 20
-0.37459434603898
 30
0.0
 10
48.38386592004734
 20
-0.7125061394674645
 30
0.0
 10
48.58315814817249
 20
-0.8239743979532648
 30
0.0
 10
48.97836625675636
 20
-1.042644401371158
 30
0.0
 10
49.17516373270071
 20
-1.150018862948354
 30
0.0
 10
49.57293133914223
 20
-1.360607860229156
 30
0.0
 10
49.77260592199077
 20
-1.463579341162587
 30
0.0
 10
50.17003147210634
 20
-1.663073341899634
 30
0.0
 10
50.36638327695303
 20
-1.759380129442674
 30
0.0
 10
50.9601330211388
 20
-2.038238419112654
 30
0.0
 10
51.36204021333549
 20
-2.21046422077426
 30
0.0
 10
52.1500960605472
 20
-2.515744312929506
 30
0.0
 10
52.5505083115435
 20
-2.650654885921848
 30
0.0
 10
52.94722025803969
 20
-2.763444565461643
 30
0.0
  0
SPLINE
  5
B1
330
1F
100
AcDbEntity
  8
외형선
  6
Continuous
 62
     1
370
    15
100
AcDbSpline
210
0.0
220
0.0
230
1.0
 70
     8
 71
     3
 72
    14
 73
    10
 74
     0
 42
0.000000001
 43
0.00000001
 40
0.0
 40
0.0
 40
0.0
 40
0.0
 40
0.1000399616587591
 40
0.271123134677333
 40
0.4374675321726567
 40
0.6091447267494026
 40
0.7675008159580013
 40
0.9303705304670227
 40
1.0
 40
1.0
 40
1.0
 40
1.0
 10
55.40630368859537
 20
-1.991861908863332
 30
0.0
 10
55.34948119679892
 20
-2.063673843544229
 30
0.0
 10
55.19548381574651
 20
-2.258294838145782
 30
0.0
 10
54.87190384949224
 20
-2.507100397375809
 30
0.0
 10
54.46110919717012
 20
-2.724184499865211
 30
0.0
 10
54.02650029412234
 20
-2.846032365006
 30
0.0
 10
53.58037104439445
 20
-2.877086576207442
 30
0.0
 10
53.22262810133122
 20
-2.835678627610409
 30
0.0
 10
53.01069157003433
 20
-2.780091842608468
 30
0.0
 10
52.94722025803955
 20
-2.763444565463488
 30
0.0
  0
SPLINE
  5
B2
330
1F
100
AcDbEntity
  8
외형선
  6
Continuous
 62
     1
370
    15
100
AcDbSpline
210
0.0
220
0.0
230
1.0
 70
     8
 71
     3
 72
    28
 73
    24
 74
     0
 42
0.000000001
 43
0.00000001
 40
0.0
 40
0.0
 40
0.0
 40
0.0
 40
0.125
 40
0.125
 40
0.25
 40
0.25
 40
0.3749999999999999
 40
0.3749999999999999
 40
0.4999999999999999
 40
0.4999999999999999
 40
0.5624999999999999
 40
0.5624999999999999
 40
0.625
 40
0.625
 40
0.6875
 40
0.6875
 40
0.75
 40
0.75
 40
0.8125
 40
0.8125
 40
0.875
 40
0.875
 40
1.0
 40
1.0
 40
1.0
 40
1.0
 10
52.94722025803971
 20
-0.4595172251092336
 30
0.0
 10
53.12507892540926
 20
-0.5611340184099487
 30
0.0
 10
53.29889158181469
 20
-0.6602480268202394
 30
0.0
 10
53.64443218604781
 20
-0.8437502798564922
 30
0.0
 10
53.81784611710491
 20
-0.9291815540581982
 30
0.0
 10
54.15801797467266
 20
-1.071088850155806
 30
0.0
 10
54.32373830515432
 20
-1.127528944784885
 30
0.0
 10
54.65236266142703
 20
-1.197825402981327
 30
0.0
 10
54.81283297586793
 20
-1.210854597200445
 30
0.0
 10
55.04320356618319
 20
-1.180478916180053
 30
0.0
 10
55.11903658065599
 20
-1.16177842704258
 30
0.0
 10
55.26287575059098
 20
-1.105865648448313
 30
0.0
 10
55.33158651416569
 20
-1.068699368338514
 30
0.0
 10
55.46249290260235
 20
-0.9720788765201781
 30
0.0
 10
55.52251610377118
 20
-0.9141335359653233
 30
0.0
 10
55.6306949045767
 20
-0.7782309493275948
 30
0.0
 10
55.67902993982709
 20
-0.699374775469037
 30
0.0
 10
55.75799675385834
 20
-0.5293884693516537
 30
0.0
 10
55.78978189519695
 20
-0.4360801817445434
 30
0.0
 10
55.83530393414654
 20
-0.2415974854856387
 30
0.0
 10
55.84908984236345
 20
-0.1414480454975133
 30
0.0
 10
55.8653972504103
 20
0.1665551299235046
 30
0.0
 10
55.84268887761445
 20
0.3702003109672531
 30
0.0
 10
55.79364534268637
 20
0.5693579845925791
 30
0.0
  0
SPLINE
  5
B3
330
1F
100
AcDbEntity
  8
외형선
  6
Continuous
 62
     1
370
    15
100
AcDbSpline
210
0.0
220
0.0
230
1.0
 70
     8
 71
     3
 72
    14
 73
    10
 74
     0
 42
0.000000001
 43
0.00000001
 40
0.0
 40
0.0
 40
0.0
 40
0.0
 40
0.1412648854531561
 40
0.2825560814021126
 40
0.4238771469480667
 40
0.5651857177902118
 40
0.7131694124220781
 40
0.8611486680343358
 40
1.0
 40
1.0
 40
1.0
 40
1.0
 10
52.94722025803969
 20
-0.4595172251092323
 30
0.0
 10
52.50278413515636
 20
-0.2030326180625424
 30
0.0
 10
51.61382911344214
 20
0.3099843661270996
 30
0.0
 10
50.28020843752782
 20
1.068637535799371
 30
0.0
 10
48.94636399417776
 20
1.762497734992584
 30
0.0
 10
47.59152374116834
 20
2.364308481908328
 30
0.0
 10
46.21571797411292
 20
2.825462189512624
 30
0.0
 10
44.84765810249097
 20
3.123066159129142
 30
0.0
 10
43.94520566150328
 20
3.154085638542734
 30
0.0
 10
43.50833899213957
 20
3.169101805646213
 30
0.0
  0
SPLINE
  5
B4
330
1F
100
AcDbEntity
  8
외형선
  6
Continuous
 62
     1
370
    15
100
AcDbSpline
210
0.0
220
0.0
230
1.0
 70
     8
 71
     3
 72
    10
 73
     6
 74
     0
 42
0.000000001
 43
0.00000001
 40
0.0
 40
0.0
 40
0.0
 40
0.0
 40
0.3662905971884237
 40
0.7327757569557228
 40
1.0
 40
1.0
 40
1.0
 40
1.0
 10
55.28416907809338
 20
0.7466315720626701
 30
0.0
 10
54.58756160831864
 20
0.8907787550885345
 30
0.0
 10
53.19397665177493
 20
1.179149687800403
 30
0.0
 10
51.29212254303326
 20
1.415306671624101
 30
0.0
 10
50.08689452788813
 20
1.418296350397076
 30
0.0
 10
49.57867081743977
 20
1.419557045983269
 30
0.0
  0
SPLINE
  5
B5
330
1F
100
AcDbEntity
  8
외형선
  6
Continuous
 62
     1
370
    15
100
AcDbSpline
210
0.0
220
0.0
230
1.0
 70
     8
 71
     3
 72
     8
 73
     4
 74
     0
 42
0.000000001
 43
0.00000001
 40
0.0
 40
0.0
 40
0.0
 40
0.0
 40
1.0
 40
1.0
 40
1.0
 40
1.0
 10
55.28416907782004
 20
0.7466315721237202
 30
0.0
 10
55.45405152821334
 20
0.6887000785549545
 30
0.0
 10
55.62387745165469
 20
0.6296190874019603
 30
0.0
 10
55.79364534268616
 20
0.5693579845919011
 30
0.0
  0
ARC
  5
B6
330
1F
100
AcDbEntity
  8
외형선
  6
Continuous
 62
     1
370
    15
100
AcDbCircle
 10
55.02586817584387
 20
-0.2889306312837586
 30
0.0
 40
1.151582010134815
100
AcDbArc
 50
20.37126067143512
 51
48.18595845075118
  0
ARC
  5
B7
330
1F
100
AcDbEntity
  8
외형선
  6
Continuous
 62
     1
370
    15
100
AcDbCircle
 10
53.10292855341376
 20
0.0056945791814818
 30
0.0
 40
3.004377005967729
100
AcDbArc
 50
2.026551295430849
 51
27.79189553340076
  0
SPLINE
  5
B8
330
1F
100
AcDbEntity
  8
외형선
  6
Continuous
 62
     1
370
    15
100
AcDbSpline
210
0.0
220
0.0
230
1.0
 70
     8
 71
     3
 72
    22
 73
    18
 74
     0
 42
0.000000001
 43
0.00000001
 40
0.0
 40
0.0
 40
0.0
 40
0.0
 40
0.125
 40
0.125
 40
0.25
 40
0.25
 40
0.375
 40
0.375
 40
0.5
 40
0.5
 40
0.625
 40
0.625
 40
0.75
 40
0.75
 40
0.875
 40
0.875
 40
1.0
 40
1.0
 40
1.0
 40
1.0
 10
55.76074146807913
 20
1.406519944680841
 30
0.0
 10
55.71310994190168
 20
1.531697598978604
 30
0.0
 10
55.65019941938812
 20
1.655885881262422
 30
0.0
 10
55.49806342567388
 20
1.896326800247012
 30
0.0
 10
55.40918609570561
 20
2.011573948238465
 30
0.0
 10
55.2139074503071
 20
2.222879835114383
 30
0.0
 10
55.10691464411258
 20
2.319904227592459
 30
0.0
 10
54.87598520556861
 20
2.493902299987178
 30
0.0
 10
54.75171660963028
 20
2.570685332774785
 30
0.0
 10
54.49633730998873
 20
2.697006439664126
 30
0.0
 10
54.36408102273154
 20
2.747566998751935
 30
0.0
 10
54.09087324014989
 20
2.822821308059957
 30
0.0
 10
53.94876484234548
 20
2.847426734785179
 30
0.0
 10
53.66537048924182
 20
2.868637691127012
 30
0.0
 10
53.52316291489109
 20
2.865709450589739
 30
0.0
 10
53.23673040616426
 20
2.833802502042325
 30
0.0
 10
53.09180239390734
 20
2.804550896935856
 30
0.0
 10
52.94722025803955
 20
2.763444565463501
 30
0.0
  0
SPLINE
  5
B9
330
1F
100
AcDbEntity
  8
외형선
  6
Continuous
 62
     1
370
    15
100
AcDbSpline
210
0.0
220
0.0
230
1.0
 70
     8
 71
     3
 72
    12
 73
     8
 74
     0
 42
0.000000001
 43
0.00000001
 40
0.0
 40
0.0
 40
0.0
 40
0.0
 40
0.1027090135393133
 40
0.3193610866908186
 40
0.5462473544065133
 40
0.773126816287323
 40
1.0
 40
1.0
 40
1.0
 40
1.0
 10
49.57867081743797
 20
-1.419557045984179
 30
0.0
 10
49.36789149564039
 20
-1.530309174006562
 30
0.0
 10
48.71249903356139
 20
-1.874679339191826
 30
0.0
 10
47.59152335327448
 20
-2.361205381653031
 30
0.0
 10
46.21571806840672
 20
-2.826668906101321
 30
0.0
 10
44.81895174048792
 20
-3.127652864361874
 30
0.0
 10
43.88779312432041
 20
-3.158955933249235
 30
0.0
 10
43.4222202580397
 20
-3.174607251136681
 30
0.0
  0
SPLINE
  5
BA
330
1F
100
AcDbEntity
  8
외형선
  6
Continuous
370
    15
100
AcDbSpline
210
0.0
220
0.0
230
1.0
 70
    24
 71
     3
 72
    14
 73
    10
 74
     0
 42
0.000000001
 43
0.00000001
 40
0.0
 40
0.0
 40
0.0
 40
0.0
 40
0.25
 40
0.25
 40
0.5
 40
0.5
 40
0.75
 40
0.75
 40
1.0
 40
1.0
 40
1.0
 40
1.0
 10
43.4222202580397
 20
-0.6129325075880067
 30
0.0
 10
43.4222202580397
 20
-0.7139600608602047
 30
0.0
 10
43.4222202580397
 20
-0.8439842957063726
 30
0.0
 10
43.4222202580397
 20
-1.170534667192321
 30
0.0
 10
43.4222202580397
 20
-1.367409172812979
 30
0.0
 10
43.4222202580397
 20
-1.820210163758617
 30
0.0
 10
43.4222202580397
 20
-2.076131655031622
 30
0.0
 10
43.4222202580397
 20
-2.61618389774724
 30
0.0
 10
43.4222202580397
 20
-2.899713498563364
 30
0.0
 10
43.4222202580397
 20
-3.174607251121805
 30
0.0
  0
SPLINE
  5
BB
330
1F
100
AcDbEntity
  8
외형선
  6
Continuous
 62
     1
370
    15
100
AcDbSpline
210
0.0
220
0.0
230
1.0
 70
     8
 71
     3
 72
     8
 73
     4
 74
     0
 42
0.000000001
 43
0.00000001
 40
0.0
 40
0.0
 40
0.0
 40
0.0
 40
1.0
 40
1.0
 40
1.0
 40
1.0
 10
54.39573326335429
 20
0.9843380038428642
 30
0.0
 10
54.68630884764896
 20
0.9132215773183107
 30
0.0
 10
54.9828913723952
 20
0.8333487067653469
 30
0.0
 10
55.28416907782004
 20
0.7466315721237203
 30
0.0
  0
SPLINE
  5
BC
330
1F
100
AcDbEntity
  8
외형선
  6
Continuous
 62
     1
370
    15
100
AcDbSpline
210
0.0
220
0.0
230
1.0
 70
     8
 71
     3
 72
    10
 73
     6
 74
     0
 42
0.000000001
 43
0.00000001
 40
0.0
 40
0.0
 40
0.0
 40
0.0
 40
0.0637479257867771
 40
0.5274350049475921
 40
1.0
 40
1.0
 40
1.0
 40
1.0
 10
49.69092435179074
 20
1.417358495851179
 30
0.0
 10
49.76009945226581
 20
1.453954183184184
 30
0.0
 10
50.33243759520956
 20
1.756738097975457
 30
0.0
 10
51.41804242994294
 20
2.263629219993295
 30
0.0
 10
52.43428218500407
 20
2.595789558001038
 30
0.0
 10
52.94722025803969
 20
2.763444565461655
 30
0.0
  0
SPLINE
  5
BD
330
1F
100
AcDbEntity
  8
외형선
  6
Continuous
 62
     1
370
    15
100
AcDbSpline
210
0.0
220
0.0
230
1.0
 70
     8
 71
     3
 72
    10
 73
     6
 74
     0
 42
0.000000001
 43
0.00000001
 40
0.0
 40
0.0
 40
0.0
 40
0.0
 40
0.5
 40
0.5
 40
1.0
 40
1.0
 40
1.0
 40
1.0
 10
55.76074146807899
 20
1.406519944680813
 30
0.0
 10
55.56950036269546
 20
1.252687822289013
 30
0.0
 10
55.34249368993471
 20
1.148339572485207
 30
0.0
 10
54.87929222277791
 20
1.016844913761614
 30
0.0
 10
54.63657357011158
 20
0.9871400084951368
 30
0.0
 10
54.39573326335429
 20
0.9843380038428655
 30
0.0
  0
LINE
  5
BE
330
1F
100
AcDbEntity
  8
중심선
 62
     1
100
AcDbLine
 10
-58.0027797419603
 20
-0.0000000000000092
 30
0.0
 11
59.1222202580397
 21
0.0000000000000051
 31
0.0
  0
LINE
  5
BF
330
1F
100
AcDbEntity
  8
치수문자_일반주서
 62
     1
100
AcDbLine
 10
56.1222202580397
 20
-0.0000000000000053
 30
0.0
 11
56.1222202580397
 21
2.123657301112653
 31
0.0
  0
LINE
  5
C0
330
1F
100
AcDbEntity
  8
참조1
100
AcDbLine
 10
0.5597202580397038
 20
-0.0000000000000093
 30
0.0
 11
0.5597202580397109
 21
-40.00000000000001
 31
0.0
  0
LINE
  5
C1
330
1F
100
AcDbEntity
  8
참조1
100
AcDbLine
 10
0.5597202580397109
 20
-40.00000000000001
 30
0.0
 11
-12.61793655626897
 21
-40.00000000000001
 31
0.0
  0
CIRCLE
  5
C2
330
1F
100
AcDbEntity
  8
해칭선
100
AcDbCircle
 10
0.0
 20
0.0
 30
0.0
 40
3.000000000000001
  0
INSERT
  5
C3
330
1F
100
AcDbEntity
  8
0
  6
Continuous
 62
     7
100
AcDbBlockReference
 66
     1
  2
블럭10
 10
-13.3805526740855
 20
-52.04717430164394
 30
0.0
  0
ATTRIB
  5
C4
330
C3
100
AcDbEntity
  8
FORMAT
 62
     2
100
AcDbText
 10
-23.52218868622213
 20
-49.97180738881174
 30
0.0
 40
4.233333333333333
  1
EM963016 [ 4 FLUTE ]
 41
0.75
  7
SLDTEXTSTYLE0
 11
-23.52218868622213
 21
-52.08847405547841
 31
0.0
100
AcDbAttribute
  2
AUTOATTR0
 70
     0
 74
     1
  0
SEQEND
  5
C5
330
C3
100
AcDbEntity
  8
0
  6
Continuous
 62
     7
  0
HATCH
  5
C6
330
1F
100
AcDbEntity
  8
중심선
100
AcDbHatch
 10
0.0
 20
0.0
 30
0.0
210
0.0
220
0.0
230
1.0
  2
SOLID
 70
     1
 71
     0
 91
        1
 92
        0
 93
        4
 72
     1
 10
-7.665643369704654
 20
-35.8
 11
-11.11191861354193
 21
-35.8
 72
     1
 10
-11.11191861354193
 20
-35.8
 11
-13.24014847274596
 21
-38.33632558057258
 72
     1
 10
-13.24014847274596
 20
-38.33632558057258
 11
-9.7938401437955
 21
-38.33628615127009
 72
     1
 10
-9.7938401437955
 20
-38.33628615127009
 11
-7.665643369704654
 21
-35.8
 97
        0
 75
     0
 76
     1
 98
        1
 10
-20.37695887597188
 20
-0.0000000000000053
  0
HATCH
  5
C7
330
1F
100
AcDbEntity
  8
중심선
100
AcDbHatch
 10
0.0
 20
0.0
 30
0.0
210
0.0
220
0.0
230
1.0
  2
SOLID
 70
     1
 71
     0
 91
        1
 92
        0
 93
        4
 72
     1
 10
-2.652879378668676
 20
-35.8
 11
-6.099154622505985
 21
-35.8
 72
     1
 10
-6.099154622505985
 20
-35.8
 11
-10.63029263086337
 21
-41.20000000000002
 72
     1
 10
-10.63029263086337
 20
-41.20000000000002
 11
-7.18401738702609
 21
-41.20000000000002
 72
     1
 10
-7.18401738702609
 20
-41.20000000000002
 11
-2.652879378668676
 21
-35.8
 97
        0
 75
     0
 76
     1
 98
        1
 10
-20.37695887597188
 20
-0.0000000000000053
  0
HATCH
  5
C8
330
1F
100
AcDbEntity
  8
중심선
100
AcDbHatch
 10
0.0
 20
0.0
 30
0.0
210
0.0
220
0.0
230
1.0
  2
SOLID
 70
     1
 71
     0
 91
        1
 92
        0
 93
        4
 72
     1
 10
2.359884612367221
 20
-35.8
 11
-1.086390631469893
 21
-35.8
 72
     1
 10
-1.086390631469893
 20
-35.8
 11
-8.134827533359172
 21
-44.20000000000002
 72
     1
 10
-8.134827533359172
 20
-44.20000000000002
 11
-4.688552289521889
 21
-44.20000000000002
 72
     1
 10
-4.688552289521889
 20
-44.20000000000002
 11
2.359884612367221
 21
-35.8
 97
        0
 75
     0
 76
     1
 98
        1
 10
-20.37695887597188
 20
-0.0000000000000053
  0
HATCH
  5
C9
330
1F
100
AcDbEntity
  8
중심선
100
AcDbHatch
 10
0.0
 20
0.0
 30
0.0
210
0.0
220
0.0
230
1.0
  2
SOLID
 70
     1
 71
     0
 91
        1
 92
        0
 93
        6
 72
     3
 10
7.159775043379394
 20
-40.00000000005128
 11
3.960054785062283
 21
1.540882976769353E-10
 40
0.3939339440162628
 50
17.09539180608436
 51
320.0019657685086
 73
     0
 72
     1
 10
8.842774699079989
 20
-38.58789400463834
 11
11.14807657278103
 21
-36.65356729459039
 72
     3
 10
7.159775043326547
 20
-40.00000000000016
 11
6.600054785286833
 21
-1.278976924368180E-13
 40
0.6363583540795976
 50
39.99873849337412
 51
368.4976242363725
 73
     1
 72
     1
 10
13.58510753522716
 20
-39.03999999993002
 11
5.839842350162467
 21
-39.03999999993
 72
     1
 10
5.839842350162467
 20
-39.03999999993
 11
5.839817305716537
 21
-40.95999999992992
 72
     1
 10
5.839817305716537
 20
-40.95999999992992
 11
10.28119707518857
 21
-40.95999999992989
 97
        0
 75
     0
 76
     1
 98
        1
 10
-20.37695887597188
 20
-0.0000000000000053
  0
DIMENSION
  5
CA
330
1F
100
AcDbEntity
  8
치수문자_일반주서
100
AcDbDimension
  2
_D
 10
43.42222025803972
 20
21.0006481257146
 30
0.0
 11
28.08897025803971
 21
21.0006481257146
 31
0.0
 70
   160
  1
<>
 71
     2
 42
12.69999999999999
  3
SLDDIMSTYLE0
100
AcDbAlignedDimension
 13
56.1222202580397
 23
2.123657301112658
 33
0.0
 14
43.42222025803972
 24
1.986030042797482
 34
0.0
100
AcDbRotatedDimension
1001
ACAD
1000
DSTYLE
1002
{
1070
   171
1070
     6
1070
   273
1070
     7
1002
}
  0
DIMENSION
  5
DF
330
1F
100
AcDbEntity
  8
치수문자_일반주서
100
AcDbDimension
  2
_D_1
 10
56.1222202580397
 20
42.05275634755776
 30
0.0
 11
33.18513069102569
 21
42.05275634755776
 31
0.0
 70
   160
  1
<>
 71
     2
 42
52.38749999999999
  3
SLDDIMSTYLE0
100
AcDbAlignedDimension
 13
3.734720258039712
 23
4.131113461294957
 33
0.0
 14
56.1222202580397
 24
2.123657301112658
 34
0.0
100
AcDbRotatedDimension
1001
ACAD
1000
DSTYLE
1002
{
1070
   171
1070
     6
1070
   273
1070
     7
1002
}
  0
DIMENSION
  5
F2
330
1F
100
AcDbEntity
  8
치수문자_일반주서
100
AcDbDimension
  2
_D_2
 10
-55.0027797419603
 20
51.55667432272148
 30
0.0
 11
0.5597202580396861
 21
51.55667432272148
 31
0.0
 70
   160
  1
<>
 71
     2
 42
111.125
  3
SLDDIMSTYLE1
100
AcDbAlignedDimension
 13
56.1222202580397
 23
2.123657301112658
 33
0.0
 14
-55.0027797419603
 24
3.762499999999969
 34
0.0
100
AcDbRotatedDimension
1001
ACAD
1000
DSTYLE
1002
{
1070
   171
1070
     6
1070
   273
1070
     7
1002
}
  0
DIMENSION
  5
106
330
1F
100
AcDbEntity
  8
치수문자_일반주서
100
AcDbDimension
  2
_D_3
 10
-67.5027797419603
 20
-4.762500000000048
 30
0.0
 11
-67.50277974196031
 21
-0.0000000000000209
 31
0.0
 70
   160
  1
%%c<>
 71
     2
 42
9.524999999999977
 52
-270.0
  3
SLDDIMSTYLE0
100
AcDbAlignedDimension
 13
-54.0027797419603
 23
4.76249999999998
 33
0.0
 14
-54.0027797419603
 24
-4.762499999999998
 34
0.0
 50
90.0000000000002
100
AcDbRotatedDimension
1001
ACAD
1000
DSTYLE
1002
{
1070
   171
1070
     6
1070
   273
1070
     7
1002
}
  0
DIMENSION
  5
114
330
1F
100
AcDbEntity
  8
치수문자_일반주서
100
AcDbDimension
  2
_D_4
 10
68.72798483581904
 20
-3.174999999999901
 30
0.0
 11
68.72798483581893
 21
23.2504299881054
 31
0.0
 70
   160
  1
%%c<>
 71
     2
 42
6.35
 52
-270.0
  3
SLDDIMSTYLE3
100
AcDbAlignedDimension
 13
43.4222202580397
 23
3.175000000000005
 33
0.0
 14
43.4222202580397
 24
-3.174999999999995
 34
0.0
 50
90.0000000000002
100
AcDbRotatedDimension
1001
ACAD
1000
DSTYLE
1002
{
1070
   171
1070
     6
1070
   273
1070
     7
1002
}
  0
LINE
  5
129
330
1F
100
AcDbEntity
  8
참조1
100
AcDbLine
 10
85.3544040733853
 20
7.439999999999997
 30
0.0
 11
85.3544040733853
 21
-7.440000000000007
 31
0.0
  0
LINE
  5
12A
330
1F
100
AcDbEntity
  8
참조1
100
AcDbLine
 10
98.0544040733853
 20
5.439999999999997
 30
0.0
 11
85.3544040733853
 21
5.439999999999997
 31
0.0
  0
SOLID
  5
12B
330
1F
100
AcDbEntity
  8
참조1
100
AcDbTrace
 10
85.3544040733853
 20
5.439999999999997
 30
0.0
 11
91.70440407338529
 21
4.423999999999997
 31
0.0
 12
91.70440407338529
 22
6.455999999999997
 32
0.0
 13
91.70440407338529
 23
6.455999999999997
 33
0.0
  0
LINE
  5
12C
330
1F
100
AcDbEntity
  8
참조1
100
AcDbLine
 10
98.0544040733853
 20
-5.440000000000007
 30
0.0
 11
85.3544040733853
 21
-5.440000000000007
 31
0.0
  0
SOLID
  5
12D
330
1F
100
AcDbEntity
  8
참조1
100
AcDbTrace
 10
85.3544040733853
 20
-5.440000000000007
 30
0.0
 11
91.70440407338529
 21
-6.456000000000008
 31
0.0
 12
91.70440407338529
 22
-4.424000000000007
 32
0.0
 13
91.70440407338529
 23
-4.424000000000007
 33
0.0
  0
MTEXT
  5
12E
330
1F
100
AcDbEntity
  8
참조1
100
AcDbMText
 10
94.75189416585556
 20
10.98821664464993
 30
0.0
 40
3.5
 41
0.0
 71
     1
 72
     1
  1
A
  7
SLDTEXTSTYLE0
 73
     1
 44
1.0
  0
MTEXT
  5
12F
330
1F
100
AcDbEntity
  8
참조1
100
AcDbMText
 10
94.75189416585556
 20
0.1082166446499274
 30
0.0
 40
3.5
 41
0.0
 71
     1
 72
     1
  1
A
  7
SLDTEXTSTYLE0
 73
     1
 44
1.0
  0
INSERT
  5
136
330
1F
100
AcDbEntity
  8
해칭선
100
AcDbBlockReference
  2
SW_DOWELSYMBOL_0
 10
0.0
 20
0.0
 30
0.0
  0
LINE
  5
15C
330
1F
100
AcDbEntity
  8
외형선
  6
Continuous
370
    15
100
AcDbLine
 10
3.734720258039712
 20
-0.0000000000000053
 30
0.0
 11
3.734720258039712
 21
4.131113461294957
 31
0.0
  0
LINE
  5
15D
330
1F
100
AcDbEntity
  8
외형선
  6
Continuous
370
    15
100
AcDbLine
 10
40.2472202580397
 20
3.175000000000005
 30
0.0
 11
3.73472025803969
 21
4.131113461294958
 31
0.0
  0
LINE
  5
15E
330
1F
100
AcDbEntity
  8
외형선
  6
Continuous
370
    15
100
AcDbLine
 10
40.2472202580397
 20
-3.175000000000016
 30
0.0
 11
3.73472025803969
 21
-4.131113461294968
 31
0.0
  0
LINE
  5
15F
330
1F
100
AcDbEntity
  8
외형선
  6
Continuous
370
    15
100
AcDbLine
 10
3.734720258039712
 20
-0.0000000000000053
 30
0.0
 11
3.734720258039712
 21
-4.131113461294968
 31
0.0
  0
LINE
  5
160
330
1F
100
AcDbEntity
  8
외형선
  6
Continuous
370
    15
100
AcDbLine
 10
3.734720258039712
 20
4.131113461294957
 30
0.0
 11
1.999999999999996
 21
4.762499999999999
 31
0.0
  0
LINE
  5
161
330
1F
100
AcDbEntity
  8
외형선
  6
Continuous
370
    15
100
AcDbLine
 10
3.734720258039712
 20
-4.131113461294957
 30
0.0
 11
1.999999999999996
 21
-4.762499999999999
 31
0.0
  0
ENDSEC
  0
SECTION
  2
OBJECTS
  0
DICTIONARY
  5
C
330
0
100
AcDbDictionary
281
     1
  3
ACAD_GROUP
350
D
  3
ACAD_IMAGE_VARS
350
15A
  3
ACAD_LAYOUT
350
1A
  3
ACAD_MLINESTYLE
350
17
  3
ACAD_PLOTSETTINGS
350
19
  3
ACAD_PLOTSTYLENAME
350
E
  3
ACAD_SCALELIST
350
47
  3
APPDATA
350
158
  3
DWGPROPS
350
189
  0
DICTIONARY
  5
187
330
1F
100
AcDbDictionary
280
     1
281
     1
  3
DIM_BOUNDING_BOXES_V1
360
188
  0
DICTIONARY
  5
D
102
{ACAD_REACTORS
330
C
102
}
330
C
100
AcDbDictionary
281
     1
  0
RASTERVARIABLES
  5
15A
102
{ACAD_REACTORS
330
C
102
}
330
C
100
AcDbRasterVariables
 90
        0
 70
     1
 71
     1
 72
     1
  0
DICTIONARY
  5
1A
102
{ACAD_REACTORS
330
C
102
}
330
C
100
AcDbDictionary
281
     1
  3
Layout1
350
1E
  3
Layout2
350
26
  3
Model
350
22
  0
DICTIONARY
  5
17
102
{ACAD_REACTORS
330
C
102
}
330
C
100
AcDbDictionary
281
     1
  3
Standard
350
18
  0
DICTIONARY
  5
19
102
{ACAD_REACTORS
330
C
102
}
330
C
100
AcDbDictionary
281
     1
  0
ACDBDICTIONARYWDFLT
  5
E
102
{ACAD_REACTORS
330
C
102
}
330
C
100
AcDbDictionary
281
     1
  3
Normal
350
F
100
AcDbDictionaryWithDefault
340
F
  0
DICTIONARY
  5
47
102
{ACAD_REACTORS
330
C
102
}
330
C
100
AcDbDictionary
281
     1
  3
A0
350
48
  3
A1
350
49
  3
A2
350
4A
  3
A3
350
4B
  3
A4
350
4C
  3
A5
350
4D
  3
A6
350
4E
  3
A7
350
4F
  3
A8
350
50
  3
A9
350
51
  3
B0
350
52
  3
B1
350
53
  3
B2
350
54
  3
B3
350
55
  3
B4
350
56
  3
B5
350
57
  3
B6
350
58
  3
B7
350
59
  3
B8
350
5A
  3
B9
350
5B
  3
C0
350
5C
  3
C1
350
5D
  3
C2
350
5E
  3
C3
350
5F
  3
C4
350
60
  3
C5
350
61
  3
C6
350
62
  3
C7
350
63
  3
C8
350
64
  3
C9
350
65
  3
D0
350
66
  3
D1
350
67
  3
D2
350
68
  0
DICTIONARY
  5
158
102
{ACAD_REACTORS
330
C
102
}
330
C
100
AcDbDictionary
281
     1
  0
XRECORD
  5
189
102
{ACAD_REACTORS
330
C
102
}
330
C
100
AcDbXrecord
280
     1
  1
DWGPROPS COOKIE
  2

  3

  4

  6

  7

  8
12017165
  9

300
=
301
=
302
=
303
=
304
=
305
=
306
=
307
=
308
=
309
=
 40
0.0
 41
2458298.516667477
 42
2459697.098878102
  1

 90
        0
  0
DICTIONARY
  5
188
102
{ACAD_REACTORS
330
187
102
}
330
187
100
AcDbDictionary
281
     1
  0
LAYOUT
  5
1E
102
{ACAD_REACTORS
330
1A
102
}
330
1A
100
AcDbPlotSettings
  1

  2
none_device
  4

  6

 40
0.0
 41
0.0
 42
0.0
 43
0.0
 44
0.0
 45
0.0
 46
0.0
 47
0.0
 48
0.0
 49
0.0
140
0.0
141
0.0
142
1.0
143
1.0
 70
   688
 72
     1
 73
     0
 74
     5
  7

 75
    16
147
1.0
148
0.0
149
0.0
100
AcDbLayout
  1
Layout1
 70
     1
 71
     1
 10
0.0
 20
0.0
 11
420.0
 21
297.0
 12
0.0
 22
0.0
 32
0.0
 14
1.000000000000000E+20
 24
1.000000000000000E+20
 34
1.000000000000000E+20
 15
-1.000000000000000E+20
 25
-1.000000000000000E+20
 35
-1.000000000000000E+20
146
0.0
 13
0.0
 23
0.0
 33
0.0
 16
1.0
 26
0.0
 36
0.0
 17
0.0
 27
1.0
 37
0.0
 76
     0
330
1B
  0
LAYOUT
  5
26
102
{ACAD_REACTORS
330
1A
102
}
330
1A
100
AcDbPlotSettings
  1

  2
none_device
  4

  6

 40
0.0
 41
0.0
 42
0.0
 43
0.0
 44
0.0
 45
0.0
 46
0.0
 47
0.0
 48
0.0
 49
0.0
140
0.0
141
0.0
142
1.0
143
1.0
 70
   688
 72
     1
 73
     0
 74
     5
  7

 75
    16
147
1.0
148
0.0
149
0.0
100
AcDbLayout
  1
Layout2
 70
     1
 71
     2
 10
0.0
 20
0.0
 11
0.0
 21
0.0
 12
0.0
 22
0.0
 32
0.0
 14
0.0
 24
0.0
 34
0.0
 15
0.0
 25
0.0
 35
0.0
146
0.0
 13
0.0
 23
0.0
 33
0.0
 16
1.0
 26
0.0
 36
0.0
 17
0.0
 27
1.0
 37
0.0
 76
     0
330
23
  0
LAYOUT
  5
22
102
{ACAD_REACTORS
330
1A
102
}
330
1A
100
AcDbPlotSettings
  1

  2
none_device
  4
ANSI_A_(11.00_x_8.50_Inches)
  6

 40
6.35
 41
19.05
 42
6.35000508
 43
19.05000254
 44
279.4
 45
215.9
 46
79.09265906684931
 47
79.44217810481555
 48
0.0
 49
0.0
140
0.0
141
0.0
142
0.064012736964038
143
1.0
 70
  1696
 72
     0
 73
     0
 74
     0
  7

 75
     0
147
0.0235690232323232
148
0.0
149
0.0
100
AcDbLayout
  1
Model
 70
     1
 71
     0
 10
0.0
 20
0.0
 11
420.0
 21
297.0
 12
0.0
 22
0.0
 32
0.0
 14
-71.87777974196034
 24
-49.97180738881175
 34
0.0
 15
98.0544040733853
 25
55.93167432272148
 35
0.0
146
0.0
 13
0.0
 23
0.0
 33
0.0
 16
1.0
 26
0.0
 36
0.0
 17
0.0
 27
1.0
 37
0.0
 76
     0
330
1F
331
29
  0
MLINESTYLE
  5
18
102
{ACAD_REACTORS
330
17
102
}
330
17
100
AcDbMlineStyle
  2
Standard
 70
     0
  3

 62
   256
 51
90.0
 52
90.0
 71
     2
 49
0.5
 62
   256
  6
BYLAYER
 49
-0.5
 62
   256
  6
BYLAYER
  0
ACDBPLACEHOLDER
  5
F
102
{ACAD_REACTORS
330
E
102
}
330
E
  0
SCALE
  5
48
102
{ACAD_REACTORS
330
47
102
}
330
47
100
AcDbScale
 70
     0
300
1:1
140
1.0
141
1.0
290
     1
  0
SCALE
  5
49
102
{ACAD_REACTORS
330
47
102
}
330
47
100
AcDbScale
 70
     0
300
1:2
140
1.0
141
2.0
290
     0
  0
SCALE
  5
4A
102
{ACAD_REACTORS
330
47
102
}
330
47
100
AcDbScale
 70
     0
300
1:4
140
1.0
141
4.0
290
     0
  0
SCALE
  5
4B
102
{ACAD_REACTORS
330
47
102
}
330
47
100
AcDbScale
 70
     0
300
1:5
140
1.0
141
5.0
290
     0
  0
SCALE
  5
4C
102
{ACAD_REACTORS
330
47
102
}
330
47
100
AcDbScale
 70
     0
300
1:8
140
1.0
141
8.0
290
     0
  0
SCALE
  5
4D
102
{ACAD_REACTORS
330
47
102
}
330
47
100
AcDbScale
 70
     0
300
1:10
140
1.0
141
10.0
290
     0
  0
SCALE
  5
4E
102
{ACAD_REACTORS
330
47
102
}
330
47
100
AcDbScale
 70
     0
300
1:16
140
1.0
141
16.0
290
     0
  0
SCALE
  5
4F
102
{ACAD_REACTORS
330
47
102
}
330
47
100
AcDbScale
 70
     0
300
1:20
140
1.0
141
20.0
290
     0
  0
SCALE
  5
50
102
{ACAD_REACTORS
330
47
102
}
330
47
100
AcDbScale
 70
     0
300
1:30
140
1.0
141
30.0
290
     0
  0
SCALE
  5
51
102
{ACAD_REACTORS
330
47
102
}
330
47
100
AcDbScale
 70
     0
300
1:40
140
1.0
141
40.0
290
     0
  0
SCALE
  5
52
102
{ACAD_REACTORS
330
47
102
}
330
47
100
AcDbScale
 70
     0
300
1:50
140
1.0
141
50.0
290
     0
  0
SCALE
  5
53
102
{ACAD_REACTORS
330
47
102
}
330
47
100
AcDbScale
 70
     0
300
1:100
140
1.0
141
100.0
290
     0
  0
SCALE
  5
54
102
{ACAD_REACTORS
330
47
102
}
330
47
100
AcDbScale
 70
     0
300
2:1
140
2.0
141
1.0
290
     0
  0
SCALE
  5
55
102
{ACAD_REACTORS
330
47
102
}
330
47
100
AcDbScale
 70
     0
300
4:1
140
4.0
141
1.0
290
     0
  0
SCALE
  5
56
102
{ACAD_REACTORS
330
47
102
}
330
47
100
AcDbScale
 70
     0
300
8:1
140
8.0
141
1.0
290
     0
  0
SCALE
  5
57
102
{ACAD_REACTORS
330
47
102
}
330
47
100
AcDbScale
 70
     0
300
10:1
140
10.0
141
1.0
290
     0
  0
SCALE
  5
58
102
{ACAD_REACTORS
330
47
102
}
330
47
100
AcDbScale
 70
     0
300
100:1
140
100.0
141
1.0
290
     0
  0
SCALE
  5
59
102
{ACAD_REACTORS
330
47
102
}
330
47
100
AcDbScale
 70
     0
300
1/128" = 1'-0"
140
0.0078125
141
12.0
290
     0
  0
SCALE
  5
5A
102
{ACAD_REACTORS
330
47
102
}
330
47
100
AcDbScale
 70
     0
300
1/64" = 1'-0"
140
0.015625
141
12.0
290
     0
  0
SCALE
  5
5B
102
{ACAD_REACTORS
330
47
102
}
330
47
100
AcDbScale
 70
     0
300
1/32" = 1'-0"
140
0.03125
141
12.0
290
     0
  0
SCALE
  5
5C
102
{ACAD_REACTORS
330
47
102
}
330
47
100
AcDbScale
 70
     0
300
1/16" = 1'-0"
140
0.0625
141
12.0
290
     0
  0
SCALE
  5
5D
102
{ACAD_REACTORS
330
47
102
}
330
47
100
AcDbScale
 70
     0
300
3/32" = 1'-0"
140
0.09375
141
12.0
290
     0
  0
SCALE
  5
5E
102
{ACAD_REACTORS
330
47
102
}
330
47
100
AcDbScale
 70
     0
300
1/8" = 1'-0"
140
0.125
141
12.0
290
     0
  0
SCALE
  5
5F
102
{ACAD_REACTORS
330
47
102
}
330
47
100
AcDbScale
 70
     0
300
3/16" = 1'-0"
140
0.1875
141
12.0
290
     0
  0
SCALE
  5
60
102
{ACAD_REACTORS
330
47
102
}
330
47
100
AcDbScale
 70
     0
300
1/4" = 1'-0"
140
0.25
141
12.0
290
     0
  0
SCALE
  5
61
102
{ACAD_REACTORS
330
47
102
}
330
47
100
AcDbScale
 70
     0
300
3/8" = 1'-0"
140
0.375
141
12.0
290
     0
  0
SCALE
  5
62
102
{ACAD_REACTORS
330
47
102
}
330
47
100
AcDbScale
 70
     0
300
1/2" = 1'-0"
140
0.5
141
12.0
290
     0
  0
SCALE
  5
63
102
{ACAD_REACTORS
330
47
102
}
330
47
100
AcDbScale
 70
     0
300
3/4" = 1'-0"
140
0.75
141
12.0
290
     0
  0
SCALE
  5
64
102
{ACAD_REACTORS
330
47
102
}
330
47
100
AcDbScale
 70
     0
300
1" = 1'-0"
140
1.0
141
12.0
290
     0
  0
SCALE
  5
65
102
{ACAD_REACTORS
330
47
102
}
330
47
100
AcDbScale
 70
     0
300
1-1/2" = 1'-0"
140
1.5
141
12.0
290
     0
  0
SCALE
  5
66
102
{ACAD_REACTORS
330
47
102
}
330
47
100
AcDbScale
 70
     0
300
3" = 1'-0"
140
3.0
141
12.0
290
     0
  0
SCALE
  5
67
102
{ACAD_REACTORS
330
47
102
}
330
47
100
AcDbScale
 70
     0
300
6" = 1'-0"
140
6.0
141
12.0
290
     0
  0
SCALE
  5
68
102
{ACAD_REACTORS
330
47
102
}
330
47
100
AcDbScale
 70
     0
300
1'-0" = 1'-0"
140
12.0
141
12.0
290
     0
  0
ENDSEC
  0
EOF
