  0
SECTION
  2
HEADER
  9
$ACADVER
  1
AC1015
  9
$ACADMAINTVER
 70
     6
  9
$DWGCODEPAGE
  3
ANSI_949
  9
$INSBASE
 10
0.0
 20
0.0
 30
0.0
  9
$EXTMIN
 10
-91.10900268243343
 20
-49.97180738881175
 30
0.0
  9
$EXTMAX
 10
118.6356583976665
 20
55.93167432272149
 30
0.0
  9
$LIMMIN
 10
0.0
 20
0.0
  9
$LIMMAX
 10
420.0
 20
297.0
  9
$ORTHOMODE
 70
     1
  9
$REGENMODE
 70
     1
  9
$FILLMODE
 70
     1
  9
$QTEXTMODE
 70
     0
  9
$MIRRTEXT
 70
     1
  9
$LTSCALE
 40
1.0
  9
$ATTMODE
 70
     1
  9
$TEXTSIZE
 40
3.5
  9
$TRACEWID
 40
1.0
  9
$TEXTSTYLE
  7
Standard
  9
$CLAYER
  8
0
  9
$CELTYPE
  6
ByLayer
  9
$CECOLOR
 62
   256
  9
$CELTSCALE
 40
1.0
  9
$DISPSILH
 70
     0
  9
$DIMSCALE
 40
1.0
  9
$DIMASZ
 40
3.302
  9
$DIMEXO
 40
1.0
  9
$DIMDLI
 40
3.75
  9
$DIMRND
 40
0.0
  9
$DIMDLE
 40
0.0
  9
$DIMEXE
 40
1.0
  9
$DIMTP
 40
0.0
  9
$DIMTM
 40
0.0
  9
$DIMTXT
 40
3.5
  9
$DIMCEN
 40
2.5
  9
$DIMTSZ
 40
0.0
  9
$DIMTOL
 70
     0
  9
$DIMLIM
 70
     0
  9
$DIMTIH
 70
     1
  9
$DIMTOH
 70
     1
  9
$DIMSE1
 70
     0
  9
$DIMSE2
 70
     0
  9
$DIMTAD
 70
     1
  9
$DIMZIN
 70
     0
  9
$DIMBLK
  1

  9
$DIMASO
 70
     1
  9
$DIMSHO
 70
     1
  9
$DIMPOST
  1

  9
$DIMAPOST
  1

  9
$DIMALT
 70
     0
  9
$DIMALTD
 70
     3
  9
$DIMALTF
 40
0.0393700787401575
  9
$DIMLFAC
 40
1.0
  9
$DIMTOFL
 70
     1
  9
$DIMTVP
 40
0.0
  9
$DIMTIX
 70
     0
  9
$DIMSOXD
 70
     0
  9
$DIMSAH
 70
     0
  9
$DIMBLK1
  1

  9
$DIMBLK2
  1

  9
$DIMSTYLE
  2
ISO-25
  9
$DIMCLRD
 70
     0
  9
$DIMCLRE
 70
     0
  9
$DIMCLRT
 70
     0
  9
$DIMTFAC
 40
1.0
  9
$DIMGAP
 40
1.524
  9
$DIMJUST
 70
     0
  9
$DIMSD1
 70
     0
  9
$DIMSD2
 70
     0
  9
$DIMTOLJ
 70
     0
  9
$DIMTZIN
 70
     0
  9
$DIMALTZ
 70
     0
  9
$DIMALTTZ
 70
     0
  9
$DIMUPT
 70
     0
  9
$DIMDEC
 70
     2
  9
$DIMTDEC
 70
     2
  9
$DIMALTU
 70
     2
  9
$DIMALTTD
 70
     3
  9
$DIMTXSTY
  7
Standard
  9
$DIMAUNIT
 70
     0
  9
$DIMADEC
 70
     2
  9
$DIMALTRND
 40
0.0
  9
$DIMAZIN
 70
     0
  9
$DIMDSEP
 70
    44
  9
$DIMATFIT
 70
     3
  9
$DIMFRAC
 70
     0
  9
$DIMLDRBLK
  1

  9
$DIMLUNIT
 70
     2
  9
$DIMLWD
 70
    -2
  9
$DIMLWE
 70
    -2
  9
$DIMTMOVE
 70
     0
  9
$LUNITS
 70
     2
  9
$LUPREC
 70
     2
  9
$SKETCHINC
 40
1.0
  9
$FILLETRAD
 40
10.0
  9
$AUNITS
 70
     0
  9
$AUPREC
 70
     2
  9
$MENU
  1
.
  9
$ELEVATION
 40
0.0
  9
$PELEVATION
 40
0.0
  9
$THICKNESS
 40
0.0
  9
$LIMCHECK
 70
     0
  9
$CHAMFERA
 40
0.0
  9
$CHAMFERB
 40
0.0
  9
$CHAMFERC
 40
0.0
  9
$CHAMFERD
 40
0.0
  9
$SKPOLY
 70
     0
  9
$TDCREATE
 40
2458298.892439364
  9
$TDUCREATE
 40
2458298.517439364
  9
$TDUPDATE
 40
2459697.480270556
  9
$TDUUPDATE
 40
2459697.105270556
  9
$TDINDWG
 40
0.0003175116
  9
$TDUSRTIMER
 40
0.0021283333
  9
$USRTIMER
 70
     1
  9
$ANGBASE
 50
0.0
  9
$ANGDIR
 70
     0
  9
$PDMODE
 70
     0
  9
$PDSIZE
 40
-1.0
  9
$PLINEWID
 40
0.0
  9
$SPLFRAME
 70
     0
  9
$SPLINETYPE
 70
     6
  9
$SPLINESEGS
 70
     8
  9
$HANDSEED
  5
19D
  9
$SURFTAB1
 70
     6
  9
$SURFTAB2
 70
     6
  9
$SURFTYPE
 70
     6
  9
$SURFU
 70
     6
  9
$SURFV
 70
     6
  9
$UCSBASE
  2

  9
$UCSNAME
  2

  9
$UCSORG
 10
0.0
 20
0.0
 30
0.0
  9
$UCSXDIR
 10
1.0
 20
0.0
 30
0.0
  9
$UCSYDIR
 10
0.0
 20
1.0
 30
0.0
  9
$UCSORTHOREF
  2

  9
$UCSORTHOVIEW
 70
     0
  9
$UCSORGTOP
 10
0.0
 20
0.0
 30
0.0
  9
$UCSORGBOTTOM
 10
0.0
 20
0.0
 30
0.0
  9
$UCSORGLEFT
 10
0.0
 20
0.0
 30
0.0
  9
$UCSORGRIGHT
 10
0.0
 20
0.0
 30
0.0
  9
$UCSORGFRONT
 10
0.0
 20
0.0
 30
0.0
  9
$UCSORGBACK
 10
0.0
 20
0.0
 30
0.0
  9
$PUCSBASE
  2

  9
$PUCSNAME
  2

  9
$PUCSORG
 10
0.0
 20
0.0
 30
0.0
  9
$PUCSXDIR
 10
1.0
 20
0.0
 30
0.0
  9
$PUCSYDIR
 10
0.0
 20
1.0
 30
0.0
  9
$PUCSORTHOREF
  2

  9
$PUCSORTHOVIEW
 70
     0
  9
$PUCSORGTOP
 10
0.0
 20
0.0
 30
0.0
  9
$PUCSORGBOTTOM
 10
0.0
 20
0.0
 30
0.0
  9
$PUCSORGLEFT
 10
0.0
 20
0.0
 30
0.0
  9
$PUCSORGRIGHT
 10
0.0
 20
0.0
 30
0.0
  9
$PUCSORGFRONT
 10
0.0
 20
0.0
 30
0.0
  9
$PUCSORGBACK
 10
0.0
 20
0.0
 30
0.0
  9
$USERI1
 70
     0
  9
$USERI2
 70
     0
  9
$USERI3
 70
     0
  9
$USERI4
 70
     0
  9
$USERI5
 70
     0
  9
$USERR1
 40
0.0
  9
$USERR2
 40
0.0
  9
$USERR3
 40
0.0
  9
$USERR4
 40
0.0
  9
$USERR5
 40
0.0
  9
$WORLDVIEW
 70
     1
  9
$SHADEDGE
 70
     3
  9
$SHADEDIF
 70
    70
  9
$TILEMODE
 70
     1
  9
$MAXACTVP
 70
    64
  9
$PINSBASE
 10
0.0
 20
0.0
 30
0.0
  9
$PLIMCHECK
 70
     0
  9
$PEXTMIN
 10
1.000000000000000E+20
 20
1.000000000000000E+20
 30
1.000000000000000E+20
  9
$PEXTMAX
 10
-1.000000000000000E+20
 20
-1.000000000000000E+20
 30
-1.000000000000000E+20
  9
$PLIMMIN
 10
0.0
 20
0.0
  9
$PLIMMAX
 10
0.0
 20
0.0
  9
$UNITMODE
 70
     0
  9
$VISRETAIN
 70
     1
  9
$PLINEGEN
 70
     0
  9
$PSLTSCALE
 70
     1
  9
$TREEDEPTH
 70
  3020
  9
$CMLSTYLE
  2
Standard
  9
$CMLJUST
 70
     0
  9
$CMLSCALE
 40
20.0
  9
$PROXYGRAPHICS
 70
     1
  9
$MEASUREMENT
 70
     1
  9
$CELWEIGHT
370
    -1
  9
$ENDCAPS
280
     0
  9
$JOINSTYLE
280
     0
  9
$LWDISPLAY
290
     1
  9
$INSUNITS
 70
     4
  9
$HYPERLINKBASE
  1

  9
$STYLESHEET
  1

  9
$XEDIT
290
     1
  9
$CEPSNTYPE
380
     0
  9
$PSTYLEMODE
290
     1
  9
$FINGERPRINTGUID
  2
{0D602376-F79F-40DF-BDBE-B345FA26A668}
  9
$VERSIONGUID
  2
{FAEB1C32-E019-11D5-929B-00C0DF256EC4}
  9
$EXTNAMES
290
     1
  9
$PSVPSCALE
 40
0.0
  9
$OLESTARTUP
290
     0
  0
ENDSEC
  0
SECTION
  2
CLASSES
  0
CLASS
  1
ACDBDICTIONARYWDFLT
  2
AcDbDictionaryWithDefault
  3
ObjectDBX Classes
 90
        0
280
     0
281
     0
  0
CLASS
  1
VISUALSTYLE
  2
AcDbVisualStyle
  3
ObjectDBX Classes
 90
     4095
280
     0
281
     0
  0
CLASS
  1
MATERIAL
  2
AcDbMaterial
  3
ObjectDBX Classes
 90
     1153
280
     0
281
     0
  0
CLASS
  1
SCALE
  2
AcDbScale
  3
ObjectDBX Classes
 90
     1153
280
     0
281
     0
  0
CLASS
  1
SUN
  2
AcDbSun
  3
SCENEOE
 90
     1153
280
     0
281
     0
  0
CLASS
  1
ACDBPLACEHOLDER
  2
AcDbPlaceHolder
  3
ObjectDBX Classes
 90
        0
280
     0
281
     0
  0
CLASS
  1
LAYOUT
  2
AcDbLayout
  3
ObjectDBX Classes
 90
        0
280
     0
281
     0
  0
CLASS
  1
TABLESTYLE
  2
AcDbTableStyle
  3
ObjectDBX Classes
 90
     4095
280
     0
281
     0
  0
CLASS
  1
MLEADERSTYLE
  2
AcDbMLeaderStyle
  3
ACDB_MLEADERSTYLE_CLASS
 90
     4095
280
     0
281
     0
  0
CLASS
  1
RASTERVARIABLES
  2
AcDbRasterVariables
  3
ISM
 90
        0
280
     0
281
     0
  0
CLASS
  1
DICTIONARYVAR
  2
AcDbDictionaryVar
  3
ObjectDBX Classes
 90
        0
280
     0
281
     0
  0
ENDSEC
  0
SECTION
  2
TABLES
  0
TABLE
  2
VPORT
  5
8
330
0
100
AcDbSymbolTable
 70
     1
  0
VPORT
  5
29
330
8
100
AcDbSymbolTableRecord
100
AcDbViewportTableRecord
  2
*Active
 70
     0
 10
0.0
 20
0.0
 11
1.0
 21
1.0
 12
13.76332785761655
 22
2.979933466954883
 13
0.0
 23
0.0
 14
10.0
 24
10.0
 15
10.0
 25
10.0
 16
0.0
 26
0.0
 36
1.0
 17
0.0
 27
0.0
 37
0.0
 40
108.0215513457639
 41
2.008253094910592
 42
50.0
 43
0.0
 44
0.0
 50
0.0
 51
0.0
 71
    16
 72
  2000
 73
     1
 74
     3
 75
     0
 76
     0
 77
     0
 78
     0
281
     0
 65
     1
110
0.0
120
0.0
130
0.0
111
1.0
121
0.0
131
0.0
112
0.0
122
1.0
132
0.0
 79
     0
146
0.0
  0
ENDTAB
  0
TABLE
  2
LTYPE
  5
5
330
0
100
AcDbSymbolTable
 70
     6
  0
LTYPE
  5
14
330
5
100
AcDbSymbolTableRecord
100
AcDbLinetypeTableRecord
  2
ByBlock
 70
     0
  3

 72
    65
 73
     0
 40
0.0
  0
LTYPE
  5
15
330
5
100
AcDbSymbolTableRecord
100
AcDbLinetypeTableRecord
  2
ByLayer
 70
     0
  3

 72
    65
 73
     0
 40
0.0
  0
LTYPE
  5
16
330
5
100
AcDbSymbolTableRecord
100
AcDbLinetypeTableRecord
  2
Continuous
 70
     0
  3
Solid line
 72
    65
 73
     0
 40
0.0
  0
LTYPE
  5
6A
330
5
100
AcDbSymbolTableRecord
100
AcDbLinetypeTableRecord
  2
HIDDEN
 70
     0
  3
Hidden __ __ __ __ __ __ __ __ __ __ __ __ __ __
 72
    65
 73
     2
 40
1.905
 49
1.27
 74
     0
 49
-0.635
 74
     0
  0
LTYPE
  5
6B
330
5
100
AcDbSymbolTableRecord
100
AcDbLinetypeTableRecord
  2
PHANTOM
 70
     0
  3
Phantom ______  __  __  ______  __  __  ______
 72
    65
 73
     6
 40
12.7
 49
6.35
 74
     0
 49
-1.27
 74
     0
 49
1.27
 74
     0
 49
-1.27
 74
     0
 49
1.27
 74
     0
 49
-1.27
 74
     0
  0
LTYPE
  5
6C
330
5
100
AcDbSymbolTableRecord
100
AcDbLinetypeTableRecord
  2
CENTER
 70
     0
  3
Center ____ _ ____ _ ____ _ ____ _ ____ _ ____
 72
    65
 73
     4
 40
10.16
 49
6.35
 74
     0
 49
-1.27
 74
     0
 49
1.27
 74
     0
 49
-1.27
 74
     0
  0
LTYPE
  5
6D
330
5
100
AcDbSymbolTableRecord
100
AcDbLinetypeTableRecord
  2
CENTERX2
 70
     0
  3
Center (2x) ________  __  ________  __  _____
 72
    65
 73
     4
 40
20.32
 49
12.7
 74
     0
 49
-2.54
 74
     0
 49
2.54
 74
     0
 49
-2.54
 74
     0
  0
LTYPE
  5
6E
330
5
100
AcDbSymbolTableRecord
100
AcDbLinetypeTableRecord
  2
DOT2
 70
     0
  3
Dot (.5x) ........................................
 72
    65
 73
     2
 40
0.635
 49
0.0
 74
     0
 49
-0.635
 74
     0
  0
ENDTAB
  0
TABLE
  2
LAYER
  5
2
330
0
100
AcDbSymbolTable
 70
    18
  0
LAYER
  5
10
330
2
100
AcDbSymbolTableRecord
100
AcDbLayerTableRecord
  2
0
 70
     0
 62
     7
  6
Continuous
370
    -3
390
F
  0
LAYER
  5
6F
330
2
100
AcDbSymbolTableRecord
100
AcDbLayerTableRecord
  2
FORMAT
 70
     0
 62
     2
  6
Continuous
370
    -3
390
F
  0
LAYER
  5
70
330
2
100
AcDbSymbolTableRecord
100
AcDbLayerTableRecord
  2
외형선
 70
     0
 62
     4
  6
Continuous
370
    30
390
F
  0
LAYER
  5
71
330
2
100
AcDbSymbolTableRecord
100
AcDbLayerTableRecord
  2
숨은선
 70
     0
 62
     2
  6
HIDDEN
370
    15
390
F
  0
LAYER
  5
72
330
2
100
AcDbSymbolTableRecord
100
AcDbLayerTableRecord
  2
중심선
 70
     0
 62
     1
  6
CENTERX2
370
    -3
390
F
  0
LAYER
  5
73
330
2
100
AcDbSymbolTableRecord
100
AcDbLayerTableRecord
  2
파단선
 70
     0
 62
     4
  6
Continuous
370
    -3
390
F
  0
LAYER
  5
74
330
2
100
AcDbSymbolTableRecord
100
AcDbLayerTableRecord
  2
해칭선
 70
     0
 62
   100
  6
Continuous
370
    -3
390
F
  0
LAYER
  5
75
330
2
100
AcDbSymbolTableRecord
100
AcDbLayerTableRecord
  2
가는실선
 70
     0
 62
     4
  6
Continuous
370
    -3
390
F
  0
LAYER
  5
76
330
2
100
AcDbSymbolTableRecord
100
AcDbLayerTableRecord
  2
치수_보조선
 70
     0
 62
     4
  6
Continuous
370
    -3
390
F
  0
LAYER
  5
77
330
2
100
AcDbSymbolTableRecord
100
AcDbLayerTableRecord
  2
치수문자_일반주서
 70
     0
 62
     7
  6
Continuous
370
    15
390
F
  0
LAYER
  5
78
330
2
100
AcDbSymbolTableRecord
100
AcDbLayerTableRecord
  2
개별주서
 70
     0
 62
   100
  6
Continuous
370
    30
390
F
  0
LAYER
  5
79
330
2
100
AcDbSymbolTableRecord
100
AcDbLayerTableRecord
  2
중간선
 70
     0
 62
     2
  6
Continuous
370
    15
390
F
  0
LAYER
  5
7A
330
2
100
AcDbSymbolTableRecord
100
AcDbLayerTableRecord
  2
윤곽선
 70
     0
 62
     3
  6
Continuous
370
    40
390
F
  0
LAYER
  5
7B
330
2
100
AcDbSymbolTableRecord
100
AcDbLayerTableRecord
  2
중심마크
 70
     0
 62
   100
  6
Continuous
370
    30
390
F
  0
LAYER
  5
7C
330
2
100
AcDbSymbolTableRecord
100
AcDbLayerTableRecord
  2
가상선
 70
     0
 62
     4
  6
PHANTOM
370
    -3
390
F
  0
LAYER
  5
7D
330
2
100
AcDbSymbolTableRecord
100
AcDbLayerTableRecord
  2
특수지정선
 70
     0
 62
     5
  6
CENTERX2
370
    60
390
F
  0
LAYER
  5
7E
330
2
100
AcDbSymbolTableRecord
100
AcDbLayerTableRecord
  2
참조1
 70
     0
 62
    -4
  6
Continuous
370
    -3
390
F
  0
LAYER
  5
158
330
2
100
AcDbSymbolTableRecord
100
AcDbLayerTableRecord
  2
Defpoints
 70
     0
 62
     7
  6
Continuous
290
     0
370
    -3
390
F
  0
ENDTAB
  0
TABLE
  2
STYLE
  5
3
330
0
100
AcDbSymbolTable
 70
     2
  0
STYLE
  5
11
330
3
100
AcDbSymbolTableRecord
100
AcDbTextStyleTableRecord
  2
Standard
 70
     0
 40
0.0
 41
1.0
 50
0.0
 71
     0
 42
3.5
  3
txt
  4

  0
STYLE
  5
94
330
3
100
AcDbSymbolTableRecord
100
AcDbTextStyleTableRecord
  2
SLDTEXTSTYLE0
 70
     0
 40
0.0
 41
0.75
 50
0.0
 71
     0
 42
3.5
  3
TXT
  4

  0
ENDTAB
  0
TABLE
  2
VIEW
  5
6
330
0
100
AcDbSymbolTable
 70
     0
  0
ENDTAB
  0
TABLE
  2
UCS
  5
7
330
0
100
AcDbSymbolTable
 70
     0
  0
ENDTAB
  0
TABLE
  2
APPID
  5
9
330
0
100
AcDbSymbolTable
 70
     4
  0
APPID
  5
12
330
9
100
AcDbSymbolTableRecord
100
AcDbRegAppTableRecord
  2
ACAD
 70
     0
  0
APPID
  5
16B
330
9
100
AcDbSymbolTableRecord
100
AcDbRegAppTableRecord
  2
ACAD_DSTYLE_DIMFLIPARROW_SYMBOL
 70
     0
  0
APPID
  5
16C
330
9
100
AcDbSymbolTableRecord
100
AcDbRegAppTableRecord
  2
ACAD_DSTYLE_DIMFLIPARROW_WHICH_SYMBOL
 70
     0
  0
APPID
  5
190
330
9
100
AcDbSymbolTableRecord
100
AcDbRegAppTableRecord
  2
PE_URL
 70
     0
  0
ENDTAB
  0
TABLE
  2
DIMSTYLE
  5
A
330
0
100
AcDbSymbolTable
 70
     4
100
AcDbDimStyleTable
  0
DIMSTYLE
105
27
330
A
100
AcDbSymbolTableRecord
100
AcDbDimStyleTableRecord
  2
ISO-25
 70
     0
 41
2.5
 42
0.625
 43
3.75
 44
1.25
 73
     0
 74
     0
 77
     1
 78
     8
140
2.5
141
2.5
143
0.03937007874016
147
0.625
171
     3
172
     1
178
     0
271
     2
272
     2
274
     3
278
    44
283
     0
284
     8
340
11
  0
DIMSTYLE
105
CA
102
{ACAD_REACTORS
330
C9
330
DE
330
F1
330
104
102
}
330
A
100
AcDbSymbolTableRecord
100
AcDbDimStyleTableRecord
  2
SLDDIMSTYLE0
 70
     0
 41
3.302
 44
0.0
 45
0.000000001
 73
     0
 74
     0
 77
     1
 78
    12
 79
     3
140
3.5
143
0.0393700787401575
147
0.875
148
0.000000001
170
     1
173
     1
178
     0
271
     2
272
     2
276
     2
284
    12
340
94
  0
DIMSTYLE
105
105
330
A
100
AcDbSymbolTableRecord
100
AcDbDimStyleTableRecord
  2
SLDDIMSTYLE1
 70
     0
 41
3.302
 44
0.0
 45
0.000000001
 73
     0
 74
     0
 77
     1
 78
    12
 79
     3
140
3.5
147
0.875
172
     1
173
     1
178
     0
271
     2
272
     2
276
     2
284
    12
289
     0
340
94
  0
DIMSTYLE
105
113
102
{ACAD_REACTORS
330
112
102
}
330
A
100
AcDbSymbolTableRecord
100
AcDbDimStyleTableRecord
  2
SLDDIMSTYLE2
 70
     0
 41
3.302
 44
0.0
 45
0.000000001
 73
     0
 74
     0
 77
     1
 78
     4
 79
     1
140
3.5
143
0.0393700787401575
147
0.875
148
0.000000001
170
     1
173
     1
178
     0
271
     2
272
     2
276
     2
284
    12
340
94
  0
ENDTAB
  0
TABLE
  2
BLOCK_RECORD
  5
1
330
0
100
AcDbSymbolTable
 70
     8
  0
BLOCK_RECORD
  5
1F
102
{ACAD_XDICTIONARY
360
19A
102
}
330
1
100
AcDbSymbolTableRecord
100
AcDbBlockTableRecord
  2
*Model_Space
340
22
  0
BLOCK_RECORD
  5
1B
330
1
100
AcDbSymbolTableRecord
100
AcDbBlockTableRecord
  2
*Paper_Space
340
1E
  0
BLOCK_RECORD
  5
23
330
1
100
AcDbSymbolTableRecord
100
AcDbBlockTableRecord
  2
*Paper_Space0
340
26
  0
BLOCK_RECORD
  5
7F
330
1
100
AcDbSymbolTableRecord
100
AcDbBlockTableRecord
  2
블럭10
340
0
102
{BLKREFS
331
C2
102
}
  0
BLOCK_RECORD
  5
CB
330
1
100
AcDbSymbolTableRecord
100
AcDbBlockTableRecord
  2
_D
340
0
  0
BLOCK_RECORD
  5
DF
330
1
100
AcDbSymbolTableRecord
100
AcDbBlockTableRecord
  2
_D_1
340
0
  0
BLOCK_RECORD
  5
F2
330
1
100
AcDbSymbolTableRecord
100
AcDbBlockTableRecord
  2
_D_2
340
0
  0
BLOCK_RECORD
  5
106
330
1
100
AcDbSymbolTableRecord
100
AcDbBlockTableRecord
  2
_D_3
340
0
  0
BLOCK_RECORD
  5
114
330
1
100
AcDbSymbolTableRecord
100
AcDbBlockTableRecord
  2
_D_4
340
0
  0
BLOCK_RECORD
  5
12D
330
1
100
AcDbSymbolTableRecord
100
AcDbBlockTableRecord
  2
SW_DOWELSYMBOL_0
340
0
102
{BLKREFS
331
133
102
}
  0
ENDTAB
  0
ENDSEC
  0
SECTION
  2
BLOCKS
  0
BLOCK
  5
20
330
1F
100
AcDbEntity
  8
0
100
AcDbBlockBegin
  2
*Model_Space
 70
     0
 10
0.0
 20
0.0
 30
0.0
  3
*Model_Space
  1
*Model_Space
  0
ENDBLK
  5
21
330
1F
100
AcDbEntity
  8
0
100
AcDbBlockEnd
  0
BLOCK
  5
1C
330
1B
100
AcDbEntity
 67
     1
  8
0
100
AcDbBlockBegin
  2
*Paper_Space
 70
     0
 10
0.0
 20
0.0
 30
0.0
  3
*Paper_Space
  1
*Paper_Space
  0
ENDBLK
  5
1D
330
1B
100
AcDbEntity
 67
     1
  8
0
100
AcDbBlockEnd
  0
BLOCK
  5
24
330
23
100
AcDbEntity
  8
0
100
AcDbBlockBegin
  2
*Paper_Space0
 70
     0
 10
0.0
 20
0.0
 30
0.0
  3
*Paper_Space0
  1
*Paper_Space0
  0
ENDBLK
  5
25
330
23
100
AcDbEntity
  8
0
100
AcDbBlockEnd
  0
BLOCK
  5
80
330
7F
100
AcDbEntity
  8
0
100
AcDbBlockBegin
  2
블럭10
 70
     2
 10
0.0
 20
0.0
 30
0.0
  3
블럭10
  1
블럭10
  0
ELLIPSE
  5
82
330
7F
100
AcDbEntity
  8
중심선
100
AcDbEllipse
 10
20.54032771741204
 20
12.0471743016438
 30
0.0
 11
6.600054785286829
 21
-1.261213355974178E-13
 31
0.0
210
0.0
220
0.0
230
1.0
 40
0.636358354079598
 41
0.9219305317359503
 42
6.513795318482858
  0
ELLIPSE
  5
83
330
7F
100
AcDbEntity
  8
중심선
100
AcDbEllipse
 10
20.54032771746488
 20
12.04717430159265
 30
0.0
 11
3.960054785062283
 21
1.540847449632565E-10
 31
0.0
210
0.0
220
0.0
230
1.0
 40
0.3939339440162632
 41
1.131841032648279
 42
5.62031148352944
  0
LINE
  5
84
330
7F
100
AcDbEntity
  8
중심선
100
AcDbLine
 10
2.268634060543552
 20
16.24717430164393
 30
0.0
 11
5.714909304380834
 21
16.24717430164393
 31
0.0
  0
LINE
  5
85
330
7F
100
AcDbEntity
  8
중심선
100
AcDbLine
 10
5.245725140726316
 20
7.84717430164391
 30
0.0
 11
8.692000384563599
 21
7.84717430164391
 31
0.0
  0
LINE
  5
86
330
7F
100
AcDbEntity
  8
중심선
100
AcDbLine
 10
15.74043728645272
 20
16.24717430164393
 30
0.0
 11
8.692000384563599
 21
7.84717430164391
 31
0.0
  0
LINE
  5
87
330
7F
100
AcDbEntity
  8
중심선
100
AcDbLine
 10
0.1404042013395286
 20
13.71084872107135
 30
0.0
 11
3.58671253028996
 21
13.71088815037384
 31
0.0
  0
LINE
  5
88
330
7F
100
AcDbEntity
  8
중심선
100
AcDbLine
 10
2.750260043222114
 20
10.84717430164391
 30
0.0
 11
6.196535287059397
 21
10.84717430164391
 31
0.0
  0
LINE
  5
89
330
7F
100
AcDbEntity
  8
중심선
100
AcDbLine
 10
12.29416204261559
 20
16.24717430164393
 30
0.0
 11
5.245725140726316
 21
7.84717430164391
 31
0.0
  0
LINE
  5
8A
330
7F
100
AcDbEntity
  8
중심선
100
AcDbLine
 10
10.72767329541681
 20
16.24717430164393
 30
0.0
 11
6.196535287059397
 21
10.84717430164391
 31
0.0
  0
LINE
  5
8B
330
7F
100
AcDbEntity
  8
중심선
100
AcDbLine
 10
7.28139805157953
 20
16.24717430164393
 30
0.0
 11
2.750260043222114
 21
10.84717430164391
 31
0.0
  0
LINE
  5
8C
330
7F
100
AcDbEntity
  8
중심선
100
AcDbLine
 10
5.714909304380834
 20
16.24717430164393
 30
0.0
 11
3.58671253028996
 21
13.71088815037384
 31
0.0
  0
LINE
  5
8D
330
7F
100
AcDbEntity
  8
중심선
100
AcDbLine
 10
2.268634060543552
 20
16.24717430164393
 30
0.0
 11
0.1404042013395286
 21
13.71084872107135
 31
0.0
  0
LINE
  5
8E
330
7F
100
AcDbEntity
  8
중심선
100
AcDbLine
 10
7.28139805157953
 20
16.24717430164393
 30
0.0
 11
10.72767329541681
 21
16.24717430164393
 31
0.0
  0
LINE
  5
8F
330
7F
100
AcDbEntity
  8
중심선
100
AcDbLine
 10
12.29416204261559
 20
16.24717430164393
 30
0.0
 11
15.74043728645272
 21
16.24717430164393
 31
0.0
  0
LINE
  5
90
330
7F
100
AcDbEntity
  8
중심선
100
AcDbLine
 10
19.22036997980202
 20
11.08717430171403
 30
0.0
 11
23.66174974927406
 21
11.08717430171406
 31
0.0
  0
LINE
  5
91
330
7F
100
AcDbEntity
  8
중심선
100
AcDbLine
 10
19.22039502424796
 20
13.00717430171391
 30
0.0
 11
19.22036997980202
 21
11.08717430171403
 31
0.0
  0
LINE
  5
92
330
7F
100
AcDbEntity
  8
중심선
100
AcDbLine
 10
19.22039502424796
 20
13.00717430171391
 30
0.0
 11
26.96566020931264
 21
13.00717430171391
 31
0.0
  0
LINE
  5
93
330
7F
100
AcDbEntity
  8
중심선
100
AcDbLine
 10
22.22332737316547
 20
13.45928029700563
 30
0.0
 11
24.52862924686651
 21
15.39360700705356
 31
0.0
  0
ATTDEF
  5
95
330
7F
100
AcDbEntity
  8
FORMAT
 62
     2
100
AcDbText
 10
3.448148490846466
 20
2.075366912832191
 30
0.0
 40
4.233333333333333
  1
EM963032
 41
0.75
  7
SLDTEXTSTYLE0
 11
3.448148490846466
 21
-0.0412997538344756
 31
0.0
100
AcDbAttributeDefinition
  3

  2
AUTOATTR0
 70
     0
 74
     1
  0
ENDBLK
  5
81
330
7F
100
AcDbEntity
  8
0
100
AcDbBlockEnd
  0
BLOCK
  5
CC
330
CB
100
AcDbEntity
  8
0
100
AcDbBlockBegin
  2
_D
 70
     0
 10
0.0
 20
0.0
 30
0.0
  3
_D
  1
_D
  0
LINE
  5
CE
330
CB
100
AcDbEntity
  8
치수문자_일반주서
 62
     0
370
    -2
100
AcDbLine
 10
86.22847458232093
 20
2.186157301112667
 30
0.0
 11
86.22847458232093
 21
22.09511459147407
 31
0.0
  0
LINE
  5
CF
330
CB
100
AcDbEntity
  8
치수문자_일반주서
 62
     0
370
    -2
100
AcDbLine
 10
64.00347458232092
 20
2.460324099729804
 30
0.0
 11
64.00347458232092
 21
22.09511459147407
 31
0.0
  0
LINE
  5
D0
330
CB
100
AcDbEntity
  8
치수문자_일반주서
 62
     0
370
    -2
100
AcDbLine
 10
82.92647458232094
 20
22.09511459147407
 30
0.0
 11
67.30547458232093
 21
22.09511459147407
 31
0.0
  0
SOLID
  5
D1
330
CB
100
AcDbEntity
  8
치수문자_일반주서
 62
     0
100
AcDbTrace
 10
82.92647458232094
 20
21.54478125814073
 30
0.0
 11
82.92647458232094
 21
22.6454479248074
 31
0.0
 12
86.22847458232093
 22
22.09511459147407
 32
0.0
 13
86.22847458232093
 23
22.09511459147407
 33
0.0
  0
SOLID
  5
D2
330
CB
100
AcDbEntity
  8
치수문자_일반주서
 62
     0
100
AcDbTrace
 10
67.30547458232093
 20
22.6454479248074
 30
0.0
 11
67.30547458232093
 21
21.54478125814073
 31
0.0
 12
64.00347458232092
 22
22.09511459147407
 32
0.0
 13
64.00347458232092
 23
22.09511459147407
 33
0.0
  0
MTEXT
  5
D3
330
CB
100
AcDbEntity
  8
치수문자_일반주서
 62
     0
100
AcDbMText
 10
75.11597458232092
 20
26.47011459147407
 30
0.0
 40
3.5
 41
0.0
 71
     2
 72
     1
  1
\A1;22.23 [7/8]
  7
SLDTEXTSTYLE0
 73
     1
 44
1.0
  0
POINT
  5
D4
330
CB
100
AcDbEntity
  8
Defpoints
 62
     0
100
AcDbPoint
 10
86.22847458232093
 20
2.123657301112667
 30
0.0
  0
POINT
  5
D5
330
CB
100
AcDbEntity
  8
Defpoints
 62
     0
100
AcDbPoint
 10
64.00347458232092
 20
2.397824099729804
 30
0.0
  0
POINT
  5
D6
330
CB
100
AcDbEntity
  8
Defpoints
 62
     0
100
AcDbPoint
 10
64.00347458232092
 20
22.09511459147407
 30
0.0
  0
ENDBLK
  5
CD
330
CB
100
AcDbEntity
  8
0
100
AcDbBlockEnd
  0
BLOCK
  5
E0
330
DF
100
AcDbEntity
  8
0
100
AcDbBlockBegin
  2
_D_1
 70
     0
 10
0.0
 20
0.0
 30
0.0
  3
_D_1
  1
_D_1
  0
LINE
  5
E2
330
DF
100
AcDbEntity
  8
치수문자_일반주서
 62
     0
370
    -2
100
AcDbLine
 10
3.678474582320924
 20
7.909025417679069
 30
0.0
 11
3.678474582320916
 21
33.62718174806673
 31
0.0
  0
LINE
  5
E3
330
DF
100
AcDbEntity
  8
치수문자_일반주서
 62
     0
370
    -2
100
AcDbLine
 10
86.22847458232093
 20
2.186157301112667
 30
0.0
 11
86.22847458232093
 21
33.62718174806673
 31
0.0
  0
LINE
  5
E4
330
DF
100
AcDbEntity
  8
치수문자_일반주서
 62
     0
370
    -2
100
AcDbLine
 10
6.980474582320916
 20
33.62718174806673
 30
0.0
 11
82.92647458232094
 21
33.62718174806673
 31
0.0
  0
SOLID
  5
E5
330
DF
100
AcDbEntity
  8
치수문자_일반주서
 62
     0
100
AcDbTrace
 10
6.980474582320916
 20
34.17751508140007
 30
0.0
 11
6.980474582320916
 21
33.0768484147334
 31
0.0
 12
3.678474582320916
 22
33.62718174806673
 32
0.0
 13
3.678474582320916
 23
33.62718174806673
 33
0.0
  0
SOLID
  5
E6
330
DF
100
AcDbEntity
  8
치수문자_일반주서
 62
     0
100
AcDbTrace
 10
82.92647458232094
 20
33.0768484147334
 30
0.0
 11
82.92647458232094
 21
34.17751508140007
 31
0.0
 12
86.22847458232093
 22
33.62718174806673
 32
0.0
 13
86.22847458232093
 23
33.62718174806673
 33
0.0
  0
MTEXT
  5
E7
330
DF
100
AcDbEntity
  8
치수문자_일반주서
 62
     0
100
AcDbMText
 10
44.95347458232092
 20
38.00218174806673
 30
0.0
 40
3.5
 41
0.0
 71
     2
 72
     1
  1
\A1;82.55 [3 1/4]
  7
SLDTEXTSTYLE0
 73
     1
 44
1.0
  0
POINT
  5
E8
330
DF
100
AcDbEntity
  8
Defpoints
 62
     0
100
AcDbPoint
 10
3.678474582320924
 20
7.846525417679069
 30
0.0
  0
POINT
  5
E9
330
DF
100
AcDbEntity
  8
Defpoints
 62
     0
100
AcDbPoint
 10
86.22847458232093
 20
2.123657301112667
 30
0.0
  0
POINT
  5
EA
330
DF
100
AcDbEntity
  8
Defpoints
 62
     0
100
AcDbPoint
 10
86.22847458232093
 20
33.62718174806673
 30
0.0
  0
ENDBLK
  5
E1
330
DF
100
AcDbEntity
  8
0
100
AcDbBlockEnd
  0
BLOCK
  5
F3
330
F2
100
AcDbEntity
  8
0
100
AcDbBlockBegin
  2
_D_2
 70
     0
 10
0.0
 20
0.0
 30
0.0
  3
_D_2
  1
_D_2
  0
LINE
  5
F5
330
F2
100
AcDbEntity
  8
치수문자_일반주서
 62
     0
370
    -2
100
AcDbLine
 10
86.22847458232093
 20
2.186157301112667
 30
0.0
 11
86.22847458232093
 21
51.55667432272149
 31
0.0
  0
LINE
  5
F6
330
F2
100
AcDbEntity
  8
치수문자_일반주서
 62
     0
370
    -2
100
AcDbLine
 10
-75.69652541767908
 20
8.58749999999998
 30
0.0
 11
-75.69652541767908
 21
51.55667432272149
 31
0.0
  0
LINE
  5
F7
330
F2
100
AcDbEntity
  8
치수문자_일반주서
 62
     0
370
    -2
100
AcDbLine
 10
82.92647458232094
 20
51.55667432272149
 30
0.0
 11
-72.39452541767909
 21
51.55667432272149
 31
0.0
  0
SOLID
  5
F8
330
F2
100
AcDbEntity
  8
치수문자_일반주서
 62
     0
100
AcDbTrace
 10
82.92647458232094
 20
51.00634098938816
 30
0.0
 11
82.92647458232094
 21
52.10700765605483
 31
0.0
 12
86.22847458232093
 22
51.55667432272149
 32
0.0
 13
86.22847458232093
 23
51.55667432272149
 33
0.0
  0
SOLID
  5
F9
330
F2
100
AcDbEntity
  8
치수문자_일반주서
 62
     0
100
AcDbTrace
 10
-72.39452541767909
 20
52.10700765605483
 30
0.0
 11
-72.39452541767909
 21
51.00634098938816
 31
0.0
 12
-75.69652541767908
 22
51.55667432272149
 32
0.0
 13
-75.69652541767908
 23
51.55667432272149
 33
0.0
  0
MTEXT
  5
FA
330
F2
100
AcDbEntity
  8
치수문자_일반주서
 62
     0
100
AcDbMText
 10
5.265974582320893
 20
55.93167432272149
 30
0.0
 40
3.5
 41
0.0
 71
     2
 72
     1
  1
\A1;161.93 [6 3/8]
  7
SLDTEXTSTYLE0
 73
     1
 44
1.0
  0
POINT
  5
FB
330
F2
100
AcDbEntity
  8
Defpoints
 62
     0
100
AcDbPoint
 10
86.22847458232093
 20
2.123657301112667
 30
0.0
  0
POINT
  5
FC
330
F2
100
AcDbEntity
  8
Defpoints
 62
     0
100
AcDbPoint
 10
-75.69652541767908
 20
8.52499999999998
 30
0.0
  0
POINT
  5
FD
330
F2
100
AcDbEntity
  8
Defpoints
 62
     0
100
AcDbPoint
 10
-75.69652541767908
 20
51.55667432272149
 30
0.0
  0
ENDBLK
  5
F4
330
F2
100
AcDbEntity
  8
0
100
AcDbBlockEnd
  0
BLOCK
  5
107
330
106
100
AcDbEntity
  8
0
100
AcDbBlockBegin
  2
_D_3
 70
     0
 10
0.0
 20
0.0
 30
0.0
  3
_D_3
  1
_D_3
  0
LINE
  5
109
330
106
100
AcDbEntity
  8
치수문자_일반주서
 62
     0
370
    -2
100
AcDbLine
 10
-74.75902541767908
 20
9.524999999999997
 30
0.0
 11
-86.73400268243343
 21
9.52499999999995
 31
0.0
  0
LINE
  5
10A
330
106
100
AcDbEntity
  8
치수문자_일반주서
 62
     0
370
    -2
100
AcDbLine
 10
-74.75902541767908
 20
-9.525000000000006
 30
0.0
 11
-86.73400268243336
 21
-9.525000000000052
 31
0.0
  0
LINE
  5
10B
330
106
100
AcDbEntity
  8
치수문자_일반주서
 62
     0
370
    -2
100
AcDbLine
 10
-86.73400268243341
 20
6.222999999999951
 30
0.0
 11
-86.73400268243337
 21
-6.223000000000052
 31
0.0
  0
SOLID
  5
10C
330
106
100
AcDbEntity
  8
치수문자_일반주서
 62
     0
100
AcDbTrace
 10
-86.18366934910009
 20
6.222999999999953
 30
0.0
 11
-87.28433601576674
 21
6.222999999999949
 31
0.0
 12
-86.73400268243343
 22
9.52499999999995
 32
0.0
 13
-86.73400268243343
 23
9.52499999999995
 33
0.0
  0
SOLID
  5
10D
330
106
100
AcDbEntity
  8
치수문자_일반주서
 62
     0
100
AcDbTrace
 10
-87.2843360157667
 20
-6.223000000000054
 30
0.0
 11
-86.18366934910004
 21
-6.22300000000005
 31
0.0
 12
-86.73400268243336
 22
-9.525000000000052
 32
0.0
 13
-86.73400268243336
 23
-9.525000000000052
 33
0.0
  0
MTEXT
  5
10E
330
106
100
AcDbEntity
  8
치수문자_일반주서
 62
     0
100
AcDbMText
 10
-91.10900268243338
 20
-0.5067612854770601
 30
0.0
 40
3.5
 41
0.0
 71
     2
 72
     1
  1
\A1;%%c19.05 [3/4]
  7
SLDTEXTSTYLE0
 11
-3.729883127349607E-15
 21
1.0
 31
0.0
 73
     1
 44
1.0
  0
POINT
  5
10F
330
106
100
AcDbEntity
  8
Defpoints
 62
     0
100
AcDbPoint
 10
-74.69652541767908
 20
9.524999999999997
 30
0.0
  0
POINT
  5
110
330
106
100
AcDbEntity
  8
Defpoints
 62
     0
100
AcDbPoint
 10
-74.69652541767908
 20
-9.525000000000006
 30
0.0
  0
POINT
  5
111
330
106
100
AcDbEntity
  8
Defpoints
 62
     0
100
AcDbPoint
 10
-86.73400268243336
 20
-9.52500000000005
 30
0.0
  0
ENDBLK
  5
108
330
106
100
AcDbEntity
  8
0
100
AcDbBlockEnd
  0
BLOCK
  5
115
330
114
100
AcDbEntity
  8
0
100
AcDbBlockBegin
  2
_D_4
 70
     0
 10
0.0
 20
0.0
 30
0.0
  3
_D_4
  1
_D_4
  0
LINE
  5
117
330
114
100
AcDbEntity
  8
치수문자_일반주서
 62
     0
370
    -2
100
AcDbLine
 10
62.03591157975337
 20
6.350000000000014
 30
0.0
 11
104.2186356243683
 21
6.350000000000168
 31
0.0
  0
LINE
  5
118
330
114
100
AcDbEntity
  8
치수문자_일반주서
 62
     0
370
    -2
100
AcDbLine
 10
62.03591157975337
 20
-6.349999999999985
 30
0.0
 11
104.2186356243684
 21
-6.349999999999827
 31
0.0
  0
LINE
  5
119
330
114
100
AcDbEntity
  8
치수문자_일반주서
 62
     0
370
    -2
100
AcDbLine
 10
104.2186356243683
 20
6.350000000000168
 30
0.0
 11
104.2186356243682
 21
36.77700000000016
 31
0.0
  0
LINE
  5
11A
330
114
100
AcDbEntity
  8
치수문자_일반주서
 62
     0
370
    -2
100
AcDbLine
 10
104.2186356243683
 20
6.350000000000168
 30
0.0
 11
104.2186356243684
 21
-6.349999999999827
 31
0.0
  0
LINE
  5
11B
330
114
100
AcDbEntity
  8
치수문자_일반주서
 62
     0
370
    -2
100
AcDbLine
 10
104.2186356243683
 20
9.652000000000168
 30
0.0
 11
104.2186356243683
 21
12.95400000000017
 31
0.0
  0
LINE
  5
11C
330
114
100
AcDbEntity
  8
치수문자_일반주서
 62
     0
370
    -2
100
AcDbLine
 10
104.2186356243684
 20
-9.651999999999827
 30
0.0
 11
104.2186356243684
 21
-12.95399999999983
 31
0.0
  0
SOLID
  5
11D
330
114
100
AcDbEntity
  8
치수문자_일반주서
 62
     0
100
AcDbTrace
 10
103.668302291035
 20
9.652000000000166
 30
0.0
 11
104.7689689577017
 21
9.65200000000017
 31
0.0
 12
104.2186356243683
 22
6.350000000000168
 32
0.0
 13
104.2186356243683
 23
6.350000000000168
 33
0.0
  0
SOLID
  5
11E
330
114
100
AcDbEntity
  8
치수문자_일반주서
 62
     0
100
AcDbTrace
 10
104.7689689577017
 20
-9.651999999999825
 30
0.0
 11
103.6683022910351
 21
-9.651999999999829
 31
0.0
 12
104.2186356243684
 22
-6.349999999999827
 32
0.0
 13
104.2186356243684
 23
-6.349999999999827
 33
0.0
  0
MTEXT
  5
11F
330
114
100
AcDbEntity
  8
치수문자_일반주서
 62
     0
100
AcDbMText
 10
99.84363562436829
 20
23.43325000000015
 30
0.0
 40
3.5
 41
0.0
 71
     2
 72
     1
  1
\A1;%%c12.70 [1/2]
  7
SLDTEXTSTYLE0
 11
-3.356894814614647E-15
 21
1.0
 31
0.0
 73
     1
 44
1.0
  0
POINT
  5
159
330
114
100
AcDbEntity
  8
Defpoints
 62
     0
100
AcDbPoint
 10
61.97341157975337
 20
6.350000000000014
 30
0.0
  0
POINT
  5
15A
330
114
100
AcDbEntity
  8
Defpoints
 62
     0
100
AcDbPoint
 10
61.97341157975337
 20
-6.349999999999985
 30
0.0
  0
POINT
  5
15B
330
114
100
AcDbEntity
  8
Defpoints
 62
     0
100
AcDbPoint
 10
104.2186356243684
 20
-6.349999999999827
 30
0.0
  0
ENDBLK
  5
116
330
114
100
AcDbEntity
  8
0
100
AcDbBlockEnd
  0
BLOCK
  5
12E
330
12D
100
AcDbEntity
  8
0
100
AcDbBlockBegin
  2
SW_DOWELSYMBOL_0
 70
     0
 10
0.0
 20
0.0
 30
0.0
  3
SW_DOWELSYMBOL_0
  1
SW_DOWELSYMBOL_0
  0
CIRCLE
  5
130
330
12D
100
AcDbEntity
  8
해칭선
 62
     0
100
AcDbCircle
 10
0.0
 20
0.0
 30
0.0
 40
3.000000000000008
  0
HATCH
  5
131
330
12D
100
AcDbEntity
  8
0
  6
Continuous
 62
     0
370
     0
100
AcDbHatch
 10
0.0
 20
0.0
 30
0.0
210
0.0
220
0.0
230
1.0
  2
SOLID
 70
     1
 71
     0
 91
        1
 92
        0
 93
        3
 72
     2
 10
0.0
 20
0.0
 40
3.000000000000008
 50
0.0
 51
90.0
 73
     1
 72
     1
 10
0.0
 20
3.000000000000008
 11
0.0
 21
0.0
 72
     1
 10
0.0
 20
0.0
 11
3.00000000000001
 21
0.0
 97
        0
 75
     0
 76
     1
 98
        1
 10
0.0
 20
0.0
  0
HATCH
  5
132
330
12D
100
AcDbEntity
  8
0
  6
Continuous
 62
     0
370
     0
100
AcDbHatch
 10
0.0
 20
0.0
 30
0.0
210
0.0
220
0.0
230
1.0
  2
SOLID
 70
     1
 71
     0
 91
        1
 92
        0
 93
        3
 72
     2
 10
0.0
 20
0.0
 40
3.000000000000008
 50
180.0
 51
270.0000000000007
 73
     1
 72
     1
 10
0.0
 20
-3.000000000000008
 11
0.0
 21
0.0
 72
     1
 10
0.0
 20
0.0
 11
-3.000000000000003
 21
0.0
 97
        0
 75
     0
 76
     1
 98
        1
 10
0.0
 20
0.0
  0
ENDBLK
  5
12F
330
12D
100
AcDbEntity
  8
0
100
AcDbBlockEnd
  0
ENDSEC
  0
SECTION
  2
ENTITIES
  0
LINE
  5
98
330
1F
100
AcDbEntity
  8
외형선
  6
Continuous
370
    15
100
AcDbLine
 10
2.08566167756681
 20
9.525
 30
0.0
 11
-74.69652541767908
 21
9.524999999999999
 31
0.0
  0
LINE
  5
99
330
1F
100
AcDbEntity
  8
외형선
  6
Continuous
370
    15
100
AcDbLine
 10
-74.69652541767908
 20
-9.525000000000006
 30
0.0
 11
2.085661677566804
 21
-9.524999999999997
 31
0.0
  0
LINE
  5
9A
330
1F
100
AcDbEntity
  8
외형선
  6
Continuous
370
    15
100
AcDbLine
 10
-74.69652541767908
 20
9.524999999999997
 30
0.0
 11
-75.69652541767908
 21
8.524999999999997
 31
0.0
  0
LINE
  5
9B
330
1F
100
AcDbEntity
  8
외형선
  6
Continuous
370
    15
100
AcDbLine
 10
-75.69652541767908
 20
-8.525000000000006
 30
0.0
 11
-74.69652541767908
 21
-9.525000000000007
 31
0.0
  0
LINE
  5
9C
330
1F
100
AcDbEntity
  8
외형선
  6
Continuous
370
    15
100
AcDbLine
 10
61.97341157975337
 20
6.350000000000014
 30
0.0
 11
60.82847458232091
 21
6.350000000000014
 31
0.0
  0
LINE
  5
9D
330
1F
100
AcDbEntity
  8
외형선
  6
Continuous
370
    15
100
AcDbLine
 10
60.82847458232091
 20
-6.349999999999985
 30
0.0
 11
61.97341157975337
 21
-6.349999999999985
 31
0.0
  0
ARC
  5
9E
330
1F
100
AcDbEntity
  8
외형선
  6
Continuous
 62
     1
370
    15
100
AcDbCircle
 10
79.8784745823209
 20
0.000000000000014
 30
0.0
 40
6.350000000000009
100
AcDbArc
 50
320.987930990735
 51
0.0
  0
ARC
  5
9F
330
1F
100
AcDbEntity
  8
외형선
  6
Continuous
 62
     1
370
    15
100
AcDbCircle
 10
79.8784745823209
 20
0.000000000000014
 30
0.0
 40
6.350000000000009
100
AcDbArc
 50
0.0
 51
39.08312996001047
  0
LINE
  5
A0
330
1F
100
AcDbEntity
  8
외형선
  6
Continuous
370
    15
100
AcDbLine
 10
60.82847458232091
 20
6.350000000000014
 30
0.0
 11
60.82847458232091
 21
-6.349999999999985
 31
0.0
  0
LINE
  5
A2
330
1F
100
AcDbEntity
  8
외형선
  6
Continuous
370
    15
100
AcDbLine
 10
-74.69652541767908
 20
9.524999999999999
 30
0.0
 11
-74.69652541767908
 21
-9.525000000000006
 31
0.0
  0
LINE
  5
A3
330
1F
100
AcDbEntity
  8
외형선
  6
Continuous
370
    15
100
AcDbLine
 10
-75.69652541767908
 20
8.524999999999999
 30
0.0
 11
-75.69652541767908
 21
-8.524999999999997
 31
0.0
  0
LINE
  5
A4
330
1F
100
AcDbEntity
  8
외형선
  6
Continuous
370
    15
100
AcDbLine
 10
61.97341157975337
 20
6.325272513059151
 30
0.0
 11
61.97341157975337
 21
6.350000000000014
 31
0.0
  0
SPLINE
  5
A5
330
1F
100
AcDbEntity
  8
외형선
  6
Continuous
370
    15
100
AcDbSpline
210
0.0
220
0.0
230
1.0
 70
     8
 71
     3
 72
    10
 73
     6
 74
     0
 42
0.000000001
 43
0.00000001
 40
0.0
 40
0.0
 40
0.0
 40
0.0
 40
0.5
 40
0.5
 40
1.0
 40
1.0
 40
1.0
 40
1.0
 10
64.0034745823209
 20
6.11508224005725
 30
0.0
 10
63.66433438313599
 20
6.167776712609261
 30
0.0
 10
63.32730044164042
 20
6.211672488307658
 30
0.0
 10
62.65230431497781
 20
6.281800267411803
 30
0.0
 10
62.31278660529494
 20
6.308058648837246
 30
0.0
 10
61.97341157975337
 20
6.32529458462848
 30
0.0
  0
LINE
  5
A6
330
1F
100
AcDbEntity
  8
외형선
  6
Continuous
370
    15
100
AcDbLine
 10
64.0034745823209
 20
6.115082240057247
 30
0.0
 11
64.0034745823209
 21
2.397824099729798
 31
0.0
  0
SPLINE
  5
A7
330
1F
100
AcDbEntity
  8
외형선
  6
Continuous
370
    15
100
AcDbSpline
210
0.0
220
0.0
230
1.0
 70
     8
 71
     3
 72
    10
 73
     6
 74
     0
 42
0.000000001
 43
0.00000001
 40
0.0
 40
0.0
 40
0.0
 40
0.0
 40
0.5
 40
0.5
 40
1.0
 40
1.0
 40
1.0
 40
1.0
 10
61.97346665208408
 20
3.436416570808638
 30
0.0
 10
62.3128325146111
 20
3.271951530556733
 30
0.0
 10
62.65234093582621
 20
3.102564185788526
 30
0.0
 10
63.3273185885272
 20
2.756155884836649
 30
0.0
 10
63.66434355550646
 20
2.578881370577089
 30
0.0
 10
64.0034745823209
 20
2.397824099729802
 30
0.0
  0
SPLINE
  5
A8
330
1F
100
AcDbEntity
  8
외형선
  6
Continuous
370
    15
100
AcDbSpline
210
0.0
220
0.0
230
1.0
 70
     8
 71
     3
 72
    10
 73
     6
 74
     0
 42
0.000000001
 43
0.00000001
 40
0.0
 40
0.0
 40
0.0
 40
0.0
 40
0.5
 40
0.5
 40
1.0
 40
1.0
 40
1.0
 40
1.0
 10
64.0034745823209
 20
-6.11508224005722
 30
0.0
 10
63.66433438313599
 20
-6.167776712609232
 30
0.0
 10
63.32730044164042
 20
-6.211672488307628
 30
0.0
 10
62.65230431497781
 20
-6.281800267411775
 30
0.0
 10
62.31278660529494
 20
-6.308058648837219
 30
0.0
 10
61.97341157975337
 20
-6.325294584628453
 30
0.0
  0
LINE
  5
A9
330
1F
100
AcDbEntity
  8
외형선
  6
Continuous
370
    15
100
AcDbLine
 10
61.97341157975337
 20
-6.349999999999985
 30
0.0
 11
61.97341157975338
 21
3.436648650631889
 31
0.0
  0
SPLINE
  5
AA
330
1F
100
AcDbEntity
  8
외형선
  6
Continuous
370
    15
100
AcDbSpline
210
0.0
220
0.0
230
1.0
 70
     8
 71
     3
 72
    10
 73
     6
 74
     0
 42
0.000000001
 43
0.00000001
 40
0.0
 40
0.0
 40
0.0
 40
0.0
 40
0.5
 40
0.5
 40
1.0
 40
1.0
 40
1.0
 40
1.0
 10
64.0034745823209
 20
-1.916937610209183
 30
0.0
 10
63.66433438313599
 20
-1.850740199710229
 30
0.0
 10
63.32730044164042
 20
-1.78195625236465
 30
0.0
 10
62.65230431497781
 20
-1.639477663685412
 30
0.0
 10
62.31278660529494
 20
-1.565665888703947
 30
0.0
 10
61.97341157975337
 20
-1.489739895671148
 30
0.0
  0
SPLINE
  5
AB
330
1F
100
AcDbEntity
  8
외형선
  6
Continuous
370
    15
100
AcDbSpline
210
0.0
220
0.0
230
1.0
 70
    24
 71
     3
 72
    14
 73
    10
 74
     0
 42
0.000000001
 43
0.00000001
 40
0.0
 40
0.0
 40
0.0
 40
0.0
 40
0.25
 40
0.25
 40
0.5
 40
0.5
 40
0.75
 40
0.75
 40
1.0
 40
1.0
 40
1.0
 40
1.0
 10
64.0034745823209
 20
2.397824099726837
 30
0.0
 10
64.0034745823209
 20
2.254054642024399
 30
0.0
 10
64.0034745823209
 20
2.018944328910398
 30
0.0
 10
64.0034745823209
 20
1.407762665468784
 30
0.0
 10
64.0034745823209
 20
1.032966449905316
 30
0.0
 10
64.0034745823209
 20
0.2198470758079403
 30
0.0
 10
64.0034745823209
 20
-0.2173260752903648
 30
0.0
 10
64.0034745823209
 20
-1.083832968454568
 30
0.0
 10
64.0034745823209
 20
-1.512884072701187
 30
0.0
 10
64.0034745823209
 20
-1.916937610209186
 30
0.0
  0
SPLINE
  5
AC
330
1F
100
AcDbEntity
  8
외형선
  6
Continuous
370
    15
100
AcDbSpline
210
0.0
220
0.0
230
1.0
 70
    24
 71
     3
 72
    14
 73
    10
 74
     0
 42
0.000000001
 43
0.00000001
 40
0.0
 40
0.0
 40
0.0
 40
0.0
 40
0.2499999999999999
 40
0.2499999999999999
 40
0.4999999999999998
 40
0.4999999999999998
 40
0.7499999999999999
 40
0.7499999999999999
 40
1.0
 40
1.0
 40
1.0
 40
1.0
 10
64.0034745823209
 20
-1.916937610209183
 30
0.0
 10
64.0034745823209
 20
-2.010145664402621
 30
0.0
 10
64.0034745823209
 20
-2.158250715814921
 30
0.0
 10
64.0034745823209
 20
-2.59549960422167
 30
0.0
 10
64.0034745823209
 20
-2.885483332132196
 30
0.0
 10
64.0034745823209
 20
-3.611940528350214
 30
0.0
 10
64.0034745823209
 20
-4.048758992309782
 30
0.0
 10
64.0034745823209
 20
-5.026146440671592
 30
0.0
 10
64.0034745823209
 20
-5.565811479668142
 30
0.0
 10
64.0034745823209
 20
-6.115082240045301
 30
0.0
  0
SPLINE
  5
AD
330
1F
100
AcDbEntity
  8
외형선
  6
Continuous
 62
     1
370
    15
100
AcDbSpline
210
0.0
220
0.0
230
1.0
 70
     8
 71
     3
 72
    32
 73
    28
 74
     0
 42
0.000000001
 43
0.00000001
 40
0.0
 40
0.0
 40
0.0
 40
0.0
 40
0.1249999999999993
 40
0.1249999999999993
 40
0.187499999999999
 40
0.187499999999999
 40
0.2499999999999987
 40
0.2499999999999987
 40
0.374999999999999
 40
0.374999999999999
 40
0.4374999999999991
 40
0.4374999999999991
 40
0.4999999999999991
 40
0.4999999999999991
 40
0.5624999999999992
 40
0.5624999999999992
 40
0.6249999999999993
 40
0.6249999999999993
 40
0.6874999999999994
 40
0.6874999999999994
 40
0.7499999999999996
 40
0.7499999999999996
 40
0.8124999999999997
 40
0.8124999999999997
 40
0.8749999999999998
 40
0.8749999999999998
 40
1.0
 40
1.0
 40
1.0
 40
1.0
 10
79.8784745823209
 20
-0.9203945059739995
 30
0.0
 10
80.23425398036207
 20
-1.123556055077303
 30
0.0
 10
80.58279548497705
 20
-1.320198266023435
 30
0.0
 10
81.1013642211256
 20
-1.594981494170692
 30
0.0
 10
81.27351324451104
 20
-1.683180531666167
 30
0.0
 10
81.61764620309924
 20
-1.850402156688712
 30
0.0
 10
81.79035648750056
 20
-1.929692754842937
 30
0.0
 10
82.300174150282
 20
-2.143299569165511
 30
0.0
 10
82.63159585188825
 20
-2.25612752870894
 30
0.0
 10
83.12485303219347
 20
-2.360801621769473
 30
0.0
 10
83.28878004751934
 20
-2.384573662022765
 30
0.0
 10
83.60772431626737
 20
-2.404284266822731
 30
0.0
 10
83.76389127852093
 20
-2.400574382174626
 30
0.0
 10
84.07092442614237
 20
-2.360445986023697
 30
0.0
 10
84.2225500568083
 20
-2.323196799001154
 30
0.0
 10
84.51017471070162
 20
-2.211558576292763
 30
0.0
 10
84.64757969038718
 20
-2.13727441891617
 30
0.0
 10
84.90937928914309
 20
-1.944045267569448
 30
0.0
 10
85.02936306474169
 20
-1.828180515009344
 30
0.0
 10
85.24567882978843
 20
-1.556325609078534
 30
0.0
 10
85.34230706728954
 20
-1.398602910889448
 30
0.0
 10
85.50017423212586
 20
-1.058606829722567
 30
0.0
 10
85.56372445750381
 20
-0.8719395971982931
 30
0.0
 10
85.65470032868686
 20
-0.4830198701364721
 30
0.0
 10
85.68225207720545
 20
-0.2827274132346247
 30
0.0
 10
85.71480861184088
 20
0.3333142833596174
 30
0.0
 10
85.66936331946229
 20
0.7405143479515947
 30
0.0
 10
85.57126070995491
 20
1.13877970577052
 30
0.0
  0
SPLINE
  5
AE
330
1F
100
AcDbEntity
  8
외형선
  6
Continuous
 62
     1
370
    15
100
AcDbSpline
210
0.0
220
0.0
230
1.0
 70
     8
 71
     3
 72
    34
 73
    30
 74
     0
 42
0.000000001
 43
0.00000001
 40
0.0
 40
0.0
 40
0.0
 40
0.0
 40
0.0624999999999999
 40
0.0624999999999999
 40
0.1249999999999999
 40
0.1249999999999999
 40
0.2499999999999998
 40
0.2499999999999998
 40
0.3124999999999997
 40
0.3124999999999997
 40
0.3749999999999997
 40
0.3749999999999997
 40
0.4374999999999996
 40
0.4374999999999996
 40
0.4999999999999996
 40
0.4999999999999996
 40
0.5624999999999996
 40
0.5624999999999996
 40
0.6249999999999994
 40
0.6249999999999994
 40
0.7499999999999994
 40
0.7499999999999994
 40
0.8124999999999994
 40
0.8124999999999994
 40
0.8749999999999997
 40
0.8749999999999997
 40
0.9374999999999998
 40
0.9374999999999998
 40
1.0
 40
1.0
 40
1.0
 40
1.0
 10
79.87847458232093
 20
-0.9203945059740023
 30
0.0
 10
79.5475461190124
 20
-0.7314236447653464
 30
0.0
 10
79.21923774408407
 20
-0.5417058029086903
 30
0.0
 10
78.5580882159345
 20
-0.1604504593379022
 30
0.0
 10
78.22604216363084
 20
0.0309365464419523
 30
0.0
 10
77.2315615452296
 20
0.6038753505475195
 30
0.0
 10
76.57424571972263
 20
0.9835398120310396
 30
0.0
 10
75.57932611414063
 20
1.543668552180921
 30
0.0
 10
75.2475900967213
 20
1.728547532954167
 30
0.0
 10
74.58796082990946
 20
2.092416208501842
 30
0.0
 10
74.2586890285852
 20
2.271667876229992
 30
0.0
 10
73.59595536038589
 20
2.624273957635944
 30
0.0
 10
73.2638386379345
 20
2.797377948993005
 30
0.0
 10
72.6021558780007
 20
3.135088032288115
 30
0.0
 10
72.27388863984302
 20
3.299491827435175
 30
0.0
 10
71.61253746777689
 20
3.619717023147889
 30
0.0
 10
71.28046140945685
 20
3.775353648686873
 30
0.0
 10
70.61755716442403
 20
4.075753319030058
 30
0.0
 10
70.28780534312469
 20
4.22036504903343
 30
0.0
 10
69.29909825234822
 20
4.636431712967639
 30
0.0
 10
68.63177292968467
 20
4.891157438381827
 30
0.0
 10
67.64274094743513
 20
5.230003864071492
 30
0.0
 10
67.31320846796288
 20
5.336015408359156
 30
0.0
 10
66.65037430777096
 20
5.533660502760782
 30
0.0
 10
66.31827870447583
 20
5.625153194742534
 30
0.0
 10
65.65678005853368
 20
5.792393414800276
 30
0.0
 10
65.32852419741505
 20
5.868080791229947
 30
0.0
 10
64.6669813120846
 20
6.003738436674247
 30
0.0
 10
64.33488028351138
 20
6.063589527996163
 30
0.0
 10
64.00347458232223
 20
6.115082240057045
 30
0.0
  0
SPLINE
  5
AF
330
1F
100
AcDbEntity
  8
외형선
  6
Continuous
 62
     1
370
    15
100
AcDbSpline
210
0.0
220
0.0
230
1.0
 70
     8
 71
     3
 72
    11
 73
     7
 74
     0
 42
0.000000001
 43
0.00000001
 40
0.0
 40
0.0
 40
0.0
 40
0.0
 40
0.305388505965311
 40
0.6111739887221552
 40
0.916561850259898
 40
1.0
 40
1.0
 40
1.0
 40
1.0
 10
84.55261725882798
 20
1.493185109351961
 30
0.0
 10
83.39200799861919
 20
1.739805894580743
 30
0.0
 10
81.06928079358727
 20
2.233368049232321
 30
0.0
 10
77.58550723251011
 20
2.691087730477895
 30
0.0
 10
74.94576379056517
 20
2.902995407857075
 30
0.0
 10
73.4679552575877
 20
2.86170722313507
 30
0.0
 10
73.15083241578876
 20
2.852847194126182
 30
0.0
  0
SPLINE
  5
B0
330
1F
100
AcDbEntity
  8
외형선
  6
Continuous
 62
     1
370
    15
100
AcDbSpline
210
0.0
220
0.0
230
1.0
 70
     8
 71
     3
 72
     8
 73
     4
 74
     0
 42
0.000000001
 43
0.00000001
 40
0.0
 40
0.0
 40
0.0
 40
0.0
 40
1.0
 40
1.0
 40
1.0
 40
1.0
 10
84.55261725869221
 20
1.49318510938234
 30
0.0
 10
84.89227726501682
 20
1.377391409039895
 30
0.0
 10
85.23182598012158
 20
1.25927501645822
 30
0.0
 10
85.5712607099587
 20
1.138779705781707
 30
0.0
  0
SPLINE
  5
B1
330
1F
100
AcDbEntity
  8
외형선
  6
Continuous
 62
     1
370
    15
100
AcDbSpline
210
0.0
220
0.0
230
1.0
 70
     8
 71
     3
 72
    10
 73
     6
 74
     0
 42
0.000000001
 43
0.00000001
 40
0.0
 40
0.0
 40
0.0
 40
0.0
 40
0.283745734762655
 40
0.6416489614370084
 40
1.0
 40
1.0
 40
1.0
 40
1.0
 10
73.40085593330011
 20
-2.857897397427869
 30
0.0
 10
72.51199865311452
 20
-2.852705278616546
 30
0.0
 10
70.50197953802942
 20
-2.840964070785775
 30
0.0
 10
67.36976267777243
 20
-2.517551291231776
 30
0.0
 10
65.12603821646749
 20
-2.117225600235312
 30
0.0
 10
64.0034745823209
 20
-1.916937610209183
 30
0.0
  0
SPLINE
  5
B2
330
1F
100
AcDbEntity
  8
외형선
  6
Continuous
370
    15
100
AcDbSpline
210
0.0
220
0.0
230
1.0
 70
    24
 71
     3
 72
    14
 73
    10
 74
     0
 42
0.000000001
 43
0.00000001
 40
0.0
 40
0.0
 40
0.0
 40
0.0
 40
0.25
 40
0.25
 40
0.5
 40
0.5
 40
0.75
 40
0.75
 40
1.0
 40
1.0
 40
1.0
 40
1.0
 10
64.0034745823209
 20
2.39782409972684
 30
0.0
 10
64.0034745823209
 20
2.254054642024403
 30
0.0
 10
64.0034745823209
 20
2.018944328910402
 30
0.0
 10
64.0034745823209
 20
1.407762665468788
 30
0.0
 10
64.0034745823209
 20
1.032966449905319
 30
0.0
 10
64.0034745823209
 20
0.2198470758079431
 30
0.0
 10
64.0034745823209
 20
-0.217326075290363
 30
0.0
 10
64.0034745823209
 20
-1.083832968454567
 30
0.0
 10
64.0034745823209
 20
-1.512884072701187
 30
0.0
 10
64.0034745823209
 20
-1.916937610209186
 30
0.0
  0
SPLINE
  5
B3
330
1F
100
AcDbEntity
  8
외형선
  6
Continuous
 62
     1
370
    15
100
AcDbSpline
210
0.0
220
0.0
230
1.0
 70
     8
 71
     3
 72
    34
 73
    30
 74
     0
 42
0.000000001
 43
0.00000001
 40
0.0
 40
0.0
 40
0.0
 40
0.0
 40
0.0625
 40
0.0625
 40
0.1249999999999999
 40
0.1249999999999999
 40
0.1874999999999999
 40
0.1874999999999999
 40
0.2499999999999999
 40
0.2499999999999999
 40
0.3749999999999998
 40
0.3749999999999998
 40
0.4374999999999998
 40
0.4374999999999998
 40
0.4999999999999999
 40
0.4999999999999999
 40
0.5625
 40
0.5625
 40
0.625
 40
0.625
 40
0.6875000000000001
 40
0.6875000000000001
 40
0.7500000000000002
 40
0.7500000000000002
 40
0.8750000000000001
 40
0.8750000000000001
 40
0.9375
 40
0.9375
 40
1.0
 40
1.0
 40
1.0
 40
1.0
 10
64.00347458232092
 20
2.3978240997298
 30
0.0
 10
64.3348802835101
 20
2.220891271247046
 30
0.0
 10
64.66698131208335
 20
2.040571951158874
 30
0.0
 10
65.32852419741386
 20
1.675370732554446
 30
0.0
 10
65.65678005853249
 20
1.490719158021723
 30
0.0
 10
66.3182787044747
 20
1.116949841557639
 30
0.0
 10
66.65037430776988
 20
0.9280399493276289
 30
0.0
 10
67.31320846796183
 20
0.548468209963656
 30
0.0
 10
67.64274094743413
 20
0.3580410073219161
 30
0.0
 10
68.63177292968373
 20
-0.2140010401686417
 30
0.0
 10
69.2990982523473
 20
-0.5977934722209043
 30
0.0
 10
70.28780534312389
 20
-1.163190638126298
 30
0.0
 10
70.61755716442326
 20
-1.350373338466076
 30
0.0
 10
71.28046140945614
 20
-1.721204035875085
 30
0.0
 10
71.61253746777618
 20
-1.904644619001051
 30
0.0
 10
72.2738886398424
 20
-2.265350508260141
 30
0.0
 10
72.60215587800008
 20
-2.442445871731703
 30
0.0
 10
73.26383863793393
 20
-2.790458345973732
 30
0.0
 10
73.59595536038537
 20
-2.961130761341699
 30
0.0
 10
74.25868902858471
 20
-3.293713803955642
 30
0.0
 10
74.58796082990904
 20
-3.455411348771979
 30
0.0
 10
75.24759009672093
 20
-3.7692065395079
 30
0.0
 10
75.57932611414026
 20
-3.921507799941562
 30
0.0
 10
76.57424571972231
 20
-4.36175309150799
 30
0.0
 10
77.2315615452294
 20
-4.632281934260333
 30
0.0
 10
78.2260421636307
 20
-4.999418812844673
 30
0.0
 10
78.55808821593439
 20
-5.11522650428452
 30
0.0
 10
79.21923774408398
 20
-5.33232507185679
 30
0.0
 10
79.54754611901237
 20
-5.433561880877138
 30
0.0
 10
79.8784745823209
 20
-5.527565812143088
 30
0.0
  0
SPLINE
  5
B4
330
1F
100
AcDbEntity
  8
외형선
  6
Continuous
 62
     1
370
    15
100
AcDbSpline
210
0.0
220
0.0
230
1.0
 70
     8
 71
     3
 72
    14
 73
    10
 74
     0
 42
0.000000001
 43
0.00000001
 40
0.0
 40
0.0
 40
0.0
 40
0.0
 40
0.099873345010947
 40
0.2710668722150786
 40
0.4375337614453116
 40
0.6093462198335141
 40
0.7675828211771615
 40
0.9302766955221925
 40
1.0
 40
1.0
 40
1.0
 40
1.0
 10
84.79517114963889
 20
-3.985491863591411
 30
0.0
 10
84.6817386025892
 20
-4.128774597153819
 30
0.0
 10
84.37387061506186
 20
-4.517659163150193
 30
0.0
 10
83.72732268164523
 20
-5.014259007641638
 30
0.0
 10
82.90463568720736
 20
-5.449295053478926
 30
0.0
 10
82.0353597837829
 20
-5.692754202271813
 30
0.0
 10
81.14546392232268
 20
-5.753055444243225
 30
0.0
 10
80.42932888592443
 20
-5.671642555993666
 30
0.0
 10
80.00559221287966
 20
-5.560813613198831
 30
0.0
 10
79.8784745823209
 20
-5.527565812143092
 30
0.0
  0
ARC
  5
B5
330
1F
100
AcDbEntity
  8
외형선
  6
Continuous
 62
     1
370
    15
100
AcDbCircle
 10
84.03567119757014
 20
-0.5779167907096893
 30
0.0
 40
2.30327636457798
100
AcDbArc
 50
20.37169640635371
 51
48.18728424178162
  0
ARC
  5
B6
330
1F
100
AcDbEntity
  8
외형선
  6
Continuous
 62
     1
370
    15
100
AcDbCircle
 10
80.18990208666344
 20
0.0113911975998717
 30
0.0
 40
6.008743033054463
100
AcDbArc
 50
2.026535542678198
 51
27.79380095968065
  0
SPLINE
  5
B7
330
1F
100
AcDbEntity
  8
외형선
  6
Continuous
 62
     1
370
    15
100
AcDbSpline
210
0.0
220
0.0
230
1.0
 70
     8
 71
     3
 72
    22
 73
    18
 74
     0
 42
0.000000001
 43
0.00000001
 40
0.0
 40
0.0
 40
0.0
 40
0.0
 40
0.125
 40
0.125
 40
0.25
 40
0.25
 40
0.375
 40
0.375
 40
0.5
 40
0.5
 40
0.625
 40
0.625
 40
0.75
 40
0.75
 40
0.8750000000000001
 40
0.8750000000000001
 40
1.0
 40
1.0
 40
1.0
 40
1.0
 10
85.50542502920035
 20
2.813213583948459
 30
0.0
 10
85.41015636580875
 20
3.063542992697233
 30
0.0
 10
85.28434316206221
 20
3.311887018625456
 30
0.0
 10
84.98013533884378
 20
3.792672850028119
 30
0.0
 10
84.80242268454805
 20
4.023124097203866
 30
0.0
 10
84.41201944177223
 20
4.445587886965298
 30
0.0
 10
84.1981449852803
 20
4.639534891457022
 30
0.0
 10
83.73661843321239
 20
4.987231018089495
 30
0.0
 10
83.48804520400151
 20
5.140899535976832
 30
0.0
 10
82.9769374873197
 20
5.394060699326764
 30
0.0
 10
82.71234498795792
 20
5.495343654363928
 30
0.0
 10
82.16606567785777
 20
5.645874995807265
 30
0.0
 10
81.88206518027437
 20
5.694922673947948
 30
0.0
 10
81.31599360572278
 20
5.736713189349381
 30
0.0
 10
81.0316194250955
 20
5.730834690550666
 30
0.0
 10
80.4581512032535
 20
5.66761380567896
 30
0.0
 10
80.16766385798778
 20
5.609713260328296
 30
0.0
 10
79.8784745823209
 20
5.527565812143124
 30
0.0
  0
SPLINE
  5
B8
330
1F
100
AcDbEntity
  8
외형선
  6
Continuous
 62
     1
370
    15
100
AcDbSpline
210
0.0
220
0.0
230
1.0
 70
     8
 71
     3
 72
     8
 73
     4
 74
     0
 42
0.000000001
 43
0.00000001
 40
0.0
 40
0.0
 40
0.0
 40
0.0
 40
1.0
 40
1.0
 40
1.0
 40
1.0
 10
82.7758307361583
 20
1.968507546353018
 30
0.0
 10
83.35693357741357
 20
1.8263346901236
 30
0.0
 10
83.94999747118493
 20
1.666725139557748
 30
0.0
 10
84.55261725869221
 20
1.49318510938234
 30
0.0
  0
SPLINE
  5
B9
330
1F
100
AcDbEntity
  8
외형선
  6
Continuous
 62
     1
370
    15
100
AcDbSpline
210
0.0
220
0.0
230
1.0
 70
     8
 71
     3
 72
    11
 73
     7
 74
     0
 42
0.000000001
 43
0.00000001
 40
0.0
 40
0.0
 40
0.0
 40
0.0
 40
0.2342329265118191
 40
0.4861986624099146
 40
0.7423657482064004
 40
1.0
 40
1.0
 40
1.0
 40
1.0
 10
73.40085593330011
 20
2.8578973974279
 30
0.0
 10
73.90656709669597
 20
3.114370890529171
 30
0.0
 10
74.95627473118788
 20
3.646734427741537
 30
0.0
 10
76.5598521943619
 20
4.361901385883447
 30
0.0
 10
78.21293563290268
 20
5.017561080547769
 30
0.0
 10
79.32223905602211
 20
5.357240914972201
 30
0.0
 10
79.8784745823209
 20
5.527565812143121
 30
0.0
  0
SPLINE
  5
BA
330
1F
100
AcDbEntity
  8
외형선
  6
Continuous
 62
     1
370
    15
100
AcDbSpline
210
0.0
220
0.0
230
1.0
 70
     8
 71
     3
 72
    12
 73
     8
 74
     0
 42
0.000000001
 43
0.00000001
 40
0.0
 40
0.0
 40
0.0
 40
0.0
 40
0.25
 40
0.25
 40
0.5
 40
0.5
 40
1.0
 40
1.0
 40
1.0
 40
1.0
 10
85.50542502920038
 20
2.813213583948459
 30
0.0
 10
85.31415996669853
 20
2.659330934454663
 30
0.0
 10
85.10536697915154
 20
2.530076246305654
 30
0.0
 10
84.66426161572346
 20
2.314717663806048
 30
0.0
 10
84.43745659820271
 20
2.230926798554757
 30
0.0
 10
83.74285837657152
 20
2.033744124008696
 30
0.0
 10
83.25766757042891
 20
1.9743029533764
 30
0.0
 10
82.7758307361583
 20
1.968507546353018
 30
0.0
  0
SPLINE
  5
BB
330
1F
100
AcDbEntity
  8
외형선
  6
Continuous
 62
     1
370
    15
100
AcDbSpline
210
0.0
220
0.0
230
1.0
 70
     8
 71
     3
 72
    11
 73
     7
 74
     0
 42
0.000000001
 43
0.00000001
 40
0.0
 40
0.0
 40
0.0
 40
0.0
 40
0.2363679639357756
 40
0.490912185661719
 40
0.7454562034829842
 40
1.0
 40
1.0
 40
1.0
 40
1.0
 10
73.15083241578876
 20
-2.85284719412615
 30
0.0
 10
72.43016132645337
 20
-3.214802788589867
 30
0.0
 10
70.93340087838777
 20
-3.966547691037605
 30
0.0
 10
68.6603372572001
 20
-4.903649558095115
 30
0.0
 10
66.3319126155167
 20
-5.673809318278774
 30
0.0
 10
64.77962036845605
 20
-5.967991308758632
 30
0.0
 10
64.00347458232223
 20
-6.115082240057018
 30
0.0
  0
SPLINE
  5
BC
330
1F
100
AcDbEntity
  8
외형선
  6
Continuous
370
    15
100
AcDbSpline
210
0.0
220
0.0
230
1.0
 70
    24
 71
     3
 72
    14
 73
    10
 74
     0
 42
0.000000001
 43
0.00000001
 40
0.0
 40
0.0
 40
0.0
 40
0.0
 40
0.25
 40
0.25
 40
0.5
 40
0.5
 40
0.75
 40
0.75
 40
1.0
 40
1.0
 40
1.0
 40
1.0
 10
64.00347458232092
 20
-1.916937610209184
 30
0.0
 10
64.00347458232092
 20
-2.010145664402625
 30
0.0
 10
64.00347458232092
 20
-2.158250715814924
 30
0.0
 10
64.00347458232092
 20
-2.595499604221682
 30
0.0
 10
64.00347458232092
 20
-2.885483332132214
 30
0.0
 10
64.00347458232092
 20
-3.611940528350245
 30
0.0
 10
64.0034745823209
 20
-4.048758992309825
 30
0.0
 10
64.00347458232092
 20
-5.026146440671651
 30
0.0
 10
64.0034745823209
 20
-5.565811479668208
 30
0.0
 10
64.00347458232092
 20
-6.115082240045375
 30
0.0
  0
LINE
  5
BD
330
1F
100
AcDbEntity
  8
중심선
 62
     1
100
AcDbLine
 10
-78.69652541767911
 20
0.0000000000000001
 30
0.0
 11
89.22847458232093
 21
0.0000000000000206
 31
0.0
  0
LINE
  5
BF
330
1F
100
AcDbEntity
  8
참조1
100
AcDbLine
 10
5.265974582320911
 20
-0.0000000000000004
 30
0.0
 11
5.265974582320917
 21
-40.0
 31
0.0
  0
LINE
  5
C0
330
1F
100
AcDbEntity
  8
참조1
100
AcDbLine
 10
5.265974582320917
 20
-40.0
 30
0.0
 11
7.963317768012237
 21
-40.0
 31
0.0
  0
CIRCLE
  5
C1
330
1F
100
AcDbEntity
  8
해칭선
100
AcDbCircle
 10
0.0
 20
0.0
 30
0.0
 40
3.000000000000004
  0
INSERT
  5
C2
330
1F
100
AcDbEntity
  8
0
  6
Continuous
 62
     7
100
AcDbBlockReference
 66
     1
  2
블럭10
 10
-8.674298349804289
 20
-52.04717430164393
 30
0.0
  0
ATTRIB
  5
C3
330
C2
100
AcDbEntity
  8
FORMAT
 62
     2
100
AcDbText
 10
-18.81593436194092
 20
-49.97180738881173
 30
0.0
 40
4.233333333333333
  1
EM963032 [ 4 FLUTE ]
 41
0.75
  7
SLDTEXTSTYLE0
 11
-18.81593436194092
 21
-52.0884740554784
 31
0.0
100
AcDbAttribute
  2
AUTOATTR0
 70
     0
 74
     1
  0
SEQEND
  5
C4
330
C2
100
AcDbEntity
  8
0
  6
Continuous
 62
     7
  0
HATCH
  5
C5
330
1F
100
AcDbEntity
  8
중심선
100
AcDbHatch
 10
0.0
 20
0.0
 30
0.0
210
0.0
220
0.0
230
1.0
  2
SOLID
 70
     1
 71
     0
 91
        1
 92
        0
 93
        4
 72
     1
 10
-2.959389045423446
 20
-35.8
 11
-6.405664289260728
 21
-35.8
 72
     1
 10
-6.405664289260728
 20
-35.8
 11
-8.53389414846475
 21
-38.33632558057257
 72
     1
 10
-8.53389414846475
 20
-38.33632558057256
 11
-5.087585819514319
 21
-38.33628615127007
 72
     1
 10
-5.087585819514319
 20
-38.33628615127007
 11
-2.959389045423446
 21
-35.79999999999999
 97
        0
 75
     0
 76
     1
 98
        1
 10
0.2042954483093311
 20
0.0000000000000036
  0
HATCH
  5
C6
330
1F
100
AcDbEntity
  8
중심선
100
AcDbHatch
 10
0.0
 20
0.0
 30
0.0
210
0.0
220
0.0
230
1.0
  2
SOLID
 70
     1
 71
     0
 91
        1
 92
        0
 93
        4
 72
     1
 10
2.053374945612533
 20
-35.80000000000003
 11
-1.392900298224749
 21
-35.8
 72
     1
 10
-1.392900298224749
 20
-35.8
 11
-5.924038306582165
 21
-41.20000000000002
 72
     1
 10
-5.924038306582165
 20
-41.20000000000002
 11
-2.477763062744883
 21
-41.20000000000002
 72
     1
 10
-2.477763062744883
 20
-41.20000000000002
 11
2.053374945612533
 21
-35.80000000000003
 97
        0
 75
     0
 76
     1
 98
        1
 10
0.2042954483093311
 20
0.0000000000000036
  0
HATCH
  5
C7
330
1F
100
AcDbEntity
  8
중심선
100
AcDbHatch
 10
0.0
 20
0.0
 30
0.0
210
0.0
220
0.0
230
1.0
  2
SOLID
 70
     1
 71
     0
 91
        1
 92
        0
 93
        4
 72
     1
 10
7.066138936648374
 20
-35.8
 11
3.619863692811285
 21
-35.79999999999997
 72
     1
 10
3.619863692811285
 20
-35.79999999999997
 11
-3.428573209077963
 21
-44.20000000000002
 72
     1
 10
-3.428573209077964
 20
-44.20000000000002
 11
0.0177020347593189
 21
-44.20000000000002
 72
     1
 10
0.0177020347593186
 20
-44.20000000000002
 11
7.066138936648374
 21
-35.8
 97
        0
 75
     0
 76
     1
 98
        1
 10
0.2042954483093311
 20
0.0000000000000036
  0
HATCH
  5
C8
330
1F
100
AcDbEntity
  8
중심선
100
AcDbHatch
 10
0.0
 20
0.0
 30
0.0
210
0.0
220
0.0
230
1.0
  2
SOLID
 70
     1
 71
     0
 91
        1
 92
        0
 93
        6
 72
     3
 10
11.8660293676606
 20
-40.00000000005127
 11
3.960054785062283
 21
1.540882976769353E-10
 40
0.3939339440162628
 50
17.09539180608436
 51
320.0019657685078
 73
     0
 72
     1
 10
13.5490290233612
 20
-38.5878940046383
 11
15.85433089706223
 21
-36.65356729459035
 72
     3
 10
11.86602936760775
 20
-40.00000000000014
 11
6.600054785286828
 21
-1.278976924368180E-13
 40
0.6363583540795982
 50
39.9987384933743
 51
368.4976242363724
 73
     1
 72
     1
 10
18.29136185950836
 20
-39.03999999993002
 11
10.54609667444368
 21
-39.03999999993002
 72
     1
 10
10.54609667444368
 20
-39.03999999993002
 11
10.54607162999774
 21
-40.95999999992991
 72
     1
 10
10.54607162999774
 20
-40.95999999992991
 11
14.98745139946978
 21
-40.95999999992988
 97
        0
 75
     0
 76
     1
 98
        1
 10
0.2042954483093311
 20
0.0000000000000036
  0
DIMENSION
  5
C9
330
1F
100
AcDbEntity
  8
치수문자_일반주서
100
AcDbDimension
  2
_D
 10
64.00347458232092
 20
22.09511459147407
 30
0.0
 11
75.11597458232092
 21
22.09511459147407
 31
0.0
 70
   160
  1
<>
 71
     2
 42
22.22500000000001
  3
SLDDIMSTYLE0
100
AcDbAlignedDimension
 13
86.22847458232093
 23
2.123657301112667
 33
0.0
 14
64.00347458232092
 24
2.397824099729804
 34
0.0
 50
0.0000000000000092
100
AcDbRotatedDimension
1001
ACAD
1000
DSTYLE
1002
{
1070
   171
1070
     6
1070
   273
1070
     7
1002
}
  0
DIMENSION
  5
DE
330
1F
100
AcDbEntity
  8
치수문자_일반주서
100
AcDbDimension
  2
_D_1
 10
86.22847458232093
 20
33.62718174806673
 30
0.0
 11
44.95347458232092
 21
33.62718174806673
 31
0.0
 70
   160
  1
<>
 71
     2
 42
82.55000000000001
  3
SLDDIMSTYLE0
100
AcDbAlignedDimension
 13
3.678474582320924
 23
7.846525417679069
 33
0.0
 14
86.22847458232093
 24
2.123657301112667
 34
0.0
 50
-0.0000000000000056
100
AcDbRotatedDimension
1001
ACAD
1000
DSTYLE
1002
{
1070
   171
1070
     6
1070
   273
1070
     7
1002
}
  0
DIMENSION
  5
F1
330
1F
100
AcDbEntity
  8
치수문자_일반주서
100
AcDbDimension
  2
_D_2
 10
-75.69652541767908
 20
51.55667432272149
 30
0.0
 11
5.265974582320893
 21
51.55667432272149
 31
0.0
 70
   160
  1
<>
 71
     2
 42
161.925
  3
SLDDIMSTYLE0
100
AcDbAlignedDimension
 13
86.22847458232093
 23
2.123657301112667
 33
0.0
 14
-75.69652541767908
 24
8.52499999999998
 34
0.0
 50
0.000000000000005
100
AcDbRotatedDimension
1001
ACAD
1000
DSTYLE
1002
{
1070
   171
1070
     6
1070
   273
1070
     7
1002
}
  0
DIMENSION
  5
104
330
1F
100
AcDbEntity
  8
치수문자_일반주서
100
AcDbDimension
  2
_D_3
 10
-86.73400268243336
 20
-9.525000000000052
 30
0.0
 11
-86.73400268243338
 21
-0.5067612854770438
 31
0.0
 70
   160
  1
%%c<>
 71
     2
 42
19.05
 52
-270.0
  3
SLDDIMSTYLE0
100
AcDbAlignedDimension
 13
-74.69652541767908
 23
9.524999999999997
 33
0.0
 14
-74.69652541767908
 24
-9.525000000000006
 34
0.0
 50
90.0000000000002
100
AcDbRotatedDimension
1001
ACAD
1000
DSTYLE
1002
{
1070
   171
1070
     6
1070
   273
1070
     7
1002
}
  0
DIMENSION
  5
112
330
1F
100
AcDbEntity
  8
치수문자_일반주서
100
AcDbDimension
  2
_D_4
 10
104.2186356243684
 20
-6.349999999999827
 30
0.0
 11
104.2186356243683
 21
23.43325000000016
 31
0.0
 70
   160
  1
%%c<>
 71
     2
 42
12.7
 52
-270.0
  3
SLDDIMSTYLE2
100
AcDbAlignedDimension
 13
61.97341157975337
 23
6.350000000000014
 33
0.0
 14
61.97341157975337
 24
-6.349999999999985
 34
0.0
 50
90.0000000000002
100
AcDbRotatedDimension
1001
ACAD
1000
DSTYLE
1002
{
1070
   171
1070
     6
1070
   273
1070
     7
1002
}
1001
ACAD_DSTYLE_DIMFLIPARROW_SYMBOL
1070
   385
1070
     0
1001
ACAD_DSTYLE_DIMFLIPARROW_WHICH_SYMBOL
1070
   386
1070
     3
  0
LINE
  5
126
330
1F
100
AcDbEntity
  8
참조1
100
AcDbLine
 10
105.9356583976665
 20
7.440000000000006
 30
0.0
 11
105.9356583976665
 21
-7.439999999999999
 31
0.0
  0
LINE
  5
127
330
1F
100
AcDbEntity
  8
참조1
100
AcDbLine
 10
118.6356583976665
 20
5.440000000000006
 30
0.0
 11
105.9356583976665
 21
5.440000000000006
 31
0.0
  0
SOLID
  5
128
330
1F
100
AcDbEntity
  8
참조1
100
AcDbTrace
 10
105.9356583976665
 20
5.440000000000006
 30
0.0
 11
112.2856583976665
 21
4.424000000000006
 31
0.0
 12
112.2856583976665
 22
6.456000000000006
 32
0.0
 13
112.2856583976665
 23
6.456000000000006
 33
0.0
  0
LINE
  5
129
330
1F
100
AcDbEntity
  8
참조1
100
AcDbLine
 10
118.6356583976665
 20
-5.439999999999999
 30
0.0
 11
105.9356583976665
 21
-5.439999999999999
 31
0.0
  0
SOLID
  5
12A
330
1F
100
AcDbEntity
  8
참조1
100
AcDbTrace
 10
105.9356583976665
 20
-5.439999999999999
 30
0.0
 11
112.2856583976665
 21
-6.455999999999999
 31
0.0
 12
112.2856583976665
 22
-4.423999999999999
 32
0.0
 13
112.2856583976665
 23
-4.423999999999999
 33
0.0
  0
MTEXT
  5
12B
330
1F
100
AcDbEntity
  8
참조1
100
AcDbMText
 10
115.3331484901368
 20
10.98821664464994
 30
0.0
 40
3.5
 41
0.0
 71
     1
 72
     1
  1
A
  7
SLDTEXTSTYLE0
 73
     1
 44
1.0
  0
MTEXT
  5
12C
330
1F
100
AcDbEntity
  8
참조1
100
AcDbMText
 10
115.3331484901368
 20
0.1082166446499363
 30
0.0
 40
3.5
 41
0.0
 71
     1
 72
     1
  1
A
  7
SLDTEXTSTYLE0
 73
     1
 44
1.0
  0
INSERT
  5
133
330
1F
100
AcDbEntity
  8
해칭선
100
AcDbBlockReference
  2
SW_DOWELSYMBOL_0
 10
0.0
 20
0.0
 30
0.0
  0
LINE
  5
15C
330
1F
100
AcDbEntity
  8
0
100
AcDbLine
 10
64.0034745823209
 20
0.0000000000000176
 30
0.0
 11
64.0034745823209
 21
2.397824099726837
 31
0.0
  0
LINE
  5
15D
330
1F
100
AcDbEntity
  8
외형선
  6
Continuous
370
    15
100
AcDbLine
 10
3.678474582320924
 20
0.0000000000000036
 30
0.0
 11
3.678474582320924
 21
7.846525417679069
 31
0.0
  0
LINE
  5
15E
330
1F
100
AcDbEntity
  8
외형선
  6
Continuous
370
    15
100
AcDbLine
 10
60.82847458232091
 20
6.350000000000014
 30
0.0
 11
3.678474582320931
 21
7.84652541767907
 31
0.0
  0
LINE
  5
15F
330
1F
100
AcDbEntity
  8
외형선
  6
Continuous
370
    15
100
AcDbLine
 10
3.678474582320924
 20
0.0000000000000036
 30
0.0
 11
3.678474582320924
 21
-7.846525417679062
 31
0.0
  0
LINE
  5
160
330
1F
100
AcDbEntity
  8
외형선
  6
Continuous
370
    15
100
AcDbLine
 10
60.82847458232091
 20
-6.350000000000007
 30
0.0
 11
3.678474582320931
 21
-7.846525417679063
 31
0.0
  0
LINE
  5
163
330
1F
100
AcDbEntity
  8
외형선
  6
Continuous
370
    15
100
AcDbLine
 10
2.08566167756681
 20
9.525
 30
0.0
 11
2.085661677566825
 21
-9.524999999999997
 31
0.0
1001
PE_URL
1000

  0
LINE
  5
18E
330
1F
100
AcDbEntity
  8
외형선
  6
Continuous
370
    15
100
AcDbLine
 10
3.678474582320931
 20
7.84652541767907
 30
0.0
 11
2.08566167756681
 21
9.525
 31
0.0
1001
PE_URL
1000

  0
LINE
  5
18F
330
1F
100
AcDbEntity
  8
외형선
  6
Continuous
370
    15
100
AcDbLine
 10
3.678474582320949
 20
-7.846525417679063
 30
0.0
 11
2.085661677566832
 21
-9.524999999999997
 31
0.0
1001
PE_URL
1000

  0
ENDSEC
  0
SECTION
  2
OBJECTS
  0
DICTIONARY
  5
C
330
0
100
AcDbDictionary
281
     1
  3
ACAD_DETAILVIEWSTYLE
350
198
  3
ACAD_GROUP
350
D
  3
ACAD_IMAGE_VARS
350
157
  3
ACAD_LAYOUT
350
1A
  3
ACAD_MLINESTYLE
350
17
  3
ACAD_PLOTSETTINGS
350
19
  3
ACAD_PLOTSTYLENAME
350
E
  3
ACAD_SCALELIST
350
47
  3
ACAD_SECTIONVIEWSTYLE
350
199
  3
AcDbVariableDictionary
350
193
  3
APPDATA
350
155
  3
DWGPROPS
350
19C
  0
DICTIONARY
  5
19A
330
1F
100
AcDbDictionary
280
     1
281
     1
  3
DIM_BOUNDING_BOXES_V1
360
19B
  0
DICTIONARY
  5
198
102
{ACAD_REACTORS
330
C
102
}
330
C
100
AcDbDictionary
281
     1
  0
DICTIONARY
  5
D
102
{ACAD_REACTORS
330
C
102
}
330
C
100
AcDbDictionary
281
     1
  0
RASTERVARIABLES
  5
157
102
{ACAD_REACTORS
330
C
102
}
330
C
100
AcDbRasterVariables
 90
        0
 70
     1
 71
     1
 72
     1
  0
DICTIONARY
  5
1A
102
{ACAD_REACTORS
330
C
102
}
330
C
100
AcDbDictionary
281
     1
  3
Layout1
350
1E
  3
Layout2
350
26
  3
Model
350
22
  0
DICTIONARY
  5
17
102
{ACAD_REACTORS
330
C
102
}
330
C
100
AcDbDictionary
281
     1
  3
Standard
350
18
  0
DICTIONARY
  5
19
102
{ACAD_REACTORS
330
C
102
}
330
C
100
AcDbDictionary
281
     1
  0
ACDBDICTIONARYWDFLT
  5
E
102
{ACAD_REACTORS
330
C
102
}
330
C
100
AcDbDictionary
281
     1
  3
Normal
350
F
100
AcDbDictionaryWithDefault
340
F
  0
DICTIONARY
  5
47
102
{ACAD_REACTORS
330
C
102
}
330
C
100
AcDbDictionary
281
     1
  3
A0
350
48
  3
A1
350
49
  3
A2
350
4A
  3
A3
350
4B
  3
A4
350
4C
  3
A5
350
4D
  3
A6
350
4E
  3
A7
350
4F
  3
A8
350
50
  3
A9
350
51
  3
B0
350
52
  3
B1
350
53
  3
B2
350
54
  3
B3
350
55
  3
B4
350
56
  3
B5
350
57
  3
B6
350
58
  3
B7
350
59
  3
B8
350
5A
  3
B9
350
5B
  3
C0
350
5C
  3
C1
350
5D
  3
C2
350
5E
  3
C3
350
5F
  3
C4
350
60
  3
C5
350
61
  3
C6
350
62
  3
C7
350
63
  3
C8
350
64
  3
C9
350
65
  3
D0
350
66
  3
D1
350
67
  3
D2
350
68
  0
DICTIONARY
  5
199
102
{ACAD_REACTORS
330
C
102
}
330
C
100
AcDbDictionary
281
     1
  0
DICTIONARY
  5
193
102
{ACAD_REACTORS
330
C
102
}
330
C
100
AcDbDictionary
281
     1
  0
DICTIONARY
  5
155
102
{ACAD_REACTORS
330
C
102
}
330
C
100
AcDbDictionary
281
     1
  0
XRECORD
  5
19C
102
{ACAD_REACTORS
330
C
102
}
330
C
100
AcDbXrecord
280
     1
  1
DWGPROPS COOKIE
  2

  3

  4

  6

  7

  8
12017165
  9

300
=
301
=
302
=
303
=
304
=
305
=
306
=
307
=
308
=
309
=
 40
0.0
 41
2458298.517439364
 42
2459697.105270556
  1

 90
        0
  0
DICTIONARY
  5
19B
102
{ACAD_REACTORS
330
19A
102
}
330
19A
100
AcDbDictionary
281
     1
  0
LAYOUT
  5
1E
102
{ACAD_REACTORS
330
1A
102
}
330
1A
100
AcDbPlotSettings
  1

  2
none_device
  4

  6

 40
0.0
 41
0.0
 42
0.0
 43
0.0
 44
0.0
 45
0.0
 46
0.0
 47
0.0
 48
0.0
 49
0.0
140
0.0
141
0.0
142
1.0
143
1.0
 70
   688
 72
     1
 73
     0
 74
     5
  7

 75
    16
147
1.0
148
0.0
149
0.0
100
AcDbLayout
  1
Layout1
 70
     1
 71
     1
 10
0.0
 20
0.0
 11
420.0
 21
297.0
 12
0.0
 22
0.0
 32
0.0
 14
1.000000000000000E+20
 24
1.000000000000000E+20
 34
1.000000000000000E+20
 15
-1.000000000000000E+20
 25
-1.000000000000000E+20
 35
-1.000000000000000E+20
146
0.0
 13
0.0
 23
0.0
 33
0.0
 16
1.0
 26
0.0
 36
0.0
 17
0.0
 27
1.0
 37
0.0
 76
     0
330
1B
  0
LAYOUT
  5
26
102
{ACAD_REACTORS
330
1A
102
}
330
1A
100
AcDbPlotSettings
  1

  2
none_device
  4

  6

 40
0.0
 41
0.0
 42
0.0
 43
0.0
 44
0.0
 45
0.0
 46
0.0
 47
0.0
 48
0.0
 49
0.0
140
0.0
141
0.0
142
1.0
143
1.0
 70
   688
 72
     1
 73
     0
 74
     5
  7

 75
    16
147
1.0
148
0.0
149
0.0
100
AcDbLayout
  1
Layout2
 70
     1
 71
     2
 10
0.0
 20
0.0
 11
0.0
 21
0.0
 12
0.0
 22
0.0
 32
0.0
 14
0.0
 24
0.0
 34
0.0
 15
0.0
 25
0.0
 35
0.0
146
0.0
 13
0.0
 23
0.0
 33
0.0
 16
1.0
 26
0.0
 36
0.0
 17
0.0
 27
1.0
 37
0.0
 76
     0
330
23
  0
LAYOUT
  5
22
102
{ACAD_REACTORS
330
1A
102
}
330
1A
100
AcDbPlotSettings
  1

  2
none_device
  4
ANSI_A_(11.00_x_8.50_Inches)
  6

 40
6.35
 41
19.05
 42
6.35000508
 43
19.05000254
 44
279.4
 45
215.9
 46
105.6444683564854
 47
80.74630049902721
 48
0.0
 49
0.0
140
0.0
141
0.0
142
0.0551861322843838
143
1.0
 70
  1696
 72
     0
 73
     0
 74
     0
  7

 75
     0
147
0.0235690232323232
148
0.0
149
0.0
100
AcDbLayout
  1
Model
 70
     1
 71
     0
 10
0.0
 20
0.0
 11
420.0
 21
297.0
 12
0.0
 22
0.0
 32
0.0
 14
-91.10900268243343
 24
-49.97180738881175
 34
0.0
 15
118.6356583976665
 25
55.93167432272149
 35
0.0
146
0.0
 13
0.0
 23
0.0
 33
0.0
 16
1.0
 26
0.0
 36
0.0
 17
0.0
 27
1.0
 37
0.0
 76
     0
330
1F
331
29
  0
MLINESTYLE
  5
18
102
{ACAD_REACTORS
330
17
102
}
330
17
100
AcDbMlineStyle
  2
Standard
 70
     0
  3

 62
   256
 51
90.0
 52
90.0
 71
     2
 49
0.5
 62
   256
  6
BYLAYER
 49
-0.5
 62
   256
  6
BYLAYER
  0
ACDBPLACEHOLDER
  5
F
102
{ACAD_REACTORS
330
E
102
}
330
E
  0
SCALE
  5
48
102
{ACAD_REACTORS
330
47
102
}
330
47
100
AcDbScale
 70
     0
300
1:1
140
1.0
141
1.0
290
     1
  0
SCALE
  5
49
102
{ACAD_REACTORS
330
47
102
}
330
47
100
AcDbScale
 70
     0
300
1:2
140
1.0
141
2.0
290
     0
  0
SCALE
  5
4A
102
{ACAD_REACTORS
330
47
102
}
330
47
100
AcDbScale
 70
     0
300
1:4
140
1.0
141
4.0
290
     0
  0
SCALE
  5
4B
102
{ACAD_REACTORS
330
47
102
}
330
47
100
AcDbScale
 70
     0
300
1:5
140
1.0
141
5.0
290
     0
  0
SCALE
  5
4C
102
{ACAD_REACTORS
330
47
102
}
330
47
100
AcDbScale
 70
     0
300
1:8
140
1.0
141
8.0
290
     0
  0
SCALE
  5
4D
102
{ACAD_REACTORS
330
47
102
}
330
47
100
AcDbScale
 70
     0
300
1:10
140
1.0
141
10.0
290
     0
  0
SCALE
  5
4E
102
{ACAD_REACTORS
330
47
102
}
330
47
100
AcDbScale
 70
     0
300
1:16
140
1.0
141
16.0
290
     0
  0
SCALE
  5
4F
102
{ACAD_REACTORS
330
47
102
}
330
47
100
AcDbScale
 70
     0
300
1:20
140
1.0
141
20.0
290
     0
  0
SCALE
  5
50
102
{ACAD_REACTORS
330
47
102
}
330
47
100
AcDbScale
 70
     0
300
1:30
140
1.0
141
30.0
290
     0
  0
SCALE
  5
51
102
{ACAD_REACTORS
330
47
102
}
330
47
100
AcDbScale
 70
     0
300
1:40
140
1.0
141
40.0
290
     0
  0
SCALE
  5
52
102
{ACAD_REACTORS
330
47
102
}
330
47
100
AcDbScale
 70
     0
300
1:50
140
1.0
141
50.0
290
     0
  0
SCALE
  5
53
102
{ACAD_REACTORS
330
47
102
}
330
47
100
AcDbScale
 70
     0
300
1:100
140
1.0
141
100.0
290
     0
  0
SCALE
  5
54
102
{ACAD_REACTORS
330
47
102
}
330
47
100
AcDbScale
 70
     0
300
2:1
140
2.0
141
1.0
290
     0
  0
SCALE
  5
55
102
{ACAD_REACTORS
330
47
102
}
330
47
100
AcDbScale
 70
     0
300
4:1
140
4.0
141
1.0
290
     0
  0
SCALE
  5
56
102
{ACAD_REACTORS
330
47
102
}
330
47
100
AcDbScale
 70
     0
300
8:1
140
8.0
141
1.0
290
     0
  0
SCALE
  5
57
102
{ACAD_REACTORS
330
47
102
}
330
47
100
AcDbScale
 70
     0
300
10:1
140
10.0
141
1.0
290
     0
  0
SCALE
  5
58
102
{ACAD_REACTORS
330
47
102
}
330
47
100
AcDbScale
 70
     0
300
100:1
140
100.0
141
1.0
290
     0
  0
SCALE
  5
59
102
{ACAD_REACTORS
330
47
102
}
330
47
100
AcDbScale
 70
     0
300
1/128" = 1'-0"
140
0.0078125
141
12.0
290
     0
  0
SCALE
  5
5A
102
{ACAD_REACTORS
330
47
102
}
330
47
100
AcDbScale
 70
     0
300
1/64" = 1'-0"
140
0.015625
141
12.0
290
     0
  0
SCALE
  5
5B
102
{ACAD_REACTORS
330
47
102
}
330
47
100
AcDbScale
 70
     0
300
1/32" = 1'-0"
140
0.03125
141
12.0
290
     0
  0
SCALE
  5
5C
102
{ACAD_REACTORS
330
47
102
}
330
47
100
AcDbScale
 70
     0
300
1/16" = 1'-0"
140
0.0625
141
12.0
290
     0
  0
SCALE
  5
5D
102
{ACAD_REACTORS
330
47
102
}
330
47
100
AcDbScale
 70
     0
300
3/32" = 1'-0"
140
0.09375
141
12.0
290
     0
  0
SCALE
  5
5E
102
{ACAD_REACTORS
330
47
102
}
330
47
100
AcDbScale
 70
     0
300
1/8" = 1'-0"
140
0.125
141
12.0
290
     0
  0
SCALE
  5
5F
102
{ACAD_REACTORS
330
47
102
}
330
47
100
AcDbScale
 70
     0
300
3/16" = 1'-0"
140
0.1875
141
12.0
290
     0
  0
SCALE
  5
60
102
{ACAD_REACTORS
330
47
102
}
330
47
100
AcDbScale
 70
     0
300
1/4" = 1'-0"
140
0.25
141
12.0
290
     0
  0
SCALE
  5
61
102
{ACAD_REACTORS
330
47
102
}
330
47
100
AcDbScale
 70
     0
300
3/8" = 1'-0"
140
0.375
141
12.0
290
     0
  0
SCALE
  5
62
102
{ACAD_REACTORS
330
47
102
}
330
47
100
AcDbScale
 70
     0
300
1/2" = 1'-0"
140
0.5
141
12.0
290
     0
  0
SCALE
  5
63
102
{ACAD_REACTORS
330
47
102
}
330
47
100
AcDbScale
 70
     0
300
3/4" = 1'-0"
140
0.75
141
12.0
290
     0
  0
SCALE
  5
64
102
{ACAD_REACTORS
330
47
102
}
330
47
100
AcDbScale
 70
     0
300
1" = 1'-0"
140
1.0
141
12.0
290
     0
  0
SCALE
  5
65
102
{ACAD_REACTORS
330
47
102
}
330
47
100
AcDbScale
 70
     0
300
1-1/2" = 1'-0"
140
1.5
141
12.0
290
     0
  0
SCALE
  5
66
102
{ACAD_REACTORS
330
47
102
}
330
47
100
AcDbScale
 70
     0
300
3" = 1'-0"
140
3.0
141
12.0
290
     0
  0
SCALE
  5
67
102
{ACAD_REACTORS
330
47
102
}
330
47
100
AcDbScale
 70
     0
300
6" = 1'-0"
140
6.0
141
12.0
290
     0
  0
SCALE
  5
68
102
{ACAD_REACTORS
330
47
102
}
330
47
100
AcDbScale
 70
     0
300
1'-0" = 1'-0"
140
12.0
141
12.0
290
     0
  0
ENDSEC
  0
EOF
