  0
SECTION
  2
HEADER
  9
$ACADVER
  1
AC1015
  9
$ACADMAINTVER
 70
     6
  9
$DWGCODEPAGE
  3
ANSI_949
  9
$INSBASE
 10
0.0
 20
0.0
 30
0.0
  9
$EXTMIN
 10
-48.92372562750766
 20
-49.97180738881174
 30
0.0
  9
$EXTMAX
 10
77.08024743583556
 20
53.55000000000004
 30
0.0
  9
$LIMMIN
 10
0.0
 20
0.0
  9
$LIMMAX
 10
420.0
 20
297.0
  9
$ORTHOMODE
 70
     1
  9
$REGENMODE
 70
     1
  9
$FILLMODE
 70
     1
  9
$QTEXTMODE
 70
     0
  9
$MIRRTEXT
 70
     1
  9
$LTSCALE
 40
1.0
  9
$ATTMODE
 70
     1
  9
$TEXTSIZE
 40
3.5
  9
$TRACEWID
 40
1.0
  9
$TEXTSTYLE
  7
Standard
  9
$CLAYER
  8
0
  9
$CELTYPE
  6
ByLayer
  9
$CECOLOR
 62
   256
  9
$CELTSCALE
 40
1.0
  9
$DISPSILH
 70
     0
  9
$DIMSCALE
 40
1.0
  9
$DIMASZ
 40
3.302
  9
$DIMEXO
 40
1.0
  9
$DIMDLI
 40
3.75
  9
$DIMRND
 40
0.0
  9
$DIMDLE
 40
0.0
  9
$DIMEXE
 40
1.0
  9
$DIMTP
 40
0.0
  9
$DIMTM
 40
0.0
  9
$DIMTXT
 40
3.5
  9
$DIMCEN
 40
2.5
  9
$DIMTSZ
 40
0.0
  9
$DIMTOL
 70
     0
  9
$DIMLIM
 70
     0
  9
$DIMTIH
 70
     1
  9
$DIMTOH
 70
     1
  9
$DIMSE1
 70
     0
  9
$DIMSE2
 70
     0
  9
$DIMTAD
 70
     1
  9
$DIMZIN
 70
     0
  9
$DIMBLK
  1

  9
$DIMASO
 70
     1
  9
$DIMSHO
 70
     1
  9
$DIMPOST
  1

  9
$DIMAPOST
  1

  9
$DIMALT
 70
     0
  9
$DIMALTD
 70
     3
  9
$DIMALTF
 40
0.0393700787401575
  9
$DIMLFAC
 40
1.0
  9
$DIMTOFL
 70
     1
  9
$DIMTVP
 40
0.0
  9
$DIMTIX
 70
     0
  9
$DIMSOXD
 70
     0
  9
$DIMSAH
 70
     0
  9
$DIMBLK1
  1

  9
$DIMBLK2
  1

  9
$DIMSTYLE
  2
ISO-25
  9
$DIMCLRD
 70
     0
  9
$DIMCLRE
 70
     0
  9
$DIMCLRT
 70
     0
  9
$DIMTFAC
 40
1.0
  9
$DIMGAP
 40
1.524
  9
$DIMJUST
 70
     0
  9
$DIMSD1
 70
     0
  9
$DIMSD2
 70
     0
  9
$DIMTOLJ
 70
     0
  9
$DIMTZIN
 70
     0
  9
$DIMALTZ
 70
     0
  9
$DIMALTTZ
 70
     0
  9
$DIMUPT
 70
     0
  9
$DIMDEC
 70
     2
  9
$DIMTDEC
 70
     2
  9
$DIMALTU
 70
     2
  9
$DIMALTTD
 70
     3
  9
$DIMTXSTY
  7
Standard
  9
$DIMAUNIT
 70
     0
  9
$DIMADEC
 70
     2
  9
$DIMALTRND
 40
0.0
  9
$DIMAZIN
 70
     0
  9
$DIMDSEP
 70
    44
  9
$DIMATFIT
 70
     3
  9
$DIMFRAC
 70
     0
  9
$DIMLDRBLK
  1

  9
$DIMLUNIT
 70
     2
  9
$DIMLWD
 70
    -2
  9
$DIMLWE
 70
    -2
  9
$DIMTMOVE
 70
     0
  9
$LUNITS
 70
     2
  9
$LUPREC
 70
     2
  9
$SKETCHINC
 40
1.0
  9
$FILLETRAD
 40
10.0
  9
$AUNITS
 70
     0
  9
$AUPREC
 70
     2
  9
$MENU
  1
.
  9
$ELEVATION
 40
0.0
  9
$PELEVATION
 40
0.0
  9
$THICKNESS
 40
0.0
  9
$LIMCHECK
 70
     0
  9
$CHAMFERA
 40
0.0
  9
$CHAMFERB
 40
0.0
  9
$CHAMFERC
 40
0.0
  9
$CHAMFERD
 40
0.0
  9
$SKPOLY
 70
     0
  9
$TDCREATE
 40
2458288.517681308
  9
$TDUCREATE
 40
2458288.142681308
  9
$TDUPDATE
 40
2458303.413657558
  9
$TDUUPDATE
 40
2458303.038657558
  9
$TDINDWG
 40
0.0021821759
  9
$TDUSRTIMER
 40
0.0024066551
  9
$USRTIMER
 70
     1
  9
$ANGBASE
 50
0.0
  9
$ANGDIR
 70
     0
  9
$PDMODE
 70
     0
  9
$PDSIZE
 40
-1.0
  9
$PLINEWID
 40
0.0
  9
$SPLFRAME
 70
     0
  9
$SPLINETYPE
 70
     6
  9
$SPLINESEGS
 70
     8
  9
$HANDSEED
  5
16E
  9
$SURFTAB1
 70
     6
  9
$SURFTAB2
 70
     6
  9
$SURFTYPE
 70
     6
  9
$SURFU
 70
     6
  9
$SURFV
 70
     6
  9
$UCSBASE
  2

  9
$UCSNAME
  2

  9
$UCSORG
 10
0.0
 20
0.0
 30
0.0
  9
$UCSXDIR
 10
1.0
 20
0.0
 30
0.0
  9
$UCSYDIR
 10
0.0
 20
1.0
 30
0.0
  9
$UCSORTHOREF
  2

  9
$UCSORTHOVIEW
 70
     0
  9
$UCSORGTOP
 10
0.0
 20
0.0
 30
0.0
  9
$UCSORGBOTTOM
 10
0.0
 20
0.0
 30
0.0
  9
$UCSORGLEFT
 10
0.0
 20
0.0
 30
0.0
  9
$UCSORGRIGHT
 10
0.0
 20
0.0
 30
0.0
  9
$UCSORGFRONT
 10
0.0
 20
0.0
 30
0.0
  9
$UCSORGBACK
 10
0.0
 20
0.0
 30
0.0
  9
$PUCSBASE
  2

  9
$PUCSNAME
  2

  9
$PUCSORG
 10
0.0
 20
0.0
 30
0.0
  9
$PUCSXDIR
 10
1.0
 20
0.0
 30
0.0
  9
$PUCSYDIR
 10
0.0
 20
1.0
 30
0.0
  9
$PUCSORTHOREF
  2

  9
$PUCSORTHOVIEW
 70
     0
  9
$PUCSORGTOP
 10
0.0
 20
0.0
 30
0.0
  9
$PUCSORGBOTTOM
 10
0.0
 20
0.0
 30
0.0
  9
$PUCSORGLEFT
 10
0.0
 20
0.0
 30
0.0
  9
$PUCSORGRIGHT
 10
0.0
 20
0.0
 30
0.0
  9
$PUCSORGFRONT
 10
0.0
 20
0.0
 30
0.0
  9
$PUCSORGBACK
 10
0.0
 20
0.0
 30
0.0
  9
$USERI1
 70
     0
  9
$USERI2
 70
     0
  9
$USERI3
 70
     0
  9
$USERI4
 70
     0
  9
$USERI5
 70
     0
  9
$USERR1
 40
0.0
  9
$USERR2
 40
0.0
  9
$USERR3
 40
0.0
  9
$USERR4
 40
0.0
  9
$USERR5
 40
0.0
  9
$WORLDVIEW
 70
     1
  9
$SHADEDGE
 70
     3
  9
$SHADEDIF
 70
    70
  9
$TILEMODE
 70
     1
  9
$MAXACTVP
 70
    64
  9
$PINSBASE
 10
0.0
 20
0.0
 30
0.0
  9
$PLIMCHECK
 70
     0
  9
$PEXTMIN
 10
1.000000000000000E+20
 20
1.000000000000000E+20
 30
1.000000000000000E+20
  9
$PEXTMAX
 10
-1.000000000000000E+20
 20
-1.000000000000000E+20
 30
-1.000000000000000E+20
  9
$PLIMMIN
 10
0.0
 20
0.0
  9
$PLIMMAX
 10
0.0
 20
0.0
  9
$UNITMODE
 70
     0
  9
$VISRETAIN
 70
     1
  9
$PLINEGEN
 70
     0
  9
$PSLTSCALE
 70
     1
  9
$TREEDEPTH
 70
  3020
  9
$CMLSTYLE
  2
Standard
  9
$CMLJUST
 70
     0
  9
$CMLSCALE
 40
20.0
  9
$PROXYGRAPHICS
 70
     1
  9
$MEASUREMENT
 70
     1
  9
$CELWEIGHT
370
    -1
  9
$ENDCAPS
280
     0
  9
$JOINSTYLE
280
     0
  9
$LWDISPLAY
290
     1
  9
$INSUNITS
 70
     4
  9
$HYPERLINKBASE
  1

  9
$STYLESHEET
  1

  9
$XEDIT
290
     1
  9
$CEPSNTYPE
380
     0
  9
$PSTYLEMODE
290
     1
  9
$FINGERPRINTGUID
  2
{EFD6897C-C65A-48D0-9BE6-2BB092457A13}
  9
$VERSIONGUID
  2
{FAEB1C32-E019-11D5-929B-00C0DF256EC4}
  9
$EXTNAMES
290
     1
  9
$PSVPSCALE
 40
0.0
  9
$OLESTARTUP
290
     0
  0
ENDSEC
  0
SECTION
  2
CLASSES
  0
CLASS
  1
ACDBDICTIONARYWDFLT
  2
AcDbDictionaryWithDefault
  3
ObjectDBX Classes
 90
        0
280
     0
281
     0
  0
CLASS
  1
VISUALSTYLE
  2
AcDbVisualStyle
  3
ObjectDBX Classes
 90
     4095
280
     0
281
     0
  0
CLASS
  1
MATERIAL
  2
AcDbMaterial
  3
ObjectDBX Classes
 90
     1153
280
     0
281
     0
  0
CLASS
  1
SCALE
  2
AcDbScale
  3
ObjectDBX Classes
 90
     1153
280
     0
281
     0
  0
CLASS
  1
SUN
  2
AcDbSun
  3
SCENEOE
 90
     1153
280
     0
281
     0
  0
CLASS
  1
ACDBPLACEHOLDER
  2
AcDbPlaceHolder
  3
ObjectDBX Classes
 90
        0
280
     0
281
     0
  0
CLASS
  1
LAYOUT
  2
AcDbLayout
  3
ObjectDBX Classes
 90
        0
280
     0
281
     0
  0
CLASS
  1
TABLESTYLE
  2
AcDbTableStyle
  3
ObjectDBX Classes
 90
     4095
280
     0
281
     0
  0
CLASS
  1
MLEADERSTYLE
  2
AcDbMLeaderStyle
  3
ACDB_MLEADERSTYLE_CLASS
 90
     4095
280
     0
281
     0
  0
CLASS
  1
DICTIONARYVAR
  2
AcDbDictionaryVar
  3
ObjectDBX Classes
 90
        0
280
     0
281
     0
  0
ENDSEC
  0
SECTION
  2
TABLES
  0
TABLE
  2
VPORT
  5
8
330
0
100
AcDbSymbolTable
 70
     1
  0
VPORT
  5
29
330
8
100
AcDbSymbolTableRecord
100
AcDbViewportTableRecord
  2
*Active
 70
     0
 10
0.0
 20
0.0
 11
1.0
 21
1.0
 12
-20.35340647945009
 22
3.07310493890314
 13
0.0
 23
0.0
 14
10.0
 24
10.0
 15
10.0
 25
10.0
 16
0.0
 26
0.0
 36
1.0
 17
0.0
 27
0.0
 37
0.0
 40
114.2974828869511
 41
2.268018018018018
 42
50.0
 43
0.0
 44
0.0
 50
0.0
 51
0.0
 71
    16
 72
  2000
 73
     1
 74
     3
 75
     0
 76
     0
 77
     0
 78
     0
281
     0
 65
     1
110
0.0
120
0.0
130
0.0
111
1.0
121
0.0
131
0.0
112
0.0
122
1.0
132
0.0
 79
     0
146
0.0
  0
ENDTAB
  0
TABLE
  2
LTYPE
  5
5
330
0
100
AcDbSymbolTable
 70
     6
  0
LTYPE
  5
14
330
5
100
AcDbSymbolTableRecord
100
AcDbLinetypeTableRecord
  2
ByBlock
 70
     0
  3

 72
    65
 73
     0
 40
0.0
  0
LTYPE
  5
15
330
5
100
AcDbSymbolTableRecord
100
AcDbLinetypeTableRecord
  2
ByLayer
 70
     0
  3

 72
    65
 73
     0
 40
0.0
  0
LTYPE
  5
16
330
5
100
AcDbSymbolTableRecord
100
AcDbLinetypeTableRecord
  2
Continuous
 70
     0
  3
Solid line
 72
    65
 73
     0
 40
0.0
  0
LTYPE
  5
6A
330
5
100
AcDbSymbolTableRecord
100
AcDbLinetypeTableRecord
  2
HIDDEN
 70
     0
  3
Hidden __ __ __ __ __ __ __ __ __ __ __ __ __ __
 72
    65
 73
     2
 40
1.905
 49
1.27
 74
     0
 49
-0.635
 74
     0
  0
LTYPE
  5
6B
330
5
100
AcDbSymbolTableRecord
100
AcDbLinetypeTableRecord
  2
PHANTOM
 70
     0
  3
Phantom ______  __  __  ______  __  __  ______
 72
    65
 73
     6
 40
12.7
 49
6.35
 74
     0
 49
-1.27
 74
     0
 49
1.27
 74
     0
 49
-1.27
 74
     0
 49
1.27
 74
     0
 49
-1.27
 74
     0
  0
LTYPE
  5
6C
330
5
100
AcDbSymbolTableRecord
100
AcDbLinetypeTableRecord
  2
CENTER
 70
     0
  3
Center ____ _ ____ _ ____ _ ____ _ ____ _ ____
 72
    65
 73
     4
 40
10.16
 49
6.35
 74
     0
 49
-1.27
 74
     0
 49
1.27
 74
     0
 49
-1.27
 74
     0
  0
LTYPE
  5
6D
330
5
100
AcDbSymbolTableRecord
100
AcDbLinetypeTableRecord
  2
CENTERX2
 70
     0
  3
Center (2x) ________  __  ________  __  _____
 72
    65
 73
     4
 40
20.32
 49
12.7
 74
     0
 49
-2.54
 74
     0
 49
2.54
 74
     0
 49
-2.54
 74
     0
  0
LTYPE
  5
6E
330
5
100
AcDbSymbolTableRecord
100
AcDbLinetypeTableRecord
  2
DOT2
 70
     0
  3
Dot (.5x) ........................................
 72
    65
 73
     2
 40
0.635
 49
0.0
 74
     0
 49
-0.635
 74
     0
  0
ENDTAB
  0
TABLE
  2
LAYER
  5
2
330
0
100
AcDbSymbolTable
 70
    18
  0
LAYER
  5
10
330
2
100
AcDbSymbolTableRecord
100
AcDbLayerTableRecord
  2
0
 70
     0
 62
     7
  6
Continuous
370
    -3
390
F
  0
LAYER
  5
6F
330
2
100
AcDbSymbolTableRecord
100
AcDbLayerTableRecord
  2
FORMAT
 70
     0
 62
     2
  6
Continuous
370
    -3
390
F
  0
LAYER
  5
70
330
2
100
AcDbSymbolTableRecord
100
AcDbLayerTableRecord
  2
외형선
 70
     0
 62
     4
  6
Continuous
370
    30
390
F
  0
LAYER
  5
71
330
2
100
AcDbSymbolTableRecord
100
AcDbLayerTableRecord
  2
숨은선
 70
     0
 62
     2
  6
HIDDEN
370
    15
390
F
  0
LAYER
  5
72
330
2
100
AcDbSymbolTableRecord
100
AcDbLayerTableRecord
  2
중심선
 70
     0
 62
     1
  6
CENTERX2
370
    -3
390
F
  0
LAYER
  5
73
330
2
100
AcDbSymbolTableRecord
100
AcDbLayerTableRecord
  2
파단선
 70
     0
 62
     4
  6
Continuous
370
    -3
390
F
  0
LAYER
  5
74
330
2
100
AcDbSymbolTableRecord
100
AcDbLayerTableRecord
  2
해칭선
 70
     0
 62
   100
  6
Continuous
370
    -3
390
F
  0
LAYER
  5
75
330
2
100
AcDbSymbolTableRecord
100
AcDbLayerTableRecord
  2
가는실선
 70
     0
 62
     4
  6
Continuous
370
    -3
390
F
  0
LAYER
  5
76
330
2
100
AcDbSymbolTableRecord
100
AcDbLayerTableRecord
  2
치수_보조선
 70
     0
 62
     4
  6
Continuous
370
    -3
390
F
  0
LAYER
  5
77
330
2
100
AcDbSymbolTableRecord
100
AcDbLayerTableRecord
  2
치수문자_일반주서
 70
     0
 62
     7
  6
Continuous
370
    15
390
F
  0
LAYER
  5
78
330
2
100
AcDbSymbolTableRecord
100
AcDbLayerTableRecord
  2
개별주서
 70
     0
 62
   100
  6
Continuous
370
    30
390
F
  0
LAYER
  5
79
330
2
100
AcDbSymbolTableRecord
100
AcDbLayerTableRecord
  2
중간선
 70
     0
 62
     2
  6
Continuous
370
    15
390
F
  0
LAYER
  5
7A
330
2
100
AcDbSymbolTableRecord
100
AcDbLayerTableRecord
  2
윤곽선
 70
     0
 62
     3
  6
Continuous
370
    40
390
F
  0
LAYER
  5
7B
330
2
100
AcDbSymbolTableRecord
100
AcDbLayerTableRecord
  2
중심마크
 70
     0
 62
   100
  6
Continuous
370
    30
390
F
  0
LAYER
  5
7C
330
2
100
AcDbSymbolTableRecord
100
AcDbLayerTableRecord
  2
가상선
 70
     0
 62
     4
  6
PHANTOM
370
    -3
390
F
  0
LAYER
  5
7D
330
2
100
AcDbSymbolTableRecord
100
AcDbLayerTableRecord
  2
특수지정선
 70
     0
 62
     5
  6
CENTERX2
370
    60
390
F
  0
LAYER
  5
7E
330
2
100
AcDbSymbolTableRecord
100
AcDbLayerTableRecord
  2
참조1
 70
     0
 62
    -4
  6
Continuous
370
    -3
390
F
  0
LAYER
  5
164
330
2
100
AcDbSymbolTableRecord
100
AcDbLayerTableRecord
  2
Defpoints
 70
     0
 62
     7
  6
Continuous
290
     0
370
    -3
390
F
  0
ENDTAB
  0
TABLE
  2
STYLE
  5
3
330
0
100
AcDbSymbolTable
 70
     2
  0
STYLE
  5
11
330
3
100
AcDbSymbolTableRecord
100
AcDbTextStyleTableRecord
  2
Standard
 70
     0
 40
0.0
 41
1.0
 50
0.0
 71
     0
 42
3.5
  3
txt
  4

  0
STYLE
  5
94
330
3
100
AcDbSymbolTableRecord
100
AcDbTextStyleTableRecord
  2
SLDTEXTSTYLE0
 70
     0
 40
0.0
 41
0.75
 50
0.0
 71
     0
 42
3.5
  3
TXT
  4

  0
ENDTAB
  0
TABLE
  2
VIEW
  5
6
330
0
100
AcDbSymbolTable
 70
     0
  0
ENDTAB
  0
TABLE
  2
UCS
  5
7
330
0
100
AcDbSymbolTable
 70
     0
  0
ENDTAB
  0
TABLE
  2
APPID
  5
9
330
0
100
AcDbSymbolTable
 70
     2
  0
APPID
  5
12
330
9
100
AcDbSymbolTableRecord
100
AcDbRegAppTableRecord
  2
ACAD
 70
     0
  0
APPID
  5
168
330
9
100
AcDbSymbolTableRecord
100
AcDbRegAppTableRecord
  2
PE_URL
 70
     0
  0
ENDTAB
  0
TABLE
  2
DIMSTYLE
  5
A
330
0
100
AcDbSymbolTable
 70
     3
100
AcDbDimStyleTable
  0
DIMSTYLE
105
27
330
A
100
AcDbSymbolTableRecord
100
AcDbDimStyleTableRecord
  2
ISO-25
 70
     0
 41
2.5
 42
0.625
 43
3.75
 44
1.25
 73
     0
 74
     0
 77
     1
 78
     8
140
2.5
141
2.5
143
0.03937007874016
147
0.625
171
     3
172
     1
178
     0
271
     2
272
     2
274
     3
278
    44
283
     0
284
     8
340
11
  0
DIMSTYLE
105
C8
102
{ACAD_REACTORS
330
C7
330
105
330
119
330
DD
330
F2
102
}
330
A
100
AcDbSymbolTableRecord
100
AcDbDimStyleTableRecord
  2
SLDDIMSTYLE0
 70
     0
 41
3.302
 44
0.0
 45
0.000000001
 73
     0
 74
     0
 77
     1
 78
    12
 79
     3
140
3.5
143
0.0393700787401575
147
0.875
148
0.000000001
170
     1
172
     1
173
     1
178
     0
271
     2
272
     2
276
     2
284
    12
289
     0
340
94
  0
DIMSTYLE
105
DE
330
A
100
AcDbSymbolTableRecord
100
AcDbDimStyleTableRecord
  2
SLDDIMSTYLE1
 70
     0
 41
3.302
 44
0.0
 45
0.000000001
 73
     0
 74
     0
 77
     1
 78
     4
 79
     1
140
3.5
143
0.0393700787401575
147
0.875
148
0.000000001
170
     1
173
     1
178
     0
271
     2
272
     2
276
     2
284
    12
340
94
  0
ENDTAB
  0
TABLE
  2
BLOCK_RECORD
  5
1
330
0
100
AcDbSymbolTable
 70
     8
  0
BLOCK_RECORD
  5
1F
330
1
100
AcDbSymbolTableRecord
100
AcDbBlockTableRecord
  2
*Model_Space
340
22
  0
BLOCK_RECORD
  5
1B
330
1
100
AcDbSymbolTableRecord
100
AcDbBlockTableRecord
  2
*Paper_Space
340
1E
  0
BLOCK_RECORD
  5
23
330
1
100
AcDbSymbolTableRecord
100
AcDbBlockTableRecord
  2
*Paper_Space0
340
26
  0
BLOCK_RECORD
  5
7F
330
1
100
AcDbSymbolTableRecord
100
AcDbBlockTableRecord
  2
블럭10
340
0
102
{BLKREFS
331
C0
102
}
  0
BLOCK_RECORD
  5
C9
330
1
100
AcDbSymbolTableRecord
100
AcDbBlockTableRecord
  2
_D
340
0
  0
BLOCK_RECORD
  5
DF
330
1
100
AcDbSymbolTableRecord
100
AcDbBlockTableRecord
  2
_D_1
340
0
  0
BLOCK_RECORD
  5
F3
330
1
100
AcDbSymbolTableRecord
100
AcDbBlockTableRecord
  2
_D_2
340
0
  0
BLOCK_RECORD
  5
106
330
1
100
AcDbSymbolTableRecord
100
AcDbBlockTableRecord
  2
_D_3
340
0
  0
BLOCK_RECORD
  5
11A
330
1
100
AcDbSymbolTableRecord
100
AcDbBlockTableRecord
  2
_D_4
340
0
  0
BLOCK_RECORD
  5
134
330
1
100
AcDbSymbolTableRecord
100
AcDbBlockTableRecord
  2
SW_DOWELSYMBOL_0
340
0
102
{BLKREFS
331
13A
102
}
  0
ENDTAB
  0
ENDSEC
  0
SECTION
  2
BLOCKS
  0
BLOCK
  5
20
330
1F
100
AcDbEntity
  8
0
100
AcDbBlockBegin
  2
*Model_Space
 70
     0
 10
0.0
 20
0.0
 30
0.0
  3
*Model_Space
  1

  0
ENDBLK
  5
21
330
1F
100
AcDbEntity
  8
0
100
AcDbBlockEnd
  0
BLOCK
  5
1C
330
1B
100
AcDbEntity
 67
     1
  8
0
100
AcDbBlockBegin
  2
*Paper_Space
 70
     0
 10
0.0
 20
0.0
 30
0.0
  3
*Paper_Space
  1

  0
ENDBLK
  5
1D
330
1B
100
AcDbEntity
 67
     1
  8
0
100
AcDbBlockEnd
  0
BLOCK
  5
24
330
23
100
AcDbEntity
  8
0
100
AcDbBlockBegin
  2
*Paper_Space0
 70
     0
 10
0.0
 20
0.0
 30
0.0
  3
*Paper_Space0
  1

  0
ENDBLK
  5
25
330
23
100
AcDbEntity
  8
0
100
AcDbBlockEnd
  0
BLOCK
  5
80
330
7F
100
AcDbEntity
  8
0
100
AcDbBlockBegin
  2
블럭10
 70
     2
 10
0.0
 20
0.0
 30
0.0
  3
블럭10
  1

  0
ELLIPSE
  5
82
330
7F
100
AcDbEntity
  8
중심선
100
AcDbEllipse
 10
20.54032771741204
 20
12.0471743016438
 30
0.0
 11
6.600054785286829
 21
-1.261213355974178E-13
 31
0.0
210
0.0
220
0.0
230
1.0
 40
0.636358354079598
 41
0.9219305317359503
 42
6.513795318482858
  0
ELLIPSE
  5
83
330
7F
100
AcDbEntity
  8
중심선
100
AcDbEllipse
 10
20.54032771746488
 20
12.04717430159265
 30
0.0
 11
3.960054785062283
 21
1.540847449632565E-10
 31
0.0
210
0.0
220
0.0
230
1.0
 40
0.3939339440162632
 41
1.131841032648279
 42
5.62031148352944
  0
LINE
  5
84
330
7F
100
AcDbEntity
  8
중심선
100
AcDbLine
 10
2.268634060543552
 20
16.24717430164393
 30
0.0
 11
5.714909304380834
 21
16.24717430164393
 31
0.0
  0
LINE
  5
85
330
7F
100
AcDbEntity
  8
중심선
100
AcDbLine
 10
5.245725140726316
 20
7.84717430164391
 30
0.0
 11
8.692000384563599
 21
7.84717430164391
 31
0.0
  0
LINE
  5
86
330
7F
100
AcDbEntity
  8
중심선
100
AcDbLine
 10
15.74043728645272
 20
16.24717430164393
 30
0.0
 11
8.692000384563599
 21
7.84717430164391
 31
0.0
  0
LINE
  5
87
330
7F
100
AcDbEntity
  8
중심선
100
AcDbLine
 10
0.1404042013395286
 20
13.71084872107135
 30
0.0
 11
3.58671253028996
 21
13.71088815037384
 31
0.0
  0
LINE
  5
88
330
7F
100
AcDbEntity
  8
중심선
100
AcDbLine
 10
2.750260043222114
 20
10.84717430164391
 30
0.0
 11
6.196535287059397
 21
10.84717430164391
 31
0.0
  0
LINE
  5
89
330
7F
100
AcDbEntity
  8
중심선
100
AcDbLine
 10
12.29416204261559
 20
16.24717430164393
 30
0.0
 11
5.245725140726316
 21
7.84717430164391
 31
0.0
  0
LINE
  5
8A
330
7F
100
AcDbEntity
  8
중심선
100
AcDbLine
 10
10.72767329541681
 20
16.24717430164393
 30
0.0
 11
6.196535287059397
 21
10.84717430164391
 31
0.0
  0
LINE
  5
8B
330
7F
100
AcDbEntity
  8
중심선
100
AcDbLine
 10
7.28139805157953
 20
16.24717430164393
 30
0.0
 11
2.750260043222114
 21
10.84717430164391
 31
0.0
  0
LINE
  5
8C
330
7F
100
AcDbEntity
  8
중심선
100
AcDbLine
 10
5.714909304380834
 20
16.24717430164393
 30
0.0
 11
3.58671253028996
 21
13.71088815037384
 31
0.0
  0
LINE
  5
8D
330
7F
100
AcDbEntity
  8
중심선
100
AcDbLine
 10
2.268634060543552
 20
16.24717430164393
 30
0.0
 11
0.1404042013395286
 21
13.71084872107135
 31
0.0
  0
LINE
  5
8E
330
7F
100
AcDbEntity
  8
중심선
100
AcDbLine
 10
7.28139805157953
 20
16.24717430164393
 30
0.0
 11
10.72767329541681
 21
16.24717430164393
 31
0.0
  0
LINE
  5
8F
330
7F
100
AcDbEntity
  8
중심선
100
AcDbLine
 10
12.29416204261559
 20
16.24717430164393
 30
0.0
 11
15.74043728645272
 21
16.24717430164393
 31
0.0
  0
LINE
  5
90
330
7F
100
AcDbEntity
  8
중심선
100
AcDbLine
 10
19.22036997980202
 20
11.08717430171403
 30
0.0
 11
23.66174974927406
 21
11.08717430171406
 31
0.0
  0
LINE
  5
91
330
7F
100
AcDbEntity
  8
중심선
100
AcDbLine
 10
19.22039502424796
 20
13.00717430171391
 30
0.0
 11
19.22036997980202
 21
11.08717430171403
 31
0.0
  0
LINE
  5
92
330
7F
100
AcDbEntity
  8
중심선
100
AcDbLine
 10
19.22039502424796
 20
13.00717430171391
 30
0.0
 11
26.96566020931264
 21
13.00717430171391
 31
0.0
  0
LINE
  5
93
330
7F
100
AcDbEntity
  8
중심선
100
AcDbLine
 10
22.22332737316547
 20
13.45928029700563
 30
0.0
 11
24.52862924686651
 21
15.39360700705356
 31
0.0
  0
ATTDEF
  5
95
330
7F
100
AcDbEntity
  8
FORMAT
 62
     2
100
AcDbText
 10
3.448148490846466
 20
2.075366912832191
 30
0.0
 40
4.233333333333333
  1
EM967903
 41
0.75
  7
SLDTEXTSTYLE0
 11
3.448148490846466
 21
-0.0412997538344756
 31
0.0
100
AcDbAttributeDefinition
  3

  2
AUTOATTR0
 70
     0
 74
     1
  0
ENDBLK
  5
81
330
7F
100
AcDbEntity
  8
0
100
AcDbBlockEnd
  0
BLOCK
  5
CA
330
C9
100
AcDbEntity
  8
0
100
AcDbBlockBegin
  2
_D
 70
     0
 10
0.0
 20
0.0
 30
0.0
  3
_D
  1

  0
LINE
  5
CC
330
C9
100
AcDbEntity
  8
치수문자_일반주서
 62
     0
370
    -2
100
AcDbLine
 10
16.49176362048995
 20
0.6578125000000614
 30
0.0
 11
16.49176362048995
 21
18.50763161524154
 31
0.0
  0
LINE
  5
CD
330
C9
100
AcDbEntity
  8
치수문자_일반주서
 62
     0
370
    -2
100
AcDbLine
 10
14.90426362028204
 20
0.6578125000000568
 30
0.0
 11
14.90426362028204
 21
18.50763161524154
 31
0.0
  0
LINE
  5
CE
330
C9
100
AcDbEntity
  8
치수문자_일반주서
 62
     0
370
    -2
100
AcDbLine
 10
14.90426362028204
 20
18.50763161524154
 30
0.0
 11
-21.43503957133539
 21
18.50763161524154
 31
0.0
  0
LINE
  5
CF
330
C9
100
AcDbEntity
  8
치수문자_일반주서
 62
     0
370
    -2
100
AcDbLine
 10
16.49176362048995
 20
18.50763161524154
 30
0.0
 11
14.90426362028204
 21
18.50763161524154
 31
0.0
  0
LINE
  5
D0
330
C9
100
AcDbEntity
  8
치수문자_일반주서
 62
     0
370
    -2
100
AcDbLine
 10
19.79376362048995
 20
18.50763161524154
 30
0.0
 11
23.09576362048995
 21
18.50763161524154
 31
0.0
  0
LINE
  5
D1
330
C9
100
AcDbEntity
  8
치수문자_일반주서
 62
     0
370
    -2
100
AcDbLine
 10
11.60226362028204
 20
18.50763161524154
 30
0.0
 11
8.30026362028204
 21
18.50763161524154
 31
0.0
  0
SOLID
  5
D2
330
C9
100
AcDbEntity
  8
치수문자_일반주서
 62
     0
100
AcDbTrace
 10
19.79376362048995
 20
19.05796494857488
 30
0.0
 11
19.79376362048995
 21
17.95729828190821
 31
0.0
 12
16.49176362048995
 22
18.50763161524154
 32
0.0
 13
16.49176362048995
 23
18.50763161524154
 33
0.0
  0
SOLID
  5
D3
330
C9
100
AcDbEntity
  8
치수문자_일반주서
 62
     0
100
AcDbTrace
 10
11.60226362028204
 20
17.95729828190821
 30
0.0
 11
11.60226362028204
 21
19.05796494857488
 31
0.0
 12
14.90426362028204
 22
18.50763161524154
 32
0.0
 13
14.90426362028204
 23
18.50763161524154
 33
0.0
  0
MTEXT
  5
D4
330
C9
100
AcDbEntity
  8
치수문자_일반주서
 62
     0
100
AcDbMText
 10
-9.622539571335397
 20
22.88263161524154
 30
0.0
 40
3.5
 41
0.0
 71
     2
 72
     1
  1
\A1;1.59 [1/16]
  7
SLDTEXTSTYLE0
 73
     1
 44
1.0
  0
POINT
  5
D5
330
C9
100
AcDbEntity
  8
Defpoints
 62
     0
100
AcDbPoint
 10
16.49176362048995
 20
0.5953125000000614
 30
0.0
  0
POINT
  5
D6
330
C9
100
AcDbEntity
  8
Defpoints
 62
     0
100
AcDbPoint
 10
14.90426362028204
 20
0.5953125000000568
 30
0.0
  0
POINT
  5
D7
330
C9
100
AcDbEntity
  8
Defpoints
 62
     0
100
AcDbPoint
 10
14.90426362028204
 20
18.50763161524154
 30
0.0
  0
ENDBLK
  5
CB
330
C9
100
AcDbEntity
  8
0
100
AcDbBlockEnd
  0
BLOCK
  5
E0
330
DF
100
AcDbEntity
  8
0
100
AcDbBlockBegin
  2
_D_1
 70
     0
 10
0.0
 20
0.0
 30
0.0
  3
_D_1
  1

  0
LINE
  5
E2
330
DF
100
AcDbEntity
  8
치수문자_일반주서
 62
     0
370
    -2
100
AcDbLine
 10
16.49176362048995
 20
0.6578125000000614
 30
0.0
 11
16.49176362048995
 21
36.22188799002355
 31
0.0
  0
LINE
  5
E3
330
DF
100
AcDbEntity
  8
치수문자_일반주서
 62
     0
370
    -2
100
AcDbLine
 10
3.791763620489969
 20
0.6578125000000189
 30
0.0
 11
3.791763620489968
 21
36.22188799002355
 31
0.0
  0
LINE
  5
E4
330
DF
100
AcDbEntity
  8
치수문자_일반주서
 62
     0
370
    -2
100
AcDbLine
 10
3.791763620489968
 20
36.22188799002355
 30
0.0
 11
-24.68723637951003
 21
36.22188799002355
 31
0.0
  0
LINE
  5
E5
330
DF
100
AcDbEntity
  8
치수문자_일반주서
 62
     0
370
    -2
100
AcDbLine
 10
16.49176362048995
 20
36.22188799002355
 30
0.0
 11
3.791763620489968
 21
36.22188799002355
 31
0.0
  0
LINE
  5
E6
330
DF
100
AcDbEntity
  8
치수문자_일반주서
 62
     0
370
    -2
100
AcDbLine
 10
19.79376362048995
 20
36.22188799002355
 30
0.0
 11
23.09576362048995
 21
36.22188799002355
 31
0.0
  0
LINE
  5
E7
330
DF
100
AcDbEntity
  8
치수문자_일반주서
 62
     0
370
    -2
100
AcDbLine
 10
0.4897636204899687
 20
36.22188799002355
 30
0.0
 11
-2.812236379510031
 21
36.22188799002355
 31
0.0
  0
SOLID
  5
E8
330
DF
100
AcDbEntity
  8
치수문자_일반주서
 62
     0
100
AcDbTrace
 10
19.79376362048995
 20
36.77222132335689
 30
0.0
 11
19.79376362048995
 21
35.67155465669022
 31
0.0
 12
16.49176362048995
 22
36.22188799002355
 32
0.0
 13
16.49176362048995
 23
36.22188799002355
 33
0.0
  0
SOLID
  5
E9
330
DF
100
AcDbEntity
  8
치수문자_일반주서
 62
     0
100
AcDbTrace
 10
0.4897636204899687
 20
35.67155465669022
 30
0.0
 11
0.4897636204899687
 21
36.77222132335689
 31
0.0
 12
3.791763620489968
 22
36.22188799002355
 32
0.0
 13
3.791763620489968
 23
36.22188799002355
 33
0.0
  0
MTEXT
  5
EA
330
DF
100
AcDbEntity
  8
치수문자_일반주서
 62
     0
100
AcDbMText
 10
-13.74973637951003
 20
40.59688799002355
 30
0.0
 40
3.5
 41
0.0
 71
     2
 72
     1
  1
\A1;12.7 [1/2]
  7
SLDTEXTSTYLE0
 73
     1
 44
1.0
  0
POINT
  5
EB
330
DF
100
AcDbEntity
  8
Defpoints
 62
     0
100
AcDbPoint
 10
16.49176362048995
 20
0.5953125000000614
 30
0.0
  0
POINT
  5
169
330
DF
100
AcDbEntity
  8
Defpoints
 62
     0
100
AcDbPoint
 10
3.791763620489969
 20
0.5953125000000189
 30
0.0
  0
POINT
  5
16A
330
DF
100
AcDbEntity
  8
Defpoints
 62
     0
100
AcDbPoint
 10
3.791763620489969
 20
36.22188799002355
 30
0.0
  0
ENDBLK
  5
E1
330
DF
100
AcDbEntity
  8
0
100
AcDbBlockEnd
  0
BLOCK
  5
F4
330
F3
100
AcDbEntity
  8
0
100
AcDbBlockBegin
  2
_D_2
 70
     0
 10
0.0
 20
0.0
 30
0.0
  3
_D_2
  1

  0
LINE
  5
F6
330
F3
100
AcDbEntity
  8
치수문자_일반주서
 62
     0
370
    -2
100
AcDbLine
 10
16.49176362048995
 20
0.6578125000000614
 30
0.0
 11
16.49176362048995
 21
49.17500000000005
 31
0.0
  0
LINE
  5
F7
330
F3
100
AcDbEntity
  8
치수문자_일반주서
 62
     0
370
    -2
100
AcDbLine
 10
-34.30823637951006
 20
1.649999999999992
 30
0.0
 11
-34.30823637951006
 21
49.17500000000005
 31
0.0
  0
LINE
  5
F8
330
F3
100
AcDbEntity
  8
치수문자_일반주서
 62
     0
370
    -2
100
AcDbLine
 10
13.18976362048995
 20
49.17500000000005
 30
0.0
 11
-31.00623637951006
 21
49.17500000000005
 31
0.0
  0
SOLID
  5
F9
330
F3
100
AcDbEntity
  8
치수문자_일반주서
 62
     0
100
AcDbTrace
 10
13.18976362048995
 20
48.62466666666671
 30
0.0
 11
13.18976362048995
 21
49.72533333333338
 31
0.0
 12
16.49176362048995
 22
49.17500000000005
 32
0.0
 13
16.49176362048995
 23
49.17500000000005
 33
0.0
  0
SOLID
  5
FA
330
F3
100
AcDbEntity
  8
치수문자_일반주서
 62
     0
100
AcDbTrace
 10
-31.00623637951006
 20
49.72533333333338
 30
0.0
 11
-31.00623637951006
 21
48.62466666666671
 31
0.0
 12
-34.30823637951006
 22
49.17500000000005
 32
0.0
 13
-34.30823637951006
 23
49.17500000000005
 33
0.0
  0
MTEXT
  5
FB
330
F3
100
AcDbEntity
  8
치수문자_일반주서
 62
     0
100
AcDbMText
 10
-8.908236379510063
 20
53.55000000000005
 30
0.0
 40
3.5
 41
0.0
 71
     2
 72
     1
  1
\A1;50.8 [2]
  7
SLDTEXTSTYLE0
 73
     1
 44
1.0
  0
POINT
  5
FC
330
F3
100
AcDbEntity
  8
Defpoints
 62
     0
100
AcDbPoint
 10
16.49176362048995
 20
0.5953125000000614
 30
0.0
  0
POINT
  5
FD
330
F3
100
AcDbEntity
  8
Defpoints
 62
     0
100
AcDbPoint
 10
-34.30823637951006
 20
1.587499999999992
 30
0.0
  0
POINT
  5
FE
330
F3
100
AcDbEntity
  8
Defpoints
 62
     0
100
AcDbPoint
 10
-34.30823637951006
 20
49.17500000000005
 30
0.0
  0
ENDBLK
  5
F5
330
F3
100
AcDbEntity
  8
0
100
AcDbBlockEnd
  0
BLOCK
  5
107
330
106
100
AcDbEntity
  8
0
100
AcDbBlockBegin
  2
_D_3
 70
     0
 10
0.0
 20
0.0
 30
0.0
  3
_D_3
  1

  0
LINE
  5
109
330
106
100
AcDbEntity
  8
치수문자_일반주서
 62
     0
370
    -2
100
AcDbLine
 10
-34.37073637951006
 20
1.587499999999992
 30
0.0
 11
-44.54872562750752
 21
1.587499999999952
 31
0.0
  0
LINE
  5
10A
330
106
100
AcDbEntity
  8
치수문자_일반주서
 62
     0
370
    -2
100
AcDbLine
 10
-34.37070131158076
 20
-1.587499999999991
 30
0.0
 11
-44.54872562750751
 21
-1.587500000000031
 31
0.0
  0
LINE
  5
10B
330
106
100
AcDbEntity
  8
치수문자_일반주서
 62
     0
370
    -2
100
AcDbLine
 10
-44.54872562750752
 20
1.587499999999952
 30
0.0
 11
-44.54872562750766
 21
32.69149999999996
 31
0.0
  0
LINE
  5
10C
330
106
100
AcDbEntity
  8
치수문자_일반주서
 62
     0
370
    -2
100
AcDbLine
 10
-44.54872562750752
 20
1.587499999999952
 30
0.0
 11
-44.54872562750751
 21
-1.587500000000031
 31
0.0
  0
LINE
  5
10D
330
106
100
AcDbEntity
  8
치수문자_일반주서
 62
     0
370
    -2
100
AcDbLine
 10
-44.54872562750754
 20
4.889499999999952
 30
0.0
 11
-44.54872562750755
 21
8.191499999999952
 31
0.0
  0
LINE
  5
10E
330
106
100
AcDbEntity
  8
치수문자_일반주서
 62
     0
370
    -2
100
AcDbLine
 10
-44.54872562750749
 20
-4.88950000000003
 30
0.0
 11
-44.54872562750748
 21
-8.19150000000003
 31
0.0
  0
SOLID
  5
10F
330
106
100
AcDbEntity
  8
치수문자_일반주서
 62
     0
100
AcDbTrace
 10
-45.09905896084087
 20
4.889499999999949
 30
0.0
 11
-43.9983922941742
 21
4.889499999999955
 31
0.0
 12
-44.54872562750752
 22
1.587499999999952
 32
0.0
 13
-44.54872562750752
 23
1.587499999999952
 33
0.0
  0
SOLID
  5
110
330
106
100
AcDbEntity
  8
치수문자_일반주서
 62
     0
100
AcDbTrace
 10
-43.99839229417416
 20
-4.889500000000027
 30
0.0
 11
-45.09905896084083
 21
-4.889500000000033
 31
0.0
 12
-44.54872562750751
 22
-1.587500000000031
 32
0.0
 13
-44.54872562750751
 23
-1.587500000000031
 33
0.0
  0
MTEXT
  5
111
330
106
100
AcDbEntity
  8
치수문자_일반주서
 62
     0
100
AcDbMText
 10
-48.92372562750761
 20
20.44149999999994
 30
0.0
 40
3.5
 41
0.0
 71
     2
 72
     1
  1
\A1;%%c3.18 [1/8]
  7
SLDTEXTSTYLE0
 11
-4.475859752819553E-15
 21
1.0
 31
0.0
 73
     1
 44
1.0
  0
POINT
  5
165
330
106
100
AcDbEntity
  8
Defpoints
 62
     0
100
AcDbPoint
 10
-34.30823637951006
 20
1.587499999999992
 30
0.0
  0
POINT
  5
166
330
106
100
AcDbEntity
  8
Defpoints
 62
     0
100
AcDbPoint
 10
-34.30820131158076
 20
-1.587499999999991
 30
0.0
  0
POINT
  5
167
330
106
100
AcDbEntity
  8
Defpoints
 62
     0
100
AcDbPoint
 10
-44.54872562750751
 20
-1.587500000000029
 30
0.0
  0
ENDBLK
  5
108
330
106
100
AcDbEntity
  8
0
100
AcDbBlockEnd
  0
BLOCK
  5
11B
330
11A
100
AcDbEntity
  8
0
100
AcDbBlockBegin
  2
_D_4
 70
     0
 10
0.0
 20
0.0
 30
0.0
  3
_D_4
  1

  0
LINE
  5
11D
330
11A
100
AcDbEntity
  8
치수문자_일반주서
 62
     0
370
    -2
100
AcDbLine
 10
16.55426362048995
 20
0.5953125000000017
 30
0.0
 11
24.49176362048996
 21
0.5953125000000306
 31
0.0
  0
LINE
  5
11E
330
11A
100
AcDbEntity
  8
치수문자_일반주서
 62
     0
370
    -2
100
AcDbLine
 10
16.55426362048995
 20
-0.5953124999999959
 30
0.0
 11
24.49176362048996
 21
-0.5953124999999666
 31
0.0
  0
LINE
  5
11F
330
11A
100
AcDbEntity
  8
치수문자_일반주서
 62
     0
370
    -2
100
AcDbLine
 10
24.49176362048996
 20
0.5953125000000306
 30
0.0
 11
24.49176362048986
 21
34.32431250000003
 31
0.0
  0
LINE
  5
120
330
11A
100
AcDbEntity
  8
치수문자_일반주서
 62
     0
370
    -2
100
AcDbLine
 10
24.49176362048996
 20
0.5953125000000306
 30
0.0
 11
24.49176362048996
 21
-0.5953124999999666
 31
0.0
  0
LINE
  5
121
330
11A
100
AcDbEntity
  8
치수문자_일반주서
 62
     0
370
    -2
100
AcDbLine
 10
24.49176362048995
 20
3.89731250000003
 30
0.0
 11
24.49176362048994
 21
7.19931250000003
 31
0.0
  0
LINE
  5
122
330
11A
100
AcDbEntity
  8
치수문자_일반주서
 62
     0
370
    -2
100
AcDbLine
 10
24.49176362048997
 20
-3.897312499999966
 30
0.0
 11
24.49176362048998
 21
-7.199312499999966
 31
0.0
  0
SOLID
  5
123
330
11A
100
AcDbEntity
  8
치수문자_일반주서
 62
     0
100
AcDbTrace
 10
23.94143028715661
 20
3.897312500000028
 30
0.0
 11
25.04209695382328
 21
3.897312500000032
 31
0.0
 12
24.49176362048996
 22
0.5953125000000306
 32
0.0
 13
24.49176362048996
 23
0.5953125000000306
 33
0.0
  0
SOLID
  5
124
330
11A
100
AcDbEntity
  8
치수문자_일반주서
 62
     0
100
AcDbTrace
 10
25.04209695382331
 20
-3.897312499999964
 30
0.0
 11
23.94143028715664
 21
-3.897312499999968
 31
0.0
 12
24.49176362048996
 22
-0.5953124999999666
 32
0.0
 13
24.49176362048996
 23
-0.5953124999999666
 33
0.0
  0
MTEXT
  5
125
330
11A
100
AcDbEntity
  8
치수문자_일반주서
 62
     0
100
AcDbMText
 10
20.1167636204899
 20
20.76181250000002
 30
0.0
 40
3.5
 41
0.0
 71
     2
 72
     1
  1
\A1;%%c1.19 [3/64]
  7
SLDTEXTSTYLE0
 11
-2.983906501879691E-15
 21
1.0
 31
0.0
 73
     1
 44
1.0
  0
POINT
  5
126
330
11A
100
AcDbEntity
  8
Defpoints
 62
     0
100
AcDbPoint
 10
16.49176362048995
 20
0.5953125000000015
 30
0.0
  0
POINT
  5
127
330
11A
100
AcDbEntity
  8
Defpoints
 62
     0
100
AcDbPoint
 10
16.49176362048995
 20
-0.5953124999999961
 30
0.0
  0
POINT
  5
128
330
11A
100
AcDbEntity
  8
Defpoints
 62
     0
100
AcDbPoint
 10
24.49176362048996
 20
-0.5953124999999663
 30
0.0
  0
ENDBLK
  5
11C
330
11A
100
AcDbEntity
  8
0
100
AcDbBlockEnd
  0
BLOCK
  5
135
330
134
100
AcDbEntity
  8
0
100
AcDbBlockBegin
  2
SW_DOWELSYMBOL_0
 70
     0
 10
0.0
 20
0.0
 30
0.0
  3
SW_DOWELSYMBOL_0
  1

  0
CIRCLE
  5
137
330
134
100
AcDbEntity
  8
해칭선
 62
     0
100
AcDbCircle
 10
0.0
 20
0.0
 30
0.0
 40
3.000000000000005
  0
HATCH
  5
138
330
134
100
AcDbEntity
  8
0
  6
Continuous
 62
     0
370
     0
100
AcDbHatch
 10
0.0
 20
0.0
 30
0.0
210
0.0
220
0.0
230
1.0
  2
SOLID
 70
     1
 71
     0
 91
        1
 92
        0
 93
        3
 72
     2
 10
0.0
 20
0.0
 40
3.000000000000005
 50
0.0
 51
90.0
 73
     1
 72
     1
 10
0.0
 20
3.000000000000005
 11
0.0
 21
0.0
 72
     1
 10
0.0
 20
0.0
 11
3.000000000000005
 21
0.0
 97
        0
 75
     0
 76
     1
 98
        1
 10
0.0
 20
0.0
  0
HATCH
  5
139
330
134
100
AcDbEntity
  8
0
  6
Continuous
 62
     0
370
     0
100
AcDbHatch
 10
0.0
 20
0.0
 30
0.0
210
0.0
220
0.0
230
1.0
  2
SOLID
 70
     1
 71
     0
 91
        1
 92
        0
 93
        3
 72
     2
 10
0.0
 20
0.0
 40
3.000000000000005
 50
180.0
 51
270.0000000000008
 73
     1
 72
     1
 10
0.0
 20
-3.000000000000005
 11
0.0
 21
0.0
 72
     1
 10
0.0
 20
0.0
 11
-3.000000000000004
 21
0.0
 97
        0
 75
     0
 76
     1
 98
        1
 10
0.0
 20
0.0
  0
ENDBLK
  5
136
330
134
100
AcDbEntity
  8
0
100
AcDbBlockEnd
  0
ENDSEC
  0
SECTION
  2
ENTITIES
  0
LINE
  5
96
330
1F
100
AcDbEntity
  8
외형선
  6
Continuous
370
    15
100
AcDbLine
 10
0.0
 20
-1.5875
 30
0.0
 11
3.791763620489969
 21
-0.5715000000000002
 31
0.0
  0
LINE
  5
97
330
1F
100
AcDbEntity
  8
외형선
  6
Continuous
370
    15
100
AcDbLine
 10
3.791763620489969
 20
0.5715000000000019
 30
0.0
 11
0.0
 21
1.587500000000001
 31
0.0
  0
LINE
  5
98
330
1F
100
AcDbEntity
  8
외형선
  6
Continuous
370
    15
100
AcDbLine
 10
0.0
 20
1.587500000000001
 30
0.0
 11
-33.87823637951004
 21
1.587499999999997
 31
0.0
  0
LINE
  5
99
330
1F
100
AcDbEntity
  8
외형선
  6
Continuous
370
    15
100
AcDbLine
 10
-33.87823637951004
 20
-1.587500000000003
 30
0.0
 11
0.0
 21
-1.5875
 31
0.0
  0
LINE
  5
9A
330
1F
100
AcDbEntity
  8
외형선
  6
Continuous
370
    15
100
AcDbLine
 10
-33.87823637951004
 20
1.587499999999997
 30
0.0
 11
-34.30823637951003
 21
1.157499999999997
 31
0.0
  0
LINE
  5
9B
330
1F
100
AcDbEntity
  8
외형선
  6
Continuous
370
    15
100
AcDbLine
 10
-34.30823637951003
 20
-1.157500000000003
 30
0.0
 11
-33.87823637951004
 21
-1.587500000000003
 31
0.0
  0
LINE
  5
9C
330
1F
100
AcDbEntity
  8
외형선
  6
Continuous
370
    15
100
AcDbLine
 10
14.40424493936467
 20
0.5715000000000025
 30
0.0
 11
3.791763620489969
 21
0.5715000000000013
 31
0.0
  0
LINE
  5
9D
330
1F
100
AcDbEntity
  8
외형선
  6
Continuous
370
    15
100
AcDbLine
 10
3.791763620489969
 20
-0.5714999999999997
 30
0.0
 11
14.40424493936467
 21
-0.5714999999999986
 31
0.0
  0
LINE
  5
9E
330
1F
100
AcDbEntity
  8
외형선
  6
Continuous
 62
     1
370
    15
100
AcDbLine
 10
15.77722046657648
 20
-0.5953124999999982
 30
0.0
 11
15.89645112048996
 21
-0.5953124999999982
 31
0.0
  0
ARC
  5
9F
330
1F
100
AcDbEntity
  8
외형선
  6
Continuous
 62
     1
370
    15
100
AcDbCircle
 10
15.89645112048996
 20
0.0000000000000019
 30
0.0
 40
0.5953125000000024
100
AcDbArc
 50
270.0000000000009
 51
0.0
  0
ARC
  5
A0
330
1F
100
AcDbEntity
  8
외형선
  6
Continuous
 62
     1
370
    15
100
AcDbCircle
 10
15.89645112048996
 20
0.0000000000000019
 30
0.0
 40
0.5953125000000024
100
AcDbArc
 50
0.0
 51
90.0
  0
LINE
  5
A1
330
1F
100
AcDbEntity
  8
외형선
  6
Continuous
 62
     1
370
    15
100
AcDbLine
 10
15.89645112048996
 20
0.595312500000002
 30
0.0
 11
15.77722046657648
 21
0.595312500000002
 31
0.0
  0
LINE
  5
A2
330
1F
100
AcDbEntity
  8
외형선
  6
Continuous
370
    15
100
AcDbLine
 10
3.791763620489969
 20
0.5715000000000019
 30
0.0
 11
3.791763620489969
 21
-0.5715000000000002
 31
0.0
  0
LINE
  5
A3
330
1F
100
AcDbEntity
  8
외형선
  6
Continuous
370
    15
100
AcDbLine
 10
0.0
 20
1.587500000000001
 30
0.0
 11
0.0
 21
-1.587500000000001
 31
0.0
  0
LINE
  5
A4
330
1F
100
AcDbEntity
  8
외형선
  6
Continuous
370
    15
100
AcDbLine
 10
-33.87823637951004
 20
1.587499999999997
 30
0.0
 11
-33.87823637951004
 21
-1.587500000000004
 31
0.0
  0
LINE
  5
A5
330
1F
100
AcDbEntity
  8
외형선
  6
Continuous
370
    15
100
AcDbLine
 10
-34.30823637951003
 20
1.157499999999997
 30
0.0
 11
-34.30823637951003
 21
-1.157500000000004
 31
0.0
  0
LINE
  5
A6
330
1F
100
AcDbEntity
  8
외형선
  6
Continuous
370
    15
100
AcDbLine
 10
14.40424493936468
 20
0.4861071392779504
 30
0.0
 11
14.40424493936467
 21
0.5715000000000025
 31
0.0
  0
SPLINE
  5
A7
330
1F
100
AcDbEntity
  8
외형선
  6
Continuous
370
    15
100
AcDbSpline
210
0.0
220
0.0
230
1.0
 70
     8
 71
     3
 72
    10
 73
     6
 74
     0
 42
0.000000001
 43
0.00000001
 40
0.0
 40
0.0
 40
0.0
 40
0.0
 40
0.5
 40
0.5
 40
1.0
 40
1.0
 40
1.0
 40
1.0
 10
14.90426362048971
 20
0.2903953036091017
 30
0.0
 10
14.82000726339262
 20
0.3302991987371376
 30
0.0
 10
14.73529994482258
 20
0.3673604655075578
 30
0.0
 10
14.57226239369916
 20
0.4328070225758406
 30
0.0
 10
14.48856030021424
 20
0.4619272192373984
 30
0.0
 10
14.40424493936468
 20
0.4862738150557464
 30
0.0
  0
SPLINE
  5
A8
330
1F
100
AcDbEntity
  8
외형선
  6
Continuous
370
    15
100
AcDbSpline
210
0.0
220
0.0
230
1.0
 70
     8
 71
     3
 72
    10
 73
     6
 74
     0
 42
0.000000001
 43
0.00000001
 40
0.0
 40
0.0
 40
0.0
 40
0.0
 40
0.5
 40
0.5
 40
1.0
 40
1.0
 40
1.0
 40
1.0
 10
14.40425797313357
 20
-0.1375178695619836
 30
0.0
 10
14.48857116943975
 20
-0.1824967513375501
 30
0.0
 10
14.57227063255865
 20
-0.2259874136125589
 30
0.0
 10
14.73530430743731
 20
-0.3070594525727927
 30
0.0
 10
14.82000943416672
 20
-0.3455100229229914
 30
0.0
 10
14.90426362048916
 20
-0.3801067383567741
 30
0.0
  0
LINE
  5
A9
330
1F
100
AcDbEntity
  8
외형선
  6
Continuous
370
    15
100
AcDbLine
 10
14.40424493936467
 20
-0.5714999999999986
 30
0.0
 11
14.40424493936467
 21
-0.1372782042173691
 31
0.0
  0
SPLINE
  5
AA
330
1F
100
AcDbEntity
  8
외형선
  6
Continuous
370
    15
100
AcDbSpline
210
0.0
220
0.0
230
1.0
 70
     8
 71
     3
 72
     9
 73
     5
 74
     0
 42
0.000000001
 43
0.00000001
 40
0.0
 40
0.0
 40
0.0
 40
0.0
 40
0.2053536109543228
 40
1.0
 40
1.0
 40
1.0
 40
1.0
 10
14.68140219914687
 20
-0.3870143706790313
 30
0.0
 10
14.66243083054116
 20
-0.3954240381677177
 30
0.0
 10
14.57004692495731
 20
-0.4363761667891953
 30
0.0
 10
14.47765993072565
 20
-0.4641797767767199
 30
0.0
 10
14.40424493936468
 20
-0.4862738150557405
 30
0.0
  0
SPLINE
  5
AB
330
1F
100
AcDbEntity
  8
외형선
  6
Continuous
370
    15
100
AcDbSpline
210
0.0
220
0.0
230
1.0
 70
     8
 71
     3
 72
     8
 73
     4
 74
     0
 42
0.000000001
 43
0.00000001
 40
0.0
 40
0.0
 40
0.0
 40
0.0
 40
1.0
 40
1.0
 40
1.0
 40
1.0
 10
14.90426362033924
 20
-0.4052076092141227
 30
0.0
 10
14.73575090619409
 20
-0.40724095841587
 30
0.0
 10
14.57287566101361
 20
-0.3932045855382166
 30
0.0
 10
14.40424493936467
 20
-0.3643887044153433
 30
0.0
  0
LINE
  5
AC
330
1F
100
AcDbEntity
  8
외형선
  6
Continuous
370
    15
100
AcDbLine
 10
14.90426362033924
 20
0.4052076092141288
 30
0.0
 11
14.68140219914687
 21
0.3870143706790373
 31
0.0
  0
SPLINE
  5
AD
330
1F
100
AcDbEntity
  8
외형선
  6
Continuous
370
    15
100
AcDbSpline
210
0.0
220
0.0
230
1.0
 70
    24
 71
     3
 72
     9
 73
     5
 74
     0
 42
0.000000001
 43
0.00000001
 40
0.0
 40
0.0
 40
0.0
 40
0.0
 40
0.67134788185809
 40
1.0
 40
1.0
 40
1.0
 40
1.0
 10
14.90426362048997
 20
0.40520760921231
 30
0.0
 10
14.90426362048998
 20
0.3715419507340038
 30
0.0
 10
14.90426362048998
 20
0.3213955819316925
 30
0.0
 10
14.90426362048998
 20
0.2980634561634678
 30
0.0
 10
14.90426362048997
 20
0.2903953036089873
 30
0.0
  0
SPLINE
  5
AE
330
1F
100
AcDbEntity
  8
외형선
  6
Continuous
 62
     1
370
    15
100
AcDbSpline
210
0.0
220
0.0
230
1.0
 70
     8
 71
     3
 72
    14
 73
    10
 74
     0
 42
0.000000001
 43
0.00000001
 40
0.0
 40
0.0
 40
0.0
 40
0.0
 40
0.25
 40
0.25
 40
0.5
 40
0.5
 40
0.75
 40
0.75
 40
1.0
 40
1.0
 40
1.0
 40
1.0
 10
15.89645112048996
 20
-0.2485382131592488
 30
0.0
 10
15.81333902449245
 20
-0.2051037503762635
 30
0.0
 10
15.72879486692886
 20
-0.1589893815821867
 30
0.0
 10
15.56409381642434
 20
-0.065390296425688
 30
0.0
 10
15.4838380692141
 20
-0.0179134225038501
 30
0.0
 10
15.31697808331046
 20
0.0776864417424446
 30
0.0
 10
15.23260727615124
 20
0.125362189318899
 30
0.0
 10
15.06918746852372
 20
0.2164214229876648
 30
0.0
 10
14.9878830346034
 20
0.2602510308905092
 30
0.0
 10
14.90426362048957
 20
0.3015482134329542
 30
0.0
  0
SPLINE
  5
AF
330
1F
100
AcDbEntity
  8
외형선
  6
Continuous
370
    15
100
AcDbSpline
210
0.0
220
0.0
230
1.0
 70
    24
 71
     3
 72
     9
 73
     5
 74
     0
 42
0.000000001
 43
0.00000001
 40
0.0
 40
0.0
 40
0.0
 40
0.0
 40
0.7820177351196801
 40
1.0
 40
1.0
 40
1.0
 40
1.0
 10
14.90426362048997
 20
0.40520760921231
 30
0.0
 10
14.90426362048997
 20
0.3708778694451068
 30
0.0
 10
14.90426362048997
 20
0.3269789420608712
 30
0.0
 10
14.90426362048998
 20
0.3060995504954843
 30
0.0
 10
14.90426362048998
 20
0.3015482134327382
 30
0.0
  0
SPLINE
  5
B0
330
1F
100
AcDbEntity
  8
외형선
  6
Continuous
 62
     1
370
    15
100
AcDbSpline
210
0.0
220
0.0
230
1.0
 70
     8
 71
     3
 72
    18
 73
    14
 74
     0
 42
0.000000001
 43
0.00000001
 40
0.0
 40
0.0
 40
0.0
 40
0.0
 40
0.1249999999999996
 40
0.1249999999999996
 40
0.2499999999999992
 40
0.2499999999999992
 40
0.4999999999999984
 40
0.4999999999999984
 40
0.624999999999998
 40
0.624999999999998
 40
0.7499999999999977
 40
0.7499999999999977
 40
1.0
 40
1.0
 40
1.0
 40
1.0
 10
16.33239434206581
 20
0.0626219264180366
 30
0.0
 10
16.27236804112104
 20
0.0857996279967204
 30
0.0
 10
16.21179941984562
 20
0.1087291162142973
 30
0.0
 10
16.09229504023182
 20
0.1530670051804686
 30
0.0
 10
16.03449123765707
 20
0.1743444304247634
 30
0.0
 10
15.85774181104178
 20
0.2356841606786032
 30
0.0
 10
15.73457349288301
 20
0.2731854719060987
 30
0.0
 10
15.55795248944146
 20
0.3194424447644416
 30
0.0
 10
15.50008971223282
 20
0.333279854346024
 30
0.0
 10
15.38053372823891
 20
0.3577852564999917
 30
0.0
 10
15.31996094785035
 20
0.36834794159122
 30
0.0
 10
15.13993541442344
 20
0.3942340022867913
 30
0.0
 10
15.02466331663793
 20
0.4037548130428384
 30
0.0
 10
14.90426362028205
 20
0.4052076092148189
 30
0.0
  0
SPLINE
  5
B1
330
1F
100
AcDbEntity
  8
외형선
  6
Continuous
 62
     1
370
    15
100
AcDbSpline
210
0.0
220
0.0
230
1.0
 70
     8
 71
     3
 72
    18
 73
    14
 74
     0
 42
0.000000001
 43
0.00000001
 40
0.0
 40
0.0
 40
0.0
 40
0.0
 40
0.25
 40
0.25
 40
0.5000000000000001
 40
0.5000000000000001
 40
0.6250000000000001
 40
0.6250000000000001
 40
0.7500000000000001
 40
0.7500000000000001
 40
0.875
 40
0.875
 40
1.0
 40
1.0
 40
1.0
 40
1.0
 10
15.89645112048996
 20
-0.2485382131610828
 30
0.0
 10
15.96266219038931
 20
-0.2831401831494697
 30
0.0
 10
16.02714708016194
 20
-0.3119025592159276
 30
0.0
 10
16.15633243861601
 20
-0.3398672433579476
 30
0.0
 10
16.22108991505488
 20
-0.3390117549460143
 30
0.0
 10
16.30871930948965
 20
-0.2915170312641004
 30
0.0
 10
16.33587228263308
 20
-0.2675839540689944
 30
0.0
 10
16.37716567026385
 20
-0.2040746312147613
 30
0.0
 10
16.38962742545233
 20
-0.1663750719552269
 30
0.0
 10
16.39592078531117
 20
-0.0927354524199683
 30
0.0
 10
16.39027206014135
 20
-0.057996028744013
 30
0.0
 10
16.36840099269629
 20
0.0056134500056487
 30
0.0
 10
16.35220767153421
 20
0.0348042003562288
 30
0.0
 10
16.33239434206258
 20
0.062621926419287
 30
0.0
  0
SPLINE
  5
B2
330
1F
100
AcDbEntity
  8
외형선
  6
Continuous
 62
     1
370
    15
100
AcDbSpline
210
0.0
220
0.0
230
1.0
 70
     8
 71
     3
 72
    17
 73
    13
 74
     0
 42
0.000000001
 43
0.00000001
 40
0.0
 40
0.0
 40
0.0
 40
0.0
 40
0.1187903458114259
 40
0.2378852370865434
 40
0.3578815454800385
 40
0.4781948706420198
 40
0.5594418117091497
 40
0.7223925289744625
 40
0.8041272856743287
 40
0.8869224340638671
 40
0.9698209021412711
 40
1.0
 40
1.0
 40
1.0
 40
1.0
 10
14.90426362034038
 20
-0.3942218118857567
 30
0.0
 10
14.93890530606145
 20
-0.4087097362020612
 30
0.0
 10
15.00827748916729
 20
-0.4377227278499439
 30
0.0
 10
15.11209154934777
 20
-0.4765004653373619
 30
0.0
 10
15.21648908429117
 20
-0.5105804140237781
 30
0.0
 10
15.31027728208059
 20
-0.5359652968864738
 30
0.0
 10
15.41656895437276
 20
-0.560112205490338
 30
0.0
 10
15.51153609716914
 20
-0.5765611451532939
 30
0.0
 10
15.60638697212441
 20
-0.5877291013310206
 30
0.0
 10
15.67836779639011
 20
-0.5929780699407997
 30
0.0
 10
15.73544437007677
 20
-0.5954005576769811
 30
0.0
 10
15.76841972480976
 20
-0.5950648343613968
 30
0.0
 10
15.77722046657648
 20
-0.5949752336814512
 30
0.0
  0
LINE
  5
B3
330
1F
100
AcDbEntity
  8
외형선
  6
Continuous
370
    15
100
AcDbLine
 10
14.90426362034038
 20
-0.3942218118857567
 30
0.0
 11
14.90426362048997
 21
0.3015482134327734
 31
0.0
  0
SPLINE
  5
B4
330
1F
100
AcDbEntity
  8
외형선
  6
Continuous
 62
     1
370
    15
100
AcDbSpline
210
0.0
220
0.0
230
1.0
 70
     8
 71
     3
 72
     8
 73
     4
 74
     0
 42
0.000000001
 43
0.00000001
 40
0.0
 40
0.0
 40
0.0
 40
0.0
 40
1.0
 40
1.0
 40
1.0
 40
1.0
 10
16.33239434206257
 20
0.0626219264192881
 30
0.0
 10
16.35971947352053
 20
0.0791249690809225
 30
0.0
 10
16.37487007024427
 20
0.1143769423083556
 30
0.0
 10
16.37558260674242
 20
0.1541831944902013
 30
0.0
  0
ARC
  5
B5
330
1F
100
AcDbEntity
  8
외형선
  6
Continuous
 62
     1
370
    15
100
AcDbCircle
 10
16.20694033773391
 20
-0.1034886216157468
 30
0.0
 40
0.3079528855378014
100
AcDbArc
 50
23.84147121831003
 51
56.79586547409466
  0
ARC
  5
B6
330
1F
100
AcDbEntity
  8
외형선
  6
Continuous
 62
     1
370
    15
100
AcDbCircle
 10
15.95640756812687
 20
0.0110672519952967
 30
0.0
 40
0.5322996771321551
100
AcDbArc
 50
1.067937843500292
 51
71.21520217214008
  0
SPLINE
  5
B7
330
1F
100
AcDbEntity
  8
외형선
  6
Continuous
 62
     1
370
    15
100
AcDbSpline
210
0.0
220
0.0
230
1.0
 70
     8
 71
     3
 72
     8
 73
     4
 74
     0
 42
0.000000001
 43
0.00000001
 40
0.0
 40
0.0
 40
0.0
 40
0.0
 40
1.0
 40
1.0
 40
1.0
 40
1.0
 10
16.12781578856388
 20
0.5150138446433813
 30
0.0
 10
16.05410713969725
 20
0.5598750017687418
 30
0.0
 10
15.97629188322405
 20
0.5861323674200342
 30
0.0
 10
15.89645112048081
 20
0.5913929091542421
 30
0.0
  0
SPLINE
  5
B8
330
1F
100
AcDbEntity
  8
외형선
  6
Continuous
 62
     1
370
    15
100
AcDbSpline
210
0.0
220
0.0
230
1.0
 70
     8
 71
     3
 72
     8
 73
     4
 74
     0
 42
0.000000001
 43
0.00000001
 40
0.0
 40
0.0
 40
0.0
 40
0.0
 40
1.0
 40
1.0
 40
1.0
 40
1.0
 10
16.0075005573478
 20
0.2664851571540135
 30
0.0
 10
16.12850987419446
 20
0.2328677473863686
 30
0.0
 10
16.25189926501042
 20
0.194959226270517
 30
0.0
 10
16.37558260674102
 20
0.1541831944899239
 30
0.0
  0
SPLINE
  5
B9
330
1F
100
AcDbEntity
  8
외형선
  6
Continuous
 62
     1
370
    15
100
AcDbSpline
210
0.0
220
0.0
230
1.0
 70
     8
 71
     3
 72
    18
 73
    14
 74
     0
 42
0.000000001
 43
0.00000001
 40
0.0
 40
0.0
 40
0.0
 40
0.0
 40
0.0831686015956372
 40
0.1904761741004891
 40
0.2985959467068824
 40
0.4070013596082178
 40
0.4802069516030749
 40
0.6270297558430225
 40
0.7006748823201598
 40
0.7752754490928849
 40
0.849969109572472
 40
0.9249389840355978
 40
0.9999999999999999
 40
0.9999999999999999
 40
0.9999999999999999
 40
0.9999999999999999
 10
14.92741480892195
 20
0.4037326906303708
 30
0.0
 10
14.95432985168742
 20
0.4149657153367001
 30
0.0
 10
15.01597179676474
 20
0.4406920535050466
 30
0.0
 10
15.11208818295578
 20
0.4764708122180759
 30
0.0
 10
15.21649000313369
 20
0.5105882442505186
 30
0.0
 10
15.31027712418803
 20
0.5359648195439048
 30
0.0
 10
15.41656904127394
 20
0.5601098564400477
 30
0.0
 10
15.51153601673714
 20
0.57658038748431
 30
0.0
 10
15.60638709211489
 20
0.58769573346198
 30
0.0
 10
15.67836734057916
 20
0.5931072479477705
 30
0.0
 10
15.75089763138626
 20
0.5955723085343924
 30
0.0
 10
15.82364749413466
 20
0.5953371149287868
 30
0.0
 10
15.87217341878261
 20
0.5927081767672693
 30
0.0
 10
15.89645112048996
 20
0.5913929091663852
 30
0.0
  0
SPLINE
  5
BA
330
1F
100
AcDbEntity
  8
외형선
  6
Continuous
 62
     1
370
    15
100
AcDbSpline
210
0.0
220
0.0
230
1.0
 70
     8
 71
     3
 72
    10
 73
     6
 74
     0
 42
0.000000001
 43
0.00000001
 40
0.0
 40
0.0
 40
0.0
 40
0.0
 40
0.5
 40
0.5
 40
1.0
 40
1.0
 40
1.0
 40
1.0
 10
16.12781578856388
 20
0.5150138446433825
 30
0.0
 10
16.13631244807417
 20
0.4650386030540129
 30
0.0
 10
16.13510326842036
 20
0.4107911295452936
 30
0.0
 10
16.09335185158372
 20
0.3184091137270572
 30
0.0
 10
16.05242920819496
 20
0.2843322661033743
 30
0.0
 10
16.00750055734759
 20
0.2664851571519259
 30
0.0
  0
LINE
  5
BB
330
1F
100
AcDbEntity
  8
중심선
 62
     1
100
AcDbLine
 10
-37.30823637951005
 20
-0.0000000000000063
 30
0.0
 11
17.99176362048996
 21
-0.000000000000014
 31
0.0
  0
LINE
  5
BC
330
1F
100
AcDbEntity
  8
참조1
100
AcDbLine
 10
-12.50354887951005
 20
-0.0000000000000064
 30
0.0
 11
-12.50354887951005
 21
-40.00000000000001
 31
0.0
  0
LINE
  5
BD
330
1F
100
AcDbEntity
  8
참조1
100
AcDbLine
 10
16.49176362048996
 20
-0.0000000000000064
 30
0.0
 11
16.49176362048996
 21
2.057859303995575
 31
0.0
  0
LINE
  5
BE
330
1F
100
AcDbEntity
  8
참조1
100
AcDbLine
 10
-12.50354887951005
 20
-40.00000000000001
 30
0.0
 11
-33.59209319381871
 21
-40.0
 31
0.0
  0
CIRCLE
  5
BF
330
1F
100
AcDbEntity
  8
해칭선
100
AcDbCircle
 10
0.0000000000000004
 20
0.0000000000000002
 30
0.0
 40
3.000000000000004
  0
INSERT
  5
C0
330
1F
100
AcDbEntity
  8
0
  6
Continuous
 62
     7
100
AcDbBlockReference
 66
     1
  2
블럭10
 10
-26.44382181163526
 20
-52.04717430164393
 30
0.0
  0
ATTRIB
  5
C1
330
C0
100
AcDbEntity
  8
FORMAT
 62
     2
100
AcDbText
 10
-36.58545782377189
 20
-49.97180738881174
 30
0.0
 40
4.233333333333333
  1
EM967903 [ 2 FLUTE ]
 41
0.75
  7
SLDTEXTSTYLE0
 11
-36.58545782377189
 21
-52.08847405547841
 31
0.0
100
AcDbAttribute
  2
AUTOATTR0
 70
     0
 74
     1
  0
SEQEND
  5
C2
330
C0
100
AcDbEntity
  8
0
  6
Continuous
 62
     7
  0
HATCH
  5
C3
330
1F
100
AcDbEntity
  8
중심선
100
AcDbHatch
 10
0.0
 20
0.0
 30
0.0
210
0.0
220
0.0
230
1.0
  2
SOLID
 70
     1
 71
     0
 91
        1
 92
        0
 93
        4
 72
     1
 10
-20.7289125072544
 20
-35.8
 11
-24.17518775109168
 21
-35.8
 72
     1
 10
-24.17518775109168
 20
-35.8
 11
-26.30341761029571
 21
-38.33632558057259
 72
     1
 10
-26.30341761029571
 20
-38.33632558057259
 11
-22.85710928134528
 21
-38.3362861512701
 72
     1
 10
-22.85710928134528
 20
-38.3362861512701
 11
-20.7289125072544
 21
-35.8
 97
        0
 75
     0
 76
     1
 98
        1
 10
3.541763620489958
 20
-0.0000000000000024
  0
HATCH
  5
C4
330
1F
100
AcDbEntity
  8
중심선
100
AcDbHatch
 10
0.0
 20
0.0
 30
0.0
210
0.0
220
0.0
230
1.0
  2
SOLID
 70
     1
 71
     0
 91
        1
 92
        0
 93
        4
 72
     1
 10
-15.71614851621843
 20
-35.80000000000003
 11
-19.16242376005571
 21
-35.79999999999997
 72
     1
 10
-19.16242376005571
 20
-35.79999999999997
 11
-23.69356176841312
 21
-41.20000000000002
 72
     1
 10
-23.69356176841312
 20
-41.20000000000002
 11
-20.24728652457584
 21
-41.20000000000002
 72
     1
 10
-20.24728652457584
 20
-41.20000000000002
 11
-15.71614851621842
 21
-35.80000000000003
 97
        0
 75
     0
 76
     1
 98
        1
 10
3.541763620489958
 20
-0.0000000000000024
  0
HATCH
  5
C5
330
1F
100
AcDbEntity
  8
중심선
100
AcDbHatch
 10
0.0
 20
0.0
 30
0.0
210
0.0
220
0.0
230
1.0
  2
SOLID
 70
     1
 71
     0
 91
        1
 92
        0
 93
        4
 72
     1
 10
-10.70338452518253
 20
-35.8
 11
-14.14965976901964
 21
-35.8
 72
     1
 10
-14.14965976901964
 20
-35.8
 11
-21.19809667090892
 21
-44.20000000000002
 72
     1
 10
-21.19809667090892
 20
-44.20000000000002
 11
-17.75182142707164
 21
-44.20000000000002
 72
     1
 10
-17.75182142707164
 20
-44.20000000000002
 11
-10.70338452518253
 21
-35.8
 97
        0
 75
     0
 76
     1
 98
        1
 10
3.541763620489958
 20
-0.0000000000000024
  0
HATCH
  5
C6
330
1F
100
AcDbEntity
  8
중심선
100
AcDbHatch
 10
0.0
 20
0.0
 30
0.0
210
0.0
220
0.0
230
1.0
  2
SOLID
 70
     1
 71
     0
 91
        1
 92
        0
 93
        6
 72
     3
 10
-5.903494094170357
 20
-40.00000000005127
 11
3.960054785062284
 21
1.540882976769353E-10
 40
0.3939339440162627
 50
17.09539180608438
 51
320.0019657685078
 73
     0
 72
     1
 10
-4.220494438469817
 20
-38.58789400463833
 11
-1.915192564768724
 21
-36.6535672945904
 72
     3
 10
-5.903494094223204
 20
-40.00000000000015
 11
6.600054785286829
 21
-1.278976924368180E-13
 40
0.636358354079598
 50
39.99873849337393
 51
368.4976242363725
 73
     1
 72
     1
 10
0.521838397677405
 20
-39.03999999993002
 11
-7.223426787387282
 21
-39.03999999993002
 72
     1
 10
-7.223426787387282
 20
-39.03999999993002
 11
-7.223451831833216
 21
-40.95999999992991
 72
     1
 10
-7.223451831833216
 20
-40.95999999992991
 11
-2.782072062361179
 21
-40.95999999992988
 97
        0
 75
     0
 76
     1
 98
        1
 10
3.541763620489958
 20
-0.0000000000000024
  0
DIMENSION
  5
C7
330
1F
100
AcDbEntity
  8
치수문자_일반주서
100
AcDbDimension
  2
_D
 10
14.90426362028204
 20
18.50763161524154
 30
0.0
 11
-9.622539571335397
 21
18.50763161524154
 31
0.0
 70
   160
  1
<>
 71
     2
 42
1.587500000207909
  3
SLDDIMSTYLE0
100
AcDbAlignedDimension
 13
16.49176362048995
 23
0.5953125000000614
 33
0.0
 14
14.90426362028204
 24
0.5953125000000568
 34
0.0
100
AcDbRotatedDimension
1001
ACAD
1000
DSTYLE
1002
{
1070
   171
1070
     6
1070
   273
1070
     7
1002
}
1001
PE_URL
1000

  0
DIMENSION
  5
DD
330
1F
100
AcDbEntity
  8
치수문자_일반주서
100
AcDbDimension
  2
_D_1
 10
3.791763620489968
 20
36.22188799002355
 30
0.0
 11
-13.74973637951003
 21
36.22188799002355
 31
0.0
 70
   160
  1
<>
 71
     2
 42
12.69999999999998
  3
SLDDIMSTYLE0
100
AcDbAlignedDimension
 13
16.49176362048995
 23
0.5953125000000614
 33
0.0
 14
3.791763620489969
 24
0.5953125000000189
 34
0.0
 50
-0.0000000000000321
100
AcDbRotatedDimension
1001
ACAD
1000
DSTYLE
1002
{
1070
   171
1070
     6
1070
   273
1070
     7
1002
}
1001
PE_URL
1000

  0
DIMENSION
  5
F2
330
1F
100
AcDbEntity
  8
치수문자_일반주서
100
AcDbDimension
  2
_D_2
 10
-34.30823637951006
 20
49.17500000000005
 30
0.0
 11
-8.908236379510063
 21
49.17500000000005
 31
0.0
 70
   160
  1
<>
 71
     2
 42
50.80000000000001
  3
SLDDIMSTYLE0
100
AcDbAlignedDimension
 13
16.49176362048995
 23
0.5953125000000614
 33
0.0
 14
-34.30823637951006
 24
1.587499999999992
 34
0.0
 50
-0.000000000000008
100
AcDbRotatedDimension
1001
ACAD
1000
DSTYLE
1002
{
1070
   171
1070
     6
1070
   273
1070
     7
1002
}
1001
PE_URL
1000

  0
DIMENSION
  5
105
330
1F
100
AcDbEntity
  8
치수문자_일반주서
100
AcDbDimension
  2
_D_3
 10
-44.54872562750751
 20
-1.587500000000031
 30
0.0
 11
-44.54872562750761
 21
20.44149999999996
 31
0.0
 70
   160
  1
%%c<>
 71
     2
 42
3.174999999999983
 52
-270.0
  3
SLDDIMSTYLE0
100
AcDbAlignedDimension
 13
-34.30823637951006
 23
1.587499999999992
 33
0.0
 14
-34.30820131158076
 24
-1.587499999999991
 34
0.0
 50
90.0000000000002
100
AcDbRotatedDimension
1001
ACAD
1000
DSTYLE
1002
{
1070
   171
1070
     6
1070
   273
1070
     7
1002
}
  0
DIMENSION
  5
119
330
1F
100
AcDbEntity
  8
치수문자_일반주서
100
AcDbDimension
  2
_D_4
 10
24.49176362048996
 20
-0.5953124999999666
 30
0.0
 11
24.4917636204899
 21
20.76181250000003
 31
0.0
 70
   160
  1
%%c<>
 71
     2
 42
1.190624999999998
 52
-270.0
  3
SLDDIMSTYLE0
100
AcDbAlignedDimension
 13
16.49176362048995
 23
0.5953125000000015
 33
0.0
 14
16.49176362048995
 24
-0.5953124999999961
 34
0.0
 50
90.0000000000002
100
AcDbRotatedDimension
1001
ACAD
1000
DSTYLE
1002
{
1070
   171
1070
     6
1070
   273
1070
     7
1002
}
1001
PE_URL
1000

  0
LINE
  5
12D
330
1F
100
AcDbEntity
  8
참조1
100
AcDbLine
 10
64.38024743583556
 20
7.44
 30
0.0
 11
64.38024743583556
 21
-7.440000000000005
 31
0.0
  0
LINE
  5
12E
330
1F
100
AcDbEntity
  8
참조1
100
AcDbLine
 10
77.08024743583556
 20
5.44
 30
0.0
 11
64.38024743583556
 21
5.44
 31
0.0
  0
SOLID
  5
12F
330
1F
100
AcDbEntity
  8
참조1
100
AcDbTrace
 10
64.38024743583556
 20
5.44
 30
0.0
 11
70.73024743583555
 21
4.423999999999999
 31
0.0
 12
70.73024743583555
 22
6.456
 32
0.0
 13
70.73024743583555
 23
6.456
 33
0.0
  0
LINE
  5
130
330
1F
100
AcDbEntity
  8
참조1
100
AcDbLine
 10
77.08024743583556
 20
-5.440000000000005
 30
0.0
 11
64.38024743583556
 21
-5.440000000000005
 31
0.0
  0
SOLID
  5
131
330
1F
100
AcDbEntity
  8
참조1
100
AcDbTrace
 10
64.38024743583556
 20
-5.440000000000005
 30
0.0
 11
70.73024743583555
 21
-6.456000000000005
 31
0.0
 12
70.73024743583555
 22
-4.424000000000005
 32
0.0
 13
70.73024743583555
 23
-4.424000000000005
 33
0.0
  0
MTEXT
  5
132
330
1F
100
AcDbEntity
  8
참조1
100
AcDbMText
 10
73.77773752830583
 20
10.98821664464993
 30
0.0
 40
3.5
 41
0.0
 71
     1
 72
     1
  1
A
  7
SLDTEXTSTYLE0
 73
     1
 44
1.0
  0
MTEXT
  5
133
330
1F
100
AcDbEntity
  8
참조1
100
AcDbMText
 10
73.77773752830583
 20
0.1082166446499277
 30
0.0
 40
3.5
 41
0.0
 71
     1
 72
     1
  1
A
  7
SLDTEXTSTYLE0
 73
     1
 44
1.0
  0
INSERT
  5
13A
330
1F
100
AcDbEntity
  8
해칭선
100
AcDbBlockReference
  2
SW_DOWELSYMBOL_0
 10
0.0000000000000004
 20
0.0000000000000002
 30
0.0
  0
ENDSEC
  0
SECTION
  2
OBJECTS
  0
DICTIONARY
  5
C
330
0
100
AcDbDictionary
281
     1
  3
ACAD_DETAILVIEWSTYLE
350
162
  3
ACAD_GROUP
350
D
  3
ACAD_LAYOUT
350
1A
  3
ACAD_MLINESTYLE
350
17
  3
ACAD_PLOTSETTINGS
350
19
  3
ACAD_PLOTSTYLENAME
350
E
  3
ACAD_SCALELIST
350
47
  3
ACAD_SECTIONVIEWSTYLE
350
163
  3
AcDbVariableDictionary
350
15D
  3
APPDATA
350
15C
  3
DWGPROPS
350
16D
  0
DICTIONARY
  5
162
102
{ACAD_REACTORS
330
C
102
}
330
C
100
AcDbDictionary
281
     1
  0
DICTIONARY
  5
D
102
{ACAD_REACTORS
330
C
102
}
330
C
100
AcDbDictionary
281
     1
  0
DICTIONARY
  5
1A
102
{ACAD_REACTORS
330
C
102
}
330
C
100
AcDbDictionary
281
     1
  3
Layout1
350
1E
  3
Layout2
350
26
  3
Model
350
22
  0
DICTIONARY
  5
17
102
{ACAD_REACTORS
330
C
102
}
330
C
100
AcDbDictionary
281
     1
  3
Standard
350
18
  0
DICTIONARY
  5
19
102
{ACAD_REACTORS
330
C
102
}
330
C
100
AcDbDictionary
281
     1
  0
ACDBDICTIONARYWDFLT
  5
E
102
{ACAD_REACTORS
330
C
102
}
330
C
100
AcDbDictionary
281
     1
  3
Normal
350
F
100
AcDbDictionaryWithDefault
340
F
  0
DICTIONARY
  5
47
102
{ACAD_REACTORS
330
C
102
}
330
C
100
AcDbDictionary
281
     1
  3
A0
350
48
  3
A1
350
49
  3
A2
350
4A
  3
A3
350
4B
  3
A4
350
4C
  3
A5
350
4D
  3
A6
350
4E
  3
A7
350
4F
  3
A8
350
50
  3
A9
350
51
  3
B0
350
52
  3
B1
350
53
  3
B2
350
54
  3
B3
350
55
  3
B4
350
56
  3
B5
350
57
  3
B6
350
58
  3
B7
350
59
  3
B8
350
5A
  3
B9
350
5B
  3
C0
350
5C
  3
C1
350
5D
  3
C2
350
5E
  3
C3
350
5F
  3
C4
350
60
  3
C5
350
61
  3
C6
350
62
  3
C7
350
63
  3
C8
350
64
  3
C9
350
65
  3
D0
350
66
  3
D1
350
67
  3
D2
350
68
  0
DICTIONARY
  5
163
102
{ACAD_REACTORS
330
C
102
}
330
C
100
AcDbDictionary
281
     1
  0
DICTIONARY
  5
15D
102
{ACAD_REACTORS
330
C
102
}
330
C
100
AcDbDictionary
281
     1
  0
DICTIONARY
  5
15C
102
{ACAD_REACTORS
330
C
102
}
330
C
100
AcDbDictionary
281
     1
  0
XRECORD
  5
16D
102
{ACAD_REACTORS
330
C
102
}
330
C
100
AcDbXrecord
280
     1
  1
DWGPROPS COOKIE
  2

  3

  4

  6

  7

  8
USER
  9

300
=
301
=
302
=
303
=
304
=
305
=
306
=
307
=
308
=
309
=
 40
0.0
 41
2458288.142681308
 42
2458303.038657558
  1

 90
        0
  0
LAYOUT
  5
1E
102
{ACAD_REACTORS
330
1A
102
}
330
1A
100
AcDbPlotSettings
  1

  2
none_device
  4

  6

 40
0.0
 41
0.0
 42
0.0
 43
0.0
 44
0.0
 45
0.0
 46
0.0
 47
0.0
 48
0.0
 49
0.0
140
0.0
141
0.0
142
1.0
143
1.0
 70
   688
 72
     1
 73
     0
 74
     5
  7

 75
    16
147
1.0
148
0.0
149
0.0
100
AcDbLayout
  1
Layout1
 70
     1
 71
     1
 10
0.0
 20
0.0
 11
420.0
 21
297.0
 12
0.0
 22
0.0
 32
0.0
 14
1.000000000000000E+20
 24
1.000000000000000E+20
 34
1.000000000000000E+20
 15
-1.000000000000000E+20
 25
-1.000000000000000E+20
 35
-1.000000000000000E+20
146
0.0
 13
0.0
 23
0.0
 33
0.0
 16
1.0
 26
0.0
 36
0.0
 17
0.0
 27
1.0
 37
0.0
 76
     0
330
1B
  0
LAYOUT
  5
26
102
{ACAD_REACTORS
330
1A
102
}
330
1A
100
AcDbPlotSettings
  1

  2
none_device
  4

  6

 40
0.0
 41
0.0
 42
0.0
 43
0.0
 44
0.0
 45
0.0
 46
0.0
 47
0.0
 48
0.0
 49
0.0
140
0.0
141
0.0
142
1.0
143
1.0
 70
   688
 72
     1
 73
     0
 74
     5
  7

 75
    16
147
1.0
148
0.0
149
0.0
100
AcDbLayout
  1
Layout2
 70
     1
 71
     2
 10
0.0
 20
0.0
 11
0.0
 21
0.0
 12
0.0
 22
0.0
 32
0.0
 14
0.0
 24
0.0
 34
0.0
 15
0.0
 25
0.0
 35
0.0
146
0.0
 13
0.0
 23
0.0
 33
0.0
 16
1.0
 26
0.0
 36
0.0
 17
0.0
 27
1.0
 37
0.0
 76
     0
330
23
  0
LAYOUT
  5
22
102
{ACAD_REACTORS
330
1A
102
}
330
1A
100
AcDbPlotSettings
  1

  2
none_device
  4
ANSI_A_(11.00_x_8.50_Inches)
  6

 40
6.35
 41
19.05
 42
6.35000508
 43
19.05000254
 44
279.4
 45
215.9
 46
121.9317983505715
 47
79.96663388580654
 48
0.0
 49
0.0
140
0.0
141
0.0
142
0.0760274858284807
143
1.0
 70
  1696
 72
     0
 73
     0
 74
     0
  7

 75
     0
147
0.0235690232323232
148
0.0
149
0.0
100
AcDbLayout
  1
Model
 70
     1
 71
     0
 10
0.0
 20
0.0
 11
420.0
 21
297.0
 12
0.0
 22
0.0
 32
0.0
 14
-48.92372562750766
 24
-49.97180738881174
 34
0.0
 15
77.08024743583556
 25
53.55000000000004
 35
0.0
146
0.0
 13
0.0
 23
0.0
 33
0.0
 16
1.0
 26
0.0
 36
0.0
 17
0.0
 27
1.0
 37
0.0
 76
     0
330
1F
331
29
  0
MLINESTYLE
  5
18
102
{ACAD_REACTORS
330
17
102
}
330
17
100
AcDbMlineStyle
  2
Standard
 70
     0
  3

 62
   256
 51
90.0
 52
90.0
 71
     2
 49
0.5
 62
   256
  6
BYLAYER
 49
-0.5
 62
   256
  6
BYLAYER
  0
ACDBPLACEHOLDER
  5
F
102
{ACAD_REACTORS
330
E
102
}
330
E
  0
SCALE
  5
48
102
{ACAD_REACTORS
330
47
102
}
330
47
100
AcDbScale
 70
     0
300
1:1
140
1.0
141
1.0
290
     1
  0
SCALE
  5
49
102
{ACAD_REACTORS
330
47
102
}
330
47
100
AcDbScale
 70
     0
300
1:2
140
1.0
141
2.0
290
     0
  0
SCALE
  5
4A
102
{ACAD_REACTORS
330
47
102
}
330
47
100
AcDbScale
 70
     0
300
1:4
140
1.0
141
4.0
290
     0
  0
SCALE
  5
4B
102
{ACAD_REACTORS
330
47
102
}
330
47
100
AcDbScale
 70
     0
300
1:5
140
1.0
141
5.0
290
     0
  0
SCALE
  5
4C
102
{ACAD_REACTORS
330
47
102
}
330
47
100
AcDbScale
 70
     0
300
1:8
140
1.0
141
8.0
290
     0
  0
SCALE
  5
4D
102
{ACAD_REACTORS
330
47
102
}
330
47
100
AcDbScale
 70
     0
300
1:10
140
1.0
141
10.0
290
     0
  0
SCALE
  5
4E
102
{ACAD_REACTORS
330
47
102
}
330
47
100
AcDbScale
 70
     0
300
1:16
140
1.0
141
16.0
290
     0
  0
SCALE
  5
4F
102
{ACAD_REACTORS
330
47
102
}
330
47
100
AcDbScale
 70
     0
300
1:20
140
1.0
141
20.0
290
     0
  0
SCALE
  5
50
102
{ACAD_REACTORS
330
47
102
}
330
47
100
AcDbScale
 70
     0
300
1:30
140
1.0
141
30.0
290
     0
  0
SCALE
  5
51
102
{ACAD_REACTORS
330
47
102
}
330
47
100
AcDbScale
 70
     0
300
1:40
140
1.0
141
40.0
290
     0
  0
SCALE
  5
52
102
{ACAD_REACTORS
330
47
102
}
330
47
100
AcDbScale
 70
     0
300
1:50
140
1.0
141
50.0
290
     0
  0
SCALE
  5
53
102
{ACAD_REACTORS
330
47
102
}
330
47
100
AcDbScale
 70
     0
300
1:100
140
1.0
141
100.0
290
     0
  0
SCALE
  5
54
102
{ACAD_REACTORS
330
47
102
}
330
47
100
AcDbScale
 70
     0
300
2:1
140
2.0
141
1.0
290
     0
  0
SCALE
  5
55
102
{ACAD_REACTORS
330
47
102
}
330
47
100
AcDbScale
 70
     0
300
4:1
140
4.0
141
1.0
290
     0
  0
SCALE
  5
56
102
{ACAD_REACTORS
330
47
102
}
330
47
100
AcDbScale
 70
     0
300
8:1
140
8.0
141
1.0
290
     0
  0
SCALE
  5
57
102
{ACAD_REACTORS
330
47
102
}
330
47
100
AcDbScale
 70
     0
300
10:1
140
10.0
141
1.0
290
     0
  0
SCALE
  5
58
102
{ACAD_REACTORS
330
47
102
}
330
47
100
AcDbScale
 70
     0
300
100:1
140
100.0
141
1.0
290
     0
  0
SCALE
  5
59
102
{ACAD_REACTORS
330
47
102
}
330
47
100
AcDbScale
 70
     0
300
1/128" = 1'-0"
140
0.0078125
141
12.0
290
     0
  0
SCALE
  5
5A
102
{ACAD_REACTORS
330
47
102
}
330
47
100
AcDbScale
 70
     0
300
1/64" = 1'-0"
140
0.015625
141
12.0
290
     0
  0
SCALE
  5
5B
102
{ACAD_REACTORS
330
47
102
}
330
47
100
AcDbScale
 70
     0
300
1/32" = 1'-0"
140
0.03125
141
12.0
290
     0
  0
SCALE
  5
5C
102
{ACAD_REACTORS
330
47
102
}
330
47
100
AcDbScale
 70
     0
300
1/16" = 1'-0"
140
0.0625
141
12.0
290
     0
  0
SCALE
  5
5D
102
{ACAD_REACTORS
330
47
102
}
330
47
100
AcDbScale
 70
     0
300
3/32" = 1'-0"
140
0.09375
141
12.0
290
     0
  0
SCALE
  5
5E
102
{ACAD_REACTORS
330
47
102
}
330
47
100
AcDbScale
 70
     0
300
1/8" = 1'-0"
140
0.125
141
12.0
290
     0
  0
SCALE
  5
5F
102
{ACAD_REACTORS
330
47
102
}
330
47
100
AcDbScale
 70
     0
300
3/16" = 1'-0"
140
0.1875
141
12.0
290
     0
  0
SCALE
  5
60
102
{ACAD_REACTORS
330
47
102
}
330
47
100
AcDbScale
 70
     0
300
1/4" = 1'-0"
140
0.25
141
12.0
290
     0
  0
SCALE
  5
61
102
{ACAD_REACTORS
330
47
102
}
330
47
100
AcDbScale
 70
     0
300
3/8" = 1'-0"
140
0.375
141
12.0
290
     0
  0
SCALE
  5
62
102
{ACAD_REACTORS
330
47
102
}
330
47
100
AcDbScale
 70
     0
300
1/2" = 1'-0"
140
0.5
141
12.0
290
     0
  0
SCALE
  5
63
102
{ACAD_REACTORS
330
47
102
}
330
47
100
AcDbScale
 70
     0
300
3/4" = 1'-0"
140
0.75
141
12.0
290
     0
  0
SCALE
  5
64
102
{ACAD_REACTORS
330
47
102
}
330
47
100
AcDbScale
 70
     0
300
1" = 1'-0"
140
1.0
141
12.0
290
     0
  0
SCALE
  5
65
102
{ACAD_REACTORS
330
47
102
}
330
47
100
AcDbScale
 70
     0
300
1-1/2" = 1'-0"
140
1.5
141
12.0
290
     0
  0
SCALE
  5
66
102
{ACAD_REACTORS
330
47
102
}
330
47
100
AcDbScale
 70
     0
300
3" = 1'-0"
140
3.0
141
12.0
290
     0
  0
SCALE
  5
67
102
{ACAD_REACTORS
330
47
102
}
330
47
100
AcDbScale
 70
     0
300
6" = 1'-0"
140
6.0
141
12.0
290
     0
  0
SCALE
  5
68
102
{ACAD_REACTORS
330
47
102
}
330
47
100
AcDbScale
 70
     0
300
1'-0" = 1'-0"
140
12.0
141
12.0
290
     0
  0
ENDSEC
  0
EOF
